  0
SECTION
  2
HEADER
  9
$ACADVER
  1
AC1024
  9
$ACADMAINTVER
 70
     6
  9
$DWGCODEPAGE
  3
ANSI_1252
  9
$INSBASE
 10
0.0
 20
0.0
 30
0.0
  9
$EXTMIN
 10
0.0
 20
0.0
 30
-0.0000000000000733
  9
$EXTMAX
 10
594.0
 20
420.0
 30
0.0000000000000733
  9
$LIMMIN
 10
0.0
 20
0.0
  9
$LIMMAX
 10
148.5
 20
105.0
  9
$ORTHOMODE
 70
     1
  9
$REGENMODE
 70
     1
  9
$FILLMODE
 70
     1
  9
$QTEXTMODE
 70
     0
  9
$MIRRTEXT
 70
     1
  9
$LTSCALE
 40
8.0
  9
$ATTMODE
 70
     1
  9
$TEXTSIZE
 40
2.5
  9
$TRACEWID
 40
1.0
  9
$TEXTSTYLE
  7
Standard
  9
$CLAYER
  8
09-01
  9
$CELTYPE
  6
ByLayer
  9
$CECOLOR
 62
   256
  9
$CELTSCALE
 40
1.0
  9
$DISPSILH
 70
     0
  9
$DIMSCALE
 40
1.0
  9
$DIMASZ
 40
2.5
  9
$DIMEXO
 40
0.625
  9
$DIMDLI
 40
0.0
  9
$DIMRND
 40
0.0
  9
$DIMDLE
 40
0.0
  9
$DIMEXE
 40
1.25
  9
$DIMTP
 40
0.0
  9
$DIMTM
 40
0.0
  9
$DIMTXT
 40
2.5
  9
$DIMCEN
 40
2.5
  9
$DIMTSZ
 40
0.0
  9
$DIMTOL
 70
     0
  9
$DIMLIM
 70
     0
  9
$DIMTIH
 70
     0
  9
$DIMTOH
 70
     0
  9
$DIMSE1
 70
     0
  9
$DIMSE2
 70
     0
  9
$DIMTAD
 70
     1
  9
$DIMZIN
 70
     8
  9
$DIMBLK
  1

  9
$DIMASO
 70
     1
  9
$DIMSHO
 70
     1
  9
$DIMPOST
  1

  9
$DIMAPOST
  1

  9
$DIMALT
 70
     0
  9
$DIMALTD
 70
     3
  9
$DIMALTF
 40
0.03937007874016
  9
$DIMLFAC
 40
1.0
  9
$DIMTOFL
 70
     1
  9
$DIMTVP
 40
0.0
  9
$DIMTIX
 70
     0
  9
$DIMSOXD
 70
     0
  9
$DIMSAH
 70
     0
  9
$DIMBLK1
  1

  9
$DIMBLK2
  1

  9
$DIMSTYLE
  2
Wagner
  9
$DIMCLRD
 70
     4
  9
$DIMCLRE
 70
     4
  9
$DIMCLRT
 70
     1
  9
$DIMTFAC
 40
1.0
  9
$DIMGAP
 40
0.625
  9
$DIMJUST
 70
     0
  9
$DIMSD1
 70
     0
  9
$DIMSD2
 70
     0
  9
$DIMTOLJ
 70
     0
  9
$DIMTZIN
 70
     8
  9
$DIMALTZ
 70
     0
  9
$DIMALTTZ
 70
     0
  9
$DIMUPT
 70
     0
  9
$DIMDEC
 70
     8
  9
$DIMTDEC
 70
     8
  9
$DIMALTU
 70
     2
  9
$DIMALTTD
 70
     3
  9
$DIMTXSTY
  7
ROMANS
  9
$DIMAUNIT
 70
     0
  9
$DIMADEC
 70
     2
  9
$DIMALTRND
 40
0.0
  9
$DIMAZIN
 70
     2
  9
$DIMDSEP
 70
    44
  9
$DIMATFIT
 70
     3
  9
$DIMFRAC
 70
     0
  9
$DIMLDRBLK
  1

  9
$DIMLUNIT
 70
     2
  9
$DIMLWD
 70
    -2
  9
$DIMLWE
 70
    -2
  9
$DIMTMOVE
 70
     2
  9
$DIMFXL
 40
1.0
  9
$DIMFXLON
 70
     0
  9
$DIMJOGANG
 40
0.7853981633974483
  9
$DIMTFILL
 70
     0
  9
$DIMTFILLCLR
 70
     0
  9
$DIMARCSYM
 70
     0
  9
$DIMLTYPE
  6

  9
$DIMLTEX1
  6

  9
$DIMLTEX2
  6

  9
$DIMTXTDIRECTION
 70
     0
  9
$LUNITS
 70
     2
  9
$LUPREC
 70
     1
  9
$SKETCHINC
 40
1.0
  9
$FILLETRAD
 40
0.0
  9
$AUNITS
 70
     0
  9
$AUPREC
 70
     0
  9
$MENU
  1
.
  9
$ELEVATION
 40
0.0
  9
$PELEVATION
 40
0.0
  9
$THICKNESS
 40
0.0
  9
$LIMCHECK
 70
     0
  9
$CHAMFERA
 40
10.0
  9
$CHAMFERB
 40
10.0
  9
$CHAMFERC
 40
20.0
  9
$CHAMFERD
 40
0.0
  9
$SKPOLY
 70
     0
  9
$TDCREATE
 40
2453810.703185035
  9
$TDUCREATE
 40
2453810.619851702
  9
$TDUPDATE
 40
2456883.393715208
  9
$TDUUPDATE
 40
2456883.310381875
  9
$TDINDWG
 40
0.0646329745
  9
$TDUSRTIMER
 40
0.0646329745
  9
$USRTIMER
 70
     1
  9
$ANGBASE
 50
0.0
  9
$ANGDIR
 70
     0
  9
$PDMODE
 70
     0
  9
$PDSIZE
 40
-1.0
  9
$PLINEWID
 40
0.0
  9
$SPLFRAME
 70
     0
  9
$SPLINETYPE
 70
     6
  9
$SPLINESEGS
 70
     8
  9
$HANDSEED
  5
22A
  9
$SURFTAB1
 70
     6
  9
$SURFTAB2
 70
     6
  9
$SURFTYPE
 70
     6
  9
$SURFU
 70
     6
  9
$SURFV
 70
     6
  9
$UCSBASE
  2

  9
$UCSNAME
  2

  9
$UCSORG
 10
0.0
 20
0.0
 30
0.0
  9
$UCSXDIR
 10
1.0
 20
0.0
 30
0.0
  9
$UCSYDIR
 10
0.0
 20
1.0
 30
0.0
  9
$UCSORTHOREF
  2

  9
$UCSORTHOVIEW
 70
     0
  9
$UCSORGTOP
 10
0.0
 20
0.0
 30
0.0
  9
$UCSORGBOTTOM
 10
0.0
 20
0.0
 30
0.0
  9
$UCSORGLEFT
 10
0.0
 20
0.0
 30
0.0
  9
$UCSORGRIGHT
 10
0.0
 20
0.0
 30
0.0
  9
$UCSORGFRONT
 10
0.0
 20
0.0
 30
0.0
  9
$UCSORGBACK
 10
0.0
 20
0.0
 30
0.0
  9
$PUCSBASE
  2

  9
$PUCSNAME
  2

  9
$PUCSORG
 10
0.0
 20
0.0
 30
0.0
  9
$PUCSXDIR
 10
1.0
 20
0.0
 30
0.0
  9
$PUCSYDIR
 10
0.0
 20
1.0
 30
0.0
  9
$PUCSORTHOREF
  2

  9
$PUCSORTHOVIEW
 70
     0
  9
$PUCSORGTOP
 10
0.0
 20
0.0
 30
0.0
  9
$PUCSORGBOTTOM
 10
0.0
 20
0.0
 30
0.0
  9
$PUCSORGLEFT
 10
0.0
 20
0.0
 30
0.0
  9
$PUCSORGRIGHT
 10
0.0
 20
0.0
 30
0.0
  9
$PUCSORGFRONT
 10
0.0
 20
0.0
 30
0.0
  9
$PUCSORGBACK
 10
0.0
 20
0.0
 30
0.0
  9
$USERI1
 70
     0
  9
$USERI2
 70
     0
  9
$USERI3
 70
     0
  9
$USERI4
 70
     0
  9
$USERI5
 70
     0
  9
$USERR1
 40
0.0
  9
$USERR2
 40
0.0
  9
$USERR3
 40
0.0
  9
$USERR4
 40
0.0
  9
$USERR5
 40
0.0
  9
$WORLDVIEW
 70
     1
  9
$SHADEDGE
 70
     3
  9
$SHADEDIF
 70
    70
  9
$TILEMODE
 70
     1
  9
$MAXACTVP
 70
    64
  9
$PINSBASE
 10
0.0
 20
0.0
 30
0.0
  9
$PLIMCHECK
 70
     0
  9
$PEXTMIN
 10
1.000000000000000E+20
 20
1.000000000000000E+20
 30
1.000000000000000E+20
  9
$PEXTMAX
 10
-1.000000000000000E+20
 20
-1.000000000000000E+20
 30
-1.000000000000000E+20
  9
$PLIMMIN
 10
0.0
 20
0.0
  9
$PLIMMAX
 10
420.0
 20
297.0
  9
$UNITMODE
 70
     0
  9
$VISRETAIN
 70
     1
  9
$PLINEGEN
 70
     0
  9
$PSLTSCALE
 70
     1
  9
$TREEDEPTH
 70
  3020
  9
$CMLSTYLE
  2
Standard
  9
$CMLJUST
 70
     0
  9
$CMLSCALE
 40
20.0
  9
$PROXYGRAPHICS
 70
     1
  9
$MEASUREMENT
 70
     1
  9
$CELWEIGHT
370
    -1
  9
$ENDCAPS
280
     0
  9
$JOINSTYLE
280
     0
  9
$LWDISPLAY
290
     0
  9
$INSUNITS
 70
     4
  9
$HYPERLINKBASE
  1

  9
$STYLESHEET
  1

  9
$XEDIT
290
     1
  9
$CEPSNTYPE
380
     0
  9
$PSTYLEMODE
290
     1
  9
$FINGERPRINTGUID
  2
{A41DD69C-8C0A-4E68-8D35-346BA6ADDF03}
  9
$VERSIONGUID
  2
{69A25B09-E10A-4777-A6DC-289B05B7D509}
  9
$EXTNAMES
290
     1
  9
$PSVPSCALE
 40
0.0
  9
$OLESTARTUP
290
     0
  9
$SORTENTS
280
   127
  9
$INDEXCTL
280
     0
  9
$HIDETEXT
280
     1
  9
$XCLIPFRAME
280
     0
  9
$HALOGAP
280
     0
  9
$OBSCOLOR
 70
   257
  9
$OBSLTYPE
280
     0
  9
$INTERSECTIONDISPLAY
280
     0
  9
$INTERSECTIONCOLOR
 70
   257
  9
$DIMASSOC
280
     1
  9
$PROJECTNAME
  1

  9
$CAMERADISPLAY
290
     0
  9
$LENSLENGTH
 40
50.0
  9
$CAMERAHEIGHT
 40
0.0
  9
$STEPSPERSEC
 40
2.0
  9
$STEPSIZE
 40
6.0
  9
$3DDWFPREC
 40
2.0
  9
$PSOLWIDTH
 40
0.25
  9
$PSOLHEIGHT
 40
4.0
  9
$LOFTANG1
 40
1.570796326794896
  9
$LOFTANG2
 40
1.570796326794896
  9
$LOFTMAG1
 40
0.0
  9
$LOFTMAG2
 40
0.0
  9
$LOFTPARAM
 70
     7
  9
$LOFTNORMALS
280
     1
  9
$LATITUDE
 40
37.795
  9
$LONGITUDE
 40
-122.394
  9
$NORTHDIRECTION
 40
0.0
  9
$TIMEZONE
 70
 -8000
  9
$LIGHTGLYPHDISPLAY
280
     1
  9
$TILEMODELIGHTSYNCH
280
     1
  9
$CMATERIAL
347
3D
  9
$SOLIDHIST
280
     1
  9
$SHOWHIST
280
     1
  9
$DWFFRAME
280
     2
  9
$DGNFRAME
280
     0
  9
$REALWORLDSCALE
290
     1
  9
$INTERFERECOLOR
 62
     1
  9
$INTERFEREOBJVS
345
57
  9
$INTERFEREVPVS
346
58
  9
$CSHADOW
280
     0
  9
$SHADOWPLANELOCATION
 40
0.0
  0
ENDSEC
  0
SECTION
  2
CLASSES
  0
CLASS
  1
ACDBDICTIONARYWDFLT
  2
AcDbDictionaryWithDefault
  3
ObjectDBX Classes
 90
        0
 91
        1
280
     0
281
     0
  0
CLASS
  1
MATERIAL
  2
AcDbMaterial
  3
ObjectDBX Classes
 90
     1153
 91
        3
280
     0
281
     0
  0
CLASS
  1
VISUALSTYLE
  2
AcDbVisualStyle
  3
ObjectDBX Classes
 90
     4095
 91
        3
280
     0
281
     0
  0
CLASS
  1
TABLESTYLE
  2
AcDbTableStyle
  3
ObjectDBX Classes
 90
     4095
 91
        1
280
     0
281
     0
  0
CLASS
  1
SCALE
  2
AcDbScale
  3
ObjectDBX Classes
 90
     1153
 91
       33
280
     0
281
     0
  0
CLASS
  1
MLEADERSTYLE
  2
AcDbMLeaderStyle
  3
ACDB_MLEADERSTYLE_CLASS
 90
     4095
 91
        0
280
     0
281
     0
  0
CLASS
  1
SORTENTSTABLE
  2
AcDbSortentsTable
  3
ObjectDBX Classes
 90
        0
 91
        4
280
     0
281
     0
  0
CLASS
  1
CELLSTYLEMAP
  2
AcDbCellStyleMap
  3
ObjectDBX Classes
 90
     1152
 91
        1
280
     0
281
     0
  0
CLASS
  1
DICTIONARYVAR
  2
AcDbDictionaryVar
  3
ObjectDBX Classes
 90
        0
 91
        7
280
     0
281
     0
  0
CLASS
  1
SOLID_BACKGROUND
  2
AcDbSolidBackground
  3
SCENEOE
 90
     4095
 91
        0
280
     0
281
     0
  0
CLASS
  1
NPOCOLLECTION
  2
AcDbImpNonPersistentObjectsCollection
  3
ObjectDBX Classes
 90
     1153
 91
        0
280
     0
281
     0
  0
ENDSEC
  0
SECTION
  2
TABLES
  0
TABLE
  2
VPORT
  5
2D
102
{ACAD_XDICTIONARY
360
31
102
}
330
0
100
AcDbSymbolTable
 70
     1
  0
VPORT
  5
2E
330
2D
100
AcDbSymbolTableRecord
100
AcDbViewportTableRecord
  2
*Active
 70
     0
 10
0.0
 20
0.0
 11
1.0
 21
1.0
 12
265.9077646422652
 22
59.28166117319506
 13
0.0
 23
0.0
 14
10.0
 24
10.0
 15
10.0
 25
10.0
 16
0.0
 26
0.0
 36
1.0
 17
148.5000047564428
 27
104.9999999999999
 37
-0.0000000000006694
 40
677.0929296442512
 41
1.937738246505718
 42
50.0
 43
0.0
 44
0.0
 50
0.0
 51
0.0
 71
     0
 72
  1000
 73
     1
 74
     0
 75
     0
 76
     0
 77
     0
 78
     0
281
     0
 65
     1
110
0.0
120
0.0
130
0.0
111
1.0
121
0.0
131
0.0
112
0.0
122
1.0
132
0.0
 79
     0
146
0.0
348
2F
 60
     3
 61
     5
292
     1
282
     1
141
0.0
142
0.0
 63
   250
421
  3355443
  0
ENDTAB
  0
TABLE
  2
LTYPE
  5
28
330
0
100
AcDbSymbolTable
 70
     4
  0
LTYPE
  5
29
330
28
100
AcDbSymbolTableRecord
100
AcDbLinetypeTableRecord
  2
ByBlock
 70
     0
  3

 72
    65
 73
     0
 40
0.0
  0
LTYPE
  5
2A
330
28
100
AcDbSymbolTableRecord
100
AcDbLinetypeTableRecord
  2
ByLayer
 70
     0
  3

 72
    65
 73
     0
 40
0.0
  0
LTYPE
  5
15
330
28
100
AcDbSymbolTableRecord
100
AcDbLinetypeTableRecord
  2
Continuous
 70
     0
  3
Solid line
 72
    65
 73
     0
 40
0.0
  0
LTYPE
  5
1D9
330
28
100
AcDbSymbolTableRecord
100
AcDbLinetypeTableRecord
  2
AUSGEZOGEN
 70
     0
  3
Ausgezogene Linie
 72
    65
 73
     0
 40
0.0
  0
LTYPE
  5
C4
330
28
100
AcDbSymbolTableRecord
100
AcDbLinetypeTableRecord
  2
STRICHPUNKT
 70
     0
  3
Strichpunkt __ . __ . __ . __ . __ . __ . __ . 
 72
    65
 73
     4
 40
1.0
 49
0.5
 74
     0
 49
-0.25
 74
     0
 49
0.0
 74
     0
 49
-0.25
 74
     0
  0
LTYPE
  5
7D
330
28
100
AcDbSymbolTableRecord
100
AcDbLinetypeTableRecord
  2
VERDECKT
 70
     0
  3
Verdeckt __ __ __ __ __ __ __ __ __ __ __ __ __
 72
    65
 73
     2
 40
0.375
 49
0.25
 74
     0
 49
-0.125
 74
     0
  0
ENDTAB
  0
TABLE
  2
LAYER
  5
1F
102
{ACAD_XDICTIONARY
360
20
102
}
330
0
100
AcDbSymbolTable
 70
    12
  0
LAYER
  5
6
102
{ACAD_XDICTIONARY
360
7
102
}
330
1F
100
AcDbSymbolTableRecord
100
AcDbLayerTableRecord
  2
0
 70
     0
 62
     7
  6
Continuous
370
    -3
390
9
347
C
  0
LAYER
  5
8B
330
1F
100
AcDbSymbolTableRecord
100
AcDbLayerTableRecord
  2
Defpoints
 70
     0
 62
     7
  6
Continuous
290
     0
370
    -3
390
9
347
C
  0
LAYER
  5
1C2
102
{ACAD_XDICTIONARY
360
1C3
102
}
330
1F
100
AcDbSymbolTableRecord
100
AcDbLayerTableRecord
  2
01-99
 70
     0
 62
     2
  6
Continuous
370
    -3
390
9
347
C
  0
LAYER
  5
202
102
{ACAD_XDICTIONARY
360
203
102
}
330
1F
100
AcDbSymbolTableRecord
100
AcDbLayerTableRecord
  2
06-99
 70
     0
 62
     1
  6
AUSGEZOGEN
370
    -3
390
9
347
C
  0
LAYER
  5
1D6
102
{ACAD_XDICTIONARY
360
1D7
102
}
330
1F
100
AcDbSymbolTableRecord
100
AcDbLayerTableRecord
  2
02-99
 70
     0
 62
     1
  6
AUSGEZOGEN
370
    -3
390
9
347
C
  0
LAYER
  5
209
102
{ACAD_XDICTIONARY
360
20A
102
}
330
1F
100
AcDbSymbolTableRecord
100
AcDbLayerTableRecord
  2
07-99
 70
     0
 62
     6
  6
AUSGEZOGEN
370
    -3
390
9
347
C
  0
LAYER
  5
1C9
102
{ACAD_XDICTIONARY
360
1CA
102
}
330
1F
100
AcDbSymbolTableRecord
100
AcDbLayerTableRecord
  2
08-99
 70
     0
 62
     7
  6
Continuous
370
    -3
390
9
347
C
  0
LAYER
  5
1EC
102
{ACAD_XDICTIONARY
360
1ED
102
}
330
1F
100
AcDbSymbolTableRecord
100
AcDbLayerTableRecord
  2
10-98
 70
     0
 62
     4
  6
Continuous
370
    -3
390
9
347
C
  0
LAYER
  5
BD
102
{ACAD_XDICTIONARY
360
BE
102
}
330
1F
100
AcDbSymbolTableRecord
100
AcDbLayerTableRecord
  2
02-01
 70
     0
 62
     1
  6
Continuous
370
    -3
390
9
347
C
  0
LAYER
  5
C1
102
{ACAD_XDICTIONARY
360
C2
102
}
330
1F
100
AcDbSymbolTableRecord
100
AcDbLayerTableRecord
  2
05-01
 70
     0
 62
     1
  6
STRICHPUNKT
370
    -3
390
9
347
C
  0
LAYER
  5
51
102
{ACAD_XDICTIONARY
360
52
102
}
330
1F
100
AcDbSymbolTableRecord
100
AcDbLayerTableRecord
  2
09-01
 70
     0
 62
     7
  6
Continuous
370
    -3
390
9
347
C
  0
LAYER
  5
7B
102
{ACAD_XDICTIONARY
360
7C
102
}
330
1F
100
AcDbSymbolTableRecord
100
AcDbLayerTableRecord
  2
03-01
 70
     0
 62
     3
  6
VERDECKT
370
    -3
390
9
347
C
  0
ENDTAB
  0
TABLE
  2
STYLE
  5
25
330
0
100
AcDbSymbolTable
 70
     3
  0
STYLE
  5
26
330
25
100
AcDbSymbolTableRecord
100
AcDbTextStyleTableRecord
  2
Standard
 70
     0
 40
0.0
 41
1.0
 50
0.0
 71
     0
 42
2.5
  3
txt
  4

  0
STYLE
  5
1CC
330
25
100
AcDbSymbolTableRecord
100
AcDbTextStyleTableRecord
  2
ROMANS8
 70
     0
 40
0.0
 41
1.0
 50
0.0
 71
     0
 42
2.5
  3
ROMANS8
  4

  0
STYLE
  5
35
330
25
100
AcDbSymbolTableRecord
100
AcDbTextStyleTableRecord
  2
ROMANS
 70
     0
 40
0.0
 41
1.0
 50
0.0
 71
     0
 42
18.0
  3
ROMANS.SHX
  4

  0
ENDTAB
  0
TABLE
  2
VIEW
  5
2B
330
0
100
AcDbSymbolTable
 70
     0
  0
ENDTAB
  0
TABLE
  2
UCS
  5
2C
330
0
100
AcDbSymbolTable
 70
     0
  0
ENDTAB
  0
TABLE
  2
APPID
  5
32
330
0
100
AcDbSymbolTable
 70
     5
  0
APPID
  5
24
330
32
100
AcDbSymbolTableRecord
100
AcDbRegAppTableRecord
  2
ACAD
 70
     0
  0
APPID
  5
37
330
32
100
AcDbSymbolTableRecord
100
AcDbRegAppTableRecord
  2
ACAD_DSTYLE_DIMJAG
 70
     0
  0
APPID
  5
36
330
32
100
AcDbSymbolTableRecord
100
AcDbRegAppTableRecord
  2
ACAD_DSTYLE_DIMBREAK
 70
     0
  0
APPID
  5
38
330
32
100
AcDbSymbolTableRecord
100
AcDbRegAppTableRecord
  2
ACAD_DSTYLE_DIMTALN
 70
     0
  0
APPID
  5
90
330
32
100
AcDbSymbolTableRecord
100
AcDbRegAppTableRecord
  2
ACAD_DSTYLE_DIMJOGGED_JOGANGLE_SYMBOL
 70
     0
  0
ENDTAB
  0
TABLE
  2
DIMSTYLE
  5
33
330
0
100
AcDbSymbolTable
 70
     2
100
AcDbDimStyleTable
 71
     1
340
34
  0
DIMSTYLE
105
34
330
33
100
AcDbSymbolTableRecord
100
AcDbDimStyleTableRecord
  2
Wagner
 70
     0
 40
10.0
 41
2.5
 42
0.625
 43
0.0
 44
1.25
 73
     0
 74
     0
 77
     1
 78
     8
 79
     2
140
2.5
141
2.5
143
0.03937007874016
147
0.625
171
     3
172
     1
176
     4
177
     4
178
     1
179
     2
271
     8
272
     8
274
     3
278
    44
279
     2
283
     0
284
     8
340
35
1001
ACAD_DSTYLE_DIMBREAK
1070
   391
1040
3.75
1001
ACAD_DSTYLE_DIMJAG
1070
   388
1040
1.5
1001
ACAD_DSTYLE_DIMTALN
1070
   392
1070
     0
  0
DIMSTYLE
105
8F
102
{ACAD_REACTORS
330
F6
330
E9
330
DC
330
CF
330
AF
330
A0
330
93
330
7F
102
}
330
33
100
AcDbSymbolTableRecord
100
AcDbDimStyleTableRecord
  2
Wagner$0
 70
     0
 41
2.5
 42
1.0
 43
10.0
 44
1.0
 73
     0
 74
     0
 77
     1
 78
     8
 79
     2
140
2.5
141
0.0
143
0.03937007874016
147
1.0
171
     3
172
     1
174
     1
176
     4
177
     4
178
     1
179
     2
271
     8
272
     8
274
     3
279
     2
283
     0
284
     8
340
26
1001
ACAD_DSTYLE_DIMJOGGED_JOGANGLE_SYMBOL
1070
   384
1040
0.7853981633974483
1001
ACAD_DSTYLE_DIMJAG
1070
   388
1040
1.5
1001
ACAD_DSTYLE_DIMTALN
1070
   392
1070
     0
  0
ENDTAB
  0
TABLE
  2
BLOCK_RECORD
  5
1
330
0
100
AcDbSymbolTable
 70
     9
  0
BLOCK_RECORD
  5
2
102
{ACAD_XDICTIONARY
360
3
102
}
330
1
100
AcDbSymbolTableRecord
100
AcDbBlockTableRecord
  2
*Model_Space
340
17
 70
     0
280
     1
281
     0
  0
BLOCK_RECORD
  5
1B
330
1
100
AcDbSymbolTableRecord
100
AcDbBlockTableRecord
  2
*Paper_Space
340
1E
 70
     0
280
     1
281
     0
  0
BLOCK_RECORD
  5
1BD
102
{ACAD_XDICTIONARY
360
1BE
102
}
330
1
100
AcDbSymbolTableRecord
100
AcDbBlockTableRecord
  2
Wagner A4quer
340
0
102
{BLKREFS
331
1BC
102
}
 70
     4
280
     1
281
     0
  0
BLOCK_RECORD
  5
F7
330
1
100
AcDbSymbolTableRecord
100
AcDbBlockTableRecord
  2
*D1
340
0
 70
     0
280
     1
281
     0
  0
BLOCK_RECORD
  5
EA
330
1
100
AcDbSymbolTableRecord
100
AcDbBlockTableRecord
  2
*D2
340
0
 70
     0
280
     1
281
     0
  0
BLOCK_RECORD
  5
DD
330
1
100
AcDbSymbolTableRecord
100
AcDbBlockTableRecord
  2
*D3
340
0
 70
     0
280
     1
281
     0
  0
BLOCK_RECORD
  5
D0
330
1
100
AcDbSymbolTableRecord
100
AcDbBlockTableRecord
  2
*D4
340
0
 70
     0
280
     1
281
     0
  0
BLOCK_RECORD
  5
B0
330
1
100
AcDbSymbolTableRecord
100
AcDbBlockTableRecord
  2
*D5
340
0
 70
     0
280
     1
281
     0
  0
BLOCK_RECORD
  5
A1
330
1
100
AcDbSymbolTableRecord
100
AcDbBlockTableRecord
  2
*D6
340
0
 70
     0
280
     1
281
     0
  0
BLOCK_RECORD
  5
94
330
1
100
AcDbSymbolTableRecord
100
AcDbBlockTableRecord
  2
*D7
340
0
 70
     0
280
     1
281
     0
  0
BLOCK_RECORD
  5
80
330
1
100
AcDbSymbolTableRecord
100
AcDbBlockTableRecord
  2
*D8
340
0
 70
     0
280
     1
281
     0
  0
ENDTAB
  0
ENDSEC
  0
SECTION
  2
BLOCKS
  0
BLOCK
  5
5
330
2
100
AcDbEntity
  8
0
100
AcDbBlockBegin
  2
*Model_Space
 70
     0
 10
0.0
 20
0.0
 30
0.0
  3
*Model_Space
  1

  0
ENDBLK
  5
16
330
2
100
AcDbEntity
  8
0
100
AcDbBlockEnd
  0
BLOCK
  5
1C
330
1B
100
AcDbEntity
 67
     1
  8
0
100
AcDbBlockBegin
  2
*Paper_Space
 70
     0
 10
0.0
 20
0.0
 30
0.0
  3
*Paper_Space
  1

  0
ENDBLK
  5
1D
330
1B
100
AcDbEntity
 67
     1
  8
0
100
AcDbBlockEnd
  0
BLOCK
  5
1C0
330
1BD
100
AcDbEntity
  8
0
100
AcDbBlockBegin
  2
Wagner A4quer
 70
     2
 10
0.0
 20
0.0
 30
0.0
  3
Wagner A4quer
  1

  0
LINE
  5
1C1
330
1BD
100
AcDbEntity
  8
01-99
100
AcDbLine
 10
291.0
 20
6.000000000000113
 30
0.0
 11
291.0
 21
204.0
 31
0.0
  0
LINE
  5
1C5
330
1BD
100
AcDbEntity
  8
01-99
100
AcDbLine
 10
291.0
 20
6.000000000000113
 30
0.0
 11
6.0
 21
6.0
 31
0.0
  0
LINE
  5
1C6
330
1BD
100
AcDbEntity
  8
01-99
100
AcDbLine
 10
6.0
 20
6.0
 30
0.0
 11
5.999999999999886
 21
204.0
 31
0.0
  0
LINE
  5
1C7
330
1BD
100
AcDbEntity
  8
01-99
100
AcDbLine
 10
5.999999999999886
 20
204.0
 30
0.0
 11
291.0
 21
204.0
 31
0.0
  0
TEXT
  5
1C8
330
1BD
100
AcDbEntity
  8
08-99
100
AcDbText
 10
108.5
 20
13.0
 30
0.0
 40
2.5
  1
Benennung/Teil:
 51
15.0
  7
ROMANS8
100
AcDbText
  0
TEXT
  5
1CD
330
1BD
100
AcDbEntity
  8
08-99
100
AcDbText
 10
283.5
 20
13.5
 30
0.0
 40
2.5
  1
Index
 41
0.7840000000000004
 51
15.0
  7
ROMANS8
 72
     5
 11
290.5
 21
13.5
 31
0.0
100
AcDbText
  0
TEXT
  5
1CE
330
1BD
100
AcDbEntity
  8
08-99
100
AcDbText
 10
275.5
 20
13.5
 30
0.0
 40
2.5
  1
Form
 41
0.7583333333333337
 51
15.0
  7
ROMANS8
 72
     5
 11
282.0
 21
13.5
 31
0.0
100
AcDbText
  0
TEXT
  5
1CF
330
1BD
100
AcDbEntity
  8
08-99
100
AcDbText
 10
226.5
 20
13.5
 30
0.0
 40
2.5
  1
Ident-Nr.
 51
15.0
  7
ROMANS8
100
AcDbText
  0
TEXT
  5
1D0
330
1BD
100
AcDbEntity
  8
08-99
100
AcDbText
 10
202.5
 20
13.5
 30
0.0
 40
2.5
  1
Maßstab
 51
15.0
  7
ROMANS8
100
AcDbText
  0
LINE
  5
1D1
330
1BD
100
AcDbEntity
  8
01-99
100
AcDbLine
 10
225.0
 20
17.00000000000011
 30
0.0
 11
225.0
 21
6.000000000000113
 31
0.0
  0
LINE
  5
1D2
330
1BD
100
AcDbEntity
  8
01-99
100
AcDbLine
 10
275.0
 20
17.00000000000011
 30
0.0
 11
275.0
 21
6.000000000000113
 31
0.0
  0
LINE
  5
1D3
330
1BD
100
AcDbEntity
  8
01-99
100
AcDbLine
 10
283.0
 20
17.00000000000011
 30
0.0
 11
283.0
 21
6.000000000000113
 31
0.0
  0
LINE
  5
1D4
330
1BD
100
AcDbEntity
  8
01-99
100
AcDbLine
 10
200.9999999999982
 20
17.00000000000005
 30
0.0
 11
200.9999999999982
 21
6.000000000000227
 31
0.0
  0
LINE
  5
1D5
330
1BD
100
AcDbEntity
  8
02-99
100
AcDbLine
 10
196.9999999999981
 20
32.0
 30
0.0
 11
196.9999999999984
 21
52.00000000000006
 31
0.0
  0
TEXT
  5
1DA
330
1BD
100
AcDbEntity
  8
01-99
100
AcDbText
 10
275.9166666666667
 20
8.25
 30
0.0
 40
3.5
  1
A4
  7
ROMANS8
 72
     4
 11
279.0
 21
10.0
 31
0.0
100
AcDbText
  0
LINE
  5
1DB
330
1BD
100
AcDbEntity
  8
01-99
100
AcDbLine
 10
106.9999999999982
 20
52.0
 30
0.0
 11
106.9999999999982
 21
6.000000000000056
 31
0.0
  0
LINE
  5
1DC
330
1BD
100
AcDbEntity
  8
01-99
100
AcDbLine
 10
291.0
 20
17.00000000000011
 30
0.0
 11
107.0
 21
17.0
 31
0.0
  0
TEXT
  5
1DD
330
1BD
100
AcDbEntity
  8
08-99
100
AcDbText
 10
161.0
 20
18.0
 30
0.0
 40
2.5
  1
Name:
 51
15.0
  7
ROMANS8
100
AcDbText
  0
TEXT
  5
1DE
330
1BD
100
AcDbEntity
  8
08-99
100
AcDbText
 10
108.0
 20
18.0
 30
0.0
 40
2.5
  1
gezeichnet Datum:
 41
0.920547945205479
 51
15.0
  7
ROMANS8
 72
     5
 11
140.0
 21
18.0
 31
0.0
100
AcDbText
  0
LINE
  5
1DF
330
1BD
100
AcDbEntity
  8
01-99
100
AcDbLine
 10
244.0
 20
32.00000000000012
 30
0.0
 11
244.0
 21
17.0
 31
0.0
  0
LINE
  5
1E0
330
1BD
100
AcDbEntity
  8
02-99
100
AcDbLine
 10
243.9999999999982
 20
22.00000000000011
 30
0.0
 11
107.0
 21
22.0
 31
0.0
  0
LINE
  5
1E1
330
1BD
100
AcDbEntity
  8
01-99
100
AcDbLine
 10
254.0
 20
17.00000000000011
 30
0.0
 11
254.0
 21
6.000000000000113
 31
0.0
  0
TEXT
  5
1E2
330
1BD
100
AcDbEntity
  8
08-99
100
AcDbText
 10
254.5
 20
13.5
 30
0.0
 40
2.5
  1
DWG-Name
 41
0.9360000000000001
 51
15.0
  7
ROMANS8
 72
     5
 11
274.0
 21
13.5
 31
0.0
100
AcDbText
  0
LINE
  5
1E3
330
1BD
100
AcDbEntity
  8
01-99
100
AcDbLine
 10
243.9999999999982
 20
22.00000000000011
 30
0.0
 11
107.0
 21
22.0
 31
0.0
  0
LINE
  5
1E4
330
1BD
100
AcDbEntity
  8
02-99
100
AcDbLine
 10
243.9999999999982
 20
27.00000000000012
 30
0.0
 11
107.0
 21
27.0
 31
0.0
  0
LINE
  5
1E5
330
1BD
100
AcDbEntity
  8
01-99
100
AcDbLine
 10
291.0
 20
32.00000000000012
 30
0.0
 11
106.9999999999982
 21
32.0
 31
0.0
  0
LINE
  5
1E6
330
1BD
100
AcDbEntity
  8
02-99
100
AcDbLine
 10
291.0
 20
42.00000000000011
 30
0.0
 11
106.9999999999982
 21
42.0
 31
0.0
  0
LINE
  5
1E7
330
1BD
100
AcDbEntity
  8
01-99
100
AcDbLine
 10
291.0
 20
52.00000000000011
 30
0.0
 11
106.9999999999982
 21
52.0
 31
0.0
  0
TEXT
  5
1E8
330
1BD
100
AcDbEntity
  8
08-99
100
AcDbText
 10
108.5
 20
28.0
 30
0.0
 40
2.5
  1
Änderung:
 51
15.0
  7
ROMANS8
100
AcDbText
  0
TEXT
  5
1E9
330
1BD
100
AcDbEntity
  8
08-99
100
AcDbText
 10
108.5
 20
38.0
 30
0.0
 40
2.5
  1
Com:
 51
15.0
  7
ROMANS8
100
AcDbText
  0
TEXT
  5
1EA
330
1BD
100
AcDbEntity
  8
08-99
100
AcDbText
 10
198.5
 20
38.0
 30
0.0
 40
2.5
  1
Pos:
 51
15.0
  7
ROMANS8
100
AcDbText
  0
LWPOLYLINE
  5
1EB
330
1BD
100
AcDbEntity
  8
10-98
100
AcDbPolyline
 90
      133
 70
     1
 43
0.0135
 10
269.379131
 20
27.86422649999997
 10
269.6840645000001
 20
28.13023950000001
 10
269.5752319999999
 20
28.30575749999992
 10
269.4507530000001
 20
28.46427900000004
 10
269.3110595000001
 20
28.60586250000006
 10
269.1566015
 20
28.73057549999993
 10
268.9878109999999
 20
28.83846749999998
 10
268.8051245
 20
28.92959699999995
 10
268.6089875
 20
29.0040315
 10
268.3998320000001
 20
29.06182049999996
 10
268.178099
 20
29.10302250000007
 10
267.9442295
 20
29.12770499999999
 10
267.69866
 20
29.13591750000001
 10
267.4954715
 20
29.12826299999995
 10
267.2988304999999
 20
29.10563249999995
 10
267.1091555
 20
29.06851650000005
 10
266.9268695000001
 20
29.01741449999997
 10
266.752391
 20
28.95282600000001
 10
266.5861295
 20
28.87524599999995
 10
266.4285170000001
 20
28.78516949999994
 10
266.2799629999999
 20
28.68309149999993
 10
266.1408860000001
 20
28.56950700000004
 10
266.0117135000001
 20
28.44492000000002
 10
265.8928505000001
 20
28.30981650000001
 10
265.7847245000001
 20
28.16470500000003
 10
265.687754
 20
28.01007149999998
 10
265.602353
 20
27.84641550000003
 10
265.5289445000001
 20
27.67423200000002
 10
265.4679425000001
 20
27.49402499999997
 10
265.4197655
 20
27.30628049999996
 10
265.3848410000001
 20
27.11150249999992
 10
265.363574
 20
26.91018150000002
 10
265.3563965000001
 20
26.70281700000004
 10
265.363484
 20
26.48930100000007
 10
265.3845080000001
 20
26.28307050000001
 10
265.4190905
 20
26.08452599999998
 10
265.4668535000001
 20
25.8940634999999
 10
265.5274235000001
 20
25.71207900000002
 10
265.600427
 20
25.53896850000001
 10
265.6854905
 20
25.37512349999997
 10
265.782236
 20
25.22094449999997
 10
265.8902900000001
 20
25.07682299999999
 10
266.0092835
 20
24.94315949999998
 10
266.1388294999999
 20
24.82034550000003
 10
266.2785680000001
 20
24.70878149999993
 10
266.428112
 20
24.608859
 10
266.5870924999999
 20
24.52097400000003
 10
266.7551315000001
 20
24.44552700000003
 10
266.93186
 20
24.38290950000004
 10
267.1168955000001
 20
24.33351750000009
 10
267.3098735
 20
24.29774700000007
 10
267.510407
 20
24.27599399999997
 10
267.7181314999999
 20
24.26865449999997
 10
267.925199
 20
24.27528749999999
 10
268.1238515
 20
24.29503350000004
 10
268.3138505
 20
24.32764950000001
 10
268.4949575
 20
24.37289250000004
 10
268.6669385
 20
24.43052400000005
 10
268.8295505000001
 20
24.50030549999997
 10
268.9825595000001
 20
24.58199400000001
 10
269.125718
 20
24.67535550000003
 10
269.258801
 20
24.78014699999994
 10
269.3815565
 20
24.89612099999999
 10
269.493755
 20
25.02305249999995
 10
269.5951580000001
 20
25.16068499999994
 10
269.6855225000001
 20
25.30879349999998
 10
269.76461
 20
25.46712600000001
 10
269.8321865
 20
25.63544849999994
 10
269.8880135
 20
25.81351799999993
 10
269.9318435
 20
26.00109599999996
 10
269.9634515
 20
26.19794400000001
 10
269.9825900000001
 20
26.40382349999993
 10
269.9890205000002
 20
26.61848699999996
 10
269.9890205000002
 20
26.61848699999996
 10
269.9890205000002
 20
26.68336350000004
 10
267.9257525000001
 20
26.68336350000004
 10
267.9257525000001
 20
26.32001549999996
 10
269.5283555000001
 20
26.32001549999996
 10
269.5147969999999
 20
26.11478400000005
 10
269.4802865
 20
25.91952449999997
 10
269.4257150000001
 20
25.735074
 10
269.3519735
 20
25.562274
 10
269.2599620000001
 20
25.4019525
 10
269.150576
 20
25.25495999999999
 10
269.0246975
 20
25.12212
 10
268.883231
 20
25.00428299999999
 10
268.7270675
 20
24.90227249999998
 10
268.557098
 20
24.81693450000006
 10
268.374218
 20
24.74910149999994
 10
268.1793230000001
 20
24.69961500000005
 10
267.9733040000001
 20
24.66930749999995
 10
267.7570565000001
 20
24.6590205
 10
267.549152
 20
24.66905999999994
 10
267.3492845000001
 20
24.69858449999993
 10
267.158201
 20
24.74669849999998
 10
266.976644
 20
24.81251099999997
 10
266.805347
 20
24.89512649999995
 10
266.6450570000002
 20
24.9936495
 10
266.4965120000001
 20
25.1071935
 10
266.360459
 20
25.23485850000009
 10
266.237636
 20
25.37575349999997
 10
266.128781
 20
25.52898750000003
 10
266.0346410000002
 20
25.69366049999997
 10
265.955954
 20
25.86888599999998
 10
265.8934625000002
 20
26.05376849999994
 10
265.8479090000001
 20
26.24740800000007
 10
265.8200314999999
 20
26.44892250000004
 10
265.810577
 20
26.65741199999991
 10
265.8186410000001
 20
26.87000549999999
 10
265.8425090000001
 20
27.07456649999995
 10
265.881677
 20
27.27046499999995
 10
265.9356455
 20
27.45707549999997
 10
266.0039194999999
 20
27.63377249999996
 10
266.0859949999999
 20
27.79993500000001
 10
266.1813725
 20
27.95492850000005
 10
266.2895570000001
 20
28.09813650000001
 10
266.4100444999999
 20
28.22892450000006
 10
266.5423445000001
 20
28.34667149999996
 10
266.685944
 20
28.45074750000004
 10
266.8403570000001
 20
28.54053150000004
 10
267.0050750000001
 20
28.61539349999998
 10
267.179603
 20
28.67470800000001
 10
267.3634460000001
 20
28.71784949999995
 10
267.5560955000001
 20
28.74419699999999
 10
267.7570565000001
 20
28.75311599999998
 10
267.9814310000001
 20
28.74185699999998
 10
268.1957660000001
 20
28.70822399999997
 10
268.3996340000001
 20
28.65242850000004
 10
268.5926075
 20
28.57468199999994
 10
268.774259
 20
28.47520499999996
 10
268.9441655
 20
28.35420450000004
 10
269.1018995000001
 20
28.21190100000001
 10
269.2470290000001
 20
28.04850149999999
  0
LWPOLYLINE
  5
1EF
330
1BD
100
AcDbEntity
  8
10-98
100
AcDbPolyline
 90
       12
 70
     1
 43
0.0135
 10
265.6186339999999
 20
19.50090450000004
 10
267.9964970000001
 20
19.50090450000004
 10
268.1800025
 20
20.45401800000002
 10
267.0401930000001
 20
20.45401800000002
 10
267.1111310000001
 20
20.82248699999991
 10
268.1182805000001
 20
20.82248699999991
 10
268.2913685
 20
21.72154649999993
 10
267.2842190000001
 20
21.72154649999993
 10
267.3495050000001
 20
22.06055399999991
 10
268.4598350000001
 20
22.06055399999991
 10
268.643327
 20
23.01364950000004
 10
266.2949435000001
 20
23.01364950000004
  0
LWPOLYLINE
  5
1F0
330
1BD
100
AcDbEntity
  8
10-98
100
AcDbPolyline
 90
        4
 70
     1
 43
0.0135
 10
248.1560285
 20
20.29334549999999
 10
263.8848785
 20
20.29334549999999
 10
263.7288455
 20
19.5
 10
248.0
 20
19.5
  0
SOLID
  5
1F1
330
1BD
100
AcDbEntity
  8
10-98
100
AcDbTrace
 10
248.1560285
 20
20.29334549999999
 30
0.0
 11
263.8848785
 21
20.29334549999999
 31
0.0
 12
248.0
 22
19.5
 32
0.0
 13
263.7288455
 23
19.5
 33
0.0
  0
LWPOLYLINE
  5
1F2
330
1BD
100
AcDbEntity
  8
10-98
100
AcDbPolyline
 90
       10
 70
     1
 43
0.0135
 10
254.9577965000001
 20
24.26865449999997
 10
256.190549
 20
28.14971100000003
 10
257.475227
 20
24.26865449999997
 10
259.0259225
 20
29.03211599999997
 10
258.5912135
 20
29.03211599999997
 10
257.475227
 20
25.35976499999993
 10
256.190549
 20
29.21378099999993
 10
254.9577965000001
 20
25.32732450000003
 10
253.7963915
 20
29.03211599999997
 10
253.3551935000001
 20
29.03211599999997
  0
LWPOLYLINE
  5
1F3
330
1BD
100
AcDbEntity
  8
10-98
100
AcDbPolyline
 90
        3
 70
     1
 43
0.0135
 10
261.2438735000001
 20
26.32650000000001
 10
262.0678865
 20
28.34436299999993
 10
262.8594634999999
 20
26.32650000000001
  0
LWPOLYLINE
  5
1F4
330
1BD
100
AcDbEntity
  8
10-98
100
AcDbPolyline
 90
        7
 70
     1
 43
0.0135
 10
260.0554460000001
 20
24.39300749999996
 10
260.484755
 20
24.39300749999996
 10
261.1011290000001
 20
25.96316999999999
 10
262.995701
 20
25.96316999999999
 10
263.5861414999999
 20
24.39300749999996
 10
264.0468065
 20
24.39300749999996
 10
262.0938424999999
 20
29.21378099999993
  0
LWPOLYLINE
  5
1F5
330
1BD
100
AcDbEntity
  8
10-98
100
AcDbPolyline
 90
        8
 70
     1
 43
0.0135
 10
276.339353
 20
19.50090450000004
 10
277.6961390000001
 20
19.50090450000004
 10
277.8893555
 20
19.94307449999996
 10
278.8424690000002
 20
19.94307449999996
 10
278.8703375
 20
19.50090450000004
 10
280.226309
 20
19.50090450000004
 10
279.6743839999999
 20
23.01364950000004
 10
278.2692860000001
 20
23.01364950000004
  0
LWPOLYLINE
  5
1F6
330
1BD
100
AcDbEntity
  8
10-98
100
AcDbPolyline
 90
       34
 70
     1
 43
0.0135
 10
272.694974
 20
21.27939449999997
 10
272.7391954999999
 20
21.27939449999997
 10
272.7211955
 20
21.05921850000004
 10
272.7206600000001
 20
20.86742849999996
 10
272.7258350000001
 20
20.69965950000005
 10
272.7603455
 20
19.50090450000004
 10
273.8608475000001
 20
19.50090450000004
 10
275.5639535
 20
23.01364950000004
 10
274.296425
 20
23.01364950000004
 10
273.7233275000001
 20
21.46607699999998
 10
273.6600665000001
 20
21.28867349999996
 10
273.5856094999999
 20
21.05885849999993
 10
273.5113504999999
 20
20.77336050000008
 10
273.4818890000001
 20
20.77336050000008
 10
273.509321
 20
21.022647
 10
273.5150765000001
 20
21.22171349999996
 10
273.5137625000001
 20
21.372747
 10
273.4956004999999
 20
23.01364950000004
 10
272.6063735000001
 20
23.01364950000004
 10
271.956371
 20
21.372747
 10
271.896899
 20
21.22171349999996
 10
271.825997
 20
21.022647
 10
271.7574305000001
 20
20.77336050000008
 10
271.727969
 20
20.77336050000008
 10
271.763645
 20
21.05885849999993
 10
271.777685
 20
21.28867349999996
 10
271.7827295
 20
21.46607699999998
 10
271.8055490000002
 20
23.01364950000004
 10
270.537206
 20
23.01364950000004
 10
270.8885075000001
 20
19.50090450000004
 10
271.9890049999999
 20
19.50090450000004
 10
272.485103
 20
20.69965950000005
 10
272.5548934999999
 20
20.86742849999996
 10
272.6282075
 20
21.05921850000004
  0
LWPOLYLINE
  5
1F7
330
1BD
100
AcDbEntity
  8
10-98
100
AcDbPolyline
 90
       10
 70
     1
 43
0.0135
 10
278.2614020000001
 20
20.77826549999997
 10
278.4461135000001
 20
21.17621399999996
 10
278.5404965
 20
21.38383500000009
 10
278.642822
 20
21.63840000000005
 10
278.7371105
 20
21.94755900000007
 10
278.7616805
 20
21.94755900000007
 10
278.7369035000001
 20
21.63840000000005
 10
278.7412055
 20
21.38383500000009
 10
278.7556415
 20
21.17621399999996
 10
278.7870875000001
 20
20.77826549999997
  0
LWPOLYLINE
  5
1F8
330
1BD
100
AcDbEntity
  8
10-98
100
AcDbPolyline
 90
       23
 70
     1
 43
0.0135
 10
282.219278
 20
19.50090450000004
 10
283.4573270000001
 20
19.50090450000004
 10
283.680554
 20
20.66036099999997
 10
284.071451
 20
19.50090450000004
 10
285.4863635
 20
19.50090450000004
 10
284.8232705
 20
20.93057699999997
 10
285.0244835000001
 20
20.97943350000003
 10
285.207908
 20
21.0741405
 10
285.3690799999999
 20
21.21061199999997
 10
285.5035265000001
 20
21.3847485
 10
285.60677
 20
21.59245499999997
 10
285.6743375000001
 20
21.82963649999999
 10
285.7014680000002
 20
22.04544750000002
 10
285.6960409999999
 20
22.24141800000007
 10
285.6580699999999
 20
22.41687300000001
 10
285.5875685000001
 20
22.57113299999992
 10
285.484559
 20
22.70352300000002
 10
285.3490595000001
 20
22.81335899999999
 10
285.181079
 20
22.8999705
 10
284.9806444999999
 20
22.96267350000005
 10
284.7477605
 20
23.00079299999999
 10
284.4824585000001
 20
23.01364950000004
 10
282.8955875000001
 20
23.01364950000004
  0
LWPOLYLINE
  5
1F9
330
1BD
100
AcDbEntity
  8
10-98
100
AcDbPolyline
 90
        9
 70
     1
 43
0.0135
 10
283.9595899999999
 20
22.10968049999997
 10
284.1561185000001
 20
22.10968049999997
 10
284.3539340000001
 20
22.06728149999998
 10
284.456039
 20
21.94736550000005
 10
284.462348
 20
21.76086299999997
 10
284.3836205000001
 20
21.57689850000003
 10
284.2351699999999
 20
21.46172100000001
 10
284.0237060000001
 20
21.42187349999995
 10
283.8271774999999
 20
21.42187349999995
  0
LWPOLYLINE
  5
1FA
330
1BD
100
AcDbEntity
  8
10-98
100
AcDbPolyline
 90
       12
 70
     1
 43
0.0135
 10
277.9804715
 20
24.39300749999996
 10
280.2773119999999
 20
24.39300749999996
 10
280.2773119999999
 20
24.78879599999999
 10
278.4022115
 20
24.78879599999999
 10
278.4022115
 20
26.78716500000007
 10
280.2773119999999
 20
26.78716500000007
 10
280.2773119999999
 20
27.18295350000005
 10
278.4022115
 20
27.18295350000005
 10
278.4022115
 20
28.63632749999999
 10
280.2773119999999
 20
28.63632749999999
 10
280.2773119999999
 20
29.03211599999997
 10
277.9804715
 20
29.03211599999997
  0
LWPOLYLINE
  5
1FB
330
1BD
100
AcDbEntity
  8
10-98
100
AcDbPolyline
 90
        8
 70
     1
 43
0.0135
 10
272.0123195000001
 20
24.39300749999996
 10
272.434064
 20
24.39300749999996
 10
272.434064
 20
28.14322649999997
 10
275.6911595000001
 20
24.25566750000001
 10
275.6911595000001
 20
29.03211599999997
 10
275.2694329999999
 20
29.03211599999997
 10
275.2694329999999
 20
25.34677799999997
 10
272.0123195000001
 20
29.22674999999993
  0
LWPOLYLINE
  5
1FC
330
1BD
100
AcDbEntity
  8
10-98
100
AcDbPolyline
 90
       19
 70
     1
 43
0.0135
 10
282.8650955
 20
28.66228349999995
 10
283.286822
 20
28.66228349999995
 10
283.5446315
 20
28.65178049999997
 10
283.7641145
 20
28.61838599999999
 10
283.9464995000001
 20
28.55929199999991
 10
284.0929925000001
 20
28.47168599999998
 10
284.2048130000001
 20
28.35275549999995
 10
284.283176
 20
28.19968800000004
 10
284.3293054999999
 20
28.00966199999994
 10
284.344412
 20
27.7798785
 10
284.3285090000001
 20
27.55418099999997
 10
284.28044
 20
27.37091399999997
 10
284.1996830000001
 20
27.22627050000006
 10
284.0856934999999
 20
27.11645250000004
 10
283.9379495000001
 20
27.03765750000002
 10
283.755911
 20
26.98607849999997
 10
283.5390425
 20
26.95792200000005
 10
283.286822
 20
26.94938100000002
 10
282.8650955
 20
26.94938100000002
  0
LWPOLYLINE
  5
1FD
330
1BD
100
AcDbEntity
  8
10-98
100
AcDbPolyline
 90
       29
 70
     1
 43
0.0135
 10
285.2592575
 20
24.39300749999996
 10
283.591778
 20
26.60550000000001
 10
283.8296795000001
 20
26.62140750000003
 10
284.044991
 20
26.66833799999995
 10
284.236277
 20
26.74511700000005
 10
284.4020885
 20
26.85057900000004
 10
284.5409855
 20
26.98353599999996
 10
284.6515235
 20
27.14282700000001
 10
284.732267
 20
27.32726850000006
 10
284.7817715000001
 20
27.53568600000006
 10
284.7985924999999
 20
27.7669095
 10
284.7861995
 20
27.98794950000001
 10
284.7490070000001
 20
28.18752449999994
 10
284.6869790000001
 20
28.36572000000001
 10
284.600093
 20
28.5226214999999
 10
284.4883175
 20
28.65831900000001
 10
284.351621
 20
28.77290249999999
 10
284.1899765
 20
28.86645299999998
 10
284.0033525
 20
28.93906049999998
 10
283.7917219999999
 20
28.99081950000005
 10
283.5550579999999
 20
29.02180650000003
 10
283.2933245
 20
29.03211599999997
 10
283.2933245
 20
29.03211599999997
 10
282.4433555
 20
29.03211599999997
 10
282.4433555
 20
24.39300749999996
 10
282.8650955
 20
24.39300749999996
 10
282.8650955
 20
26.60550000000001
 10
283.118144
 20
26.60550000000001
 10
284.7466805
 20
24.39300749999996
  0
LWPOLYLINE
  5
1FE
330
1BD
100
AcDbEntity
  8
02-01
100
AcDbPolyline
 90
        4
 70
     1
 43
0.0
 10
0.0
 20
0.0
 10
297.0
 20
0.0
 10
297.0
 20
210.0
 10
0.0
 20
210.0
  0
ATTDEF
  5
1FF
330
1BD
100
AcDbEntity
  8
02-99
100
AcDbText
 10
254.5
 20
8.0
 30
0.0
 40
2.5
  1
.
  7
ROMANS8
100
AcDbAttributeDefinition
280
     0
  3
DWG-Name
  2
E:DOS
 70
     0
280
     0
  0
ATTDEF
  5
200
330
1BD
100
AcDbEntity
  8
01-99
100
AcDbText
 10
209.9285714285714
 20
8.0
 30
0.0
 40
3.0
  1
1:1
  7
ROMANS8
 72
     1
 11
212.5
 21
8.0
 31
0.0
100
AcDbAttributeDefinition
280
     0
  3
Maßstab
  2
E:MA
 70
     0
280
     0
  0
ATTDEF
  5
201
330
1BD
100
AcDbEntity
  8
06-99
100
AcDbText
 10
141.0
 20
18.0
 30
0.0
 40
2.5
  1
.
 41
73.5
  7
ROMANS8
 72
     5
 11
158.5
 21
18.0
 31
0.0
100
AcDbAttributeDefinition
280
     0
  3
Datum
  2
E:M6
 70
     0
280
     0
  0
ATTDEF
  5
205
330
1BD
100
AcDbEntity
  8
06-99
100
AcDbText
 10
174.0
 20
17.99999999999858
 30
0.0
 40
2.5
  1
Pfrepper
 41
0.9
  7
ROMANS8
100
AcDbAttributeDefinition
280
     0
  3
Name
  2
E:M5
 70
     0
280
     0
  0
ATTDEF
  5
206
330
1BD
100
AcDbEntity
  8
01-99
100
AcDbText
 10
108.5
 20
43.0
 30
0.0
 40
3.0
  1
.
 41
0.9
  7
ROMANS8
100
AcDbAttributeDefinition
280
     0
  3
Kunde
  2
E:M4
 70
     0
280
     0
  0
ATTDEF
  5
207
330
1BD
100
AcDbEntity
  8
01-99
100
AcDbText
 10
108.5
 20
8.0
 30
0.0
 40
3.0
  1
.
 41
0.9
  7
ROMANS8
100
AcDbAttributeDefinition
280
     0
  3
Benennung/Teil
  2
E:M3
 70
     0
280
     0
  0
ATTDEF
  5
208
330
1BD
100
AcDbEntity
  8
07-99
100
AcDbText
 10
290.9904761904762
 20
6.0
 30
0.0
 40
0.1
  1
.
  7
ROMANS8
 72
     2
 11
291.0
 21
6.0
 31
0.0
100
AcDbAttributeDefinition
280
     0
  3
unsichtbar
  2
E:M2
 70
     0
280
     0
  0
ATTDEF
  5
20C
330
1BD
100
AcDbEntity
  8
01-99
100
AcDbText
 10
225.5
 20
8.0
 30
0.0
 40
3.5
  1
.
  7
ROMANS8
100
AcDbAttributeDefinition
280
     0
  3
Ident-Nummer
  2
E:M1
 70
     0
280
     0
  0
ATTDEF
  5
20D
330
1BD
100
AcDbEntity
  8
01-99
100
AcDbText
 10
198.5
 20
33.0
 30
0.0
 40
3.0
  1
.
 41
0.9
  7
ROMANS8
100
AcDbAttributeDefinition
280
     0
  3
Positionen
  2
POS
 70
     0
280
     0
  0
ATTDEF
  5
20E
330
1BD
100
AcDbEntity
  8
01-99
100
AcDbText
 10
198.5
 20
43.0
 30
0.0
 40
3.0
  1
.
 41
0.9
  7
ROMANS8
100
AcDbAttributeDefinition
280
     0
  3
Projekt
  2
PROJ
 70
     0
280
     0
  0
ATTDEF
  5
20F
330
1BD
100
AcDbEntity
  8
01-99
100
AcDbText
 10
108.5
 20
33.0
 30
0.0
 40
3.0
  1
.
 41
0.9
  7
ROMANS8
100
AcDbAttributeDefinition
280
     0
  3
Kommission
  2
COM
 70
     0
280
     0
  0
ENDBLK
  5
210
330
1BD
100
AcDbEntity
  8
0
100
AcDbBlockEnd
  0
BLOCK
  5
F8
330
F7
100
AcDbEntity
  8
0
100
AcDbBlockBegin
  2
*D1
 70
     1
 10
0.0
 20
0.0
 30
0.0
  3
*D1
  1

  0
LINE
  5
F9
330
F7
100
AcDbEntity
  8
09-01
 62
     4
370
    -2
100
AcDbLine
 10
287.2049098761128
 20
229.7302645880723
 30
0.0
 11
287.2049098761128
 21
267.2401622018089
 31
0.0
  0
LINE
  5
FA
330
F7
100
AcDbEntity
  8
09-01
 62
     4
370
    -2
100
AcDbLine
 10
407.2049098761127
 20
207.4302645880727
 30
0.0
 11
407.2049098761127
 21
267.2401622018089
 31
0.0
  0
LINE
  5
FB
330
F7
100
AcDbEntity
  8
09-01
 62
     4
370
    -2
100
AcDbLine
 10
289.7049098761128
 20
266.2401622018089
 30
0.0
 11
404.7049098761128
 21
266.2401622018089
 31
0.0
  0
SOLID
  5
FC
330
F7
100
AcDbEntity
  8
09-01
 62
     4
100
AcDbTrace
 10
289.7049098761128
 20
266.6568288684756
 30
0.0
 11
289.7049098761128
 21
265.8234955351422
 31
0.0
 12
287.2049098761128
 22
266.2401622018089
 32
0.0
 13
287.2049098761128
 23
266.2401622018089
 33
0.0
  0
SOLID
  5
FD
330
F7
100
AcDbEntity
  8
09-01
 62
     4
100
AcDbTrace
 10
404.7049098761128
 20
266.6568288684756
 30
0.0
 11
404.7049098761128
 21
265.8234955351422
 31
0.0
 12
407.2049098761127
 22
266.2401622018089
 32
0.0
 13
407.2049098761127
 23
266.2401622018089
 33
0.0
  0
MTEXT
  5
FE
330
F7
100
AcDbEntity
  8
09-01
 62
     1
100
AcDbMText
 10
347.2049098761128
 20
268.4901622018089
 30
0.0
 40
2.5
 41
0.0
 46
0.0
 71
     5
 72
     1
  1
120
 73
     1
 44
1.0
  0
POINT
  5
FF
330
F7
100
AcDbEntity
  8
Defpoints
 62
     0
100
AcDbPoint
 10
287.2049098761128
 20
228.7302645880723
 30
0.0
  0
POINT
  5
100
330
F7
100
AcDbEntity
  8
Defpoints
 62
     0
100
AcDbPoint
 10
407.2049098761127
 20
206.4302645880727
 30
0.0
  0
POINT
  5
101
330
F7
100
AcDbEntity
  8
Defpoints
 62
     0
100
AcDbPoint
 10
407.2049098761127
 20
266.2401622018089
 30
0.0
  0
ENDBLK
  5
102
330
F7
100
AcDbEntity
  8
0
100
AcDbBlockEnd
  0
BLOCK
  5
EB
330
EA
100
AcDbEntity
  8
0
100
AcDbBlockBegin
  2
*D2
 70
     1
 10
0.0
 20
0.0
 30
0.0
  3
*D2
  1

  0
LINE
  5
EC
330
EA
100
AcDbEntity
  8
09-01
 62
     4
370
    -2
100
AcDbLine
 10
286.4049098761128
 20
357.6706727513376
 30
0.0
 11
274.7754072972532
 21
357.6706727513376
 31
0.0
  0
LINE
  5
ED
330
EA
100
AcDbEntity
  8
09-01
 62
     4
370
    -2
100
AcDbLine
 10
286.4049098761128
 20
312.6706727513376
 30
0.0
 11
274.7754072972532
 21
312.6706727513376
 31
0.0
  0
LINE
  5
EE
330
EA
100
AcDbEntity
  8
09-01
 62
     4
370
    -2
100
AcDbLine
 10
275.7754072972532
 20
355.1706727513376
 30
0.0
 11
275.7754072972532
 21
315.1706727513376
 31
0.0
  0
SOLID
  5
EF
330
EA
100
AcDbEntity
  8
09-01
 62
     4
100
AcDbTrace
 10
275.3587406305865
 20
355.1706727513376
 30
0.0
 11
276.1920739639199
 21
355.1706727513376
 31
0.0
 12
275.7754072972532
 22
357.6706727513376
 32
0.0
 13
275.7754072972532
 23
357.6706727513376
 33
0.0
  0
SOLID
  5
F0
330
EA
100
AcDbEntity
  8
09-01
 62
     4
100
AcDbTrace
 10
275.3587406305865
 20
315.1706727513376
 30
0.0
 11
276.1920739639199
 21
315.1706727513376
 31
0.0
 12
275.7754072972532
 22
312.6706727513376
 32
0.0
 13
275.7754072972532
 23
312.6706727513376
 33
0.0
  0
MTEXT
  5
F1
330
EA
100
AcDbEntity
  8
09-01
 62
     1
100
AcDbMText
 10
273.5254072972531
 20
335.1706727513377
 30
0.0
 40
2.5
 41
0.0
 46
0.0
 71
     5
 72
     1
  1
45
 11
0.0000000000000001
 21
1.0
 31
0.0
 73
     1
 44
1.0
  0
POINT
  5
F2
330
EA
100
AcDbEntity
  8
Defpoints
 62
     0
100
AcDbPoint
 10
287.4049098761128
 20
357.6706727513376
 30
0.0
  0
POINT
  5
F3
330
EA
100
AcDbEntity
  8
Defpoints
 62
     0
100
AcDbPoint
 10
287.4049098761128
 20
312.6706727513376
 30
0.0
  0
POINT
  5
F4
330
EA
100
AcDbEntity
  8
Defpoints
 62
     0
100
AcDbPoint
 10
275.7754072972532
 20
312.6706727513376
 30
0.0
  0
ENDBLK
  5
F5
330
EA
100
AcDbEntity
  8
0
100
AcDbBlockEnd
  0
BLOCK
  5
DE
330
DD
100
AcDbEntity
  8
0
100
AcDbBlockBegin
  2
*D3
 70
     1
 10
0.0
 20
0.0
 30
0.0
  3
*D3
  1

  0
LINE
  5
DF
330
DD
100
AcDbEntity
  8
09-01
 62
     4
370
    -2
100
AcDbLine
 10
408.2799027373344
 20
326.6706727513374
 30
0.0
 11
428.7177015590584
 21
326.6706727513374
 31
0.0
  0
LINE
  5
E0
330
DD
100
AcDbEntity
  8
09-01
 62
     4
370
    -2
100
AcDbLine
 10
408.2799027373344
 20
343.6706727513376
 30
0.0
 11
428.7177015590584
 21
343.6706727513376
 31
0.0
  0
LINE
  5
E1
330
DD
100
AcDbEntity
  8
09-01
 62
     4
370
    -2
100
AcDbLine
 10
427.7177015590584
 20
329.1706727513375
 30
0.0
 11
427.7177015590584
 21
341.1706727513376
 31
0.0
  0
SOLID
  5
E2
330
DD
100
AcDbEntity
  8
09-01
 62
     4
100
AcDbTrace
 10
427.3010348923917
 20
329.1706727513375
 30
0.0
 11
428.1343682257251
 21
329.1706727513375
 31
0.0
 12
427.7177015590584
 22
326.6706727513374
 32
0.0
 13
427.7177015590584
 23
326.6706727513374
 33
0.0
  0
SOLID
  5
E3
330
DD
100
AcDbEntity
  8
09-01
 62
     4
100
AcDbTrace
 10
427.3010348923917
 20
341.1706727513376
 30
0.0
 11
428.1343682257251
 21
341.1706727513376
 31
0.0
 12
427.7177015590584
 22
343.6706727513376
 32
0.0
 13
427.7177015590584
 23
343.6706727513376
 33
0.0
  0
MTEXT
  5
E4
330
DD
100
AcDbEntity
  8
09-01
 62
     1
100
AcDbMText
 10
425.4677015590583
 20
335.1706727513376
 30
0.0
 40
2.5
 41
0.0
 46
0.0
 71
     5
 72
     1
  1
17
 11
0.0000000000000001
 21
1.0
 31
0.0
 73
     1
 44
1.0
  0
POINT
  5
E5
330
DD
100
AcDbEntity
  8
Defpoints
 62
     0
100
AcDbPoint
 10
407.2799027373344
 20
326.6706727513374
 30
0.0
  0
POINT
  5
E6
330
DD
100
AcDbEntity
  8
Defpoints
 62
     0
100
AcDbPoint
 10
407.2799027373344
 20
343.6706727513376
 30
0.0
  0
POINT
  5
E7
330
DD
100
AcDbEntity
  8
Defpoints
 62
     0
100
AcDbPoint
 10
427.7177015590584
 20
343.6706727513376
 30
0.0
  0
ENDBLK
  5
E8
330
DD
100
AcDbEntity
  8
0
100
AcDbBlockEnd
  0
BLOCK
  5
D1
330
D0
100
AcDbEntity
  8
0
100
AcDbBlockBegin
  2
*D4
 70
     1
 10
0.0
 20
0.0
 30
0.0
  3
*D4
  1

  0
LINE
  5
D2
330
D0
100
AcDbEntity
  8
09-01
 62
     4
370
    -2
100
AcDbLine
 10
318.2049098761128
 20
207.430264588072
 30
0.0
 11
318.2049098761128
 21
260.3111822314201
 31
0.0
  0
LINE
  5
D3
330
D0
100
AcDbEntity
  8
09-01
 62
     4
370
    -2
100
AcDbLine
 10
407.2049098761127
 20
208.4302645880727
 30
0.0
 11
407.2049098761127
 21
260.3111822314201
 31
0.0
  0
LINE
  5
D4
330
D0
100
AcDbEntity
  8
09-01
 62
     4
370
    -2
100
AcDbLine
 10
320.7049098761128
 20
259.3111822314201
 30
0.0
 11
404.7049098761128
 21
259.3111822314201
 31
0.0
  0
SOLID
  5
D5
330
D0
100
AcDbEntity
  8
09-01
 62
     4
100
AcDbTrace
 10
320.7049098761128
 20
259.7278488980868
 30
0.0
 11
320.7049098761128
 21
258.8945155647534
 31
0.0
 12
318.2049098761128
 22
259.3111822314201
 32
0.0
 13
318.2049098761128
 23
259.3111822314201
 33
0.0
  0
SOLID
  5
D6
330
D0
100
AcDbEntity
  8
09-01
 62
     4
100
AcDbTrace
 10
404.7049098761128
 20
259.7278488980868
 30
0.0
 11
404.7049098761128
 21
258.8945155647534
 31
0.0
 12
407.2049098761127
 22
259.3111822314201
 32
0.0
 13
407.2049098761127
 23
259.3111822314201
 33
0.0
  0
MTEXT
  5
D7
330
D0
100
AcDbEntity
  8
09-01
 62
     1
100
AcDbMText
 10
362.7049098761128
 20
261.5611822314201
 30
0.0
 40
2.5
 41
0.0
 46
0.0
 71
     5
 72
     1
  1
89
 73
     1
 44
1.0
  0
POINT
  5
D8
330
D0
100
AcDbEntity
  8
Defpoints
 62
     0
100
AcDbPoint
 10
318.2049098761128
 20
206.430264588072
 30
0.0
  0
POINT
  5
D9
330
D0
100
AcDbEntity
  8
Defpoints
 62
     0
100
AcDbPoint
 10
407.2049098761127
 20
207.4302645880727
 30
0.0
  0
POINT
  5
DA
330
D0
100
AcDbEntity
  8
Defpoints
 62
     0
100
AcDbPoint
 10
407.2049098761127
 20
259.3111822314201
 30
0.0
  0
ENDBLK
  5
DB
330
D0
100
AcDbEntity
  8
0
100
AcDbBlockEnd
  0
BLOCK
  5
B1
330
B0
100
AcDbEntity
  8
0
100
AcDbBlockBegin
  2
*D5
 70
     1
 10
0.0
 20
0.0
 30
0.0
  3
*D5
  1

  0
LINE
  5
B2
330
B0
100
AcDbEntity
  8
09-01
 62
     4
370
    -2
100
AcDbLine
 10
156.8697532455001
 20
232.522042913913
 30
0.0
 11
156.8697532455001
 21
261.1241177595336
 31
0.0
  0
LINE
  5
B3
330
B0
100
AcDbEntity
  8
09-01
 62
     4
370
    -2
100
AcDbLine
 10
182.8697532455001
 20
232.522042913913
 30
0.0
 11
182.8697532455001
 21
261.1241177595336
 31
0.0
  0
LINE
  5
B4
330
B0
100
AcDbEntity
  8
09-01
 62
     4
370
    -2
100
AcDbLine
 10
159.3697532455001
 20
260.1241177595336
 30
0.0
 11
180.3697532455002
 21
260.1241177595336
 31
0.0
  0
SOLID
  5
B5
330
B0
100
AcDbEntity
  8
09-01
 62
     4
100
AcDbTrace
 10
159.3697532455001
 20
260.5407844262003
 30
0.0
 11
159.3697532455001
 21
259.7074510928669
 31
0.0
 12
156.8697532455001
 22
260.1241177595336
 32
0.0
 13
156.8697532455001
 23
260.1241177595336
 33
0.0
  0
SOLID
  5
B6
330
B0
100
AcDbEntity
  8
09-01
 62
     4
100
AcDbTrace
 10
180.3697532455002
 20
260.5407844262003
 30
0.0
 11
180.3697532455002
 21
259.7074510928669
 31
0.0
 12
182.8697532455001
 22
260.1241177595336
 32
0.0
 13
182.8697532455001
 23
260.1241177595336
 33
0.0
  0
MTEXT
  5
B7
330
B0
100
AcDbEntity
  8
09-01
 62
     1
100
AcDbMText
 10
169.8697532455001
 20
262.3741177595336
 30
0.0
 40
2.5
 41
0.0
 46
0.0
 71
     5
 72
     1
  1
26
 73
     1
 44
1.0
  0
POINT
  5
B8
330
B0
100
AcDbEntity
  8
Defpoints
 62
     0
100
AcDbPoint
 10
156.8697532455001
 20
231.522042913913
 30
0.0
  0
POINT
  5
B9
330
B0
100
AcDbEntity
  8
Defpoints
 62
     0
100
AcDbPoint
 10
182.8697532455001
 20
231.522042913913
 30
0.0
  0
POINT
  5
BA
330
B0
100
AcDbEntity
  8
Defpoints
 62
     0
100
AcDbPoint
 10
182.8697532455001
 20
260.1241177595336
 30
0.0
  0
ENDBLK
  5
BB
330
B0
100
AcDbEntity
  8
0
100
AcDbBlockEnd
  0
BLOCK
  5
A2
330
A1
100
AcDbEntity
  8
0
100
AcDbBlockBegin
  2
*D6
 70
     1
 10
0.0
 20
0.0
 30
0.0
  3
*D6
  1

  0
LINE
  5
A3
330
A1
100
AcDbEntity
  8
09-01
 62
     4
370
    -2
100
AcDbLine
 10
183.8697532455002
 20
228.5374013364266
 30
0.0
 11
211.1060026911278
 21
228.5374013364266
 31
0.0
  0
LINE
  5
A4
330
A1
100
AcDbEntity
  8
09-01
 62
     4
370
    -2
100
AcDbLine
 10
183.8697532455002
 20
223.0374013364266
 30
0.0
 11
211.1060026911278
 21
223.0374013364266
 31
0.0
  0
LINE
  5
A5
330
A1
100
AcDbEntity
  8
09-01
 62
     4
370
    -2
100
AcDbLine
 10
210.1060026911278
 20
231.0374013364266
 30
0.0
 11
210.1060026911278
 21
233.5374013364266
 31
0.0
  0
LINE
  5
A6
330
A1
100
AcDbEntity
  8
09-01
 62
     4
370
    -2
100
AcDbLine
 10
210.1060026911278
 20
220.5374013364266
 30
0.0
 11
210.1060026911278
 21
218.0374013364266
 31
0.0
  0
LINE
  5
A7
330
A1
100
AcDbEntity
  8
09-01
 62
     4
370
    -2
100
AcDbLine
 10
210.1060026911278
 20
228.5374013364266
 30
0.0
 11
210.1060026911278
 21
223.0374013364266
 31
0.0
  0
SOLID
  5
A8
330
A1
100
AcDbEntity
  8
09-01
 62
     4
100
AcDbTrace
 10
209.6893360244612
 20
231.0374013364266
 30
0.0
 11
210.5226693577944
 21
231.0374013364266
 31
0.0
 12
210.1060026911278
 22
228.5374013364266
 32
0.0
 13
210.1060026911278
 23
228.5374013364266
 33
0.0
  0
SOLID
  5
A9
330
A1
100
AcDbEntity
  8
09-01
 62
     4
100
AcDbTrace
 10
209.6893360244612
 20
220.5374013364266
 30
0.0
 11
210.5226693577944
 21
220.5374013364266
 31
0.0
 12
210.1060026911278
 22
223.0374013364266
 32
0.0
 13
210.1060026911278
 23
223.0374013364266
 33
0.0
  0
MTEXT
  5
AA
330
A1
100
AcDbEntity
  8
09-01
 62
     1
100
AcDbMText
 10
207.8560026911278
 20
225.7874013364267
 30
0.0
 40
2.5
 41
0.0
 46
0.0
 71
     5
 72
     1
  1
5.5
 11
0.0000000000000001
 21
1.0
 31
0.0
 73
     1
 44
1.0
  0
POINT
  5
AB
330
A1
100
AcDbEntity
  8
Defpoints
 62
     0
100
AcDbPoint
 10
182.8697532455002
 20
228.5374013364266
 30
0.0
  0
POINT
  5
AC
330
A1
100
AcDbEntity
  8
Defpoints
 62
     0
100
AcDbPoint
 10
182.8697532455002
 20
223.0374013364266
 30
0.0
  0
POINT
  5
AD
330
A1
100
AcDbEntity
  8
Defpoints
 62
     0
100
AcDbPoint
 10
210.1060026911278
 20
223.0374013364266
 30
0.0
  0
ENDBLK
  5
AE
330
A1
100
AcDbEntity
  8
0
100
AcDbBlockEnd
  0
BLOCK
  5
95
330
94
100
AcDbEntity
  8
0
100
AcDbBlockBegin
  2
*D7
 70
     1
 10
0.0
 20
0.0
 30
0.0
  3
*D7
  1

  0
LINE
  5
96
330
94
100
AcDbEntity
  8
09-01
 62
     4
370
    -2
100
AcDbLine
 10
306.8424063067237
 20
343.1706727513376
 30
0.0
 11
308.588086655705
 21
343.1706727513376
 31
0.0
  0
LINE
  5
97
330
94
100
AcDbEntity
  8
09-01
 62
     4
370
    -2
100
AcDbLine
 10
306.8424063067237
 20
327.1706727513376
 30
0.0
 11
308.588086655705
 21
327.1706727513376
 31
0.0
  0
LINE
  5
98
330
94
100
AcDbEntity
  8
09-01
 62
     4
370
    -2
100
AcDbLine
 10
307.588086655705
 20
340.6706727513376
 30
0.0
 11
307.588086655705
 21
329.6706727513377
 31
0.0
  0
SOLID
  5
99
330
94
100
AcDbEntity
  8
09-01
 62
     4
100
AcDbTrace
 10
307.1714199890383
 20
340.6706727513376
 30
0.0
 11
308.0047533223716
 21
340.6706727513376
 31
0.0
 12
307.588086655705
 22
343.1706727513376
 32
0.0
 13
307.588086655705
 23
343.1706727513376
 33
0.0
  0
SOLID
  5
9A
330
94
100
AcDbEntity
  8
09-01
 62
     4
100
AcDbTrace
 10
307.1714199890383
 20
329.6706727513377
 30
0.0
 11
308.0047533223716
 21
329.6706727513377
 31
0.0
 12
307.588086655705
 22
327.1706727513376
 32
0.0
 13
307.588086655705
 23
327.1706727513376
 33
0.0
  0
MTEXT
  5
9B
330
94
100
AcDbEntity
  8
09-01
 62
     1
100
AcDbMText
 10
305.3380866557049
 20
335.1706727513377
 30
0.0
 40
2.5
 41
0.0
 46
0.0
 71
     5
 72
     1
  1
16
 11
0.0000000000000001
 21
1.0
 31
0.0
 73
     1
 44
1.0
  0
POINT
  5
9C
330
94
100
AcDbEntity
  8
Defpoints
 62
     0
100
AcDbPoint
 10
305.8424063067237
 20
343.1706727513376
 30
0.0
  0
POINT
  5
9D
330
94
100
AcDbEntity
  8
Defpoints
 62
     0
100
AcDbPoint
 10
305.8424063067237
 20
327.1706727513376
 30
0.0
  0
POINT
  5
9E
330
94
100
AcDbEntity
  8
Defpoints
 62
     0
100
AcDbPoint
 10
307.588086655705
 20
327.1706727513376
 30
0.0
  0
ENDBLK
  5
9F
330
94
100
AcDbEntity
  8
0
100
AcDbBlockEnd
  0
BLOCK
  5
81
330
80
100
AcDbEntity
  8
0
100
AcDbBlockBegin
  2
*D8
 70
     1
 10
0.0
 20
0.0
 30
0.0
  3
*D8
  1

  0
LINE
  5
82
330
80
100
AcDbEntity
  8
09-01
 62
     4
370
    -2
100
AcDbLine
 10
287.2049098761128
 20
358.4706727513376
 30
0.0
 11
287.2049098761128
 21
371.5272018069698
 31
0.0
  0
LINE
  5
83
330
80
100
AcDbEntity
  8
09-01
 62
     4
370
    -2
100
AcDbLine
 10
293.2049098761129
 20
358.4706727513374
 30
0.0
 11
293.2049098761129
 21
371.5272018069698
 31
0.0
  0
LINE
  5
84
330
80
100
AcDbEntity
  8
09-01
 62
     4
370
    -2
100
AcDbLine
 10
284.7049098761128
 20
370.5272018069698
 30
0.0
 11
282.2049098761128
 21
370.5272018069698
 31
0.0
  0
LINE
  5
85
330
80
100
AcDbEntity
  8
09-01
 62
     4
370
    -2
100
AcDbLine
 10
295.7049098761129
 20
370.5272018069698
 30
0.0
 11
298.2049098761129
 21
370.5272018069698
 31
0.0
  0
LINE
  5
86
330
80
100
AcDbEntity
  8
09-01
 62
     4
370
    -2
100
AcDbLine
 10
287.2049098761128
 20
370.5272018069698
 30
0.0
 11
293.2049098761129
 21
370.5272018069698
 31
0.0
  0
SOLID
  5
87
330
80
100
AcDbEntity
  8
09-01
 62
     4
100
AcDbTrace
 10
284.7049098761128
 20
370.9438684736365
 30
0.0
 11
284.7049098761128
 21
370.1105351403031
 31
0.0
 12
287.2049098761128
 22
370.5272018069698
 32
0.0
 13
287.2049098761128
 23
370.5272018069698
 33
0.0
  0
SOLID
  5
88
330
80
100
AcDbEntity
  8
09-01
 62
     4
100
AcDbTrace
 10
295.7049098761129
 20
370.9438684736365
 30
0.0
 11
295.7049098761129
 21
370.1105351403031
 31
0.0
 12
293.2049098761129
 22
370.5272018069698
 32
0.0
 13
293.2049098761129
 23
370.5272018069698
 33
0.0
  0
MTEXT
  5
89
330
80
100
AcDbEntity
  8
09-01
 62
     1
100
AcDbMText
 10
290.2049098761129
 20
372.7772018069698
 30
0.0
 40
2.5
 41
0.0
 46
0.0
 71
     5
 72
     1
  1
6
 73
     1
 44
1.0
  0
POINT
  5
8A
330
80
100
AcDbEntity
  8
Defpoints
 62
     0
100
AcDbPoint
 10
287.2049098761128
 20
357.4706727513376
 30
0.0
  0
POINT
  5
8C
330
80
100
AcDbEntity
  8
Defpoints
 62
     0
100
AcDbPoint
 10
293.2049098761129
 20
357.4706727513373
 30
0.0
  0
POINT
  5
8D
330
80
100
AcDbEntity
  8
Defpoints
 62
     0
100
AcDbPoint
 10
293.2049098761129
 20
370.5272018069698
 30
0.0
  0
ENDBLK
  5
8E
330
80
100
AcDbEntity
  8
0
100
AcDbBlockEnd
  0
ENDSEC
  0
SECTION
  2
ENTITIES
  0
LINE
  5
7A
330
2
100
AcDbEntity
  8
03-01
100
AcDbLine
 10
135.3993979907512
 20
339.6709001154354
 30
0.0
 11
125.387466940605
 21
339.6709001154354
 31
0.0
  0
LINE
  5
7E
330
2
100
AcDbEntity
  8
03-01
100
AcDbLine
 10
214.3520077205296
 20
339.6709001154354
 30
0.0
 11
204.3401085002472
 21
339.6709001154354
 31
0.0
  0
DIMENSION
  5
7F
330
2
100
AcDbEntity
  8
09-01
100
AcDbDimension
280
     0
  2
*D8
 10
293.2049098761129
 20
370.5272018069698
 30
0.0
 11
290.2049098761129
 21
372.7772018069698
 31
0.0
 71
     5
 42
6.000000000000056
 73
     0
 74
     0
 75
     0
  3
Wagner$0
100
AcDbAlignedDimension
 13
287.2049098761128
 23
357.4706727513376
 33
0.0
 14
293.2049098761129
 24
357.4706727513373
 34
0.0
100
AcDbRotatedDimension
  0
ARC
  5
91
330
2
100
AcDbEntity
  8
03-01
100
AcDbCircle
 10
362.9799027373347
 20
388.1790060846709
 30
0.0
 40
59.50833333333337
100
AcDbArc
 50
228.4847029969345
 51
311.5152970030711
  0
ARC
  5
92
330
2
100
AcDbEntity
  8
03-01
100
AcDbCircle
 10
169.8697532454992
 20
388.1790060846709
 30
0.0
 40
59.50833333333337
100
AcDbArc
 50
228.7027088788996
 51
311.2972911211004
  0
DIMENSION
  5
93
330
2
100
AcDbEntity
  8
09-01
100
AcDbDimension
280
     0
  2
*D7
 10
307.588086655705
 20
327.1706727513376
 30
0.0
 11
305.3380866557049
 21
335.1706727513377
 31
0.0
 71
     5
 42
16.0
 73
     0
 74
     0
 75
     0
  3
Wagner$0
100
AcDbAlignedDimension
 13
305.8424063067237
 23
343.1706727513376
 33
0.0
 14
305.8424063067237
 24
327.1706727513376
 34
0.0
 50
90.0
100
AcDbRotatedDimension
  0
DIMENSION
  5
A0
330
2
100
AcDbEntity
  8
09-01
100
AcDbDimension
280
     0
  2
*D6
 10
210.1060026911278
 20
223.0374013364266
 30
0.0
 11
207.8560026911278
 21
225.7874013364267
 31
0.0
 71
     5
 42
5.5
 73
     0
 74
     0
 75
     0
  3
Wagner$0
100
AcDbAlignedDimension
 13
182.8697532455002
 23
228.5374013364266
 33
0.0
 14
182.8697532455002
 24
223.0374013364266
 34
0.0
 50
90.0
100
AcDbRotatedDimension
  0
DIMENSION
  5
AF
330
2
100
AcDbEntity
  8
09-01
100
AcDbDimension
280
     0
  2
*D5
 10
182.8697532455001
 20
260.1241177595336
 30
0.0
 11
169.8697532455001
 21
262.3741177595336
 31
0.0
 71
     5
 42
26.0
 73
     0
 74
     0
 75
     0
  3
Wagner$0
100
AcDbAlignedDimension
 13
156.8697532455001
 23
231.522042913913
 33
0.0
 14
182.8697532455001
 24
231.522042913913
 34
0.0
100
AcDbRotatedDimension
  0
TEXT
  5
BC
330
2
100
AcDbEntity
  8
02-01
100
AcDbText
 10
152.8888756077158
 20
266.9704440767313
 30
0.0
 40
5.0
  1
Bohrbild
100
AcDbText
  0
LINE
  5
C0
330
2
100
AcDbEntity
  8
05-01
100
AcDbLine
 10
182.8697532455001
 20
231.522042913913
 30
0.0
 11
182.8697532455001
 21
220.0527597589402
 31
0.0
  0
LINE
  5
C5
330
2
100
AcDbEntity
  8
05-01
100
AcDbLine
 10
156.8697532455001
 20
231.522042913913
 30
0.0
 11
156.8697532455001
 21
220.0527597589402
 31
0.0
  0
LINE
  5
C6
330
2
100
AcDbEntity
  8
05-01
100
AcDbLine
 10
169.8697532455001
 20
247.772042913913
 30
0.0
 11
169.8697532455001
 21
203.8027597589402
 31
0.0
  0
LINE
  5
C7
330
2
100
AcDbEntity
  8
05-01
100
AcDbLine
 10
191.8543948229865
 20
225.7874013364266
 30
0.0
 11
147.8851116680137
 21
225.7874013364266
 31
0.0
  0
CIRCLE
  5
C8
330
2
100
AcDbEntity
  8
0
  6
Continuous
 62
     7
370
    15
100
AcDbCircle
 10
156.8697532455001
 20
225.7874013364266
 30
0.0
 40
2.750000000000007
  0
CIRCLE
  5
C9
330
2
100
AcDbEntity
  8
0
  6
Continuous
 62
     7
370
    15
100
AcDbCircle
 10
182.8697532455002
 20
225.7874013364266
 30
0.0
 40
2.749999999999985
  0
CIRCLE
  5
CA
330
2
100
AcDbEntity
  8
0
  6
Continuous
 62
     7
370
    15
100
AcDbCircle
 10
-182.8697532455001
 20
225.7874013364266
 30
0.0000000000006385
 40
4.749999999999985
210
0.0000000000000035
220
0.0
230
-1.0
  0
CIRCLE
  5
CB
330
2
100
AcDbEntity
  8
0
  6
Continuous
 62
     7
370
    15
100
AcDbCircle
 10
-156.8697532455001
 20
225.7874013364266
 30
0.0000000000005477
 40
4.75
210
0.0000000000000035
220
0.0
230
-1.0
  0
CIRCLE
  5
CC
330
2
100
AcDbEntity
  8
0
  6
Continuous
 62
     7
370
    15
100
AcDbCircle
 10
169.8697532455001
 20
225.7874013364266
 30
0.0
 40
3.25
  0
CIRCLE
  5
CD
330
2
100
AcDbEntity
  8
0
  6
Continuous
 62
     7
370
    15
100
AcDbCircle
 10
-169.8697532455001
 20
225.7874013364266
 30
0.0000000000005931
 40
20.99999999999999
210
0.0000000000000035
220
0.0
230
-1.0
  0
CIRCLE
  5
CE
330
2
100
AcDbEntity
  8
0
  6
Continuous
 62
     7
370
    15
100
AcDbCircle
 10
169.8697532455001
 20
225.7874013364266
 30
0.0
 40
20.79999999999999
  0
DIMENSION
  5
CF
330
2
100
AcDbEntity
  8
09-01
100
AcDbDimension
280
     0
  2
*D4
 10
407.2049098761127
 20
259.3111822314201
 30
0.0
 11
362.7049098761128
 21
261.5611822314201
 31
0.0
 71
     5
 42
89.0
 73
     0
 74
     0
 75
     0
  3
Wagner$0
100
AcDbAlignedDimension
 13
318.2049098761128
 23
206.430264588072
 33
0.0
 14
407.2049098761127
 24
207.4302645880727
 34
0.0
100
AcDbRotatedDimension
  0
DIMENSION
  5
DC
330
2
100
AcDbEntity
  8
09-01
100
AcDbDimension
280
     0
  2
*D3
 10
427.7177015590584
 20
343.6706727513376
 30
0.0
 11
425.4677015590583
 21
335.1706727513376
 31
0.0
 71
     5
 42
17.00000000000017
 73
     0
 74
     0
 75
     0
  3
Wagner$0
100
AcDbAlignedDimension
 13
407.2799027373344
 23
326.6706727513374
 33
0.0
 14
407.2799027373344
 24
343.6706727513376
 34
0.0
 50
90.0
100
AcDbRotatedDimension
  0
DIMENSION
  5
E9
330
2
100
AcDbEntity
  8
09-01
100
AcDbDimension
280
     0
  2
*D2
 10
275.7754072972532
 20
312.6706727513376
 30
0.0
 11
273.5254072972531
 21
335.1706727513377
 31
0.0
 71
     5
 42
45.0
 73
     0
 74
     0
 75
     0
  3
Wagner$0
100
AcDbAlignedDimension
 13
287.4049098761128
 23
357.6706727513376
 33
0.0
 14
287.4049098761128
 24
312.6706727513376
 34
0.0
 50
90.0
100
AcDbRotatedDimension
  0
DIMENSION
  5
F6
330
2
100
AcDbEntity
  8
09-01
100
AcDbDimension
280
     0
  2
*D1
 10
407.2049098761127
 20
266.2401622018089
 30
0.0
 11
347.2049098761128
 21
268.4901622018089
 31
0.0
 71
     5
 42
120.0
 73
     0
 74
     0
 75
     0
  3
Wagner$0
100
AcDbAlignedDimension
 13
287.2049098761128
 23
228.7302645880723
 33
0.0
 14
407.2049098761127
 24
206.4302645880727
 34
0.0
100
AcDbRotatedDimension
  0
LINE
  5
103
330
2
100
AcDbEntity
  8
0
  6
Continuous
 62
     7
370
    15
100
AcDbLine
 10
293.2049098761129
 20
228.7302645880723
 30
0.0
 11
293.2049098761129
 21
184.1302645880724
 31
0.0
  0
LINE
  5
104
330
2
100
AcDbEntity
  8
0
  6
Continuous
 62
     7
370
    15
100
AcDbLine
 10
293.0049098761129
 20
183.9302645880723
 30
0.0
 11
293.0049098761129
 21
228.9302645880724
 31
0.0
  0
LINE
  5
105
330
2
100
AcDbEntity
  8
0
  6
Continuous
 62
     7
370
    15
100
AcDbLine
 10
287.4049098761128
 20
228.9302645880724
 30
0.0
 11
287.4049098761128
 21
183.9302645880723
 31
0.0
  0
LINE
  5
106
330
2
100
AcDbEntity
  8
0
  6
Continuous
 62
     7
370
    15
100
AcDbLine
 10
287.2049098761128
 20
184.1302645880724
 30
0.0
 11
287.2049098761128
 21
228.7302645880723
 31
0.0
  0
ARC
  5
107
330
2
100
AcDbEntity
  8
0
  6
Continuous
 62
     7
370
    15
100
AcDbCircle
 10
362.7049098761128
 20
206.4302645880724
 30
0.0
 40
39.57587649060985
100
AcDbArc
 50
275.8822431285586
 51
84.11775687144226
  0
ARC
  5
108
330
2
100
AcDbEntity
  8
0
  6
Continuous
 62
     7
370
    15
100
AcDbCircle
 10
362.7049098761128
 20
206.4302645880724
 30
0.0
 40
39.57587649060985
100
AcDbArc
 50
95.88224312855777
 51
264.1177568714423
  0
ARC
  5
109
330
2
100
AcDbEntity
  8
0
  6
Continuous
 62
     7
370
    15
100
AcDbCircle
 10
362.7049098761128
 20
206.4302645880724
 30
0.0
 40
44.49999999999998
100
AcDbArc
 50
275.434086223537
 51
84.56591377646388
  0
ARC
  5
10A
330
2
100
AcDbEntity
  8
0
  6
Continuous
 62
     7
370
    15
100
AcDbCircle
 10
362.7049098761128
 20
206.4302645880724
 30
0.0
 40
44.30000000000005
100
AcDbArc
 50
275.1816045098588
 51
84.81839549014116
  0
ARC
  5
10B
330
2
100
AcDbEntity
  8
0
  6
Continuous
 62
     7
370
    15
100
AcDbCircle
 10
362.7049098761128
 20
206.4302645880724
 30
0.0
 40
44.49999999999999
100
AcDbArc
 50
95.43408622353611
 51
264.5659137764647
  0
ARC
  5
10C
330
2
100
AcDbEntity
  8
0
  6
Continuous
 62
     7
370
    15
100
AcDbCircle
 10
362.7049098761128
 20
206.4302645880724
 30
0.0
 40
44.30000000000006
100
AcDbArc
 50
95.18160450985883
 51
264.818395490142
  0
ARC
  5
10D
330
2
100
AcDbEntity
  8
0
  6
Continuous
 62
     7
370
    15
100
AcDbCircle
 10
358.5049098761128
 20
162.3298110756651
 30
0.0
 40
0.1999999999999666
100
AcDbArc
 50
354.6890595349006
 51
0.0
  0
ARC
  5
10E
330
2
100
AcDbEntity
  8
0
  6
Continuous
 62
     7
370
    15
100
AcDbCircle
 10
358.5056256839973
 20
162.3289041107865
 30
0.0
 40
0.1992050733939288
100
AcDbArc
 50
265.7129296870796
 51
354.9297468382202
  0
ARC
  5
10F
330
2
100
AcDbEntity
  8
0
  6
Continuous
 62
     7
370
    15
100
AcDbCircle
 10
362.7049098761127
 20
206.4302645880462
 30
0.0
 40
44.4999999999739
100
AcDbArc
 50
264.5659137764614
 51
275.4340862235401
  0
ARC
  5
110
330
2
100
AcDbEntity
  8
0
  6
Continuous
 62
     7
370
    15
100
AcDbCircle
 10
366.9035033901673
 20
162.3280903057853
 30
0.0
 40
0.1984465918107904
100
AcDbArc
 50
184.8538327447813
 51
274.5034907635526
  0
ARC
  5
111
330
2
100
AcDbEntity
  8
0
  6
Continuous
 62
     7
370
    15
100
AcDbCircle
 10
366.9049098761127
 20
162.3298110756651
 30
0.0
 40
0.1999999999999666
100
AcDbArc
 50
180.0
 51
185.3109404650994
  0
ARC
  5
112
330
2
100
AcDbEntity
  8
0
  6
Continuous
 62
     7
370
    15
100
AcDbCircle
 10
358.5049098761128
 20
250.5307181004796
 30
0.0
 40
0.1999999999999666
100
AcDbArc
 50
0.0
 51
5.310940465099432
  0
ARC
  5
113
330
2
100
AcDbEntity
  8
0
  6
Continuous
 62
     7
370
    15
100
AcDbCircle
 10
366.9049098761127
 20
250.5307181004796
 30
0.0
 40
0.1999999999999666
100
AcDbArc
 50
174.6890595349005
 51
180.0
  0
ARC
  5
114
330
2
100
AcDbEntity
  8
0
  6
Continuous
 62
     7
370
    15
100
AcDbCircle
 10
366.9035033901222
 20
250.5324388704041
 30
0.0
 40
0.1984465917698455
100
AcDbArc
 50
85.49650922246236
 51
175.1461672406177
  0
ARC
  5
115
330
2
100
AcDbEntity
  8
0
  6
Continuous
 62
     7
370
    15
100
AcDbCircle
 10
362.7049098761127
 20
206.4301906582414
 30
0.0
 40
44.50007359757616
100
AcDbArc
 50
84.56592279080982
 51
95.43407720918938
  0
ARC
  5
116
330
2
100
AcDbEntity
  8
0
  6
Continuous
 62
     7
370
    15
100
AcDbCircle
 10
358.5056256838763
 20
250.5316250652872
 30
0.0
 40
0.1992050735010355
100
AcDbArc
 50
5.070253115324082
 51
94.28707027572198
  0
ARC
  5
117
330
2
100
AcDbEntity
  8
0
  6
Continuous
 62
     7
370
    15
100
AcDbCircle
 10
362.7049098761128
 20
206.4302645880724
 30
0.0
 40
39.4433124939909
100
AcDbArc
 50
96.08506413467729
 51
263.9149358653227
  0
ARC
  5
118
330
2
100
AcDbEntity
  8
0
  6
Continuous
 62
     7
370
    15
100
AcDbCircle
 10
362.7049098761128
 20
206.4302645880724
 30
0.0
 40
39.4433124939909
100
AcDbArc
 50
276.0850641346789
 51
83.9149358653227
  0
ARC
  5
119
330
2
100
AcDbEntity
  8
0
  6
Continuous
 62
     7
370
    15
100
AcDbCircle
 10
358.3184803007051
 20
166.862293955604
 30
0.0
 40
0.3865715142970661
100
AcDbArc
 50
358.4473030616742
 51
31.23837696802262
  0
ARC
  5
11A
330
2
100
AcDbEntity
  8
0
  6
Continuous
 62
     7
370
    15
100
AcDbCircle
 10
367.1023509895331
 20
166.859375771957
 30
0.0
 40
0.3975129422676051
100
AcDbArc
 50
149.2250940134972
 51
181.0892259570572
  0
ARC
  5
11B
330
2
100
AcDbEntity
  8
0
  6
Continuous
 62
     7
370
    15
100
AcDbCircle
 10
367.3661501527202
 20
166.6716466934786
 30
0.0
 40
0.720700324549572
100
AcDbArc
 50
131.7666447042483
 51
147.1324545092505
  0
LWPOLYLINE
  5
11C
330
2
100
AcDbEntity
  8
0
  6
Continuous
 62
     7
370
    15
100
AcDbPolyline
 90
       57
 70
   128
 43
0.0
 10
358.5237269118236
 20
167.2091910495044
 10
358.5461734467948
 20
167.5237940595549
 10
358.587040320413
 20
167.8390732677164
 10
358.6404474537471
 20
168.1267108347438
 10
358.7093811046416
 20
168.4138652236325
 10
358.7943846260448
 20
168.7010003200571
 10
358.8955680951335
 20
168.9865462905595
 10
359.0159095193806
 20
169.2755421996736
 10
359.1541251337369
 20
169.5614330599881
 10
359.3117541429138
 20
169.8446439923547
 10
359.4890933998696
 20
170.1226625466229
 10
359.6833236309113
 20
170.3890644648715
 10
359.8998281773855
 20
170.6486043556991
 10
360.0167411319265
 20
170.7748924518067
 10
360.1393089680184
 20
170.8980493923625
 10
360.2688646878773
 20
171.0187874283618
 10
360.404678899198
 20
171.1357389785065
 10
360.6170354303005
 20
171.3004902966684
 10
360.845628419841
 20
171.4552476253059
 10
361.0899200708606
 20
171.5969475671614
 10
361.3517738430961
 20
171.7236970047757
 10
361.4848923720767
 20
171.7787035130832
 10
361.6218274381339
 20
171.8289075067674
 10
361.7621136127847
 20
171.87379764497
 10
361.9059026848696
 20
171.9130878038145
 10
362.1260317512153
 20
171.9603415857607
 10
362.3538290537709
 20
171.9931361356515
 10
362.5862264235596
 20
172.0099708486016
 10
362.8233812383336
 20
172.0099785945511
 10
363.0506028010839
 20
171.993715776986
 10
363.2786294080457
 20
171.9612643527278
 10
363.5039598821219
 20
171.9130771040922
 10
363.7266713661593
 20
171.8493351549963
 10
363.9806183171528
 20
171.7564446836086
 10
364.2269438438773
 20
171.6448271417583
 10
364.4625177752888
 20
171.5170835585701
 10
364.6881150055492
 20
171.3741306910079
 10
364.8395467096482
 20
171.2660158731625
 10
364.9847975512354
 20
171.1524534558032
 10
365.1255015352749
 20
171.0325776820146
 10
365.2597635898755
 20
170.9084235004919
 10
365.3885232511324
 20
170.7796340515502
 10
365.5110724499378
 20
170.647394186887
 10
365.6288757477755
 20
170.5105052524181
 10
365.7407800310194
 20
170.3706409987674
 10
365.8961710441288
 20
170.1583517726199
 10
366.0393505198137
 20
169.9409101085752
 10
366.1711354286855
 20
169.7182031578896
 10
366.291250589797
 20
169.4917184747383
 10
366.4017355602839
 20
169.2580404923796
 10
366.5006565741573
 20
169.0215595318671
 10
366.5884395099303
 20
168.7820524459624
 10
366.6649359459627
 20
168.5406069424759
 10
366.7507599309936
 20
168.2110562961475
 10
366.8162416735162
 20
167.8792896522653
 10
366.8615166949306
 20
167.5445931157406
 10
366.886092840402
 20
167.2091910495044
  0
ARC
  5
11D
330
2
100
AcDbEntity
  8
0
  6
Continuous
 62
     7
370
    15
100
AcDbCircle
 10
358.043669599675
 20
166.6716466935904
 30
0.0
 40
0.7207003243528991
100
AcDbArc
 50
32.86754549137376
 51
48.23335529985771
  0
LINE
  5
11E
330
2
100
AcDbEntity
  8
0
  6
Continuous
 62
     7
370
    15
100
AcDbLine
 10
358.7049098761128
 20
162.3298110756651
 30
0.0
 11
358.7049098761128
 21
166.8518192758404
 31
0.0
  0
ARC
  5
11F
330
2
100
AcDbEntity
  8
0
  6
Continuous
 62
     7
370
    15
100
AcDbCircle
 10
362.7049098761127
 20
202.3219015628484
 30
0.0
 40
40.19163223278029
100
AcDbArc
 50
264.2882849059577
 51
275.7117150940439
  0
LINE
  5
120
330
2
100
AcDbEntity
  8
0
  6
Continuous
 62
     7
370
    15
100
AcDbLine
 10
366.7049098761128
 20
166.8518192758404
 30
0.0
 11
366.7049098761128
 21
162.3298110756651
 31
0.0
  0
LWPOLYLINE
  5
121
330
2
100
AcDbEntity
  8
0
  6
Continuous
 62
     7
370
    15
100
AcDbPolyline
 90
       54
 70
   128
 43
0.0
 10
366.7049098761128
 20
166.8518192758404
 10
366.691493310644
 20
167.2403016997637
 10
366.651418387822
 20
167.6292991390683
 10
366.5838895904339
 20
168.0221692904211
 10
366.4890386549919
 20
168.4132645837735
 10
366.3924664957813
 20
168.7262596372675
 10
366.2774289261988
 20
169.0366392990625
 10
366.1435336540784
 20
169.3431632499831
 10
365.9862121998021
 20
169.6521083561763
 10
365.8072875352015
 20
169.954939300661
 10
365.6059320965442
 20
170.2494491536276
 10
365.4667033279627
 20
170.4302415638088
 10
365.3175143252633
 20
170.6064224161181
 10
365.1581194893678
 20
170.7770348492143
 10
364.983899027417
 20
170.9450699604807
 10
364.7978886401263
 20
171.1053820095001
 10
364.6000245729223
 20
171.2563114481107
 10
364.3916818392999
 20
171.3952628042428
 10
364.171144174892
 20
171.5217188769442
 10
363.9321948861408
 20
171.6363313813699
 10
363.6812865442043
 20
171.7331130143446
 10
363.4760636720884
 20
171.7950470443257
 10
363.2651863931101
 20
171.8431420428661
 10
363.0431200496915
 20
171.8770556943164
 10
362.8181189518475
 20
171.8942963562309
 10
362.5994792549429
 20
171.8945554813895
 10
362.381717154036
 20
171.8787710172284
 10
362.1592818938212
 20
171.8458783991976
 10
361.9413931583986
 20
171.7970799277717
 10
361.8053317987918
 20
171.7580722120548
 10
361.6720187513011
 20
171.7133668901354
 10
361.5403283266731
 20
171.6627515558048
 10
361.4118777308797
 20
171.6070526101533
 10
361.1674233711537
 20
171.4830830719723
 10
360.9367250354399
 20
171.3433036183642
 10
360.714626429942
 20
171.1861190210107
 10
360.5068510542064
 20
171.0171185311421
 10
360.338229870255
 20
170.8627797577749
 10
360.1795751449748
 20
170.7019535455959
 10
360.0307116777516
 20
170.535720049835
 10
359.8210162041253
 20
170.2726342670651
 10
359.6319342288069
 20
170.0006372771937
 10
359.4689573668788
 20
169.7330934229329
 10
359.3231284531111
 20
169.4602281032858
 10
359.1926174790421
 20
169.1804875873493
 10
359.0782952905972
 20
168.8972572596272
 10
358.9773890365401
 20
168.6040140493792
 10
358.89263765972
 20
168.308592368287
 10
358.823324688608
 20
168.0094868127792
 10
358.7699487373381
 20
167.7093731428475
 10
358.7415938298388
 20
167.4952531009606
 10
358.7212843263252
 20
167.2810757651246
 10
358.7090133939171
 20
167.0662957294833
 10
358.7049098761128
 20
166.8518192758404
  0
ARC
  5
122
330
2
100
AcDbEntity
  8
0
  6
Continuous
 62
     7
370
    15
100
AcDbCircle
 10
358.3074687624615
 20
246.0011534042453
 30
0.0
 40
0.3975129424975362
100
AcDbArc
 50
329.2250940229399
 51
1.089225948115444
  0
ARC
  5
123
330
2
100
AcDbEntity
  8
0
  6
Continuous
 62
     7
370
    15
100
AcDbCircle
 10
358.0436696002828
 20
246.1888824820931
 30
0.0
 40
0.7207003236041031
100
AcDbArc
 50
311.7666446885148
 51
327.1324545117126
  0
LWPOLYLINE
  5
124
330
2
100
AcDbEntity
  8
0
  6
Continuous
 62
     7
370
    15
100
AcDbPolyline
 90
       57
 70
   128
 43
0.0
 10
366.886092840402
 20
245.6513381266402
 10
366.8636463054308
 20
245.3367351165898
 10
366.8227794318126
 20
245.0214559084284
 10
366.7693722984785
 20
244.7338183414008
 10
366.700438647584
 20
244.4466639525121
 10
366.6154351261809
 20
244.1595288560875
 10
366.5142516570921
 20
243.8739828855853
 10
366.3939102328451
 20
243.5849869764711
 10
366.2556946184888
 20
243.2990961161568
 10
366.0980656093118
 20
243.01588518379
 10
365.920726352356
 20
242.7378666295217
 10
365.7264961213143
 20
242.4714647112732
 10
365.5109716281035
 20
242.2130220730978
 10
365.3935926729568
 20
242.0861725847374
 10
365.2705107842072
 20
241.9624797837821
 10
365.1408500639221
 20
241.841647190105
 10
365.0051408530277
 20
241.7247901976382
 10
364.7927843219252
 20
241.5600388794764
 10
364.5654862063032
 20
241.4060960878853
 10
364.319899681365
 20
241.2635816089835
 10
364.0580459091296
 20
241.1368321713689
 10
363.9249273801488
 20
241.0818256630614
 10
363.7883281013545
 20
241.0317369996142
 10
363.6477061394409
 20
240.9867315311747
 10
363.503917067356
 20
240.9474413723301
 10
363.2837880010103
 20
240.9001875903841
 10
363.0577757007322
 20
240.8675870634691
 10
362.823593328666
 20
240.850558327543
 10
362.5864385138919
 20
240.8505505815936
 10
362.3592169511417
 20
240.8668133991589
 10
362.1329243153585
 20
240.8989565362681
 10
361.9058598701037
 20
240.9474520720526
 10
361.6831483860663
 20
241.0111940211484
 10
361.4292014350728
 20
241.104084492536
 10
361.1845994560256
 20
241.2148446869451
 10
360.9473019769368
 20
241.3434456175746
 10
360.7217047466763
 20
241.4863984851367
 10
360.5701164040167
 20
241.5946307082877
 10
360.4250222009902
 20
241.7080757203414
 10
360.285261501443
 20
241.8271138807745
 10
360.1518556712763
 20
241.9503751301961
 10
360.0221532183122
 20
242.080004842624
 10
359.8987473022878
 20
242.2131349892577
 10
359.7808773995794
 20
242.3501032690235
 10
359.6690397212062
 20
242.4898881773772
 10
359.5134939411469
 20
242.7023958606574
 10
359.3704692324119
 20
242.9196190675693
 10
359.2385773415377
 20
243.142512779357
 10
359.1185691624286
 20
243.3688107014063
 10
359.0080058069918
 20
243.6026608505599
 10
358.9091631780683
 20
243.8389696442775
 10
358.8213251594435
 20
244.0786344805756
 10
358.7448838062629
 20
244.3199222336687
 10
358.6590598212319
 20
244.6494728799971
 10
358.5935780787094
 20
244.9812395238794
 10
358.5483030572949
 20
245.3159360604041
 10
358.5237269118236
 20
245.6513381266402
  0
ARC
  5
125
330
2
100
AcDbEntity
  8
0
  6
Continuous
 62
     7
370
    15
100
AcDbCircle
 10
367.3661501512571
 20
246.1888824814728
 30
0.0
 40
0.7207003226846655
100
AcDbArc
 50
212.8675454755999
 51
228.2333553192839
  0
ARC
  5
126
330
2
100
AcDbEntity
  8
0
  6
Continuous
 62
     7
370
    15
100
AcDbCircle
 10
367.0913394510167
 20
245.9982352204368
 30
0.0
 40
0.3865715138095227
100
AcDbArc
 50
178.4473029711321
 51
211.2383769928888
  0
LINE
  5
127
330
2
100
AcDbEntity
  8
0
  6
Continuous
 62
     7
370
    15
100
AcDbLine
 10
366.7049098761128
 20
250.5307181004796
 30
0.0
 11
366.7049098761128
 21
246.0087099003042
 31
0.0
  0
ARC
  5
128
330
2
100
AcDbEntity
  8
0
  6
Continuous
 62
     7
370
    15
100
AcDbCircle
 10
362.7049098761127
 20
210.5386276133102
 30
0.0
 40
40.19163223276654
100
AcDbArc
 50
84.2882849059544
 51
95.71171509404477
  0
LINE
  5
129
330
2
100
AcDbEntity
  8
0
  6
Continuous
 62
     7
370
    15
100
AcDbLine
 10
358.7049098761128
 20
246.0087099003042
 30
0.0
 11
358.7049098761128
 21
250.5307181004796
 31
0.0
  0
LWPOLYLINE
  5
12A
330
2
100
AcDbEntity
  8
0
  6
Continuous
 62
     7
370
    15
100
AcDbPolyline
 90
       54
 70
   128
 43
0.0
 10
358.7049098761128
 20
246.0087099003042
 10
358.7183264415815
 20
245.6202274763809
 10
358.7584013644037
 20
245.2312300370763
 10
358.8259301617918
 20
244.8383598857235
 10
358.9207810972337
 20
244.4472645923711
 10
359.0173532564443
 20
244.1342695388771
 10
359.1323908260268
 20
243.8238898770821
 10
359.2662860981472
 20
243.5173659261616
 10
359.4236075524236
 20
243.2084208199683
 10
359.6025322170241
 20
242.9055898754837
 10
359.8038876556814
 20
242.6110800225172
 10
359.9431164242629
 20
242.4302876123359
 10
360.0923054269623
 20
242.2541067600266
 10
360.2517002628577
 20
242.0834943269304
 10
360.4259207248086
 20
241.915459215664
 10
360.6119311120993
 20
241.7551471666445
 10
360.8097951793033
 20
241.6042177280342
 10
361.0181379129256
 20
241.4652663719019
 10
361.2386755773337
 20
241.3388102992003
 10
361.4776248660848
 20
241.2241977947747
 10
361.7285332080213
 20
241.1274161618
 10
361.9337560801373
 20
241.0654821318189
 10
362.1446333591155
 20
241.0173871332786
 10
362.3666997025341
 20
240.9834734818282
 10
362.5917008003781
 20
240.9662328199138
 10
362.8103404972827
 20
240.9659736947551
 10
363.0281025981896
 20
240.9817581589164
 10
363.2505378584044
 20
241.0146507769471
 10
363.468426593827
 20
241.063449248373
 10
363.6044879534339
 20
241.1024569640899
 10
363.7378010009245
 20
241.1471622860092
 10
363.8694914255525
 20
241.1977776203398
 10
363.9979420213459
 20
241.2534765659916
 10
364.242396381072
 20
241.3774461041723
 10
364.4730947167858
 20
241.5172255577807
 10
364.6951933222836
 20
241.674410155134
 10
364.9029686980191
 20
241.8434106450027
 10
365.0715898819707
 20
241.9977494183697
 10
365.2302446072509
 20
242.1585756305487
 10
365.3791080744741
 20
242.3248091263097
 10
365.5888035481003
 20
242.5878949090795
 10
365.7778855234187
 20
242.8598918989512
 10
365.9408623853469
 20
243.1274357532118
 10
366.0866912991145
 20
243.4003010728588
 10
366.2172022731835
 20
243.6800415887956
 10
366.3315244616283
 20
243.9632719165177
 10
366.4324307156854
 20
244.2565151267656
 10
366.5171820925055
 20
244.5519368078576
 10
366.5864950636176
 20
244.8510423633656
 10
366.6398710148874
 20
245.1511560332972
 10
366.6682259223867
 20
245.3652760751841
 10
366.6885354259004
 20
245.57945341102
 10
366.7008063583085
 20
245.7942334466614
 10
366.7049098761128
 20
246.0087099003042
  0
LINE
  5
12B
330
2
100
AcDbEntity
  8
0
  6
Continuous
 62
     7
370
    15
100
AcDbLine
 10
293.2049098761129
 20
228.7302645880723
 30
0.0
 11
293.0049098761129
 21
228.9302645880724
 31
0.0
  0
LINE
  5
12C
330
2
100
AcDbEntity
  8
0
  6
Continuous
 62
     7
370
    15
100
AcDbLine
 10
293.0049098761129
 20
183.9302645880723
 30
0.0
 11
293.2049098761129
 21
184.1302645880724
 31
0.0
  0
LINE
  5
12D
330
2
100
AcDbEntity
  8
0
  6
Continuous
 62
     7
370
    15
100
AcDbLine
 10
287.4049098761128
 20
183.9302645880723
 30
0.0
 11
293.0049098761129
 21
183.9302645880723
 31
0.0
  0
LINE
  5
12E
330
2
100
AcDbEntity
  8
0
  6
Continuous
 62
     7
370
    15
100
AcDbLine
 10
293.0049098761129
 20
228.9302645880724
 30
0.0
 11
287.4049098761128
 21
228.9302645880724
 31
0.0
  0
LINE
  5
12F
330
2
100
AcDbEntity
  8
0
  6
Continuous
 62
     7
370
    15
100
AcDbLine
 10
287.2049098761128
 20
184.1302645880724
 30
0.0
 11
287.4049098761128
 21
183.9302645880723
 31
0.0
  0
LINE
  5
130
330
2
100
AcDbEntity
  8
0
  6
Continuous
 62
     7
370
    15
100
AcDbLine
 10
287.4049098761128
 20
228.9302645880724
 30
0.0
 11
287.2049098761128
 21
228.7302645880723
 31
0.0
  0
LINE
  5
131
330
2
100
AcDbEntity
  8
0
  6
Continuous
 62
     7
370
    15
100
AcDbLine
 10
318.9299170148908
 20
214.4302645880724
 30
0.0
 11
293.2049098761129
 21
214.4302645880724
 31
0.0
  0
LINE
  5
132
330
2
100
AcDbEntity
  8
0
  6
Continuous
 62
     7
370
    15
100
AcDbLine
 10
293.2049098761129
 20
198.4302645880723
 30
0.0
 11
318.9299170148915
 21
198.4302645880723
 31
0.0
  0
LINE
  5
133
330
2
100
AcDbEntity
  8
0
  6
Continuous
 62
     7
370
    15
100
AcDbLine
 10
125.3697532454992
 20
326.8706727513375
 30
0.0
 11
214.3697532454992
 21
326.8706727513375
 31
0.0
  0
ARC
  5
134
330
2
100
AcDbEntity
  8
0
  6
Continuous
 62
     7
370
    15
100
AcDbCircle
 10
258.549696175908
 20
343.6845565012743
 30
0.0
 40
44.38045014038865
100
AcDbArc
 50
180.2761279702761
 51
185.4483508939448
  0
LWPOLYLINE
  5
135
330
2
100
AcDbEntity
  8
0
  6
Continuous
 62
     7
370
    15
100
AcDbPolyline
 90
       27
 70
   128
 43
0.0
 10
125.5697450649863
 20
343.4706727513376
 10
125.56735768802
 20
343.1710426469053
 10
125.56294489666
 20
342.8724639208938
 10
125.5564887667631
 20
342.5733356381961
 10
125.5481351453922
 20
342.2785770418252
 10
125.5366848113831
 20
341.954877887232
 10
125.5233072734381
 20
341.6409865552093
 10
125.5158757514869
 20
341.4859815686161
 10
125.5081127101683
 20
341.3349890969787
 10
125.5000141170889
 20
341.1872157142586
 10
125.491696679414
 20
341.0440576784204
 10
125.475286920666
 20
340.7822860740869
 10
125.4586278746337
 20
340.5387522869225
 10
125.4502141222684
 20
340.422654991703
 10
125.4419449542017
 20
340.3124401192169
 10
125.4338221909386
 20
340.2075711400232
 10
125.4259654343523
 20
340.1090557928842
 10
125.4117750500281
 20
339.9376644080833
 10
125.3990881784338
 20
339.7907940162861
 10
125.3933420226197
 20
339.7260576674435
 10
125.3881466405792
 20
339.6684227878884
 10
125.3835088792986
 20
339.6176581295779
 10
125.3795011421124
 20
339.5742948191044
 10
125.3736491231602
 20
339.5117796740621
 10
125.3703997217194
 20
339.4774663350788
 10
125.3697951391757
 20
339.4711109773673
 10
125.3698343264883
 20
339.4715231276984
  0
ARC
  5
136
330
2
100
AcDbEntity
  8
0
  6
Continuous
 62
     7
370
    15
100
AcDbCircle
 10
169.8697532454994
 20
335.1706727513376
 30
0.0
 40
22.30000000000002
100
AcDbArc
 50
22.4059210933578
 51
157.5940789066422
  0
ARC
  5
137
330
2
100
AcDbEntity
  8
0
  6
Continuous
 62
     7
370
    15
100
AcDbCircle
 10
169.8697532454994
 20
335.1706727513376
 30
0.0
 40
22.30000000000002
100
AcDbArc
 50
202.4059210933578
 51
337.5940789066422
  0
ARC
  5
138
330
2
100
AcDbEntity
  8
0
  6
Continuous
 62
     7
370
    15
100
AcDbCircle
 10
169.8697532454994
 20
335.1706727513376
 30
0.0
 40
22.50000000000003
100
AcDbArc
 50
202.1961008568216
 51
337.803899143182
  0
ARC
  5
139
330
2
100
AcDbEntity
  8
0
  6
Continuous
 62
     7
370
    15
100
AcDbCircle
 10
169.8697532454994
 20
335.1706727513376
 30
0.0
 40
22.50000000000003
100
AcDbArc
 50
22.19610085682161
 51
157.8038991431784
  0
LINE
  5
13A
330
2
100
AcDbEntity
  8
0
  6
Continuous
 62
     7
370
    15
100
AcDbLine
 10
214.1697532454991
 20
326.6706727513376
 30
0.0
 11
125.5697532454992
 21
326.6706727513376
 31
0.0
  0
ARC
  5
13B
330
2
100
AcDbEntity
  8
0
  6
Continuous
 62
     7
370
    15
100
AcDbCircle
 10
125.7485732555307
 20
343.4907362052179
 30
0.0
 40
0.1799501706444411
100
AcDbArc
 50
89.29494254609879
 51
186.4014739808691
  0
LINE
  5
13C
330
2
100
AcDbEntity
  8
0
  6
Continuous
 62
     7
370
    15
100
AcDbLine
 10
214.169761426012
 20
343.4706727513376
 30
0.0
 11
125.5697450649863
 21
343.4706727513376
 31
0.0
  0
ARC
  5
13D
330
2
100
AcDbEntity
  8
0
  6
Continuous
 62
     7
370
    15
100
AcDbCircle
 10
213.9909332354051
 20
343.4907362051824
 30
0.0
 40
0.1799501707026603
100
AcDbArc
 50
353.5985260325974
 51
90.70505743375335
  0
LINE
  5
13E
330
2
100
AcDbEntity
  8
0
  6
Continuous
 62
     7
370
    15
100
AcDbLine
 10
125.7507875897833
 20
343.6706727513376
 30
0.0
 11
213.988718901215
 21
343.6706727513376
 31
0.0
  0
LINE
  5
13F
330
2
100
AcDbEntity
  8
0
  6
Continuous
 62
     7
370
    15
100
AcDbLine
 10
125.5688546083539
 20
343.4898974123446
 30
0.0
 11
125.5685823728061
 21
343.4353667299624
 31
0.0
  0
ARC
  5
140
330
2
100
AcDbEntity
  8
0
  6
Continuous
 62
     7
370
    15
100
AcDbCircle
 10
125.5697532590495
 20
339.4706730975738
 30
0.0
 40
0.1999999808330656
100
AcDbArc
 50
174.5838866803641
 51
179.7444491342476
  0
LWPOLYLINE
  5
141
330
2
100
AcDbEntity
  8
0
  6
Continuous
 62
     7
370
    15
100
AcDbPolyline
 90
       41
 70
   128
 43
0.0
 10
125.5688996431971
 20
343.4893393861944
 10
125.5688958566266
 20
343.4876500331234
 10
125.567894814509
 20
343.3206947228844
 10
125.5662752925652
 20
343.1553611053257
 10
125.5640436998164
 20
342.9921933871867
 10
125.5612020850711
 20
342.8300074818692
 10
125.5577630977552
 20
342.6682030176801
 10
125.5537560928152
 20
342.5072678610984
 10
125.5492121804717
 20
342.3476306477373
 10
125.5441651660499
 20
342.1897265732568
 10
125.5386513055153
 20
342.0339922358951
 10
125.5327097152291
 20
341.8808782986264
 10
125.5263824044679
 20
341.7308467511741
 10
125.5197111823704
 20
341.5843021824894
 10
125.5127386050109
 20
341.4416291893597
 10
125.5055077994181
 20
341.3031687435291
 10
125.4980560878283
 20
341.16866110412
 10
125.4904017538997
 20
341.0376431737666
 10
125.4825903287952
 20
340.9103068540523
 10
125.4746762680935
 20
340.7869750027103
 10
125.4667153585373
 20
340.6679646373846
 10
125.4587642599206
 20
340.553583470408
 10
125.4508799906064
 20
340.4441262363321
 10
125.4431211887479
 20
340.3398950170272
 10
125.4355441769734
 20
340.2411491063692
 10
125.4282034682401
 20
340.1481186717881
 10
125.4211517450163
 20
340.0610092274569
 10
125.4144447695962
 20
339.9800463230288
 10
125.4080716142236
 20
339.9046842411356
 10
125.4020893744624
 20
339.8352970352783
 10
125.3965414059437
 20
339.772078781602
 10
125.3914508174009
 20
339.7149844041442
 10
125.3868414241436
 20
339.6639783531202
 10
125.382747480459
 20
339.6191579911463
 10
125.3792598103084
 20
339.5813357376107
 10
125.3763345937195
 20
339.5498949170149
 10
125.3739913928447
 20
339.5249150676254
 10
125.372255058085
 20
339.5065302997655
 10
125.3711392309523
 20
339.4947539905875
 10
125.3706482979481
 20
339.4895370038146
 10
125.3706550911162
 20
339.4895976841585
  0
ARC
  5
142
330
2
100
AcDbEntity
  8
0
  6
Continuous
 62
     7
370
    15
100
AcDbCircle
 10
258.5133548480254
 20
343.6822221098671
 30
0.0
 40
44.34315374731689
100
AcDbArc
 50
180.2489425954112
 51
185.4253931835327
  0
ARC
  5
143
330
2
100
AcDbEntity
  8
0
  6
Continuous
 62
     7
370
    15
100
AcDbCircle
 10
214.1697532371481
 20
339.4706730969781
 30
0.0
 40
0.1999999756905944
100
AcDbArc
 50
0.0434894784781102
 51
5.416113561402553
  0
ARC
  5
144
330
2
100
AcDbEntity
  8
0
  6
Continuous
 62
     7
370
    15
100
AcDbCircle
 10
214.1697532454992
 20
326.8706727513375
 30
0.0
 40
0.1999999999999886
100
AcDbArc
 50
270.0000000000008
 51
0.0
  0
ARC
  5
145
330
2
100
AcDbEntity
  8
0
  6
Continuous
 62
     7
370
    15
100
AcDbCircle
 10
125.5697532454992
 20
326.8706727513375
 30
0.0
 40
0.1999999999999886
100
AcDbArc
 50
180.0
 51
270.0000000000008
  0
LINE
  5
146
330
2
100
AcDbEntity
  8
0
  6
Continuous
 62
     7
370
    15
100
AcDbLine
 10
125.3697532454992
 20
339.4715231276984
 30
0.0
 11
125.3697532454992
 21
326.8706727513375
 31
0.0
  0
LINE
  5
147
330
2
100
AcDbEntity
  8
0
  6
Continuous
 62
     7
370
    15
100
AcDbLine
 10
214.3697532454992
 20
326.8706727513375
 30
0.0
 11
214.3697532454992
 21
339.4707030224247
 31
0.0
  0
LINE
  5
148
330
2
100
AcDbEntity
  8
0
  6
Continuous
 62
     7
370
    15
100
AcDbLine
 10
358.7657272300142
 20
343.4706727513376
 30
0.0
 11
318.4799027373344
 21
343.4706727513376
 31
0.0
  0
LINE
  5
149
330
2
100
AcDbEntity
  8
0
  6
Continuous
 62
     7
370
    15
100
AcDbLine
 10
407.4799027373344
 20
343.4706727513376
 30
0.0
 11
367.1940782446546
 21
343.4706727513376
 31
0.0
  0
LINE
  5
14A
330
2
100
AcDbEntity
  8
0
  6
Continuous
 62
     7
370
    15
100
AcDbLine
 10
318.4799027373344
 20
326.8706727513375
 30
0.0
 11
362.9799027373345
 21
326.8706727513375
 31
0.0
  0
LINE
  5
14B
330
2
100
AcDbEntity
  8
0
  6
Continuous
 62
     7
370
    15
100
AcDbLine
 10
362.9799027373345
 20
326.8706727513375
 30
0.0
 11
407.4799027373344
 21
326.8706727513375
 31
0.0
  0
LINE
  5
14C
330
2
100
AcDbEntity
  8
0
  6
Continuous
 62
     7
370
    15
100
AcDbLine
 10
293.2049098761129
 20
357.4706727513373
 30
0.0
 11
293.2049098761129
 21
335.1706727513376
 31
0.0
  0
LINE
  5
14D
330
2
100
AcDbEntity
  8
0
  6
Continuous
 62
     7
370
    15
100
AcDbLine
 10
293.2049098761129
 20
335.1706727513376
 30
0.0
 11
293.2049098761129
 21
312.8706727513375
 31
0.0
  0
LINE
  5
14E
330
2
100
AcDbEntity
  8
0
  6
Continuous
 62
     7
370
    15
100
AcDbLine
 10
293.0049098761129
 20
312.6706727513376
 30
0.0
 11
293.0049098761129
 21
335.1706727513376
 31
0.0
  0
LINE
  5
14F
330
2
100
AcDbEntity
  8
0
  6
Continuous
 62
     7
370
    15
100
AcDbLine
 10
293.0049098761129
 20
335.1706727513376
 30
0.0
 11
293.0049098761129
 21
357.6706727513376
 31
0.0
  0
LINE
  5
150
330
2
100
AcDbEntity
  8
0
  6
Continuous
 62
     7
370
    15
100
AcDbLine
 10
287.4049098761128
 20
357.6706727513376
 30
0.0
 11
287.4049098761128
 21
335.1706727513376
 31
0.0
  0
LINE
  5
151
330
2
100
AcDbEntity
  8
0
  6
Continuous
 62
     7
370
    15
100
AcDbLine
 10
287.4049098761128
 20
335.1706727513376
 30
0.0
 11
287.4049098761128
 21
312.6706727513376
 31
0.0
  0
LINE
  5
152
330
2
100
AcDbEntity
  8
0
  6
Continuous
 62
     7
370
    15
100
AcDbLine
 10
287.2049098761128
 20
312.8706727513377
 30
0.0
 11
287.2049098761128
 21
335.1706727513376
 31
0.0
  0
LINE
  5
153
330
2
100
AcDbEntity
  8
0
  6
Continuous
 62
     7
370
    15
100
AcDbLine
 10
287.2049098761128
 20
335.1706727513376
 30
0.0
 11
287.2049098761128
 21
357.4706727513376
 31
0.0
  0
ARC
  5
154
330
2
100
AcDbEntity
  8
0
  6
Continuous
 62
     7
370
    15
100
AcDbCircle
 10
273.873214076727
 20
335.2460143592416
 30
0.0
 40
45.33175840849277
100
AcDbArc
 50
349.7401359040566
 51
359.9047740855399
  0
LWPOLYLINE
  5
155
330
2
100
AcDbEntity
  8
0
  6
Continuous
 62
     7
370
    15
100
AcDbPolyline
 90
       30
 70
   128
 43
0.0
 10
319.2049098761128
 20
335.1706727512239
 10
319.2026950654746
 20
335.6096584715958
 10
319.1961130825216
 20
336.0476200127762
 10
319.1852576006965
 20
336.4825197866437
 10
319.1697209292712
 20
336.9258991906511
 10
319.149988296713
 20
337.3638894750545
 10
319.1263536155497
 20
337.7943668220666
 10
319.0999078977278
 20
338.2043322530574
 10
319.0703626987791
 20
338.6053287466493
 10
319.0381252638232
 20
338.9955658912283
 10
319.0025318547105
 20
339.3847551717581
 10
318.9649086283239
 20
339.7607777868741
 10
318.9257930529868
 20
340.1218928111339
 10
318.88636264732
 20
340.4612261316809
 10
318.846388697348
 20
340.7846512848351
 10
318.8064145042302
 20
341.0907287206844
 10
318.7657759149073
 20
341.3866972744452
 10
318.7261000589022
 20
341.6629003550063
 10
318.6879551898264
 20
341.9180142686466
 10
318.6525659831768
 20
342.1465594573158
 10
318.6194836950082
 20
342.3537781217217
 10
318.5891646072199
 20
342.5386868485282
 10
318.561227907025
 20
342.7052030873945
 10
318.536931806676
 20
342.8471400551555
 10
318.5166353050995
 20
342.9637562713856
 10
318.5011693159754
 20
343.0515522031872
 10
318.4898026051152
 20
343.1154539683102
 10
318.4826916670506
 20
343.1551447459895
 10
318.4799394257428
 20
343.1705089157406
 10
318.4801198502247
 20
343.1695046441848
  0
LINE
  5
156
330
2
100
AcDbEntity
  8
0
  6
Continuous
 62
     7
370
    15
100
AcDbLine
 10
366.9799027373344
 20
343.6706727513376
 30
0.0
 11
367.0358070609248
 21
343.6706727513376
 31
0.0
  0
LINE
  5
157
330
2
100
AcDbEntity
  8
0
  6
Continuous
 62
     7
370
    15
100
AcDbLine
 10
358.9239984137439
 20
343.6706727513376
 30
0.0
 11
358.9799027373344
 21
343.6706727513376
 31
0.0
  0
LINE
  5
158
330
2
100
AcDbEntity
  8
0
  6
Continuous
 62
     7
370
    15
100
AcDbLine
 10
367.0358070609249
 20
343.6706727513376
 30
0.0
 11
402.5557792279442
 21
343.6706727513376
 31
0.0
  0
LINE
  5
159
330
2
100
AcDbEntity
  8
0
  6
Continuous
 62
     7
370
    15
100
AcDbLine
 10
323.4040262467246
 20
343.6706727513376
 30
0.0
 11
358.9239984137439
 21
343.6706727513376
 31
0.0
  0
LINE
  5
15A
330
2
100
AcDbEntity
  8
0
  6
Continuous
 62
     7
370
    15
100
AcDbLine
 10
366.9807613289078
 20
343.6706727513376
 30
0.0
 11
407.2799027373344
 21
343.6706727513376
 31
0.0
  0
LINE
  5
15B
330
2
100
AcDbEntity
  8
0
  6
Continuous
 62
     7
370
    15
100
AcDbLine
 10
318.6799027373345
 20
343.6706727513376
 30
0.0
 11
358.979044145761
 21
343.6706727513376
 31
0.0
  0
LINE
  5
15C
330
2
100
AcDbEntity
  8
0
  6
Continuous
 62
     7
370
    15
100
AcDbLine
 10
407.2799027373342
 20
326.6706727513376
 30
0.0
 11
362.9799027373345
 21
326.6706727513376
 31
0.0
  0
LINE
  5
15D
330
2
100
AcDbEntity
  8
0
  6
Continuous
 62
     7
370
    15
100
AcDbLine
 10
362.9799027373345
 20
326.6706727513376
 30
0.0
 11
318.6799027373345
 21
326.6706727513376
 31
0.0
  0
ARC
  5
15E
330
2
100
AcDbEntity
  8
0
  6
Continuous
 62
     7
370
    15
100
AcDbCircle
 10
362.9799027373343
 20
343.6709001218978
 30
0.0
 40
4.000000006462398
100
AcDbArc
 50
180.0
 51
0.0
  0
LINE
  5
15F
330
2
100
AcDbEntity
  8
0
  6
Continuous
 62
     7
370
    15
100
AcDbLine
 10
358.979044145761
 20
343.6706727513376
 30
0.0
 11
358.9799027373344
 21
343.6706727513376
 31
0.0
  0
ARC
  5
160
330
2
100
AcDbEntity
  8
0
  6
Continuous
 62
     7
370
    15
100
AcDbCircle
 10
359.9961766184811
 20
342.3720546750431
 30
0.0
 40
1.649535502843294
100
AcDbArc
 50
128.0695456139878
 51
138.239634203451
  0
ARC
  5
161
330
2
100
AcDbEntity
  8
0
  6
Continuous
 62
     7
370
    15
100
AcDbCircle
 10
362.9799027373343
 20
343.6905746262019
 30
0.0
 40
4.219909008624199
100
AcDbArc
 50
182.9870688245225
 51
357.0129311755524
  0
ARC
  5
162
330
2
100
AcDbEntity
  8
0
  6
Continuous
 62
     7
370
    15
100
AcDbCircle
 10
365.7533313060103
 20
342.1477545510863
 30
0.0
 40
1.955981673167869
100
AcDbArc
 50
42.55867554204915
 51
51.13214464017677
  0
LINE
  5
163
330
2
100
AcDbEntity
  8
0
  6
Continuous
 62
     7
370
    15
100
AcDbLine
 10
366.9799027373344
 20
343.6706727513376
 30
0.0
 11
366.9807613289078
 21
343.6706727513376
 31
0.0
  0
LINE
  5
164
330
2
100
AcDbEntity
  8
0
  6
Continuous
 62
     7
370
    15
100
AcDbLine
 10
293.2049098761129
 20
357.4706727513376
 30
0.0
 11
293.0049098761129
 21
357.6706727513376
 31
0.0
  0
LINE
  5
165
330
2
100
AcDbEntity
  8
0
  6
Continuous
 62
     7
370
    15
100
AcDbLine
 10
293.0049098761129
 20
312.6706727513376
 30
0.0
 11
293.2049098761129
 21
312.8706727513375
 31
0.0
  0
LINE
  5
166
330
2
100
AcDbEntity
  8
0
  6
Continuous
 62
     7
370
    15
100
AcDbLine
 10
287.4049098761128
 20
312.6706727513376
 30
0.0
 11
293.0049098761129
 21
312.6706727513376
 31
0.0
  0
LINE
  5
167
330
2
100
AcDbEntity
  8
0
  6
Continuous
 62
     7
370
    15
100
AcDbLine
 10
293.0049098761129
 20
357.6706727513376
 30
0.0
 11
287.4049098761128
 21
357.6706727513376
 31
0.0
  0
LINE
  5
168
330
2
100
AcDbEntity
  8
0
  6
Continuous
 62
     7
370
    15
100
AcDbLine
 10
287.2049098761128
 20
312.8706727513375
 30
0.0
 11
287.4049098761128
 21
312.6706727513376
 31
0.0
  0
LINE
  5
169
330
2
100
AcDbEntity
  8
0
  6
Continuous
 62
     7
370
    15
100
AcDbLine
 10
287.4049098761128
 20
357.6706727513376
 30
0.0
 11
287.2049098761128
 21
357.4706727513376
 31
0.0
  0
LINE
  5
16A
330
2
100
AcDbEntity
  8
0
  6
Continuous
 62
     7
370
    15
100
AcDbLine
 10
318.4799027373344
 20
343.1706727513376
 30
0.0
 11
293.2049098761129
 21
343.1706727513376
 31
0.0
  0
LINE
  5
16B
330
2
100
AcDbEntity
  8
0
  6
Continuous
 62
     7
370
    15
100
AcDbLine
 10
293.2049098761128
 20
327.1706727513376
 30
0.0
 11
318.4799027373344
 21
327.1706727513376
 31
0.0
  0
ARC
  5
16C
330
2
100
AcDbEntity
  8
0
  6
Continuous
 62
     7
370
    15
100
AcDbCircle
 10
407.2799027373344
 20
343.4706727513376
 30
0.0
 40
0.1999999999999886
100
AcDbArc
 50
0.0
 51
90.0
  0
ARC
  5
16D
330
2
100
AcDbEntity
  8
0
  6
Continuous
 62
     7
370
    15
100
AcDbCircle
 10
318.6799027373344
 20
343.4706727513376
 30
0.0
 40
0.1999999999999886
100
AcDbArc
 50
90.0
 51
180.0
  0
LINE
  5
16E
330
2
100
AcDbEntity
  8
0
  6
Continuous
 62
     7
370
    15
100
AcDbLine
 10
318.4799027373344
 20
343.4706727513376
 30
0.0
 11
318.4799027373344
 21
343.1706727513376
 31
0.0
  0
LINE
  5
16F
330
2
100
AcDbEntity
  8
0
  6
Continuous
 62
     7
370
    15
100
AcDbLine
 10
318.4799027373344
 20
327.1706727513376
 30
0.0
 11
318.4799027373344
 21
326.8706727513375
 31
0.0
  0
LINE
  5
170
330
2
100
AcDbEntity
  8
0
  6
Continuous
 62
     7
370
    15
100
AcDbLine
 10
407.4799027373344
 20
326.8706727513375
 30
0.0
 11
407.4799027373344
 21
343.4706727513376
 31
0.0
  0
ARC
  5
171
330
2
100
AcDbEntity
  8
0
  6
Continuous
 62
     7
370
    15
100
AcDbCircle
 10
407.2799027373344
 20
326.8706727513375
 30
0.0
 40
0.1999999999999886
100
AcDbArc
 50
270.0000000000008
 51
0.0
  0
ARC
  5
172
330
2
100
AcDbEntity
  8
0
  6
Continuous
 62
     7
370
    15
100
AcDbCircle
 10
318.6799027373344
 20
326.8706727513375
 30
0.0
 40
0.1999999999999886
100
AcDbArc
 50
180.0
 51
270.0000000000008
  0
ARC
  5
173
330
2
100
AcDbEntity
  8
0
  6
Continuous
 62
     7
370
    15
100
AcDbCircle
 10
155.1512555456559
 20
132.977729426458
 30
0.0
 40
6.184773149605727
100
AcDbArc
 50
184.4467603035113
 51
238.8958832061393
  0
LWPOLYLINE
  5
174
330
2
100
AcDbEntity
  8
0
  6
Continuous
 62
     7
370
    15
100
AcDbPolyline
 90
       42
 70
   128
 43
0.0
 10
145.7875570867989
 20
130.6523050631144
 10
145.5227058000383
 20
130.2215298875339
 10
145.2745985509658
 20
129.7788330227529
 10
145.0458960976451
 20
129.3284731859986
 10
144.8360925254252
 20
128.8683230478141
 10
144.7202194286453
 20
128.5885918872089
 10
144.6125974411125
 20
128.3071703533173
 10
144.4809288500976
 20
127.9246583702667
 10
144.3661404247372
 20
127.540084726381
 10
144.2697943691788
 20
127.1548239313092
 10
144.2096947375388
 20
126.8611505616517
 10
144.1621646005599
 20
126.5680842910931
 10
144.1219685589006
 20
126.2024084160588
 10
144.1082139448185
 20
125.9574241146213
 10
144.1063185547857
 20
125.7146724069102
 10
144.1173147818117
 20
125.4753059409773
 10
144.1350500335247
 20
125.2955658904113
 10
144.1614894756096
 20
125.1188238702879
 10
144.2103946781125
 20
124.8924374691441
 10
144.2778423044261
 20
124.6708101359961
 10
144.3645696864139
 20
124.4596569593552
 10
144.4739857450856
 20
124.2581190338475
 10
144.574915743709
 20
124.1120242753611
 10
144.6918590848056
 20
123.9752740153502
 10
144.8228232056356
 20
123.8522575414295
 10
144.9703635688795
 20
123.7424867902882
 10
145.1240897632639
 20
123.6532876701999
 10
145.2921465549876
 20
123.5792495501756
 10
145.469703278381
 20
123.5227170809634
 10
145.6590447184746
 20
123.4830327003215
 10
145.7826616813217
 20
123.4670468996658
 10
145.9092243132787
 20
123.4579422543439
 10
146.0374688023457
 20
123.4555887156417
 10
146.1678382729149
 20
123.4597565908992
 10
146.4274290417844
 20
123.4859911130582
 10
146.6928180754524
 20
123.5351085513694
 10
146.9578523894994
 20
123.604425005714
 10
147.224935160867
 20
123.6931129833734
 10
147.3960097849561
 20
123.7592659095541
 10
147.5656829573288
 20
123.8317859266498
 10
147.904409887692
 20
123.9963929154664
 10
147.9379117326732
 20
124.0151806495267
  0
LWPOLYLINE
  5
175
330
2
100
AcDbEntity
  8
0
  6
Continuous
 62
     7
370
    15
100
AcDbPolyline
 90
       46
 70
   128
 43
0.0
 10
97.12389041085021
 20
94.67910974530262
 10
97.13762572598932
 20
94.68832593054266
 10
97.14898663670124
 20
94.70680016627531
 10
97.15385502288553
 20
94.72869740435767
 10
97.15178868196062
 20
94.75431443246078
 10
97.14227950307828
 20
94.78368089007934
 10
97.12456901142514
 20
94.81738237454168
 10
97.09810480928036
 20
94.85533619064176
 10
97.0491996067775
 20
94.91171012242601
 10
96.98202312048614
 20
94.97669366982433
 10
96.89502459847609
 20
95.05044892364468
 10
96.78560853980446
 20
95.13396119988994
 10
96.68467854118103
 20
95.2052404522532
 10
96.56824237665354
 20
95.28274149984792
 10
96.43677107925441
 20
95.36575725461892
 10
96.28923071601059
 20
95.45461736839987
 10
96.13550452162611
 20
95.54342984889222
 10
95.96819248209181
 20
95.63660013777012
 10
95.78989100650904
 20
95.73262873549108
 10
95.60054956641534
 20
95.8315610472524
 10
95.47693260356822
 20
95.89470781298778
 10
95.35053636948044
 20
95.95823712463497
 10
95.22212548254435
 20
96.02180961425533
 10
95.09175601197524
 20
96.08544578462012
 10
94.83216524310568
 20
96.20975448328486
 10
94.56756123820378
 20
96.33361749576197
 10
94.30174189539071
 20
96.45559856052084
 10
94.03465912402294
 20
96.57604632980103
 10
93.86371300506267
 20
96.65216637161599
 10
93.69391132756129
 20
96.72710503227317
 10
93.35593273720894
 20
96.87449917220884
 10
93.02388956783886
 20
97.01732765562683
 10
92.69723871619294
 20
97.15622838567725
 10
92.39319260161721
 20
97.28430281198756
 10
92.09605946045803
 20
97.4085004414524
 10
91.80695379483585
 20
97.52855518009265
 10
91.52258368692356
 20
97.64598637627244
 10
91.24709601067502
 20
97.75920353318248
 10
90.97754349754053
 20
97.86951459164779
 10
90.71772773522832
 20
97.97543485404233
 10
90.46755452300521
 20
98.07705624988596
 10
90.29616990336888
 20
98.14645839349381
 10
90.13015336062483
 20
98.21350655426089
 10
89.9698098098479
 20
98.27807584670217
 10
89.81518294859871
 20
98.34014125687689
 10
89.81518294859871
 20
98.34014125687689
  0
LWPOLYLINE
  5
176
330
2
100
AcDbEntity
  8
0
  6
Continuous
 62
     7
370
    15
100
AcDbPolyline
 90
       31
 70
   128
 43
0.0
 10
86.61764028567347
 20
96.49423916870091
 10
86.62135536630898
 20
96.3152892960619
 10
86.63248316713781
 20
96.13163436029713
 10
86.66375651679073
 20
95.84318665925927
 10
86.71317195151415
 20
95.54169129881573
 10
86.78003908504946
 20
95.23444831988832
 10
86.865747529278
 20
94.91804117588607
 10
86.9650360029907
 20
94.61112228991773
 10
87.08221441103331
 20
94.29986450065426
 10
87.21502319504258
 20
93.99202355827044
 10
87.36560885723759
 20
93.68451471689009
 10
87.52551705279586
 20
93.39447181882151
 10
87.6996009081388
 20
93.11242678140787
 10
87.89001473394103
 20
92.83678827310028
 10
88.0935138942441
 20
92.57407932646186
 10
88.30090350967907
 20
92.3355639732518
 10
88.51843303646342
 20
92.11339187897182
 10
88.7483501808448
 20
91.90671989299396
 10
88.86657996850136
 20
91.81094222319712
 10
88.98614311295956
 20
91.72099990044321
 10
89.21730064140536
 20
91.56614329430052
 10
89.45518376904795
 20
91.43215157965924
 10
89.69396702852327
 20
91.32288987751023
 10
89.93623316110779
 20
91.23788667727753
 10
90.16738979056322
 20
91.1814839704604
 10
90.39828527475595
 20
91.15024643102849
 10
90.62299242841096
 20
91.14545164244985
 10
90.84357354283417
 20
91.16771466469236
 10
91.04736760608863
 20
91.21499825080697
 10
91.24344270686549
 20
91.2886671183778
 10
91.37384223871391
 20
91.35898322002798
  0
LWPOLYLINE
  5
177
330
2
100
AcDbEntity
  8
0
  6
Continuous
 62
     7
370
    15
100
AcDbPolyline
 90
       54
 70
   128
 43
0.0
 10
89.93976725047673
 20
98.51895501039265
 10
90.17809726935741
 20
98.41199458393466
 10
90.4299305788769
 20
98.29913245402927
 10
90.67171529816858
 20
98.19089815614661
 10
90.92419219762689
 20
98.0779654641482
 10
91.18805469496782
 20
97.9599801003485
 10
91.46228585841118
 20
97.83733051108995
 10
91.67808532794856
 20
97.7407413269114
 10
91.89939632477466
 20
97.64156708098527
 10
92.12729700612783
 20
97.53926336153394
 10
92.3605332967279
 20
97.43431529984597
 10
92.68251989291071
 20
97.28889331724396
 10
92.90603414010968
 20
97.18748247676948
 10
93.1869345233739
 20
97.05936846177699
 10
93.47432081602255
 20
96.92736939487929
 10
93.75768463974258
 20
96.79610959185501
 10
94.04628982308691
 20
96.66106561971949
 10
94.3140516280447
 20
96.53431988460825
 10
94.58513455220838
 20
96.40431255613281
 10
94.8580798952396
 20
96.2713793699841
 10
95.13173618777273
 20
96.13566019443345
 10
95.26500183006907
 20
96.06853883725673
 10
95.39732724687132
 20
96.00113511505718
 10
95.52826408327291
 20
95.93362083733596
 10
95.65748396773654
 20
95.86610865282928
 10
95.84763926884319
 20
95.76495201900103
 10
96.03186814596746
 20
95.66455822818564
 10
96.20805382159517
 20
95.56590611206386
 10
96.37475140964852
 20
95.46966597682798
 10
96.52474633552925
 20
95.38007955477066
 10
96.66296975136242
 20
95.29435489245321
 10
96.78815467985282
 20
95.21332623683933
 10
96.89988191895054
 20
95.13738354391977
 10
97.01432605418871
 20
95.05459049108463
 10
97.10947740957477
 20
94.97987526117167
 10
97.1856264715633
 20
94.91355730658305
 10
97.24370493715561
 20
94.85550625487245
 10
97.28236954741589
 20
94.80876251503609
 10
97.30696437707615
 20
94.76897838705575
 10
97.31865113144614
 20
94.73434506445306
 10
97.31676054027662
 20
94.70684390713554
 10
97.30305760473346
 20
94.68689690207433
 10
97.27847714874929
 20
94.67298968841729
 10
97.23812645841144
 20
94.66421330744417
 10
97.18543716699265
 20
94.66264414834354
 10
97.12078413359485
 20
94.66805519042193
 10
97.04511798863018
 20
94.6802257691656
 10
96.95829434827055
 20
94.69911399147379
 10
96.86141076864146
 20
94.72445165799774
 10
96.75432297593875
 20
94.75625526833621
 10
96.63792457207343
 20
94.79425581991687
 10
96.46558379711406
 20
94.85554357025682
 10
96.27729193763492
 20
94.92780212634709
 10
96.22762204207788
 20
94.94805196784138
  0
LWPOLYLINE
  5
178
330
2
100
AcDbEntity
  8
0
  6
Continuous
 62
     7
370
    15
100
AcDbPolyline
 90
       63
 70
   128
 43
0.0
 10
147.3295215358152
 20
96.0621401305457
 10
147.8313830851481
 20
96.33327461871745
 10
148.520430879406
 20
96.72146032287706
 10
149.1928611009973
 20
97.11923914754182
 10
149.8482731079655
 20
97.52637409133736
 10
150.4862763980095
 20
97.94262257840204
 10
151.1064908411496
 20
98.36773660291612
 10
151.7085469062138
 20
98.8014628768669
 10
152.2920858810082
 20
99.2435429809605
 10
152.856760086043
 20
99.69371351859134
 10
153.4022330816829
 20
100.1517062727768
 10
153.9281798686026
 20
100.6172483659646
 10
154.4342870814258
 20
101.0900624226156
 10
154.9202531754305
 20
101.5698667344683
 10
155.3857886062142
 20
102.0563754283836
 10
155.8306160022077
 20
102.5492986366715
 10
156.254470329936
 20
103.0483426697977
 10
156.6570990519287
 20
103.5532101913674
 10
157.0382622771849
 20
104.0636003952818
 10
157.3977329041029
 20
104.5792091849622
 10
157.73529675579
 20
105.0997293545338
 10
158.0507527076722
 20
105.6248507718633
 10
158.3439128073259
 20
106.154260563339
 10
158.6146023864628
 20
106.6876433002845
 10
158.8626601649987
 20
107.2246811868953
 10
159.0879383471468
 20
107.7650542495849
 10
159.2903027094759
 20
108.308440527629
 10
159.4696326808819
 20
108.8545162649938
 10
159.6258214144263
 20
109.4029561032334
 10
159.7587758509963
 20
109.9534332753424
 10
159.868416774751
 20
110.5056198004476
 10
159.9546788603185
 20
111.0591866792227
 10
160.0175107117179
 20
111.6138040899103
 10
160.056874892982
 20
112.1691415848337
 10
160.0727479504612
 20
112.7248682872812
 10
160.0651204267985
 20
113.2806530886466
 10
160.0339968665636
 20
113.8361648457078
 10
159.9793958135452
 20
114.3910725779257
 10
159.901349799703
 20
114.9450456646464
 10
159.799905325784
 20
115.497754042089
 10
159.6751228336171
 20
116.0488684000014
 10
159.5270766701017
 20
116.5980603778675
 10
159.35585504291
 20
117.145002760548
 10
159.161559967932
 20
117.6893696732395
 10
158.9443072084941
 20
118.2308367756343
 10
158.7042262063847
 20
118.7690814551662
 10
158.4414600047322
 20
119.3037830192271
 10
158.1561651627776
 20
119.8346228862394
 10
157.848511662595
 20
120.3612847754709
 10
157.5186828078138
 20
120.8834548954781
 10
157.1668751144046
 20
121.4008221310676
 10
156.793298193593
 20
121.9130782286616
 10
156.3981746269696
 20
122.4199179799596
 10
155.9817398338742
 20
122.9210394037847
 10
155.54424193113
 20
123.416143926008
 10
155.0859415852121
 20
123.9049365574422
 10
154.60711185694
 20
124.3871260696003
 10
154.1080380387844
 20
124.8624251682121
 10
153.5890174848862
 20
125.3305506643986
 10
153.0503594338897
 20
125.7912236433982
 10
152.4923848246951
 20
126.2441696307488
 10
151.9154261052379
 20
126.6891187558215
 10
151.3198270344132
 20
127.1258059126138
  0
LWPOLYLINE
  5
179
330
2
100
AcDbEntity
  8
0
  6
Continuous
 62
     7
370
    15
100
AcDbPolyline
 90
       31
 70
   128
 43
0.0
 10
76.14486114734098
 20
98.47714539397554
 10
76.14504618103286
 20
98.4730537350569
 10
76.19078284586658
 20
97.80104704912062
 10
76.26697579132098
 20
97.12996179867564
 10
76.37357279855701
 20
96.46025791203115
 10
76.51050081131064
 20
95.79239437077855
 10
76.67766598596154
 20
95.12682889522855
 10
76.87495375584922
 20
94.46401763071234
 10
77.10222890979082
 20
93.80441483496246
 10
77.35933568474866
 20
93.14847256678719
 10
77.64609787258166
 20
92.49664037625214
 10
77.96231894081063
 20
91.84936499658091
 10
78.30778216731096
 20
91.20709003798662
 10
78.68225078884336
 20
90.57025568364357
 10
79.08546816331977
 20
89.9392983880076
 10
79.51715794569304
 20
89.31465057769214
 10
79.97702427734953
 20
88.69674035510447
 10
80.46475198887652
 20
88.08599120504592
 10
80.98000681606299
 20
87.48282170447636
 10
81.52243562898787
 20
86.88764523564238
 10
82.09166667403781
 20
86.30086970276609
 10
82.68730982868829
 20
85.72289725248761
 10
83.30895686887402
 20
85.15412399825398
 10
83.95618174876574
 20
84.59493974884278
 10
84.62854089276026
 20
84.04572774120671
 10
85.32557349948547
 20
83.50686437782197
 10
86.04680185761026
 20
82.97871896872115
 10
86.79173167324405
 20
82.46165347838608
 10
87.55985240870144
 20
81.95602227767587
 10
88.35063763239862
 20
81.46217190095864
 10
89.16354537964355
 20
80.9804408086144
  0
LWPOLYLINE
  5
17A
330
2
100
AcDbEntity
  8
0
  6
Continuous
 62
     7
370
    15
100
AcDbPolyline
 90
       91
 70
   128
 43
0.0
 10
89.16354537964355
 20
80.9804408086144
 10
89.99801852407291
 20
80.51115915507047
 10
90.85348515947577
 20
80.05464856253125
 10
91.72935899175184
 20
79.61122190055362
 10
92.62503974072718
 20
79.18118307162204
 10
93.53991355155688
 20
78.76482680286897
 10
94.47335341542986
 20
78.36243844408359
 10
95.42471959928992
 20
77.97429377214716
 10
96.39336008427632
 20
77.60065880202969
 10
97.37861101258523
 20
77.24178960447613
 10
98.379797142445
 20
76.89793213050852
 10
99.39623231089241
 20
76.56932204286359
 10
100.4272199040351
 20
76.2561845544809
 10
101.4720533344758
 20
75.95873427415343
 10
102.5300165255719
 20
75.6771750594453
 10
103.6003844021985
 20
75.41169987697812
 10
104.6824233876791
 20
75.16249067018119
 10
105.7753919065421
 20
74.92971823459654
 10
106.8785408927598
 20
74.71354210082428
 10
107.9911143031204
 20
74.51411042518826
 10
109.1123496353827
 20
74.33155988819713
 10
110.2414784508571
 20
74.16601560087032
 10
111.3777269010546
 20
74.01759101899326
 10
112.5203162580444
 20
73.88638786536041
 10
113.6684634481547
 20
73.77249606005953
 10
114.8213815886527
 20
73.67599365884489
 10
115.9782805270344
 20
73.59694679964197
 10
117.1383673825559
 20
73.53540965721951
 10
118.3008470896339
 20
73.49142440606108
 10
119.4649229427446
 20
73.46502119146082
 10
120.629797142445
 20
73.45621810886301
 10
121.7946713421454
 20
73.46502119146082
 10
122.958747195256
 20
73.49142440606112
 10
124.1212269023341
 20
73.53540965721951
 10
125.2813137578555
 20
73.59694679964199
 10
126.4382126962373
 20
73.67599365884491
 10
127.5911308367352
 20
73.77249606005953
 10
128.7392780268455
 20
73.88638786536041
 10
129.8818673838353
 20
74.01759101899326
 10
131.0181158340328
 20
74.16601560087032
 10
132.1472446495072
 20
74.33155988819713
 10
133.2684799817696
 20
74.51411042518826
 10
134.3810533921302
 20
74.71354210082428
 10
135.4842023783478
 20
74.92971823459656
 10
136.5771708972108
 20
75.16249067018121
 10
137.6592098826916
 20
75.41169987697815
 10
138.7295777593181
 20
75.67717505944533
 10
139.7875409504141
 20
75.95873427415343
 10
140.8323743808548
 20
76.2561845544809
 10
141.8633619739976
 20
76.56932204286362
 10
142.879797142445
 20
76.89793213050855
 10
143.8809832723048
 20
77.24178960447613
 10
144.8662342006137
 20
77.60065880202969
 10
145.8348746856001
 20
77.97429377214716
 10
146.7862408694601
 20
78.36243844408359
 10
147.7196807333331
 20
78.76482680286899
 10
148.6345545441628
 20
79.18118307162204
 10
149.5302352931382
 20
79.61122190055362
 10
150.4061091254142
 20
80.05464856253125
 10
151.2615757608171
 20
80.51115915507047
 10
152.0960489052464
 20
80.9804408086144
 10
152.9089566524918
 20
81.46217190095883
 10
153.699741876189
 20
81.9560222776761
 10
154.4678626116464
 20
82.46165347838632
 10
155.2127924272802
 20
82.97871896872136
 10
155.934020785405
 20
83.50686437782222
 10
156.6310533921302
 20
84.04572774120691
 10
157.3034125361247
 20
84.59493974884303
 10
157.9506374160164
 20
85.15412399825423
 10
158.5722844562021
 20
85.72289725248786
 10
159.1679276108525
 20
86.30086970276638
 10
159.7371586559025
 20
86.88764523564266
 10
160.2795874688274
 20
87.48282170447662
 10
160.7948422960138
 20
88.08599120504622
 10
161.2825700075407
 20
88.69674035510477
 10
161.7424363391973
 20
89.31465057769241
 10
162.1741261215704
 20
89.93929838800791
 10
162.5773434960469
 20
90.57025568364387
 10
162.9518121175794
 20
91.20709003798692
 10
163.2972753440796
 20
91.84936499658123
 10
163.6134964123085
 20
92.49664037625247
 10
163.9002586001415
 20
93.14847256678751
 10
164.1573653750994
 20
93.8044148349628
 10
164.384640529041
 20
94.46401763071269
 10
164.5819282989287
 20
95.12682889522888
 10
164.7490934735796
 20
95.79239437077889
 10
164.8860214863332
 20
96.46025791203149
 10
164.9926184935691
 20
97.12996179867598
 10
165.0688114390235
 20
97.80104704912096
 10
165.1145481038572
 20
98.47305373505724
 10
165.1154420767675
 20
98.49305980978083
  0
LWPOLYLINE
  5
17B
330
2
100
AcDbEntity
  8
0
  6
Continuous
 62
     7
370
    15
100
AcDbPolyline
 90
       29
 70
   128
 43
0.0
 10
86.32508887304846
 20
96.33689929219206
 10
85.63827372423167
 20
96.82895616274995
 10
84.9726316475378
 20
97.33061652622142
 10
84.32856541730552
 20
97.84157683220282
 10
83.70646475251261
 20
98.36152790297468
 10
83.10670608096108
 20
98.89015512058261
 10
82.52965231150325
 20
99.42713861720962
 10
81.97565261444912
 20
99.97215346872581
 10
81.44504221028638
 20
100.5248698912969
 10
80.93814216684108
 20
101.0849534409338
 10
80.45525920500256
 20
101.6520652158616
 10
79.99668551312891
 20
102.2258620615863
 10
79.56269857024665
 20
102.8059967785347
 10
79.15356097815015
 20
103.3921183321417
 10
78.76952030250402
 20
103.9838720652586
 10
78.41080892304273
 20
104.5808999127527
 10
78.07764389295994
 20
105.1828406181701
 10
77.77022680757136
 20
105.789329952328
 10
77.48874368233123
 20
106.4000009337078
 10
77.23336484027573
 20
107.0144840505113
 10
77.00424480896231
 20
107.6324074842499
 10
76.80152222696597
 20
108.2533973347288
 10
76.62531975999058
 20
108.8770778462902
 10
76.47574402664497
 20
109.5030716351806
 10
76.35288553392832
 20
110.130999917902
 10
76.25681862246597
 20
110.7604827404107
 10
76.18760142152587
 20
111.3911392080241
 10
76.14527581384573
 20
112.0225877158973
 10
76.14424254389053
 20
112.0455878839089
  0
LWPOLYLINE
  5
17C
330
2
100
AcDbEntity
  8
0
  6
Continuous
 62
     7
370
    15
100
AcDbPolyline
 90
       92
 70
   128
 43
0.0
 10
165.1157642631899
 20
112.0549996235026
 10
165.0797710683812
 20
111.4823339168489
 10
165.0144370864369
 20
110.8515394128258
 10
164.9222463377421
 20
110.2218634562923
 10
164.8032546061318
 20
109.5936870587946
 10
164.6575338924873
 20
108.9673903245085
 10
164.4851723711683
 20
108.3433522202418
 10
164.2862743366602
 20
107.7219503461244
 10
164.0609601404657
 20
107.1035607071258
 10
163.8093661182815
 20
106.4885574855378
 10
163.5316445075029
 20
105.87731281456
 10
163.2279633551057
 20
105.2701965531251
 10
162.8985064159633
 20
104.6675760621003
 10
162.5434730416567
 20
104.0698159820006
 10
162.1630780598505
 20
103.4772780123478
 10
161.7575516443007
 20
102.8903206928093
 10
161.32713917558
 20
102.3092991862487
 10
160.8721010925986
 20
101.7345650638199
 10
160.3927127350166
 20
101.1664660922342
 10
159.889264176637
 20
100.60534602333
 10
159.3620600498845
 20
100.051544386071
 10
158.8114193614763
 20
99.50539628110055
 10
158.2376752993923
 20
98.96723217797488
 10
157.6411750312668
 20
98.43737771519885
 10
157.0222794943201
 20
97.91615350318494
 10
156.3813631769589
 20
97.40387493025451
 10
155.7188138921754
 20
96.90085197179911
 10
155.0350325428862
 20
96.4073890027169
 10
154.330432879349
 20
95.92378461323816
 10
153.6054412488053
 20
95.45033142825083
 10
152.8604963375022
 20
94.98731593023554
 10
152.0960489052463
 20
94.53501828591779
 10
151.3125615126535
 20
94.09371217674113
 10
150.5105082412569
 20
93.66366463326516
 10
149.6903744066445
 20
93.24513587358747
 10
148.8526562647987
 20
92.83837914588779
 10
147.9978607118161
 20
92.44364057518991
 10
147.1265049771891
 20
92.06115901443332
 10
146.2391163108347
 20
91.69116589994549
 10
145.3362316640596
 20
91.33388511140166
 10
144.4183973646565
 20
90.9895328363571
 10
143.4861687863251
 20
90.65831743943396
 10
142.5401100126205
 20
90.34043933624149
 10
141.5807934956305
 20
90.03609087210659
 10
140.6087997095908
 20
89.74545620568681
 10
139.624716799644
 20
89.46871119753785
 10
138.6291402259586
 20
89.20602330370183
 10
137.6226724034208
 20
88.95755147438087
 10
136.6059223371185
 20
88.72344605775792
 10
135.5795052538374
 20
88.50384870902214
 10
134.5440422297931
 20
88.29889230465475
 10
133.5001598148224
 20
88.10870086202646
 10
132.4484896532635
 20
87.93338946435566
 10
131.389668101754
 20
87.77306419107254
 10
130.3243358441763
 20
87.62782205363148
 10
129.2531375039854
 20
87.49775093680991
 10
128.1767212541531
 20
87.38292954553038
 10
127.0957384249633
 20
87.28342735723655
 10
126.0108431098986
 20
87.19930457985325
 10
124.9226917698531
 20
87.13061211535491
 10
123.8319428359138
 20
87.07739152896541
 10
122.7392563109499
 20
87.03967502400734
 10
121.6452933702501
 20
87.01748542241579
 10
120.5507159614513
 20
87.01083615092938
 10
119.4561864040001
 20
87.01973123296545
 10
118.3623669883885
 20
87.04416528618581
 10
117.2699195754078
 20
87.08412352575344
 10
116.1795051956619
 20
87.13958177327869
 10
115.0917836495841
 20
87.21050647144933
 10
114.0074131081969
 20
87.29685470433599
 10
112.9270497148582
 20
87.39857422336003
 10
111.8513471882352
 20
87.51560347890878
 10
110.7809564267442
 20
87.64787165757867
 10
109.7165251146978
 20
87.79529872502392
 10
108.6586973303965
 20
87.95779547438449
 10
107.6081131564031
 20
88.13526358026447
 10
106.5654082922327
 20
88.32759565822788
 10
105.5312136696982
 20
88.53467532977614
 10
104.5061550711373
 20
88.75637729276768
 10
103.4908527507578
 20
88.99256739723723
 10
102.485921059327
 20
89.24310272656878
 10
101.4919680724327
 20
89.50783168397309
 10
100.5095952225431
 20
89.78659408421798
 10
99.53939693508345
 20
90.07922125055456
 10
98.58196026875578
 20
90.38553611678246
 10
97.63786456031381
 20
90.70535333439089
 10
96.70768107401181
 20
91.03847938471155
 10
95.791972655937
 20
91.38471269601502
 10
94.89129339343639
 20
91.74384376548021
 10
94.00618827984317
 20
92.1156552859626
 10
93.13719288470634
 20
92.49992227748503
 10
92.2848330297212
 20
92.89641222337122
  0
LWPOLYLINE
  5
17D
330
2
100
AcDbEntity
  8
0
  6
Continuous
 62
     7
370
    15
100
AcDbPolyline
 90
       61
 70
   128
 43
0.0
 10
51.28030462545303
 20
127.7515190111028
 10
51.2857080901407
 20
128.2312907545849
 10
51.30191478093888
 20
128.7169723940129
 10
51.32891359059112
 20
129.2082310674514
 10
51.36668601546216
 20
129.7047300907447
 10
51.41520616821856
 20
130.2061291882627
 10
51.47444079557136
 20
130.7120847261097
 10
51.54434930106572
 20
131.2222499476328
 10
51.62488377290401
 20
131.7362752110726
 10
51.71598901678215
 20
132.2538082291897
 10
51.81760259371663
 20
132.7744943107049
 10
51.92965486283753
 20
133.2979766033866
 10
52.05206902911687
 20
133.82389633862
 10
52.18476119599961
 20
134.3518930772889
 10
52.32764042290296
 20
134.8816049568027
 10
52.48060878754154
 20
135.4126689390987
 10
52.64356145303918
 20
135.9447210594508
 10
52.81638673977875
 20
136.4773966759122
 10
52.99896620194147
 20
137.0103307192233
 10
53.191174708684
 20
137.5431579430113
 10
53.39288052989684
 20
138.0755131741123
 10
53.60394542648567
 20
138.6070315628428
 10
53.82422474511315
 20
139.137348833049
 10
54.05356751733757
 20
139.6661015317639
 10
54.29181656307878
 20
140.1929272782994
 10
54.53880859834157
 20
140.7174650126047
 10
54.79437434712247
 20
141.2393552427177
 10
55.05833865742329
 20
141.7582402911437
 10
55.33052062129081
 20
142.2737645399895
 10
55.61073369880285
 20
142.7855746746858
 10
55.89878584591315
 20
143.2933199261318
 10
56.19447964606843
 20
143.7966523110947
 10
56.49761244550848
 20
144.2952268706999
 10
56.80797649215424
 20
144.7887019068484
 10
57.12535907799122
 20
145.2767392164002
 10
57.44954268484867
 20
145.7590043229614
 10
57.78030513347585
 20
146.2351667061174
 10
58.11741973581252
 20
146.7049000279558
 10
58.46065545034924
 20
147.1678823567216
 10
58.80977704047234
 20
147.6237963874529
 10
59.16454523568313
 20
148.0723296594466
 10
59.52471689558149
 20
148.5131747704028
 10
59.89004517650278
 20
148.9460295871032
 10
60.26027970069185
 20
149.3705974524779
 10
60.63516672789944
 20
149.7865873889198
 10
61.01444932928302
 20
150.1937142977054
 10
61.39786756349327
 20
150.5916991543881
 10
61.78515865482473
 20
150.9802692000266
 10
62.17605717330878
 20
151.3591581281214
 10
62.57029521662684
 20
151.728106267127
 10
62.9676025937166
 20
152.0868607584183
 10
63.36770700994782
 20
152.4351757295872
 10
63.77033425373918
 20
152.7728124629511
 10
64.17520838448957
 20
153.0995395591583
 10
64.58205192169351
 20
153.4151330957775
 10
64.9905860351131
 20
153.7193767807629
 10
65.40053073587364
 20
154.0120621006902
 10
65.81160506835431
 20
154.292988463661
 10
66.22352730274144
 20
154.5619633367788
 10
66.63601512811147
 20
154.818802378101
 10
67.04622302425014
 20
155.0618498370268
  0
LWPOLYLINE
  5
17E
330
2
100
AcDbEntity
  8
0
  6
Continuous
 62
     7
370
    15
100
AcDbPolyline
 90
       91
 70
   128
 43
0.0
 10
78.43929294430608
 20
156.258928050309
 10
78.14186143966174
 20
156.4217840661872
 10
77.83600996040616
 20
156.5717015451113
 10
77.52286237970975
 20
156.7080498655267
 10
77.20263331328226
 20
156.8307355811052
 10
76.87554223013012
 20
156.9396746091858
 10
76.54181330214294
 20
157.0347922884002
 10
76.20167525045815
 20
157.1160234298422
 10
75.85536118870584
 20
157.1833123617451
 10
75.50310846324521
 20
157.2366129676362
 10
75.14515849049894
 20
157.2758887179425
 10
74.78175659149838
 20
157.3011126950269
 10
74.41315182375262
 20
157.3122676116351
 10
74.03959681055733
 20
157.3093458227447
 10
73.66134756785914
 20
157.2923493308038
 10
73.27866332879501
 20
157.2612897843589
 10
72.89180636602679
 20
157.2161884700718
 10
72.50104181199287
 20
157.1570762981304
 10
72.10663747719945
 20
157.0839937810646
 10
71.70886366667673
 20
156.9969910059811
 10
71.30799299472517
 20
156.8961276002361
 10
70.90430019807934
 20
156.7814726905695
 10
70.4980619476172
 20
156.6531048557293
 10
70.0895566587435
 20
156.5111120726175
 10
69.67906430057803
 20
156.3555916559948
 10
69.26686620407849
 20
156.1866501917864
 10
68.85324486923048
 20
156.0044034640331
 10
68.43848377143604
 20
155.8089763755386
 10
68.02286716723381
 20
155.6005028622676
 10
67.60667989948377
 20
155.3791258015526
 10
67.19020720215019
 20
155.1449969141729
 10
66.77373450481673
 20
154.8982766603731
 10
66.35754723706668
 20
154.639134129891
 10
65.94193063286446
 20
154.3677469260727
 10
65.52716953507001
 20
154.0843010441514
 10
65.113548200222
 20
153.7889907437763
 10
64.70135010372246
 20
153.4820184158762
 10
64.29085774555687
 20
153.163594443951
 10
63.8823524566833
 20
152.8339370598854
 10
63.47611420622115
 20
152.4932721943837
 10
63.07242140957533
 20
152.1418333221281
 10
62.67155073762376
 20
151.7798613017669
 10
62.27377692710104
 20
151.407604210842
 10
61.87937259230761
 20
151.0253171757688
 10
61.48860803827369
 20
150.6332621969855
 10
61.10175107550549
 20
150.2317079693909
 10
60.71906683644136
 20
149.8209296981946
 10
60.34081759374316
 20
149.4012089103049
 10
59.96726258054787
 20
148.9728332613842
 10
59.59865781280223
 20
148.5360963387044
 10
59.23525591380155
 20
148.0912974599369
 10
58.87730594105528
 20
147.638741468015
 10
58.52505321559476
 20
147.1787385222098
 10
58.17873915384246
 20
146.7116038855628
 10
57.83860110215755
 20
146.23765770882
 10
57.50487217417049
 20
145.7572248110168
 10
57.17778109101823
 20
145.2706344568632
 10
56.85755202459086
 20
144.7782201310822
 10
56.54440444389445
 20
144.2803193098561
 10
56.23855296463887
 20
143.777273229537
 10
55.94020720215031
 20
143.2694266527807
 10
55.64957162771168
 20
142.7571276322634
 10
55.36684542842817
 20
142.2407272721438
 10
55.09222237071435
 20
141.7205794874339
 10
54.82589066749608
 20
141.1970407614436
 10
54.56803284921932
 20
140.6704699014641
 10
54.3188256387524
 20
140.1412277928602
 10
54.07843983026919
 20
139.6096771517368
 10
53.84704017219519
 20
139.0761822763518
 10
53.62478525429754
 20
138.5411087974443
 10
53.411827398995
 20
138.0048234276489
 10
53.20831255696408
 20
137.4676937101703
 10
53.01438020711168
 20
136.9300877668864
 10
52.83016326098345
 20
136.3923740460569
 10
52.65578797167222
 20
135.8549210698066
 10
52.49137384729113
 20
135.318097181559
 10
52.33703356906835
 20
134.7822702935921
 10
52.19287291412115
 20
134.2478076348899
 10
52.05899068296128
 20
133.7150754994617
 10
51.93547863178264
 20
133.1844389953024
 10
51.82242140957544
 20
132.6562617941661
 10
51.71989650011244
 20
132.1309058823235
 10
51.62797416884529
 20
131.6087313124744
 10
51.54671741474828
 20
131.0900959569857
 10
51.47618192714185
 20
130.5753552626238
 10
51.4164160475259
 20
130.0648620069488
 10
51.36746073644883
 20
129.5589660565381
 10
51.32934954543543
 20
129.0580141272064
 10
51.30210859399255
 20
128.5623495463828
 10
51.28575655170743
 20
128.0723120178119
 10
51.28030462545303
 20
127.5882373887383
  0
LWPOLYLINE
  5
17F
330
2
100
AcDbEntity
  8
0
  6
Continuous
 62
     7
370
    15
100
AcDbPolyline
 90
       32
 70
   128
 43
0.0
 10
51.28030462545303
 20
127.5882373887383
 10
51.28575655170743
 20
127.1104574197321
 10
51.30210859399255
 20
126.6392995573186
 10
51.32934954543543
 20
126.175086709562
 10
51.36746073644883
 20
125.7181370247601
 10
51.4164160475259
 20
125.2687636734018
 10
51.47618192714185
 20
124.8272746335353
 10
51.54671741474828
 20
124.3939724796957
 10
51.62797416884529
 20
123.9691541755354
 10
51.71989650011244
 20
123.5531108702998
 10
51.82242140957544
 20
123.1461276992885
 10
51.93547863178264
 20
122.7484835884377
 10
52.05899068296139
 20
122.3604510631583
 10
52.19287291412115
 20
121.9822960615603
 10
52.33703356906835
 20
121.6142777521926
 10
52.49137384729113
 20
121.2566483564215
 10
52.65578797167222
 20
120.9096529755709
 10
52.83016326098345
 20
120.573529422942
 10
53.0143802071118
 20
120.2485080608281
 10
53.20831255696408
 20
119.9348116426355
 10
53.411827398995
 20
119.6326551602198
 10
53.62478525429764
 20
119.342245696541
 10
53.8470401721953
 20
119.0637822837393
 10
54.07843983026919
 20
118.7974557667281
 10
54.31882563875252
 20
118.543448672399
 10
54.56803284921943
 20
118.3019350845264
 10
54.82589066749619
 20
118.0730805244597
 10
55.09222237071447
 20
117.8570418376827
 10
55.36684542842829
 20
117.65396708632
 10
55.64957162771179
 20
117.4639954476624
 10
55.94020720215041
 20
117.2872571187817
 10
55.94112145999474
 20
117.2867292431784
  0
LWPOLYLINE
  5
180
330
2
100
AcDbEntity
  8
0
  6
Continuous
 62
     7
370
    15
100
AcDbPolyline
 90
      138
 70
   128
 43
0.0
 10
85.69975677791275
 20
135.3248472092031
 10
85.85960359140404
 20
135.8470456412852
 10
86.01257195604262
 20
136.3781096235813
 10
86.15545118294585
 20
136.907821503095
 10
86.28814334982871
 20
137.4358182417639
 10
86.41055751610792
 20
137.9617379769974
 10
86.52260978522894
 20
138.4852202696791
 10
86.62422336216332
 20
139.0059063511942
 10
86.71532860604145
 20
139.5234393693113
 10
86.79586307787975
 20
140.0374646327512
 10
86.86577158337412
 20
140.5476298542742
 10
86.9250062107269
 20
141.0535853921212
 10
86.9735263634833
 20
141.5549844896392
 10
87.01129878835422
 20
142.0514835129325
 10
87.03829759800658
 20
142.5427421863711
 10
87.05450428880476
 20
143.028423825799
 10
87.05990775349244
 20
143.5081955692811
 10
87.05450428880476
 20
143.9817286052295
 10
87.03829759800658
 20
144.4486983977548
 10
87.01129878835422
 20
144.9087849090869
 10
86.9735263634833
 20
145.3616728189128
 10
86.9250062107269
 20
145.8070517404813
 10
86.86577158337412
 20
146.2446164333267
 10
86.79586307787975
 20
146.6740670124655
 10
86.71532860604134
 20
147.0951091539222
 10
86.62422336216332
 20
147.5074542964446
 10
86.52260978522884
 20
147.9108198392691
 10
86.41055751610792
 20
148.3049293358012
 10
86.28814334982861
 20
148.6895126830781
 10
86.15545118294575
 20
149.0643063068841
 10
86.01257195604251
 20
149.4290533423908
 10
85.85960359140392
 20
149.7835038101994
 10
85.69665092590629
 20
150.1274147876647
 10
85.52382563916671
 20
150.4605505753814
 10
85.34124617700399
 20
150.782682858721
 10
85.14903767026135
 20
151.0935908643074
 10
84.9473318490485
 20
151.3930615113238
 10
84.73626695245981
 20
151.6808895575477
 10
84.51598763383231
 20
151.9568777400134
 10
84.28664486160778
 20
152.2208369102067
 10
84.04839581586669
 20
152.4725861636973
 10
83.80140378060389
 20
152.7119529641222
 10
83.54583803182288
 20
152.9387732614327
 10
83.28187372152218
 20
153.1528916043272
 10
83.00969175765464
 20
153.3541612467889
 10
82.7294786801425
 20
153.5424442486584
 10
82.44142653303232
 20
153.7176115701713
 10
82.14573273287692
 20
153.8795431603951
 10
81.84259993343699
 20
154.0281280395066
 10
81.53223588679111
 20
154.1632643748517
 10
81.21485330095413
 20
154.2848595507362
 10
80.89066969409669
 20
154.3928302319005
 10
80.55990724546949
 20
154.4871024206329
 10
80.22279264313295
 20
154.5676115074844
 10
79.87955692859623
 20
154.6343023155481
 10
79.53043533847301
 20
154.6871291382758
 10
79.17566714326222
 20
154.7260557708016
 10
78.81549548336386
 20
154.7510555347563
 10
78.45016720244257
 20
154.7621112965502
 10
78.0799326782535
 20
154.7592154791166
 10
77.70504565104591
 20
154.7423700671041
 10
77.32576304966233
 20
154.7115866055165
 10
76.94234481545208
 20
154.6668861918008
 10
76.55505372412062
 20
154.6082994613878
 10
76.16415520563657
 20
154.5358665666959
 10
75.76991716231851
 20
154.4496371496132
 10
75.37260978522875
 20
154.3496703074747
 10
74.97250536899753
 20
154.2360345525607
 10
74.56987812520617
 20
154.1088077651414
 10
74.16500399445578
 20
153.9680771401017
 10
73.75816045725184
 20
153.8139391271823
 10
73.34962634383225
 20
153.646499364878
 10
72.9396816430717
 20
153.4658726080381
 10
72.52860731059104
 20
153.272182649219
 10
72.11668507620391
 20
153.0655622338437
 10
71.70419725083388
 20
152.8461529692239
 10
71.29142653303222
 20
152.6141052275099
 10
70.87865581523056
 20
152.3695780426328
 10
70.46616798986054
 20
152.1127390013105
 10
70.0542457554734
 20
151.8437641281928
 10
69.64317142299262
 20
151.5628377652219
 10
69.23322672223219
 20
151.2701524452947
 10
68.8246926088126
 20
150.9659087603092
 10
68.41784907160866
 20
150.65031522369
 10
68.01297494085827
 20
150.3235881274827
 10
67.61034769706691
 20
149.9859513941188
 10
67.21024328083569
 20
149.63763642295
 10
66.81293590374593
 20
149.2788819316586
 10
66.41869786042787
 20
148.909933792653
 10
66.02779934194382
 20
148.5310448645583
 10
65.64050825061236
 20
148.1424748189196
 10
65.25709001640212
 20
147.7444899622371
 10
64.87780741501854
 20
147.3373630534515
 10
64.50292038781094
 20
146.9213731170096
 10
64.13268586362187
 20
146.4968052516349
 10
63.76735758270058
 20
146.0639504349345
 10
63.40718592280222
 20
145.6231053239783
 10
63.05241772759143
 20
145.1745720519845
 10
62.70329613746833
 20
144.7186580212532
 10
62.36006042293161
 20
144.2556756924874
 10
62.02294582059505
 20
143.785942370649
 10
61.69218337196787
 20
143.3097799874929
 10
61.36799976511031
 20
142.8275148809318
 10
61.05061717927333
 20
142.33947757138
 10
60.74025313262757
 20
141.8460025352315
 10
60.43712033318752
 20
141.3474279756264
 10
60.14142653303224
 20
140.8440955906634
 10
59.85337438592205
 20
140.3363503392174
 10
59.5731613084099
 20
139.824540204521
 10
59.30097934454238
 20
139.3090159556753
 10
59.03701503424167
 20
138.7901309072493
 10
58.78144928546067
 20
138.2682406771363
 10
58.53445725019787
 20
137.7437029428311
 10
58.29620820445677
 20
137.2168771962954
 10
58.06686543223236
 20
136.6881244975806
 10
57.84658611360487
 20
136.1578072273744
 10
57.63552121701605
 20
135.6262888386439
 10
57.43381539580321
 20
135.0939336075428
 10
57.24160688906067
 20
134.5611063837548
 10
57.05902742689795
 20
134.0281723404438
 10
56.88620214015839
 20
133.4954967239824
 10
56.72324947466075
 20
132.9634446036303
 10
56.57028111002216
 20
132.4323806213343
 10
56.42740188311882
 20
131.9026687418205
 10
56.29470971623607
 20
131.3746720031516
 10
56.17229554995674
 20
130.8487522679182
 10
56.06024328083583
 20
130.3252699752365
 10
55.95862970390135
 20
129.8045838937214
 10
55.86752446002333
 20
129.2870508756042
 10
55.78698998818504
 20
128.7730256121644
 10
55.71708148269067
 20
128.2628603906412
 10
55.65784685533788
 20
127.7569048527944
 10
55.60932670258148
 20
127.2555057552764
 10
55.57155427771045
 20
126.7590067319831
 10
55.5445554680582
 20
126.2677480585445
 10
55.52834877726002
 20
125.7820664191166
 10
55.52294531257235
 20
125.3022946756346
 10
55.52294531257235
 20
125.3022946756346
  0
LWPOLYLINE
  5
181
330
2
100
AcDbEntity
  8
0
  6
Continuous
 62
     7
370
    15
100
AcDbPolyline
 90
       77
 70
   128
 43
0.0
 10
55.52294531257235
 20
125.3022946756346
 10
55.52834877726002
 20
124.8287616396863
 10
55.54455546805809
 20
124.361791847161
 10
55.57155427771045
 20
123.9017053358288
 10
55.60932670258148
 20
123.448817426003
 10
55.65784685533788
 20
123.0034385044345
 10
55.71708148269056
 20
122.565873811589
 10
55.78698998818504
 20
122.1364232324502
 10
55.86752446002333
 20
121.7153810909936
 10
55.95862970390135
 20
121.3030359484712
 10
56.06024328083583
 20
120.8996704056467
 10
56.17229554995685
 20
120.5055609091146
 10
56.29470971623607
 20
120.1209775618377
 10
56.42740188311893
 20
119.7461839380316
 10
56.57028111002216
 20
119.381436902525
 10
56.72324947466075
 20
119.0269864347163
 10
56.8862021401585
 20
118.683075457251
 10
57.05902742689807
 20
118.3499396695344
 10
57.24160688906067
 20
118.0278073861948
 10
57.43381539580332
 20
117.7168993806084
 10
57.63552121701616
 20
117.4174287335919
 10
57.84658611360487
 20
117.129600687368
 10
58.06686543223236
 20
116.8536125049023
 10
58.29620820445677
 20
116.589653334709
 10
58.53445725019799
 20
116.3379040812184
 10
58.78144928546078
 20
116.0985372807936
 10
59.03701503424179
 20
115.871716983483
 10
59.30097934454249
 20
115.6575986405885
 10
59.57316130841002
 20
115.4563289981268
 10
59.85337438592217
 20
115.2680459962573
 10
60.14142653303236
 20
115.0928786747444
 10
60.43712033318775
 20
114.9309470845206
 10
60.74025313262769
 20
114.7823622054091
 10
61.05061717927345
 20
114.6472258700641
 10
61.36799976511042
 20
114.5256306941795
 10
61.69218337196799
 20
114.4176600130152
 10
62.02294582059517
 20
114.3233878242828
 10
62.36006042293173
 20
114.2428787374313
 10
62.70329613746844
 20
114.1761879293675
 10
63.05241772759166
 20
114.1233611066399
 10
63.40718592280234
 20
114.084434474114
 10
63.76735758270081
 20
114.0594347101594
 10
64.1326858636221
 20
114.0483789483655
 10
64.50292038781118
 20
114.0512747657991
 10
64.87780741501865
 20
114.0681201778116
 10
65.25709001640234
 20
114.0989036393992
 10
65.64050825061258
 20
114.1436040531148
 10
66.02779934194393
 20
114.2021907835279
 10
66.4186978604281
 20
114.2746236782197
 10
66.81293590374616
 20
114.3608530953025
 10
67.21024328083593
 20
114.4608199374409
 10
67.61034769706714
 20
114.5744556923549
 10
68.0129749408585
 20
114.7016824797743
 10
68.41784907160877
 20
114.842413104814
 10
68.82469260881283
 20
114.9965511177333
 10
69.23322672223242
 20
115.1639908800376
 10
69.64317142299285
 20
115.3446176368776
 10
70.05424575547363
 20
115.5383075956966
 10
70.46616798986076
 20
115.7449280110718
 10
70.87865581523079
 20
115.9643372756916
 10
71.29142653303245
 20
116.1963850174057
 10
71.70419725083411
 20
116.4409122022829
 10
72.11668507620413
 20
116.6977512436051
 10
72.52860731059127
 20
116.9667261167228
 10
72.93968164307194
 20
117.2476524796937
 10
73.34962634383249
 20
117.540337799621
 10
73.75816045725207
 20
117.8445814846064
 10
74.16500399445602
 20
118.1601750212256
 10
74.5698781252064
 20
118.4869021174328
 10
74.97250536899776
 20
118.8245388507968
 10
75.37260978522898
 20
119.1728538219656
 10
75.76991716231873
 20
119.531608313257
 10
76.1641552056368
 20
119.9005564522625
 10
76.55505372412085
 20
120.2794453803573
 10
76.94234481545231
 20
120.6680154259959
 10
77.32576304966255
 20
121.0660002826785
 10
77.70040691682424
 20
121.4680654111123
  0
LWPOLYLINE
  5
182
330
2
100
AcDbEntity
  8
0
  6
Continuous
 62
     7
370
    15
100
AcDbPolyline
 90
       62
 70
   128
 43
0.0
 10
71.15259098340584
 20
116.116210663247
 10
71.15000517679494
 20
116.1147176662107
 10
70.73353247946136
 20
115.8805887788311
 10
70.31734521171142
 20
115.659211718116
 10
69.90172860750909
 20
115.450738204845
 10
69.48696750971464
 20
115.2553111163505
 10
69.07334617486663
 20
115.0730643885972
 10
68.66114807836709
 20
114.9041229243889
 10
68.25065572020162
 20
114.7486025077662
 10
67.84215043132792
 20
114.6066097246543
 10
67.43591218086578
 20
114.4782418898142
 10
67.03221938421996
 20
114.3635869801477
 10
66.63134871226839
 20
114.2627235744026
 10
66.23357490174567
 20
114.1757207993191
 10
65.83917056695224
 20
114.1026382822533
 10
65.44840601291844
 20
114.043526110312
 10
65.06154905015023
 20
113.9984247960249
 10
64.67886481108599
 20
113.96736524958
 10
64.30061556838779
 20
113.9503687576391
 10
63.92706055519261
 20
113.9474469687487
 10
63.55845578744686
 20
113.958601885357
 10
63.19505388844629
 20
113.9838258624413
 10
62.83710391570003
 20
114.0231016127477
 10
62.48485119023939
 20
114.0764022186387
 10
62.13853712848709
 20
114.1436911505417
 10
61.79839907680218
 20
114.2249222919837
 10
61.46467014881512
 20
114.3200399711981
 10
61.13757906566298
 20
114.4289789992786
 10
60.81734999923549
 20
114.5516647148572
 10
60.50420241853908
 20
114.6880130352726
 10
60.1983509392835
 20
114.8379305141968
 10
59.90000517679494
 20
115.0013144056783
 10
59.60936960235631
 20
115.178052734559
 10
59.32664340307292
 20
115.3680243732166
 10
59.05202034535898
 20
115.5710991245793
 10
58.78568864214082
 20
115.7871378113562
 10
58.52783082386406
 20
116.015992371423
 10
58.27862361339703
 20
116.2575059592955
 10
58.03823780491382
 20
116.5115130536247
 10
57.80683814683982
 20
116.7778395706358
 10
57.58458322894217
 20
117.0563029834376
 10
57.37162537363963
 20
117.3467124471164
 10
57.16811053160871
 20
117.6488689295321
 10
56.97417818175631
 20
117.9625653477247
 10
56.78996123562808
 20
118.2875867098386
 10
56.61558594631685
 20
118.6237102624675
 10
56.45117182193576
 20
118.9707056433181
 10
56.29683154371298
 20
119.3283350390892
 10
56.15267088876578
 20
119.696353348457
 10
56.01878865760602
 20
120.0745083500549
 10
55.89527660642727
 20
120.4625408753345
 10
55.78221938422007
 20
120.8601849861852
 10
55.67969447475707
 20
121.2671681571964
 10
55.58777214348992
 20
121.683211462432
 10
55.50651538939303
 20
122.1080297665923
 10
55.4359799017866
 20
122.5413319204319
 10
55.37621402217053
 20
122.9828209602984
 10
55.32725871109346
 20
123.4321943116568
 10
55.28914752008017
 20
123.8891439964587
 10
55.26190656863718
 20
124.3533568442153
 10
55.24555452635206
 20
124.8245147066287
 10
55.24010260009777
 20
125.3022946756346
  0
LWPOLYLINE
  5
183
330
2
100
AcDbEntity
  8
0
  6
Continuous
 62
     7
370
    15
100
AcDbPolyline
 90
      122
 70
   128
 43
0.0
 10
55.24010260009777
 20
125.3022946756346
 10
55.24555452635206
 20
125.7863693047085
 10
55.26190656863718
 20
126.2764068332794
 10
55.28914752008017
 20
126.7720714141031
 10
55.32725871109346
 20
127.2730233434348
 10
55.37621402217053
 20
127.7789192938454
 10
55.4359799017866
 20
128.2894125495205
 10
55.50651538939303
 20
128.8041532438825
 10
55.58777214348992
 20
129.322788599371
 10
55.67969447475707
 20
129.8449631692201
 10
55.78221938422007
 20
130.3703190810627
 10
55.89527660642739
 20
130.898496282199
 10
56.01878865760602
 20
131.4291327863583
 10
56.15267088876578
 20
131.9618649217867
 10
56.29683154371298
 20
132.4963275804888
 10
56.45117182193576
 20
133.0321544684556
 10
56.61558594631685
 20
133.5689783567033
 10
56.78996123562808
 20
134.1064313329536
 10
56.97417818175643
 20
134.6441450537831
 10
57.16811053160871
 20
135.181750997067
 10
57.37162537363963
 20
135.7188807145456
 10
57.58458322894227
 20
136.2551660843409
 10
57.80683814683993
 20
136.7902395632486
 10
58.03823780491393
 20
137.3237344386335
 10
58.27862361339715
 20
137.8552850797569
 10
58.52783082386406
 20
138.3845271883608
 10
58.78568864214094
 20
138.9110980483403
 10
59.0520203453591
 20
139.4346367743306
 10
59.32664340307304
 20
139.9547845590405
 10
59.60936960235653
 20
140.47118491916
 10
59.90000517679504
 20
140.9834839396774
 10
60.19835093928361
 20
141.4913305164337
 10
60.50420241853919
 20
141.9943765967528
 10
60.8173499992356
 20
142.492277417979
 10
61.13757906566309
 20
142.9846917437599
 10
61.46467014881523
 20
143.4712820979135
 10
61.79839907680241
 20
143.9517149957166
 10
62.1385371284872
 20
144.4256611724594
 10
62.48485119023962
 20
144.8927958091065
 10
62.83710391570014
 20
145.3527987549117
 10
63.19505388844641
 20
145.8053547468336
 10
63.55845578744709
 20
146.2501536256011
 10
63.92706055519273
 20
146.6868905482809
 10
64.30061556838802
 20
147.1152661972016
 10
64.67886481108621
 20
147.5349869850913
 10
65.06154905015034
 20
147.9457652562875
 10
65.44840601291856
 20
148.3473194838821
 10
65.83917056695248
 20
148.7393744626654
 10
66.2335749017459
 20
149.1216614977386
 10
66.63134871226862
 20
149.4939185886636
 10
67.03221938422018
 20
149.8558906090247
 10
67.43591218086601
 20
150.2073294812803
 10
67.84215043132815
 20
150.547994346782
 10
68.25065572020185
 20
150.8776517308476
 10
68.66114807836732
 20
151.1960757027728
 10
69.07334617486686
 20
151.5030480306729
 10
69.48696750971487
 20
151.798358331048
 10
69.90172860750931
 20
152.0818042129692
 10
70.31734521171165
 20
152.3531914167876
 10
70.73353247946158
 20
152.6123339472696
 10
71.15000517679516
 20
152.8590542010696
 10
71.56647787412862
 20
153.0931830884491
 10
71.98266514187867
 20
153.3145601491641
 10
72.39828174608089
 20
153.5230336624352
 10
72.81304284387534
 20
153.7184607509297
 10
73.22666417872347
 20
153.900707478683
 10
73.638862275223
 20
154.0696489428914
 10
74.04935463338848
 20
154.225169359514
 10
74.45785992226205
 20
154.3671621426259
 10
74.8640981727242
 20
154.495529977466
 10
75.26779096937002
 20
154.6101848871325
 10
75.66866164132171
 20
154.7110482928776
 10
76.06643545184443
 20
154.7980510679611
 10
76.46083978663773
 20
154.8711335850269
 10
76.85160434067165
 20
154.9302457569683
 10
77.23846130343986
 20
154.9753470712554
 10
77.62114554250399
 20
155.0064066177002
 10
77.99939478520219
 20
155.0234031096411
 10
78.37294979839748
 20
155.0263248985315
 10
78.74155456614312
 20
155.0151699819233
 10
79.1049564651438
 20
154.989946004839
 10
79.46290643789007
 20
154.9506702545326
 10
79.81515916335069
 20
154.8973696486416
 10
80.16147322510301
 20
154.8300807167385
 10
80.5016112767878
 20
154.7488495752965
 10
80.83534020477486
 20
154.6537318960822
 10
81.16243128792712
 20
154.5447928680017
 10
81.4826603543546
 20
154.422107152423
 10
81.79580793505101
 20
154.2857588320077
 10
82.10165941430659
 20
154.1358413530835
 10
82.40000517679517
 20
153.972457461602
 10
82.69064075123379
 20
153.7957191327213
 10
82.97336695051717
 20
153.6057474940637
 10
83.2479900082311
 20
153.4026727427011
 10
83.51432171144926
 20
153.1866340559241
 10
83.77217952972603
 20
152.9577794958573
 10
84.02138674019306
 20
152.7162659079848
 10
84.26177254867628
 20
152.4622588136556
 10
84.49317220675027
 20
152.1959322966445
 10
84.71542712464794
 20
151.9174688838427
 10
84.92838497995046
 20
151.6270594201639
 10
85.1318998219814
 20
151.3249029377482
 10
85.32583217183377
 20
151.0112065195556
 10
85.51004911796201
 20
150.6861851574417
 10
85.68442440727324
 20
150.3500616048128
 10
85.84883853165434
 20
150.0030662239622
 10
86.00317880987711
 20
149.6454368281912
 10
86.14733946482431
 20
149.2774185188234
 10
86.28122169598418
 20
148.8992635172254
 10
86.40473374716282
 20
148.511230991946
 10
86.51779096937003
 20
148.1135868810951
 10
86.62031587883303
 20
147.7066037100839
 10
86.71223821010016
 20
147.2905604048483
 10
86.79349496419717
 20
146.865742100688
 10
86.86403045180361
 20
146.4324399468484
 10
86.92379633141957
 20
145.9909509069819
 10
86.97275164249663
 20
145.5415775556236
 10
87.01086283351003
 20
145.0846278708217
 10
87.0381037849529
 20
144.6204150230651
 10
87.05445582723802
 20
144.1492571606516
 10
87.05990775349244
 20
143.6714771916454
 10
87.05990775349244
 20
143.6714771916456
  0
LWPOLYLINE
  5
184
330
2
100
AcDbEntity
  8
0
  6
Continuous
 62
     7
370
    15
100
AcDbPolyline
 90
      105
 70
   128
 43
0.0
 10
75.29110146357663
 20
141.3336360215033
 10
75.26080964151072
 20
141.3508602642828
 10
75.13605212880441
 20
141.4164597777281
 10
75.00771821944477
 20
141.4755372296607
 10
74.87592729383755
 20
141.5280376642998
 10
74.74080194821841
 20
141.5739122440214
 10
74.60246788060965
 20
141.6131182947892
 10
74.46105377389187
 20
141.6456193458504
 10
74.31669117609897
 20
141.6713851636629
 10
74.16951437804766
 20
141.690391780019
 10
74.01966028841605
 20
141.7026215143418
 10
73.86726830638645
 20
141.7080629901316
 10
73.71248019197207
 20
141.7067111455496
 10
73.55543993414665
 20
141.6985672381258
 10
73.39629361690152
 20
141.6836388435896
 10
73.23518928335374
 20
141.6619398488226
 10
73.07227679803088
 20
141.6334904389406
 10
72.90770770746291
 20
141.5983170785163
 10
72.74163509920788
 20
141.5564524869616
 10
72.57421345944544
 20
141.5079356080909
 10
72.40559852926867
 20
141.4528115738939
 10
72.23594715980812
 20
141.3911316625527
 10
72.06541716632433
 20
141.3229532507411
 10
71.89416718140273
 20
141.2483397602508
 10
71.72235650738833
 20
141.1673605989945
 10
71.5501449681974
 20
141.0800910964404
 10
71.37769276064421
 20
140.9866124335381
 10
71.20516030542058
 20
140.8870115672016
 10
71.03270809786727
 20
140.7813811494189
 10
70.86049655867634
 20
140.6698194410644
 10
70.68868588466194
 20
140.5524302204933
 10
70.51743589974035
 20
140.4293226870035
 10
70.34690590625666
 20
140.3006113592547
 10
70.17725453679611
 20
140.1664159687398
 10
70.00863960661923
 20
140.0268613484063
 10
69.8412179668569
 20
139.8820773165329
 10
69.67514535860186
 20
139.7321985559684
 10
69.51057626803379
 20
139.5773644888447
 10
69.34766378271092
 20
139.4177191468824
 10
69.18655944916316
 20
139.2534110374076
 10
69.02741313191814
 20
139.0845930052052
 10
68.8703728740926
 20
138.9114220903383
 10
68.71558475967822
 20
138.7340593820636
 10
68.56319277764874
 20
138.5526698689818
 10
68.41333868801712
 20
138.3674222855589
 10
68.26616188996581
 20
138.1784889551645
 10
68.12179929217279
 20
137.9860456297708
 10
67.98038518545502
 20
137.7902713264621
 10
67.84205111784626
 20
137.5913481609077
 10
67.70692577222724
 20
137.3894611779515
 10
67.57513484662002
 20
137.1847981794777
 10
67.44680093726038
 20
136.9775495497106
 10
67.32204342455407
 20
136.7679080781139
 10
67.20097836202558
 20
136.5560687800508
 10
67.08371836836147
 20
136.3422287153748
 10
66.9703725226484
 20
136.1265868051181
 10
66.86104626290466
 20
135.9093436464487
 10
66.75584128799767
 20
135.690701326068
 10
66.65485546304103
 20
135.4708632322237
 10
66.55818272835677
 20
135.2500338655113
 10
66.46591301208878
 20
135.0284186486405
 10
66.37813214654954
 20
134.8062237353446
 10
66.29492178837518
 20
134.5836558186096
 10
66.2163593425663
 20
134.3609219384016
 10
66.14251789048319
 20
134.138229289071
 10
66.07346612186313
 20
133.9157850266144
 10
66.00926827092291
 20
133.6937960759703
 10
65.94998405660624
 20
133.4724689385316
 10
65.895668627031
 20
133.2520095000506
 10
65.84637250818866
 20
133.0326228391179
 10
65.80214155694386
 20
132.8145130363911
 10
65.76301691837591
 20
132.5978829847524
 10
65.7290349875052
 20
132.3829342005713
 10
65.70022737543673
 20
132.1698666362471
 10
65.67662087995495
 20
131.9588784942067
 10
65.65823746059493
 20
131.7501660425307
 10
65.64509421821572
 20
131.5439234323772
 10
65.63720337909171
 20
131.3403425173776
 10
65.63457228354002
 20
131.139612675167
 10
65.63720337909171
 20
130.941920631219
 10
65.64509421821572
 20
130.7474502851481
 10
65.65823746059504
 20
130.5563825396397
 10
65.67662087995495
 20
130.3688951321687
 10
65.70022737543673
 20
130.1851624696625
 10
65.7290349875052
 20
130.0053554662616
 10
65.76301691837591
 20
129.8296413843297
 10
65.80214155694386
 20
129.6581836788611
 10
65.84637250818878
 20
129.4911418454293
 10
65.895668627031
 20
129.3286712718189
 10
65.94998405660624
 20
129.1709230934789
 10
66.00926827092291
 20
129.0180440529315
 10
66.07346612186313
 20
128.8701763632676
 10
66.1425178904833
 20
128.7274575758552
 10
66.21635934256642
 20
128.590020452385
 10
66.29492178837518
 20
128.4579928413706
 10
66.37813214654954
 20
128.3314975592203
 10
66.46591301208878
 20
128.2106522759885
 10
66.55818272835677
 20
128.0955694059158
 10
66.65485546304115
 20
127.9863560028573
 10
66.75584128799778
 20
127.8831136606977
 10
66.86104626290466
 20
127.7859384188451
 10
66.97037252264852
 20
127.6949206728923
 10
67.08371836836159
 20
127.6101450905278
 10
67.20097836202558
 20
127.5316905327749
 10
67.29175160248814
 20
127.4768542234124
  0
LWPOLYLINE
  5
185
330
2
100
AcDbEntity
  8
0
  6
Continuous
 62
     7
370
    15
100
AcDbPolyline
 90
        3
 70
   128
 43
0.0
 10
147.9379117326732
 20
124.0151806495267
 10
148.2357047170512
 20
124.1821820609022
 10
148.3240147978156
 20
124.2380599940966
  0
ARC
  5
186
330
2
100
AcDbEntity
  8
0
  6
Continuous
 62
     7
370
    15
100
AcDbCircle
 10
145.714022267366
 20
129.7469821902256
 30
0.0
 40
0.8498707764621284
100
AcDbArc
 50
97.78771136172387
 51
111.1961483196479
  0
LINE
  5
187
330
2
100
AcDbEntity
  8
0
  6
Continuous
 62
     7
370
    15
100
AcDbLine
 10
145.7875570867989
 20
130.6523050631144
 30
0.0
 11
148.9850997497242
 21
132.4982071512904
 31
0.0
  0
ARC
  5
188
330
2
100
AcDbEntity
  8
0
  6
Continuous
 62
     7
370
    15
100
AcDbCircle
 10
148.8974659916807
 20
132.6503595632381
 30
0.0
 40
0.1755848285312391
100
AcDbArc
 50
299.9402371291347
 51
304.7634724421909
  0
LWPOLYLINE
  5
189
330
2
100
AcDbEntity
  8
0
  6
Continuous
 62
     7
370
    15
100
AcDbPolyline
 90
      121
 70
   128
 43
0.0
 10
89.92481722024695
 20
98.44907251798815
 10
89.32310500389746
 20
98.88706961188731
 10
88.74013596057318
 20
99.33343427485356
 10
88.17625911116715
 20
99.78789927041006
 10
87.63181204616342
 20
100.2501925124477
 10
87.10712072352327
 20
100.7200372281227
 10
86.6024992735355
 20
101.1971521235581
 10
86.11824981074823
 20
101.6812515522538
 10
85.65466225309434
 20
102.1720456861017
 10
85.21201414831876
 20
102.6692406889044
 10
84.79057050781216
 20
103.1725388922938
 10
84.39058364794936
 20
103.6816389739432
 10
84.01229303902949
 20
104.1962361379683
 10
83.65592516190508
 20
104.7160222974068
 10
83.32169337239031
 20
105.2406862586684
 10
83.00979777352484
 20
105.7699139078456
 10
82.72042509577341
 20
106.3033883987713
 10
82.45374858523144
 20
106.8407903427142
 10
82.20992789990281
 20
107.3817979995948
 10
81.98910901411375
 20
107.9260874706097
 10
81.79142413111879
 20
108.4733328921485
 10
81.61699160395063
 20
109.0232066308867
 10
81.46591586456361
 20
109.5753794799383
 10
81.33828736130999
 20
110.1295208559507
 10
81.23418250478961
 20
110.6852989970231
 10
81.1536636221025
 20
111.242381161331
 10
81.0967789195347
 20
111.8004338263371
 10
81.06356245369658
 20
112.3591228884698
 10
81.05403411113412
 20
112.9181138631497
 10
81.06819959642212
 20
113.4770720850432
 10
81.10605042874965
 20
114.0356629084263
 10
81.1675639469969
 20
114.5935519075343
 10
81.25270332330263
 20
115.1504050767817
 10
81.36141758511246
 20
115.7058890307296
 10
81.49364164569659
 20
116.2596712036818
 10
81.64929634311624
 20
116.811420048791
 10
81.82828848761767
 20
117.3608052365535
 10
82.03051091742485
 20
117.9074978525766
 10
82.25584256289641
 20
118.4511705944981
 10
82.50414851900927
 20
118.9914979679404
 10
82.7752801261264
 20
119.5281564813827
 10
83.06907505899767
 20
120.0608248398338
 10
83.38535742394412
 20
120.5891841371902
 10
83.72393786416409
 20
121.1129180471633
 10
84.08461367310065
 20
121.6317130126629
 10
84.46716891580081
 20
122.145258433522
 10
84.87137455819516
 20
122.653246852452
 10
85.296988604219
 20
123.1553741391159
 10
85.74375624069455
 20
123.6513396722099
 10
86.21140998988654
 20
124.1408465194433
 10
86.69966986963993
 20
124.6236016153116
 10
87.20824356100365
 20
125.0993159365524
 10
87.73682658324048
 20
125.5677046751831
 10
88.28510247611916
 20
126.0284874090135
 10
88.85274298937668
 20
126.481388269534
 10
89.43940827924052
 20
126.9261361070761
 10
90.04474711189208
 20
127.362464653149
 10
90.66839707374787
 20
127.7901126798528
 10
91.3099847884356
 20
128.208824156275
 10
91.9691261403325
 20
128.6183484017747
 10
92.64542650453359
 20
129.018440236064
 10
93.33848098311216
 20
129.4088601259963
 10
94.04787464752997
 20
129.7893743289738
 10
94.77318278705286
 20
130.1597550328881
 10
95.51397116302382
 20
130.51978049251
 10
96.26979626883894
 20
130.8692351622479
 10
97.04020559547338
 20
131.2079098251935
 10
97.8247379023959
 20
131.535601718379
 10
98.62292349371195
 20
131.8521146541705
 10
99.43428449936801
 20
132.1572591377249
 10
100.2583351612506
 20
132.4508524804392
 10
101.0945821240073
 20
132.7327189093251
 10
101.9425247304158
 20
133.0026896722444
 10
102.8016553211263
 20
133.2606031389393
 10
103.6714595385934
 20
133.5063048977999
 10
104.5514166350209
 20
133.7396478483097
 10
105.4409997841301
 20
133.9604922891145
 10
106.3396763965688
 20
134.16870600166
 10
107.2469084387701
 20
134.3641643293516
 10
108.1621527550705
 20
134.5467502521845
 10
109.0848613928949
 20
134.716354456804
 10
110.0144819308127
 20
134.8728754019508
 10
110.9504578092707
 20
135.0162193792524
 10
111.8922286638025
 20
135.1463005693271
 10
112.8392306605159
 20
135.2630410931629
 10
113.7908968336581
 20
135.3663710587434
 10
114.7466574250552
 20
135.4562286028921
 10
115.7059402252237
 20
135.5325599283094
 10
116.66817091595
 20
135.5953193357807
 10
117.6327734141318
 20
135.6444692515366
 10
118.5991702166768
 20
135.6799802497479
 10
119.5667827462508
 20
135.7018310701427
 10
120.5350316976693
 20
135.7100086307353
 10
121.503337384725
 20
135.7045080356574
 10
122.4711200872433
 20
135.6853325780902
 10
123.4378003981579
 20
135.6524937382921
 10
124.4027995703998
 20
135.606011176726
 10
125.3655398633891
 20
135.5459127222883
 10
126.3254448889274
 20
135.4722343556482
 10
127.2819399562775
 20
135.3850201877058
 10
128.2344524162285
 20
135.2843224331836
 10
129.1824120039388
 20
135.1702013793655
 10
130.1252511803498
 20
135.0427253500031
 10
131.06240547197
 20
134.9019706644106
 10
131.9933138088225
 20
134.7480215917729
 10
132.9174188603548
 20
134.5809703006937
 10
133.8341673691099
 20
134.4009168040151
 10
134.7430104819596
 20
134.2079688989398
 10
135.6434040786994
 20
134.0022421024939
 10
136.5348090978121
 20
133.7838595823671
 10
137.4166918592002
 20
133.5529520831727
 10
138.2885243836986
 20
133.3096578481716
 10
139.1497847091722
 20
133.0541225365067
 10
139.9999572030139
 20
132.7864991359973
 10
140.8385328708499
 20
132.5069478715463
 10
141.6650096612733
 20
132.2156361092135
 10
142.4788927664195
 20
131.9127382560154
 10
143.2796949182057
 20
131.5984356555077
 10
144.0669366800554
 20
131.2729164792161
 10
144.8401467339361
 20
130.9363756139788
 10
145.5988621625337
 20
130.5890145452684
  0
ARC
  5
18A
330
2
100
AcDbEntity
  8
0
  6
Continuous
 62
     7
370
    15
100
AcDbCircle
 10
145.5309280903733
 20
131.1044874432752
 30
0.0
 40
0.5199301364027348
100
AcDbArc
 50
277.5077329045509
 51
299.576395623235
  0
LWPOLYLINE
  5
18B
330
2
100
AcDbEntity
  8
0
  6
Continuous
 62
     7
370
    15
100
AcDbPolyline
 90
      121
 70
   128
 43
0.0
 10
148.9975826958681
 20
132.5061143638352
 10
148.1495252859181
 20
132.9041439075335
 10
147.2847163471846
 20
133.2899744578237
 10
146.4036822973616
 20
133.6633711558607
 10
145.5069594305278
 20
134.0241067114075
 10
144.5950935906984
 20
134.3719615411887
 10
143.6686398395653
 20
134.7067239025532
 10
142.7281621186254
 20
135.0281900223641
 10
141.7742329059034
 20
135.3361642210372
 10
140.8074328674795
 20
135.6304590316534
 10
139.8283505040315
 20
135.9108953140711
 10
138.8375817926094
 20
136.1773023639711
 10
137.8357298238579
 20
136.429518016766
 10
136.8234044349092
 20
136.667388746311
 10
135.8012218381693
 20
136.8907697583569
 10
134.7698042462234
 20
137.0995250786879
 10
133.7297794930889
 20
137.2935276358905
 10
132.6817806520467
 20
137.4726593387027
 10
131.6264456502836
 20
137.636811147898
 10
130.564416880579
 20
137.785883142658
 10
129.4963408102753
 20
137.9197845813955
 10
128.4228675877652
 20
138.0384339569896
 10
127.344650646742
 20
138.1417590464004
 10
126.2623463084462
 20
138.229696954631
 10
125.1766133821576
 20
138.3021941530133
 10
124.088112764171
 20
138.3592065117905
 10
122.9975070355024
 20
138.40069932698
 10
121.9054600585695
 20
138.4266473414976
 10
120.8126365730916
 20
138.4370347605321
 10
119.7197017914566
 20
138.4318552611595
 10
118.6273209937996
 20
138.4111119961921
 10
117.5361591230398
 20
138.3748175922588
 10
116.4468803801242
 20
138.3229941421197
 10
115.3601478197208
 20
138.255673191218
 10
114.2766229466119
 20
138.1728957184776
 10
113.1969653130284
 20
138.074712111359
 10
112.121832117175
 20
137.9611821351881
 10
111.0518778031865
 20
137.8323748967763
 10
109.9877536627614
 20
137.6883688023548
 10
108.9301074387146
 20
137.5292515098474
 10
107.8795829306893
 20
137.3551198755125
 10
106.8368196032706
 20
137.1660798949864
 10
105.8024521967365
 20
136.9622466387614
 10
104.7771103406855
 20
136.7437441821425
 10
103.7614181707749
 20
136.5107055297209
 10
102.7559939488034
 20
136.2632725344128
 10
101.7614496863688
 20
136.0015958111126
 10
100.7783907723308
 20
135.7258346450115
 10
99.80741560430466
 20
135.4361568946394
 10
98.84911522441075
 20
135.1327388896879
 10
97.90407295950149
 20
134.8157653236764
 10
96.97286406608464
 20
134.4854291415274
 10
96.05605538015858
 20
134.141931422119
 10
95.15420497217405
 20
133.7854812558865
 10
94.26786180733131
 20
133.4162956175466
 10
93.39756541141936
 20
133.0345992340231
 10
92.54384554240118
 20
132.6406244476531
 10
91.70722186794511
 20
132.2346110747582
 10
90.88820364909805
 20
131.8168062596658
 10
90.08728943029325
 20
131.3874643242699
 10
89.30496673588107
 20
130.9468466132232
 10
88.54171177336855
 20
130.4952213348534
 10
87.79798914354717
 20
130.0328633979028
 10
87.07425155768556
 20
129.5600542441883
 10
86.37093956195963
 20
129.0770816772849
 10
85.68848126928832
 20
128.5842396873374
 10
85.02729209873677
 20
128.081828272105
 10
84.38777452264606
 20
127.5701532543504
 10
83.77031782164555
 20
127.0495260956816
 10
83.17529784769282
 20
126.5202637069632
 10
82.60307679528954
 20
125.9826882554088
 10
82.05400298100995
 20
125.4371269684752
 10
81.52841063147718
 20
124.8839119346756
 10
81.02661967991583
 20
124.3233799014339
 10
80.54893557140621
 20
123.7558720701036
 10
80.09564907695642
 20
123.1817338882749
 10
79.667036116507
 20
122.6013148394975
 10
79.26335759097639
 20
122.0149682305467
 10
78.88485922344739
 20
121.4230509763615
 10
78.5317714095936
 20
120.8259233827875
 10
78.20430907743468
 20
120.2239489272553
 10
77.90267155650827
 20
119.6174940375276
 10
77.62704245653549
 20
119.0069278686517
 10
77.37758955565652
 20
118.3926220782508
 10
77.15446469830181
 20
117.7749506002923
 10
76.95780370276327
 20
117.1542894174708
 10
76.78772627852038
 20
116.5310163323437
 10
76.64433595337141
 20
115.9055107373588
 10
76.52772001041546
 20
115.2781533839147
 10
76.4379494349223
 20
114.6493261505936
 10
76.37507887112281
 20
114.0194118107077
 10
76.33914658894673
 20
113.3887937993021
 10
76.33017446072688
 20
112.7578559797534
 10
76.34816794788605
 20
112.1269824101084
 10
76.39311609761171
 20
111.4965571093049
 10
76.46499154952391
 20
110.8669638234144
 10
76.56375055232899
 20
110.2385857920533
 10
76.68933299045216
 20
109.6118055151001
 10
76.84166242062997
 20
108.9870045198651
 10
77.02064611844241
 20
108.3645631288499
 10
77.22617513475473
 20
107.744860228242
 10
77.45812436203642
 20
107.128273037283
 10
77.71635261051483
 20
106.5151768786513
 10
78.00070269411924
 20
105.9059449499997
 10
78.31100152616102
 20
105.3009480967862
 10
78.64706022469409
 20
104.7005545865368
 10
79.00867422748797
 20
104.1051298846775
 10
79.39562341654812
 20
103.5150364320719
 10
79.80767225210297
 20
102.9306334243996
 10
80.2445699159797
 20
102.3522765935106
 10
80.70605046427976
 20
101.7803179908878
 10
81.19183298926122
 20
101.2151057733496
 10
81.70162179033047
 20
100.6569839911237
 10
82.23510655403789
 20
100.1062923784198
 10
82.79196254296847
 20
99.56336614663102
 10
83.37185079341315
 20
99.0285357802864
 10
83.97441832169898
 20
98.50212683588232
 10
84.59929833905391
 20
97.98445974371301
 10
85.24611047487452
 20
97.47584961282129
 10
85.91446100826169
 20
96.97660603918867
 10
86.60394310768186
 20
96.48703291728139
  0
ARC
  5
18C
330
2
100
AcDbEntity
  8
0
  6
Continuous
 62
     7
370
    15
100
AcDbCircle
 10
148.8724510304499
 20
132.7102463541595
 30
0.0
 40
0.2394322517392202
100
AcDbArc
 50
301.5080432533809
 51
314.8808819621724
  0
ARC
  5
18D
330
2
100
AcDbEntity
  8
0
  6
Continuous
 62
     7
370
    15
100
AcDbCircle
 10
89.72149172765353
 20
98.54407367373246
 30
0.0
 40
0.2244247658597263
100
AcDbArc
 50
294.6751332352747
 51
334.9562871749182
  0
ARC
  5
18E
330
2
100
AcDbEntity
  8
0
  6
Continuous
 62
     7
370
    15
100
AcDbCircle
 10
89.80575003849276
 20
98.51108506066331
 30
0.0
 40
0.1342480883287449
100
AcDbArc
 50
332.4886085025104
 51
3.360744948459215
  0
LINE
  5
18F
330
2
100
AcDbEntity
  8
0
  6
Continuous
 62
     7
370
    15
100
AcDbLine
 10
86.61764028567347
 20
96.49423916870091
 30
0.0
 11
89.81518294859871
 21
98.34014125687687
 31
0.0
  0
LINE
  5
190
330
2
100
AcDbEntity
  8
0
  6
Continuous
 62
     7
370
    15
100
AcDbLine
 10
91.37384223871391
 20
91.35898322002798
 30
0.0
 11
91.38236539439402
 21
91.36357921107709
 31
0.0
  0
ARC
  5
191
330
2
100
AcDbEntity
  8
0
  6
Continuous
 62
     7
370
    15
100
AcDbCircle
 10
86.51692442474042
 20
96.66905290071939
 30
0.0
 40
0.2017511475844568
100
AcDbArc
 50
295.5511640589549
 51
299.9476397903704
  0
ARC
  5
192
330
2
100
AcDbEntity
  8
0
  6
Continuous
 62
     7
370
    15
100
AcDbCircle
 10
87.92671103099644
 20
93.69612360977566
 30
0.0
 40
3.088509307363669
100
AcDbArc
 50
115.3588883953276
 51
121.2366800063273
  0
ARC
  5
193
330
2
100
AcDbEntity
  8
0
  6
Continuous
 62
     7
370
    15
100
AcDbCircle
 10
151.7124739154198
 20
127.1638737798779
 30
0.0
 40
0.3944879411151746
100
AcDbArc
 50
163.2230569852439
 51
185.5376282295915
  0
ARC
  5
194
330
2
100
AcDbEntity
  8
0
  6
Continuous
 62
     7
370
    15
100
AcDbCircle
 10
95.69855492352804
 20
94.77623000260015
 30
0.0
 40
0.3635422134436996
100
AcDbArc
 50
64.88545214119923
 51
95.97183896829418
  0
LWPOLYLINE
  5
195
330
2
100
AcDbEntity
  8
0
  6
Continuous
 62
     7
370
    15
100
AcDbPolyline
 90
       55
 70
   128
 43
0.0
 10
151.3198270344132
 20
127.1258059126138
 10
151.0814970155326
 20
126.7803265699795
 10
150.8296637060132
 20
126.4434319841689
 10
150.5882960636296
 20
126.1439973062686
 10
150.3354020872632
 20
125.8520038799261
 10
150.0719928928524
 20
125.5691451927566
 10
149.7964862938662
 20
125.2944793602724
 10
149.5106704644305
 20
125.030698962809
 10
149.2100455943744
 20
124.7750421585378
 10
148.8986799036943
 20
124.5326297238252
 10
148.5770743919795
 20
124.305295487376
 10
148.3533726750379
 20
124.1607102423898
 10
148.1256859595412
 20
124.0248931715091
 10
147.89247991867
 20
123.8976887923386
 10
147.6557091063559
 20
123.7810312799567
 10
147.435947936176
 20
123.6842619316344
 10
147.2133044618032
 20
123.5978754016842
 10
146.945911566389
 20
123.510305495072
 10
146.6748330795586
 20
123.440644465096
 10
146.40189042422
 20
123.3915406745777
 10
146.1278580971174
 20
123.3656722692054
 10
145.9946728444852
 20
123.3624443650967
 10
145.8623468003696
 20
123.3658573165121
 10
145.7314091003676
 20
123.3762339943365
 10
145.6021103171535
 20
123.3938958243802
 10
145.412317424109
 20
123.434652968214
 10
145.2280760743297
 20
123.4935272649801
 10
145.0518743814398
 20
123.5709255401561
 10
144.8848428752414
 20
123.667387654332
 10
144.7351227298
 20
123.7775376853116
 10
144.5968762721741
 20
123.904508746067
 10
144.471666594843
 20
124.0468135642487
 10
144.3597123659394
 20
124.2037092162736
 10
144.245454772222
 20
124.4052466514574
 10
144.150269572159
 20
124.6227684428709
 10
144.0740876880024
 20
124.8530663167808
 10
144.0158893477344
 20
125.0947230926592
 10
143.978793948558
 20
125.315863011769
 10
143.9544590502178
 20
125.5423716441652
 10
143.9409576315569
 20
125.8217576693938
 10
143.9436193082676
 20
126.106162579967
 10
143.9574335949025
 20
126.3475422621387
 10
143.9811171361407
 20
126.5908679169055
 10
144.0213952035198
 20
126.8825640385256
 10
144.0739745434892
 20
127.1756713855334
 10
144.1385212289996
 20
127.4714058232567
 10
144.2140611731137
 20
127.7674010424751
 10
144.3009352177121
 20
128.0662231136806
 10
144.3978938725029
 20
128.36440500426
 10
144.5051129222986
 20
128.6632443543442
 10
144.6216697128166
 20
128.9606770824218
 10
144.7940104877759
 20
129.361080051249
 10
144.9823023472551
 20
129.7576554124086
 10
145.1869542632108
 20
130.1513014918808
 10
145.4067413795521
 20
130.5393576016744
  0
LWPOLYLINE
  5
196
330
2
100
AcDbEntity
  8
0
  6
Continuous
 62
     7
370
    15
100
AcDbPolyline
 90
      121
 70
   128
 43
0.0
 10
145.4067413795521
 20
130.5393576016744
 10
144.6502950744424
 20
130.8831896265909
 10
143.8795370697981
 20
131.2162608057142
 10
143.0949265924433
 20
131.538372691258
 10
142.2969311226706
 20
131.8493333651141
 10
141.4860261157111
 20
132.1489575531995
 10
140.662694718452
 20
132.4370667358444
 10
139.8274274815728
 20
132.7134892541571
 10
138.9807220672683
 20
132.9780604123
 10
138.1230829527362
 20
133.2306225756175
 10
137.2550211296035
 20
133.4710252645563
 10
136.3770537994711
 20
133.6991252443234
 10
135.4897040657597
 20
133.9147866102267
 10
134.5935006220377
 20
134.1178808686489
 10
133.6889774370199
 20
134.3082870136053
 10
132.7766734364223
 20
134.485891598841
 10
131.8571321818638
 20
134.6505888054227
 10
130.9309015470055
 20
134.8022805047881
 10
129.9985333911211
 20
134.940876317211
 10
129.060583230293
 20
135.0662936656512
 10
128.1176099064283
 20
135.1784578249547
 10
127.1701752542951
 20
135.2773019663759
 10
126.2188437667739
 20
135.3627671973947
 10
125.2641822585264
 20
135.434802596806
 10
124.30675952828
 20
135.4933652450585
 10
123.3471460199318
 20
135.5384202498268
 10
122.3859134826704
 20
135.5699407668012
 10
121.4236346303207
 20
135.5879080156813
 10
120.4608828001154
 20
135.5923112913654
 10
119.4982316110924
 20
135.5831479703294
 10
118.5362546223269
 20
135.5604235121894
 10
117.5755249911972
 20
135.5241514564489
 10
116.616615131891
 20
135.4743534144319
 10
115.6600963743545
 20
135.4110590564067
 10
114.7065386238868
 20
135.3343060939075
 10
113.7565100215832
 20
135.2441402572661
 10
112.8105766058311
 20
135.1406152683648
 10
111.8693019750564
 20
135.0237928086282
 10
110.9332469519252
 20
134.8937424822731
 10
110.0029692491994
 20
134.7505417748371
 10
109.0790231374442
 20
134.5942760070118
 10
108.1619591147871
 20
134.4250382838079
 10
107.252323578925
 20
134.2429294390821
 10
106.3506585015736
 20
134.0480579754589
 10
105.4575011055542
 20
133.8405399996835
 10
104.5733835447099
 20
133.6204991534442
 10
103.6988325868422
 20
133.3880665397051
 10
102.8343692998559
 20
133.1433806445932
 10
101.9805087413016
 20
132.8865872548872
 10
101.1377596514974
 20
132.6178393711553
 10
100.3066241504153
 20
132.3372971165962
 10
99.48759743851304
 20
132.0451276416356
 10
98.68116750168679
 20
131.7415050243359
 10
97.88781482052378
 20
131.4266101666785
 10
97.10801208402598
 20
131.1006306867803
 10
96.34222390797674
 20
130.7637608071084
 10
95.5909065581169
 20
130.4162012387604
 10
94.85450767829616
 20
130.0581590618776
 10
94.13346602376146
 20
129.689847602265
 10
93.42821119974189
 20
129.3114863042889
 10
92.73916340548396
 20
128.9233006001293
 10
92.06673318389267
 20
128.5255217754646
 10
91.4113211769245
 20
128.118386831669
 10
90.77331788688059
 20
127.7021383446044
 10
90.15310344374041
 20
127.2770243200903
 10
89.55104737867623
 20
126.8432980461395
 10
88.96750840388177
 20
126.4012179420459
 10
88.40283419884702
 20
125.9510474044151
 10
87.85736120320711
 20
125.4930546502295
 10
87.33141441628731
 20
125.0275125570418
 10
86.82530720346415
 20
124.5546985003908
 10
86.33934110945949
 20
124.0748941885381
 10
85.87380567867581
 20
123.5883854946228
 10
85.42897828268236
 20
123.0954622863349
 10
85.005123954954
 20
122.5964182532087
 10
84.60249523296136
 20
122.091550731639
 10
84.22133200770508
 20
121.5811605277245
 10
83.86186138078722
 20
121.0655517380442
 10
83.52429752910007
 20
120.5450315684726
 10
83.20884157721776
 20
120.019910151143
 10
82.91568147756402
 20
119.4905003596674
 10
82.64499189842718
 20
118.9571176227219
 10
82.39693411989128
 20
118.4200797361111
 10
82.17165593774314
 20
117.8797066734216
 10
81.96929157541422
 20
117.3363203953775
 10
81.78996160400812
 20
116.7902446580126
 10
81.63377287046376
 20
116.241804819773
 10
81.50081843389363
 20
115.691327647664
 10
81.39117751013897
 20
115.1391411225588
 10
81.3049154245715
 20
114.5855742437837
 10
81.24208357317206
 20
114.0309568330961
 10
81.20271939190809
 20
113.4756193381726
 10
81.18684633442876
 20
112.9198926357252
 10
81.19447385809143
 20
112.3641078343598
 10
81.22559741832651
 20
111.8085960772986
 10
81.28019847134476
 20
111.2536883450806
 10
81.35824448518702
 20
110.69971525836
 10
81.45968895910607
 20
110.1470068809174
 10
81.58447145127286
 20
109.595892523005
 10
81.73251761478832
 20
109.0467005451389
 10
81.90373924198013
 20
108.4997581624584
 10
82.09803431695798
 20
107.9553912497669
 10
82.31528707639597
 20
107.4139241473721
 10
82.55536807850523
 20
106.8756794678402
 10
82.81813428015778
 20
106.3409779037793
 10
83.1034291221124
 20
105.810138036767
 10
83.411082622295
 20
105.2834761475355
 10
83.74091147707622
 20
104.7613060275283
 10
84.09271917048533
 20
104.2439387919388
 10
84.46629609129695
 20
103.7316826943448
 10
84.86141965792047
 20
103.2248429430469
 10
85.27785445101574
 20
102.7237215192217
 10
85.71535235375995
 20
102.2286169969984
 10
86.17365269967786
 20
101.7398243655641
 10
86.65248242794996
 20
101.2576348534061
 10
87.15155624610565
 20
100.7823357547942
 10
87.6705768000038
 20
100.3142102586078
 10
88.20923485100024
 20
99.85353727960813
 10
88.76720946019498
 20
99.4005912922576
 10
89.34416817965212
 20
98.9556421671849
 10
89.93976725047673
 20
98.51895501039265
  0
LWPOLYLINE
  5
197
330
2
100
AcDbEntity
  8
0
  6
Continuous
 62
     7
370
    15
100
AcDbPolyline
 90
        3
 70
   128
 43
0.0
 10
96.22762204207788
 20
94.94805196784138
 10
96.07264002167916
 20
95.01123634365585
 10
95.85285290533784
 20
95.10540332133201
  0
ARC
  5
198
330
2
100
AcDbEntity
  8
0
  6
Continuous
 62
     7
370
    15
100
AcDbCircle
 10
126.4834562698333
 20
135.5808063659058
 30
0.0
 40
44.67978757889727
100
AcDbArc
 50
289.3446351408551
 51
297.8116115119827
  0
ARC
  5
199
330
2
100
AcDbEntity
  8
0
  6
Continuous
 62
     7
370
    15
100
AcDbCircle
 10
115.7360230492605
 20
137.9425414386387
 30
0.0
 40
47.22669644442007
100
AcDbArc
 50
245.1012845748191
 51
250.9749854265485
  0
ARC
  5
19A
330
2
100
AcDbEntity
  8
0
  6
Continuous
 62
     7
370
    15
100
AcDbCircle
 10
154.7426698680195
 20
129.0577609572398
 30
0.0
 40
0.2017511642784237
100
AcDbArc
 50
115.5511642697175
 51
119.9476396383631
  0
LINE
  5
19B
330
2
100
AcDbEntity
  8
0
  6
Continuous
 62
     7
370
    15
100
AcDbLine
 10
154.6419539992165
 20
129.2325747039995
 30
0.0
 11
151.4444113362913
 21
127.3866726158235
 31
0.0
  0
ARC
  5
19C
330
2
100
AcDbEntity
  8
0
  6
Continuous
 62
     7
370
    15
100
AcDbCircle
 10
151.5381025576663
 20
127.182740198471
 30
0.0
 40
0.2244247664809195
100
AcDbArc
 50
114.6751332831877
 51
154.9562870947557
  0
LWPOLYLINE
  5
19D
330
2
100
AcDbEntity
  8
0
  6
Continuous
 62
     7
370
    15
100
AcDbPolyline
 90
      121
 70
   128
 43
0.0
 10
151.334777064643
 20
127.2777413547123
 10
151.9364892809925
 20
126.8397442608132
 10
152.5194583243168
 20
126.3933795978469
 10
153.0833351737228
 20
125.9389146022905
 10
153.6277822387266
 20
125.4766213602527
 10
154.1524735613668
 20
125.0067766445777
 10
154.6570950113546
 20
124.5296617491423
 10
155.1413444741417
 20
124.0455623204467
 10
155.6049320317957
 20
123.5547681865988
 10
156.0475801365712
 20
123.057573183796
 10
156.4690237770778
 20
122.5542749804067
 10
156.8690106369406
 20
122.0451748987572
 10
157.2473012458605
 20
121.5305777347321
 10
157.6036691229849
 20
121.0107915752937
 10
157.9379009124997
 20
120.486127614032
 10
158.2497965113651
 20
119.9568999648549
 10
158.5391691891166
 20
119.4234254739292
 10
158.8058456996585
 20
118.8860235299862
 10
159.0496663849872
 20
118.3450158731056
 10
159.2704852707762
 20
117.8007264020907
 10
159.4681701537713
 20
117.2534809805519
 10
159.6426026809393
 20
116.7036072418138
 10
159.7936784203264
 20
116.1514343927621
 10
159.92130692358
 20
115.5972930167497
 10
160.0254117801004
 20
115.0415148756773
 10
160.1059306627875
 20
114.4844327113694
 10
160.1628153653553
 20
113.9263800463633
 10
160.1960318311934
 20
113.3676909842306
 10
160.2055601737559
 20
112.8087000095508
 10
160.1913946884678
 20
112.2497417876572
 10
160.1535438561403
 20
111.6911509642741
 10
160.0920303378931
 20
111.1332619651661
 10
160.0068909615875
 20
110.5764087959187
 10
159.8981766997775
 20
110.0209248419709
 10
159.7659526391934
 20
109.4671426690186
 10
159.6102979417738
 20
108.9153938239095
 10
159.4313057972724
 20
108.366008636147
 10
159.2290833674651
 20
107.8193160201239
 10
159.0037517219937
 20
107.2756432782023
 10
158.7554457658807
 20
106.7353159047601
 10
158.4843141587636
 20
106.1986573913178
 10
158.1905192258923
 20
105.6659890328667
 10
157.874236860946
 20
105.1376297355102
 10
157.5356564207259
 20
104.6138958255371
 10
157.1749806117893
 20
104.0951008600376
 10
156.7924253690892
 20
103.5815554391785
 10
156.3882197266948
 20
103.0735670202484
 10
155.962605680671
 20
102.5714397335845
 10
155.5158380441955
 20
102.0754742004906
 10
155.0481842950034
 20
101.5859673532571
 10
154.55992441525
 20
101.1032122573888
 10
154.0513507238864
 20
100.6274979361481
 10
153.5227677016495
 20
100.1591091975174
 10
152.9744918087708
 20
99.69832646368697
 10
152.4068512955133
 20
99.24542560316648
 10
151.8201860056495
 20
98.80067776562432
 10
151.2148471729979
 20
98.36434921955147
 10
150.5911972111421
 20
97.93670119284769
 10
149.9496094964544
 20
97.51798971642545
 10
149.2904681445575
 20
97.10846547092573
 10
148.6141677803564
 20
96.7083736366365
 10
147.9211133017778
 20
96.31795374670419
 10
147.2117196373601
 20
95.93743954372671
 10
146.4864114978372
 20
95.56705883981244
 10
145.7456231218662
 20
95.20703338019044
 10
144.989798016051
 20
94.85757871045253
 10
144.2193886894166
 20
94.51890404750697
 10
143.4348563824941
 20
94.19121215432152
 10
142.636670791178
 20
93.87469921852995
 10
141.825309785522
 20
93.56955473497551
 10
141.0012591236393
 20
93.27596139226132
 10
140.1650121608827
 20
92.99409496337533
 10
139.3170695544742
 20
92.72412420045599
 10
138.4579389637637
 20
92.46621073376115
 10
137.5881347462965
 20
92.22050897490062
 10
136.7081776498692
 20
91.98716602439075
 10
135.8185945007599
 20
91.76632158358602
 10
134.9199178883211
 20
91.55810787104043
 10
134.0126858461199
 20
91.36264954334896
 10
133.0974415298194
 20
91.180063620516
 10
132.174732891995
 20
91.01045941589642
 10
131.2451123540772
 20
90.85393847074969
 10
130.3091364756193
 20
90.71059449344806
 10
129.3673656210875
 20
90.5805133033734
 10
128.4203636243741
 20
90.46377277953759
 10
127.4686974512318
 20
90.36044281395708
 10
126.5129368598348
 20
90.27058526980834
 10
125.5536540596663
 20
90.19425394439107
 10
124.59142336894
 20
90.13149453691976
 10
123.6268208707581
 20
90.08234462116384
 10
122.6604240682131
 20
90.04683362295258
 10
121.6928115386392
 20
90.02498280255769
 10
120.7245625872208
 20
90.01680524196517
 10
119.756256900165
 20
90.02230583704308
 10
118.7884741976468
 20
90.04148129461027
 10
117.821793886732
 20
90.07432013440835
 10
116.8567947144903
 20
90.12080269597445
 10
115.8940544215008
 20
90.18090115041214
 10
114.9341493959626
 20
90.25457951705227
 10
113.9776543286125
 20
90.34179368499463
 10
113.0251418686614
 20
90.44249143951684
 10
112.0771822809513
 20
90.55661249333493
 10
111.1343431045402
 20
90.68408852269737
 10
110.19718881292
 20
90.82484320828987
 10
109.2662804760674
 20
90.97879228092761
 10
108.3421754245352
 20
91.1458435720068
 10
107.4254269157801
 20
91.32589706868539
 10
106.5165838029304
 20
91.51884497376064
 10
105.6161902061906
 20
91.72457177020653
 10
104.7247851870778
 20
91.94295429033342
 10
103.8429024256897
 20
92.17386178952784
 10
102.9710699011915
 20
92.41715602452892
 10
102.1098095757178
 20
92.67269133619381
 10
101.2596370818761
 20
92.94031473670314
 10
100.4210614140402
 20
93.21986600115421
 10
99.5945846236167
 20
93.51117776348697
 10
98.78070151847044
 20
93.81407561668506
 10
97.97989936668432
 20
94.12837821719275
 10
97.19265760483461
 20
94.45389739348435
 10
96.41944755095403
 20
94.79043825872173
 10
95.66073212235631
 20
95.13779932743206
  0
ARC
  5
19E
330
2
100
AcDbEntity
  8
0
  6
Continuous
 62
     7
370
    15
100
AcDbCircle
 10
95.72866619460137
 20
94.62232642921428
 30
0.0
 40
0.5199301366230216
100
AcDbArc
 50
97.50773291076294
 51
119.5763956201904
  0
LINE
  5
19F
330
2
100
AcDbEntity
  8
0
  6
Continuous
 62
     7
370
    15
100
AcDbLine
 10
95.47203719809102
 20
95.07450880958606
 30
0.0
 11
92.27449453516578
 21
93.22860672141006
 31
0.0
  0
ARC
  5
1A0
330
2
100
AcDbEntity
  8
0
  6
Continuous
 62
     7
370
    15
100
AcDbCircle
 10
92.36212829566989
 20
93.07645430621143
 30
0.0
 40
0.1755848325986188
100
AcDbArc
 50
119.9402372912601
 51
124.763472498352
  0
LWPOLYLINE
  5
1A1
330
2
100
AcDbEntity
  8
0
  6
Continuous
 62
     7
370
    15
100
AcDbPolyline
 90
        8
 70
   128
 43
0.0
 10
92.26201158902188
 20
93.22069950886527
 10
92.23389035842343
 20
93.1890952084967
 10
92.21901550273935
 20
93.1463263394666
 10
92.21755604183385
 20
93.076918105371
 10
92.226766606144
 20
93.02827921904283
 10
92.24294557557142
 20
92.97887585201134
 10
92.28332915867316
 20
92.89881198406577
 10
92.2848330297212
 20
92.8964122233712
  0
ARC
  5
1A2
330
2
100
AcDbEntity
  8
0
  6
Continuous
 62
     7
370
    15
100
AcDbCircle
 10
154.7080894712163
 20
129.0838657146724
 30
0.0
 40
0.1644972248263942
100
AcDbArc
 50
50.98337203644412
 51
108.589112238229
  0
LWPOLYLINE
  5
1A3
330
2
100
AcDbEntity
  8
0
  6
Continuous
 62
     7
370
    15
100
AcDbPolyline
 90
      121
 70
   128
 43
0.0
 10
92.26201158902188
 20
93.22069950886527
 10
93.11006899897199
 20
92.82266996516698
 10
93.9748779377054
 20
92.43683941487676
 10
94.85591198752842
 20
92.06344271683972
 10
95.75263485436222
 20
91.70270716129293
 10
96.6645006941917
 20
91.35485233151177
 10
97.59095444532466
 20
91.02008997014722
 10
98.53143216626461
 20
90.69862385033637
 10
99.48536137898656
 20
90.39064965166323
 10
100.4521614174105
 20
90.09635484104713
 10
101.4312437808585
 20
89.81591855862943
 10
102.4220124922806
 20
89.54951150872934
 10
103.423864461032
 20
89.2972958559344
 10
104.4361898499808
 20
89.05942512638942
 10
105.4583724467206
 20
88.83604411434355
 10
106.4897900386665
 20
88.62728879401252
 10
107.5298147918011
 20
88.43328623680999
 10
108.5778136328433
 20
88.25415453399772
 10
109.6331486346064
 20
88.0900027248024
 10
110.6951774043109
 20
87.94093073004246
 10
111.7632534746147
 20
87.80702929130503
 10
112.8367266971247
 20
87.68837991571086
 10
113.9149436381481
 20
87.5850548263001
 10
114.9972479764437
 20
87.49711691806943
 10
116.0829809027324
 20
87.42461971968721
 10
117.171481520719
 20
87.36760736091001
 10
118.2620872493876
 20
87.32611454572053
 10
119.3541342263206
 20
87.30016653120289
 10
120.4469577117984
 20
87.28977911216837
 10
121.5398924934334
 20
87.29495861154088
 10
122.6322732910905
 20
87.31570187650836
 10
123.7234351618501
 20
87.35199628044169
 10
124.8127139047658
 20
87.40381973058074
 10
125.8994464651691
 20
87.47114068148245
 10
126.9829713382781
 20
87.55391815422292
 10
128.0626289718616
 20
87.65210176134152
 10
129.1377621677149
 20
87.7656317375124
 10
130.2077164817035
 20
87.89443897592411
 10
131.2718406221286
 20
88.03844507034567
 10
132.3294868461754
 20
88.19756236285311
 10
133.3800113542006
 20
88.37169399718787
 10
134.4227746816193
 20
88.56073397771409
 10
135.4571420881534
 20
88.76456723393907
 10
136.4824839442044
 20
88.98306969055797
 10
137.498176114115
 20
89.21610834297961
 10
138.5036003360866
 20
89.4635413382876
 10
139.4981445985212
 20
89.72521806158788
 10
140.4812035125592
 20
90.00097922768899
 10
141.4521786805853
 20
90.29065697806109
 10
142.4104790604792
 20
90.59407498301252
 10
143.3555213253885
 20
90.91104854902408
 10
144.2867302188053
 20
91.24138473117314
 10
145.2035389047314
 20
91.58488245058149
 10
146.1053893127159
 20
91.94133261681397
 10
146.9917324775585
 20
92.31051825515381
 10
147.8620288734706
 20
92.69221463867735
 10
148.7157487424888
 20
93.08618942504734
 10
149.5523724169449
 20
93.49220279794225
 10
150.3713906357919
 20
93.91000761303466
 10
151.1723048545967
 20
94.33934954843049
 10
151.9546275490089
 20
94.77996725947724
 10
152.7178825115214
 20
95.23159253784704
 10
153.4616051413428
 20
95.69395047479765
 10
154.1853427272045
 20
96.16675962851225
 10
154.8886547229303
 20
96.64973219541558
 10
155.5711130156016
 20
97.14257418536307
 10
156.2323021861533
 20
97.64498560059541
 10
156.8718197622439
 20
98.15666061835013
 10
157.4892764632445
 20
98.67728777701886
 10
158.0842964371971
 20
99.20655016573732
 10
158.6565174896004
 20
99.74412561729167
 10
159.20559130388
 20
100.2896869042252
 10
159.7311836534129
 20
100.8429019380249
 10
160.2329746049742
 20
101.4034339712666
 10
160.7106587134838
 20
101.9709418025969
 10
161.1639452079337
 20
102.5450799844256
 10
161.592558168383
 20
103.1254990332029
 10
161.9962366939137
 20
103.7118456421537
 10
162.3747350614426
 20
104.303762896339
 10
162.7278228752964
 20
104.9008904899129
 10
163.0552852074553
 20
105.5028649454452
 10
163.3569227283817
 20
106.1093198351729
 10
163.6325518283545
 20
106.7198860040488
 10
163.8820047292336
 20
107.3341917944497
 10
164.1051295865882
 20
107.9518632724082
 10
164.3017905821267
 20
108.5725244552296
 10
164.4718680063696
 20
109.1957975403567
 10
164.6152583315186
 20
109.8213031353416
 10
164.7318742744745
 20
110.4486604887857
 10
164.8216448499677
 20
111.0774877221069
 10
164.8845154137672
 20
111.7074020619927
 10
164.9204476959432
 20
112.3380200733983
 10
164.9294198241631
 20
112.9689578929471
 10
164.9114263370039
 20
113.599831462592
 10
164.8664781872783
 20
114.2302567633956
 10
164.7946027353662
 20
114.859850049286
 10
164.6958437325611
 20
115.4882280806472
 10
164.5702612944378
 20
116.1150083576003
 10
164.41793186426
 20
116.7398093528353
 10
164.2389481664476
 20
117.3622507438506
 10
164.0334191501352
 20
117.9819536444584
 10
163.8014699228536
 20
118.5985408354174
 10
163.5432416743751
 20
119.2116369940492
 10
163.2588915907708
 20
119.8208689227008
 10
162.9485927587289
 20
120.4258657759144
 10
162.612534060196
 20
121.0262592861637
 10
162.250920057402
 20
121.621683988023
 10
161.8639708683418
 20
122.2117774406286
 10
161.451922032787
 20
122.7961804483008
 10
161.0150243689103
 20
123.3745372791898
 10
160.5535438206102
 20
123.9464958818127
 10
160.0677612956287
 20
124.5117080993508
 10
159.5579724945595
 20
125.0698298815768
 10
159.0244877308521
 20
125.6205214942806
 10
158.4676317419215
 20
126.1634477260695
 10
157.8877434914768
 20
126.6982780924141
 10
157.285175963191
 20
127.2246870368182
 10
156.6602959458361
 20
127.7423541289875
 10
156.0134838100155
 20
128.2509642598792
 10
155.3451332766283
 20
128.7502078335118
 10
154.6556511772081
 20
129.2397809554191
  0
LINE
  5
1A4
330
2
100
AcDbEntity
  8
0
  6
Continuous
 62
     7
370
    15
100
AcDbLine
 10
76.12979714244511
 20
99.1455212966694
 30
0.0
 11
76.14486114734098
 21
98.47714539397554
 31
0.0
  0
LINE
  5
1A5
330
2
100
AcDbEntity
  8
0
  6
Continuous
 62
     7
370
    15
100
AcDbLine
 10
165.1154420767675
 20
98.49305980978083
 30
0.0
 11
165.129797142445
 21
99.14552129666974
 31
0.0
  0
ARC
  5
1A6
330
2
100
AcDbEntity
  8
0
  6
Continuous
 62
     7
370
    15
100
AcDbCircle
 10
90.96846477743293
 20
112.70009847394
 30
0.0
 40
14.83866398776936
100
AcDbArc
 50
177.5083249583177
 51
182.5280486906164
  0
ARC
  5
1A7
330
2
100
AcDbEntity
  8
0
  6
Continuous
 62
     7
370
    15
100
AcDbCircle
 10
150.2911295052291
 20
112.700099074002
 30
0.0
 40
14.83866398999506
100
AcDbArc
 50
357.5083249586894
 51
2.528048690252991
  0
LWPOLYLINE
  5
1A8
330
2
100
AcDbEntity
  8
0
  6
Continuous
 62
     7
370
    15
100
AcDbPolyline
 90
       51
 70
   128
 43
0.0
 10
92.2848330297212
 20
92.89641222337122
 10
92.26526983950817
 20
92.66042721280003
 10
92.22879434192078
 20
92.43340617464223
 10
92.1750538968031
 20
92.21558163762066
 10
92.10430020859678
 20
92.00959429049119
 10
92.02422701515843
 20
91.83145967353416
 10
91.93068633474627
 20
91.66637265156289
 10
91.8444077096492
 20
91.54147599286552
 10
91.74979579191768
 20
91.42628746591661
 10
91.66629638266783
 20
91.33941001450288
 10
91.57765722299131
 20
91.25950655001068
 10
91.43676762739323
 20
91.15395529942652
 10
91.28579027108321
 20
91.06476093749689
 10
91.15522030527143
 20
91.00426199131545
 10
91.01890696941405
 20
90.95526258145627
 10
90.90327614126181
 20
90.92382785552322
 10
90.78438874738095
 20
90.90031997296636
 10
90.55958628558789
 20
90.87805820543026
 10
90.36091113717759
 20
90.88040783392212
 10
90.15734802358156
 20
90.90247381524152
 10
89.99408592242344
 20
90.9337820511334
 10
89.82902294529401
 20
90.97725292626821
 10
89.5817744918213
 20
91.06400709718791
 10
89.36963601930029
 20
91.15880815679075
 10
89.15786846469689
 20
91.27213905337404
 10
88.99181806043509
 20
91.37425803821511
 10
88.82717835328197
 20
91.48724065177136
 10
88.65987496169328
 20
91.61438927708177
 10
88.50879410808056
 20
91.74029972416914
 10
88.36024815425686
 20
91.87481576218498
 10
88.23461564038154
 20
91.9973026077651
 10
88.11138236749844
 20
92.12562603290518
 10
87.99661950457107
 20
92.25283432454684
 10
87.88442088434862
 20
92.3848242079139
 10
87.71377533303928
 20
92.60123063693695
 10
87.55056998157646
 20
92.82774971199915
 10
87.4229271732263
 20
93.02001198623022
 10
87.30101985347971
 20
93.21770317345364
 10
87.20562742093852
 20
93.38329023253931
 10
87.11444924197213
 20
93.55173330529071
 10
86.96886463029636
 20
93.84505252763599
 10
86.83594198815308
 20
94.14560970819549
 10
86.73888050347079
 20
94.39118183967396
 10
86.65776374746895
 20
94.6190958872822
 10
86.58502524576112
 20
94.84727367425104
 10
86.50168552570812
 20
95.14940786434435
 10
86.43348520591132
 20
95.45047136392197
 10
86.39005305730689
 20
95.69033578002738
 10
86.3593553595075
 20
95.90814400080201
 10
86.33776465079222
 20
96.1216101240628
 10
86.32508887304846
 20
96.33689929219203
  0
LINE
  5
1A9
330
2
100
AcDbEntity
  8
0
  6
Continuous
 62
     7
370
    15
100
AcDbLine
 10
51.28030462545303
 20
127.7515190111027
 30
0.0
 11
51.28030462545303
 21
127.5882373887381
 31
0.0
  0
LINE
  5
1AA
330
2
100
AcDbEntity
  8
0
  6
Continuous
 62
     7
370
    15
100
AcDbLine
 10
67.18762139553973
 20
155.1435039171369
 30
0.0
 11
67.04622302425014
 21
155.0618498370268
 31
0.0
  0
LINE
  5
1AB
330
2
100
AcDbEntity
  8
0
  6
Continuous
 62
     7
370
    15
100
AcDbLine
 10
55.94112145999474
 20
117.2867292431784
 30
0.0
 11
59.90091943463937
 21
115.0007865300748
 31
0.0
  0
LINE
  5
1AC
330
2
100
AcDbEntity
  8
0
  6
Continuous
 62
     7
370
    15
100
AcDbLine
 10
82.39909091895084
 20
153.9729853372054
 30
0.0
 11
78.43929294430608
 21
156.258928050309
 31
0.0
  0
LINE
  5
1AD
330
2
100
AcDbEntity
  8
0
  6
Continuous
 62
     7
370
    15
100
AcDbLine
 10
87.05990775349244
 20
143.508195569281
 30
0.0
 11
87.05990775349244
 21
143.6714771916456
 31
0.0
  0
LINE
  5
1AE
330
2
100
AcDbEntity
  8
0
  6
Continuous
 62
     7
370
    15
100
AcDbLine
 10
71.15259098340584
 20
116.116210663247
 30
0.0
 11
71.29398935469544
 21
116.1978647433571
 31
0.0
  0
LINE
  5
1AF
330
2
100
AcDbEntity
  8
0
  6
Continuous
 62
     7
370
    15
100
AcDbLine
 10
91.30144357440872
 20
132.0910622546342
 30
0.0
 11
75.29110146357663
 21
141.3336360215033
 31
0.0
  0
LINE
  5
1B0
330
2
100
AcDbEntity
  8
0
  6
Continuous
 62
     7
370
    15
100
AcDbLine
 10
67.29175160248814
 20
127.4768542234124
 30
0.0
 11
78.50004799208045
 21
121.006442444288
 31
0.0
  0
ARC
  5
1B1
330
2
100
AcDbEntity
  8
0
  6
Continuous
 62
     7
370
    15
100
AcDbCircle
 10
155.416107770869
 20
133.134200898204
 30
0.0
 40
6.399037639029563
100
AcDbArc
 50
185.3227893459649
 51
237.8735359124864
  0
ARC
  5
1B2
330
2
100
AcDbEntity
  8
0
  6
Continuous
 62
     7
370
    15
100
AcDbCircle
 10
142.974387133219
 20
132.5354548609838
 30
0.0
 40
9.873585856485938
100
AcDbArc
 50
302.8032326744004
 51
327.9923239383251
  0
LWPOLYLINE
  5
1B3
330
2
100
AcDbEntity
  8
0
  6
Continuous
 62
     7
370
    15
100
AcDbPolyline
 90
      184
 70
   128
 43
0.0
 10
149.0424378444198
 20
132.5431064635605
 10
148.6275868764586
 20
132.7398865928518
 10
148.200860711043
 20
132.9372771716575
 10
147.769990237917
 20
133.1316124991417
 10
147.3350404726248
 20
133.3228638417422
 10
146.8960770225562
 20
133.5110029259637
 10
146.4531660781078
 20
133.6960019416956
 10
146.0063744037426
 20
133.877833545551
 10
145.5557693289422
 20
134.0564708642225
 10
145.1014187390586
 20
134.2318874978455
 10
144.6433910660503
 20
134.4040575233678
 10
144.1817552791169
 20
134.5729554979136
 10
143.716580875217
 20
134.7385564621439
 10
143.247937869485
 20
134.9008359436003
 10
142.7758967855292
 20
135.0597699600339
 10
142.3005286456321
 20
135.2153350227086
 10
141.8219049608359
 20
135.3675081396783
 10
141.3400977209241
 20
135.5162668190321
 10
140.8551793843003
 20
135.6615890721025
 10
140.3672228677626
 20
135.8034534166338
 10
139.876301536176
 20
135.9418388799064
 10
139.3824891920502
 20
136.0767250018138
 10
138.8858600650149
 20
136.2080918378872
 10
138.3864888012044
 20
136.3359199622687
 10
137.8844504525486
 20
136.4601904706244
 10
137.3798204659754
 20
136.5808849829995
 10
136.8726746725232
 20
136.6979856466102
 10
136.3630892763714
 20
136.8114751385709
 10
135.8511408437886
 20
136.9213366685533
 10
135.3369062919985
 20
137.0275539813771
 10
134.8204628779723
 20
137.1301113595285
 10
134.3018881871438
 20
137.2289936256061
 10
133.7812601220566
 20
137.3241861446905
 10
133.2586568909375
 20
137.4156748266384
 10
132.7341569962093
 20
137.5034461282981
 10
132.2078392229361
 20
137.5874870556445
 10
131.679782627208
 20
137.6677851658351
 10
131.1500665244717
 20
137.7443285691815
 10
130.6187704778015
 20
137.817105931039
 10
130.0859742861157
 20
137.8861064736125
 10
129.5517579723533
 20
137.9513199776746
 10
129.0162017715875
 20
138.0127367842004
 10
128.4793861191119
 20
138.0703477959132
 10
127.9413916384686
 20
138.1241444787438
 10
127.4022991294475
 20
138.1741188632002
 10
126.8621895560435
 20
138.220263545649
 10
126.3211440343821
 20
138.2625716895068
 10
125.7792438206128
 20
138.3010370263409
 10
125.2365702987683
 20
138.3356538568808
 10
124.6932049686081
 20
138.3664170519365
 10
124.1492294334247
 20
138.393322053227
 10
123.6047253878405
 20
138.4163648741159
 10
123.0597746055744
 20
138.4355421002554
 10
122.514458927202
 20
138.4508508901373
 10
121.9688602478955
 20
138.4622889755521
 10
121.4230605051548
 20
138.469854661954
 10
120.8771416665254
 20
138.4735468287345
 10
120.3311857173193
 20
138.4733649294013
 10
119.7852746516738
 20
138.4693089917019
 10
119.2394905216031
 20
138.4613796188441
 10
118.6939152918611
 20
138.4495779883493
 10
118.1486308957373
 20
138.4339058516387
 10
117.6037192227737
 20
138.4143655337451
 10
117.0592621064959
 20
138.3909599329325
 10
116.5153413121496
 20
138.3636925202209
 10
115.9720385244549
 20
138.33256733882
 10
115.4294353353707
 20
138.2975890034685
 10
114.8876132318844
 20
138.2587626996822
 10
114.3466535838138
 20
138.2160941829082
 10
113.806637631643
 20
138.1695897775885
 10
113.2676464743747
 20
138.1192563761313
 10
112.7297610574151
 20
138.0651014377901
 10
112.1930621604929
 20
138.0071329874536
 10
111.6576303856043
 20
137.9453596143433
 10
111.1235461450006
 20
137.8797904706223
 10
110.590889649213
 20
137.8104352699141
 10
110.0597408951157
 20
137.7373042857325
 10
109.5301796540394
 20
137.6604083498238
 10
109.0022854599232
 20
137.5797588504207
 10
108.4761375975247
 20
137.4953677304109
 10
107.9518150906724
 20
137.4072474854176
 10
107.4293966905832
 20
137.315411161798
 10
106.9089608642293
 20
137.219872354556
 10
106.3905857827667
 20
137.1206452051716
 10
105.8743493100312
 20
137.0177443993512
 10
105.360328991092
 20
136.9111851646946
 10
104.8486020408814
 20
136.8009832682853
 10
104.3392453328905
 20
136.6871550142018
 10
103.832335387939
 20
136.5697172409539
 10
103.3279483630258
 20
136.4486873188447
 10
102.8261600402517
 20
136.3240831472595
 10
102.3270458158292
 20
136.1959231518845
 10
101.8306806891761
 20
136.0642262818583
 10
101.3371392520978
 20
135.9290120068566
 10
100.8464956780516
 20
135.7903003141123
 10
100.358823711516
 20
135.6481117053762
 10
99.87419665744539
 20
135.5024671938191
 10
99.392687370825
 20
135.3533883008776
 10
98.91436824632945
 20
135.2008970530497
 10
98.43931120807837
 20
135.0450159786398
 10
97.96758769949997
 20
134.8857681044595
 10
97.49926867329817
 20
134.723176952487
 10
97.0344245815345
 20
134.5572665364899
 10
96.57312536581173
 20
134.3880613586134
 10
96.11544044757728
 20
134.2155864059418
 10
95.66143871853387
 20
134.039867147035
 10
95.21118853116934
 20
133.8609295284481
 10
94.76475768939861
 20
133.6787999712363
 10
94.32221343931951
 20
133.4935053674515
 10
93.88362246009114
 20
133.3050730766403
 10
93.44905085491769
 20
133.1135309223417
 10
93.01856414215569
 20
132.9189071885994
 10
92.59222724652852
 20
132.7212306164889
 10
92.17010449045256
 20
132.520530400668
 10
91.75225958547423
 20
132.3168361859594
 10
91.33875562381161
 20
132.1101780639711
 10
90.92965506999167
 20
131.9005865697585
 10
90.52501975259394
 20
131.6880926785437
 10
90.12491085607189
 20
131.4727278024873
 10
89.72938891266721
 20
131.2545237875318
 10
89.33851379439568
 20
131.0335129103154
 10
88.95234470509796
 20
130.8097278751642
 10
88.5709401725494
 20
130.5832018111719
 10
88.1943580406072
 20
130.3539682693664
 10
87.82265546139866
 20
130.1220612199773
 10
87.4558888875174
 20
129.8875150497978
 10
87.09411406422498
 20
129.6503645596518
 10
86.73738606390282
 20
129.4106449907229
 10
86.38575936838776
 20
129.1683920887788
 10
86.03928756165487
 20
128.9236418997221
 10
85.69802348828034
 20
128.676430875288
 10
85.36201924525654
 20
128.4267958709972
 10
85.03132617367771
 20
128.1747741441843
 10
84.70599485026196
 20
127.9204033520803
 10
84.38607507868937
 20
127.6637215499364
 10
84.07161588072643
 20
127.4047671891664
 10
83.76266548711384
 20
127.1435791154828
 10
83.45927132818724
 20
126.8801965669958
 10
83.16148002420334
 20
126.6146591722358
 10
82.86933737535594
 20
126.3470069480683
 10
82.5828883514505
 20
126.0772802974457
 10
82.30217708122166
 20
125.8055200069472
 10
82.02724684128066
 20
125.5317672440535
 10
81.75814004468021
 20
125.2560635540882
 10
81.49489822909027
 20
124.9784508567593
 10
81.23756204459255
 20
124.6989714422282
 10
80.98617124110331
 20
124.4176679666327
 10
80.74076465543909
 20
124.1345834469707
 10
80.50138019806651
 20
123.8497612552774
 10
80.26805483957218
 20
123.5632451119978
 10
80.04082459690948
 20
123.2750790784758
 10
79.81972451949639
 20
122.985307548478
 10
79.60478867524421
 20
122.6939752386716
 10
79.39605013662014
 20
122.4011271779863
 10
79.1935409668589
 20
122.1068086958004
 10
78.99729220645167
 20
121.811065408897
 10
78.80733386006022
 20
121.5139432071624
 10
78.62369488401282
 20
121.2154882380077
 10
78.44640317454969
 20
120.915746889516
 10
78.27548555700059
 20
120.6147657723576
 10
78.11096777607406
 20
120.3125917005185
 10
77.95287448744772
 20
120.0092716709401
 10
77.80122925083947
 20
119.7048528421807
 10
77.65605452473938
 20
119.3993825122631
 10
77.51737166296163
 20
119.0929080958809
 10
77.38520091316059
 20
118.7854771011875
 10
77.25956141743063
 20
118.477137106416
 10
77.14047121507587
 20
118.1679357366034
 10
77.02794724759872
 20
117.8579206407113
 10
76.92200536591679
 20
117.5471394694687
 10
76.82266033976964
 20
117.2356398542551
 10
76.72992586922191
 20
116.9234693873495
 10
76.64381459812592
 20
116.6106756038741
 10
76.56433812934619
 20
116.2973059657327
 10
76.49150704150099
 20
115.9834078478261
 10
76.42533090692473
 20
115.6690285267893
 10
76.36581831051524
 20
115.3542151724519
 10
76.31297686908817
 20
115.039014842167
 10
76.26681325083779
 20
114.7234744780966
 10
76.22733319448162
 20
114.4076409074718
 10
76.194541527664
 20
114.0915608457831
 10
76.16844218419328
 20
113.7752809027696
 10
76.14903821971381
 20
113.4588475910245
 10
76.14470829323477
 20
113.3509809533336
  0
LWPOLYLINE
  5
1B4
330
2
100
AcDbEntity
  8
0
  6
Continuous
 62
     7
370
    15
100
AcDbPolyline
 90
       18
 70
   128
 43
0.0
 10
97.13885652278202
 20
94.67982913949221
 10
97.13895053416388
 20
94.67986450938507
 10
97.13353505141515
 20
94.67936330081405
 10
97.1218370959191
 20
94.67905576409782
 10
97.10385521600949
 20
94.67963311131574
 10
97.07816389331993
 20
94.68180737126386
 10
97.04534557775469
 20
94.68611608694494
 10
97.00525472780078
 20
94.6930067415454
 10
96.95785475424305
 20
94.70283311726317
 10
96.90313760309335
 20
94.71587582982008
 10
96.84109672877776
 20
94.73236241528452
 10
96.77173093840053
 20
94.75249220389441
 10
96.69496178321834
 20
94.7764795793682
 10
96.61233912101046
 20
94.80393983771215
 10
96.52316086860174
 20
94.83517521248062
 10
96.42775636767566
 20
94.87015076611202
 10
96.32647785838424
 20
94.90880309991469
 10
96.23965180016387
 20
94.94314757471299
  0
ARC
  5
1B5
330
2
100
AcDbEntity
  8
0
  6
Continuous
 62
     7
370
    15
100
AcDbCircle
 10
90.28606359827108
 20
92.95634689131087
 30
0.0
 40
1.935270423816236
100
AcDbArc
 50
304.5130579151327
 51
4.545873433179493
  0
LWPOLYLINE
  5
1B6
330
2
100
AcDbEntity
  8
0
  6
Continuous
 62
     7
370
    15
100
AcDbPolyline
 90
      192
 70
   128
 43
0.0
 10
89.20497486261728
 20
80.88887184732055
 10
89.4093381941442
 20
80.77165650397141
 10
89.80105487085756
 20
80.55115929686358
 10
90.19740877570006
 20
80.3334739368506
 10
90.59833947797301
 20
80.11863291221779
 10
91.00378628704687
 20
79.90666804869313
 10
91.41368786178327
 20
79.69761073377309
 10
91.82798221880274
 20
79.49149191372253
 10
92.24660674081292
 20
79.28834209051185
 10
92.66949818500824
 20
79.08819131869678
 10
93.09659269154952
 20
78.89106920224428
 10
93.52782579212691
 20
78.69700489131362
 10
93.9631324186114
 20
78.50602707899863
 10
94.40244691180543
 20
78.31816399803379
 10
94.84570303028897
 20
78.13344341747565
 10
95.29283395937046
 20
77.95189263936079
 10
95.74377232014047
 20
77.77353849535059
 10
96.19845017863656
 20
77.59840734336494
 10
96.65679905510751
 20
77.42652506421605
 10
97.11874993339552
 20
77.25791705824171
 10
97.58423327042578
 20
77.09260824194711
 10
98.05317900579883
 20
76.93062304466256
 10
98.52551657150071
 20
76.77198540521665
 10
99.00117490171545
 20
76.61671876863436
 10
99.4800824427465
 20
76.46484608286302
 10
99.96216716304502
 20
76.31638979553024
 10
100.4473565633408
 20
76.17137185073882
 10
100.9355776868774
 20
76.02981368590191
 10
101.4267571297442
 20
75.89173622862374
 10
101.9208210513142
 20
75.75715989362613
 10
102.4176951847718
 20
75.62610457972811
 10
102.9173048477391
 20
75.49858966687891
 10
103.4195749529901
 20
75.37463401324946
 10
103.9244300192614
 20
75.25425595238191
 10
104.4317941821397
 20
75.137473290405
 10
104.9415912050461
 20
75.02430330331121
 10
105.4537444902902
 20
74.91476273430468
 10
105.9681770902127
 20
74.80886779121611
 10
106.484811718401
 20
74.7066341439908
 10
107.0035707609781
 20
74.60807692224971
 10
107.524376287963
 20
74.51321071292612
 10
108.0471500647013
 20
74.42204955797866
 10
108.5718135633617
 20
74.33460695218265
 10
109.0982879744943
 20
74.25089584100174
 10
109.6264942186492
 20
74.1709286185402
 10
110.1563529580526
 20
74.0947171255781
 10
110.6877846083444
 20
74.02227264768827
 10
111.2207093503572
 20
73.95360591343991
 10
111.7550471419541
 20
73.88872709268589
 10
112.2907177299105
 20
73.82764579493708
 10
112.8276406618377
 20
73.77037106782383
 10
113.3657352981578
 20
73.71691139564432
 10
113.9049208241024
 20
73.66727469800316
 10
114.4451162617661
 20
73.62146832853729
 10
114.9862404821784
 20
73.5794990737332
 10
115.5282122174142
 20
73.54137315183344
 10
116.0709500727383
 20
73.5070962118338
 10
116.6143725387651
 20
73.47667333257276
 10
117.1583980036484
 20
73.45010902191122
 10
117.7029447652945
 20
73.42740721600479
 10
118.2479310435916
 20
73.4085712786683
 10
118.7932749926519
 20
73.39360400083264
 10
119.3388947130746
 20
73.38250760009414
 10
119.8847082642145
 20
73.3752837203573
 10
120.4306336764624
 20
73.37193343157007
 10
120.9765889635305
 20
73.37245722955261
 10
121.522492125084
 20
73.37685503580708
 10
122.0682611166122
 20
73.38512619639657
 10
122.6138139756419
 20
73.39726948314304
 10
123.1590687722514
 20
73.41328309399044
 10
123.703943621349
 20
73.43316465330072
 10
124.2483566949411
 20
73.45691121224316
 10
124.7922262343953
 20
73.48451924927683
 10
125.3354705626873
 20
73.51598467072604
 10
125.8780080966302
 20
73.55130281144851
 10
126.4197573590878
 20
73.59046843559609
 10
126.9606369911647
 20
73.63347573746783
 10
127.5005657643776
 20
73.68031834245543
 10
128.03946259279
 20
73.73098930807945
 10
128.5772465451313
 20
73.78548112511804
 10
129.1138368568732
 20
73.84378571882577
 10
129.6491529422835
 20
73.90589445024353
 10
130.1831144064301
 20
73.9717981175976
 10
130.7156410571593
 20
74.04148695778913
 10
131.2466529170223
 20
74.11495064797133
 10
131.7760702351641
 20
74.19217830721597
 10
132.3038134991611
 20
74.27315849826605
 10
132.8298034468132
 20
74.35787922937622
 10
133.3539610778789
 20
74.44632795623796
 10
133.8762076657599
 20
74.53849158399022
 10
134.3964647691265
 20
74.63435646931369
 10
134.9146542434807
 20
74.7339084226074
 10
135.43069825266
 20
74.83713271024747
 10
135.9445192802732
 20
74.94401405692581
 10
136.4560401410668
 20
75.05453664806707
 10
136.9651839922231
 20
75.16868413232417
 10
137.471874344581
 20
75.28643962414834
 10
137.9760350737858
 20
75.40778570643495
 10
138.4775904313489
 20
75.53270443323872
 10
138.9764650556374
 20
75.66117733256205
 10
139.4725839827723
 20
75.79318540921026
 10
139.9658726574383
 20
75.92870914771184
 10
140.4562569436084
 20
76.06772851530378
 10
140.943663135171
 20
76.21022296497635
 10
141.4280179664631
 20
76.35617143857586
 10
141.9092486227068
 20
76.50555236996344
 10
142.3872827503451
 20
76.6583436882248
 10
142.8620484672737
 20
76.81452282092822
 10
143.3334743729697
 20
76.97406669742777
 10
143.8014895585129
 20
77.13695175220776
 10
144.2660236164985
 20
77.30315392826317
 10
144.7270066508389
 20
77.47264868051338
 10
145.1843692864539
 20
77.6454109792438
 10
145.638042678847
 20
77.82141531357003
 10
146.0879585235681
 20
78.0006356949212
 10
146.534049065561
 20
78.18304566053537
 10
146.9762471083944
 20
78.36861827696221
 10
147.4144860233782
 20
78.55732614356679
 10
147.8486997585642
 20
78.74914139602918
 10
148.2788228476345
 20
78.94403570983318
 10
148.7047904186718
 20
79.14198030373537
 10
149.1265382028274
 20
79.34294594321356
 10
149.5440025428723
 20
79.54690294388003
 10
149.9571204016489
 20
79.75382117485871
 10
150.3658293704204
 20
79.96367006211683
 10
150.7700676771278
 20
80.17641859174444
 10
151.1697741945499
 20
80.39203531317204
 10
151.5648884483889
 20
80.61048834232421
 10
151.9553506252787
 20
80.83174536469973
 10
152.341101580725
 20
81.05577363836962
 10
152.7220828469949
 20
81.28253999689185
 10
153.0982366409616
 20
81.51201085213402
 10
153.4695058719203
 20
81.74415219700025
 10
153.8358341493861
 20
81.97892960805809
 10
154.1971657908945
 20
82.21630824806238
 10
154.5534457687963
 20
82.45625282676469
 10
154.904619683494
 20
82.69872757376438
 10
155.2506340159385
 20
82.94369640725843
 10
155.5914359871992
 20
83.19112283979707
 10
155.9269735666551
 20
83.44096998031959
 10
156.2571954803255
 20
83.69320053612391
 10
156.582051219363
 20
83.94777681477835
 10
156.9014910487318
 20
84.20466072599477
 10
157.215466016105
 20
84.46381378348753
 10
157.5239279609952
 20
84.72519710683563
 10
157.8268295241662
 20
84.98877142339472
 10
158.124124157325
 20
85.25449707027606
 10
158.4157661331405
 20
85.52233399644888
 10
158.7017105555978
 20
85.79224176500268
 10
158.9819133707133
 20
86.06417955562914
 10
159.2563313776194
 20
86.33810616737356
 10
159.524922240037
 20
86.61398002172767
 10
159.78764449813
 20
86.89175916612509
 10
160.0444575807455
 20
87.1714012779163
 10
160.295321818025
 20
87.4528636689029
 10
160.5401984543661
 20
87.7361032905086
 10
160.7790496616989
 20
88.02107673967096
 10
161.011838553041
 20
88.30774026554532
 10
161.2385291962645
 20
88.5960497770953
 10
161.4590866280076
 20
88.88596085165811
 10
161.6734768676498
 20
89.17742874456543
 10
161.8816669312378
 20
89.47040839987897
 10
162.0836248452571
 20
89.76485446231361
 10
162.279319660111
 20
90.06072129039102
 10
162.4687214631606
 20
90.35796297085152
 10
162.6518013911718
 20
90.65653333434944
 10
162.828531641993
 20
90.95638597241164
 10
162.9988854852877
 20
91.2574742556333
 10
163.1628372721379
 20
91.55975135304847
 10
163.3203624433299
 20
91.86317025258054
 10
163.4714375361447
 20
92.16768378246184
 10
163.61604018947
 20
92.47324463344844
 10
163.7541491470817
 20
92.77980538166067
 10
163.8857442589478
 20
93.08731851181908
 10
164.0108064804404
 20
93.39573644062777
 10
164.1293178693713
 20
93.70501154002658
 10
164.241261580806
 20
94.01509616001828
 10
164.3466218596522
 20
94.32594265074998
 10
164.4453840310634
 20
94.63750338352134
 10
164.5375344887557
 20
94.9497307703977
 10
164.6230606813819
 20
95.26257728210326
 10
164.7019510971622
 20
95.57599546389393
 10
164.7741952470223
 20
95.88993794912569
 10
164.8397836465385
 20
96.20435747028693
 10
164.898707797031
 20
96.51920686728868
 10
164.9509601661822
 20
96.83443909287779
 10
164.996534168588
 20
97.15000721508948
 10
165.0354241466603
 20
97.46586441672279
 10
165.0676253523111
 20
97.78196399190278
 10
165.0931339298349
 20
98.09825933984392
 10
165.1119469003969
 20
98.41470395603366
 10
165.1147218758176
 20
98.48720857405577
  0
LWPOLYLINE
  5
1B7
330
2
100
AcDbEntity
  8
0
  6
Continuous
 62
     7
370
    15
100
AcDbPolyline
 90
       64
 70
   128
 43
0.0
 10
76.14574631924279
 20
98.47115247075565
 10
76.155898600466
 20
98.26183385604466
 10
76.17794373508047
 20
97.94548515555558
 10
76.20668097520115
 20
97.62931718226228
 10
76.24210638497562
 20
97.31337614532662
 10
76.28421518087463
 20
96.9977082830035
 10
76.33300172149268
 20
96.68235987662974
 10
76.38845949505093
 20
96.36737726279346
 10
76.45058110492562
 20
96.0528068433428
 10
76.51935825356964
 20
95.73869509295908
 10
76.59478172522449
 20
95.42508856407708
 10
76.67684136783851
 20
95.11203388901792
 10
76.76552607461201
 20
94.7995777792501
 10
76.8608237655825
 20
94.48776702179076
 10
76.96272136964831
 20
94.17664847279478
 10
77.07120480739741
 20
93.86626904846464
 10
77.18625897507718
 20
93.55667571345229
 10
77.30786772999124
 20
93.24791546697584
 10
77.43601387757121
 20
92.94003532690696
 10
77.57067916031292
 20
92.63308231211057
 10
77.71184424871762
 20
92.32710342334803
 10
77.85948873433131
 20
92.02214562303858
 10
78.0135911249215
 20
91.71825581420007
 10
78.17412884178827
 20
91.41548081886465
 10
78.34107821916541
 20
91.11386735625663
 10
78.51441450562948
 20
90.81346202100098
 10
78.69411186740729
 20
90.51431126160036
 10
78.88014339344715
 20
90.21646135939706
 10
79.07248110209707
 20
89.91995840820594
 10
79.27109594922592
 20
89.6248482947686
 10
79.4759578376129
 20
89.3311766801548
 10
79.68703562742928
 20
89.03898898219983
 10
79.90429714763354
 20
88.74833035905213
 10
80.12770920811453
 20
88.45924569386035
 10
80.35723761241854
 20
88.17177958062067
 10
80.59284717090884
 20
87.88597631117962
 10
80.83450171422043
 20
87.60187986336534
 10
81.08216410688601
 20
87.31953389020931
 10
81.33579626101562
 20
87.03898171021437
 10
81.59535914994535
 20
86.76026629859594
 10
81.86081282176269
 20
86.48343027943916
 10
82.13211641264638
 20
86.20851591869596
 10
82.40922815996396
 20
85.93556511794609
 10
82.69210541508641
 20
85.66461940884584
 10
82.98070465588557
 20
85.39571994819148
 10
83.27498149889937
 20
85.12890751351845
 10
83.57489071114434
 20
84.86422249917312
 10
83.88038622158092
 20
84.60170491278075
 10
84.1914211322287
 20
84.3413943720523
 10
84.50794772894061
 20
84.08333010187188
 10
84.82991749184918
 20
83.82755093160948
 10
85.15728110550686
 20
83.57409529260793
 10
85.48998846873189
 20
83.32300121580725
 10
85.82798870418832
 20
83.07430632946175
 10
86.17123016772053
 20
82.82804785691958
 10
86.5196604574703
 20
82.58426261443135
 10
86.87322642279321
 20
82.3429870089709
 10
87.23187417301199
 20
82.10425703603489
 10
87.59554908601524
 20
81.86810827741801
 10
87.96419577712937
 20
81.63457592372241
 10
88.33775801530533
 20
81.40369482529456
 10
88.71617904388836
 20
81.17549929408385
 10
89.09940140839854
 20
80.95002321975838
 10
89.20497486261728
 20
80.88887184732055
  0
ARC
  5
1B8
330
2
100
AcDbEntity
  8
0
  6
Continuous
 62
     7
370
    15
100
AcDbCircle
 10
120.6191331614615
 20
155.0828333306844
 30
0.0
 40
65.02938478717547
100
AcDbArc
 50
251.8281202198925
 51
288.5302040439301
  0
LWPOLYLINE
  5
1B9
330
2
100
AcDbEntity
  8
0
  6
Continuous
 62
     7
370
    15
100
AcDbPolyline
 90
       56
 70
   128
 43
0.0
 10
165.1143859436804
 20
113.3604759120127
 10
165.10709829289
 20
113.5241926215588
 10
165.086313837118
 20
113.8405701886384
 10
165.0588366287965
 20
114.1567757289603
 10
165.0246704450714
 20
114.4727630371514
 10
164.9838199091266
 20
114.7884858815547
 10
164.9362904999161
 20
115.1038979899362
 10
164.8820885642524
 20
115.4189530369481
 10
164.8212213309332
 20
115.7336046336878
 10
164.7536969265467
 20
116.0478063196502
 10
164.6795243925631
 20
116.3615115572914
 10
164.5987137032996
 20
116.6746737293671
 10
164.5112757843365
 20
116.9872461391243
 10
164.4172225309703
 20
117.2991820133684
 10
164.3165668263025
 20
117.6104345083494
 10
164.2093225585886
 20
117.9209567183594
 10
164.0955046375069
 20
118.2307016868761
 10
163.9751290090505
 20
118.5396224200318
 10
163.848212668787
 20
118.8476719021683
 10
163.7147736732859
 20
119.1548031131862
 10
163.5748311495636
 20
119.4609690473988
 10
163.4284053024438
 20
119.7661227335772
 10
163.2755174197841
 20
120.070217255878
 10
163.1161898755642
 20
120.3732057753539
 10
162.9504461308747
 20
120.6750415517483
 10
162.7783107328768
 20
120.9756779653146
 10
162.5998093118436
 20
121.2750685384063
 10
162.4149685764098
 20
121.5731669566207
 10
162.2238163071834
 20
121.869927089306
 10
162.0263813488836
 20
122.1653030092706
 10
161.8226936011749
 20
122.4592490115715
 10
161.6127840083809
 20
122.7517196312723
 10
161.396684548245
 20
123.0426696601139
 10
161.1744282199165
 20
123.3320541620408
 10
160.9460490313224
 20
123.619828487573
 10
160.7115819860767
 20
123.9059482870202
 10
160.4710630700722
 20
124.1903695225602
 10
160.2245292378786
 20
124.473048479218
 10
159.9720183990638
 20
124.7539417747919
 10
159.7135694045328
 20
125.0330063687906
 10
159.4492220329749
 20
125.310199570441
 10
159.1790169774822
 20
125.5854790458468
 10
158.9029958324057
 20
125.8588028243621
 10
158.6212010804818
 20
126.1301293042695
 10
158.3336760802747
 20
126.3994172578246
 10
158.0404650539475
 20
126.6666258357527
 10
157.7416130753819
 20
126.931714571262
 10
157.4371660586488
 20
127.1946433836435
 10
157.1271707468264
 20
127.4553725815241
 10
156.8116747011638
 20
127.7138628658279
 10
156.4907262905729
 20
127.9700753325026
 10
156.1643746814327
 20
128.2239714750602
 10
155.8326698276901
 20
128.4755131869772
 10
155.4956624612305
 20
128.7246627639911
 10
155.1534040824984
 20
128.9713829063317
 10
154.8116250762125
 20
129.2116451388318
  0
LINE
  5
1BA
330
2
100
AcDbEntity
  8
0
  6
Continuous
 62
     7
370
    15
100
AcDbLine
 10
76.129797142445
 20
112.7000987739731
 30
0.0
 11
76.129797142445
 21
99.14552129666965
 31
0.0
  0
LINE
  5
1BB
330
2
100
AcDbEntity
  8
0
  6
Continuous
 62
     7
370
    15
100
AcDbLine
 10
165.129797142445
 20
99.14552129666965
 30
0.0
 11
165.129797142445
 21
112.7000987739731
 31
0.0
  0
INSERT
  5
1BC
330
2
100
AcDbEntity
  8
0
100
AcDbBlockReference
 66
     1
  2
Wagner A4quer
 10
0.0
 20
0.0
 30
0.0
 41
2.0
 42
2.0
 43
2.0
  0
ATTRIB
  5
211
330
1BC
100
AcDbEntity
  8
02-99
100
AcDbText
 10
509.0
 20
16.0
 30
0.0
 40
5.0
  1
.
  7
ROMANS8
100
AcDbAttribute
280
     0
  2
E:DOS
 70
     0
280
     0
  0
ATTRIB
  5
212
330
1BC
100
AcDbEntity
  8
01-99
100
AcDbText
 10
419.8571428571428
 20
16.0
 30
0.0
 40
6.0
  1
1:1
  7
ROMANS8
 72
     1
 11
425.0
 21
16.0
 31
0.0
100
AcDbAttribute
280
     0
  2
E:MA
 70
     0
280
     0
  0
ATTRIB
  5
213
330
1BC
100
AcDbEntity
  8
06-99
100
AcDbText
 10
282.0
 20
36.0
 30
0.0
 40
5.0
  1
13.08.2014
 41
0.8802395209580838
  7
ROMANS8
 72
     5
 11
317.0
 21
36.0
 31
0.0
100
AcDbAttribute
280
     0
  2
E:M6
 70
     0
280
     0
  0
ATTRIB
  5
214
330
1BC
100
AcDbEntity
  8
06-99
100
AcDbText
 10
348.0
 20
35.99999999999716
 30
0.0
 40
5.0
  1
Häberle
 41
0.9
  7
ROMANS8
100
AcDbAttribute
280
     0
  2
E:M5
 70
     0
280
     0
  0
ATTRIB
  5
215
330
1BC
100
AcDbEntity
  8
01-99
100
AcDbText
 10
217.0
 20
86.0
 30
0.0
 40
6.0
  1
.
 41
0.9
  7
ROMANS8
100
AcDbAttribute
280
     0
  2
E:M4
 70
     0
280
     0
  0
ATTRIB
  5
216
330
1BC
100
AcDbEntity
  8
01-99
100
AcDbText
 10
217.0
 20
16.0
 30
0.0
 40
6.0
  1
Aschenbecher AC 211
 41
0.9
  7
ROMANS8
100
AcDbAttribute
280
     0
  2
E:M3
 70
     0
280
     0
  0
ATTRIB
  5
217
330
1BC
100
AcDbEntity
  8
07-99
100
AcDbText
 10
581.9809523809523
 20
12.0
 30
0.0
 40
0.2
  1
.
  7
ROMANS8
 72
     2
 11
582.0
 21
12.0
 31
0.0
100
AcDbAttribute
280
     0
  2
E:M2
 70
     0
280
     0
  0
ATTRIB
  5
218
330
1BC
100
AcDbEntity
  8
01-99
100
AcDbText
 10
451.0
 20
16.0
 30
0.0
 40
7.0
  1
700211
  7
ROMANS8
100
AcDbAttribute
280
     0
  2
E:M1
 70
     0
280
     0
  0
ATTRIB
  5
219
330
1BC
100
AcDbEntity
  8
01-99
100
AcDbText
 10
397.0
 20
66.0
 30
0.0
 40
6.0
  1
.
 41
0.9
  7
ROMANS8
100
AcDbAttribute
280
     0
  2
POS
 70
     0
280
     0
  0
ATTRIB
  5
21A
330
1BC
100
AcDbEntity
  8
01-99
100
AcDbText
 10
397.0
 20
86.0
 30
0.0
 40
6.0
  1
.
 41
0.9
  7
ROMANS8
100
AcDbAttribute
280
     0
  2
PROJ
 70
     0
280
     0
  0
ATTRIB
  5
21B
330
1BC
100
AcDbEntity
  8
01-99
100
AcDbText
 10
217.0
 20
66.0
 30
0.0
 40
6.0
  1
.
 41
0.9
  7
ROMANS8
100
AcDbAttribute
280
     0
  2
COM
 70
     0
280
     0
  0
SEQEND
  5
21C
330
1BC
100
AcDbEntity
  8
0
  0
ENDSEC
  0
SECTION
  2
OBJECTS
  0
DICTIONARY
  5
B
330
0
100
AcDbDictionary
281
     1
  3
ACAD_COLOR
350
4D
  3
ACAD_GROUP
350
3A
  3
ACAD_LAYOUT
350
18
  3
ACAD_MATERIAL
350
D
  3
ACAD_MLEADERSTYLE
350
50
  3
ACAD_MLINESTYLE
350
3B
  3
ACAD_PLOTSETTINGS
350
3C
  3
ACAD_PLOTSTYLENAME
350
A
  3
ACAD_SCALELIST
350
4E
  3
ACAD_TABLESTYLE
350
4F
  3
ACAD_VISUALSTYLE
350
30
  3
ACDB_RECOMPOSE_DATA
350
229
  3
AcDbVariableDictionary
350
21F
  0
DICTIONARY
  5
31
330
2D
100
AcDbDictionary
280
     1
281
     1
  0
DICTIONARY
  5
20
330
1F
100
AcDbDictionary
280
     1
281
     1
  3
ACAD_LAYERFILTERS
360
21
  3
ACAD_LAYERSTATES
360
22
  3
ACLYDICTIONARY
360
23
  0
DICTIONARY
  5
7
330
6
100
AcDbDictionary
280
     1
281
     1
  3
ADSK_XREC_LAYER_RECONCILED
360
8
  0
DICTIONARY
  5
1C3
330
1C2
100
AcDbDictionary
280
     1
281
     1
  3
ADSK_XREC_LAYER_RECONCILED
360
1C4
  0
DICTIONARY
  5
203
330
202
100
AcDbDictionary
280
     1
281
     1
  3
ADSK_XREC_LAYER_RECONCILED
360
204
  0
DICTIONARY
  5
1D7
330
1D6
100
AcDbDictionary
280
     1
281
     1
  3
ADSK_XREC_LAYER_RECONCILED
360
1D8
  0
DICTIONARY
  5
20A
330
209
100
AcDbDictionary
280
     1
281
     1
  3
ADSK_XREC_LAYER_RECONCILED
360
20B
  0
DICTIONARY
  5
1CA
330
1C9
100
AcDbDictionary
280
     1
281
     1
  3
ADSK_XREC_LAYER_RECONCILED
360
1CB
  0
DICTIONARY
  5
1ED
330
1EC
100
AcDbDictionary
280
     1
281
     1
  3
ADSK_XREC_LAYER_RECONCILED
360
1EE
  0
DICTIONARY
  5
BE
330
BD
100
AcDbDictionary
280
     1
281
     1
  3
ADSK_XREC_LAYER_RECONCILED
360
BF
  0
DICTIONARY
  5
C2
330
C1
100
AcDbDictionary
280
     1
281
     1
  3
ADSK_XREC_LAYER_RECONCILED
360
C3
  0
DICTIONARY
  5
52
330
51
100
AcDbDictionary
280
     1
281
     1
  3
ADSK_XREC_LAYER_RECONCILED
360
53
  0
DICTIONARY
  5
7C
330
7B
100
AcDbDictionary
280
     1
281
     1
  0
DICTIONARY
  5
3
330
2
100
AcDbDictionary
280
     1
281
     1
  3
ACAD_SORTENTS
360
21E
  0
DICTIONARY
  5
1BE
330
1BD
100
AcDbDictionary
280
     1
281
     1
  3
ACAD_SORTENTS
360
21D
  0
DICTIONARY
  5
4D
102
{ACAD_REACTORS
330
B
102
}
330
B
100
AcDbDictionary
281
     1
  0
DICTIONARY
  5
3A
102
{ACAD_REACTORS
330
B
102
}
330
B
100
AcDbDictionary
281
     1
  0
DICTIONARY
  5
18
102
{ACAD_REACTORS
330
B
102
}
330
B
100
AcDbDictionary
281
     1
  3
Layout1
350
1E
  3
Model
350
17
  0
DICTIONARY
  5
D
102
{ACAD_REACTORS
330
B
102
}
330
B
100
AcDbDictionary
281
     1
  3
ByBlock
350
45
  3
ByLayer
350
3D
  3
Global
350
C
  0
DICTIONARY
  5
50
102
{ACAD_REACTORS
330
B
102
}
330
B
100
AcDbDictionary
281
     1
  0
DICTIONARY
  5
3B
102
{ACAD_REACTORS
330
B
102
}
330
B
100
AcDbDictionary
281
     1
  3
Standard
350
54
  0
DICTIONARY
  5
3C
102
{ACAD_REACTORS
330
B
102
}
330
B
100
AcDbDictionary
281
     1
  0
ACDBDICTIONARYWDFLT
  5
A
102
{ACAD_REACTORS
330
B
102
}
330
B
100
AcDbDictionary
281
     1
  3
Normal
350
9
100
AcDbDictionaryWithDefault
340
9
  0
DICTIONARY
  5
4E
102
{ACAD_REACTORS
330
B
102
}
330
B
100
AcDbDictionary
281
     1
  3
A0
350
59
  3
A1
350
5A
  3
A2
350
5B
  3
A3
350
5C
  3
A4
350
5D
  3
A5
350
5E
  3
A6
350
5F
  3
A7
350
60
  3
A8
350
61
  3
A9
350
62
  3
B0
350
63
  3
B1
350
64
  3
B2
350
65
  3
B3
350
66
  3
B4
350
67
  3
B5
350
68
  3
B6
350
69
  3
B7
350
6A
  3
B8
350
6B
  3
B9
350
6C
  3
C0
350
6D
  3
C1
350
6E
  3
C2
350
6F
  3
C3
350
70
  3
C4
350
71
  3
C5
350
72
  3
C6
350
73
  3
C7
350
74
  3
C8
350
75
  3
C9
350
76
  3
D0
350
77
  3
D1
350
78
  3
D2
350
79
  0
DICTIONARY
  5
4F
102
{ACAD_REACTORS
330
B
102
}
330
B
100
AcDbDictionary
281
     1
  3
Standard
350
55
  0
DICTIONARY
  5
30
102
{ACAD_REACTORS
330
B
102
}
330
B
100
AcDbDictionary
281
     1
  3
2dWireframe
350
2F
  3
3dWireframe
350
58
  3
Realistic
350
57
  0
XRECORD
  5
229
102
{ACAD_REACTORS
330
B
102
}
330
B
100
AcDbXrecord
280
     1
 90
        1
330
55
  0
DICTIONARY
  5
21F
102
{ACAD_REACTORS
330
B
102
}
330
B
100
AcDbDictionary
281
     1
  3
CANNOSCALE
350
223
  3
CMLEADERSTYLE
350
221
  3
CTABLESTYLE
350
220
  3
LAYEREVAL
350
225
  3
LAYERNOTIFY
350
226
  3
LIGHTINGUNITS
350
224
  3
MSLTSCALE
350
222
  0
DICTIONARY
  5
21
102
{ACAD_REACTORS
330
20
102
}
330
20
100
AcDbDictionary
281
     1
  0
DICTIONARY
  5
22
102
{ACAD_REACTORS
330
20
102
}
330
20
100
AcDbDictionary
281
     1
  0
DICTIONARY
  5
23
102
{ACAD_REACTORS
330
20
102
}
330
20
100
AcDbDictionary
281
     1
1001
ACAD
1000
<All
  0
XRECORD
  5
8
102
{ACAD_REACTORS
330
7
102
}
330
7
100
AcDbXrecord
280
     1
290
     1
  0
XRECORD
  5
1C4
102
{ACAD_REACTORS
330
1C3
102
}
330
1C3
100
AcDbXrecord
280
     1
290
     1
  0
XRECORD
  5
204
102
{ACAD_REACTORS
330
203
102
}
330
203
100
AcDbXrecord
280
     1
290
     1
  0
XRECORD
  5
1D8
102
{ACAD_REACTORS
330
1D7
102
}
330
1D7
100
AcDbXrecord
280
     1
290
     1
  0
XRECORD
  5
20B
102
{ACAD_REACTORS
330
20A
102
}
330
20A
100
AcDbXrecord
280
     1
290
     1
  0
XRECORD
  5
1CB
102
{ACAD_REACTORS
330
1CA
102
}
330
1CA
100
AcDbXrecord
280
     1
290
     1
  0
XRECORD
  5
1EE
102
{ACAD_REACTORS
330
1ED
102
}
330
1ED
100
AcDbXrecord
280
     1
290
     1
  0
XRECORD
  5
BF
102
{ACAD_REACTORS
330
BE
102
}
330
BE
100
AcDbXrecord
280
     1
290
     1
  0
XRECORD
  5
C3
102
{ACAD_REACTORS
330
C2
102
}
330
C2
100
AcDbXrecord
280
     1
290
     1
  0
XRECORD
  5
53
102
{ACAD_REACTORS
330
52
102
}
330
52
100
AcDbXrecord
280
     1
290
     1
  0
SORTENTSTABLE
  5
21E
102
{ACAD_REACTORS
330
3
102
}
330
3
100
AcDbSortentsTable
330
2
331
1A7
  5
DC
331
1A3
  5
104
331
19F
  5
108
331
19B
  5
10C
331
12C
  5
17B
331
167
  5
140
331
128
  5
17F
331
163
  5
144
331
E9
  5
1A6
331
124
  5
183
331
120
  5
187
331
197
  5
110
331
193
  5
114
331
18F
  5
118
331
18B
  5
11C
331
15F
  5
148
331
11C
  5
18B
331
15B
  5
14C
331
118
  5
18F
331
157
  5
150
331
153
  5
154
331
114
  5
193
331
110
  5
197
331
187
  5
120
331
183
  5
124
331
17F
  5
128
331
17B
  5
12C
331
1BA
  5
7F
331
14F
  5
158
331
10C
  5
19B
331
14B
  5
15C
331
92
  5
1B8
331
CD
  5
1AA
331
108
  5
19F
331
147
  5
160
331
143
  5
164
331
C9
  5
1AE
331
104
  5
1A3
331
177
  5
130
331
1B6
  5
A0
331
1B2
  5
C5
331
173
  5
134
331
1AE
  5
C9
331
16F
  5
138
331
16B
  5
13C
331
1AA
  5
CD
331
13F
  5
168
331
C5
  5
1B2
331
13B
  5
16C
331
7E
  5
1BB
331
137
  5
170
331
133
  5
174
331
7A
  5
1BC
331
1A6
  5
E9
331
1A2
  5
105
331
19E
  5
109
331
19A
  5
10D
331
12F
  5
178
331
12B
  5
17C
331
166
  5
141
331
127
  5
180
331
123
  5
184
331
162
  5
145
331
196
  5
111
331
192
  5
115
331
18E
  5
119
331
18A
  5
11D
331
11F
  5
188
331
15E
  5
149
331
11B
  5
18C
331
15A
  5
14D
331
156
  5
151
331
DC
  5
1A7
331
117
  5
190
331
152
  5
155
331
113
  5
194
331
186
  5
121
331
182
  5
125
331
17E
  5
129
331
17A
  5
12D
331
1B9
  5
91
331
10F
  5
198
331
14E
  5
159
331
91
  5
1B9
331
10B
  5
19C
331
14A
  5
15D
331
CC
  5
1AB
331
107
  5
1A0
331
146
  5
161
331
142
  5
165
331
C8
  5
1AF
331
103
  5
1A4
331
176
  5
131
331
1B5
  5
AF
331
1B1
  5
C6
331
172
  5
135
331
16E
  5
139
331
1AD
  5
CA
331
16A
  5
13D
331
1A9
  5
CE
331
13E
  5
169
331
C0
  5
1B3
331
13A
  5
16D
331
BC
  5
1B4
331
136
  5
171
331
132
  5
175
331
1A5
  5
F6
331
1A1
  5
106
331
19D
  5
10A
331
199
  5
10E
331
12E
  5
179
331
12A
  5
17D
331
165
  5
142
331
126
  5
181
331
122
  5
185
331
161
  5
146
331
195
  5
112
331
191
  5
116
331
18D
  5
11A
331
189
  5
11E
331
11E
  5
189
331
15D
  5
14A
331
A0
  5
1B6
331
11A
  5
18D
331
159
  5
14E
331
155
  5
152
331
116
  5
191
331
112
  5
195
331
151
  5
156
331
185
  5
122
331
181
  5
126
331
17D
  5
12A
331
1BC
  5
7A
331
179
  5
12E
331
1B8
  5
92
331
10E
  5
199
331
14D
  5
15A
331
CF
  5
1A8
331
10A
  5
19D
331
149
  5
15E
331
145
  5
162
331
CB
  5
1AC
331
106
  5
1A1
331
141
  5
166
331
175
  5
132
331
1B4
  5
BC
331
1B0
  5
C7
331
171
  5
136
331
16D
  5
13A
331
1AC
  5
CB
331
169
  5
13E
331
1A8
  5
CF
331
C7
  5
1B0
331
13D
  5
16A
331
139
  5
16E
331
F6
  5
1A5
331
135
  5
172
331
131
  5
176
331
1A4
  5
103
331
1A0
  5
107
331
19C
  5
10B
331
198
  5
10F
331
12D
  5
17A
331
AF
  5
1B5
331
129
  5
17E
331
164
  5
143
331
125
  5
182
331
121
  5
186
331
160
  5
147
331
194
  5
113
331
190
  5
117
331
18C
  5
11B
331
188
  5
11F
331
11D
  5
18A
331
15C
  5
14B
331
119
  5
18E
331
158
  5
14F
331
154
  5
153
331
115
  5
192
331
111
  5
196
331
150
  5
157
331
184
  5
123
331
180
  5
127
331
17C
  5
12B
331
1BB
  5
7E
331
178
  5
12F
331
10D
  5
19A
331
14C
  5
15B
331
93
  5
1B7
331
CE
  5
1A9
331
109
  5
19E
331
148
  5
15F
331
144
  5
163
331
CA
  5
1AD
331
105
  5
1A2
331
140
  5
167
331
1B7
  5
93
331
174
  5
133
331
1B3
  5
C0
331
1AF
  5
C8
331
170
  5
137
331
16C
  5
13B
331
1AB
  5
CC
331
168
  5
13F
331
C6
  5
1B1
331
13C
  5
16B
331
7F
  5
1BA
331
138
  5
16F
331
134
  5
173
331
130
  5
177
  0
SORTENTSTABLE
  5
21D
102
{ACAD_REACTORS
330
1BE
102
}
330
1BE
100
AcDbSortentsTable
330
1BD
331
1FC
  5
20D
331
1F5
  5
200
331
1EB
  5
1F9
331
1FA
  5
208
331
1F3
  5
1FE
331
200
  5
1F7
331
1FF
  5
1F8
331
20E
  5
1EF
331
1F8
  5
206
331
207
  5
1F3
331
1F1
  5
1FC
331
1FD
  5
20E
331
20C
  5
1F1
331
1F6
  5
201
331
205
  5
1F5
331
1FB
  5
20C
331
1F4
  5
1FF
331
20F
  5
1EB
331
1F9
  5
207
331
208
  5
1F2
331
1F2
  5
1FD
331
201
  5
1F6
331
1EF
  5
1FA
331
1FE
  5
20F
331
20D
  5
1F0
331
1F7
  5
205
331
206
  5
1F4
331
1F0
  5
1FB
  0
LAYOUT
  5
1E
102
{ACAD_REACTORS
330
18
102
}
330
18
100
AcDbPlotSettings
  1

  2

  4

  6

 40
0.0
 41
0.0
 42
0.0
 43
0.0
 44
0.0
 45
0.0
 46
0.0
 47
0.0
 48
0.0
 49
0.0
140
0.0
141
0.0
142
1.0
143
1.0
 70
   688
 72
     0
 73
     0
 74
     5
  7

 75
    16
147
1.0
 76
     0
 77
     2
 78
   300
148
0.0
149
0.0
100
AcDbLayout
  1
Layout1
 70
     1
 71
     1
 10
0.0
 20
0.0
 11
420.0
 21
297.0
 12
0.0
 22
0.0
 32
0.0
 14
1.000000000000000E+20
 24
1.000000000000000E+20
 34
1.000000000000000E+20
 15
-1.000000000000000E+20
 25
-1.000000000000000E+20
 35
-1.000000000000000E+20
146
0.0
 13
0.0
 23
0.0
 33
0.0
 16
1.0
 26
0.0
 36
0.0
 17
0.0
 27
1.0
 37
0.0
 76
     0
330
1B
  0
LAYOUT
  5
17
102
{ACAD_XDICTIONARY
360
19
102
}
102
{ACAD_REACTORS
330
18
102
}
330
18
100
AcDbPlotSettings
  1

  2
HP LaserJet 4 Plus
  4
A4
  6

 40
6.805083274841308
 41
5.069413185119628
 42
6.805084228515625
 43
5.027069091796875
 44
209.9733276367187
 45
296.9683227539062
 46
0.0
 47
0.0
 48
0.0
 49
0.0
140
0.0
141
0.0
142
1.0
143
1.01859053585949
 70
 11952
 72
     1
 73
     1
 74
     1
  7
CNC-Soft.ctb
 75
     0
147
0.9817487643905861
 76
     0
 77
     2
 78
   300
148
-4.985962897755712
149
-4.998642665099623
100
AcDbLayout
  1
Model
 70
     1
 71
     0
 10
0.0
 20
0.0
 11
0.0
 21
0.0
 12
0.0
 22
0.0
 32
0.0
 14
0.0
 24
0.0
 34
0.0
 15
297.0
 25
210.0
 35
0.0
146
0.0
 13
0.0
 23
0.0
 33
0.0
 16
1.0
 26
0.0
 36
0.0
 17
0.0
 27
1.0
 37
0.0
 76
     0
330
2
331
2E
  0
MATERIAL
  5
45
102
{ACAD_XDICTIONARY
360
46
102
}
102
{ACAD_REACTORS
330
D
102
}
330
D
100
AcDbMaterial
  1
ByBlock
 72
     0
 43
0.0008202099737533
 43
0.0
 43
0.0
 43
0.0
 43
0.0
 43
0.0008202099737533
 43
0.0
 43
0.0
 43
0.0
 43
0.0
 43
1.0
 43
0.0
 43
0.0
 43
0.0
 43
0.0
 43
1.0
 77
     0
 47
0.0008202099737533
 47
0.0
 47
0.0
 47
0.0
 47
0.0
 47
0.0008202099737533
 47
0.0
 47
0.0
 47
0.0
 47
0.0
 47
1.0
 47
0.0
 47
0.0
 47
0.0
 47
0.0
 47
1.0
171
     0
 49
0.0008202099737533
 49
0.0
 49
0.0
 49
0.0
 49
0.0
 49
0.0008202099737533
 49
0.0
 49
0.0
 49
0.0
 49
0.0
 49
1.0
 49
0.0
 49
0.0
 49
0.0
 49
0.0
 49
1.0
175
     0
142
0.0008202099737533
142
0.0
142
0.0
142
0.0
142
0.0
142
0.0008202099737533
142
0.0
142
0.0
142
0.0
142
0.0
142
1.0
142
0.0
142
0.0
142
0.0
142
0.0
142
1.0
179
     0
144
0.0008202099737533
144
0.0
144
0.0
144
0.0
144
0.0
144
0.0008202099737533
144
0.0
144
0.0
144
0.0
144
0.0
144
1.0
144
0.0
144
0.0
144
0.0
144
0.0
144
1.0
147
0.0008202099737533
147
0.0
147
0.0
147
0.0
147
0.0
147
0.0008202099737533
147
0.0
147
0.0
147
0.0
147
0.0
147
1.0
147
0.0
147
0.0
147
0.0
147
0.0
147
1.0
  0
MATERIAL
  5
3D
102
{ACAD_XDICTIONARY
360
3E
102
}
102
{ACAD_REACTORS
330
D
102
}
330
D
100
AcDbMaterial
  1
ByLayer
 72
     0
 43
0.0008202099737533
 43
0.0
 43
0.0
 43
0.0
 43
0.0
 43
0.0008202099737533
 43
0.0
 43
0.0
 43
0.0
 43
0.0
 43
1.0
 43
0.0
 43
0.0
 43
0.0
 43
0.0
 43
1.0
 77
     0
 47
0.0008202099737533
 47
0.0
 47
0.0
 47
0.0
 47
0.0
 47
0.0008202099737533
 47
0.0
 47
0.0
 47
0.0
 47
0.0
 47
1.0
 47
0.0
 47
0.0
 47
0.0
 47
0.0
 47
1.0
171
     0
 49
0.0008202099737533
 49
0.0
 49
0.0
 49
0.0
 49
0.0
 49
0.0008202099737533
 49
0.0
 49
0.0
 49
0.0
 49
0.0
 49
1.0
 49
0.0
 49
0.0
 49
0.0
 49
0.0
 49
1.0
175
     0
142
0.0008202099737533
142
0.0
142
0.0
142
0.0
142
0.0
142
0.0008202099737533
142
0.0
142
0.0
142
0.0
142
0.0
142
1.0
142
0.0
142
0.0
142
0.0
142
0.0
142
1.0
179
     0
144
0.0008202099737533
144
0.0
144
0.0
144
0.0
144
0.0
144
0.0008202099737533
144
0.0
144
0.0
144
0.0
144
0.0
144
1.0
144
0.0
144
0.0
144
0.0
144
0.0
144
1.0
147
0.0008202099737533
147
0.0
147
0.0
147
0.0
147
0.0
147
0.0008202099737533
147
0.0
147
0.0
147
0.0
147
0.0
147
1.0
147
0.0
147
0.0
147
0.0
147
0.0
147
1.0
  0
MATERIAL
  5
C
102
{ACAD_XDICTIONARY
360
E
102
}
102
{ACAD_REACTORS
330
D
102
}
330
D
100
AcDbMaterial
  1
Global
 72
     0
 43
0.0008202099737533
 43
0.0
 43
0.0
 43
0.0
 43
0.0
 43
0.0008202099737533
 43
0.0
 43
0.0
 43
0.0
 43
0.0
 43
1.0
 43
0.0
 43
0.0
 43
0.0
 43
0.0
 43
1.0
 77
     0
 47
0.0008202099737533
 47
0.0
 47
0.0
 47
0.0
 47
0.0
 47
0.0008202099737533
 47
0.0
 47
0.0
 47
0.0
 47
0.0
 47
1.0
 47
0.0
 47
0.0
 47
0.0
 47
0.0
 47
1.0
171
     0
 49
0.0008202099737533
 49
0.0
 49
0.0
 49
0.0
 49
0.0
 49
0.0008202099737533
 49
0.0
 49
0.0
 49
0.0
 49
0.0
 49
1.0
 49
0.0
 49
0.0
 49
0.0
 49
0.0
 49
1.0
175
     0
142
0.0008202099737533
142
0.0
142
0.0
142
0.0
142
0.0
142
0.0008202099737533
142
0.0
142
0.0
142
0.0
142
0.0
142
1.0
142
0.0
142
0.0
142
0.0
142
0.0
142
1.0
179
     0
144
0.0008202099737533
144
0.0
144
0.0
144
0.0
144
0.0
144
0.0008202099737533
144
0.0
144
0.0
144
0.0
144
0.0
144
1.0
144
0.0
144
0.0
144
0.0
144
0.0
144
1.0
147
0.0008202099737533
147
0.0
147
0.0
147
0.0
147
0.0
147
0.0008202099737533
147
0.0
147
0.0
147
0.0
147
0.0
147
1.0
147
0.0
147
0.0
147
0.0
147
0.0
147
1.0
  0
MLINESTYLE
  5
54
102
{ACAD_REACTORS
330
3B
102
}
330
3B
100
AcDbMlineStyle
  2
STANDARD
 70
     0
  3

 62
   256
 51
90.0
 52
90.0
 71
     2
 49
0.5
 62
   256
  6
BYLAYER
 49
-0.5
 62
   256
  6
BYLAYER
  0
ACDBPLACEHOLDER
  5
9
102
{ACAD_REACTORS
330
A
102
}
330
A
  0
SCALE
  5
59
102
{ACAD_REACTORS
330
4E
102
}
330
4E
100
AcDbScale
 70
     0
300
1:1
140
1.0
141
1.0
290
     1
  0
SCALE
  5
5A
102
{ACAD_REACTORS
330
4E
102
}
330
4E
100
AcDbScale
 70
     0
300
1:2
140
1.0
141
2.0
290
     0
  0
SCALE
  5
5B
102
{ACAD_REACTORS
330
4E
102
}
330
4E
100
AcDbScale
 70
     0
300
1:4
140
1.0
141
4.0
290
     0
  0
SCALE
  5
5C
102
{ACAD_REACTORS
330
4E
102
}
330
4E
100
AcDbScale
 70
     0
300
1:5
140
1.0
141
5.0
290
     0
  0
SCALE
  5
5D
102
{ACAD_REACTORS
330
4E
102
}
330
4E
100
AcDbScale
 70
     0
300
1:8
140
1.0
141
8.0
290
     0
  0
SCALE
  5
5E
102
{ACAD_REACTORS
330
4E
102
}
330
4E
100
AcDbScale
 70
     0
300
1:10
140
1.0
141
10.0
290
     0
  0
SCALE
  5
5F
102
{ACAD_REACTORS
330
4E
102
}
330
4E
100
AcDbScale
 70
     0
300
1:16
140
1.0
141
16.0
290
     0
  0
SCALE
  5
60
102
{ACAD_REACTORS
330
4E
102
}
330
4E
100
AcDbScale
 70
     0
300
1:20
140
1.0
141
20.0
290
     0
  0
SCALE
  5
61
102
{ACAD_REACTORS
330
4E
102
}
330
4E
100
AcDbScale
 70
     0
300
1:30
140
1.0
141
30.0
290
     0
  0
SCALE
  5
62
102
{ACAD_REACTORS
330
4E
102
}
330
4E
100
AcDbScale
 70
     0
300
1:40
140
1.0
141
40.0
290
     0
  0
SCALE
  5
63
102
{ACAD_REACTORS
330
4E
102
}
330
4E
100
AcDbScale
 70
     0
300
1:50
140
1.0
141
50.0
290
     0
  0
SCALE
  5
64
102
{ACAD_REACTORS
330
4E
102
}
330
4E
100
AcDbScale
 70
     0
300
1:100
140
1.0
141
100.0
290
     0
  0
SCALE
  5
65
102
{ACAD_REACTORS
330
4E
102
}
330
4E
100
AcDbScale
 70
     0
300
2:1
140
2.0
141
1.0
290
     0
  0
SCALE
  5
66
102
{ACAD_REACTORS
330
4E
102
}
330
4E
100
AcDbScale
 70
     0
300
4:1
140
4.0
141
1.0
290
     0
  0
SCALE
  5
67
102
{ACAD_REACTORS
330
4E
102
}
330
4E
100
AcDbScale
 70
     0
300
8:1
140
8.0
141
1.0
290
     0
  0
SCALE
  5
68
102
{ACAD_REACTORS
330
4E
102
}
330
4E
100
AcDbScale
 70
     0
300
10:1
140
10.0
141
1.0
290
     0
  0
SCALE
  5
69
102
{ACAD_REACTORS
330
4E
102
}
330
4E
100
AcDbScale
 70
     0
300
100:1
140
100.0
141
1.0
290
     0
  0
SCALE
  5
6A
102
{ACAD_REACTORS
330
4E
102
}
330
4E
100
AcDbScale
 70
     0
300
1/128" = 1'-0"
140
0.0078125
141
12.0
290
     0
  0
SCALE
  5
6B
102
{ACAD_REACTORS
330
4E
102
}
330
4E
100
AcDbScale
 70
     0
300
1/64" = 1'-0"
140
0.015625
141
12.0
290
     0
  0
SCALE
  5
6C
102
{ACAD_REACTORS
330
4E
102
}
330
4E
100
AcDbScale
 70
     0
300
1/32" = 1'-0"
140
0.03125
141
12.0
290
     0
  0
SCALE
  5
6D
102
{ACAD_REACTORS
330
4E
102
}
330
4E
100
AcDbScale
 70
     0
300
1/16" = 1'-0"
140
0.0625
141
12.0
290
     0
  0
SCALE
  5
6E
102
{ACAD_REACTORS
330
4E
102
}
330
4E
100
AcDbScale
 70
     0
300
3/32" = 1'-0"
140
0.09375
141
12.0
290
     0
  0
SCALE
  5
6F
102
{ACAD_REACTORS
330
4E
102
}
330
4E
100
AcDbScale
 70
     0
300
1/8" = 1'-0"
140
0.125
141
12.0
290
     0
  0
SCALE
  5
70
102
{ACAD_REACTORS
330
4E
102
}
330
4E
100
AcDbScale
 70
     0
300
3/16" = 1'-0"
140
0.1875
141
12.0
290
     0
  0
SCALE
  5
71
102
{ACAD_REACTORS
330
4E
102
}
330
4E
100
AcDbScale
 70
     0
300
1/4" = 1'-0"
140
0.25
141
12.0
290
     0
  0
SCALE
  5
72
102
{ACAD_REACTORS
330
4E
102
}
330
4E
100
AcDbScale
 70
     0
300
3/8" = 1'-0"
140
0.375
141
12.0
290
     0
  0
SCALE
  5
73
102
{ACAD_REACTORS
330
4E
102
}
330
4E
100
AcDbScale
 70
     0
300
1/2" = 1'-0"
140
0.5
141
12.0
290
     0
  0
SCALE
  5
74
102
{ACAD_REACTORS
330
4E
102
}
330
4E
100
AcDbScale
 70
     0
300
3/4" = 1'-0"
140
0.75
141
12.0
290
     0
  0
SCALE
  5
75
102
{ACAD_REACTORS
330
4E
102
}
330
4E
100
AcDbScale
 70
     0
300
1" = 1'-0"
140
1.0
141
12.0
290
     0
  0
SCALE
  5
76
102
{ACAD_REACTORS
330
4E
102
}
330
4E
100
AcDbScale
 70
     0
300
1-1/2" = 1'-0"
140
1.5
141
12.0
290
     0
  0
SCALE
  5
77
102
{ACAD_REACTORS
330
4E
102
}
330
4E
100
AcDbScale
 70
     0
300
3" = 1'-0"
140
3.0
141
12.0
290
     0
  0
SCALE
  5
78
102
{ACAD_REACTORS
330
4E
102
}
330
4E
100
AcDbScale
 70
     0
300
6" = 1'-0"
140
6.0
141
12.0
290
     0
  0
SCALE
  5
79
102
{ACAD_REACTORS
330
4E
102
}
330
4E
100
AcDbScale
 70
     0
300
1'-0" = 1'-0"
140
12.0
141
12.0
290
     0
  0
TABLESTYLE
  5
55
102
{ACAD_XDICTIONARY
360
56
102
}
102
{ACAD_REACTORS
330
4F
102
}
330
4F
100
AcDbTableStyle
280
     0
  3
Standard
 70
     0
 71
     0
 40
1.5
 41
1.5
280
     0
281
     0
  7
Standard
140
4.5
170
     2
 62
     0
 63
     7
283
     0
 90
      512
 91
        0
  1

274
    -2
284
     1
 64
     0
275
    -2
285
     1
 65
     0
276
    -2
286
     1
 66
     0
277
    -2
287
     1
 67
     0
278
    -2
288
     1
 68
     0
279
    -2
289
     1
 69
     0
  7
Standard
140
6.0
170
     5
 62
     0
 63
     7
283
     0
 90
      512
 91
        0
  1

274
    -2
284
     1
 64
     0
275
    -2
285
     1
 65
     0
276
    -2
286
     1
 66
     0
277
    -2
287
     1
 67
     0
278
    -2
288
     1
 68
     0
279
    -2
289
     1
 69
     0
  7
Standard
140
4.5
170
     5
 62
     0
 63
     7
283
     0
 90
      512
 91
        0
  1

274
    -2
284
     1
 64
     0
275
    -2
285
     1
 65
     0
276
    -2
286
     1
 66
     0
277
    -2
287
     1
 67
     0
278
    -2
288
     1
 68
     0
279
    -2
289
     1
 69
     0
  0
VISUALSTYLE
  5
2F
102
{ACAD_REACTORS
330
30
102
}
330
30
100
AcDbVisualStyle
  2
2dWireframe
 70
     4
177
     2
291
     0
 71
     0
176
     1
 72
     2
176
     1
 73
     0
176
     1
 90
        0
176
     1
 40
0.6
176
     1
 41
30.0
176
     1
 63
     7
176
     1
 74
     1
176
     1
 91
        4
176
     1
 64
     7
176
     1
 65
   257
176
     1
 75
     1
176
     1
175
     1
176
     1
 42
1.0
176
     1
 92
        0
176
     1
 66
   257
176
     1
 43
1.0
176
     1
 76
     1
176
     1
 77
     6
176
     1
 78
     2
176
     1
 67
     7
176
     1
 79
     5
176
     1
170
     0
176
     1
171
     0
176
     1
290
     0
176
     1
 93
        1
176
     1
 44
0.0
176
     1
173
     0
176
     1
  0
VISUALSTYLE
  5
58
102
{ACAD_REACTORS
330
30
102
}
330
30
100
AcDbVisualStyle
  2
3dWireframe
 70
     5
177
     2
291
     0
 71
     0
176
     1
 72
     2
176
     1
 73
     0
176
     1
 90
        0
176
     1
 40
0.6
176
     1
 41
30.0
176
     1
 63
     7
176
     1
 74
     1
176
     1
 91
        4
176
     1
 64
     7
176
     1
 65
   257
176
     1
 75
     1
176
     1
175
     1
176
     1
 42
1.0
176
     1
 92
        0
176
     1
 66
   257
176
     1
 43
1.0
176
     1
 76
     1
176
     1
 77
     6
176
     1
 78
     2
176
     1
 67
     7
176
     1
 79
     5
176
     1
170
     0
176
     1
171
     0
176
     1
290
     0
176
     1
 93
        1
176
     1
 44
0.0
176
     1
173
     0
176
     1
  0
VISUALSTYLE
  5
57
102
{ACAD_REACTORS
330
30
102
}
330
30
100
AcDbVisualStyle
  2
Realistic
 70
     8
177
     2
291
     0
 71
     2
176
     1
 72
     2
176
     1
 73
     0
176
     1
 90
        0
176
     1
 40
0.6
176
     1
 41
30.0
176
     1
 63
     7
176
     1
 74
     1
176
     1
 91
        0
176
     1
 64
     7
176
     1
 65
   257
176
     1
 75
     1
176
     1
175
     1
176
     1
 42
1.0
176
     1
 92
        8
176
     1
 66
     8
176
     1
 43
1.0
176
     1
 76
     1
176
     1
 77
     6
176
     1
 78
     2
176
     1
 67
     7
176
     1
 79
     5
176
     1
170
     0
176
     1
171
     0
176
     1
290
     0
176
     1
 93
       13
176
     1
 44
0.0
176
     1
173
     0
176
     1
  0
DICTIONARYVAR
  5
223
102
{ACAD_REACTORS
330
21F
102
}
330
21F
100
DictionaryVariables
280
     0
  1
1:1
  0
DICTIONARYVAR
  5
221
102
{ACAD_REACTORS
330
21F
102
}
330
21F
100
DictionaryVariables
280
     0
  1
STANDARD
  0
DICTIONARYVAR
  5
220
102
{ACAD_REACTORS
330
21F
102
}
330
21F
100
DictionaryVariables
280
     0
  1
STANDARD
  0
DICTIONARYVAR
  5
225
102
{ACAD_REACTORS
330
21F
102
}
330
21F
100
DictionaryVariables
280
     0
  1
1
  0
DICTIONARYVAR
  5
226
102
{ACAD_REACTORS
330
21F
102
}
330
21F
100
DictionaryVariables
280
     0
  1
15
  0
DICTIONARYVAR
  5
224
102
{ACAD_REACTORS
330
21F
102
}
330
21F
100
DictionaryVariables
280
     0
  1
0
  0
DICTIONARYVAR
  5
222
102
{ACAD_REACTORS
330
21F
102
}
330
21F
100
DictionaryVariables
280
     0
  1
0
  0
DICTIONARY
  5
19
330
17
100
AcDbDictionary
280
     1
281
     1
  3
ADSK_XREC_LAYOUTTHUMBNAIL
360
1A
  0
DICTIONARY
  5
46
330
45
100
AcDbDictionary
280
     1
281
     1
  3
BUMPTILE
360
47
  3
DIFFUSETILE
360
48
  3
OPACITYTILE
360
49
  3
REFLECTIONTILE
360
4A
  3
REFRACTIONTILE
360
4B
  3
SPECULARTILE
360
4C
  0
DICTIONARY
  5
3E
330
3D
100
AcDbDictionary
280
     1
281
     1
  3
BUMPTILE
360
3F
  3
DIFFUSETILE
360
40
  3
OPACITYTILE
360
41
  3
REFLECTIONTILE
360
42
  3
REFRACTIONTILE
360
43
  3
SPECULARTILE
360
44
  0
DICTIONARY
  5
E
330
C
100
AcDbDictionary
280
     1
281
     1
  3
BUMPTILE
360
F
  3
DIFFUSETILE
360
10
  3
OPACITYTILE
360
11
  3
REFLECTIONTILE
360
12
  3
REFRACTIONTILE
360
13
  3
SPECULARTILE
360
14
  0
DICTIONARY
  5
56
330
55
100
AcDbDictionary
280
     1
281
     1
  3
ACAD_ROUNDTRIP_2008_TABLESTYLE_CELLSTYLEMAP
360
227
  0
XRECORD
  5
1A
102
{ACAD_REACTORS
330
19
102
}
330
19
100
AcDbXrecord
280
     1
310
280000000001000084000000010008000000000000840000000000000000000000010000000000000000000000000000FFFFFF000000000000000000000000000000000000000000000000000000000000000000330000006600000099000000CC000000FF00000000330000333300006633000099330000CC330000FF3300
310
0000660000336600006666000099660000CC660000FF66000000990000339900006699000099990000CC990000FF99000000CC000033CC000066CC000099CC0000CCCC0000FFCC000000FF000033FF000066FF000099FF0000CCFF0000FFFF000000003300330033006600330099003300CC003300FF003300003333003333
310
33006633330099333300CC333300FF33330000663300336633006666330099663300CC663300FF66330000993300339933006699330099993300CC993300FF99330000CC330033CC330066CC330099CC3300CCCC3300FFCC330000FF330033FF330066FF330099FF3300CCFF3300FFFF330000006600330066006600660099
310
006600CC006600FF00660000336600333366006633660099336600CC336600FF33660000666600336666006666660099666600CC666600FF66660000996600339966006699660099996600CC996600FF99660000CC660033CC660066CC660099CC6600CCCC6600FFCC660000FF660033FF660066FF660099FF6600CCFF6600
310
FFFF660000009900330099006600990099009900CC009900FF00990000339900333399006633990099339900CC339900FF33990000669900336699006666990099669900CC669900FF66990000999900339999006699990099999900CC999900FF99990000CC990033CC990066CC990099CC9900CCCC9900FFCC990000FF99
310
0033FF990066FF990099FF9900CCFF9900FFFF99000000CC003300CC006600CC009900CC00CC00CC00FF00CC000033CC003333CC006633CC009933CC00CC33CC00FF33CC000066CC003366CC006666CC009966CC00CC66CC00FF66CC000099CC003399CC006699CC009999CC00CC99CC00FF99CC0000CCCC0033CCCC0066CC
310
CC0099CCCC00CCCCCC00FFCCCC0000FFCC0033FFCC0066FFCC0099FFCC00CCFFCC00FFFFCC000000FF003300FF006600FF009900FF00CC00FF00FF00FF000033FF003333FF006633FF009933FF00CC33FF00FF33FF000066FF003366FF006666FF009966FF00CC66FF00FF66FF000099FF003399FF006699FF009999FF00CC
310
99FF00FF99FF0000CCFF0033CCFF0066CCFF0099CCFF00CCCCFF00FFCCFF0000FFFF0033FFFF0066FFFF0099FFFF00CCFFFF00FFFFFF00000000000D0D0D001A1A1A00282828003535350043434300505050005D5D5D006B6B6B00787878008686860093939300A1A1A100AEAEAE00BBBBBB00C9C9C900D6D6D600E4E4E400
310
F1F1F100FFFFFF0000000000000000000000000000000000000000000000000000000000000000000000000000000000E2E2E2E2E2E2E2E2E2E2E2E2E2E2E2E2E2E2E2E2E2E2E2E2E2E2E2E2E2E2E2E2E2E2E2E2E2E2E2E2E2E2E2E2E2E2E2E2E2E2E2E2E2E2E2E2E2E2E2E2E2E2E2E2E2E2E2E2E2E2E2E2E2E2E2E2E2E2E2
310
E2E2E2E2E2E2E2E2E2E2E2E2E2E2E2E2E2E2E2E2E2E2E2E2E2E2E2E2E2E2E2E2E2E2E2E2E2E2E2E2E2E2E2E2E2E2E2E2E2E2E2E2E2E2E2E2E2E2E2E2E2E2E2E2E2E2E2E2E2E2E2E2E2E2E2E2E2E2E2E2E2E2E2E2E2E2E2E2E2E2E2E2E2E2E2E2E2E2E2E2E2E2E2E2E2E2E2E2E2E2E2E2E2E2E2E2E2E2E2E2E2E2E2E2E2E2E2
310
E2E2E2E2E2E2E2E2E2E2E2E2E2E2E2E2E2E2E2E2E2E2E2E2E2E2E2E2E2E2E2E2E2E2E2E2E2E2E2E2E2E2E2E2E2E2E2E2E2E2E2E2E2E2E2E2E2E2E2E2E2E2E2E2E2E2E2E2E2E2E2E2E2E2E2E2E2E2E2E2E2E2E2E2E2BEBEBEBEBEBEBEBEBEBEBEBEBEBEBEBEBEBEBEBEBEBEBEBEBEBEBEBEBEBEBEBEBEBEBEBEBEBEBEBEBEBE
310
BEBEBEBEBEBEBEBEBEBEBEBEBEBEBEBEBEBEBEBEBEBEBEBEBEBEBEBEBEBEBEBEBEBEBEBEBEBEBEBEBEBEBEBEBEBEBEBEBEBEBEBEBEBEBEBEBEBEBEBEBEBEBEBEBEBEBEBEBEBEBEBEBEBEBEBEBEBEBEBEBEBEBEBEBEBEBEBEBEBEBEBEBEBEBEBEBEBEBEBEBEBEBEBEBEBEBEBEBEBEBEBEBEBEBEBEBEBEBEBEBEBEBEBEBEBEBE
310
BEBEBEBEBEBEBEBEBEBEBEBEBEBEBEBEBEE2E2E2E2E2E2E2E2E2E2E2E2E2E2E2E2E2E2E2E2E2E2E2E2E2E2E2E2E2E2E2E2E2E2E2E2E2E2E2E2E2E2E2E2E2E2E2E2E2E2E2E2E2E2E2E2E2E2E2E2E2E2E2E2E2E2E2E2E2E2BEE2E2E2E2E2E2E2E2E2E2E2E2E2E2E2E2E2E2E2E2E2E2E2E2E2E2E2E2E2E2E2E2E2E2E2E2E2E2E2
310
E2E2E2E2E2E2E2E2E2E2E2E2E2E2E2E2E2E2E2E2E2E2E2E2E2E2E2E2E2E2E2E2E2E2E2E2E2E2E2E2E2E2E2E2E2E2E2E2E2E2E2E2E2E2E2E2E2E2E2E2E2E2E2E2E2E2E2E2E2E2E2E2E2E2E2E2E2E2E2E2E2E2E2E2E2E2E2E2E2E2E2E2E2E2E2E2E2E2E2E2E2E2E2E2E2E2E2E2E2E2E2E2E2E2E2E2E2E2E2E2E2E2E2E2E2E2E2
310
E2E2E2E2E2E2E2E2E2E2E2E2E2E2E2E2E2E2BEE2E2E2E2E2E2E2E2E2E2E2E2E2E2E2E2E2E2E2E2E2E2E2E2E2E2E2E2E2E2E2E2E2E2E2E2E2E2E2E2E2E2E2E2E2E2E2E2E2E2E2E2E2E2E2E2E2E2E2E2E2E2E2E2E2E2E2E2E2E2BEE2E2E2E2E2E2E2E2E2E2E2E2E2E2E2E2E2E2E2E2E2E2E2E2E2E2E2E2E2E2E2E2E2E2E2E2E2
310
E2E2E2E2E2E2E2E2E2E2E2E2E2E2E2E2E2E2E2E2E2E2E2E2E2E2E2E2E2E2E2E2E2E2E2E2E2E2E2E2E2E2E2E2E2E2E2E2E2E2E2E2E2E2E2E2E2E2E2E2E2E2E2E2E2E2E2E2E2E2E2E2E2E2E2E2E2E2E2E2E2E2E2E2E2E2E2E2E2E2E2E2E2E2E2E2E2E2E2E2E2E2E2E2E2E2E2E2E2E2E2E2E2E2E2E2E2E2E2E2E2E2E2E2E2E2E2
310
E2E2E2E2E2E2E2E2E2E2E2E2E2E2E2E2E2E2E2E2BEE2E2E2E2E2E2E2E2E2E2E2E2E2E2E2E2E2E2E2E2E2E2E2E2E2E2E2E2E2E2E2E2E2E2E2E2E2E2E2E2E2E2E2E2E2E2E2E2E2E2E2E2E2E2E2E2E2E2E2E2E2E2E2E2E2E2E2E2E2E2BEE2E2E2DCDCDCDCDCDCDCDCDCDCDCDCDCDCDCDCDCDCDCDCDCDCDCDCDCDCDCDCDCDCDCDC
310
DCDCDCDCDCDCDCDCDCDCDCDCDCDCDCDCDCDCDCDCDCDCDCDCDCDCDCDCDCDCDCDCDCDCDCDCDCDCDCDCDCDCDCDCDCDCDCDCDCDCDCDCDCDCDCDCDCDCDCDCDCDCDCDCDCDCDCDCDCDCDCDCDCDCDCDCDCDCDCDCDCDCDCDCDCDCDCDCDCDCDCDCDCDCDCDCDCDCDCDCDCDCDCDCDCDCDCDCDCDCDCDCDCDCDCDCDCDCDCDCDCDCDCDCDCDCDC
310
DCDCDCDCDCDCDCDCDCDCDCDCDCDCDCDCDCDCC3E2E2E2BEE2E2E2E2E2E2E2E2E2E2E2E2E2E2E2E2E2E2E2E2E2E2E2E2E2E2E2E2E2E2E2E2E2E2E2E2E2E2E2E2E2E2E2E2E2E2E2E2E2E2E2E2E2E2E2E2E2E2E2E2E2E2E2E2E2E2E2E2E2E2BEE2E2E2DCE2E2E2E2E2E2E2E2E2E2E2E2E2E2E2E2E2E2E2E2E2E2E2E2E2E2E2E2E2
310
E2E2E2E2E2E2E2E2E2E2E2E2E2E2E2E2E2E2E2E2E2E2E2E2E2E2E2E2E2E2E2E2E2DCDCDCDCDCDCDCDCDCDCDCE2DCDCDCDCDCDCE2E2DCDCDCE2E2DCDCDCDCE2E2E2E2E2E2E2E2E2E2E2E2E2E2E2E2E2E2E2E2E2E2E2E2E2E2E2E2E2DCE2E2E2E2E2DCDCE2DCE2E2E2E2E2DCDCE2DCE2DCE2DCDCDCE2DCE2E2E2E2E2E2BEE2E2
310
E2E2E2E2E2E2E2E2E2E2DCE2E2E2E2DCE2E2E2E2DCE2E2E2BEE2E2E2E2E2E2E2E2E2E2E2E2E2E2E2E2E2E2E2E2E2E2E2E2E2E2E2E2E2E2E2E2E2E2E2E2E2E2E2E2E2E2E2E2E2E2E2E2E2E2E2E2E2E2E2E2E2E2E2E2E2E2E2E2E2E2E2E2E2E2BEE2E2E2DCE2E2E2E2E2E2E2E2E2E2E2E2E2E2E2E2E2E2E2E2E2E2E2E2E2E2E2
310
E2E2E2E2E2E2E2E2E2E2E2E2E2E2E2E2E2E2E2E2E2E2E2E2E2E2E2E2E2E2E2E2E2E2E2DCDCDCDCDCDCDCDCDCDCDCDCDCDCDCDCDCDCE2E2DCDCDCDCE2DCE2DCDCE2E2E2E2E2E2E2E2E2E2E2E2E2E2E2E2E2E2E2E2E2E2E2E2E2E2E2E2E2DCE2E2E2E2E2DCDCE2DCE2E2E2E2E2DCDCDCDCDCDCDCE2DCDCE2DCE2E2E2E2E2E2BE
310
BEE2E2E2E2E2E2E2E2E2E2E2DCDCDCDCDCDCE2E2E2E2DCE2E2E2BEE2E2E2E2E2E2E2E2E2E2E2E2E2E2E2E2E2E2E2E2E2E2E2E2E2E2E2E2E2E2E2E2E2E2E2E2E2E2E2E2E2E2E2E2E2E2E2E2E2E2E2E2E2E2E2E2E2E2E2E2E2E2E2E2E2E2E2E2E2E2BEE2E2E2DCE2E2E2E2E2E2E2E2E2E2E2E2E2E2E2E2E2E2E2E2E2E2E2E2E2
310
E2E2E2E2E2E2E2E2E2E2E2E2E2E2E2E2E2E2E2E2E2E2E2E2E2E2E2E2E2E2E2E2E2E2E2E2E2DCDCDCDCDCDCDCDCDCDCDCDCDCDCDCDCDCDCDCE2DCDCDCDCE2DCDCDCDCE2E2E2E2E2E2E2E2E2E2E2E2E2E2E2E2E2E2E2E2E2E2E2E2E2E2E2E2E2DCE2E2E2E2E2DCDCDCDCE2E2E2E2E2DCE2DCDCDCDCDCDCDCDCDCDCE2E2E2E2E2
310
E2DCE2E2E2E2E2E2E2E2E2E2E2E2DCE2DCE2DCDCE2E2E2E2DCE2E2E2BEE2E2E2E2E2E2E2E2E2E2E2E2E2E2E2E2E2E2E2E2E2E2E2E2E2E2E2E2E2E2E2E2E2E2E2E2E2E2E2E2E2E2E2E2E2E2E2E2E2E2E2E2E2E2E2E2E2E2E2E2E2E2E2E2E2E2E2E2E2E2BEE2E2E2DCE2E2E2E2E2E2E2E2E2E2E2E2E2E2E2E2E2E2E2E2E2E2E2
310
E2E2E2E2E2E2E2E2E2E2E2E2E2E2E2E2E2E2E2E2E2E2E2E2E2E2E2E2E2E2E2E2E2E2E2E2E2E2E2DCE2E2E2E2E2E2E2E2E2E2E2F5F5E2E2E2E2E2E2E2E2E2E2E2E2E2E2E2E2E2E2E2E2E2E2E2E2E2E2E2E2E2E2E2E2E2E2E2E2E2E2E2E2E2E2E2E2DCE2E2E2E2E2E2E2E2E2E2E2E2E2E2DCDCDCDCDCDCDCDCDCDCE2DCE2E2E2
310
E2E2E2DCE2E2E2E2E2E2E2E2E2E2E2E2DCE2DCE2DCDCE2E2E2E2DCE2E2E2BEE2E2E2E2E2E2E2E2E2E2E2E2E2E2E2E2E2E2E2E2E2E2E2E2E2E2E2E2E2E2E2E2E2E2E2E2E2E2E2E2E2E2E2E2E2E2E2E2E2E2E2E2E2E2E2E2E2E2E2E2E2E2E2E2E2E2E2E2E2E2BEE2E2E2DCE2E2E2E2E2E2E2E2E2E2E2E2E2E2E2E2E2E2E2E2E2
310
E2E2E2E2E2E2E2E2E2E2E2E2E2E2E2E2E2E2E2E2E2E2E2E2E2E2E2E2E2E2E2E2E2E2E2E2E2E2E2E2E2DCF5F5F5F5F5F5F5F5F5F5F5F5F5F5F5F5F5F5F5E2E2E2E2E2E2E2E2E2E2E2E2E2E2E2E2E2E2E2E2E2E2E2E2E2E2E2E2E2E2E2E2E2E2E2E2E2E2DCF5F5F5F5F5F5F5F5F5F5E2E2E2E2DCF5F5F5F5F5F5E2E2F5F5F5E2
310
E2E2E2E2E2F5F5F5F5F5F5E2F5F5F5F5F5F5F5E2F5F5F5DCF5F5F5F5F5E2E2E2BEE2E2E2E2E2E2E2E2E2E2E2E2E2E2E2E2E2E2E2E2E2E2E2E2E2E2E2E2E2E2E2E2E2E2E2E2E2E2E2E2E2E2E2E2E2E2E2E2E2E2E2E2E2E2E2E2E2E2E2E2E2E2E2E2E2E2E2E2E2E2BEE2E2E2DCE2E2E2E2E2E2E2E2E2E2E2E2E2E2E2E2E2E2E2
310
E2E2E2E2E2E2E2E2E2E2E2E2E2E2E2E2E2E2E2E2E2E2E2E2E2E2E2E2E2E2E2E2E2E2E2E2E2E2E2E2E2E2E2DCF5F5F5F5F5F5F5F5F5F5F5F5F5E2F5F5F5F5F5E2E2E2E2E2E2E2E2E2E2E2E2E2E2E2E2E2E2E2E2E2E2E2E2E2E2E2E2E2E2E2E2E2E2E2E2E2E2DCF5E2F5F5F5F5F5F5F5F5E2E2E2E2DCF5F5F5F5F5F5F5F5F5F5
310
F5E2E2E2E2E2E2DCF5F5F5F5F5F5F5F5F5F5F5F5F5F5F5F5F5DCF5F5F5F5F5E2E2E2BEE2E2E2E2E2E2E2E2E2E2E2E2E2E2E2E2E2E2E2E2E2E2E2E2E2E2E2E2E2E2E2E2E2E2E2E2E2E2E2E2E2E2E2E2E2E2E2E2E2E2E2E2E2E2E2E2E2E2E2E2E2E2E2E2E2E2E2E2E2E2BEE2E2E2DCE2E2E2E2E2E2E2E2E2E2E2E2E2E2E2E2E2
310
E2E2E2E2E2E2E2E2E2E2E2E2E2E2E2E2E2E2E2E2E2E2E2E2E2E2E2E2E2E2E2E2E2E2E2E2E2E2E2E2E2E2E2E2E2F5F5DCDCDCDCDCDCDCDCDCDCDCDCDCDCDCDCDCDCDCDCDCDCDCDCDCDCDCDCDCDCDCDCDCDCDCDCDCDCDCDCDCDCDCDCDCDCDCDCDCDCDCDCDCDCDCDCDCDCDCDCDCDCDCDCDCDCDCDCDCDCDCDCDCDCDCDCDCDCDCDC
310
DCDCDCDCDCDCDCDCDCDCDCDCDCDCDCDCDCDCDCDCDCDCDCDCDCDCDCDCDCDCDCDCDCE2E2E2BEE2E2E2E2E2E2E2E2E2E2E2E2E2E2E2E2E2E2E2E2E2E2E2E2E2E2E2E2E2E2E2E2E2E2E2E2E2E2E2E2E2E2E2E2E2E2E2E2E2E2E2E2E2E2E2E2E2E2E2E2E2E2E2E2E2E2E2E2E2E2BEE2E2E2DCE2E2E2E2E2E2E2E2E2E2E2E2E2E2E2
310
E2E2E2E2E2E2E2E2E2E2E2E2E2E2E2E2E2E2E2E2E2E2E2E2E2E2E2E2E2E2E2E2E2E2E2E2E2E2E2E2E2E2E2E2E2E2E2F5F5F5F5F5F5F5F5F5F5F5F5E2F5F5F5F5F5F5F5F5BEBEBEBEBEBEBEBEBEBEBEBEF5F5F5F5F5F5F5F5BEBEBEBEBEBEBEBEBEE2E2E2E2E2E2E2E2E2E2E2E2E2E2E2E2E2E2E2E2E2E2E2E2E2E2E2E2E2E2
310
E2E2E2E2E2DCE2E2E2E2E2E2E2E2E2E2E2E2E2E2E2E2E2E2E2E2E2E2E2E2E2E2E2E2DCE2E2E2BEE2E2E2E2E2E2E2E2E2E2E2E2E2E2E2E2E2E2E2E2E2E2E2E2E2E2E2E2E2E2E2E2E2E2E2E2E2E2E2E2E2E2E2E2E2E2E2E2E2E2E2E2E2E2E2E2E2E2E2E2E2E2E2E2E2E2E2E2E2E2BEE2E2E2DCE2E2E2E2E2E2E2E2E2E2E2E2E2
310
E2E2E2E2E2E2E2E2E2E2E2E2E2E2E2E2E2E2E2E2E2E2E2E2E2E2E2E2E2E2E2E2E2E2E2E2E2E2E2E2E2E2E2E2E2E2E2E2E2DCF5F5F5F5F5F5F5F5F5F5F5F5F5F5F5F5F5F5F5F5BEBEBEBEBEBEBEBEBEBEBEE2E2F5F5F5F5F5F5F5BEBEBEBEBEBEBEBEBEE2E2E2E2E2E2E2E2E2E2E2E2E2E2E2E2E2E2E2E2E2E2E2E2E2E2E2E2
310
E2E2E2E2E2E2E2DCE22D2D2D2D2D2D2D2D2D2D2D2D2D2DE22D2DE22D2D2DE22D2D2DE2E2DCE2E2E2BEE2E2E2E2E2E2E2E2E2E2E2E2E2E2E2E2E2E2E2E2E2E2E2E2E2E2E2E2E2E2E2E2E2E2E2E2E2E2E2E2E2E2E2E2E2E2E2E2E2E2E2E2E2E2E2E2E2E2E2E2E2E2E2E2E2E2E2E2E2E2BEE2E2E2DCE2E2E2E2E2E2E2E2E2E2E2
310
E2E2E2E2E2E2E2E2E2E2E2E2E2E2E2E2E2E2E2E2E2E2E2E2E2E2E2E2E2E2E2E2E2E2E2E2E2E2E2E2E2E2E2E2E2E2E2E2E2E2E2DCDCDCDCDCDCDCDCDCDCDCDCDCDCDCDCDCDCDCDCDCDCDCDCDCDCDCDCDCDCDCDCDCDCDCDCDCDCDCDCDCDCDCDCDCDCDCDCDCDCDCDCDCDCDCDCDCDCDCDCDCDCDCDCDCDCDCDCDCDCDCDCDCDCDCDC
310
DCDCDCDCDCDCDCDCDCDCE2E2E2E2E2E2E2E2E2E2E2E2E22D2DE22D2D2DE22D2DE22D2D2DE2E2DCE2E2E2BEE2E2E2E2E2E2E2E2E2E2E2E2E2E2E2E2E2E2E2E2E2E2E2E2E2E2E2E2E2E2E2E2E2E2E2E2E2E2E2E2E2E2E2E2E2E2E2E2E2E2E2E2E2E2E2E2E2E2E2E2E2E2E2E2E2E2E2E2E2E2BEE2E2E2DCE2E2E2E2E2E2E2E2E2
310
E2E2E2E2E2E2E2E2E2E2E2E2E2E2E2E2E2E2E2E2E2E2E2E2E2E2E2E2E2E2E2E2E2E2E2E2E2E2E2E2E2E2E2E2E2E2E2E2E2E2E2E2E2DCE2E2E2E2E2E2E2E2E2E2E2E2E2E2E2E2E2E2E2E2E2E2E2E2E2E2E2E2E2E2E2E2E2E2E2E2E2E2E2E2E2E2E2E2E2E2E2E2E2E2E2E2E2E2E2E2E2E2E2E2E2E2E2E2E2E2E2E2E2E2E2E2E2
310
E2E2E2E2E2E2E2E2E2E2E2DCE2E2E2E2E2E2E2E2E2E2E2E2E22D2D2D2D2D2D2D2D2DE22D2D2DE2E2DCE2E2E2BEE2E2E2E2E2E2E2E2E2E2E2E2E2E2E2E2E2E2E2E2E2E2E2E2E2E2E2E2E2E2E2E2E2E2E2E2E2E2E2E2E2E2E2E2E2E2E2E2E2E2E2E2E2E2E2E2E2E2E2E2E2E2E2E2E2E2E2E2E2E2BEE2E2E2DCE2E2E2E2E2E2E2
310
E2E2E2E2E2E2E2E2E2E2E2E2E2E2E2E2E2E2E2E2E2E2E2E2E2E2E2E2E2E2E2E2E2E2E2E2E2E2E2E2E2E2E2E2E2E2E2E2E2E2E2E2E2E2E2DCE2E2E2E2E2E2E2E2E2E2E2E2E2E2E2E2E2E2E2E2E2E2E2E2E2E2E2E2E2E2E2E2E2E2E2E2E2E2E2E2E2E2E2E2E2E2E2E2E2E2E2E2E2E2E2E2E2E2E2E2E2E2E2E2E2E2E2E2E2E2E2
310
E2E2E2E2E2E2E2E2E2E2E2E2E2DCE2E2E2E2E2E22D2DE22DE22D2D2D2D2D2D2D2D2D2D2DE22D2D2DE2E2DCE2E2E2BEE2E2E2E2E2E2E2E2E2E2E2E2E2E2E2E2E2E2E2E2E2E2E2E2E2E2E2E2E2E2E2E2E2E2E2E2E2E2E2E2E2E2E2E2E2E2E2E2E2E2E2E2E2E2E2E2E2E2E2E2E2E2E2E2E2E2E2E2E2E2BEE2E2E2DCE2E2E2E2E2
310
E2E2E2E2E2E2E2E2E2E2E2E2E2E2E2E2E2E2E2E2E2E2E2E2E2E2E2E2E2E2E2E2E2E2E2E2E2E2E2E2E2E2E2E2E2E2E2E2E2E2E2E2E2E2E2E2E2BEBEBEBEBEBEBEBEBEBEF5F5BEBEBEBEBEBEBEBEBEBEBEBEBEBEBEBEBEBEBEBEBEBEBEBEBEBEBEBEBEBEBEBEBEBEBEBEBEBEBEBEBEBEBEBEBEBEBEBEBEBEBEBEBEBEBEBEBEBE
310
BEBEBEBEBEBEBEBEBEBEBEBEBEBEBEBEE2E2E2E2E2E22D2D2D2D2D2D2D2D2D2D2D2D2D2D2D2DE22D2DE2E2E2DCE2E2E2BEE2E2E2E2E2E2E2E2E2E2E2E2E2E2E2E2E2E2E2E2E2E2E2E2E2E2E2E2E2E2E2E2E2E2E2E2E2E2E2E2E2E2E2E2E2E2E2E2E2E2E2E2E2E2E2E2E2E2E2E2E2E2E2E2E2E2E2E2E2E2BEE2E2E2DCE2E2E2
310
E2E2E2E2E2E2E2E2E2E2E2E2E2E2E2E2E2E2E2E2E2E2E2E2E2E2E2E2E2E2E2E2E2E2E2E2E2E2E2E2E2E2E2E2E2E2E2E2E2E2E2E2E2E2E2E2E2E2E2DCF5F5F5F5F5F5F5F5F5F5F5F5E2E2E2E2E2E2E2E2E2E2E2E2E2E2E2E2E2E2E2E2E2E2E2E2E2E2E2E2E2E2E2E2E2E2E2E2E2E2E2E2E2E2E2E2E2E2E2E2E2E2E2E2E2E2E2
310
E2E2E2E2E2E2E2E2E2E2E2E2E2E2E2E2E2DCE2E2E2E2E22D2DE22DE22DE22D2D2D2D2D2D2D2D2D2DE22D2DE2E2E2DCE2E2E2BEE2E2E2E2E2E2E2E2E2E2E2E2E2E2E2E2E2E2E2E2E2E2E2E2E2E2E2E2E2E2E2E2E2E2E2E2E2E2E2E2E2E2E2E2E2E2E2E2E2E2E2E2E2E2E2E2E2E2E2E2E2E2E2E2E2E2E2E2E2E2BEE2E2E2DCE2
310
E2E2E2E2E2E2E2E2E2E2E2E2E2E2E2E2E2E2E2E2E2E2E2E2E2E2E2E2E2E2E2E2E2E2E2E2E2E2E2E2E2E2E2E2E2E2E2E2E2E2E2E2E2E2E2E2E2E2E2E2E2DCE2F5F5F5F5F5F5F5F5F5F5F5E2E2E2E2E2E2E2E2E2E2E2E2E2E2E2E2E2E2E2E2E2E2E2E2E2E2E2E2E2E2E2E2E2E2E2E2E2E2E2E2E2E2E2E2E2E2E2E2E2E2E2E2E2
310
E2E2E2E2E2E2E2E2E2E2E2E2E2E2E2E2E2E2E2DCE2E2E2E2E2E22DE2E2E22DE2E22D2DE22DE2E2E2E2E2E2E2E2E2E2E2DCE2E2E2BEE2E2E2E2E2E2E2E2E2E2E2E2E2E2E2E2E2E2E2E2E2E2E2E2E2E2E2E2E2E2E2E2E2E2E2E2E2E2E2E2E2E2E2E2E2E2E2E2E2E2E2E2E2E2E2E2E2E2E2E2E2E2E2E2E2E2E2E2E2E2BEE2E2E2
310
DCE2E2E2E2E2E2E2E2E2E2E2E2E2E2E2E2E2E2E2E2E2E2E2E2E2E2E2E2E2E2E2E2E2E2E2E2E2E2E2E2E2E2E2E2E2E2E2E2E2E2E2E2E2E2E2E2E2E2E2E2E2E2DCF5F5DCDCDCDCDCDCDCDCDCDCDCDCDCDCDCDCDCDCDCDCDCDCDCDCDCDCDCDCDCDCDCDCDCDCDCDCDCDCDCDCDCDCDCDCDCDCDCDCDCDCDCDCDCDCDCDCDCDCDCDCDC
310
DCDCDCDCDCDCDCDCDCDCDCDCDCDCDCDCDCDCDCDCDCDCDCDCDCDCDCDCDCDCDCDCDCDCDCDCDCDCDCDCDCDCDCDCDCDCDCDCDCDCDCE2E2E2BEE2E2E2E2E2E2E2E2E2E2E2E2E2E2E2E2E2E2E2E2E2E2E2E2E2E2E2E2E2E2E2E2E2E2E2E2E2E2E2E2E2E2E2E2E2E2E2E2E2E2E2E2E2E2E2E2E2E2E2E2E2E2E2E2E2E2E2E2E2E2BEE2
310
E2E2DCE2E2E2E2E2E2E2E2E2E2E2E2E2E2E2E2E2E2E2E2E2E2E2E2E2E2E2E2E2E2E2E2E2E2E2E2E2E2E2E2E2E2E2E2E2E2E2E2E2E2E2E2E2E2E2E2E2E2E2E2E2E2DCDCE2E2E2E2E2E2E2E2E2E2E2E2E2E2E2E2E2E2E2E2E2E2E2E2E2E2E2E2E2E2E2E2E2E2E2E2E2E2E2E2E2E2E2E2E2E2E2E2E2E2E2E2E2E2BEDCE2E2E2E2
310
E2E2E2E2E2E2E2E2E2E2E2E2E2E2E2E2E2E2E2E2E2E2E2E2E2E2E2E2E2E2E2E2E2E2E2E2E2E2E2E2E2E2E2E2E2E2E2E2E2E2E2E2DCE2E2E2BEE2E2E2E2E2E2E2E2E2E2E2E2E2E2E2E2E2E2E2E2E2E2E2E2E2E2E2E2E2E2E2E2E2E2E2E2E2E2E2E2E2E2E2E2E2E2E2E2E2E2E2E2E2E2E2E2E2E2E2E2E2E2E2E2E2E2E2E2E2E2
310
BEE2E2E2DCE2E2E2E2E2E2E2E2E2E2E2E2E2E2E2E2E2E2E2E2E2E2E2E2E2E2E2E2E2E2E2E2E2E2E2E2E2E2E2E2E2E2E2E2E2E2E2E2E2E2E2E2E2E2E2E2E2E2E2E2E2E2DCE2E2E2E2E2E2E2E2E2E2E2E2E2E2E2E2E2E2E2E2E2E2E2E2E2E2E2E2E2E2E2E2E2E2E2E2E2E2E2E2E2E2E2E2E2E2E2E2E2E2E2E2E2E2E2BEE2E2E2
310
E2E2E2E2E2E2E2E2E2E2E2E2E2E2E2E2E2E2E2E2E2E2E2E2E2E2E2E2E2E2E2E2E2E2E2E2E2E2E2E2E2E2E2E2E2E2E2E2E2E2E2E2E2E2DCE2E2E2BEE2E2E2E2E2E2E2E2E2E2E2E2E2E2E2E2E2E2E2E2E2E2E2E2E2E2E2E2E2E2E2E2E2E2E2E2E2E2E2E2E2E2E2E2E2E2E2E2E2E2E2E2E2E2E2E2E2E2E2E2E2E2E2E2E2E2E2E2
310
E2E2BEE2E2E2DCE2E2E2E2E2E2E2E2E2E2E2E2E2E2E2E2E2E2E2E2E2E2E2E2E2E2E2E2E2F5F5F5F5F5F5F5F5E2E2E2E2E2E2E2E2E2E2E2E2E2E2E2E2E2E2E2E2E2E2E2E2E2DCE2E2E2E2E2E2E2E2E2E2E2E2E2E2E2E2E2E2E2E2E2E2E2E2E2E2E2E2E2E2E2E2E2E2E2E2E2E2E2E2E2E2E2E2E2E2E2E2E2E2E2E2E2E2E2BEE2
310
E2E2E2E2E2E2E2E2E2E2E2E2E2E2E2E2E2E2E2E2E2E2E2E2E2E2E2E2E2E2E2E2E2E2E2E2E2E2E2E2E2E2E2E2E2E2E2E2E2E2E2E2E2E2E2E2DCE2E2E2BEE2E2E2E2E2E2E2E2E2E2E2E2E2E2E2E2E2E2E2E2E2E2E2E2E2E2E2E2E2E2E2E2E2E2E2E2E2E2E2E2E2E2E2E2E2E2E2E2E2E2E2E2E2E2E2E2E2E2E2E2E2E2E2E2E2E2
310
E2E2E2E2BEE2E2E2DCE2E2E2E2E2E2E2E2E2E2E2E2E2E2E2E2E2E2E2E2E2E2E2E2E2F5F5F5F5F5E2E2E2E2E2E2F5F5F5F5F5E2E2E2E2E2E2E2E2E2E2E2E2E2E2E2E2E2E2E2E2E2DCF5F5F5F5F5F5E2E2E2E2E2E2E2E2E2E2E2E2E2E2E2E2E2E2E2E2E2E2E2E2E2E2E2E2E2E2E2E2E2E2E2E2E2E2E2E2E2E2E2E2E2E2E2E2E2
310
BEF5F5F5F5F5E2E2E2E2E2E2E2E2E2E2E2E2E2E2E2E2E2E2E2E2E2E2E2E2E2E2E2E2E2E2E2E2E2E2E2E2E2E2E2E2E2E2E2E2E2E2E2E2E2E2E2E2DCE2E2E2BEE2E2E2E2E2E2E2E2E2E2E2E2E2E2E2E2E2E2E2E2E2E2E2E2E2E2E2E2E2E2E2E2E2E2E2E2E2E2E2E2E2E2E2E2E2E2E2E2E2E2E2E2E2E2E2E2E2E2E2E2E2E2E2E2
310
E2E2E2E2E2E2BEE2E2E2DCE2E2E2E2E2E2E2E2E2E2E2E2E2E2E2E2E2E2E2E2E2E2E2F5F5F5E2E2E2E2E2E2E2E2E2E2E2E2E2E2F5F5F5E2E2E2E2E2E2E2E2E2E2E2E2E2E2E2E2E2E2E2DCF5F5F5F5F5F5E2E2E2E2E2E2E2E2E2E2E2E2E2E2E2E2E2E2E2E2E2E2E2E2E2E2E2E2E2E2E2E2E2E2E2E2E2E2E2E2E2E2E2E2E2E2E2
310
E2E2BEF5F5F5F5F5E2E2E2E2E2E2E2E2E2E2E2E2E2E2E2E2E2E2E2E2E2E2E2E2E2E2E2E2E2E2E2E2E2E2E2E2E2E2E2E2E2E2E2E2E2E2E2E2E2E2E2E2DCE2E2E2BEE2E2E2E2E2E2E2E2E2E2E2E2E2E2E2E2E2E2E2E2E2E2E2E2E2E2E2E2E2E2E2E2E2E2E2E2E2E2E2E2E2E2E2E2E2E2E2E2E2E2E2E2E2E2E2E2E2E2E2E2E2E2
310
E2E2E2E2E2E2E2E2BEE2E2E2DCE2E2E2E2E2E2E2E2E2E2E2E2E2E2E2E2E2E2E2E2E2E2F5F5E2E2E2E2E2E2E2E2E2E2E2E2E2E2E2E2E2E2F5F5F5E2E2E2E2E2E2E2E2E2E2E2E2E2E2E2E2E2DCF5F5E2E2E2E2E2E2E2E2E2E2E2E2E2E2E2E2E2E2E2E2E2E2E2E2E2E2E2E2E2E2E2E2E2E2E2E2E2E2E2E2E2E2E2E2E2E2E2E2E2
310
E2E2E2E2BEF5F5E2E2E2E2E2E2E2E2E2E2E2E2E2E2E2E2E2E2E2E2E2E2E2E2E2E2E2E2E2E2E2E2E2E2E2E2E2E2E2E2E2E2E2E2E2E2E2E2E2E2E2E2E2E2E2DCE2E2E2BEE2E2E2E2E2E2E2E2E2E2E2E2E2E2E2E2E2E2E2E2E2E2E2E2E2E2E2E2E2E2E2E2E2E2E2E2E2E2E2E2E2E2E2E2E2E2E2E2E2E2E2E2E2E2E2E2E2E2E2E2
310
E2E2E2E2E2E2E2E2E2E2BEE2E2E2DCE2E2E2E2E2E2E2E2E2E2E2E2E2E2E2E2E2E2E2E2F5F5E2E2E2E2E2E2E2E2E2F5F5F5F5E2E2E2E2E2E2E2E2E2F5F5E2E2E2E2E2E2E2E2E2E2E2E2E2E2E2E2BEDCBEBEBEBEBEBEBEBEBEBEBEBEBEBEBEBEBEBEBEBEBEBEBEBEBEBEBEBEBEBEBEBEBEBEBEBEBEBEBEBEBEBEBEBEBEBEBEBE
310
BEBEBEBEBEBEBEDCBEBEBEBEBEBEBEBEBEBEBEBEBEBEBEBEBEBEBEBEBEBEBEBEBEBEBEBEBEBEBEBEBEBEBEBEBEBEBEBEBEBEBEBEBEBEBEBEBEBEBEBEBEBEBEBEBEE2E2E2BEE2E2E2E2E2E2E2E2E2E2E2E2E2E2E2E2E2E2E2E2E2E2E2E2E2E2E2E2E2E2E2E2E2E2E2E2E2E2E2E2E2E2E2E2E2E2E2E2E2E2E2E2E2E2E2E2E2E2
310
E2E2E2E2E2E2E2E2E2E2E2E2BEE2E2E2DCE2E2E2E2E2E2E2E2E2E2E2E2E2E2E2E2E2E2E2E2F5E2E2E2E2E2F5F5F5F5F5F5F5F5F5F5F5F5F5F5E2E2E2E2E2F5F5E2E2E2E2E2E2E2E2E2E2E2E2E2E2E2DCE2E2E2E2E2E2E2E2E2E2E2E2E2E2E2E2E2E2E2E2E2E2E2E2E2E2E2E2E2E2E2E2E2E2E2E2E2E2E2E2E2E2E2E2E2E2E2
310
E2E2E2E2E2E2E2E2BEE2E2E2E2E2E2E2E2E2E2E2E2E2E2E2E2E2E2E2E2E2E2E2E2E2E2E2E2E2E2E2E2E2E2E2E2E2E2E2E2E2E2E2E2E2E2E2E2E2E2E2E2E2E2E2E2E2DCE2E2E2BEE2E2E2E2E2E2E2E2E2E2E2E2E2E2E2E2E2E2E2E2E2E2E2E2E2E2E2E2E2E2E2E2E2E2E2E2E2E2E2E2E2E2E2E2E2E2E2E2E2E2E2E2E2E2E2E2
310
E2E2E2E2E2E2E2E2E2E2E2E2E2E2BEE2E2E2DCE2E2E2E2E2E2E2E2E2E2E2E2E2E2E2E2E2E2E2F5F5E2F5F5F5F5F5F5F5F5F5E2E2E2E2F5F5F5F5F5F5F5F5E2E2E2F5E2E2E2E2E2E2E2E2E2E2E2E2E2E2E2DCE2E2E2E2E2E2E2E2E2E2E2E2E2E2E2E2E2E2E2E2E2E2E2E2E2E2E2E2E2E2E2E2E2E2E2E2E2E2E2E2E2E2E2E2E2
310
E2E2E2E2E2E2E2E2E2E2BEE2E2E2E2E2E2E2E2E2E2E2E2E2E2E2E2E2E2E2E2E2E2E2E2E2E2E2E2E2E2E2E2E2E2E2E2E2E2E2E2E2E2E2E2E2E2E2E2E2E2E2E2E2E2E2E2E2DCE2E2E2BEE2E2E2E2E2E2E2E2E2E2E2E2E2E2E2E2E2E2E2E2E2E2E2E2E2E2E2E2E2E2E2E2E2E2E2E2E2E2E2E2E2E2E2E2E2E2E2E2E2E2E2E2E2E2
310
E2E2E2E2E2E2E2E2E2E2E2E2E2E2E2E2BEE2E2E2DCE2E2E2E2E2E2E2E2E2E2E2E2E2E2E2E2E2E2E2F5E2E2F5E2F5F5F5E2E2E2E2E2E2E2E2E2E2E2E2E2F5F5F5F5F5E2F5E2E2E2E2E2E2E2E2E2E2E2E2E2E2E2DCE2E2E2E2E2E2E2E2E2E2E2E2E2E2E2E2E2E2E2E2E2E2E2E2E2E2E2E2E2E2E2E2E2E2E2E2E2E2E2E2E2E2E2
310
E2E2E2E2E2E2E2E2E2E2E2E2BEE2E2E2E2E2E2E2E2E2E2E2E2E2E2E2E2E2E2E2E2E2E2E2E2E2E2E2E2E2E2E2E2E2E2E2E2E2E2E2E2E2E2E2E2E2E2E2E2E2E2E2E2E2E2E2E2E2DCE2E2E2BEE2E2E2E2E2E2E2E2E2E2E2E2E2E2E2E2E2E2E2E2E2E2E2E2E2E2E2E2E2E2E2E2E2E2E2E2E2E2E2E2E2E2E2E2E2E2E2E2E2E2E2E2
310
E2E2E2E2E2E2E2E2E2E2E2E2E2E2E2E2E2E2BEE2E2E2DCE2E2E2E2E2E2E2E2E2E2E2E2E2E2E2E2E2E2E2F5E2F5F5F5F5E2E2E2E2E2E2E2E2E2E2E2E2E2E2E2E2E2F5F5F5F5F5E2E2E2E2E2E2E2E2E2E2E2E2E2E2E2DCE2E2E2E2E2E2E2E2E2E2E2E2E2E2E2E2E2E2E2E2E2E2E2E2E2E2E2E2E2E2E2E2E2E2E2E2E2E2E2E2E2
310
E2E2E2E2E2E2E2E2E2E2E2E2E2E2BEE2E2E2E2E2E2E2E2E2E2E2E2E2E2E2E2E2E2E2E2E2E2E2E2E2E2E2E2E2E2E2E2E2E2E2E2E2E2E2E2E2E2E2E2E2E2E2E2E2E2E2E2E2E2E2E2E2DCE2E2E2BEE2E2E2E2E2E2E2E2E2E2E2E2E2E2E2E2E2E2E2E2E2E2E2E2E2E2E2E2E2E2E2E2E2E2E2E2E2E2E2E2E2E2E2E2E2E2E2E2E2E2
310
E2E2E2E2E2E2E2E2E2E2E2E2E2E2E2E2E2E2E2E2BEE2E2E2DCE2E2E2E2E2E2E2E2E2E2E2E2E2E2E2E2E2E2E2F5F5F5F5E2E2E2E2E2E2E2E2E2E2E2E2E2E2E2E2E2E2E2E2F5F5F5F5E2E2E2E2E2E2E2E2E2E2E2E2E2E2E2DCE2E2E2E2E2E2E2E2E2E2E2E2E2E2E2E2E2E2E2E2E2E2E2E2E2E2E2E2E2E2E2E2E2E2E2E2E2E2E2
310
E2E2E2E2E2E2E2E2E2E2E2E2E2E2E2E2BEE2E2E2E2E2E2E2E2E2E2E2E2E2E2E2E2E2E2E2E2E2E2E2E2E2E2E2E2E2E2E2E2E2E2E2E2E2E2E2E2E2E2E2E2E2E2E2E2E2E2E2E2E2E2E2E2E2DCE2E2E2BEE2E2E2E2E2E2E2E2E2E2E2E2E2E2E2E2E2E2E2E2E2E2E2E2E2E2E2E2E2E2E2E2E2E2E2E2E2E2E2E2E2E2E2E2E2E2E2E2
310
E2E2E2E2E2E2E2E2E2E2E2E2E2E2E2E2E2E2E2E2E2E2BEE2E2E2DCE2E2E2E2E2E2E2E2E2E2E2E2E2E2E2E2E2E2E2F5F5F5E2E2E2E2E2E2E2E2E2E2E2E2E2E2E2E2E2E2E2E2E2E2F5E2F5E2E2E2E2E2E2E2E2E2E2E2E2E2E2E2DCDCDCDCDCDCDCDCDCDCDCDCDCDCDCDCDCDCDCDCDCDCDCDCDCDCDCDCDCDCDCDCDCDCDCDCDCDC
310
DCDCDCDCDCDCDCDCDCDCDCDCDCDCDCDCDCDCDCDCDCDCDCDCDCDCDCDCDCDCDCDCDCDCDCDCDCDCDCDCDCDCDCDCDCDCDCDCDCDCDCDCDCDCDCDCDCDCDCDCDCDCDCDCDCDCDCDCDCDCDCDCDCDCDCDCDCE2E2E2BEE2E2E2E2E2E2E2E2E2E2E2E2E2E2E2E2E2E2E2E2E2E2E2E2E2E2E2E2E2E2E2E2E2E2E2E2E2E2E2E2E2E2E2E2E2E2
310
E2E2E2E2E2E2E2E2E2E2E2E2E2E2E2E2E2E2E2E2E2E2E2E2BEE2E2E2DCE2E2E2E2E2E2E2E2E2E2E2E2E2E2E2E2E2E2E2F5F5F5E2E2E2E2E2E2E2E2E2E2E2E2E2E2E2E2E2E2E2E2E2E2F5F5F5E2E2E2E2E2E2E2E2E2E2E2E2E2E2E2E2E2E2E2E2E2E2E2E2E2E2E2E2E2E2E2E2E2E2E2E2E2E2E2E2E2E2E2E2E2E2E2E2E2E2E2
310
E2E2E2E2E2E2E2E2E2E2E2E2E2E2E2E2E2E2E2E2E2E2E2E2E2E2E2E2E2E2E2E2E2E2E2E2E2E2E2E2E2E2E2E2E2E2E2E2E2E2E2E2E2E2E2E2E2E2E2E2E2E2E2E2E2E2E2E2E2E2E2E2E2E2E2E2E2E2DCE2E2E2BEE2E2E2E2E2E2E2E2E2E2E2E2E2E2E2E2E2E2E2E2E2E2E2E2E2E2E2E2E2E2E2E2E2E2E2E2E2E2E2E2E2E2E2E2
310
E2E2E2E2E2E2E2E2E2E2E2E2E2E2E2E2E2E2E2E2E2E2E2E2E2E2BEE2E2E2DCE2E2E2E2E2E2E2E2E2E2E2E2E2E2E2E2E2E2E2F5F5E2E2E2E2E2E2E2E2E2E2E2E2E2E2E2E2E2E2E2E2E2E2E2E2F5F5E2E2E2E2E2E2E2E2E2E2E2E2E2E2E2E2E2E2E2E2E2E2E2E2E2E2E2E2E2E2E2E2E2E2E2E2E2E2E2E2E2E2E2E2E2E2E2E2E2
310
E2E2E2E2E2E2E2E2E2E2E2E2E2E2E2E2E2E2E2E2E2E2E2E2E2E2E2E2E2E2E2E2E2E2E2E2E2E2E2E2E2E2E2E2E2E2E2E2E2E2E2E2E2E2E2E2E2E2E2E2E2E2E2E2E2E2E2E2E2E2E2E2E2E2E2E2E2E2E2E2DCE2E2E2BEE2E2E2E2E2E2E2E2E2E2E2E2E2E2E2E2E2E2E2E2E2E2E2E2E2E2E2E2E2E2E2E2E2E2E2E2E2E2E2E2E2E2
310
E2E2E2E2E2E2E2E2E2E2E2E2E2E2E2E2E2E2E2E2E2E2E2E2E2E2E2E2BEE2E2E2DCE2E2E2E2E2E2E2E2E2E2E2E2E2F5F5F5F5F5E2F5F5F5E2E2E2E2E2E2E2E2E2E2E2E2E2E2E2E2E2E2E2E2E2E2E2F5F5E2E2E2E2E2E2E2E2E2E2E2E2E2E2E2E2E2E2E2E2E2E2E2E2E2E2E2E2E2E2E2E2E2E2E2E2E2E2E2E2E2E2E2E2E2E2E2
310
E2E2E2E2E2E2E2E2E2E2E2E2E2E2E2E2E2E2E2E2E2E2E2E2E2E2E2E2E2E2E2E2E2E2E2E2E2E2E2E2E2E2E2E2E2E2E2E2E2E2E2E2E2E2E2E2E2E2E2E2E2E2E2E2E2E2E2E2E2E2E2E2E2E2E2E2E2E2E2E2E2E2DCE2E2E2BEE2E2E2E2E2E2E2E2E2E2E2E2E2E2E2E2E2E2E2E2E2E2E2E2E2E2E2E2E2E2E2E2E2E2E2E2E2E2E2E2
310
E2E2E2E2E2E2E2E2E2E2E2E2E2E2E2E2E2E2E2E2E2E2E2E2E2E2E2E2E2E2BEE2E2E2DCE2E2E2E2E2E2E2E2E2E2E2E2F5F5E2E2E2F5F5F5E2F5E2E2E2E2E2E2E2E2E2E2E2E2E2E2E2E2E2E2E2E2E2E2F5F5F5E2E2E2E2E2E2E2E2E2E2E2E2E2E2E2E2E2E2E2E2E2E2E2E2E2E2E2E2E2E2E2E2E2E2E2E2E2E2E2E2E2E2E2E2E2
310
E2E2E2E2E2E2E2E2E2E2E2E2E2E2E2E2E2E2E2E2E2E2E2E2E2E2E2E2E2E2E2E2E2E2E2E2E2E2E2E2E2E2E2E2E2E2E2E2E2E2E2E2E2E2E2E2E2E2E2E2E2E2E2E2E2E2E2E2E2E2E2E2E2E2E2E2E2E2E2E2E2E2E2E2DCE2E2E2BEE2E2E2E2E2E2E2E2E2E2E2E2E2E2E2E2E2E2E2E2E2E2E2E2E2E2E2E2E2E2E2E2E2E2E2E2E2E2
310
E2E2E2E2E2E2E2E2E2E2E2E2E2E2E2E2E2E2E2E2E2E2E2E2E2E2E2E2E2E2E2E2BEE2E2E2DCE2E2E2E2E2E2E2E2E2E2E2F5F5F5E2E2E2E2E2F5F5F5F5E2E2E2E2E2E2E2E2E2E2E2E2E2E2E2E2E2E2E2E2E2F5F5F5E2E2E2E2E2E2E2E2E2E2E2E2E2E2E2E2E2E2E2E2E2E2E2E2E2E2E2E2E2E2E2E2E2E2E2E2E2E2E2E2E2E2E2
310
E2E2E2E2E2E2E2E2E2E2E2E2E2E2E2E2E2E2E2E2E2E2E2E2E2E2E2E2E2E2E2E2E2E2E2E2E2E2E2E2E2E2E2E2E2E2E2E2E2E2E2E2E2E2E2E2E2E2E2E2E2E2E2E2E2E2E2E2E2E2E2E2E2E2E2E2E2E2E2E2E2E2E2E2E2E2DCE2E2E2BEE2E2E2E2E2E2E2E2E2E2E2E2E2E2E2E2E2E2E2E2E2E2E2E2E2E2E2E2E2E2E2E2E2E2E2E2
310
E2E2E2E2E2E2E2E2E2E2E2E2E2E2E2E2E2E2E2E2E2E2E2E2E2E2E2E2E2E2E2E2E2E2BEE2E2E2DCE2E2E2E2E2E2E2E2E2E2E2F5F5E2E2E2E2E2F5F5F5F5F5F5E2E2E2E2E2E2E2E2E2E2E2E2E2E2E2E2F5F5F5F5F5F5E2E2E2E2E2E2E2E2E2E2E2E2E2E2E2E2E2E2E2E2E2E2E2E2E2E2E2E2E2E2E2E2E2E2E2E2E2E2E2E2E2E2
310
E2E2E2E2E2E2E2E2E2E2E2E2E2E2E2E2E2E2E2E2E2E2E2E2E2E2E2E2E2E2E2E2E2E2E2E2E2E2E2E2E2E2E2E2E2E2E2E2E2E2E2E2E2E2E2E2E2E2E2E2E2E2E2E2E2E2E2E2E2E2E2E2E2E2E2E2E2E2E2E2E2E2E2E2E2E2E2E2DCE2E2E2BEE2E2E2E2E2E2E2E2E2E2E2E2E2E2E2E2E2E2E2E2E2E2E2E2E2E2E2E2E2E2E2E2E2E2
310
E2E2E2E2E2E2E2E2E2E2E2E2E2E2E2E2E2E2E2E2E2E2E2E2E2E2E2E2E2E2E2E2E2E2E2E2BEE2E2E2DCE2E2E2E2E2E2E2E2E2E2E2F5F5F5E2E2F5F5E2E2E2F5F5F5F5E2E2E2E2E2E2E2E2E2E2E2E2E2E2E2F5E2F5F5F5E2E2E2E2E2E2E2E2E2E2E2E2E2E2E2E2E2E2E2E2E2E2E2E2E2E2E2E2E2E2E2E2E2E2E2E2E2E2E2E2E2
310
E2E2E2E2E2E2E2E2E2E2E2E2E2E2E2E2E2E2E2E2E2E2E2E2E2E2E2E2E2E2E2E2E2E2E2E2E2E2E2E2E2E2E2E2E2E2E2E2E2E2E2E2E2E2E2E2E2E2E2E2E2E2E2E2E2E2E2E2E2E2E2E2E2E2E2E2E2E2E2E2E2E2E2E2E2E2E2E2E2E2DCE2E2E2BEE2E2E2E2E2E2E2E2E2E2E2E2E2E2E2E2E2E2E2E2E2E2E2E2E2E2E2E2E2E2E2E2
310
E2E2E2E2E2E2E2E2E2E2E2E2E2E2E2E2E2E2E2E2E2E2E2E2E2E2E2E2E2E2E2E2E2E2E2E2E2E2BEE2E2E2DCE2E2E2E2E2E2E2E2E2E2E2F5F5F5E2E2F5E2E2E2E2E2F5F5F5F5F5E2E2E2E2E2E2E2E2E2E2E2E2F5F5E2F5F5E2E2E2E2E2E2E2E2E2E2E2E2E2E2E2E2E2E2E2E2E2E2E2E2E2E2E2E2E2E2E2E2E2E2E2E2E2E2E2E2
310
E2E2E2E2E2E2E2E2E2E2E2E2E2E2E2E2E2E2E2E2E2E2E2E2E2E2E2E2E2E2E2E2E2E2E2E2E2E2E2E2E2E2E2E2E2E2E2E2E2E2E2E2E2E2E2E2E2E2E2E2E2E2E2E2E2E2E2E2E2E2E2E2E2E2E2E2E2E2E2E2E2E2E2E2E2E2E2E2E2E2E2E2DCE2E2E2BEE2E2E2E2E2E2E2E2E2E2E2E2E2E2E2E2E2E2E2E2E2E2E2E2E2E2E2E2E2E2
310
E2E2E2E2E2E2E2E2E2E2E2E2E2E2E2E2E2E2E2E2E2E2E2E2E2E2E2E2E2E2E2E2E2E2E2E2E2E2E2E2BEE2E2E2DCE2E2E2E2E2E2E2E2E2E2E2F5E2F5E2E2F5E2E2E2E2E2F5F5F5F5F5F5F5F5F5F5F5F5F5F5F5F5F5F5F5F5E2E2E2E2E2E2E2E2E2E2E2E2E2E2E2E2E2E2E2E2E2E2E2E2E2E2E2E2E2E2E2E2E2E2E2E2E2E2E2E2
310
E2E2E2E2E2E2E2E2E2E2E2E2E2E2E2E2E2E2E2E2E2E2E2E2E2E2E2E2E2E2E2E2E2E2E2E2E2E2E2E2E2E2E2E2E2E2E2E2E2E2E2E2E2E2E2E2E2E2E2E2E2E2E2E2E2E2E2E2E2E2E2E2E2E2E2E2E2E2E2E2E2E2E2E2E2E2E2E2E2E2E2E2E2E2DCE2E2E2BEE2E2E2E2E2E2E2E2E2E2E2E2E2E2E2E2E2E2E2E2E2E2E2E2E2E2E2E2
310
E2E2E2E2E2E2E2E2E2E2E2E2E2E2E2E2E2E2E2E2E2E2E2E2E2E2E2E2E2E2E2E2E2E2E2E2E2E2E2E2E2E2BEE2E2E2DCE2E2E2E2E2E2E2E2E2E2E2E2F5F5F5E2F5F5E2E2F5F5F5E2E2E2F5F5F5F5F5F5F5F5F5F5F5F5F5F5E2E2E2E2E2E2E2E2E2E2E2E2E2E2E2E2E2E2E2E2E2E2E2E2E2E2E2E2E2E2E2E2E2E2E2E2E2E2E2E2
310
E2E2E2E2E2E2E2E2E2E2E2E2E2E2E2E2E2E2E2E2E2E2E2E2E2E2E2E2E2E2E2E2E2E2E2E2E2E2E2E2E2E2E2E2E2E2E2E2E2E2E2E2E2E2E2E2E2E2E2E2E2E2E2E2E2E2E2E2E2E2E2E2E2E2E2E2E2E2E2E2E2E2E2E2E2E2E2E2E2E2E2E2E2E2E2E2DCE2E2E2BEE2E2E2E2E2E2E2E2E2E2E2E2E2E2E2E2E2E2E2E2E2E2E2E2E2E2
310
E2E2E2E2E2E2E2E2E2E2E2E2E2E2E2E2E2E2E2E2E2E2E2E2E2E2E2E2E2E2E2E2E2E2E2E2E2E2E2E2E2E2E2E2BEE2E2E2DCE2E2E2E2E2E2E2E2E2E2E2E2F5E2F5E2E2F5F5F5E2E2F5E2E2E2E2E2E2E2E2E2E2E2E2E2E2E2E2E2E2E2E2E2E2E2E2E2E2E2E2E2E2E2E2E2E2E2E2E2E2E2E2E2E2E2E2E2E2E2E2E2E2E2E2E2E2E2
310
E2E2E2E2E2E2E2E2E2E2E2E2E2E2E2E2E2E2E2E2E2E2E2E2E2E2E2E2E2E2E2E2E2E2E2E2E2E2E2E2E2E2E2E2E2E2E2E2E2E2E2E2E2E2E2E2E2E2E2E2E2E2E2E2E2E2E2E2E2E2E2E2E2E2E2E2E2E2E2E2E2E2E2E2E2E2E2E2E2E2E2E2E2E2E2E2E2E2DCE2E2E2BEE2E2E2E2E2E2E2E2E2E2E2E2E2E2E2E2E2E2E2E2E2E2E2E2
310
E2E2E2E2E2E2E2E2E2E2E2E2E2E2E2E2E2E2E2E2E2E2E2E2E2E2E2E2E2E2E2E2E2E2E2E2E2E2E2E2E2E2E2E2E2E2BEE2E2E2DCE2E2E2E2E2E2E2E2E2E2E2E2F5F5F5F5E2E2E2E2E2E2F5E2E2E2E2E2E2E2E2E2E2E2E2E2E2E2E2E2E2E2E2E2E2E2E2E2E2E2E2E2E2E2E2E2E2E2E2E2E2E2E2E2E2E2E2E2E2E2E2E2E2E2E2E2
310
E2E2E2E2E2E2E2E2E2E2E2E2E2E2E2E2E2E2E2E2E2E2E2E2E2E2E2E2E2E2E2E2E2E2E2E2E2E2E2E2E2E2E2E2E2E2E2E2E2E2E2E2E2E2E2E2E2E2E2E2E2E2E2E2E2E2E2E2E2E2E2E2E2E2E2E2E2E2E2E2E2E2E2E2E2E2E2E2E2E2E2E2E2E2E2E2E2E2E2E2DCE2E2E2BEE2E2E2E2E2E2E2E2E2E2E2E2E2E2E2E2E2E2E2E2E2E2
310
E2E2E2E2E2E2E2E2E2E2E2E2E2E2E2E2E2E2E2E2E2E2E2E2E2E2E2E2E2E2E2E2E2E2E2E2E2E2E2E2E2E2E2E2E2E2E2E2BEE2E2E2DCE2E2E2E2E2E2E2E2E2E2E2E2E2F5F5F5F5E2E2E2E2E2F5E2E2E2E2E2E2E2E2E2E2E2E2E2E2E2E2E2E2E2E2E2E2E2E2E2E2E2E2E2E2E2E2E2E2E2E2E2E2E2E2E2E2E2E2E2E2E2E2E2E2E2
310
E2E2E2E2E2E2E2E2E2E2E2E2E2E2E2E2E2E2E2E2E2E2E2E2E2E2E2E2E2E2E2E2E2E2E2E2E2E2E2E2E2E2E2E2E2E2E2E2E2E2E2E2E2E2E2E2E2E2E2E2E2E2E2E2E2E2E2E2E2E2E2E2E2E2E2E2E2E2E2E2E2E2E2E2E2E2E2E2E2E2E2E2E2E2E2E2E2E2E2E2E2E2DCE2E2E2BEE2E2E2E2E2E2E2E2E2E2E2E2E2E2E2E2E2E2E2E2
310
E2E2E2E2E2E2E2E2E2E2E2E2E2E2E2E2E2E2E2E2E2E2E2E2E2E2E2E2E2E2E2E2E2E2E2E2E2E2E2E2E2E2E2E2E2E2E2E2E2E2BEE2E2E2DCE2E2E2E2E2E2E2E2E2E2E2E2E2E2F5F5F5F5E2E2E2E2F5E2E2E2E2E2E2E2E2E2E2E2E2E2E2E2E2E2E2E2E2E2E2E2E2E2E2E2E2E2E2E2E2E2E2E2E2E2E2E2E2E2E2E2E2E2E2E2E2E2
310
E2E2E2E2E2E2E2E2E2E2E2E2E2E2E2E2E2E2E2E2E2E2E2E2E2E2E2E2E2E2E2E2E2E2E2E2E2E2E2E2E2E2E2E2E2E2E2E2E2E2E2E2E2E2E2E2E2E2E2E2E2E2E2E2E2E2E2E2E2E2E2E2E2E2E2E2E2E2E2E2E2E2E2E2E2E2E2E2E2E2E2E2E2E2E2E2E2E2E2E2E2E2E2E2DCE2E2E2BEE2E2E2E2E2E2E2E2E2E2E2E2E2E2E2E2E2E2
310
E2E2E2E2E2E2E2E2E2E2E2E2E2E2E2E2E2E2E2E2E2E2E2E2E2E2E2E2E2E2E2E2E2E2E2E2E2E2E2E2E2E2E2E2E2E2E2E2E2E2E2E2BEE2E2E2DCE2E2E2E2E2E2E2E2E2E2E2E2E2E2E2F5F5F5F5F5F5F5E2E2E2E2E2E2E2E2E2E2E2E2E2E2E2E2E2E2E2E2E2E2E2E2E2E2E2E2E2E2E2E2E2E2E2E2E2E2E2E2E2E2E2E2E2E2E2E2
310
E2E2E2E2E2E2E2E2E2E2E2E2E2E2E2E2E2E2E2E2E2E2E2E2E2E2E2E2E2E2E2E2E2E2E2E2E2E2E2E2E2E2E2E2E2E2E2E2E2E2E2E2E2E2E2E2E2E2E2E2E2E2E2E2E2E2E2E2E2E2E2E2E2E2E2E2E2E2E2E2E2E2E2E2E2E2E2E2E2E2E2E2E2E2E2E2E2E2E2E2E2E2E2E2E2E2DCE2E2E2BEE2E2E2E2E2E2E2E2E2E2E2E2E2E2E2E2
310
E2E2E2E2E2E2E2E2E2E2E2E2E2E2E2E2E2E2E2E2E2E2E2E2E2E2E2E2E2E2E2E2E2E2E2E2E2E2E2E2E2E2E2E2E2E2E2E2E2E2E2E2E2E2BEE2E2E2DCE2E2E2E2E2E2E2E2E2E2E2E2E2E2E2E2F5F5F5F5F5E2E2E2E2E2E2E2E2E2E2E2E2E2E2E2E2E2E2E2E2E2E2E2E2E2E2E2E2E2E2E2E2E2E2E2E2E2E2E2E2E2E2E2E2E2E2E2
310
E2E2E2E2E2E2E2E2E2E2E2E2E2E2E2E2E2E2E2E2E2E2E2E2E2E2E2E2E2E2E2E2E2E2E2E2E2E2E2E2E2E2E2E2E2E2E2E2E2E2E2E2E2E2E2E2E2E2E2E2E2E2E2E2E2E2E2E2E2E2E2E2E2E2E2E2E2E2E2E2E2E2E2E2E2E2E2E2E2E2E2E2E2E2E2E2E2E2E2E2E2E2E2E2E2E2E2E2DCE2E2E2BEE2E2E2E2E2E2E2E2E2E2E2E2E2E2
310
E2E2E2E2E2E2E2E2E2E2E2E2E2E2E2E2E2E2E2E2E2E2E2E2E2E2E2E2E2E2E2E2E2E2E2E2E2E2E2E2E2E2E2E2E2E2E2E2E2E2E2E2E2E2E2E2BEE2E2E2DCE2E2E2E2E2E2E2E2E2E2E2E2E2E2E2E2E2E2E2E2E2E2E2E2E2E2E2E2E2E2E2E2E2E2E2E2E2E2E2E2E2E2E2E2E2E2E2E2E2E2E2E2E2E2E2E2E2E2E2E2E2E2E2E2E2E2
310
E2E2E2E2E2E2E2E2E2E2E2E2E2E2E2E2E2E2E2E2E2E2E2E2E2E2E2E2E2E2E2E2E2E2E2E2E2E2E2E2E2E2E2E2E2E2E2E2E2E2E2E2E2E2E2E2E2E2E2E2E2E2E2E2E2E2E2E2E2E2E2E2E2E2E2E2E2E2E2E2E2E2E2E2E2E2E2E2E2E2E2E2E2E2E2E2E2E2E2E2E2E2E2E2E2E2E2E2E2E2DCE2E2E2BEE2E2E2E2E2E2E2E2E2E2E2E2
310
E2E2E2E2E2E2E2E2E2E2E2E2E2E2E2E2E2E2E2E2E2E2E2E2E2E2E2E2E2E2E2E2E2E2E2E2E2E2E2E2E2E2E2E2E2E2E2E2E2E2E2E2E2E2E2E2E2E2BEE2E2E2DCE2E2E2E2E2E2E2E2E2E2E2E2E2E2E2E2E2E2E2E2E2E2E2E2E2E2E2E2E2E2E2E2E2E2E2E2E2E2E2E2E2E2E2E2E2E2E2E2E2E2E2E2E2E2E2E2E2E2E2E2E2E2E2E2
310
E2E2E2E2E2E2E2E2E2E2E2E2E2E2E2E2E2E2E2E2E2E2E2E2E2E2E2E2E2E2E2E2E2E2E2E2E2E2E2E2F5F5F5F5F5F5F5F5F5E2E2E2E2E2E2E2E2E2E2E2E2E2E2E2E2E2E2E2E2E2E2E2E2E2E2E2E2E2E2E2E2E2E2E2E2E2E2E2E2E2E2E2E2E2E2E2E2E2E2E2E2E2E2E2E2E2E2E2E2E2E2E2DCE2E2E2BEE2E2E2E2E2E2E2E2E2E2
310
E2E2E2E2E2E2E2E2E2E2E2E2E2E2E2E2E2E2E2E2E2E2E2E2E2E2E2E2E2E2E2E2E2E2E2E2E2E2E2E2E2E2E2E2E2E2E2E2E2E2E2E2E2E2E2E2E2E2E2E2BEE2E2E2DCE2E2E2E2E2E2E2E2E2E2E2E2E2E2E2E2E2E2E2E2E2E2E2E2E2E2E2E2E2E2E2E2E2E2E2E2E2E2E2E2E2E2E2E2E2E2E2E2E2E2E2E2E2E2E2E2E2E2E2E2E2E2
310
E2E2E2E2E2E2E2E2E2E2E2E2E2E2E2E2E2E2E2E2E2E2E2E2E2E2E2E2E2E2E2E2E2E2E2E2E2E2E2F5F5F5E2E2F5F5E2F5F5E2E2F5F5F5E2E2E2E2E2E2E2E2E2E2E2E2E2E2E2E2E2E2E2E2E2E2E2E2E2E2E2E2E2E2E2E2E2E2E2E2E2E2E2E2E2E2E2E2E2E2E2E2E2E2E2E2E2E2E2E2E2E2E2E2DCE2E2E2BEE2E2E2E2E2E2E2E2
310
E2E2E2E2E2E2E2E2E2E2E2E2E2E2E2E2E2E2E2E2E2E2E2E2E2E2E2E2E2E2E2E2E2E2E2E2E2E2E2E2E2E2E2E2E2E2E2E2E2E2E2E2E2E2E2E2E2E2E2E2E2E2BEE2E2E2DCE2E2E2E2E2E2E2E2E2E2E2E2E2E2E2E2E2E2E2E2E2E2E2E2E2E2E2E2E2E2E2E2E2E2E2E2E2E2E2E2E2E2E2E2E2E2E2E2E2E2E2E2E2E2E2E2E2E2E2E2
310
E2E2E2E2E2E2E2E2E2E2E2E2E2E2E2E2E2E2E2E2E2E2E2E2E2E2E2E2E2E2E2E2E2E2E2E2E2E2E2E2F5E2F5F5F5F5E2F5E2F5E2F5F5F5E2F5F5E2E2E2E2E2E2E2E2E2E2E2E2E2E2E2E2E2E2E2E2E2E2E2E2E2E2E2E2E2E2E2E2E2E2E2E2E2E2E2E2E2E2E2E2E2E2E2E2E2E2E2E2E2E2E2E2E2E2E2DCE2E2E2BEE2E2E2E2E2E2
310
E2E2E2E2E2E2E2E2E2E2E2E2E2E2E2E2E2E2E2E2E2E2E2E2E2E2E2E2E2E2E2E2E2E2E2E2E2E2E2E2E2E2E2E2E2E2E2E2E2E2E2E2E2E2E2E2E2E2E2E2E2E2E2E2BEE2E2E2DCE2E2E2E2E2E2E2E2E2E2E2E2E2E2E2E2E2E2E2E2E2E2E2E2E2E2E2E2E2E2E2E2E2E2E2E2E2E2E2E2E2E2E2E2E2E2E2E2E2E2E2E2E2E2E2E2E2E2
310
E2E2E2E2E2E2E2E2E2E2E2E2E2E2E2E2E2E2E2E2E2E2E2E2E2E2E2E2E2E2E2E2E2E2E2E2E2E2E2E2E2F5E2F5F5E2E2E2E2F5F5F5E2E2E2E2F5F5E2F5E2E2E2E2E2E2E2E2E2E2E2E2E2E2E2E2E2E2E2E2E2E2E2E2E2E2E2E2E2E2E2E2E2E2E2E2E2E2E2E2E2E2E2E2E2E2E2E2E2E2E2E2E2E2E2E2E2E2DCE2E2E2BEE2E2E2E2
310
E2E2E2E2E2E2E2E2E2E2E2E2E2E2E2E2E2E2E2E2E2E2E2E2E2E2E2E2E2E2E2E2E2E2E2E2E2E2E2E2E2E2E2E2E2E2E2E2E2E2E2E2E2E2E2E2E2E2E2E2E2E2E2E2E2E2BEE2E2E2DCE2E2E2E2E2E2E2E2E2E2E2E2E2E2E2E2E2E2E2E2E2E2E2E2E2E2E2E2E2E2E2E2E2E2E2E2E2E2E2E2E2E2E2E2E2E2E2E2E2E2E2E2E2E2E2E2
310
E2E2E2E2E2E2E2E2E2E2E2E2E2E2E2E2E2E2E2E2E2E2E2E2E2E2E2E2E2E2E2E2E2E2E2E2E2E2E2E2E2E2F5E2F5E2E2E2E2E2E2E2E2E2E2E2E2E2E2E2F5E2F5E2E2E2E2E2E2E2E2E2E2E2E2E2E2E2E2E2E2E2E2E2E2E2E2E2E2E2E2E2E2E2E2E2E2E2E2E2E2E2E2E2E2E2E2E2E2E2E2E2E2E2E2E2E2E2E2E2DCE2E2E2BEE2E2
310
E2E2E2E2E2E2E2E2E2E2E2E2E2E2E2E2E2E2E2E2E2E2E2E2E2E2E2E2E2E2E2E2E2E2E2E2E2E2E2E2E2E2E2E2E2E2E2E2E2E2E2E2E2E2E2E2E2E2E2E2E2E2E2E2E2E2E2E2BEE2E2E2DCE2E2E2E2E2E2E2E2E2E2E2E2E2E2E2E2E2E2E2E2E2E2E2E2E2E2E2E2E2E2E2E2E2E2E2E2E2E2E2E2E2E2E2E2E2E2E2E2E2E2E2E2E2E2
310
E2E2E2E2E2E2E2E2E2E2E2E2E2E2E2E2E2E2E2E2E2E2E2E2E2E2E2E2E2E2E2E2E2E2E2E2E2E2E2E2E2E2E2F5E2F5E2E2E2E2E2E2E2E2E2E2E2E2E2E2E2E2E2F5E2F5E2E2E2E2E2E2E2E2E2E2E2E2E2E2E2E2E2E2E2E2E2E2E2E2E2E2E2E2E2E2E2E2E2E2E2E2E2E2E2E2E2E2E2E2E2E2E2E2E2E2E2E2E2E2E2E2DCE2E2E2BE
310
E2E2E2E2E2E2E2E2E2E2E2E2E2E2E2E2E2E2E2E2E2E2E2E2E2E2E2E2E2E2E2E2E2E2E2E2E2E2E2E2E2E2E2E2E2E2E2E2E2E2E2E2E2E2E2E2E2E2E2E2E2E2E2E2E2E2E2E2E2E2BEE2E2E2DCE2E2E2E2E2E2E2E2E2E2E2E2E2E2E2E2E2E2E2E2E2E2E2E2E2E2E2E2E2E2E2E2E2E2E2E2E2E2E2E2E2E2E2E2E2E2E2E2E2E2E2E2
310
E2E2E2E2E2E2E2E2E2E2E2E2E2E2E2E2E2E2E2E2E2E2E2E2E2E2E2E2E2E2E2E2F5F5F5E2E2E2E2E2E2E2E2E2F5E2F5E2E2E2E2E2E2E2E2E2E2E2E2E2E2E2E2E2E2F5F5F5E2E2E2E2E2E2E2E2E2E2E2E2E2E2E2E2E2E2E2E2E2E2E2E2E2E2E2E2E2E2E2E2E2E2E2E2E2E2E2E2E2E2E2E2E2E2E2E2E2E2E2E2E2E2E2E2DCE2E2
310
E2BEE2E2E2E2E2E2E2E2E2E2E2E2E2E2E2E2E2E2E2E2E2E2E2E2E2E2E2E2E2E2E2E2E2E2E2E2E2E2E2E2E2E2E2E2E2E2E2E2E2E2E2E2E2E2E2E2E2E2E2E2E2E2E2E2E2E2E2E2E2E2BEE2E2E2DCE2E2E2E2E2E2E2E2E2E2E2E2E2E2E2E2E2E2E2E2E2E2E2E2E2E2E2E2E2E2E2E2E2E2E2E2E2E2E2E2E2E2E2E2E2E2E2E2E2E2
310
E2E2E2E2E2E2E2E2E2E2E2E2E2E2E2E2E2E2E2E2E2E2E2E2E2E2E2E2E2E2E2E2E2E2F5F5F5E2E2E2E2E2E2E2E2F5F5F5E2E2E2E2E2E2E2E2E2E2E2E2E2E2E2E2E2E2E2E2F5F5F5E2E2E2E2E2E2E2E2E2E2E2E2E2E2E2E2E2E2E2E2E2E2E2E2E2E2E2E2E2E2E2E2E2E2E2E2E2E2E2E2E2E2E2E2E2E2E2E2E2E2E2E2E2E2E2DC
310
E2E2E2BEE2E2E2E2E2E2E2E2E2E2E2E2E2E2E2E2E2E2E2E2E2E2E2E2E2E2E2E2E2E2E2E2E2E2E2E2E2E2E2E2E2E2E2E2E2E2E2E2E2E2E2E2E2E2E2E2E2E2E2E2E2E2E2E2E2E2E2E2E2E2BEE2E2E2DCE2E2E2E2E2E2E2E2E2E2E2E2E2E2E2E2E2E2E2E2E2E2E2E2E2E2E2E2E2E2E2E2E2E2E2E2E2E2E2E2E2E2E2E2E2E2E2E2
310
E2E2E2E2E2E2E2E2E2E2E2E2E2E2E2E2E2E2E2E2E2E2E2E2E2E2E2E2E2E2E2E2E2E2E2E2F5F5F5E2E2E2E2E2E2E2E2F5E2F5E2E2E2E2E2E2E2E2E2E2E2E2E2E2E2E2E2E2E2E2E2F5E2F5E2E2E2E2E2E2E2E2E2E2E2E2E2E2E2E2E2E2E2E2E2E2E2E2E2E2E2E2E2E2E2E2E2E2E2E2E2E2E2E2E2E2E2E2E2E2E2E2E2E2E2E2E2
310
E2DCE2E2E2BEE2E2E2E2E2E2E2E2E2E2E2E2E2E2E2E2E2E2E2E2E2E2E2E2E2E2E2E2E2E2E2E2E2E2E2E2E2E2E2E2E2E2E2E2E2E2E2E2E2E2E2E2E2E2E2E2E2E2E2E2E2E2E2E2E2E2E2E2E2E2BEE2E2E2DCE2E2E2E2E2E2E2E2E2E2E2E2E2E2E2E2E2E2E2E2E2E2E2E2E2E2E2E2E2E2E2E2E2E2E2E2E2E2E2E2E2E2E2E2E2E2
310
E2E2E2E2E2E2E2E2E2E2E2E2E2E2E2E2E2E2E2E2E2E2E2E2E2E2E2E2E2E2E2E2E2E2E2E2E2E2F5F5F5E2E2E2E2E2E2E2E2F5E2F5E2E2E2E2E2E2E2E2E2E2E2E2E2E2E2E2E2E2E2E2E2F5E2F5E2E2E2E2E2E2E2E2E2E2E2E2E2E2E2E2E2E2E2E2E2E2E2E2E2E2E2E2E2E2E2E2E2E2E2E2E2E2E2E2E2E2E2E2E2E2E2E2E2E2E2
310
E2E2E2DCE2E2E2BEE2E2E2E2E2E2E2E2E2E2E2E2E2E2E2E2E2E2E2E2E2E2E2E2E2E2E2E2E2E2E2E2E2E2E2E2E2E2E2E2E2E2E2E2E2E2E2E2E2E2E2E2E2E2E2E2E2E2E2E2E2E2E2E2E2E2E2E2E2E2BEE2E2E2DCE2E2E2E2E2E2E2E2E2E2E2E2E2E2E2E2E2E2E2E2E2E2E2E2E2E2E2E2E2E2E2E2E2E2E2E2E2E2E2E2E2E2E2E2
310
E2E2E2E2E2E2E2E2E2E2E2E2E2E2E2E2E2E2E2E2E2E2E2E2E2E2E2E2E2E2E2E2E2E2E2E2E2E2E2E2F5F5F5E2E2E2E2E2E2E2F5F5F5E2E2E2E2E2E2E2E2E2E2E2E2E2E2E2E2E2E2E2E2E2E2E2F5F5E2E2E2E2E2E2E2E2E2E2E2E2E2E2E2E2E2E2E2E2E2E2E2E2E2E2E2E2E2E2E2E2E2E2E2E2E2E2E2E2E2E2E2E2E2E2E2E2E2
310
E2E2E2E2E2DCE2E2E2BEE2E2E2E2E2E2E2E2E2E2E2E2E2E2E2E2E2E2E2E2E2E2E2E2E2E2E2E2E2E2E2E2E2E2E2E2E2E2E2E2E2E2E2E2E2E2E2E2E2E2E2E2E2E2E2E2E2E2E2E2E2E2E2E2E2E2E2E2E2E2BEE2E2E2DCE2E2E2E2E2E2E2E2E2E2E2E2E2E2E2E2E2E2E2E2E2E2E2E2E2E2E2E2E2E2E2E2E2E2E2E2E2E2E2E2E2E2
310
E2E2E2E2E2E2E2E2E2E2E2E2E2E2E2E2E2E2E2E2E2E2E2E2E2E2E2E2E2E2E2E2E2E2E2E2E2E2E2E2E2E2F5F5F5F5F5F5F5F5F5F5F5E2F5E2E2E2E2E2E2E2E2E2E2E2E2E2E2E2E2E2E2E2E2E2E2E2F5F5F5E2E2E2E2E2E2E2E2E2E2E2E2E2E2E2E2E2E2E2E2E2E2E2E2E2E2E2E2E2E2E2E2E2E2E2E2E2E2E2E2E2E2E2E2E2E2
310
E2E2E2E2E2E2E2DCE2E2E2BEE2E2E2E2E2E2E2E2E2E2E2E2E2E2E2E2E2E2E2E2E2E2E2E2E2E2E2E2E2E2E2E2E2E2E2E2E2E2E2E2E2E2E2E2E2E2E2E2E2E2E2E2E2E2E2E2E2E2E2E2E2E2E2E2E2E2E2E2E2E2BEE2E2E2DCE2E2E2E2E2E2E2E2E2E2E2E2E2E2E2E2E2E2E2E2E2E2E2E2E2E2E2E2E2E2E2E2E2E2E2E2E2E2E2E2
310
E2E2E2E2E2E2E2E2E2E2E2E2E2E2E2E2E2E2E2E2E2E2E2E2E2E2E2E2E2E2E2E2E2E2E2E2E2E2E2E2E2E2E2E2F5F5F5E2E2E2E2E2E2E2F5E2F5E2E2E2E2E2E2E2E2E2E2E2E2E2E2E2E2E2E2E2E2E2E2E2F5E2F5E2E2E2E2E2E2E2E2E2E2E2E2E2E2E2E2E2E2E2E2E2E2E2E2E2E2E2E2E2E2E2E2E2E2E2E2E2E2E2E2E2E2E2E2
310
E2E2E2E2E2E2E2E2E2DCE2E2E2BEE2E2E2E2E2E2E2E2E2E2E2E2E2E2E2E2E2E2E2E2E2E2E2E2E2E2E2E2E2E2E2E2E2E2E2E2E2E2E2E2E2E2E2E2E2E2E2E2E2E2E2E2E2E2E2E2E2E2E2E2E2E2E2E2E2E2E2E2E2E2BEE2E2E2DCE2E2E2E2E2E2E2E2E2E2E2E2E2E2E2E2E2E2E2E2E2E2E2E2E2E2E2E2E2E2E2E2E2E2E2E2E2E2
310
E2E2E2E2E2E2E2F5F5F5BEF5F5F5E2E2E2E2E2E2E2E2E2E2E2E2E2E2E2E2E2E2E2E2E2E2E2E2E2E2E2E2E2E2E2E2F5F5F5E2E2E2E2E2E2E2F5E2F5E2E2E2E2E2E2E2E2E2E2E2E2E2E2E2E2E2E2E2E2E2E2E2F5E2F5E2E2E2E2E2E2E2E2E2E2E2E2E2E2E2E2E2E2E2E2E2E2E2E2E2E2E2E2E2E2E2E2E2E2E2E2E2E2E2E2E2E2
310
E2E2E2E2E2E2E2E2E2E2E2DCE2E2E2BEE2E2E2E2E2E2E2E2E2E2E2E2E2E2E2E2E2E2E2E2E2E2E2E2E2E2E2E2E2E2E2E2E2E2E2E2E2E2E2E2E2E2E2E2E2E2E2E2E2E2E2E2E2E2E2E2E2E2E2E2E2E2E2E2E2E2E2E2E2E2BEE2E2E2DCE2E2E2E2E2E2E2E2E2E2E2E2E2E2E2E2E2E2E2E2E2E2E2E2E2E2E2E2E2E2E2E2E2E2E2E2
310
E2E2E2E2E2E2E2E2F5F5E2E2BEE2E2F5F5E2E2E2E2E2E2E2E2E2E2E2E2E2E2E2E2E2E2E2E2E2E2E2E2E2E2E2E2E2E2E2F5F5F5E2E2E2E2E2E2E22DE2F5E2E2E2E2E2E2E2E2E2E2E2E2E2E2E2E2E2E2E2E2E2E2E2F5E2F5E2E2E2E2E2E2E2E2E2E2E2E2E2E2E2E2E2E2E2E2E2E2E2E2E2E2E2E2E2E2E2E2E2E2E2E2E2E2E2E2
310
E2E2E2E2E2E2E2E2E2E2E2E2E2DCE2E2E2BEE2E2E2E2E2E2E2E2E2E2E2E2E2E2E2E2E2E2E2E2E2E2E2E2E2E2E2E2E2E2E2E2E2E2E2E2E2E2E2E2E2E2E2E2E2E2E2E2E2E2E2E2E2E2E2E2E2E2E2E2E2E2E2E2E2E2E2E2E2E2BEE2E2E2DCE2E2E2E2E2E2E2E2E2E2E2E2E2E2E2E2E2E2E2E2E2E2E2E2E2E2E2E2E2E2E2E2E2E2
310
E2E2E2E2E2E2E2E2E2F5F5E2E2E2BEE2E2E2F5F5E2E2E2E2E2E2E2E2E2E2E2E2E2E2E2E2E2E2E2E2E2E2E2E2E2E2E2E2E2E2F5F5F5E2E2E2E2E2E2E22DE2F5E2E2E2E2E2E2E2E2E2E2E2E2E2E2E2E2E2E2E2E2E2E2E2F5E22DE2E2E2E2E2E2E2E2E2E2E2E2E2E2E2E2E2E2E2E2E2E2E2E2E2E2E2E2E2E2E2E2E2E2E2E2E2E2
310
E2E2E2E2E2E2E2E2E2E2E2E2E2E2E2DCE2E2E2BEE2E2E2E2E2E2E2E2E2E2E2E2E2E2E2E2E2E2E2E2E2E2E2E2E2E2E2E2E2E2E2E2E2E2E2E2E2E2E2E2E2E2E2E2E2E2E2E2E2E2E2E2E2E2E2E2E2E2E2E2E2E2E2E2E2E2E2E2E2E2BEE2E2E2DCE2E2E2E2E2E2E2E2E2E2E2E2E2E2E2E2E2E2E2E2E2E2E2E2E2E2E2E2E2E2E2E2
310
E2E2E2E2E2E2E2E2E2E2F5F5E2E2E2E2BEE2E2E2E2F5F5E2E2E2E2E2E2E2E2E2E2E2E2E2E2E2E2E2E2E2E2E2E2E2E2E2E2E2E2E2F5F5F5F5F5F5F5F5F5F52DE2F5E2E2E2E2E2E2E2E2E2E2E2E2E2E2E2E2E2E2E2E2E2E2E2F5F52DE2E2E2E2E2E2E2E2E2E2E2E2E2E2E2E2E2E2E2E2E2E2E2E2E2E2E2E2E2E2E2E2E2E2E2E2
310
E2E2E2E2E2E2E2E2E2E2E2E2E2E2E2E2E2DCE2E2E2BEE2E2E2E2E2E2E2E2E2E2E2E2E2E2E2E2E2E2E2E2E2E2E2E2E2E2E2E2E2E2E2E2E2E2E2E2E2E2E2E2E2E2E2E2E2E2E2E2E2E2E2E2E2E2E2E2E2E2E2E2E2E2E2E2E2E2E2E2E2E2BEE2E2E2DCE2E2E2E2E2E2E2E2E2E2E2E2E2E2E2E2E2E2E2E2E2E2E2E2E2E2E2E2E2E2
310
E2E2E2E2E2E2E2E2E2E2E2E2F5E2E2E2E2E2BEE2E2E2E2E2F5E2E2E2E2E22DE2E2E2E2E2E2E2E2E2E2E2E2E2E2E2E2E2E2E2E2E2E2E2F5F5F5E2E2E2E2E2E2E22DF5F5E2E2E2E2E2E2E2E2E2E2E2E2E2E2E2E2E2E2E2E2E2E2E2F5F52DE2E2E2E2E2E2E2E2E2E2E2E2E2E2E2E2E2E2E2E2E2E2E2E2E2E2E2E2E2E2E2E2E2E2
310
E2E2E2E2E2E2E2E2E2E2E2E2E2E2E2E2E2E2E2DCE2E2E2BEE2E2E2E2E2E2E2E2E2E2E2E2E2E2E2E2E2E2E2E2E2E2E2E2E2E2E2E2E2E2E2E2E2E2E2E2E2E2E2E2E2E2E2E2E2E2E2E2E2E2E2E2E2E2E2E2E2E2E2E2E2E2E2E2E2E2E2E2E2E2BEE2E2E2DCE2E2E2E2E2E2E2E2E2E2E2E2E2E2E2E2E2E2E2E2E2E2E2E2E2E2E2E2
310
E2E2E2E2E2E2E2E2E2E2E2E2E2E2F5F5BEF5E2E2BEE2E2F5BEF5F5E2E2E2E2E22D2DE2E2E2E2E2E2E2E2E2E2E2E2E2E2E2E2E2E2E2E2E2E2F5F5F5E2E2E2E2E2E2E22DF5E2F5E2E2E2E2E2E2E2E2E2E2E2E2E2E2E2E2E2E2E2E2E2F5E2F52DE2E2E2E2E2E2E2E2E2E2E2E2E2E2E2E2E2E2E2E2E2E2E2E2E2E2E2E2E2E2E2E2
310
E2E2E2E2E2E2E2E2E2E2E2E2E2E2E2E2E2E2E2E2E2DCE2E2E2BEE2E2E2E2E2E2E2E2E2E2E2E2E2E2E2E2E2E2E2E2E2E2E2E2E2E2E2E2E2E2E2E2E2E2E2E2E2E2E2E2E2E2E2E2E2E2E2E2E2E2E2E2E2E2E2E2E2E2E2E2E2E2E2E2E2E2E2E2E2E2BEE2E2E2DCE2E2E2E2E2E2E2E2E2E2E2E2E2E2E2E2E2E2E2E2E2E2E2E2E2E2
310
E2E2E2E2E2E2E2E2E2E2E2E2E2E2E2BEBEBEBEBEBEBEBEBEBEBEF52D2D2D2D2D2DBEF52DE2E2E2E2E2E2E2E2E2E2E2E2E2E2E2E2E2E2E2E2E2E2F5F5F5E2E2E2E2E2E2E22DF5F5F5E2E2E2E2E2E2E2E2E2E2E2E2E2E2E2E2E2E2E2E2E2F5F5E22DE2E2E2E2E2E2E2E2E2E2E2E2E2E2E2E2E2E2E2E2E2E2E2E2E2E2E2E2E2E2
310
E2E2E2E2E2E2E2E2E2E2E2E2E2E2E2E2E2E2E2E2E2E2E2DCE2E2E2BEE2E2E2E2E2E2E2E2E2E2E2E2E2E2E2E2E2E2E2E2E2E2E2E2E2E2E2E2E2E2E2E2E2E2E2E2E2E2E2E2E2E2E2E2E2E2E2E2E2E2E2E2E2E2E2E2E2E2E2E2E2E2E2E2E2E2E2E2E2E2BEE2E2E2DCE2E2E2E2E2E2E2E2E2E2E2E2E2E2E2E2E2E2E2E2E2E2E2E2
310
E2E2E2E2E2E2E2E2E2E2E2E2E2E2E2E2E2F5F5F5BEF5E2F5BEF5E2F5F52D2D2D2D2D2DBEBE2DE2E2E2E2E2E2E2E2E2E2E2E2E2E2E2E2E2E2E2E2E2E2F5F5F5E2E2E2E2E2E2E22DE2F5F5F5E2E2E2E2E2E2E2E2E2E2E2E2E2E2E2E2E2E2E2F5F5F5E22DE2E2E2E2E2E2E2E2E2E2E2E2E2E2E2E2E2E2E2E2E2E2E2E2E2E2E2E2
310
E2E2E2E2E2E2E2E2E2E2E2E2E2E2E2E2E2E2E2E2E2E2E2E2E2DCE2E2E2BEE2E2E2E2E2E2E2E2E2E2E2E2E2E2E2E2E2E2E2E2E2E2E2E2E2E2E2E2E2E2E2E2E2E2E2E2E2E2E2E2E2E2E2E2E2E2E2E2E2E2E2E2E2E2E2E2E2E2E2E2E2E2E2E2E2E2E2E2E2E2BEE2E2E2DCE2E2E2E2E2E2E2E2E2E2E2E2E2E2E2E2E2E2E2E2E2E2
310
E2E2E2E2E2E2E2E2E2E2E2E2E2E2E2E2E2E2E2E2F5F5F5F5E2E2BEE2E2F5F5F5F5E2E2E2E2E22D2DE2E2E2E2E2E2E2E2E2E2E2E2E2E2E2E2E2E2E2E2E2E22DE2E2E2E2E2E2E2E2E22DE2F5E2F5E2E2E2E2E2E2E2E2E2E2E2E2E2E2E2E2E2E2F5E2F5E2E22DE2E2E2E2E2E2E2E2E2E2E2E2E2E2E2E2E2E2E2E2E2E2E2E2E2E2
310
E2E2E2E2E2E2E2E2E2E2E2E2E2E2E2E2E2E2E2E2E2E2E2E2E2E2E2DCE2E2E2BEE2E2E2E2E2E2E2E2E2E2E2E2E2E2E2E2E2E2E2E2E2E2E2E2E2E2E2E2E2E2E2E2E2E2E2E2E2E2E2E2E2E2E2E2E2E2E2E2E2E2E2E2E2E2E2E2E2E2E2E2E2E2E2E2E2E2E2E2E2E2BEE2E2E2DCE2E2E2E2E2E2E2E2E2E2E2E2E2E2E2E2E2E2E2E2
310
E2E2E2E2E2E2E2E2E2E2E2E2E2E2E2E2E2E2E2E2E2E2F5E22DE2E2E2BEE2E2E22DE2F5E2E2E2E2E22DE2E2E2E2E2E2E2E2E2E2E2E2E2E2E2E2E2E2E2E2E2E2E22DE2E2E2E2E2E2E2E2E22DE2E2F5F5F5F5E2E2E2E2E2E2E2E2E2E2E2E2E2E2E2F5F5F5F5E2E22DE2E2E2E2E2E2E2E2E2E2E2E2E2E2E2E2E2E2E2E2E2E2E2E2
310
E2E2E2E2E2E2E2E2E2E2E2E2E2E2E2E2E2E2E2E2E2E2E2E2E2E2E2E2E2DCE2E2E2BEE2E2E2E2E2E2E2E2E2E2E2E2E2E2E2E2E2E2E2E2E2E2E2E2E2E2E2E2E2E2E2E2E2E2E2E2E2E2E2E2E2E2E2E2E2E2E2E2E2E2E2E2E2E2E2E2E2E2E2E2E2E2E2E2E2E2E2E2E2E2BEE2E2E2DCE2E2E2E2E2E2E2E2E2E2E2E2E2E2E2E2E2E2
310
E2E2E2E2E2E2E2E2E2E2E2E2E2E2E2E2E2E2E2E2E2E2E2E2F5F52DE2E2E2BEE2E2E22DF5F5E2E2E2E2E2E2E2E2E2E2E2E2E2E2E2E2E2E2E2E2E2E2E2E2E2E2E2E2E22DE2E2E2E2E2E2E2E2E22DE2E2E2F5E2F5F5E2E2E2E2E2E2E2E2E2E2E2E2E2F5F5E2F5E2E2E22DE2E2E2E2E2E2E2E2E2E2E2E2E2E2E2E2E2E2E2E2E2E2
310
E2E2E2E2E2E2E2E2E2E2E2E2E2E2E2E2E2E2E2E2E2E2E2E2E2E2E2E2E2E2E2DCE2E2E2BEE2E2E2E2E2E2E2E2E2E2E2E2E2E2E2E2E2E2E2E2E2E2E2E2E2E2E2E2E2E2E2E2E2E2E2E2E2E2E2E2E2E2E2E2E2E2E2E2E2E2E2E2E2E2E2E2E2E2E2E2E2E2E2E2E2E2E2E2E2E2BEE2E2E2DCE2E2E2E2E2E2E2E2E2E2E2E2E2E2E2E2
310
E2E2E2E2E2E2E2E2E2E2E2E2E2E2E2E2E2E2E2E2E2E2E2E2E2E2E2F52DE2E2E2BEE2E2E22DF5E2E2E2E2E2E2E2E2E2E2E2E2E2E2E2E2E2E2E2E2E2E2E2E2E2E2E2E2E2E22DE2E2E2E2E2E2E2E2E22DE2E2E2E2F5F5E2F5E2E2E2E2F5F5F5E2E2E2F5F5E2F5F5E2E2E2E22DE2E2E2E2E2E2E2E2E2E2E2E2E2E2E2E2E2E2E2E2
310
E2E2E2E2E2E2E2E2E2E2E2E2E2E2E2E2E2E2E2E2E2E2E2E2E2E2E2E2E2E2E2E2E2DCE2E2E2BEE2E2E2E2E2E2E2E2E2E2E2E2E2E2E2E2E2E2E2E2E2E2E2E2E2E2E2E2E2E2E2E2E2E2E2E2E2E2E2E2E2E2E2E2E2E2E2E2E2E2E2E2E2E2E2E2E2E2E2E2E2E2E2E2E2E2E2E2E2E2BEE2E2E2DCE2E2E2E2E2E2E2E2E2E2E2E2E2E2
310
E2E2E2E2E2E2E2E2E2E2E2E2E2E2E2E2E2E2E2E2E2E2E2E2E2E2E2E2E2E22DF5F5E2BEE2F5F52DE2E2E2E2E2E2E2E2E2E2E2E2E2E2E2E2E2E2E2E2E2E2E2E2E2E2E2E2E2E2E22DE2E2E2E2E2E2E2E2E22DE2E2E2E2E2F5F5E2F5F5F5F5F5E2F5F5F5F5F5E2F5E2E2E2E2E2E22DE2E2E2E2E2E2E2E2E2E2E2E2E2E2E2E2E2E2
310
E2E2E2E2E2E2E2E2E2E2E2E2E2E2E2E2E2E2E2E2E2E2E2E2E2E2E2E2E2E2E2E2E2E2E2DCE2E2E2BEE2E2E2E2E2E2E2E2E2E2E2E2E2E2E2E2E2E2E2E2E2E2E2E2E2E2E2E2E2E2E2E2E2E2E2E2E2E2E2E2E2E2E2E2E2E2E2E2E2E2E2E2E2E2E2E2E2E2E2E2E2E2E2E2E2E2E2E2E2E2BEE2E2E2DCE2E2E2E2E2E2E2E2E2E2E2E2
310
E2E2E2E2E2E2E2E2E2E2E2E2E2E2E2E2E2E2E2E2E2E2E2E2E2E2E2E2E2E2E2E22DE2F5F5BEF5F5E22DE2E2E2E2E2E2E2E2E2E2E2E2E2E2E2E2E2E2E2E2E2E2E2E2E2E2E2E2E2E2E22DE2E2E2E2E2E2E2E2E22DE2E2E2E2E2E2E2F5F5E2E2E2F5E2F5E2E2E2F5F5E2E2E2E2E2E2E22DE2E2E2E2E2E2E2E2E2E2E2E2E2E2E2E2
310
E2E2E2E2E2E2E2E2E2E2E2E2E2E2E2E2E2E2E2E2E2E2E2E2E2E2E2E2E2E2E2E2E2E2E2E2E2DCE2E2E2BEE2E2E2E2E2E2E2E2E2E2E2E2E2E2E2E2E2E2E2E2E2E2E2E2E2E2E2E2E2E2E2E2E2E2E2E2E2E2E2E2E2E2E2E2E2E2E2E2E2E2E2E2E2E2E2E2E2E2E2E2E2E2E2E2E2E2E2E2E2E2BEE2E2E2DCE2E2E2E2E2E2E2E2E2E2
310
E2E2E2E2E2E2E2E2E2E2E2E2E2E2E2E2E2E2E2E2E2E2E2E2E2E2E2E2E2E2E2E2E2E22DE2E2E2E2E2E2E22DE2E2E2E2E2E2E2E2E2E2E2E2E2E2E2E2E2E2E2E2E2E2E2E2E2E2E2E2E2E2E22DE2E2E2E2E2E2E2E2E22DE2E2E2E2E2E2E2E2E2F5F5F5F5F5F5F5F5F5E2E2E2E2E2E2E2E2E22DE2E2E2E2E2E2E2E2E2E2E2E2E2E2
310
E2E2E2E2E2E2E2E2E2E2E2E2E2E2E2E2E2E2E2E2E2E2E2E2E2E2E2E2E2E2E2E2E2E2E2E2E2E2E2DCE2E2E2BEE2E2E2E2E2E2E2E2E2E2E2E2E2E2E2E2E2E2E2E2E2E2E2E2E2E2E2E2E2E2E2E2E2E2E2E2E2E2E2E2E2E2E2E2E2E2E2E2E2E2E2E2E2E2E2E2E2E2E2E2E2E2E2E2E2E2E2E2E2E2BEE2E2E2DCE2E2E2E2E2E2E2E2
310
E2E2E2E2E2E2E2E2E2E2E2E2E2E2E2E2E2E2E2E2E2E2E2E2E2E2E2E2E2E2E2E2E2E2E2E22DE2E2E2E2E2E2E22DE2E2E2E2E2E2E2E2E2E2E2E2E2E2E2E2E2E2E2E2E2E2E2E2E2E2E2E2E2E2E22DE2E2E2E2E2E2E2E2E22DE2E2E2E2E2E2E2E2E2E2E2E2E2E2E2E2E2E2E2E2E2E2E2E2E2E2E22DE2E2E2E2E2E2E2E2E2E2E2E2
310
E2E2E2E2E2E2E2E2E2E2E2E2E2E2E2E2E2E2E2E2E2E2E2E2E2E2E2E2E2E2E2E2E2E2E2E2E2E2E2E2E2DCE2E2E2BEE2E2E2E2E2E2E2E2E2E2E2E2E2E2E2E2E2E2E2E2E2E2E2E2E2E2E2E2E2E2E2E2E2E2E2E2E2E2E2E2E2E2E2E2E2E2E2E2E2E2E2E2E2E2E2E2E2E2E2E2E2E2E2E2E2E2E2E2E2E2BEE2E2E2DCE2E2E2E2E2E2
310
E2E2E2E2E2E2E2E2E2E2E2E2E2E2E2E2E2E2E2E2E2E2E2E2E2E2E2E2E2E2E2E2E2E2E2E2E2E22DE2E2E2E2E2E2E22DE2E2E2E2E2E2E2E2E2E2E2E2E2E2E2E2E2E2E2E2E2E2E2E2E2E2E2E2E2E2E22DE2E2E2E2E2E2E2E2E22DE2E2E2E2E2E2E2E2E2E2E2E2E2E2E2E2E2E2E2E2E2E2E2E2E2E2E22DE2E2E2E2E2E2E2E2E2E2
310
E2E2E2E2E2E2E2E2E2E2E2E2E2E2E2E2E2E2E2E2E2E2E2E2E2E2E2E2E2E2E2E2E2E2E2E2E2E2E2E2E2E2E2DCE2E2E2BEE2E2E2E2E2E2E2E2E2E2E2E2E2E2E2E2E2E2E2E2E2E2E2E2E2E2E2E2E2E2E2E2E2E2E2E2E2E2E2E2E2E2E2E2E2E2E2E2E2E2E2E2E2E2E2E2E2E2E2E2E2E2E2E2E2E2E2E2E2E2BEE2E2E2DCE2E2E2E2
310
E2E2E2E2E2E2E2E2E2E2E2E2E2E2E2E2E2E2E2E2E2E2E2E2E2E2E2E2E2E2E2E2E2E2E2E2E2E2E2E22D2D2DBEBEBE2D2DF5E2E2E2E2E2E2E2E2E2E2E2E2E2E2E2E2E2E2E2E2E2E2E2E2E2E2E2E2E2E2E22DE2E2E2E2E2E2E2E2E22D2D2D2D2D2D2D2D2D2D2D2D2DBEBEBE2D2D2D2D2D2D2D2D2D2D2D2DF5E2E2E2E2E2E2E2E2
310
E2E2E2E2E2E2E2E2E2E2E2E2E2E2E2E2E2E2E2E2E2E2E2E2E2E2E2E2E2E2E2E2E2E2E2E2E2E2E2E2E2E2E2E2E2DCE2E2E2BEE2E2E2E2E2E2E2E2E2E2E2E2E2E2E2E2E2E2E2E2E2E2E2E2E2E2E2E2E2E2E2E2E2E2E2E2E2E2E2E2E2E2E2E2E2E2E2E2E2E2E2E2E2E2E2E2E2E2E2E2E2E2E2E2E2E2E2E2E2E2BEE2E2E2DCE2E2
310
E2E2E2E2E2E2E2E2E2E2E2E2E2E2E2E2E2E2E2E2E2E2E2E2E2E2E2E2E2E2E2E2E2E2E2E2E2E2E2E2E2E2E2E2E2BEBEBEE2E2E2E2E2E2E2E2E2E2E2E2E2E2E2E2E2E2E2E2E2E2E2E2E2E2E2E2E2E2E2E2E2E22DE2E2E2E2E2E2E2E2E2E2E2E2E2E2E2E2E2E2E2E2E2E2BEBEBEE2E2E2E2E2E2E2E2E2E2E2E22DE2E2E2E2E2E2
310
E2E2E2E2E2E2E2E2E2E2E2E2E2E2E2E2E2E2E2E2E2E2E2E2E2E2E2E2E2E2E2E2E2E2E2E2E2E2E2E2E2E2E2E2E2E2E2DCE2E2E2BEE2E2E2E2E2E2E2E2E2E2E2E2E2E2E2E2E2E2E2E2E2E2E2E2E2E2E2E2E2E2E2E2E2E2E2E2E2E2E2E2E2E2E2E2E2E2E2E2E2E2E2E2E2E2E2E2E2E2E2E2E2E2E2E2E2E2E2E2E2E2BEE2E2E2DC
310
E2E2E2E2E2E2E2E2E2E2E2E2E2E2E2E2E2E2E2E2E2E2E2E2E2E2E2E2E2E2E2E2E2E2E2E2E2E2E2E2E2E2E2BEBEBEBEBEE2BEBEBEBEBEE2E2E2E2E2E2E2E2E2E2E2E2E2E2E2E2E2E2E2E2E2E2E2E2E2E2E2E2E2E22D2D2D2D2D2D2D2D2D2D2D2D2D2D2D2D2D2DBEBEBE2D2D2D2D2D2D2D2D2D2D2D2D2D2D2D2D2DF5E2E2E2E2
310
E2E2E2E2E2E2E2E2E2E2E2E2E2E2E2E2E2E2E2E2E2E2E2E2E2E2E2E2E2E2E2E2E2E2E2E2E2E2E2E2E2E2E2E2E2E2E2E2E2DCE2E2E2BEE2E2E2E2E2E2E2E2E2E2E2E2E2E2E2E2E2E2E2E2E2E2E2E2E2E2E2E2E2E2E2E2E2E2E2E2E2E2E2E2E2E2E2E2E2E2E2E2E2E2E2E2E2E2E2E2E2E2E2E2E2E2E2E2E2E2E2E2E2E2BEE2E2
310
E2DCE2E2E2E2E2E2E2E2E2E2E2E2E2E2E2E2E2E2E2E2E2E2E2E2E2E2E2E2E2E2E2E2E2E2E2E2E2E2E2E2E2E2E2BEBEBEBEBEBEBEBEBEBEBEE2E2E2E2E2E2E2E2E2E2E2E2E2E2E2E2E2E2E2E2E2E2E2E2E2E2E2E2E2E2E2E2E2E2E2E2E2E2E2E2E2E2E2E2E2E2E2E2BEBEBEE2E2E2E2E2E2E2E2E2E2E2E2E2E2E2E2E2E2E2E2
310
E2E2E2E2E2E2E2E2E2E2E2E2E2E2E2E2E2E2E2E2E2E2E2E2E2E2E2E2E2E2E2E2E2E2E2E2E2E2E2E2E2E2E2E2E2E2E2E2E2E2E2DCE2E2E2BEE2E2E2E2E2E2E2E2E2E2E2E2E2E2E2E2E2E2E2E2E2E2E2E2E2E2E2E2E2E2E2E2E2E2E2E2E2E2E2E2E2E2E2E2E2E2E2E2E2E2E2E2E2E2E2E2E2E2E2E2E2E2E2E2E2E2E2E2E2E2BE
310
E2E2E2DCE2E2E2E2E2E2E2E2E2E2E2E2E2E2E2E2E2E2E2E2E2E2E2E2E2E2E2E2E2E2E2E2E2E2E2E2E2E2E2E2E2E2E2BEE2E2BEE2E2BEBEBEE2BEE2E2E2E2E2E2E2E2E2E2E2E2E2E2E2E2E2E2E2E2E2E2E2E2E2E2E2E2E2E2E2E2E2E2E2E2E2E2E2E2E2E2E2E2E2E2E2E2E2E2E2E2E2E2E2E2E2E2E2E2E2E2E2E2E2E2E2E2E2
310
E2E2E2E2E2E2E2E2E2E2E2E2E2E2E2E2E2E2E2E2E2E2E2E2E2E2E2E2E2E2E2E2E2E2E2E2E2E2E2E2E2E2E2E2E2E2E2E2E2E2E2E2E2DCE2E2E2BEE2E2E2E2E2E2E2E2E2E2E2E2E2E2E2E2E2E2E2E2E2E2E2E2E2E2E2E2E2E2E2E2E2E2E2E2E2E2E2E2E2E2E2E2E2E2E2E2E2E2E2E2E2E2E2E2E2E2E2E2E2E2E2E2E2E2E2E2E2
310
E2BEE2E2E2DCE2E2E2E2E2E2E2E2E2E2E2E2E2E2E2E2E2E2E2E2E2E2E2E2E2E2E2E2E2E2E2E2E2E2E2E2E2E2E2E2E2E2E2E2E2E2E2E2E2E2E2E2E2E2E2E2E2E2E2E2E2E2E2E2E2E2E2E2E2E2E2E2E2E2E2E2E2E2E2E2E2E2E2E2E2E2E2E2E2E2E2E2E2E2E2E2E2E2E2E2E2E2E2E2E2E2E2E2E2E2E2E2E2E2E2E2E2E2E2E2E2
310
E2E2E2E2E2E2E2E2E2E2E2E2E2E2E2E2E2E2E2E2E2E2E2E2E2E2E2E2E2E2E2E2E2E2E2E2E2E2E2E2E2E2E2E2E2E2E2E2E2E2E2E2E2E2E2DCE2E2E2BEE2E2E2E2E2E2E2E2E2E2E2E2E2E2E2E2E2E2E2E2E2E2E2E2E2E2E2E2E2E2E2E2E2E2E2E2E2E2E2E2E2E2E2E2E2E2E2E2E2E2E2E2E2E2E2E2E2E2E2E2E2E2E2E2E2E2E2
310
E2E2E2BEE2E2E2DCE2E2E2E2E2E2E2E2E2E2E2E2E2E2E2E2E2E2E2E2E2E2E2E2E2E2E2E2E2E2E2E2E2E2E2E2E2E2E2E2E2E2E2E2E2E2E2E2E2E2E2E2E2E2E2E2E2E2E2E2E2E2E2E2E2E2E2E2E2E2E2E2E2E2E2E2E2E2E2E2E2E2E2E2E2E2E2E2E2E2E2E2E2E2E2E2E2E2E2E2E2E2E2E2E2E2E2E2E2E2E2E2E2E2E2E2E2E2E2
310
E2E2E2E2E2E2E2E2E2E2E2E2E2E2E2E2E2E2E2E2E2E2E2E2E2E2E2E2E2E2E2E2E2E2E2E2E2E2E2E2E2E2E2E2E2E2E2E2E2E2E2E2E2E2E2E2E2DCE2E2E2BEE2E2E2E2E2E2E2E2E2E2E2E2E2E2E2E2E2E2E2E2E2E2E2E2E2E2E2E2E2E2E2E2E2E2E2E2E2E2E2E2E2E2E2E2E2E2E2E2E2E2E2E2E2E2E2E2E2E2E2E2E2E2E2E2E2
310
E2E2E2E2E2BEE2E2E2DCE2E2E2E2E2E2E2E2E2E2E2E2E2E2E2E2E2E2E2E2E2E2E2E2E2E2E2E2E2E2E2E2E2E2E2E2E2E2E2E2E2E2E2E2E2E2E2E2E2E2E2E2E2E2E2E2E2E2E2E2E2E2E2E2E2E2E2E2E2E2E2E2E2E2E2E2E2E2E2E2E2E2E2E2E2E2E2E2E2E2E2E2E2E2E2E2E2E2E2E2E2E2E2E2E2E2E2E2E2E2E2E2E2E2E2E2E2
310
E2E2E2E2E2E2E2E2E2E2E2E2E2E2E2E2E2E2E2E2E2E2E2E2E2E2E2E2E2E2E2E2E2E2E2E2E2E2E2E2E2E2E2E2E2E2E2E2E2E2E2E2E2E2E2E2E2E2E2DCE2E2E2BEE2E2E2E2E2E2E2E2E2E2E2E2E2E2E2E2E2E2E2E2E2E2E2E2E2E2E2E2E2E2E2E2E2E2E2E2E2E2E2E2E2E2E2E2E2E2E2E2E2E2E2E2E2E2E2E2E2E2E2E2E2E2E2
310
E2E2E2E2E2E2E2BEE2E2E2DCE2E2E2E2E2E2E2E2E2E2E2E2E2E2E2E2E2E2E2E2E2E2E2E2E2E2E2E2E2E2E2E2E2E2E2E2E2E2E2E2E2E2E2E2E2E2E2E2E2E2E2E2E2E2E2E2E2E2E2E2E2E2E2E2E2E2E2E2E2E2E2E2E2E2E2E2E2E2E2E2E2E2E2E2E2E2E2E2E2E2E2E2E2E2E2E2E2E2E2E2E2E2E2E2E2E2E2E2E2E2E2E2E2E2E2
310
E2E2E2E2E2E2E2E2E2E2E2E2E2E2E2E2E2E2E2E2E2E2E2E2E2E2E2E2E2E2E2E2E2E2E2E2E2E2E2E2E2E2E2E2E2E2E2E2E2E2E2E2E2E2E2E2E2E2E2E2E2DCE2E2E2BEE2E2E2E2E2E2E2E2E2E2E2E2E2E2E2E2E2E2E2E2E2E2E2E2E2E2E2E2E2E2E2E2E2E2E2E2E2E2E2E2E2E2E2E2E2E2E2E2E2E2E2E2E2E2E2E2E2E2E2E2E2
310
E2E2E2E2E2E2E2E2E2BEE2E2E2DCE2E2E2E2E2E2E2E2E2E2E2E2E2E2E2E2E2E2E2E2E2E2E2E2E2E2E2E2E2E2E2E2E2E2E2E2E2E2E2E2E2E2E2E2E2E2E2E2E2E2E2E2E2E2E2E2E2E2E2E2E2E2E2E2E2E2E2E2E2E2E2E2E2E2E2E2E2E2E2E2E2E2E2E2E2E2E2E2E2E2E2E2E2E2E2E2E2E2E2E2E2E2E2E2E2E2E2E2E2E2E2E2E2
310
E2E2E2E2E2E2E2E2E2E2E2E2E2E2E2E2E2E2E2E2E2E2E2E2E2E2E2E2E2E2E2E2E2E2E2E2E2E2E2E2E2E2E2E2E2E2E2E2E2E2E2E2E2E2E2E2E2E2E2E2E2E2E2DCE2E2E2BEE2E2E2E2E2E2E2E2E2E2E2E2E2E2E2E2E2E2E2E2E2E2E2E2E2E2E2E2E2E2E2E2E2E2E2E2E2E2E2E2E2E2E2E2E2E2E2E2E2E2E2E2E2E2E2E2E2E2E2
310
E2E2E2E2E2E2E2E2E2E2E2BEE2E2E2DCE2E2E2E2E2E2E2E2E2E2E2E2E2E2E2E2E2E2E2E2E2E2E2E2E2E2E2E2E2E2E2E2E2E2E2E2E2E2E2E2E2E2E2E2E2E2E2E2E2E2E2E2E2E2E2E2E2E2E2E2E2E2E2E2E2E2E2E2E2E2E2E2E2E2E2E2E2E2E2E2E2E2E2E2E2E2E2E2E2E2E2E2E2E2E2E2E2E2E2E2E2E2E2E2E2E2E2E2E2E2E2
310
E2E2E2E2E2E2E2E2E2E2E2E2E2E2E2E2E2E2E2E2E2E2E2E2E2E2E2E2E2E2E2E2E2E2E2E2E2E2E2E2E2E2E2E2E2E2E2E2E2E2E2E2E2E2E2E2E2E2E2E2E2E2E2E2E2DCE2E2E2BEE2E2E2E2E2E2E2E2E2E2E2E2E2E2E2E2E2E2E2E2E2E2E2E2E2E2E2E2E2E2E2E2E2E2E2E2E2E2E2E2E2E2E2E2E2E2E2E2E2E2E2E2E2E2E2E2E2
310
E2E2E2E2E2E2E2E2E2E2E2E2E2BEE2E2E2DCE2E2E2E2E2E2E2E2E2E2E2E2E2E2E2E2E2E2E2E2E2E2E2E2E2E2E2E2E2E2E2E2E2E2E2E2E2E2E2E2E2E2E2E2E2E2E2E2E2E2E2E2E2E2E2E2E2E2E2E2E2E2E2E2E2E2E2E2E2E2E2E2E2E2E2E2E2E2E2E2E2E2E2E2E2E2E2E2E2E2E2E2E2E2E2E2E2E2E2E2E2E2E2E2E2E2E2E2E2
310
E2E2E2E2E2E2E2E2E2E2E2E2E2E2E2E2E2E2E2E2E2E2E2E2E2E2E2E2E2E2E2E2E2E2E2E2E2E2E2E2E2E2E2E2E2E2E2E2E2E2E2E2E2E2E2E2E2E2E2E2E2E2E2E2E2E2E2DCE2E2E2BEE2E2E2E2E2E2E2E2E2E2E2E2E2E2E2E2E2E2E2E2E2E2E2E2E2E2E2E2E2E2E2E2E2E2E2E2E2E2E2E2E2E2E2E2E2E2E2E2E2E2E2E2E2E2E2
310
E2E2E2E2E2E2E2E2E2E2E2E2E2E2E2BEE2E2E2DCE2E2E2E2E2E2E2E2E2E2E2E2E2E2E2E2E2E2E2E2E2E2E2E2E2E2E2E2E2E2E2E2E2E2E2E2E2E2E2E2E2E2E2E2E2E2E2E2E2E2E2E2E2E2E2E2E2E2E2E2E2E2E2E2E2E2E2E2E2E2E2E2E2E2E2E2E2E2E2E2E2E2E2E2E2E2E2E2E2E2E2E2E2E2E2E2E2E2E2E2E2E2E2E2E2E2E2
310
E2E2E2E2E2E2E2E2E2E2E2E2E2E2E2E2E2E2E2E2E2E2E2E2E2E2E2E2E2E2E2E2E2E2E2E2E2E2E2E2E2E2E2E2E2E2E2E2E2E2E2E2E2E2E2E2E2E2E2E2E2E2E2E2E2E2E2E2E2DCE2E2E2BEE2E2E2E2E2E2E2E2E2E2E2E2E2E2E2E2E2E2E2E2E2E2E2E2E2E2E2E2E2E2E2E2E2E2E2E2E2E2E2E2E2E2E2E2E2E2E2E2E2E2E2E2E2
310
E2E2E2E2E2E2E2E2E2E2E2E2E2E2E2E2E2BEE2E2E2DCE2E2E2E2E2E2E2E2E2E2E2E2E2E2E2E2E2E2E2E2E2E2E2E2E2E2E2E2E2E2E2E2E2E2E2E2E2E2E2E2E2E2E2E2E2E2E2E2E2E2E2E2E2E2E2E2E2E2E2E2E2E2E2E2E2E2E2E2E2E2E2E2E2E2E2E2E2E2E2E2E2E2E2E2E2E2E2E2E2E2E2E2E2E2E2E2E2E2E2E2E2E2E2E2E2
310
E2E2E2E2E2E2E2E2E2E2E2E2E2E2E2E2E2E2E2E2E2E2E2E2E2E2E2E2E2E2E2E2E2E2E2E2E2E2E2E2E2E2E2E2E2E2E2E2E2E2E2E2E2E2E2E2E2E2E2E2E2E2E2E2E2E2E2E2E2E2E2DCE2E2E2BEE2E2E2E2E2E2E2E2E2E2E2E2E2E2E2E2E2E2E2E2E2E2E2E2E2E2E2E2E2E2E2E2E2E2E2E2E2E2E2E2E2E2E2E2E2E2E2E2E2E2E2
310
E2E2E2E2E2E2E2E2E2E2E2E2E2E2E2E2E2E2E2BEE2E2E2DCE2E2E2E2E2E2E2E2E2E2E2E2E2E2E2E2E2E2E2E2E2E2E2E2E2E2E2E2E2E2E2E2E2E2E2E2E2E2E2E2E2E2E2E2E2E2E2E2E2E2E2E2E2E2E2E2E2E2E2E2E2E2E2E2E2E2E2E2E2E2E2E2E2E2E2E2E2E2E2E2E2E2E2E2E2E2E2E2E2E2E2E2E2E2E2E2E2E2E2E2E2E2E2
310
E2E2E2E2E2E2E2E2E2E2E2E2E2E2E2E2E2E2E2E2E2E2E2E2E2E2E2E2E2E2E2E2E2E2E2E2E2E2E2E2E2E2E2E2E2E2E2E2E2E2E2E2E2E2E2E2E2E2E2E2E2E2E2E2E2E2E2E2E2E2E2E2E2DCE2E2E2BEE2E2E2E2E2E2E2E2E2E2E2E2E2E2E2E2E2E2E2E2E2E2E2E2E2E2E2E2E2E2E2E2E2E2E2E2E2E2E2E2E2E2E2E2E2E2E2E2E2
310
E2E2E2E2E2E2E2E2E2E2E2E2E2E2E2E2E2E2E2E2E2BEE2E2E2DCE2E2E2E2E2E2E2E2E2E2E2E2E2E2E2E2E2E2E2E2E2E2E2E2E2E2E2E2E2E2E2E2E2E2E2E2E2E2E2E2E2E2E2E2E2E2E2E2E2E2E2E2E2E2E2E2E2E2E2E2E2E2E2E2E2E2E2E2E2E2E2E2E2E2E2E2E2E2E2E2E2E2E2E2E2E2E2E2E2E2E2E2E2E2E2E2E2E2E2E2E2
310
E2E2E2E2E2E2E2E2E2E2E2E2E2E2E2E2E2E2E2E2E2E2E2E2E2E2E2E2E2E2E2E2E2E2E2E2E2E2E2E2E2E2E2E2E2E2E2E2E2E2E2E2E2E2E2E2E2E2E2E2E2E2E2E2E2E2E2E2E2E2E2E2E2E2E2DCE2E2E2BEE2E2E2E2E2E2E2E2E2E2E2E2E2E2E2E2E2E2E2E2E2E2E2E2E2E2E2E2E2E2E2E2E2E2E2E2E2E2E2E2E2E2E2E2E2E2E2
310
E2E2E2E2E2E2E2E2E2E2E2E2E2E2E2E2E2E2E2E2E2E2E2BEE2E2E2DCE2E2E2E2E2E2E2E2E2E2E2E2E2E2E2E2E2E2E2E2E2E2E2E2E2E2E2E2E2E2E2E2E2E2E2E2E2E2E2E2E2E2E2E2E2E2E2F5F5F5E2E2E2E2E2E2E2E2E2E2E2E2E2E2E2E2E2E2E2E2E2E2E2E2E2E2E2E2E2E2E2F52D2D2DF5F5E2E2E2E2E2E2E2E2E2E2E2E2
310
E2E2E2E2E2E2E2E2E2E2E2E2E2E2E2E2E2E2E2E2E2E2E2E2E2E2E2E2E2E2E2E2E2E2E2E2E2E2E2E2E2E2E2E2E2E2E2E2E2E2E2E2E2E2E2E2E2E2E2E2E2E2E2E2E2E2E2E2E2E2E2E2E2E2E2E2E2DCE2E2E2BEE2E2E2E2E2E2E2E2E2E2E2E2E2E2E2E2E2E2E2E2E2E2E2E2E2E2E2E2E2E2E2E2E2E2E2E2E2E2E2E2E2E2E2E2E2
310
E2E2E2E2E2E2E2E2E2E2E2E2E2E2E2E2E2E2E2E2E2E2E2E2E2BEE2E2E2DCE2E2E2E2E2E2E2E2E2E2E2E2E2E2E2E2E2E2E2E2E2E2E2E2E2E2E2E2E2E2E2E2E2E2E2E2E2E2E2E2E2E2E2E2F5F5F5E2E2E2F5F5F5E2E2E2E2E2E2E2E2E2E2E2E2E2E2E2E2E2E2E2E2E2E2E2E2E2E2E2E22DE2E2F5F5F5E2E2E2E2E2E2E2E2E2E2
310
E2E2E2E2E2E2E2E2E2E2E2E2E2E2E2E2E2E2E2E2E2E2E2E2E2E2E2E2E2E2E2E2E2E2E2E2E2E2E2E2E2E2E2E2E2E2E2E2E2E2E2E2E2E2E2E2E2E2E2E2E2E2E2E2E2E2E2E2E2E2E2E2E2E2E2E2E2E2E2DCE2E2E2BEE2E2E2E2E2E2E2E2E2E2E2E2E2E2E2E2E2E2E2E2E2E2E2E2E2E2E2E2E2E2E2E2E2E2E2E2E2E2E2E2E2E2E2
310
E2E2E2E2E2E2E2E2E2E2E2E2E2E2E2E2E2E2E2E2E2E2E2E2E2E2E2BEE2E2E2DCE2E2E2E2E2E2E2E2E2E2E2E2E2E2E2E2E2E2E2E2E2E2E2E2E2E2E2E2E2E2E2E2E2E2E2E2E2E2E2E2E2E2E2F5F5E2E2E2E2E2E2E2F5F5E2E2E2E2E2E2E2E2E2E2E2E2E2E2E2E2E2E2E2E2E2E2E2E2E2E2E22DE2E2F5F5F5E2E2E2E2E2E2E2E2
310
E2E2E2E2E2E2E2E2E2E2E2E2E2E2E2E2E2E2E2E2E2E2E2E2E2E2E2E2E2E2E2E2E2E2E2E2E2E2E2E2E2E2E2E2E2E2E2E2E2E2E2E2E2E2E2E2E2E2E2E2E2E2E2E2E2E2E2E2E2E2E2E2E2E2E2E2E2E2E2E2E2DCE2E2E2BEE2E2E2E2E2E2E2E2E2E2E2E2E2E2E2E2E2E2E2E2E2E2E2E2E2E2E2E2E2E2E2E2E2E2E2E2E2E2E2E2E2
310
E2E2E2E2E2E2E2E2E2E2E2E2E2E2E2E2E2E2E2E2E2E2E2E2E2E2E2E2E2BEE2E2E2DCE2E2E2E2E2E2E2E2E2E2E2E2E2E2E2E2E2E2E2E2E2E2E2E2E2E2E2E2E2E2E2E2E2E2E2E2E2E2E2E2E2E2F5F5E2E2E2E2E2E2E2E2E2F5F5E2E2E2E2E2E2E2E2E2E2E2E2E2E2E2E2E2E2E2E2E2E2E2E2E2E22DE2E2F5F5F5E2E2E2E2E2E2
310
E2E2E2E2E2E2E2E2E2E2E2E2E2E2E2E2E2E2E2E2E2E2E2E2E2E2E2E2E2E2E2E2E2E2E2E2E2E2E2E2E2E2E2E2E2E2E2E2E2E2E2E2E2E2E2E2E2E2E2E2E2E2E2E2E2E2E2E2E2E2E2E2E2E2E2E2E2E2E2E2E2E2E2DCE2E2E2BEE2E2E2E2E2E2E2E2E2E2E2E2E2E2E2E2E2E2E2E2E2E2E2E2E2E2E2E2E2E2E2E2E2E2E2E2E2E2E2
310
E2E2E2E2E2E2E2E2E2E2E2E2E2E2E2E2E2E2E2E2E2E2E2E2E2E2E2E2E2E2E2BEE2E2E2DCE2E2E2E2E2E2E2E2E2E2E2E2E2E2E2E2E2E2E2E2E2E2E2E2E2E2E2E2E2E2E2E2E2E2E2E2E2E2E2E2E2E2F5E2E2E2E2E2E2E2E2E2E2E2F5E2E2E2E2E2E2E2E2E2E2E2E2E2E2E2E2E2E2E2E2E2E2E2E2E2E22DE2E2F5F5F5E2E2E2E2
310
E2E2E2E2E2E2E2E2E2E2E2E2E2E2E2E2E2E2E2E2E2E2E2E2E2E2E2E2E2E2E2E2E2E2E2E2E2E2E2E2E2E2E2E2E2E2E2E2E2E2E2E2E2E2E2E2E2E2E2E2E2E2E2E2E2E2E2E2E2E2E2E2E2E2E2E2E2E2E2E2E2E2E2E2E2DCE2E2E2BEE2E2E2E2E2E2E2E2E2E2E2E2E2E2E2E2E2E2E2E2E2E2E2E2E2E2E2E2E2E2E2E2E2E2E2E2E2
310
E2E2E2E2E2E2E2E2E2E2E2E2E2E2E2E2E2E2E2E2E2E2E2E2E2E2E2E2E2E2E2E2E2BEE2E2E2DCE2E2E2E2E2E2E2E2E2E2E2E2E2E2E2E2E2E2E2E2E2E2E2E2E2E2E2E2E2E2E2E2E2E2F5F5F5F5F5F5F5F5F5F5F528282828282828F5F5F5F5F5F5F5F5F5F5F5E2E2E2E2E2E2E2E2E2E2E2E2E2E2E2E2E2E22DE2E2F5F5F5F5F5
310
F5F5F5F5F5F5F5F5F5F5F5F5F5F5F5F528282828282828F5F5F5F5F5F5F5F5F5F5F52D2D2D2D2D2DE2E2E2E2E2E2E2E2E2E2E2E2E2E2E2E2E2E2E2E2E2E2E2E2E2E2E2E2E2E2E2E2E2E2E2E2E2E2E2E2E2E2E2E2E2E2E2DCE2E2E2BEE2E2E2E2E2E2E2E2E2E2E2E2E2E2E2E2E2E2E2E2E2E2E2E2E2E2E2E2E2E2E2E2E2E2E2
310
E2E2E2E2E2E2E2E2E2E2E2E2E2E2E2E2E2E2E2E2E2E2E2E2E2E2E2E2E2E2E2E2E2E2E2BEE2E2E2DCE2E2E2E2E2E2E2E2E2E2E2E2E2E2E2E2E2E2E2E2E2E2E2E2E2E2E2E2E2E2E2E2E2E2F5E2E2E2E2E2E22828282828E2E2E2E2E22828282828E2E2E2E2E2E2F5E2E2E2E2E2E2E2E2E2E2E2E2E2E2E2E2E2E22DE2E2F5F5F5
310
E2E2E2E22DE2E2F5E2E2E2E2E2E22828282828E2E2E2E2E22828282828E2E2E2E2E2E2F5E2E2E2E2E22DE2E2E2E2E2E2E2E2E2E2E2E2E2E2E2E2E2E2E2E2E2E2E2E2E2E2E2E2E2E2E2E2E2E2E2E2E2E2E2E2E2E2E2E2E2E2E2DCE2E2E2BEE2E2E2E2E2E2E2E2E2E2E2E2E2E2E2E2E2E2E2E2E2E2E2E2E2E2E2E2E2E2E2E2E2
310
E2E2E2E2E2E2E2E2E2E2E2E2E2E2E2E2E2E2E2E2E2E2E2E2E2E2E2E2E2E2E2E2E2E2E2E2E2BEE2E2E2DCE2E2E2E2E2E2E2E2E2E2E2E2E2E2E2E2E2E2E2E2E2E2E2E2E2E2E2E2E2E2E2E2E2E2F5E2E2E2E2282828E2E2E2E2E2E2E2E2E2E2E2E2E2282828E2E2E2E2F5E2E2E2E2E2E2E2E2E2E2E2E2E2E2E2E2E2BEBEE2E2F5
310
F5F5E2E2E2BE2DE2E2F5E2E2E2E2282828E2E2E2E2E2E2E2E2E2E2E2E2E2282828E2E2E2E2F5E2E2E2E2BEBEE2E2E2E2E2E2E2E2E2E2E2E2E2E2E2E2E2E2E2E2E2E2E2E2E2E2E2E2E2E2E2E2E2E2E2E2E2E2E2E2E2E2E2E2E2E2E2DCE2E2E2BEE2E2E2E2E2E2E2E2E2E2E2E2E2E2E2E2E2E2E2E2E2E2E2E2E2E2E2E2E2E2E2
310
E2E2E2E2E2E2E2E2E2E2E2E2E2E2E2E2E2E2E2E2E2E2E2E2E2E2E2E2E2E2E2E2E2E2E2E2E2E2E2BEE2E2E2DCE2E2E2E2E2E2E2E2E2E2E2E2E2E2E2E2E2E2E2E2E2E2E2E2E2E2E2E2E2E2E2E2E2E2F5E2E2E22828E2E2E2E2E2E2E2E2E2E2E2E2E2E2E2E2E22828E2E2E2F5E2E2E2E2E2E2E2E2E2E2E2E2E2E2E2E2E2BEBEE2
310
E2F5F5F5E2E2E2BE2DE2E2F5E2E2E22828E2E2E2E2E2E2E2E2E2E2E2E2E2E2E2E2E22828E2E2E2F5E2E2E2E2BE2DE2E2E2E2E2E2E2E2E2E2E2E2E2E2E2E2E2E2E2E2E2E2E2E2E2E2E2E2E2E2E2E2E2E2E2E2E2E2E2E2E2E2E2E2E2E2E2DCE2E2E2BEE2E2E2E2E2E2E2E2E2E2E2E2E2E2E2E2E2E2E2E2E2E2E2E2E2E2E2E2E2
310
E2E2E2E2E2E2E2E2E2E2E2E2E2E2E2E2E2E2E2E2E2E2E2E2E2E2E2E2E2E2E2E2E2E2E2E2E2E2E2E2E2BEE2E2E2DCE2E2E2E2E2E2E2E2E2E2E2E2E2E2E2E2E2E2E2E2E2E2E2E2E2E2E2E2E2E2E2E2E2E228282828E2E2E2E2E2E2E2E2E2E2E2E2E2E2E2E2E2E2E2E2E228282828E2E2E2E2E2E2E2E2E2E2E2E2E2E2E2E2E2E2
310
2DE2E2F5F5F5E2E2E2E22DE2E2F5E22828E2E2E2E2E2E2E2E2E2F5F5F5E2E2E2E2E2E2E2E2E22828E2F5E2E2E2E2E22DE2E2E2E2E2E2E2E2E2E2E2E2E2E2E2E2E2E2E2E2E2E2E2E2E2E2E2E2E2E2E2E2E2E2E2E2E2E2E2E2E2E2E2E2E2E2E2DCE2E2E2BEE2E2E2E2E2E2E2E2E2E2E2E2E2E2E2E2E2E2E2E2E2E2E2E2E2E2E2
310
E2E2E2E2E2E2E2E2E2E2E2E2E2E2E2E2E2E2E2E2E2E2E2E2E2E2E2E2E2E2E2E2E2E2E2E2E2E2E2E2E2E2E2BEE2E2E2DCE2E2E2E2E2E2E2E2E2E2E2E2E2E2E2E2E2E2E2E2E2E2E2E2E2E2E2E2E2E2E2E2E2E2F5F528F5F5F5F5F5F5F5F5F5F5F5F5F5F5F5F5F5F5F5F5F5F5F528F5F5E2E2E2E2E2E2E2E2E2E2E2E2E2E2E2E2
310
E2E22DE2E2F5F5F5F5F5F5F52DF5F5F5F528F5F5F5F5F5F5F5F5F5F5F5E2F5F5F5F5F5F5F5F5F5F5F528F5F52D2D2D2D2DF5E2E2E2E2E2E2E2E2E2E2E2E2E2E2E2E2E2E2E2E2E2E2E2E2E2E2E2E2E2E2E2E2E2E2E2E2E2E2E2E2E2E2E2E2E2E2E2DCE2E2E2BEE2E2E2E2E2E2E2E2E2E2E2E2E2E2E2E2E2E2E2E2E2E2E2E2E2
310
E2E2E2E2E2E2E2E2E2E2E2E2E2E2E2E2E2E2E2E2E2E2E2E2E2E2E2E2E2E2E2E2E2E2E2E2E2E2E2E2E2E2E2E2E2BEE2E2E2DCE2E2E2E2E2E2E2E2E2E2E2E2E2E2E2E2E2E2E2E2E2E2E2E2E2E2E2E2E2E2E2E2E2E2E2E2E2E2E2E2E2E2F5E2E2E2E2E2E2E2E2E2E2E2F5E2E2E2E2E2E2E2E2E2E2E2E2E2E2E2E2E2E2E2E2E2E2
310
E2E2E2E22DE2E2F5F5F5E2E2E2E2E2E2E2E2E2E2E2E2E2E2E2E2E2E2E2E2E2E2E2E2E2E2E2E2E2E2E2E2E2E2E2E2E2E2E2E2E2E2E2E2E2E2E2E2E2E2E2E2E2E2E2E2E2E2E2E2E2E2E2E2E2E2E2E2E2E2E2E2E2E2E2E2E2E2E2E2E2E2E2E2E2E2E2E2E2DCE2E2E2BEE2E2E2E2E2E2E2E2E2E2E2E2E2E2E2E2E2E2E2E2E2E2E2
310
E2E2E2E2E2E2E2E2E2E2E2E2E2E2E2E2E2E2E2E2E2E2E2E2E2E2E2E2E2E2E2E2E2E2E2E2E2E2E2E2E2E2E2E2E2E2E2BEE2E2E2DCE2E2E2E2E2E2E2E2E2E2E2E2E2E2E2E2E2E2E2E2E2E2E2E2E2E2E2E2E2E2E2E2E2E2E2E2E2E2E2E2E2E2E2F5E2E2E2E2E2E2E2E2E2F5E2E2E2E2E2E2E2E2E2E2E2E2E2E2E2E2E2E2E2E2E2
310
E2E2E2E2E2E22DE2E2F5F5F5E2E2E2E2E2E2E2E2E2E2E2E2E2E2E2E2E2E2E2E2E2E2E2E2E2E2E2E2E2E2E2E2E2E2E2E2E2E2E2E2E2E2E2E2E2E2E2E2E2E2E2E2E2E2E2E2E2E2E2E2E2E2E2E2E2E2E2E2E2E2E2E2E2E2E2E2E2E2E2E2E2E2E2E2E2E2E2E2E2DCE2E2E2BEE2E2E2E2E2E2E2E2E2E2E2E2E2E2E2E2E2E2E2E2E2
310
E2E2E2E2E2E2E2E2E2E2E2E2E2E2E2E2E2E2E2E2E2E2E2E2E2E2E2E2E2E2E2E2E2E2E2E2E2E2E2E2E2E2E2E2E2E2E2E2E2BEE2E2E2DCE2E2E2E2E2E2E2E2E2E2E2E2E2E2E2E2E2E2E2E2E2E2E2E2E2E2E2E2E2E2E2E2E2E2E2E2E2E2E2E2E2E2E2E2F5F5E2E2E2E2E2F5F5E2E2E2E2E2E2E2E2E2E2E2E2E2E2E2E2E2E2E2E2
310
E2E2E2E2E2E2E2E22DE2E2F5F5F5E2E2E2E2E2E2E2E2E2E2E2E2E2E2E2E2E2E2E2E2E2E2E2E2E2E2E2E2E2E2E2E2E2E2E2E2E2E2E2E2E2E2E2E2E2E2E2E2E2E2E2E2E2E2E2E2E2E2E2E2E2E2E2E2E2E2E2E2E2E2E2E2E2E2E2E2E2E2E2E2E2E2E2E2E2E2E2E2E2DCE2E2E2BEE2E2E2E2E2E2E2E2E2E2E2E2E2E2E2E2E2E2E2
310
E2E2E2E2E2E2E2E2E2E2E2E2E2E2E2E2E2E2E2E2E2E2E2E2E2E2E2E2E2E2E2E2E2E2E2E2E2E2E2E2E2E2E2E2E2E2E2E2E2E2E2BEE2E2E2DCE2E2E2E2E2E2E2E2E2E2E2E2E2E2E2E2E2E2E2E2E2E2E2E2E2E2E2E2E2E2E2E2E2E2E2E2E2E2E2E2E2E2E2E2E2F5F5F5F5F5F5F5E2E2E2E2E2E2E2E2E2E2E2E2E2E2E2E2E2E2E2
310
E2E2E2E2E2E2E2E2E2E22D2D2DF5F5F5E2E2E2E2E2E2E2E2E2E2E2E2E2E2E2E2E2E2E2E2E2E2E2E2E2E2E2E2E2E2E2E2E2E2E2E2E2E2E2E2E2E2E2E2E2E2E2E2E2E2E2E2E2E2E2E2E2E2E2E2E2E2E2E2E2E2E2E2E2E2E2E2E2E2E2E2E2E2E2E2E2E2E2E2E2E2E2E2E2DCE2E2E2BEE2E2E2E2E2E2E2E2E2E2E2E2E2E2E2E2E2
310
E2E2E2E2E2E2E2E2E2E2E2E2E2E2E2E2E2E2E2E2E2E2E2E2E2E2E2E2E2E2E2E2E2E2E2E2E2E2E2E2E2E2E2E2E2E2E2E2E2E2E2E2E2BEE2E2E2DCE2E2E2E2E2E2E2E2E2E2E2E2E2E2E2E2E2E2E2E2E2E2E2E2E2E2E2E2E2E2E2E2E2E2E2E2E2E2E2E2E2E2E2E2E2E2E2E2E2E2E2E2E2E2E2E2E2E2E2E2E2E2E2E2E2E2E2E2E2
310
E2E2E2E2E2E2E2E2E2E2E2E2E2E2E22DE22DE2E2E2E2E2E2E2E2E2E2E2E2E2E2E2E2E2E2E2E2E2E2E2E2E2E2E2E2E2E2E2E2E2E2E2E2E2E2E2E2E2E2E2E2E2E2E2E2E2E2E2E2E2E2E2E2E2E2E2E2E2E2E2E2E2E2E2E2E2E2E2E2E2E2E2E2E2E2E2E2E2E2E2E2E2E2E2E2E2DCE2E2E2BEE2E2E2E2E2E2E2E2E2E2E2E2E2E2E2
310
E2E2E2E2E2E2E2E2E2E2E2E2E2E2E2E2E2E2E2E2E2E2E2E2E2E2E2E2E2E2E2E2E2E2E2E2E2E2E2E2E2E2E2E2E2E2E2E2E2E2E2E2E2E2E2BEE2E2E2DCE2E2E2E2E2E2E2E2E2E2E2E2E2E2E2E2E2E2E2E2E2E2E2E2E2E2E2E2E2E2E2E2E2E2E2E2E2E2E2E2E2E2E2E2E2E2E2E2E2E2E2E2E2E2E2E2E2E2E2E2E2E2E2E2E2E2E2
310
E2E2E2E2E2E2E2E2E2E2E2E2E2E2E2E2E22DE22DE2E2E2E2E2E2E2E2E2E2E2E2E2E2E2E2E2E2E2E2E2E2E2E2E2E2E2E2E2E2E2E2E2E2E2E2E2E2E2E2E2E2E2E2E2E2E2E2E2E2E2E2E2E2E2E2E2E2E2E2E2E2E2E2E2E2E2E2E2E2E2E2E2E2E2E2E2E2E2E2E2E2E2E2E2E2E2E2E2DCE2E2E2BEE2E2E2E2E2E2E2E2E2E2E2E2E2
310
E2E2E2E2E2E2E2E2E2E2E2E2E2E2E2E2E2E2E2E2E2E2E2E2E2E2E2E2E2E2E2E2E2E2E2E2E2E2E2E2E2E2E2E2E2E2E2E2E2E2E2E2E2E2E2E2E2BEE2E2E2DCE2E2E2E2E2E2E2E2E2E2E2E2E2E2E2E2E2E2E2E2E2E2E2E2E2E2E2E2E2E2E2E2E2E2E2E2E2E2E2E2E2E2E2E2E2E2E2E2E2E2E2E2E2E2E2E2E2E2E2E2E2E2E2E2E2
310
E2E2E2E2E2E2E2E2E2E2E2E2E2E2E2E2E2E2E22DE22DE2E2E2E2E2E2E2E2E2E2E2E2E2E2E2E2E2E2E2E2E2E2E2E2E2E2E2E2E2E2E2E2E2E2E2E2E2E2E2E2E2E2E2E2E2E2E2E2E2E2E2E2E2E2E2E2E2E2E2E2E2E2E2E2E2E2E2E2E2E2E2E2E2E2E2E2E2E2E2E2E2E2E2E2E2E2E2E2E2DCE2E2E2BEE2E2E2E2E2E2E2E2E2E2E2
310
E2E2E2E2E2E2E2E2E2E2E2E2E2E2E2E2E2E2E2E2E2E2E2E2E2E2E2E2E2E2E2E2E2E2E2E2E2E2E2E2E2E2E2E2E2E2E2E2E2E2E2E2E2E2E2E2E2E2E2BEE2E2E2DCE2E2E2E2E2E2E2E2E2E2E2E2E2E2E2E2E2E2E2E2E2E2E2E2E2E2E2E2E2E2E2E2E2E2E2E2E2E2E2E2E2E2E2E2E2E2E2E2E2E2E2E2E2E2E2E2E2E2E2E2E2E2E2
310
E2E2E2E2E2E2E2E2E2E2E2E2E2E2E2E2E2E2E2E22D2DBEF52D2DE2E2E2E2E2E2E2E2E2E2E2E2E2E2E2E2E2E2E2E2E2E2E2E2E2E2E2E2E2E2E2E2E2E2E2E2E2E2E2E2E2E2E2E2E2E2E2E2E2E2E2E2E2E2E2E2E2E2E2E2E2E2E2E2E2E2E2E2E2E2E2E2E2E2E2E2E2E2E2E2E2E2E2E2E2E2E2DCE2E2E2BEE2E2E2E2E2E2E2E2E2
310
E2E2E2E2E2E2E2E2E2E2E2E2E2E2E2E2E2E2E2E2E2E2E2E2E2E2E2E2E2E2E2E2E2E2E2E2E2E2E2E2E2E2E2E2E2E2E2E2E2E2E2E2E2E2E2E2E2E2E2E2E2BEE2E2E2DCE2E2E2E2E2E2E2E2E2E2E2E2E2E2E2E2E2E2E2E2E2E2E2E2E2E2E2E2E2E2E2E2E2E2E2E2E2E2E2E2E2E2E2E2E2E2E2E2E2E2E2E2E2E2E2E2E2E2E2E2E2
310
E2E2E2E2E2E2E2E2E2E2E2E2E2E2E2E2E2E2E2E2E2E2E2E2BEBEE2E2E2E2E2E2E2E2E2E2E2E2E2E2E2E2E2E2E2E2E2E2E2E2E2E2E2E2E2E2E2E2E2E2E2E2E2E2E2E2E2E2E2E2E2E2E2E2E2E2E2E2E2E2E2E2E2E2E2E2E2E2E2E2E2E2E2E2E2E2E2E2E2E2E2E2E2E2E2E2E2E2E2E2E2E2E2E2E2DCE2E2E2BEE2E2E2E2E2E2E2
310
E2E2E2E2E2E2E2E2E2E2E2E2E2E2E2E2E2E2E2E2E2E2E2E2E2E2E2E2E2E2E2E2E2E2E2E2E2E2E2E2E2E2E2E2E2E2E2E2E2E2E2E2E2E2E2E2E2E2E2E2E2E2E2BEE2E2E2DCE2E2E2E2E2E2E2E2E2E2E2E2E2E2E2E2E2E2E2E2E2E2E2E2E2E2E2E2E2E2E2E2E2E2E2E2E2E2E2E2E2E2E2E2E2E2E2E2E2E2E2E2E2E2E2E2E2E2E2
310
E2E2E2E2E2E2E2E2E2E2E2E2E2E2E2E2E2E2E2E2E2E2E2E2E2E2E2E2E2E2E2E2E2E2E2E2E2E2E2E2E2E2E2E2E2E2E2E2E2E2E2E2E2E2E2E2E2E2E2E2E2E2E2E2E2E2E2E2E2E2E2E2E2E2E2E2E2E2E2E2E2E2E2E2E2E2E2E2E2E2E2E2E2E2E2E2E2E2E2E2E2E2E2E2E2E2E2E2E2E2E2E2E2E2E2E2E2DCE2E2E2BEE2E2E2E2E2
310
E2E2E2E2E2E2E2E2E2E2E2E2E2E2E2E2E2E2E2E2E2E2E2E2E2E2E2E2E2E2E2E2E2E2E2E2E2E2E2E2E2E2E2E2E2E2E2E2E2E2E2E2E2E2E2E2E2E2E2E2E2E2E2E2E2BEE2E2E2DCE2E2E2E2E2E2E2E2E2E2E2E2E2E2E2E2E2E2E2E2E2E2E2E2E2E2E2E2E2E2E2E2E2E2E2E2E2E2E2E2E2E2E2E2E2E2E2E2E2E2E2E2E2E2E2E2E2
310
E2E2E2E2E2E2E2E2E2E2E2E2E2E2E2E2E2E2E2E2E2E2E2E2E2E2E2E2E2E2E2E2E2E2E2E2E2E2E2E2E2E2E2E2E2E2E2E2E2E2E2E2E2E2E2E2E2E2E2E2E2E2E2E2E2E2E2E2E2E2E2E2E2E2E2E2E2E2E2E2E2E2E2E2E2E2E2E2E2E2E2E2E2E2E2E2E2E2E2E2E2E2E2E2E2E2E2E2E2E2E2E2E2E2E2E2E2E2E2DCE2E2E2BEE2E2E2
310
E2E2E2E2E2E2E2E2E2E2E2E2E2E2E2E2E2E2E2E2E2E2E2E2E2E2E2E2E2E2E2E2E2E2E2E2E2E2E2E2E2E2E2E2E2E2E2E2E2E2E2E2E2E2E2E2E2E2E2E2E2E2E2E2E2E2E2BEE2E2E2DCE2E2E2E2E2E2E2E2E2E2E2E2E2E2E2E2E2E2E2E2E2E2E2E2E2E2E2E2E2E2E2E2E2E2E2E2E2E2E2E2E2E2E2E2E2E2E2E2E2E2E2E2E2E2E2
310
E2E2E2E2E2E2E2E2E2E2E2E2E2E2E2E2E2E2E2E2E2E2E2E2E2E2E2E2E2E2E2E2E2E2E2E2E2E2E2E2E2E2E2E2E2E2E2E2E2E2E2E2E2E2E2E2E2E2E2E2E2E2E2E2E2E2E2E2E2E2E2E2E2E2E2E2E2E2E2E2E2E2E2E2E2E2E2E2E2E2E2E2E2E2E2E2E2E2E2E2E2E2E2E2E2E2E2E2E2E2E2E2E2E2E2E2E2E2E2E2E2DCE2E2E2BEE2
310
E2E2E2E2E2E2E2E2E2E2E2E2E2E2E2E2E2E2E2E2E2E2E2E2E2E2E2E2E2E2E2E2E2E2E2E2E2E2E2E2E2E2E2E2E2E2E2E2E2E2E2E2E2E2E2E2E2E2E2E2E2E2E2E2E2E2E2E2E2BEE2E2E2DCE2E2E2E2E2E2E2E2E2E2E2E2E2E2E2E2E2E2E2E2E2E2E2E2E2E2E2E2E2E2E2E2E2E2E2E2E2E2E2E2E2E2E2E2E2E2E2E2E2E2E2E2E2
310
E2E2E2E2E2E2E2E2E2E2E2E2E2E2E2E2E2E2E2E2E2E2E2E2E2E2E2E2E2E2E2E2E2E2E2E2E2E2E2E2E2E2E2E2E2E2E2E2E2E2E2E2E2E2E2E2E2E2E2E2E2E2E2E2E2E2E2E2E2E2E2E2E2E2E2E2E2E2E2E2E2E2E2E2E2E2E2E2E2E2E2E2E2E2E2E2E2E2E2E2E2E2E2E2E2E2E2E2E2E2E2E2E2E2E2E2E2E2E2E2E2E2E2DCE2E2E2
310
BEE2E2E2E2E2E2E2E2E2E2E2E2E2E2E2E2E2E2E2E2E2E2E2E2E2E2E2E2E2E2E2E2E2E2E2E2E2E2E2E2E2E2E2E2E2E2E2E2E2E2E2E2E2E2E2E2E2E2E2E2E2E2E2E2E2E2E2E2E2E2BEE2E2E2DCE2E2E2E2E2E2E2E2E2E2E2E2E2E2E2E2E2E2E2E2E2E2E2E2E2E2E2E2E2E2E2E2E2E2E2E2E2E2E2E2E2E2E2E2E2E2E2E2E2E2E2
310
E2E2E2E2E2E2E2E2E2E2E2E2E2E2E2E2E2E2E2E2E2E2E2E2E2E2E2E2E2E2E2E2E2E2E2E2E2E2E2E2E2E2E2E2E2E2E2E2E2E2E2E2E2E2E2E2E2E2E2E2E2E2E2E2E2E2E2E2E2E2E2E2E2E2E2E2E2E2E2E2E2E2E2E2E2E2E2E2E2E2E2E2E2E2E2E2E2E2E2E2E2E2E2E2E2E2E2E2E2E2E2E2E2E2E2E2E2E2E2E2E2E2E2E2E2DCE2
310
E2E2BEE2E2E2E2E2E2E2E2E2E2E2E2E2E2E2E2E2E2E2E2E2E2E2E2E2E2E2E2E2E2E2E2E2E2E2E2E2E2E2E2E2E2E2E2E2E2E2E2E2E2E2E2E2E2E2E2E2E2E2E2E2E2E2E2E2E2E2E2E2E2BEE2E2E2DCE2E2E2E2E2E2E2E2E2E2E2E2E2E2E2E2E2E2E2E2E2E2E2E2E2E2E2E2E2E2E2E2E2E2E2E2E2E2E2E2E2E2E2E2E2E2E2E2E2
310
E2E2E2E2E2E2E2E2E2E2E2E2E2E2E2E2E2E2E2E2E2E2E2E2E2E2E2E2E2E2E2E2E2E2E2E2E2E2E2E2E2E2E2E2E2E2E2E2E2E2E2E2E2E2E2E2E2E2E2E2E2E2E2E2E2E2E2E2E2E2E2E2E2E2E2E2E2E2E2E2E2E2E2E2E2E2E2E2E2E2E2E2E2E2E2E2E2E2E2E2E2E2E2E2E2E2E2E2E2E2E2E2E2E2E2E2E2E2E2E2E2E2E2E2E2E2E2
310
DCE2E2E2BEE2E2E2E2E2E2E2E2E2E2E2E2E2E2E2E2E2E2E2E2E2E2E2E2E2E2E2E2E2E2E2E2E2E2E2E2E2E2E2E2E2E2E2E2E2E2E2E2E2E2E2E2E2E2E2E2E2E2E2E2E2E2E2E2E2E2E2E2E2E2BEE2E2E2DCE2E2E2E2E2E2E2E2E2E2E2E2E2E2E2E2E2E2E2E2E2E2E2E2E2E2E2E2E2E2E2E2E2E2E2E2E2E2E2E2E2E2E2E2E2E2E2
310
E2E2E2E2E2E2E2E2E2E2E2E2E2E2E2E2E2E2E2E2E2E2E2E2E2E2E2E2E2E2E2E2E2E2E2E2E2E2E2E2E2E2E2E2E2E2E2E2E2E2E2E2E2E2E2E2E2E2E2E2E2E2E2E2E2E2E2E2E2E2E2E2E2E2E2E2E2E2E2E2E2E2E2E2E2E2E2E2E2E2E2E2E2E2E2E2E2E2E2E2E2E2E2E2E2E2E2E2E2E2E2E2E2E2E2E2E2E2E2E2E2E2E2E2E2E2E2
310
E2E2DCE2E2E2BEE2E2E2E2E2E2E2E2E2E2E2E2E2E2E2E2E2E2E2E2E2E2E2E2E2E2E2E2E2E2E2E2E2E2E2E2E2E2E2E2E2E2E2E2E2E2E2E2E2E2E2E2E2E2E2E2E2E2E2E2E2E2E2E2E2E2E2E2E2E2BEE2E2E2DCE2E2E2E2E2E2E2E2E2E2E2E2E2E2E2E2E2E2E2E2E2E2E2E2E2E2E2E2E2E2E2E2E2E2E2E2E2E2E2E2E2E2E2E2E2
310
E2E2E2E2E2E2E2E2E2E2E2E2E2E2E2E2E2E2E2E2E2E2E2E2E2E2E2E2E2E2E2E2E2E2E2E2E2E2E2E2E2E2E2E2E2E2E2E2E2E2E2E2E2E2E2E2E2E2E2E2E2E2E2E2E2E2E2E2E2E2E2E2E2E2E2E2E2E2E2E2E2E2E2E2E2E2E2E2E2E2E2E2E2E2E2E2E2E2E2E2E2E2E2E2E2E2E2E2E2E2E2E2E2E2E2E2E2E2E2E2E2E2E2E2E2E2E2
310
E2E2E2E2DCE2E2E2BEE2E2E2E2E2E2E2E2E2E2E2E2E2E2E2E2E2E2E2E2E2E2E2E2E2E2E2E2E2E2E2E2E2E2E2E2E2E2E2E2E2E2E2E2E2E2E2E2E2E2E2E2E2E2E2E2E2E2E2E2E2E2E2E2E2E2E2E2E2E2BEE2E2E2DCE2E2E2E2E2E2E2E2E2E2E2E2E2E2E2E2E2E2E2E2E2E2E2E2E2E2E2E2E2E2E2E2E2E2E2E2E2E2E2E2E2E2E2
310
E2E2E2E2E2E2E2E2E2E2E2E2E2E2E2E2E2E2E2E2E2E2E2E2E2E2E2E2E2E2E2E2E2E2E2E2E2E2E2E2E2E2E2E2E2E2E2E2E2E2E2E2E2E2E2E2E2E2E2E2E2E2E2E2E2E2E2E2E2E2E2E2E2E2E2E2E2E2E2E2E2E2E2E2E2E2E2E2E2E2E2E2E2E2E2E2E2E2E2E2E2E2E2E2E2E2E2E2E2E2E2E2E2E2E2E2E2E2E2E2E2E2E2E2E2E2E2
310
E2E2E2E2E2E2DCE2E2E2BEE2E2E2E2E2E2E2E2E2E2E2E2E2E2E2E2E2E2E2E2E2E2E2E2E2E2E2E2E2E2E2E2E2E2E2E2E2E2E2E2E2E2E2E2E2E2E2E2E2E2E2E2E2E2E2E2E2E2E2E2E2E2E2E2E2E2E2E2E2E2BEE2E2E2DCE2E2E2E2E2E2E2E2E2E2E2E2E2E2E2E2E2E2E2E2E2E2E2E2E2E2E2E2E2E2E2E2E2E2E2E2E2E2E2E2E2
310
E2E2E2E2E2E2E2E2E2E2E2E2E2E2E2E2E2E2E2E2E2E2E2E2E2E2E2E2E2E2E2E2E2E2E2E2E2E2E2E2E2E2E2E2E2E2E2E2E2E2E2E2E2E2E2E2E2E2E2E2E2E2E2E2E2E2E2E2E2E2E2E2E2E2E2E2E2E2E2E2E2E2E2E2E2E2E2E2E2E2E2E2E2E2E2E2E2E2E2E2E2E2E2E2E2E2E2E2E2E2E2E2E2E2E2E2E2E2E2E2E2E2E2E2E2E2E2
310
E2E2E2E2E2E2E2E2DCE2E2E2BEE2E2E2E2E2E2E2E2E2E2E2E2E2E2E2E2E2E2E2E2E2E2E2E2E2E2E2E2E2E2E2E2E2E2E2E2E2E2E2E2E2E2E2E2E2E2E2E2E2E2E2E2E2E2E2E2E2E2E2E2E2E2E2E2E2E2E2E2E2E2BEE2E2E2DCDCDCDCDCDCDCDCDCDCDCDCDCDCDCDCDCDCDCDCDCDCDCDCDCDCDCDCDCDCDCDCDCDCDCDCDCDCDCDC
310
DCDCDCDCDCDCDCDCDCDCDCDCDCDCDCDCDCDCDCDCDCDCDCDCDCDCDCDCDCDCDCDCDCDCDCDCDCDCDCDCDCDCDCDCDCDCDCDCDCDCDCDCDCDCDCDCDCDCDCDCDCDCDCDCDCDCDCDCDCDCDCDCDCDCDCDCDCDCDCDCDCDCDCDCDCDCDCDCDCDCDCDCDCDCDCDCDCDCDCDCDCDCDCDCDCDCDCDCDCDCDCDCDCDCDCDCDCDCDCDCDCDCDCDCDCDCDC
310
DCDCDCDCDCDCDCDCDCDCDCE2E2E2BEE2E2E2E2E2E2E2E2E2E2E2E2E2E2E2E2E2E2E2E2E2E2E2E2E2E2E2E2E2E2E2E2E2E2E2E2E2E2E2E2E2E2E2E2E2E2E2E2E2E2E2E2E2E2E2E2E2E2E2E2E2E2E2E2E2E2E2E2E2E2BEE2E2E2E2E2E2E2E2E2E2E2E2E2E2E2E2E2E2E2E2E2E2E2E2E2E2E2E2E2E2E2E2E2E2E2E2E2E2E2E2E2
310
E2E2E2E2E2E2E2E2E2E2E2E2E2E2E2E2E2E2E2E2E2E2E2E2E2E2E2E2E2E2E2E2E2E2E2E2E2E2E2E2E2E2E2E2E2E2E2E2E2E2E2E2E2E2E2E2E2E2E2E2E2E2E2E2E2E2E2E2E2E2E2E2E2E2E2E2E2E2E2E2E2E2E2E2E2E2E2E2E2E2E2E2E2E2E2E2E2E2E2E2E2E2E2E2E2E2E2E2E2E2E2E2E2E2E2E2E2E2E2E2E2E2E2E2E2E2E2
310
E2E2E2E2E2E2E2E2E2E2E2E2E2E2E2E2BEE2E2E2E2E2E2E2E2E2E2E2E2E2E2E2E2E2E2E2E2E2E2E2E2E2E2E2E2E2E2E2E2E2E2E2E2E2E2E2E2E2E2E2E2E2E2E2E2E2E2E2E2E2E2E2E2E2E2E2E2E2E2E2E2E2E2E2E2E2E2BEE2E2E2E2E2E2E2E2E2E2E2E2E2E2E2E2E2E2E2E2E2E2E2E2E2E2E2E2E2E2E2E2E2E2E2E2E2E2E2
310
E2E2E2E2E2E2E2E2E2E2E2E2E2E2E2E2E2E2E2E2E2E2E2E2E2E2E2E2E2E2E2E2E2E2E2E2E2E2E2E2E2E2E2E2E2E2E2E2E2E2E2E2E2E2E2E2E2E2E2E2E2E2E2E2E2E2E2E2E2E2E2E2E2E2E2E2E2E2E2E2E2E2E2E2E2E2E2E2E2E2E2E2E2E2E2E2E2E2E2E2E2E2E2E2E2E2E2E2E2E2E2E2E2E2E2E2E2E2E2E2E2E2E2E2E2E2E2
310
E2E2E2E2E2E2E2E2E2E2E2E2E2E2E2E2E2E2BEE2E2E2E2E2E2E2E2E2E2E2E2E2E2E2E2E2E2E2E2E2E2E2E2E2E2E2E2E2E2E2E2E2E2E2E2E2E2E2E2E2E2E2E2E2E2E2E2E2E2E2E2E2E2E2E2E2E2E2E2E2E2E2E2E2E2E2E2E2E2BEBEBEBEBEBEBEBEBEBEBEBEBEBEBEBEBEBEBEBEBEBEBEBEBEBEBEBEBEBEBEBEBEBEBEBEBEBE
310
BEBEBEBEBEBEBEBEBEBEBEBEBEBEBEBEBEBEBEBEBEBEBEBEBEBEBEBEBEBEBEBEBEBEBEBEBEBEBEBEBEBEBEBEBEBEBEBEBEBEBEBEBEBEBEBEBEBEBEBEBEBEBEBEBEBEBEBEBEBEBEBEBEBEBEBEBEBEBEBEBEBEBEBEBEBEBEBEBEBEBEBEBEBEBEBEBEBEBEBEBEBEBEBEBEBEBEBEBEBEBEBEBEBEBEBEBEBEBEBEBEBEBEBEBEBEBE
310
BEBEBEBEBEBEBEBEBEBEBEBEBEBEBEBEBEBEBEBEBEE2E2E2E2E2E2E2E2E2E2E2E2E2E2E2E2E2E2E2E2E2E2E2E2E2E2E2E2E2E2E2E2E2E2E2E2E2E2E2E2E2E2E2E2E2E2E2E2E2E2E2E2E2E2E2E2E2E2E2E2E2E2E2E2E2E2E2E2E2E2E2E2E2E2E2E2E2E2E2E2E2E2E2E2E2E2E2E2E2E2E2E2E2E2E2E2E2E2E2E2E2E2E2E2E2E2
310
E2E2E2E2E2E2E2E2E2E2E2E2E2E2E2E2E2E2E2E2E2E2E2E2E2E2E2E2E2E2E2E2E2E2E2E2E2E2E2E2E2E2E2E2E2E2E2E2E2E2E2E2E2E2E2E2E2E2E2E2E2E2E2E2E2E2E2E2E2E2E2E2E2E2E2E2E2E2E2E2E2E2E2E2E2E2E2E2E2E2E2E2E2E2E2E2E2E2E2E2E2E2E2E2E2E2E2E2E2E2E2E2E2E2E2E2E2E2E2E2E2E2E2E2E2E2E2
310
E2E2E2E2E2E2E2E2E2E2E2E2E2E2E2E2E2E2E2E2E2E2E2E2E2E2E2E2E2E2E2E2E2E2E2E2E2E2E2E2E2E2E2E2E2E2E2E2E2E2E2E2E2E2E2E2E2E2
  0
XRECORD
  5
47
102
{ACAD_REACTORS
330
46
102
}
330
46
100
AcDbXrecord
280
     1
270
     1
271
     1
  0
XRECORD
  5
48
102
{ACAD_REACTORS
330
46
102
}
330
46
100
AcDbXrecord
280
     1
270
     1
271
     1
  0
XRECORD
  5
49
102
{ACAD_REACTORS
330
46
102
}
330
46
100
AcDbXrecord
280
     1
270
     1
271
     1
  0
XRECORD
  5
4A
102
{ACAD_REACTORS
330
46
102
}
330
46
100
AcDbXrecord
280
     1
270
     1
271
     1
  0
XRECORD
  5
4B
102
{ACAD_REACTORS
330
46
102
}
330
46
100
AcDbXrecord
280
     1
270
     1
271
     1
  0
XRECORD
  5
4C
102
{ACAD_REACTORS
330
46
102
}
330
46
100
AcDbXrecord
280
     1
270
     1
271
     1
  0
XRECORD
  5
3F
102
{ACAD_REACTORS
330
3E
102
}
330
3E
100
AcDbXrecord
280
     1
270
     1
271
     1
  0
XRECORD
  5
40
102
{ACAD_REACTORS
330
3E
102
}
330
3E
100
AcDbXrecord
280
     1
270
     1
271
     1
  0
XRECORD
  5
41
102
{ACAD_REACTORS
330
3E
102
}
330
3E
100
AcDbXrecord
280
     1
270
     1
271
     1
  0
XRECORD
  5
42
102
{ACAD_REACTORS
330
3E
102
}
330
3E
100
AcDbXrecord
280
     1
270
     1
271
     1
  0
XRECORD
  5
43
102
{ACAD_REACTORS
330
3E
102
}
330
3E
100
AcDbXrecord
280
     1
270
     1
271
     1
  0
XRECORD
  5
44
102
{ACAD_REACTORS
330
3E
102
}
330
3E
100
AcDbXrecord
280
     1
270
     1
271
     1
  0
XRECORD
  5
F
102
{ACAD_REACTORS
330
E
102
}
330
E
100
AcDbXrecord
280
     1
270
     1
271
     1
  0
XRECORD
  5
10
102
{ACAD_REACTORS
330
E
102
}
330
E
100
AcDbXrecord
280
     1
270
     1
271
     1
  0
XRECORD
  5
11
102
{ACAD_REACTORS
330
E
102
}
330
E
100
AcDbXrecord
280
     1
270
     1
271
     1
  0
XRECORD
  5
12
102
{ACAD_REACTORS
330
E
102
}
330
E
100
AcDbXrecord
280
     1
270
     1
271
     1
  0
XRECORD
  5
13
102
{ACAD_REACTORS
330
E
102
}
330
E
100
AcDbXrecord
280
     1
270
     1
271
     1
  0
XRECORD
  5
14
102
{ACAD_REACTORS
330
E
102
}
330
E
100
AcDbXrecord
280
     1
270
     1
271
     1
  0
CELLSTYLEMAP
  5
227
102
{ACAD_REACTORS
330
56
102
}
330
56
100
AcDbCellStyleMap
 90
        3
300
CELLSTYLE
  1
TABLEFORMAT_BEGIN
 90
        5
170
     1
 91
        0
 92
    32768
 62
   257
 93
        1
300
CONTENTFORMAT
  1
CONTENTFORMAT_BEGIN
 90
        0
 91
        0
 92
      512
 93
        0
300

 40
0.0
140
1.0
 94
        5
 62
     0
340
26
144
6.0
309
CONTENTFORMAT_END
171
     1
301
MARGIN
  1
CELLMARGIN_BEGIN
 40
1.5
 40
1.5
 40
1.5
 40
1.5
 40
4.5
 40
4.5
309
CELLMARGIN_END
 94
        6
 95
        1
302
GRIDFORMAT
  1
GRIDFORMAT_BEGIN
 90
        0
 91
        1
 62
     0
 92
       -2
340
0
 93
        0
 40
1.125
309
GRIDFORMAT_END
 95
        2
302
GRIDFORMAT
  1
GRIDFORMAT_BEGIN
 90
        0
 91
        1
 62
     0
 92
       -2
340
0
 93
        0
 40
1.125
309
GRIDFORMAT_END
 95
        4
302
GRIDFORMAT
  1
GRIDFORMAT_BEGIN
 90
        0
 91
        1
 62
     0
 92
       -2
340
0
 93
        0
 40
1.125
309
GRIDFORMAT_END
 95
        8
302
GRIDFORMAT
  1
GRIDFORMAT_BEGIN
 90
        0
 91
        1
 62
     0
 92
       -2
340
0
 93
        0
 40
1.125
309
GRIDFORMAT_END
 95
       16
302
GRIDFORMAT
  1
GRIDFORMAT_BEGIN
 90
        0
 91
        1
 62
     0
 92
       -2
340
0
 93
        0
 40
1.125
309
GRIDFORMAT_END
 95
       32
302
GRIDFORMAT
  1
GRIDFORMAT_BEGIN
 90
        0
 91
        1
 62
     0
 92
       -2
340
0
 93
        0
 40
1.125
309
GRIDFORMAT_END
309
TABLEFORMAT_END
  1
CELLSTYLE_BEGIN
 90
        1
 91
        1
300
_TITLE
309
CELLSTYLE_END
300
CELLSTYLE
  1
TABLEFORMAT_BEGIN
 90
        5
170
     1
 91
        0
 92
        0
 62
   257
 93
        1
300
CONTENTFORMAT
  1
CONTENTFORMAT_BEGIN
 90
        0
 91
        0
 92
      512
 93
        0
300

 40
0.0
140
1.0
 94
        5
 62
     0
340
26
144
4.5
309
CONTENTFORMAT_END
171
     1
301
MARGIN
  1
CELLMARGIN_BEGIN
 40
1.5
 40
1.5
 40
1.5
 40
1.5
 40
4.5
 40
4.5
309
CELLMARGIN_END
 94
        6
 95
        1
302
GRIDFORMAT
  1
GRIDFORMAT_BEGIN
 90
        0
 91
        1
 62
     0
 92
       -2
340
0
 93
        0
 40
1.125
309
GRIDFORMAT_END
 95
        2
302
GRIDFORMAT
  1
GRIDFORMAT_BEGIN
 90
        0
 91
        1
 62
     0
 92
       -2
340
0
 93
        0
 40
1.125
309
GRIDFORMAT_END
 95
        4
302
GRIDFORMAT
  1
GRIDFORMAT_BEGIN
 90
        0
 91
        1
 62
     0
 92
       -2
340
0
 93
        0
 40
1.125
309
GRIDFORMAT_END
 95
        8
302
GRIDFORMAT
  1
GRIDFORMAT_BEGIN
 90
        0
 91
        1
 62
     0
 92
       -2
340
0
 93
        0
 40
1.125
309
GRIDFORMAT_END
 95
       16
302
GRIDFORMAT
  1
GRIDFORMAT_BEGIN
 90
        0
 91
        1
 62
     0
 92
       -2
340
0
 93
        0
 40
1.125
309
GRIDFORMAT_END
 95
       32
302
GRIDFORMAT
  1
GRIDFORMAT_BEGIN
 90
        0
 91
        1
 62
     0
 92
       -2
340
0
 93
        0
 40
1.125
309
GRIDFORMAT_END
309
TABLEFORMAT_END
  1
CELLSTYLE_BEGIN
 90
        2
 91
        1
300
_HEADER
309
CELLSTYLE_END
300
CELLSTYLE
  1
TABLEFORMAT_BEGIN
 90
        5
170
     1
 91
        0
 92
        0
 62
   257
 93
        1
300
CONTENTFORMAT
  1
CONTENTFORMAT_BEGIN
 90
        0
 91
        0
 92
      512
 93
        0
300

 40
0.0
140
1.0
 94
        2
 62
     0
340
26
144
4.5
309
CONTENTFORMAT_END
171
     1
301
MARGIN
  1
CELLMARGIN_BEGIN
 40
1.5
 40
1.5
 40
1.5
 40
1.5
 40
4.5
 40
4.5
309
CELLMARGIN_END
 94
        6
 95
        1
302
GRIDFORMAT
  1
GRIDFORMAT_BEGIN
 90
        0
 91
        1
 62
     0
 92
       -2
340
0
 93
        0
 40
1.125
309
GRIDFORMAT_END
 95
        2
302
GRIDFORMAT
  1
GRIDFORMAT_BEGIN
 90
        0
 91
        1
 62
     0
 92
       -2
340
0
 93
        0
 40
1.125
309
GRIDFORMAT_END
 95
        4
302
GRIDFORMAT
  1
GRIDFORMAT_BEGIN
 90
        0
 91
        1
 62
     0
 92
       -2
340
0
 93
        0
 40
1.125
309
GRIDFORMAT_END
 95
        8
302
GRIDFORMAT
  1
GRIDFORMAT_BEGIN
 90
        0
 91
        1
 62
     0
 92
       -2
340
0
 93
        0
 40
1.125
309
GRIDFORMAT_END
 95
       16
302
GRIDFORMAT
  1
GRIDFORMAT_BEGIN
 90
        0
 91
        1
 62
     0
 92
       -2
340
0
 93
        0
 40
1.125
309
GRIDFORMAT_END
 95
       32
302
GRIDFORMAT
  1
GRIDFORMAT_BEGIN
 90
        0
 91
        1
 62
     0
 92
       -2
340
0
 93
        0
 40
1.125
309
GRIDFORMAT_END
309
TABLEFORMAT_END
  1
CELLSTYLE_BEGIN
 90
        3
 91
        2
300
_DATA
309
CELLSTYLE_END
  0
ENDSEC
  0
EOF
