  0
SECTION
  2
HEADER
  9
$ACADVER
  1
AC1024
  9
$ACADMAINTVER
 70
     6
  9
$DWGCODEPAGE
  3
ANSI_1252
  9
$INSBASE
 10
0.0
 20
0.0
 30
0.0
  9
$EXTMIN
 10
0.0000037814206735
 20
0.0000010374983503
 30
0.0
  9
$EXTMAX
 10
594.0000037814207
 20
420.0000010374983
 30
0.0
  9
$LIMMIN
 10
0.0
 20
0.0
  9
$LIMMAX
 10
594.0
 20
420.0
  9
$ORTHOMODE
 70
     1
  9
$REGENMODE
 70
     1
  9
$FILLMODE
 70
     1
  9
$QTEXTMODE
 70
     0
  9
$MIRRTEXT
 70
     0
  9
$LTSCALE
 40
10.0
  9
$ATTMODE
 70
     1
  9
$TEXTSIZE
 40
7.0
  9
$TRACEWID
 40
1.0
  9
$TEXTSTYLE
  7
STANDARD
  9
$CLAYER
  8
10-01
  9
$CELTYPE
  6
BYLAYER
  9
$CECOLOR
 62
   256
  9
$CELTSCALE
 40
1.0
  9
$DISPSILH
 70
     0
  9
$DIMSCALE
 40
2.0
  9
$DIMASZ
 40
2.5
  9
$DIMEXO
 40
1.0
  9
$DIMDLI
 40
10.0
  9
$DIMRND
 40
0.0
  9
$DIMDLE
 40
0.0
  9
$DIMEXE
 40
1.0
  9
$DIMTP
 40
0.0
  9
$DIMTM
 40
0.0
  9
$DIMTXT
 40
2.5
  9
$DIMCEN
 40
0.0
  9
$DIMTSZ
 40
0.0
  9
$DIMTOL
 70
     0
  9
$DIMLIM
 70
     0
  9
$DIMTIH
 70
     0
  9
$DIMTOH
 70
     0
  9
$DIMSE1
 70
     0
  9
$DIMSE2
 70
     0
  9
$DIMTAD
 70
     1
  9
$DIMZIN
 70
     8
  9
$DIMBLK
  1

  9
$DIMASO
 70
     1
  9
$DIMSHO
 70
     1
  9
$DIMPOST
  1

  9
$DIMAPOST
  1

  9
$DIMALT
 70
     0
  9
$DIMALTD
 70
     3
  9
$DIMALTF
 40
0.03937007874016
  9
$DIMLFAC
 40
1.0
  9
$DIMTOFL
 70
     1
  9
$DIMTVP
 40
0.0
  9
$DIMTIX
 70
     0
  9
$DIMSOXD
 70
     0
  9
$DIMSAH
 70
     0
  9
$DIMBLK1
  1

  9
$DIMBLK2
  1

  9
$DIMSTYLE
  2
Wagner
  9
$DIMCLRD
 70
     4
  9
$DIMCLRE
 70
     4
  9
$DIMCLRT
 70
     1
  9
$DIMTFAC
 40
1.0
  9
$DIMGAP
 40
1.0
  9
$DIMJUST
 70
     0
  9
$DIMSD1
 70
     0
  9
$DIMSD2
 70
     0
  9
$DIMTOLJ
 70
     0
  9
$DIMTZIN
 70
     8
  9
$DIMALTZ
 70
     0
  9
$DIMALTTZ
 70
     0
  9
$DIMUPT
 70
     0
  9
$DIMDEC
 70
     8
  9
$DIMTDEC
 70
     8
  9
$DIMALTU
 70
     2
  9
$DIMALTTD
 70
     3
  9
$DIMTXSTY
  7
STANDARD
  9
$DIMAUNIT
 70
     0
  9
$DIMADEC
 70
     2
  9
$DIMALTRND
 40
0.0
  9
$DIMAZIN
 70
     2
  9
$DIMDSEP
 70
    46
  9
$DIMATFIT
 70
     3
  9
$DIMFRAC
 70
     0
  9
$DIMLDRBLK
  1

  9
$DIMLUNIT
 70
     2
  9
$DIMLWD
 70
    -2
  9
$DIMLWE
 70
    -2
  9
$DIMTMOVE
 70
     0
  9
$DIMFXL
 40
1.0
  9
$DIMFXLON
 70
     0
  9
$DIMJOGANG
 40
0.7853981633974483
  9
$DIMTFILL
 70
     0
  9
$DIMTFILLCLR
 70
     0
  9
$DIMARCSYM
 70
     0
  9
$DIMLTYPE
  6

  9
$DIMLTEX1
  6

  9
$DIMLTEX2
  6

  9
$DIMTXTDIRECTION
 70
     0
  9
$LUNITS
 70
     2
  9
$LUPREC
 70
     1
  9
$SKETCHINC
 40
1.0
  9
$FILLETRAD
 40
0.0
  9
$AUNITS
 70
     0
  9
$AUPREC
 70
     0
  9
$MENU
  1
.
  9
$ELEVATION
 40
0.0
  9
$PELEVATION
 40
0.0
  9
$THICKNESS
 40
0.0
  9
$LIMCHECK
 70
     0
  9
$CHAMFERA
 40
0.0
  9
$CHAMFERB
 40
0.0
  9
$CHAMFERC
 40
20.0
  9
$CHAMFERD
 40
0.0
  9
$SKPOLY
 70
     0
  9
$TDCREATE
 40
2452746.666929514
  9
$TDUCREATE
 40
2452746.583596181
  9
$TDUPDATE
 40
2456883.481851435
  9
$TDUUPDATE
 40
2456883.398518102
  9
$TDINDWG
 40
0.1400628819
  9
$TDUSRTIMER
 40
0.1400623032
  9
$USRTIMER
 70
     1
  9
$ANGBASE
 50
0.0
  9
$ANGDIR
 70
     0
  9
$PDMODE
 70
     0
  9
$PDSIZE
 40
0.0
  9
$PLINEWID
 40
0.0
  9
$SPLFRAME
 70
     0
  9
$SPLINETYPE
 70
     6
  9
$SPLINESEGS
 70
     8
  9
$HANDSEED
  5
2CA
  9
$SURFTAB1
 70
     6
  9
$SURFTAB2
 70
     6
  9
$SURFTYPE
 70
     6
  9
$SURFU
 70
     6
  9
$SURFV
 70
     6
  9
$UCSBASE
  2

  9
$UCSNAME
  2

  9
$UCSORG
 10
0.0
 20
0.0
 30
0.0
  9
$UCSXDIR
 10
1.0
 20
0.0
 30
0.0
  9
$UCSYDIR
 10
0.0
 20
1.0
 30
0.0
  9
$UCSORTHOREF
  2

  9
$UCSORTHOVIEW
 70
     0
  9
$UCSORGTOP
 10
0.0
 20
0.0
 30
0.0
  9
$UCSORGBOTTOM
 10
0.0
 20
0.0
 30
0.0
  9
$UCSORGLEFT
 10
0.0
 20
0.0
 30
0.0
  9
$UCSORGRIGHT
 10
0.0
 20
0.0
 30
0.0
  9
$UCSORGFRONT
 10
0.0
 20
0.0
 30
0.0
  9
$UCSORGBACK
 10
0.0
 20
0.0
 30
0.0
  9
$PUCSBASE
  2

  9
$PUCSNAME
  2

  9
$PUCSORG
 10
0.0
 20
0.0
 30
0.0
  9
$PUCSXDIR
 10
1.0
 20
0.0
 30
0.0
  9
$PUCSYDIR
 10
0.0
 20
1.0
 30
0.0
  9
$PUCSORTHOREF
  2

  9
$PUCSORTHOVIEW
 70
     0
  9
$PUCSORGTOP
 10
0.0
 20
0.0
 30
0.0
  9
$PUCSORGBOTTOM
 10
0.0
 20
0.0
 30
0.0
  9
$PUCSORGLEFT
 10
0.0
 20
0.0
 30
0.0
  9
$PUCSORGRIGHT
 10
0.0
 20
0.0
 30
0.0
  9
$PUCSORGFRONT
 10
0.0
 20
0.0
 30
0.0
  9
$PUCSORGBACK
 10
0.0
 20
0.0
 30
0.0
  9
$USERI1
 70
     0
  9
$USERI2
 70
     0
  9
$USERI3
 70
     0
  9
$USERI4
 70
     0
  9
$USERI5
 70
     0
  9
$USERR1
 40
0.0
  9
$USERR2
 40
0.0
  9
$USERR3
 40
0.0
  9
$USERR4
 40
0.0
  9
$USERR5
 40
0.0
  9
$WORLDVIEW
 70
     1
  9
$SHADEDGE
 70
     3
  9
$SHADEDIF
 70
    70
  9
$TILEMODE
 70
     1
  9
$MAXACTVP
 70
    48
  9
$PINSBASE
 10
0.0
 20
0.0
 30
0.0
  9
$PLIMCHECK
 70
     0
  9
$PEXTMIN
 10
1.000000000000000E+20
 20
1.000000000000000E+20
 30
1.000000000000000E+20
  9
$PEXTMAX
 10
-1.000000000000000E+20
 20
-1.000000000000000E+20
 30
-1.000000000000000E+20
  9
$PLIMMIN
 10
0.0
 20
0.0
  9
$PLIMMAX
 10
420.0
 20
297.0
  9
$UNITMODE
 70
     0
  9
$VISRETAIN
 70
     1
  9
$PLINEGEN
 70
     0
  9
$PSLTSCALE
 70
     1
  9
$TREEDEPTH
 70
  3020
  9
$CMLSTYLE
  2
STANDARD
  9
$CMLJUST
 70
     0
  9
$CMLSCALE
 40
20.0
  9
$PROXYGRAPHICS
 70
     1
  9
$MEASUREMENT
 70
     1
  9
$CELWEIGHT
370
    -1
  9
$ENDCAPS
280
     0
  9
$JOINSTYLE
280
     0
  9
$LWDISPLAY
290
     0
  9
$INSUNITS
 70
     0
  9
$HYPERLINKBASE
  1

  9
$STYLESHEET
  1

  9
$XEDIT
290
     1
  9
$CEPSNTYPE
380
     0
  9
$PSTYLEMODE
290
     1
  9
$FINGERPRINTGUID
  2
{CF5D4385-718D-487A-B742-8CD86AD581D1}
  9
$VERSIONGUID
  2
{80C9A13B-162D-418D-908D-6D0369C0D1FE}
  9
$EXTNAMES
290
     1
  9
$PSVPSCALE
 40
0.0
  9
$OLESTARTUP
290
     0
  9
$SORTENTS
280
   127
  9
$INDEXCTL
280
     0
  9
$HIDETEXT
280
     1
  9
$XCLIPFRAME
280
     0
  9
$HALOGAP
280
     0
  9
$OBSCOLOR
 70
   257
  9
$OBSLTYPE
280
     0
  9
$INTERSECTIONDISPLAY
280
     0
  9
$INTERSECTIONCOLOR
 70
   257
  9
$DIMASSOC
280
     1
  9
$PROJECTNAME
  1

  9
$CAMERADISPLAY
290
     0
  9
$LENSLENGTH
 40
50.0
  9
$CAMERAHEIGHT
 40
0.0
  9
$STEPSPERSEC
 40
2.0
  9
$STEPSIZE
 40
6.0
  9
$3DDWFPREC
 40
2.0
  9
$PSOLWIDTH
 40
0.25
  9
$PSOLHEIGHT
 40
4.0
  9
$LOFTANG1
 40
1.570796326794896
  9
$LOFTANG2
 40
1.570796326794896
  9
$LOFTMAG1
 40
0.0
  9
$LOFTMAG2
 40
0.0
  9
$LOFTPARAM
 70
     7
  9
$LOFTNORMALS
280
     1
  9
$LATITUDE
 40
37.795
  9
$LONGITUDE
 40
-122.394
  9
$NORTHDIRECTION
 40
0.0
  9
$TIMEZONE
 70
 -8000
  9
$LIGHTGLYPHDISPLAY
280
     1
  9
$TILEMODELIGHTSYNCH
280
     1
  9
$CMATERIAL
347
3A
  9
$SOLIDHIST
280
     1
  9
$SHOWHIST
280
     1
  9
$DWFFRAME
280
     2
  9
$DGNFRAME
280
     0
  9
$REALWORLDSCALE
290
     1
  9
$INTERFERECOLOR
 62
     1
  9
$INTERFEREOBJVS
345
54
  9
$INTERFEREVPVS
346
55
  9
$CSHADOW
280
     0
  9
$SHADOWPLANELOCATION
 40
0.0
  0
ENDSEC
  0
SECTION
  2
CLASSES
  0
CLASS
  1
ACDBDICTIONARYWDFLT
  2
AcDbDictionaryWithDefault
  3
ObjectDBX Classes
 90
        0
 91
        1
280
     0
281
     0
  0
CLASS
  1
MATERIAL
  2
AcDbMaterial
  3
ObjectDBX Classes
 90
     1153
 91
        3
280
     0
281
     0
  0
CLASS
  1
VISUALSTYLE
  2
AcDbVisualStyle
  3
ObjectDBX Classes
 90
     4095
 91
        3
280
     0
281
     0
  0
CLASS
  1
TABLESTYLE
  2
AcDbTableStyle
  3
ObjectDBX Classes
 90
     4095
 91
        1
280
     0
281
     0
  0
CLASS
  1
SCALE
  2
AcDbScale
  3
ObjectDBX Classes
 90
     1153
 91
       33
280
     0
281
     0
  0
CLASS
  1
MLEADERSTYLE
  2
AcDbMLeaderStyle
  3
ACDB_MLEADERSTYLE_CLASS
 90
     4095
 91
        0
280
     0
281
     0
  0
CLASS
  1
SORTENTSTABLE
  2
AcDbSortentsTable
  3
ObjectDBX Classes
 90
        0
 91
        4
280
     0
281
     0
  0
CLASS
  1
CELLSTYLEMAP
  2
AcDbCellStyleMap
  3
ObjectDBX Classes
 90
     1152
 91
        1
280
     0
281
     0
  0
CLASS
  1
DICTIONARYVAR
  2
AcDbDictionaryVar
  3
ObjectDBX Classes
 90
        0
 91
        7
280
     0
281
     0
  0
CLASS
  1
AEC_REFEDIT_STATUS_TRACKER
  2
AecDbRefEditStatusTracker
  3
AecArchBase60|Product Desc: Autodesk Architectural Desktop 2007 |Company: Autodesk,Inc. |WEB Address: www.autodesk.com
 90
      129
 91
        0
280
     0
281
     0
  0
CLASS
  1
NPOCOLLECTION
  2
AcDbImpNonPersistentObjectsCollection
  3
ObjectDBX Classes
 90
     1153
 91
        0
280
     0
281
     0
  0
ENDSEC
  0
SECTION
  2
TABLES
  0
TABLE
  2
VPORT
  5
2A
102
{ACAD_XDICTIONARY
360
2E
102
}
330
0
100
AcDbSymbolTable
 70
     1
  0
VPORT
  5
2B
330
2A
100
AcDbSymbolTableRecord
100
AcDbViewportTableRecord
  2
*Active
 70
     0
 10
0.0
 20
0.0
 11
1.0
 21
1.0
 12
277.1290734519859
 22
198.9113054361377
 13
0.0
 23
0.0
 14
10.0
 24
10.0
 15
100.0
 25
100.0
 16
0.0
 26
0.0
 36
1.0
 17
0.0
 27
0.0
 37
0.0
 40
442.0812535142217
 41
1.937738246505718
 42
50.0
 43
0.0
 44
0.0
 50
0.0
 51
0.0
 71
     0
 72
  1000
 73
     1
 74
     0
 75
     0
 76
     0
 77
     0
 78
     0
281
     0
 65
     1
110
0.0
120
0.0
130
0.0
111
1.0
121
0.0
131
0.0
112
0.0
122
1.0
132
0.0
 79
     0
146
0.0
348
2C
 60
     3
 61
     5
292
     1
282
     1
141
0.0
142
0.0
 63
   250
421
  3355443
  0
ENDTAB
  0
TABLE
  2
LTYPE
  5
25
330
0
100
AcDbSymbolTable
 70
     4
  0
LTYPE
  5
26
330
25
100
AcDbSymbolTableRecord
100
AcDbLinetypeTableRecord
  2
BYBLOCK
 70
     0
  3

 72
    65
 73
     0
 40
0.0
  0
LTYPE
  5
27
330
25
100
AcDbSymbolTableRecord
100
AcDbLinetypeTableRecord
  2
BYLAYER
 70
     0
  3

 72
    65
 73
     0
 40
0.0
  0
LTYPE
  5
15
330
25
100
AcDbSymbolTableRecord
100
AcDbLinetypeTableRecord
  2
CONTINUOUS
 70
     0
  3
Solid line
 72
    65
 73
     0
 40
0.0
  0
LTYPE
  5
D1
330
25
100
AcDbSymbolTableRecord
100
AcDbLinetypeTableRecord
  2
AUSGEZOGEN
 70
     0
  3
Ausgezogene Linie
 72
    65
 73
     0
 40
0.0
  0
LTYPE
  5
174
330
25
100
AcDbSymbolTableRecord
100
AcDbLinetypeTableRecord
  2
STRICHPUNKT
 70
     0
  3
Strichpunkt __ . __ . __ . __ . __ . __ . __ . 
 72
    65
 73
     4
 40
1.0
 49
0.5
 74
     0
 49
-0.25
 74
     0
 49
0.0
 74
     0
 49
-0.25
 74
     0
  0
LTYPE
  5
126
330
25
100
AcDbSymbolTableRecord
100
AcDbLinetypeTableRecord
  2
VERDECKT
 70
     0
  3
Verdeckt __ __ __ __ __ __ __ __ __ __ __ __ __
 72
    65
 73
     2
 40
0.375
 49
0.25
 74
     0
 49
-0.125
 74
     0
  0
ENDTAB
  0
TABLE
  2
LAYER
  5
1F
102
{ACAD_XDICTIONARY
360
20
102
}
330
0
100
AcDbSymbolTable
 70
    11
  0
LAYER
  5
6
102
{ACAD_XDICTIONARY
360
7
102
}
330
1F
100
AcDbSymbolTableRecord
100
AcDbLayerTableRecord
  2
0
 70
     0
 62
     7
  6
CONTINUOUS
370
    -3
390
9
347
C
  0
LAYER
  5
8E
102
{ACAD_XDICTIONARY
360
8F
102
}
330
1F
100
AcDbSymbolTableRecord
100
AcDbLayerTableRecord
  2
01-99
 70
     0
 62
     2
  6
CONTINUOUS
370
    -3
390
9
347
C
  0
LAYER
  5
CE
102
{ACAD_XDICTIONARY
360
CF
102
}
330
1F
100
AcDbSymbolTableRecord
100
AcDbLayerTableRecord
  2
06-99
 70
     0
 62
     1
  6
AUSGEZOGEN
370
    -3
390
9
347
C
  0
LAYER
  5
B8
102
{ACAD_XDICTIONARY
360
B9
102
}
330
1F
100
AcDbSymbolTableRecord
100
AcDbLayerTableRecord
  2
08-99
 70
     0
 62
     7
  6
CONTINUOUS
370
    -3
390
9
347
C
  0
LAYER
  5
1B6
102
{ACAD_XDICTIONARY
360
1B7
102
}
330
1F
100
AcDbSymbolTableRecord
100
AcDbLayerTableRecord
  2
01-01
 70
     0
 62
     2
  6
CONTINUOUS
370
    -3
390
9
347
C
  0
LAYER
  5
171
102
{ACAD_XDICTIONARY
360
172
102
}
330
1F
100
AcDbSymbolTableRecord
100
AcDbLayerTableRecord
  2
05-01
 70
     0
 62
     1
  6
STRICHPUNKT
370
    -3
390
9
347
C
  0
LAYER
  5
123
102
{ACAD_XDICTIONARY
360
124
102
}
330
1F
100
AcDbSymbolTableRecord
100
AcDbLayerTableRecord
  2
03-01
 70
     0
 62
     3
  6
VERDECKT
370
    -3
390
9
347
C
  0
LAYER
  5
113
102
{ACAD_XDICTIONARY
360
114
102
}
330
1F
100
AcDbSymbolTableRecord
100
AcDbLayerTableRecord
  2
09-01
 70
     0
 62
     7
  6
CONTINUOUS
370
    -3
390
9
347
C
  0
LAYER
  5
83
330
1F
100
AcDbSymbolTableRecord
100
AcDbLayerTableRecord
  2
Defpoints
 70
     0
 62
     7
  6
CONTINUOUS
290
     0
370
    -3
390
9
347
C
  0
LAYER
  5
93
102
{ACAD_XDICTIONARY
360
94
102
}
330
1F
100
AcDbSymbolTableRecord
100
AcDbLayerTableRecord
  2
02-01
 70
     0
 62
     1
  6
CONTINUOUS
370
    -3
390
9
347
C
  0
LAYER
  5
4E
102
{ACAD_XDICTIONARY
360
4F
102
}
330
1F
100
AcDbSymbolTableRecord
100
AcDbLayerTableRecord
  2
10-01
 70
     0
 62
     4
  6
CONTINUOUS
370
    -3
390
9
347
C
  0
ENDTAB
  0
TABLE
  2
STYLE
  5
22
330
0
100
AcDbSymbolTable
 70
     3
  0
STYLE
  5
23
330
22
100
AcDbSymbolTableRecord
100
AcDbTextStyleTableRecord
  2
STANDARD
 70
     0
 40
0.0
 41
1.0
 50
0.0
 71
     0
 42
7.0
  3
txt
  4

  0
STYLE
  5
BB
330
22
100
AcDbSymbolTableRecord
100
AcDbTextStyleTableRecord
  2
ROMANS8
 70
     0
 40
0.0
 41
1.0
 50
0.0
 71
     0
 42
2.5
  3
ROMANS8
  4

  0
STYLE
  5
E2
330
22
100
AcDbSymbolTableRecord
100
AcDbTextStyleTableRecord
  2
ROMAND8
 70
     0
 40
0.0
 41
1.0
 50
0.0
 71
     0
 42
3.5
  3
ROMAND8
  4

  0
ENDTAB
  0
TABLE
  2
VIEW
  5
28
330
0
100
AcDbSymbolTable
 70
     0
  0
ENDTAB
  0
TABLE
  2
UCS
  5
29
330
0
100
AcDbSymbolTable
 70
     0
  0
ENDTAB
  0
TABLE
  2
APPID
  5
2F
330
0
100
AcDbSymbolTable
 70
     4
  0
APPID
  5
30
330
2F
100
AcDbSymbolTableRecord
100
AcDbRegAppTableRecord
  2
ACAD
 70
     0
  0
APPID
  5
33
330
2F
100
AcDbSymbolTableRecord
100
AcDbRegAppTableRecord
  2
ACAD_DSTYLE_DIMJOGGED_JOGANGLE_SYMBOL
 70
     0
  0
APPID
  5
34
330
2F
100
AcDbSymbolTableRecord
100
AcDbRegAppTableRecord
  2
ACAD_DSTYLE_DIMJAG
 70
     0
  0
APPID
  5
35
330
2F
100
AcDbSymbolTableRecord
100
AcDbRegAppTableRecord
  2
ACAD_DSTYLE_DIMTALN
 70
     0
  0
ENDTAB
  0
TABLE
  2
DIMSTYLE
  5
31
330
0
100
AcDbSymbolTable
 70
     2
100
AcDbDimStyleTable
 71
     1
340
32
  0
DIMSTYLE
105
32
102
{ACAD_REACTORS
330
24C
102
}
330
31
100
AcDbSymbolTableRecord
100
AcDbDimStyleTableRecord
  2
Wagner
 70
     0
 41
2.5
 42
1.0
 43
10.0
 44
1.0
 73
     0
 74
     0
 77
     1
 78
     8
 79
     2
140
2.5
141
0.0
143
0.03937007874016
147
1.0
171
     3
172
     1
176
     4
177
     4
178
     1
179
     2
271
     8
272
     8
274
     3
283
     0
284
     8
340
23
1001
ACAD_DSTYLE_DIMJOGGED_JOGANGLE_SYMBOL
1070
   384
1040
0.7853981633974483
1001
ACAD_DSTYLE_DIMJAG
1070
   388
1040
1.5
1001
ACAD_DSTYLE_DIMTALN
1070
   392
1070
     0
  0
DIMSTYLE
105
87
102
{ACAD_REACTORS
330
112
330
127
330
134
330
141
330
14E
330
15B
330
175
330
182
330
199
330
1A6
330
1C4
330
1D1
330
1FD
330
20A
330
22A
330
258
330
279
330
28D
330
77
102
}
330
31
100
AcDbSymbolTableRecord
100
AcDbDimStyleTableRecord
  2
Wagner$0
 70
     0
 41
2.5
 42
1.0
 43
10.0
 44
1.0
 73
     0
 74
     0
 77
     1
 78
     8
 79
     2
140
2.5
141
0.0
143
0.03937007874016
147
1.0
171
     3
172
     1
174
     1
176
     4
177
     4
178
     1
179
     2
271
     8
272
     8
274
     3
279
     2
283
     0
284
     8
340
23
1001
ACAD_DSTYLE_DIMJOGGED_JOGANGLE_SYMBOL
1070
   384
1040
0.7853981633974483
1001
ACAD_DSTYLE_DIMJAG
1070
   388
1040
1.5
1001
ACAD_DSTYLE_DIMTALN
1070
   392
1070
     0
  0
ENDTAB
  0
TABLE
  2
BLOCK_RECORD
  5
1
330
0
100
AcDbSymbolTable
 70
    21
  0
BLOCK_RECORD
  5
2
102
{ACAD_XDICTIONARY
360
3
102
}
330
1
100
AcDbSymbolTableRecord
100
AcDbBlockTableRecord
  2
*MODEL_SPACE
340
17
 70
     0
280
     1
281
     0
  0
BLOCK_RECORD
  5
1B
330
1
100
AcDbSymbolTableRecord
100
AcDbBlockTableRecord
  2
*PAPER_SPACE
340
1E
 70
     0
280
     1
281
     0
  0
BLOCK_RECORD
  5
28E
330
1
100
AcDbSymbolTableRecord
100
AcDbBlockTableRecord
  2
*D0
340
0
 70
     0
280
     1
281
     0
  0
BLOCK_RECORD
  5
27A
330
1
100
AcDbSymbolTableRecord
100
AcDbBlockTableRecord
  2
*D1
340
0
 70
     0
280
     1
281
     0
  0
BLOCK_RECORD
  5
259
330
1
100
AcDbSymbolTableRecord
100
AcDbBlockTableRecord
  2
*D2
340
0
 70
     0
280
     1
281
     0
  0
BLOCK_RECORD
  5
24D
330
1
100
AcDbSymbolTableRecord
100
AcDbBlockTableRecord
  2
*D3
340
0
 70
     0
280
     1
281
     0
  0
BLOCK_RECORD
  5
22B
330
1
100
AcDbSymbolTableRecord
100
AcDbBlockTableRecord
  2
*D4
340
0
 70
     0
280
     1
281
     0
  0
BLOCK_RECORD
  5
20B
330
1
100
AcDbSymbolTableRecord
100
AcDbBlockTableRecord
  2
*D5
340
0
 70
     0
280
     1
281
     0
  0
BLOCK_RECORD
  5
1FE
330
1
100
AcDbSymbolTableRecord
100
AcDbBlockTableRecord
  2
*D6
340
0
 70
     0
280
     1
281
     0
  0
BLOCK_RECORD
  5
1D2
330
1
100
AcDbSymbolTableRecord
100
AcDbBlockTableRecord
  2
*D7
340
0
 70
     0
280
     1
281
     0
  0
BLOCK_RECORD
  5
1C5
330
1
100
AcDbSymbolTableRecord
100
AcDbBlockTableRecord
  2
*D8
340
0
 70
     0
280
     1
281
     0
  0
BLOCK_RECORD
  5
1A7
330
1
100
AcDbSymbolTableRecord
100
AcDbBlockTableRecord
  2
*D9
340
0
 70
     0
280
     1
281
     0
  0
BLOCK_RECORD
  5
19A
330
1
100
AcDbSymbolTableRecord
100
AcDbBlockTableRecord
  2
*D10
340
0
 70
     0
280
     1
281
     0
  0
BLOCK_RECORD
  5
183
330
1
100
AcDbSymbolTableRecord
100
AcDbBlockTableRecord
  2
*D11
340
0
 70
     0
280
     1
281
     0
  0
BLOCK_RECORD
  5
176
330
1
100
AcDbSymbolTableRecord
100
AcDbBlockTableRecord
  2
*D12
340
0
 70
     0
280
     1
281
     0
  0
BLOCK_RECORD
  5
15C
330
1
100
AcDbSymbolTableRecord
100
AcDbBlockTableRecord
  2
*D13
340
0
 70
     0
280
     1
281
     0
  0
BLOCK_RECORD
  5
14F
330
1
100
AcDbSymbolTableRecord
100
AcDbBlockTableRecord
  2
*D14
340
0
 70
     0
280
     1
281
     0
  0
BLOCK_RECORD
  5
142
330
1
100
AcDbSymbolTableRecord
100
AcDbBlockTableRecord
  2
*D15
340
0
 70
     0
280
     1
281
     0
  0
BLOCK_RECORD
  5
135
330
1
100
AcDbSymbolTableRecord
100
AcDbBlockTableRecord
  2
*D16
340
0
 70
     0
280
     1
281
     0
  0
BLOCK_RECORD
  5
128
330
1
100
AcDbSymbolTableRecord
100
AcDbBlockTableRecord
  2
*D17
340
0
 70
     0
280
     1
281
     0
  0
BLOCK_RECORD
  5
116
330
1
100
AcDbSymbolTableRecord
100
AcDbBlockTableRecord
  2
*D18
340
0
 70
     0
280
     1
281
     0
  0
BLOCK_RECORD
  5
89
102
{ACAD_XDICTIONARY
360
8A
102
}
330
1
100
AcDbSymbolTableRecord
100
AcDbBlockTableRecord
  2
DIN A4 Quer
340
0
102
{BLKREFS
331
88
102
}
 70
     4
280
     1
281
     0
  0
BLOCK_RECORD
  5
78
330
1
100
AcDbSymbolTableRecord
100
AcDbBlockTableRecord
  2
*D20
340
0
 70
     0
280
     1
281
     0
  0
ENDTAB
  0
ENDSEC
  0
SECTION
  2
BLOCKS
  0
BLOCK
  5
5
330
2
100
AcDbEntity
  8
0
100
AcDbBlockBegin
  2
*MODEL_SPACE
 70
     0
 10
0.0
 20
0.0
 30
0.0
  3
*MODEL_SPACE
  1

  0
ENDBLK
  5
16
330
2
100
AcDbEntity
  8
0
100
AcDbBlockEnd
  0
BLOCK
  5
1C
330
1B
100
AcDbEntity
 67
     1
  8
0
100
AcDbBlockBegin
  2
*PAPER_SPACE
 70
     0
 10
0.0
 20
0.0
 30
0.0
  3
*PAPER_SPACE
  1

  0
ENDBLK
  5
1D
330
1B
100
AcDbEntity
 67
     1
  8
0
100
AcDbBlockEnd
  0
BLOCK
  5
28F
330
28E
100
AcDbEntity
  8
0
100
AcDbBlockBegin
  2
*D0
 70
     1
 10
0.0
 20
0.0
 30
0.0
  3
*D0
  1

  0
LINE
  5
290
330
28E
100
AcDbEntity
  8
09-01
 62
     4
370
    -2
100
AcDbLine
 10
263.6975349913492
 20
261.5391398016208
 30
0.0
 11
321.3716465614804
 21
261.5391398016208
 31
0.0
  0
LINE
  5
291
330
28E
100
AcDbEntity
  8
09-01
 62
     4
370
    -2
100
AcDbLine
 10
263.6975349913492
 20
219.2391398016207
 30
0.0
 11
321.3716465614804
 21
219.2391398016207
 31
0.0
  0
LINE
  5
292
330
28E
100
AcDbEntity
  8
09-01
 62
     4
370
    -2
100
AcDbLine
 10
319.3716465614804
 20
256.5391398016207
 30
0.0
 11
319.3716465614804
 21
224.2391398016207
 31
0.0
  0
SOLID
  5
293
330
28E
100
AcDbEntity
  8
09-01
 62
     4
100
AcDbTrace
 10
318.538313228147
 20
256.5391398016207
 30
0.0
 11
320.2049798948137
 21
256.5391398016207
 31
0.0
 12
319.3716465614804
 22
261.5391398016208
 32
0.0
 13
319.3716465614804
 23
261.5391398016208
 33
0.0
  0
SOLID
  5
294
330
28E
100
AcDbEntity
  8
09-01
 62
     4
100
AcDbTrace
 10
318.538313228147
 20
224.2391398016207
 30
0.0
 11
320.2049798948137
 21
224.2391398016207
 31
0.0
 12
319.3716465614804
 22
219.2391398016207
 32
0.0
 13
319.3716465614804
 23
219.2391398016207
 33
0.0
  0
MTEXT
  5
295
330
28E
100
AcDbEntity
  8
09-01
 62
     1
100
AcDbMText
 10
314.8716465614803
 20
240.3891398016208
 30
0.0
 40
5.0
 41
0.0
 46
0.0
 71
     5
 72
     1
  1
42.3
 11
0.0000000000000001
 21
1.0
 31
0.0
 73
     1
 44
1.0
  0
POINT
  5
296
330
28E
100
AcDbEntity
  8
Defpoints
 62
     0
100
AcDbPoint
 10
261.6975349913492
 20
261.5391398016208
 30
0.0
  0
POINT
  5
297
330
28E
100
AcDbEntity
  8
Defpoints
 62
     0
100
AcDbPoint
 10
261.6975349913492
 20
219.2391398016207
 30
0.0
  0
POINT
  5
298
330
28E
100
AcDbEntity
  8
Defpoints
 62
     0
100
AcDbPoint
 10
319.3716465614804
 20
219.2391398016207
 30
0.0
  0
ENDBLK
  5
299
330
28E
100
AcDbEntity
  8
0
100
AcDbBlockEnd
  0
BLOCK
  5
27B
330
27A
100
AcDbEntity
  8
0
100
AcDbBlockBegin
  2
*D1
 70
     1
 10
0.0
 20
0.0
 30
0.0
  3
*D1
  1

  0
LINE
  5
27C
330
27A
100
AcDbEntity
  8
09-01
 62
     4
370
    -2
100
AcDbLine
 10
206.5612736573636
 20
246.3891398016207
 30
0.0
 11
201.7667256696353
 21
246.3891398016207
 31
0.0
  0
LINE
  5
27D
330
27A
100
AcDbEntity
  8
09-01
 62
     4
370
    -2
100
AcDbLine
 10
206.5612736573636
 20
234.3891398016207
 30
0.0
 11
201.7667256696353
 21
234.3891398016207
 31
0.0
  0
LINE
  5
27E
330
27A
100
AcDbEntity
  8
09-01
 62
     4
370
    -2
100
AcDbLine
 10
203.7667256696353
 20
251.3891398016207
 30
0.0
 11
203.7667256696353
 21
256.3891398016207
 31
0.0
  0
LINE
  5
27F
330
27A
100
AcDbEntity
  8
09-01
 62
     4
370
    -2
100
AcDbLine
 10
203.7667256696353
 20
229.3891398016207
 30
0.0
 11
203.7667256696353
 21
224.3891398016207
 31
0.0
  0
MTEXT
  5
280
330
27A
100
AcDbEntity
  8
09-01
 62
     1
100
AcDbMText
 10
197.9534512948582
 20
258.9364564092438
 30
0.0
 40
5.0
 41
0.0
 46
0.0
 71
     5
 72
     1
  1
%%C12
 11
0.0000000000000001
 21
1.0
 31
0.0
 73
     1
 44
1.0
  0
LINE
  5
281
330
27A
100
AcDbEntity
  8
09-01
 62
     4
370
    -2
100
AcDbLine
 10
203.7667256696353
 20
246.3891398016207
 30
0.0
 11
203.7667256696353
 21
234.3891398016207
 31
0.0
  0
SOLID
  5
282
330
27A
100
AcDbEntity
  8
09-01
 62
     4
100
AcDbTrace
 10
202.933392336302
 20
251.3891398016207
 30
0.0
 11
204.6000590029687
 21
251.3891398016207
 31
0.0
 12
203.7667256696353
 22
246.3891398016207
 32
0.0
 13
203.7667256696353
 23
246.3891398016207
 33
0.0
  0
SOLID
  5
283
330
27A
100
AcDbEntity
  8
09-01
 62
     4
100
AcDbTrace
 10
202.933392336302
 20
229.3891398016207
 30
0.0
 11
204.6000590029687
 21
229.3891398016207
 31
0.0
 12
203.7667256696353
 22
234.3891398016207
 32
0.0
 13
203.7667256696353
 23
234.3891398016207
 33
0.0
  0
POINT
  5
284
330
27A
100
AcDbEntity
  8
Defpoints
 62
     0
100
AcDbPoint
 10
208.5612736573636
 20
246.3891398016207
 30
0.0
  0
POINT
  5
285
330
27A
100
AcDbEntity
  8
Defpoints
 62
     0
100
AcDbPoint
 10
208.5612736573636
 20
234.3891398016207
 30
0.0
  0
POINT
  5
286
330
27A
100
AcDbEntity
  8
Defpoints
 62
     0
100
AcDbPoint
 10
203.7667256696353
 20
234.3891398016207
 30
0.0
  0
ENDBLK
  5
287
330
27A
100
AcDbEntity
  8
0
100
AcDbBlockEnd
  0
BLOCK
  5
25A
330
259
100
AcDbEntity
  8
0
100
AcDbBlockBegin
  2
*D2
 70
     1
 10
0.0
 20
0.0
 30
0.0
  3
*D2
  1

  0
LINE
  5
25B
330
259
100
AcDbEntity
  8
09-01
 62
     4
370
    -2
100
AcDbLine
 10
462.397558106349
 20
245.8988824175229
 30
0.0
 11
462.397558106349
 21
263.4800678205317
 31
0.0
  0
LINE
  5
25C
330
259
100
AcDbEntity
  8
09-01
 62
     4
370
    -2
100
AcDbLine
 10
447.397558106349
 20
246.8988824175228
 30
0.0
 11
447.397558106349
 21
263.4800678205317
 31
0.0
  0
LINE
  5
25D
330
259
100
AcDbEntity
  8
09-01
 62
     4
370
    -2
100
AcDbLine
 10
457.397558106349
 20
261.4800678205317
 30
0.0
 11
452.397558106349
 21
261.4800678205317
 31
0.0
  0
SOLID
  5
25E
330
259
100
AcDbEntity
  8
09-01
 62
     4
100
AcDbTrace
 10
457.397558106349
 20
262.3134011538651
 30
0.0
 11
457.397558106349
 21
260.6467344871985
 31
0.0
 12
462.397558106349
 22
261.4800678205317
 32
0.0
 13
462.397558106349
 23
261.4800678205317
 33
0.0
  0
SOLID
  5
25F
330
259
100
AcDbEntity
  8
09-01
 62
     4
100
AcDbTrace
 10
452.397558106349
 20
262.3134011538651
 30
0.0
 11
452.397558106349
 21
260.6467344871985
 31
0.0
 12
447.397558106349
 22
261.4800678205317
 32
0.0
 13
447.397558106349
 23
261.4800678205317
 33
0.0
  0
MTEXT
  5
260
330
259
100
AcDbEntity
  8
09-01
 62
     1
100
AcDbMText
 10
454.897558106349
 20
265.9800678205318
 30
0.0
 40
5.0
 41
0.0
 46
0.0
 71
     5
 72
     1
  1
15
 73
     1
 44
1.0
  0
POINT
  5
261
330
259
100
AcDbEntity
  8
Defpoints
 62
     0
100
AcDbPoint
 10
462.397558106349
 20
243.8988824175229
 30
0.0
  0
POINT
  5
262
330
259
100
AcDbEntity
  8
Defpoints
 62
     0
100
AcDbPoint
 10
447.397558106349
 20
244.8988824175228
 30
0.0
  0
POINT
  5
263
330
259
100
AcDbEntity
  8
Defpoints
 62
     0
100
AcDbPoint
 10
447.397558106349
 20
261.4800678205317
 30
0.0
  0
ENDBLK
  5
264
330
259
100
AcDbEntity
  8
0
100
AcDbBlockEnd
  0
BLOCK
  5
24E
330
24D
100
AcDbEntity
  8
0
100
AcDbBlockBegin
  2
*D3
 70
     1
 10
0.0
 20
0.0
 30
0.0
  3
*D3
  1

  0
LINE
  5
24F
330
24D
100
AcDbEntity
  8
09-01
 62
     4
370
    -2
100
AcDbLine
 10
431.0804877844884
 20
267.5282443168629
 30
0.0
 11
441.7295231524396
 21
249.8164076858628
 31
0.0
  0
LINE
  5
250
330
24D
100
AcDbEntity
  8
09-01
 62
     4
370
    -2
100
AcDbLine
 10
453.0655930602587
 20
230.9618719173789
 30
0.0
 11
455.641972584763
 21
226.6767501518144
 31
0.0
  0
MTEXT
  5
251
330
24D
100
AcDbEntity
  8
09-01
 62
     1
100
AcDbMText
 10
438.9734252952199
 20
263.133628456199
 30
0.0
 40
5.0
 41
0.0
 46
0.0
 71
     5
 72
     1
  1
∅12
 11
0.5152759049008645
 21
-0.8570243531129062
 31
0.0
 73
     1
 44
1.0
  0
LINE
  5
252
330
24D
100
AcDbEntity
  8
09-01
 62
     4
370
    -2
100
AcDbLine
 10
450.4892135357543
 20
235.2469936829435
 30
0.0
 11
444.3059026769439
 21
245.5312859202983
 31
0.0
  0
SOLID
  5
253
330
24D
100
AcDbEntity
  8
09-01
 62
     4
100
AcDbTrace
 10
453.7797800211861
 20
231.3912685047963
 30
0.0
 11
452.3514060993313
 21
230.5324753299615
 31
0.0
 12
450.4892135357543
 22
235.2469936829435
 32
0.0
 13
450.4892135357543
 23
235.2469936829435
 33
0.0
  0
SOLID
  5
254
330
24D
100
AcDbEntity
  8
09-01
 62
     4
100
AcDbTrace
 10
442.443710113367
 20
250.2458042732802
 30
0.0
 11
441.0153361915122
 21
249.3870110984455
 31
0.0
 12
444.3059026769439
 22
245.5312859202983
 32
0.0
 13
444.3059026769439
 23
245.5312859202983
 33
0.0
  0
POINT
  5
255
330
24D
100
AcDbEntity
  8
Defpoints
 62
     0
100
AcDbPoint
 10
444.3059026769439
 20
245.5312859202983
 30
0.0
  0
POINT
  5
256
330
24D
100
AcDbEntity
  8
Defpoints
 62
     0
100
AcDbPoint
 10
450.4892135357543
 20
235.2469936829435
 30
0.0
  0
ENDBLK
  5
257
330
24D
100
AcDbEntity
  8
0
100
AcDbBlockEnd
  0
BLOCK
  5
22C
330
22B
100
AcDbEntity
  8
0
100
AcDbBlockBegin
  2
*D4
 70
     1
 10
0.0
 20
0.0
 30
0.0
  3
*D4
  1

  0
LINE
  5
22D
330
22B
100
AcDbEntity
  8
09-01
 62
     4
370
    -2
100
AcDbLine
 10
119.6975349913492
 20
246.3891398016208
 30
0.0
 11
69.63614867426376
 21
246.3891398016208
 31
0.0
  0
LINE
  5
22E
330
22B
100
AcDbEntity
  8
09-01
 62
     4
370
    -2
100
AcDbLine
 10
119.6975349913492
 20
153.3891398016207
 30
0.0
 11
69.63614867426374
 21
153.3891398016207
 31
0.0
  0
LINE
  5
22F
330
22B
100
AcDbEntity
  8
09-01
 62
     4
370
    -2
100
AcDbLine
 10
71.63614867426376
 20
241.3891398016208
 30
0.0
 11
71.63614867426374
 21
158.3891398016207
 31
0.0
  0
SOLID
  5
230
330
22B
100
AcDbEntity
  8
09-01
 62
     4
100
AcDbTrace
 10
70.80281534093043
 20
241.3891398016208
 30
0.0
 11
72.46948200759709
 21
241.3891398016208
 31
0.0
 12
71.63614867426376
 22
246.3891398016208
 32
0.0
 13
71.63614867426376
 23
246.3891398016208
 33
0.0
  0
SOLID
  5
231
330
22B
100
AcDbEntity
  8
09-01
 62
     4
100
AcDbTrace
 10
70.80281534093041
 20
158.3891398016207
 30
0.0
 11
72.46948200759707
 21
158.3891398016207
 31
0.0
 12
71.63614867426374
 22
153.3891398016207
 32
0.0
 13
71.63614867426374
 23
153.3891398016207
 33
0.0
  0
MTEXT
  5
232
330
22B
100
AcDbEntity
  8
09-01
 62
     1
100
AcDbMText
 10
67.13614867426372
 20
199.8891398016207
 30
0.0
 40
5.0
 41
0.0
 46
0.0
 71
     5
 72
     1
  1
93
 11
0.0000000000000001
 21
1.0
 31
0.0
 73
     1
 44
1.0
  0
POINT
  5
233
330
22B
100
AcDbEntity
  8
Defpoints
 62
     0
100
AcDbPoint
 10
121.6975349913492
 20
246.3891398016208
 30
0.0
  0
POINT
  5
234
330
22B
100
AcDbEntity
  8
Defpoints
 62
     0
100
AcDbPoint
 10
121.6975349913492
 20
153.3891398016207
 30
0.0
  0
POINT
  5
235
330
22B
100
AcDbEntity
  8
Defpoints
 62
     0
100
AcDbPoint
 10
71.63614867426374
 20
153.3891398016207
 30
0.0
  0
ENDBLK
  5
236
330
22B
100
AcDbEntity
  8
0
100
AcDbBlockEnd
  0
BLOCK
  5
20C
330
20B
100
AcDbEntity
  8
0
100
AcDbBlockBegin
  2
*D5
 70
     1
 10
0.0
 20
0.0
 30
0.0
  3
*D5
  1

  0
LINE
  5
20D
330
20B
100
AcDbEntity
  8
0
 62
     4
370
    -2
100
AcDbLine
 10
101.6975349913492
 20
171.3891398016207
 30
0.0
 11
101.6975349913492
 21
123.6665747856922
 31
0.0
  0
LINE
  5
20E
330
20B
100
AcDbEntity
  8
0
 62
     4
370
    -2
100
AcDbLine
 10
361.6975349913492
 20
152.3891398016207
 30
0.0
 11
361.6975349913492
 21
123.6665747856922
 31
0.0
  0
LINE
  5
20F
330
20B
100
AcDbEntity
  8
0
 62
     4
370
    -2
100
AcDbLine
 10
106.6975349913492
 20
125.6665747856922
 30
0.0
 11
356.6975349913493
 21
125.6665747856922
 31
0.0
  0
SOLID
  5
210
330
20B
100
AcDbEntity
  8
0
 62
     4
100
AcDbTrace
 10
106.6975349913492
 20
126.4999081190255
 30
0.0
 11
106.6975349913492
 21
124.8332414523588
 31
0.0
 12
101.6975349913492
 22
125.6665747856922
 32
0.0
 13
101.6975349913492
 23
125.6665747856922
 33
0.0
  0
SOLID
  5
211
330
20B
100
AcDbEntity
  8
0
 62
     4
100
AcDbTrace
 10
356.6975349913493
 20
126.4999081190255
 30
0.0
 11
356.6975349913493
 21
124.8332414523588
 31
0.0
 12
361.6975349913492
 22
125.6665747856922
 32
0.0
 13
361.6975349913492
 23
125.6665747856922
 33
0.0
  0
MTEXT
  5
212
330
20B
100
AcDbEntity
  8
0
 62
     1
100
AcDbMText
 10
231.6975349913493
 20
130.1665747856922
 30
0.0
 40
5.0
 41
0.0
 46
0.0
 71
     5
 72
     1
  1
260
 73
     1
 44
1.0
  0
POINT
  5
213
330
20B
100
AcDbEntity
  8
Defpoints
 62
     0
100
AcDbPoint
 10
101.6975349913492
 20
173.3891398016207
 30
0.0
  0
POINT
  5
214
330
20B
100
AcDbEntity
  8
Defpoints
 62
     0
100
AcDbPoint
 10
361.6975349913492
 20
154.3891398016207
 30
0.0
  0
POINT
  5
215
330
20B
100
AcDbEntity
  8
Defpoints
 62
     0
100
AcDbPoint
 10
361.6975349913492
 20
125.6665747856922
 30
0.0
  0
ENDBLK
  5
216
330
20B
100
AcDbEntity
  8
0
100
AcDbBlockEnd
  0
BLOCK
  5
1FF
330
1FE
100
AcDbEntity
  8
0
100
AcDbBlockBegin
  2
*D6
 70
     1
 10
0.0
 20
0.0
 30
0.0
  3
*D6
  1

  0
LINE
  5
200
330
1FE
100
AcDbEntity
  8
09-01
 62
     4
370
    -2
100
AcDbLine
 10
101.6975349913492
 20
228.3891398016207
 30
0.0
 11
101.6975349913492
 21
276.9230388619472
 31
0.0
  0
LINE
  5
201
330
1FE
100
AcDbEntity
  8
09-01
 62
     4
370
    -2
100
AcDbLine
 10
301.6975349913492
 20
242.3891398016207
 30
0.0
 11
301.6975349913492
 21
276.9230388619472
 31
0.0
  0
LINE
  5
202
330
1FE
100
AcDbEntity
  8
09-01
 62
     4
370
    -2
100
AcDbLine
 10
106.6975349913492
 20
274.9230388619472
 30
0.0
 11
296.6975349913493
 21
274.9230388619472
 31
0.0
  0
SOLID
  5
203
330
1FE
100
AcDbEntity
  8
09-01
 62
     4
100
AcDbTrace
 10
106.6975349913492
 20
275.7563721952806
 30
0.0
 11
106.6975349913492
 21
274.089705528614
 31
0.0
 12
101.6975349913492
 22
274.9230388619472
 32
0.0
 13
101.6975349913492
 23
274.9230388619472
 33
0.0
  0
SOLID
  5
204
330
1FE
100
AcDbEntity
  8
09-01
 62
     4
100
AcDbTrace
 10
296.6975349913493
 20
275.7563721952806
 30
0.0
 11
296.6975349913493
 21
274.089705528614
 31
0.0
 12
301.6975349913492
 22
274.9230388619472
 32
0.0
 13
301.6975349913492
 23
274.9230388619472
 33
0.0
  0
MTEXT
  5
205
330
1FE
100
AcDbEntity
  8
09-01
 62
     1
100
AcDbMText
 10
201.6975349913492
 20
279.4230388619472
 30
0.0
 40
5.0
 41
0.0
 46
0.0
 71
     5
 72
     1
  1
200
 73
     1
 44
1.0
  0
POINT
  5
206
330
1FE
100
AcDbEntity
  8
Defpoints
 62
     0
100
AcDbPoint
 10
101.6975349913492
 20
226.3891398016207
 30
0.0
  0
POINT
  5
207
330
1FE
100
AcDbEntity
  8
Defpoints
 62
     0
100
AcDbPoint
 10
301.6975349913492
 20
240.3891398016207
 30
0.0
  0
POINT
  5
208
330
1FE
100
AcDbEntity
  8
Defpoints
 62
     0
100
AcDbPoint
 10
301.6975349913492
 20
274.9230388619472
 30
0.0
  0
ENDBLK
  5
209
330
1FE
100
AcDbEntity
  8
0
100
AcDbBlockEnd
  0
BLOCK
  5
1D3
330
1D2
100
AcDbEntity
  8
0
100
AcDbBlockBegin
  2
*D7
 70
     1
 10
0.0
 20
0.0
 30
0.0
  3
*D7
  1

  0
LINE
  5
1D4
330
1D2
100
AcDbEntity
  8
09-01
 62
     4
370
    -2
100
AcDbLine
 10
236.6975349913492
 20
173.3891398016206
 30
0.0
 11
236.6975349913492
 21
186.1809775487254
 31
0.0
  0
LINE
  5
1D5
330
1D2
100
AcDbEntity
  8
09-01
 62
     4
370
    -2
100
AcDbLine
 10
356.6975349913493
 20
173.3891398016206
 30
0.0
 11
356.6975349913493
 21
186.1809775487254
 31
0.0
  0
LINE
  5
1D6
330
1D2
100
AcDbEntity
  8
09-01
 62
     4
370
    -2
100
AcDbLine
 10
241.6975349913492
 20
184.1809775487254
 30
0.0
 11
351.6975349913492
 21
184.1809775487254
 31
0.0
  0
SOLID
  5
1D7
330
1D2
100
AcDbEntity
  8
09-01
 62
     4
100
AcDbTrace
 10
241.6975349913492
 20
185.0143108820588
 30
0.0
 11
241.6975349913492
 21
183.3476442153921
 31
0.0
 12
236.6975349913492
 22
184.1809775487254
 32
0.0
 13
236.6975349913492
 23
184.1809775487254
 33
0.0
  0
SOLID
  5
1D8
330
1D2
100
AcDbEntity
  8
09-01
 62
     4
100
AcDbTrace
 10
351.6975349913492
 20
185.0143108820588
 30
0.0
 11
351.6975349913492
 21
183.3476442153921
 31
0.0
 12
356.6975349913493
 22
184.1809775487254
 32
0.0
 13
356.6975349913493
 23
184.1809775487254
 33
0.0
  0
MTEXT
  5
1D9
330
1D2
100
AcDbEntity
  8
09-01
 62
     1
100
AcDbMText
 10
296.6975349913493
 20
188.6809775487254
 30
0.0
 40
5.0
 41
0.0
 46
0.0
 71
     5
 72
     1
  1
120
 73
     1
 44
1.0
  0
POINT
  5
1DA
330
1D2
100
AcDbEntity
  8
Defpoints
 62
     0
100
AcDbPoint
 10
236.6975349913492
 20
171.3891398016206
 30
0.0
  0
POINT
  5
1DB
330
1D2
100
AcDbEntity
  8
Defpoints
 62
     0
100
AcDbPoint
 10
356.6975349913493
 20
171.3891398016206
 30
0.0
  0
POINT
  5
1DC
330
1D2
100
AcDbEntity
  8
Defpoints
 62
     0
100
AcDbPoint
 10
356.6975349913493
 20
184.1809775487254
 30
0.0
  0
ENDBLK
  5
1DD
330
1D2
100
AcDbEntity
  8
0
100
AcDbBlockEnd
  0
BLOCK
  5
1C6
330
1C5
100
AcDbEntity
  8
0
100
AcDbBlockBegin
  2
*D8
 70
     1
 10
0.0
 20
0.0
 30
0.0
  3
*D8
  1

  0
LINE
  5
1C7
330
1C5
100
AcDbEntity
  8
09-01
 62
     4
370
    -2
100
AcDbLine
 10
153.6975349913492
 20
209.8891398016207
 30
0.0
 11
153.6975349913492
 21
202.8682262885022
 31
0.0
  0
LINE
  5
1C8
330
1C5
100
AcDbEntity
  8
09-01
 62
     4
370
    -2
100
AcDbLine
 10
261.6975349913492
 20
209.8891398016207
 30
0.0
 11
261.6975349913492
 21
202.8682262885022
 31
0.0
  0
LINE
  5
1C9
330
1C5
100
AcDbEntity
  8
09-01
 62
     4
370
    -2
100
AcDbLine
 10
158.6975349913492
 20
204.8682262885022
 30
0.0
 11
256.6975349913493
 21
204.8682262885022
 31
0.0
  0
SOLID
  5
1CA
330
1C5
100
AcDbEntity
  8
09-01
 62
     4
100
AcDbTrace
 10
158.6975349913492
 20
205.7015596218356
 30
0.0
 11
158.6975349913492
 21
204.0348929551689
 31
0.0
 12
153.6975349913492
 22
204.8682262885022
 32
0.0
 13
153.6975349913492
 23
204.8682262885022
 33
0.0
  0
SOLID
  5
1CB
330
1C5
100
AcDbEntity
  8
09-01
 62
     4
100
AcDbTrace
 10
256.6975349913493
 20
205.7015596218356
 30
0.0
 11
256.6975349913493
 21
204.0348929551689
 31
0.0
 12
261.6975349913492
 22
204.8682262885022
 32
0.0
 13
261.6975349913492
 23
204.8682262885022
 33
0.0
  0
MTEXT
  5
1CC
330
1C5
100
AcDbEntity
  8
09-01
 62
     1
100
AcDbMText
 10
207.6975349913492
 20
209.3682262885022
 30
0.0
 40
5.0
 41
0.0
 46
0.0
 71
     5
 72
     1
  1
108
 73
     1
 44
1.0
  0
POINT
  5
1CD
330
1C5
100
AcDbEntity
  8
Defpoints
 62
     0
100
AcDbPoint
 10
153.6975349913492
 20
211.8891398016207
 30
0.0
  0
POINT
  5
1CE
330
1C5
100
AcDbEntity
  8
Defpoints
 62
     0
100
AcDbPoint
 10
261.6975349913492
 20
211.8891398016207
 30
0.0
  0
POINT
  5
1CF
330
1C5
100
AcDbEntity
  8
Defpoints
 62
     0
100
AcDbPoint
 10
261.6975349913492
 20
204.8682262885022
 30
0.0
  0
ENDBLK
  5
1D0
330
1C5
100
AcDbEntity
  8
0
100
AcDbBlockEnd
  0
BLOCK
  5
1A8
330
1A7
100
AcDbEntity
  8
0
100
AcDbBlockBegin
  2
*D9
 70
     1
 10
0.0
 20
0.0
 30
0.0
  3
*D9
  1

  0
LINE
  5
1A9
330
1A7
100
AcDbEntity
  8
09-01
 62
     4
370
    -2
100
AcDbLine
 10
140.6975349913492
 20
346.7945519486079
 30
0.0
 11
140.6975349913492
 21
319.3689604740086
 31
0.0
  0
LINE
  5
1AA
330
1A7
100
AcDbEntity
  8
09-01
 62
     4
370
    -2
100
AcDbLine
 10
166.6975349913492
 20
346.7945519486079
 30
0.0
 11
166.6975349913492
 21
319.3689604740086
 31
0.0
  0
LINE
  5
1AB
330
1A7
100
AcDbEntity
  8
09-01
 62
     4
370
    -2
100
AcDbLine
 10
145.6975349913492
 20
321.3689604740086
 30
0.0
 11
161.6975349913492
 21
321.3689604740086
 31
0.0
  0
SOLID
  5
1AC
330
1A7
100
AcDbEntity
  8
09-01
 62
     4
100
AcDbTrace
 10
145.6975349913492
 20
322.2022938073418
 30
0.0
 11
145.6975349913492
 21
320.5356271406752
 31
0.0
 12
140.6975349913492
 22
321.3689604740086
 32
0.0
 13
140.6975349913492
 23
321.3689604740086
 33
0.0
  0
SOLID
  5
1AD
330
1A7
100
AcDbEntity
  8
09-01
 62
     4
100
AcDbTrace
 10
161.6975349913492
 20
322.2022938073418
 30
0.0
 11
161.6975349913492
 21
320.5356271406752
 31
0.0
 12
166.6975349913492
 22
321.3689604740086
 32
0.0
 13
166.6975349913492
 23
321.3689604740086
 33
0.0
  0
MTEXT
  5
1AE
330
1A7
100
AcDbEntity
  8
09-01
 62
     1
100
AcDbMText
 10
153.6975349913492
 20
325.8689604740085
 30
0.0
 40
5.0
 41
0.0
 46
0.0
 71
     5
 72
     1
  1
26
 73
     1
 44
1.0
  0
POINT
  5
1AF
330
1A7
100
AcDbEntity
  8
Defpoints
 62
     0
100
AcDbPoint
 10
140.6975349913492
 20
348.7945519486079
 30
0.0
  0
POINT
  5
1B0
330
1A7
100
AcDbEntity
  8
Defpoints
 62
     0
100
AcDbPoint
 10
166.6975349913492
 20
348.7945519486079
 30
0.0
  0
POINT
  5
1B1
330
1A7
100
AcDbEntity
  8
Defpoints
 62
     0
100
AcDbPoint
 10
166.6975349913492
 20
321.3689604740086
 30
0.0
  0
ENDBLK
  5
1B2
330
1A7
100
AcDbEntity
  8
0
100
AcDbBlockEnd
  0
BLOCK
  5
19B
330
19A
100
AcDbEntity
  8
0
100
AcDbBlockBegin
  2
*D10
 70
     1
 10
0.0
 20
0.0
 30
0.0
  3
*D10
  1

  0
LINE
  5
19C
330
19A
100
AcDbEntity
  8
09-01
 62
     4
370
    -2
100
AcDbLine
 10
248.6975349913493
 20
346.7945519486079
 30
0.0
 11
248.6975349913493
 21
319.3689604740086
 31
0.0
  0
LINE
  5
19D
330
19A
100
AcDbEntity
  8
09-01
 62
     4
370
    -2
100
AcDbLine
 10
274.6975349913493
 20
346.7945519486079
 30
0.0
 11
274.6975349913493
 21
319.3689604740086
 31
0.0
  0
LINE
  5
19E
330
19A
100
AcDbEntity
  8
09-01
 62
     4
370
    -2
100
AcDbLine
 10
253.6975349913493
 20
321.3689604740086
 30
0.0
 11
269.6975349913493
 21
321.3689604740086
 31
0.0
  0
SOLID
  5
19F
330
19A
100
AcDbEntity
  8
09-01
 62
     4
100
AcDbTrace
 10
253.6975349913493
 20
322.2022938073418
 30
0.0
 11
253.6975349913493
 21
320.5356271406752
 31
0.0
 12
248.6975349913493
 22
321.3689604740086
 32
0.0
 13
248.6975349913493
 23
321.3689604740086
 33
0.0
  0
SOLID
  5
1A0
330
19A
100
AcDbEntity
  8
09-01
 62
     4
100
AcDbTrace
 10
269.6975349913493
 20
322.2022938073418
 30
0.0
 11
269.6975349913493
 21
320.5356271406752
 31
0.0
 12
274.6975349913493
 22
321.3689604740086
 32
0.0
 13
274.6975349913493
 23
321.3689604740086
 33
0.0
  0
MTEXT
  5
1A1
330
19A
100
AcDbEntity
  8
09-01
 62
     1
100
AcDbMText
 10
261.6975349913493
 20
325.8689604740085
 30
0.0
 40
5.0
 41
0.0
 46
0.0
 71
     5
 72
     1
  1
26
 73
     1
 44
1.0
  0
POINT
  5
1A2
330
19A
100
AcDbEntity
  8
Defpoints
 62
     0
100
AcDbPoint
 10
248.6975349913493
 20
348.7945519486079
 30
0.0
  0
POINT
  5
1A3
330
19A
100
AcDbEntity
  8
Defpoints
 62
     0
100
AcDbPoint
 10
274.6975349913493
 20
348.7945519486079
 30
0.0
  0
POINT
  5
1A4
330
19A
100
AcDbEntity
  8
Defpoints
 62
     0
100
AcDbPoint
 10
274.6975349913493
 20
321.3689604740086
 30
0.0
  0
ENDBLK
  5
1A5
330
19A
100
AcDbEntity
  8
0
100
AcDbBlockEnd
  0
BLOCK
  5
184
330
183
100
AcDbEntity
  8
0
100
AcDbBlockBegin
  2
*D11
 70
     1
 10
0.0
 20
0.0
 30
0.0
  3
*D11
  1

  0
LINE
  5
185
330
183
100
AcDbEntity
  8
09-01
 62
     4
370
    -2
100
AcDbLine
 10
361.6975349913492
 20
152.3891398016207
 30
0.0
 11
361.6975349913492
 21
135.117126131887
 31
0.0
  0
LINE
  5
186
330
183
100
AcDbEntity
  8
09-01
 62
     4
370
    -2
100
AcDbLine
 10
296.6975349913493
 20
153.9891398016207
 30
0.0
 11
296.6975349913493
 21
135.117126131887
 31
0.0
  0
LINE
  5
187
330
183
100
AcDbEntity
  8
09-01
 62
     4
370
    -2
100
AcDbLine
 10
356.6975349913493
 20
137.117126131887
 30
0.0
 11
301.6975349913492
 21
137.117126131887
 31
0.0
  0
SOLID
  5
188
330
183
100
AcDbEntity
  8
09-01
 62
     4
100
AcDbTrace
 10
356.6975349913493
 20
137.9504594652204
 30
0.0
 11
356.6975349913493
 21
136.2837927985537
 31
0.0
 12
361.6975349913492
 22
137.117126131887
 32
0.0
 13
361.6975349913492
 23
137.117126131887
 33
0.0
  0
SOLID
  5
189
330
183
100
AcDbEntity
  8
09-01
 62
     4
100
AcDbTrace
 10
301.6975349913492
 20
137.9504594652204
 30
0.0
 11
301.6975349913492
 21
136.2837927985537
 31
0.0
 12
296.6975349913493
 22
137.117126131887
 32
0.0
 13
296.6975349913493
 23
137.117126131887
 33
0.0
  0
MTEXT
  5
18A
330
183
100
AcDbEntity
  8
09-01
 62
     1
100
AcDbMText
 10
329.1975349913493
 20
141.617126131887
 30
0.0
 40
5.0
 41
0.0
 46
0.0
 71
     5
 72
     1
  1
65
 73
     1
 44
1.0
  0
POINT
  5
18B
330
183
100
AcDbEntity
  8
Defpoints
 62
     0
100
AcDbPoint
 10
361.6975349913492
 20
154.3891398016207
 30
0.0
  0
POINT
  5
18C
330
183
100
AcDbEntity
  8
Defpoints
 62
     0
100
AcDbPoint
 10
296.6975349913493
 20
155.9891398016207
 30
0.0
  0
POINT
  5
18D
330
183
100
AcDbEntity
  8
Defpoints
 62
     0
100
AcDbPoint
 10
296.6975349913493
 20
137.117126131887
 30
0.0
  0
ENDBLK
  5
18E
330
183
100
AcDbEntity
  8
0
100
AcDbBlockEnd
  0
BLOCK
  5
177
330
176
100
AcDbEntity
  8
0
100
AcDbBlockBegin
  2
*D12
 70
     1
 10
0.0
 20
0.0
 30
0.0
  3
*D12
  1

  0
LINE
  5
178
330
176
100
AcDbEntity
  8
09-01
 62
     4
370
    -2
100
AcDbLine
 10
296.6975349913493
 20
153.9891398016207
 30
0.0
 11
296.6975349913493
 21
135.117126131887
 31
0.0
  0
LINE
  5
179
330
176
100
AcDbEntity
  8
09-01
 62
     4
370
    -2
100
AcDbLine
 10
176.6975349913492
 20
153.9891398016207
 30
0.0
 11
176.6975349913492
 21
135.117126131887
 31
0.0
  0
LINE
  5
17A
330
176
100
AcDbEntity
  8
09-01
 62
     4
370
    -2
100
AcDbLine
 10
291.6975349913492
 20
137.117126131887
 30
0.0
 11
181.6975349913492
 21
137.117126131887
 31
0.0
  0
SOLID
  5
17B
330
176
100
AcDbEntity
  8
09-01
 62
     4
100
AcDbTrace
 10
291.6975349913492
 20
137.9504594652204
 30
0.0
 11
291.6975349913492
 21
136.2837927985537
 31
0.0
 12
296.6975349913493
 22
137.117126131887
 32
0.0
 13
296.6975349913493
 23
137.117126131887
 33
0.0
  0
SOLID
  5
17C
330
176
100
AcDbEntity
  8
09-01
 62
     4
100
AcDbTrace
 10
181.6975349913492
 20
137.9504594652204
 30
0.0
 11
181.6975349913492
 21
136.2837927985537
 31
0.0
 12
176.6975349913492
 22
137.117126131887
 32
0.0
 13
176.6975349913492
 23
137.117126131887
 33
0.0
  0
MTEXT
  5
17D
330
176
100
AcDbEntity
  8
09-01
 62
     1
100
AcDbMText
 10
236.6975349913492
 20
141.617126131887
 30
0.0
 40
5.0
 41
0.0
 46
0.0
 71
     5
 72
     1
  1
120
 73
     1
 44
1.0
  0
POINT
  5
17E
330
176
100
AcDbEntity
  8
Defpoints
 62
     0
100
AcDbPoint
 10
296.6975349913493
 20
155.9891398016207
 30
0.0
  0
POINT
  5
17F
330
176
100
AcDbEntity
  8
Defpoints
 62
     0
100
AcDbPoint
 10
176.6975349913492
 20
155.9891398016207
 30
0.0
  0
POINT
  5
180
330
176
100
AcDbEntity
  8
Defpoints
 62
     0
100
AcDbPoint
 10
176.6975349913492
 20
137.117126131887
 30
0.0
  0
ENDBLK
  5
181
330
176
100
AcDbEntity
  8
0
100
AcDbBlockEnd
  0
BLOCK
  5
15D
330
15C
100
AcDbEntity
  8
0
100
AcDbBlockBegin
  2
*D13
 70
     1
 10
0.0
 20
0.0
 30
0.0
  3
*D13
  1

  0
LINE
  5
15E
330
15C
100
AcDbEntity
  8
09-01
 62
     4
370
    -2
100
AcDbLine
 10
153.6975349913492
 20
316.6445182987758
 30
0.0
 11
153.6975349913492
 21
310.54762920078
 31
0.0
  0
LINE
  5
15F
330
15C
100
AcDbEntity
  8
09-01
 62
     4
370
    -2
100
AcDbLine
 10
261.6975349913493
 20
316.7949109469015
 30
0.0
 11
261.6975349913493
 21
310.54762920078
 31
0.0
  0
LINE
  5
160
330
15C
100
AcDbEntity
  8
09-01
 62
     4
370
    -2
100
AcDbLine
 10
158.6975349913492
 20
312.54762920078
 30
0.0
 11
256.6975349913493
 21
312.54762920078
 31
0.0
  0
SOLID
  5
161
330
15C
100
AcDbEntity
  8
09-01
 62
     4
100
AcDbTrace
 10
158.6975349913492
 20
313.3809625341133
 30
0.0
 11
158.6975349913492
 21
311.7142958674467
 31
0.0
 12
153.6975349913492
 22
312.54762920078
 32
0.0
 13
153.6975349913492
 23
312.54762920078
 33
0.0
  0
SOLID
  5
162
330
15C
100
AcDbEntity
  8
09-01
 62
     4
100
AcDbTrace
 10
256.6975349913493
 20
313.3809625341133
 30
0.0
 11
256.6975349913493
 21
311.7142958674467
 31
0.0
 12
261.6975349913493
 22
312.54762920078
 32
0.0
 13
261.6975349913493
 23
312.54762920078
 33
0.0
  0
MTEXT
  5
163
330
15C
100
AcDbEntity
  8
09-01
 62
     1
100
AcDbMText
 10
207.6975349913493
 20
317.04762920078
 30
0.0
 40
5.0
 41
0.0
 46
0.0
 71
     5
 72
     1
  1
108
 73
     1
 44
1.0
  0
POINT
  5
164
330
15C
100
AcDbEntity
  8
Defpoints
 62
     0
100
AcDbPoint
 10
153.6975349913492
 20
318.6445182987758
 30
0.0
  0
POINT
  5
165
330
15C
100
AcDbEntity
  8
Defpoints
 62
     0
100
AcDbPoint
 10
261.6975349913493
 20
318.7949109469015
 30
0.0
  0
POINT
  5
166
330
15C
100
AcDbEntity
  8
Defpoints
 62
     0
100
AcDbPoint
 10
261.6975349913493
 20
312.54762920078
 30
0.0
  0
ENDBLK
  5
167
330
15C
100
AcDbEntity
  8
0
100
AcDbBlockEnd
  0
BLOCK
  5
150
330
14F
100
AcDbEntity
  8
0
100
AcDbBlockBegin
  2
*D14
 70
     1
 10
0.0
 20
0.0
 30
0.0
  3
*D14
  1

  0
LINE
  5
151
330
14F
100
AcDbEntity
  8
09-01
 62
     4
370
    -2
100
AcDbLine
 10
261.6975349913492
 20
209.8891398016207
 30
0.0
 11
261.6975349913492
 21
202.8682262885022
 31
0.0
  0
LINE
  5
152
330
14F
100
AcDbEntity
  8
09-01
 62
     4
370
    -2
100
AcDbLine
 10
301.6975349913492
 20
233.3891398016207
 30
0.0
 11
301.6975349913492
 21
202.8682262885022
 31
0.0
  0
LINE
  5
153
330
14F
100
AcDbEntity
  8
09-01
 62
     4
370
    -2
100
AcDbLine
 10
266.6975349913492
 20
204.8682262885022
 30
0.0
 11
296.6975349913493
 21
204.8682262885022
 31
0.0
  0
SOLID
  5
154
330
14F
100
AcDbEntity
  8
09-01
 62
     4
100
AcDbTrace
 10
266.6975349913492
 20
205.7015596218356
 30
0.0
 11
266.6975349913492
 21
204.0348929551689
 31
0.0
 12
261.6975349913492
 22
204.8682262885022
 32
0.0
 13
261.6975349913492
 23
204.8682262885022
 33
0.0
  0
SOLID
  5
155
330
14F
100
AcDbEntity
  8
09-01
 62
     4
100
AcDbTrace
 10
296.6975349913493
 20
205.7015596218356
 30
0.0
 11
296.6975349913493
 21
204.0348929551689
 31
0.0
 12
301.6975349913492
 22
204.8682262885022
 32
0.0
 13
301.6975349913492
 23
204.8682262885022
 33
0.0
  0
MTEXT
  5
156
330
14F
100
AcDbEntity
  8
09-01
 62
     1
100
AcDbMText
 10
281.6975349913493
 20
209.3682262885022
 30
0.0
 40
5.0
 41
0.0
 46
0.0
 71
     5
 72
     1
  1
40
 73
     1
 44
1.0
  0
POINT
  5
157
330
14F
100
AcDbEntity
  8
Defpoints
 62
     0
100
AcDbPoint
 10
261.6975349913492
 20
211.8891398016207
 30
0.0
  0
POINT
  5
158
330
14F
100
AcDbEntity
  8
Defpoints
 62
     0
100
AcDbPoint
 10
301.6975349913492
 20
235.3891398016207
 30
0.0
  0
POINT
  5
159
330
14F
100
AcDbEntity
  8
Defpoints
 62
     0
100
AcDbPoint
 10
301.6975349913492
 20
204.8682262885022
 30
0.0
  0
ENDBLK
  5
15A
330
14F
100
AcDbEntity
  8
0
100
AcDbBlockEnd
  0
BLOCK
  5
143
330
142
100
AcDbEntity
  8
0
100
AcDbBlockBegin
  2
*D15
 70
     1
 10
0.0
 20
0.0
 30
0.0
  3
*D15
  1

  0
LINE
  5
144
330
142
100
AcDbEntity
  8
09-01
 62
     4
370
    -2
100
AcDbLine
 10
151.6975349913492
 20
262.8891398016207
 30
0.0
 11
55.14024820403576
 21
262.8891398016207
 31
0.0
  0
LINE
  5
145
330
142
100
AcDbEntity
  8
09-01
 62
     4
370
    -2
100
AcDbLine
 10
119.0725349913492
 20
153.3891398016207
 30
0.0
 11
55.14024820403573
 21
153.3891398016207
 31
0.0
  0
LINE
  5
146
330
142
100
AcDbEntity
  8
09-01
 62
     4
370
    -2
100
AcDbLine
 10
57.14024820403576
 20
257.8891398016207
 30
0.0
 11
57.14024820403573
 21
158.3891398016207
 31
0.0
  0
SOLID
  5
147
330
142
100
AcDbEntity
  8
09-01
 62
     4
100
AcDbTrace
 10
56.30691487070242
 20
257.8891398016207
 30
0.0
 11
57.97358153736909
 21
257.8891398016207
 31
0.0
 12
57.14024820403576
 22
262.8891398016207
 32
0.0
 13
57.14024820403576
 23
262.8891398016207
 33
0.0
  0
SOLID
  5
148
330
142
100
AcDbEntity
  8
09-01
 62
     4
100
AcDbTrace
 10
56.3069148707024
 20
158.3891398016207
 30
0.0
 11
57.97358153736907
 21
158.3891398016207
 31
0.0
 12
57.14024820403573
 22
153.3891398016207
 32
0.0
 13
57.14024820403573
 23
153.3891398016207
 33
0.0
  0
MTEXT
  5
149
330
142
100
AcDbEntity
  8
09-01
 62
     1
100
AcDbMText
 10
52.64024820403571
 20
208.1391398016207
 30
0.0
 40
5.0
 41
0.0
 46
0.0
 71
     5
 72
     1
  1
109.5
 11
0.0000000000000001
 21
1.0
 31
0.0
 73
     1
 44
1.0
  0
POINT
  5
14A
330
142
100
AcDbEntity
  8
Defpoints
 62
     0
100
AcDbPoint
 10
153.6975349913492
 20
262.8891398016207
 30
0.0
  0
POINT
  5
14B
330
142
100
AcDbEntity
  8
Defpoints
 62
     0
100
AcDbPoint
 10
121.0725349913492
 20
153.3891398016207
 30
0.0
  0
POINT
  5
14C
330
142
100
AcDbEntity
  8
Defpoints
 62
     0
100
AcDbPoint
 10
57.14024820403573
 20
153.3891398016207
 30
0.0
  0
ENDBLK
  5
14D
330
142
100
AcDbEntity
  8
0
100
AcDbBlockEnd
  0
BLOCK
  5
136
330
135
100
AcDbEntity
  8
0
100
AcDbBlockBegin
  2
*D16
 70
     1
 10
0.0
 20
0.0
 30
0.0
  3
*D16
  1

  0
LINE
  5
137
330
135
100
AcDbEntity
  8
09-01
 62
     4
370
    -2
100
AcDbLine
 10
462.397558106349
 20
251.3891398016207
 30
0.0
 11
462.397558106349
 21
277.0137236421049
 31
0.0
  0
LINE
  5
138
330
135
100
AcDbEntity
  8
09-01
 62
     4
370
    -2
100
AcDbLine
 10
396.3975581063491
 20
264.8891398016207
 30
0.0
 11
396.3975581063491
 21
277.0137236421049
 31
0.0
  0
LINE
  5
139
330
135
100
AcDbEntity
  8
09-01
 62
     4
370
    -2
100
AcDbLine
 10
457.397558106349
 20
275.0137236421049
 30
0.0
 11
401.397558106349
 21
275.0137236421049
 31
0.0
  0
SOLID
  5
13A
330
135
100
AcDbEntity
  8
09-01
 62
     4
100
AcDbTrace
 10
457.397558106349
 20
275.8470569754382
 30
0.0
 11
457.397558106349
 21
274.1803903087716
 31
0.0
 12
462.397558106349
 22
275.0137236421049
 32
0.0
 13
462.397558106349
 23
275.0137236421049
 33
0.0
  0
SOLID
  5
13B
330
135
100
AcDbEntity
  8
09-01
 62
     4
100
AcDbTrace
 10
401.397558106349
 20
275.8470569754382
 30
0.0
 11
401.397558106349
 21
274.1803903087716
 31
0.0
 12
396.3975581063491
 22
275.0137236421049
 32
0.0
 13
396.3975581063491
 23
275.0137236421049
 33
0.0
  0
MTEXT
  5
13C
330
135
100
AcDbEntity
  8
09-01
 62
     1
100
AcDbMText
 10
429.397558106349
 20
279.5137236421049
 30
0.0
 40
5.0
 41
0.0
 46
0.0
 71
     5
 72
     1
  1
66
 73
     1
 44
1.0
  0
POINT
  5
13D
330
135
100
AcDbEntity
  8
Defpoints
 62
     0
100
AcDbPoint
 10
462.397558106349
 20
249.3891398016207
 30
0.0
  0
POINT
  5
13E
330
135
100
AcDbEntity
  8
Defpoints
 62
     0
100
AcDbPoint
 10
396.3975581063491
 20
262.8891398016207
 30
0.0
  0
POINT
  5
13F
330
135
100
AcDbEntity
  8
Defpoints
 62
     0
100
AcDbPoint
 10
396.3975581063491
 20
275.0137236421049
 30
0.0
  0
ENDBLK
  5
140
330
135
100
AcDbEntity
  8
0
100
AcDbBlockEnd
  0
BLOCK
  5
129
330
128
100
AcDbEntity
  8
0
100
AcDbBlockBegin
  2
*D17
 70
     1
 10
0.0
 20
0.0
 30
0.0
  3
*D17
  1

  0
LINE
  5
12A
330
128
100
AcDbEntity
  8
09-01
 62
     4
370
    -2
100
AcDbLine
 10
463.397558106349
 20
250.3891398016207
 30
0.0
 11
487.7100150904123
 21
250.3891398016207
 31
0.0
  0
LINE
  5
12B
330
128
100
AcDbEntity
  8
09-01
 62
     4
370
    -2
100
AcDbLine
 10
463.397558106349
 20
230.3891398016207
 30
0.0
 11
487.7100150904123
 21
230.3891398016207
 31
0.0
  0
LINE
  5
12C
330
128
100
AcDbEntity
  8
09-01
 62
     4
370
    -2
100
AcDbLine
 10
485.7100150904122
 20
245.3891398016207
 30
0.0
 11
485.7100150904122
 21
235.3891398016207
 31
0.0
  0
SOLID
  5
12D
330
128
100
AcDbEntity
  8
09-01
 62
     4
100
AcDbTrace
 10
484.876681757079
 20
245.3891398016207
 30
0.0
 11
486.5433484237455
 21
245.3891398016207
 31
0.0
 12
485.7100150904122
 22
250.3891398016207
 32
0.0
 13
485.7100150904122
 23
250.3891398016207
 33
0.0
  0
SOLID
  5
12E
330
128
100
AcDbEntity
  8
09-01
 62
     4
100
AcDbTrace
 10
484.876681757079
 20
235.3891398016207
 30
0.0
 11
486.5433484237455
 21
235.3891398016207
 31
0.0
 12
485.7100150904122
 22
230.3891398016207
 32
0.0
 13
485.7100150904122
 23
230.3891398016207
 33
0.0
  0
MTEXT
  5
12F
330
128
100
AcDbEntity
  8
09-01
 62
     1
100
AcDbMText
 10
481.2100150904122
 20
240.3891398016208
 30
0.0
 40
5.0
 41
0.0
 46
0.0
 71
     5
 72
     1
  1
20
 11
0.0000000000000001
 21
1.0
 31
0.0
 73
     1
 44
1.0
  0
POINT
  5
130
330
128
100
AcDbEntity
  8
Defpoints
 62
     0
100
AcDbPoint
 10
461.397558106349
 20
250.3891398016207
 30
0.0
  0
POINT
  5
131
330
128
100
AcDbEntity
  8
Defpoints
 62
     0
100
AcDbPoint
 10
461.397558106349
 20
230.3891398016207
 30
0.0
  0
POINT
  5
132
330
128
100
AcDbEntity
  8
Defpoints
 62
     0
100
AcDbPoint
 10
485.7100150904122
 20
230.3891398016207
 30
0.0
  0
ENDBLK
  5
133
330
128
100
AcDbEntity
  8
0
100
AcDbBlockEnd
  0
BLOCK
  5
117
330
116
100
AcDbEntity
  8
0
100
AcDbBlockBegin
  2
*D18
 70
     1
 10
0.0
 20
0.0
 30
0.0
  3
*D18
  1

  0
LINE
  5
118
330
116
100
AcDbEntity
  8
09-01
 62
     4
370
    -2
100
AcDbLine
 10
432.3975581063489
 20
154.9891398016207
 30
0.0
 11
432.3975581063489
 21
139.8755002790807
 31
0.0
  0
LINE
  5
119
330
116
100
AcDbEntity
  8
09-01
 62
     4
370
    -2
100
AcDbLine
 10
462.397558106349
 20
154.9891398016207
 30
0.0
 11
462.397558106349
 21
139.8755002790807
 31
0.0
  0
LINE
  5
11A
330
116
100
AcDbEntity
  8
09-01
 62
     4
370
    -2
100
AcDbLine
 10
437.3975581063489
 20
141.8755002790807
 30
0.0
 11
457.397558106349
 21
141.8755002790807
 31
0.0
  0
SOLID
  5
11B
330
116
100
AcDbEntity
  8
09-01
 62
     4
100
AcDbTrace
 10
437.3975581063489
 20
142.708833612414
 30
0.0
 11
437.3975581063489
 21
141.0421669457473
 31
0.0
 12
432.3975581063489
 22
141.8755002790807
 32
0.0
 13
432.3975581063489
 23
141.8755002790807
 33
0.0
  0
SOLID
  5
11C
330
116
100
AcDbEntity
  8
09-01
 62
     4
100
AcDbTrace
 10
457.397558106349
 20
142.708833612414
 30
0.0
 11
457.397558106349
 21
141.0421669457473
 31
0.0
 12
462.397558106349
 22
141.8755002790807
 32
0.0
 13
462.397558106349
 23
141.8755002790807
 33
0.0
  0
MTEXT
  5
11D
330
116
100
AcDbEntity
  8
09-01
 62
     1
100
AcDbMText
 10
447.397558106349
 20
146.3755002790807
 30
0.0
 40
5.0
 41
0.0
 46
0.0
 71
     5
 72
     1
  1
30
 73
     1
 44
1.0
  0
POINT
  5
11E
330
116
100
AcDbEntity
  8
Defpoints
 62
     0
100
AcDbPoint
 10
432.3975581063489
 20
156.9891398016207
 30
0.0
  0
POINT
  5
11F
330
116
100
AcDbEntity
  8
Defpoints
 62
     0
100
AcDbPoint
 10
462.397558106349
 20
156.9891398016207
 30
0.0
  0
POINT
  5
120
330
116
100
AcDbEntity
  8
Defpoints
 62
     0
100
AcDbPoint
 10
462.397558106349
 20
141.8755002790807
 30
0.0
  0
ENDBLK
  5
121
330
116
100
AcDbEntity
  8
0
100
AcDbBlockEnd
  0
BLOCK
  5
8C
330
89
100
AcDbEntity
  8
0
100
AcDbBlockBegin
  2
DIN A4 Quer
 70
     2
 10
0.0
 20
0.0
 30
0.0
  3
DIN A4 Quer
  1

  0
LINE
  5
8D
330
89
100
AcDbEntity
  8
01-99
100
AcDbLine
 10
6.000001890710336
 20
6.000000518749175
 30
0.0
 11
6.000001890710223
 21
204.0000005187492
 31
0.0
  0
LINE
  5
91
330
89
100
AcDbEntity
  8
01-99
100
AcDbLine
 10
6.000001890710223
 20
204.0000005187492
 30
0.0
 11
291.0000018907103
 21
204.0000005187492
 31
0.0
  0
LINE
  5
92
330
89
100
AcDbEntity
  8
02-01
100
AcDbLine
 10
297.0000018907104
 20
210.0000005187492
 30
0.0
 11
0.0000018907103367
 21
210.0000005187492
 31
0.0
  0
LINE
  5
96
330
89
100
AcDbEntity
  8
02-01
100
AcDbLine
 10
0.0000018907103367
 20
210.0000005187492
 30
0.0
 11
0.0000018907103367
 21
0.0000005187491752
 31
0.0
  0
LINE
  5
97
330
89
100
AcDbEntity
  8
01-99
100
AcDbLine
 10
291.0000018907103
 20
6.000000518749288
 30
0.0
 11
291.0000018907103
 21
204.0000005187492
 31
0.0
  0
LINE
  5
98
330
89
100
AcDbEntity
  8
01-99
100
AcDbLine
 10
291.0000018907103
 20
6.000000518749288
 30
0.0
 11
6.000001890710336
 21
6.000000518749175
 31
0.0
  0
LINE
  5
99
330
89
100
AcDbEntity
  8
02-01
100
AcDbLine
 10
0.0000018907103367
 20
0.0000005187491752
 30
0.0
 11
297.0000018907104
 21
0.0000005187491752
 31
0.0
  0
LINE
  5
9A
330
89
100
AcDbEntity
  8
02-01
100
AcDbLine
 10
297.0000018907104
 20
0.0000005187491752
 30
0.0
 11
297.0000018907104
 21
210.0000005187492
 31
0.0
  0
LINE
  5
9B
330
89
100
AcDbEntity
  8
01-99
100
AcDbLine
 10
157.0000018907103
 20
11.11111162974919
 30
0.0
 11
107.0000018907103
 21
11.11111162974919
 31
0.0
  0
LINE
  5
9C
330
89
100
AcDbEntity
  8
01-99
100
AcDbLine
 10
157.0000018907103
 20
16.2222227407492
 30
0.0
 11
107.0000018907103
 21
16.2222227407492
 31
0.0
  0
LINE
  5
9D
330
89
100
AcDbEntity
  8
01-99
100
AcDbLine
 10
157.0000018907103
 20
21.33333385174922
 30
0.0
 11
107.0000018907103
 21
21.33333385174916
 31
0.0
  0
LINE
  5
9E
330
89
100
AcDbEntity
  8
01-99
100
AcDbLine
 10
202.0000018907103
 20
26.44444496274923
 30
0.0
 11
107.0000018907103
 21
26.44444496274918
 31
0.0
  0
LINE
  5
9F
330
89
100
AcDbEntity
  8
01-99
100
AcDbLine
 10
202.0000018907103
 20
31.55555607374925
 30
0.0
 11
107.0000018907103
 21
31.55555607374919
 31
0.0
  0
LINE
  5
A0
330
89
100
AcDbEntity
  8
01-99
100
AcDbLine
 10
132.0000018907103
 20
6.000000518749175
 30
0.0
 11
132.0000018907103
 21
11.11111162974919
 31
0.0
  0
LINE
  5
A1
330
89
100
AcDbEntity
  8
01-99
100
AcDbLine
 10
115.0000018907103
 20
11.11111162974919
 30
0.0
 11
115.0000018907103
 21
36.66666718541586
 31
0.0
  0
LINE
  5
A2
330
89
100
AcDbEntity
  8
01-99
100
AcDbLine
 10
157.0000018907103
 20
6.000000518749175
 30
0.0
 11
157.0000018907103
 21
52.00000051874917
 31
0.0
  0
LINE
  5
A3
330
89
100
AcDbEntity
  8
01-99
100
AcDbLine
 10
202.0000018907103
 20
6.000000518749175
 30
0.0
 11
202.0000018907103
 21
52.00000051874917
 31
0.0
  0
LINE
  5
A4
330
89
100
AcDbEntity
  8
01-99
100
AcDbLine
 10
231.5000018907103
 20
6.000000518749175
 30
0.0
 11
231.5000018907103
 21
16.22222274074926
 31
0.0
  0
LINE
  5
A5
330
89
100
AcDbEntity
  8
01-99
100
AcDbLine
 10
264.0000018907104
 20
6.000000518749175
 30
0.0
 11
264.0000018907104
 21
16.22222274074931
 31
0.0
  0
LINE
  5
A6
330
89
100
AcDbEntity
  8
01-99
100
AcDbLine
 10
235.5000018907103
 20
36.66666718541592
 30
0.0
 11
235.5000018907103
 21
52.00000051874929
 31
0.0
  0
LINE
  5
A7
330
89
100
AcDbEntity
  8
01-99
100
AcDbLine
 10
269.0000018907103
 20
36.66666718541592
 30
0.0
 11
269.0000018907103
 21
52.00000051874929
 31
0.0
  0
LINE
  5
A8
330
89
100
AcDbEntity
  8
01-99
100
AcDbLine
 10
165.0000018907103
 20
21.33333385208254
 30
0.0
 11
165.0000018907103
 21
36.66666718541592
 31
0.0
  0
LINE
  5
A9
330
89
100
AcDbEntity
  8
01-99
100
AcDbLine
 10
147.0031902301398
 20
11.11111162974919
 30
0.0
 11
147.0031902301398
 21
36.66666718541586
 31
0.0
  0
LINE
  5
AA
330
89
100
AcDbEntity
  8
01-99
100
AcDbLine
 10
135.0031902301398
 20
11.11111162974919
 30
0.0
 11
135.0031902301398
 21
36.66666718541586
 31
0.0
  0
LINE
  5
AB
330
89
100
AcDbEntity
  8
01-99
100
AcDbLine
 10
291.0000018907103
 20
52.00000051874929
 30
0.0
 11
107.0000018907085
 21
52.00000051874917
 31
0.0
  0
LINE
  5
AC
330
89
100
AcDbEntity
  8
01-99
100
AcDbLine
 10
202.0000018907103
 20
21.33333385208254
 30
0.0
 11
157.0000018907103
 21
21.33333385208254
 31
0.0
  0
LINE
  5
AD
330
89
100
AcDbEntity
  8
01-99
100
AcDbLine
 10
202.0000018907103
 20
36.66666718541592
 30
0.0
 11
107.0000018907103
 21
36.66666718541581
 31
0.0
  0
LINE
  5
AE
330
89
100
AcDbEntity
  8
01-99
100
AcDbLine
 10
179.0000018907103
 20
21.33333385208254
 30
0.0
 11
179.0000018907103
 21
52.00000051874923
 31
0.0
  0
LINE
  5
AF
330
89
100
AcDbEntity
  8
01-99
100
AcDbLine
 10
157.0000018907103
 20
36.66666718541586
 30
0.0
 11
165.0000018907103
 21
31.5555560854159
 31
0.0
  0
LINE
  5
B0
330
89
100
AcDbEntity
  8
01-99
100
AcDbLine
 10
157.0000018907103
 20
31.5555560854159
 30
0.0
 11
165.0000018907103
 21
36.66666718541592
 31
0.0
  0
LINE
  5
B1
330
89
100
AcDbEntity
  8
01-99
100
AcDbLine
 10
291.0000018907103
 20
44.33333385208254
 30
0.0
 11
202.0000018907103
 21
44.33333385208249
 31
0.0
  0
LINE
  5
B2
330
89
100
AcDbEntity
  8
01-99
100
AcDbLine
 10
202.0000018907103
 20
16.2222227407492
 30
0.0
 11
291.0000018907103
 21
16.22222274074931
 31
0.0
  0
LINE
  5
B3
330
89
100
AcDbEntity
  8
01-99
100
AcDbLine
 10
202.0000018907103
 20
36.66666718541592
 30
0.0
 11
291.0000018907103
 21
36.66666718541597
 31
0.0
  0
LINE
  5
B4
330
89
100
AcDbEntity
  8
01-99
100
AcDbLine
 10
179.0000018907103
 20
41.7777782967492
 30
0.0
 11
157.0000018907103
 21
41.7777782967492
 31
0.0
  0
LINE
  5
B5
330
89
100
AcDbEntity
  8
01-99
100
AcDbLine
 10
179.0000018907103
 20
46.88888940774922
 30
0.0
 11
157.0000018907103
 21
46.88888940774916
 31
0.0
  0
LINE
  5
B6
330
89
100
AcDbEntity
  8
01-99
100
AcDbLine
 10
107.0000018907085
 20
52.00000051874917
 30
0.0
 11
107.0000018907085
 21
6.000000518749175
 31
0.0
  0
TEXT
  5
B7
330
89
100
AcDbEntity
  8
08-99
100
AcDbText
 10
203.4997030590166
 20
32.66987422660714
 30
0.0
 40
2.5
  1
Benennung/Teil:
 51
15.0
  7
ROMANS8
100
AcDbText
  0
TEXT
  5
BC
330
89
100
AcDbEntity
  8
08-99
100
AcDbText
 10
265.5028293382777
 20
12.01760321297985
 30
0.0
 40
2.7
  1
Ident-Nr.
 51
15.0
  7
ROMANS8
100
AcDbText
  0
TEXT
  5
BD
330
89
100
AcDbEntity
  8
08-99
100
AcDbText
 10
180.5000236238784
 20
33.05557748053161
 30
0.0
 40
2.5
  1
Name:
 51
15.0
  7
ROMANS8
100
AcDbText
  0
TEXT
  5
BE
330
89
100
AcDbEntity
  8
08-99
100
AcDbText
 10
166.5077710332552
 20
33.04841847975365
 30
0.0
 40
2.5
  1
Datum:
 50
0.102528160689452
 41
0.8933771909280748
 51
15.0
  7
ROMANS8
 72
     5
 11
177.6749680403372
 21
33.06840168621363
 31
0.0
100
AcDbText
  0
TEXT
  5
BF
330
89
100
AcDbEntity
  8
08-99
100
AcDbText
 10
116.5000099724457
 20
33.05597761772907
 30
0.0
 40
1.6
  1
Änderung:
 51
15.0
  7
ROMANS8
100
AcDbText
  0
TEXT
  5
C0
330
89
100
AcDbEntity
  8
08-99
100
AcDbText
 10
133.4999399664632
 20
9.111119817911628
 30
0.0
 40
1.0
  1
ERSETZT.DURCH:
 51
15.0
  7
ROMANS8
100
AcDbText
  0
TEXT
  5
C1
330
89
100
AcDbEntity
  8
08-99
100
AcDbText
 10
108.499362706382
 20
9.110854721685427
 30
0.0
 40
1.0
  1
ERSETZT.FÜR:
 51
15.0
  7
ROMANS8
100
AcDbText
  0
TEXT
  5
C2
330
89
100
AcDbEntity
  8
08-99
100
AcDbText
 10
232.9909087328646
 20
12.61295738281296
 30
0.0
 40
2.112
  1
AUFTRAGS.NR.:
 51
15.0
  7
ROMANS8
100
AcDbText
  0
TEXT
  5
C3
330
89
100
AcDbEntity
  8
08-99
100
AcDbText
 10
203.5034660957227
 20
12.61092917477953
 30
0.0
 40
2.112
  1
Sonder-Nr:
 51
15.0
  7
ROMANS8
100
AcDbText
  0
TEXT
  5
C4
330
89
100
AcDbEntity
  8
08-99
100
AcDbText
 10
186.6963093857886
 20
49.92370902579148
 30
0.0
 40
1.349999999999999
  1
Format
 51
15.0
  7
ROMANS8
100
AcDbText
  0
TEXT
  5
C5
330
89
100
AcDbEntity
  8
08-99
100
AcDbText
 10
185.3043816374782
 20
44.64161931184992
 30
0.0
 40
1.822499999999999
  1
Normen
 51
15.0
  7
ROMANS8
100
AcDbText
  0
TEXT
  5
C6
330
89
100
AcDbEntity
  8
08-99
100
AcDbText
 10
108.5000314946119
 20
33.0555683543073
 30
0.0
 40
1.6
  1
Zust.
 51
15.0
  7
ROMANS8
100
AcDbText
  0
TEXT
  5
C7
330
89
100
AcDbEntity
  8
08-99
100
AcDbText
 10
136.5031825918795
 20
33.05555977024574
 30
0.0
 40
1.6
  1
Datum:
 51
15.0
  7
ROMANS8
100
AcDbText
  0
TEXT
  5
C8
330
89
100
AcDbEntity
  8
08-99
100
AcDbText
 10
148.5032155076424
 20
33.05556457669462
 30
0.0
 40
1.6
  1
Name:
 51
15.0
  7
ROMANS8
100
AcDbText
  0
TEXT
  5
C9
330
89
100
AcDbEntity
  8
08-99
100
AcDbText
 10
158.1545563363015
 20
28.03814008669803
 30
0.0
 40
1.6
  1
Erst.
 51
15.0
  7
ROMANS8
100
AcDbText
  0
TEXT
  5
CA
330
89
100
AcDbEntity
  8
08-99
100
AcDbText
 10
157.517182253021
 20
23.19745157817022
 30
0.0
 40
1.6
  1
Bearb.
 51
15.0
  7
ROMANS8
100
AcDbText
  0
TEXT
  5
CB
330
89
100
AcDbEntity
  8
08-99
100
AcDbText
 10
236.4308068024784
 20
41.61949801145603
 30
0.0
 40
2.0
  1
Zuschnittsbreite:
 51
15.0
  7
ROMANS8
100
AcDbText
  0
TEXT
  5
CC
330
89
100
AcDbEntity
  8
08-99
100
AcDbText
 10
202.9849966647425
 20
41.73762414686279
 30
0.0
 40
2.0
  1
Zuschnittslänge:
 51
15.0
  7
ROMANS8
100
AcDbText
  0
LWPOLYLINE
  5
CD
330
89
100
AcDbEntity
  8
06-99
100
AcDbPolyline
 90
      133
 70
     1
 43
0.010692
 10
180.7675417027103
 20
18.87656536808259
 10
181.0090490347104
 20
19.08724766408261
 10
180.9228536947104
 20
19.2262579200825
 10
180.8242663267103
 20
19.35180694808264
 10
180.7136290747105
 20
19.46394108008263
 10
180.5912983387103
 20
19.56271377608249
 10
180.4576162627104
 20
19.64816424008256
 10
180.3129285547104
 20
19.72033880408253
 10
180.1575880507104
 20
19.77929092808256
 10
179.9919368947105
 20
19.82505981608255
 10
179.8163243587104
 20
19.85769180008265
 10
179.6310997147105
 20
19.87724034008261
 10
179.4366086707105
 20
19.88374464008257
 10
179.2756833787104
 20
19.87768227608256
 10
179.1199437067102
 20
19.85975892008253
 10
178.9697211067105
 20
19.83036304808269
 10
178.8253505947104
 20
19.78989026408254
 10
178.6871636227104
 20
19.73873617208267
 10
178.5554845147104
 20
19.67729281208255
 10
178.4306554147105
 20
19.60595222408256
 10
178.3130006467104
 20
19.52510644808251
 10
178.2028516627103
 20
19.43514752408259
 10
178.1005470427104
 20
19.33647462008258
 10
178.0064075467105
 20
19.2294726480826
 10
177.9207717547105
 20
19.1145443400826
 10
177.8439711187104
 20
18.99207460808259
 10
177.7763335267104
 20
18.86245905608262
 10
177.7181939947104
 20
18.72608972408255
 10
177.6698804107104
 20
18.58336578008254
 10
177.6317242267105
 20
18.43467213608255
 10
177.6040640227103
 20
18.28040796008252
 10
177.5872205587104
 20
18.12096172808259
 10
177.5815359787104
 20
17.95672904408258
 10
177.5871492787104
 20
17.78762437208263
 10
177.6038002867105
 20
17.62428981608258
 10
177.6311896267102
 20
17.46704257208256
 10
177.6690179227102
 20
17.31619627208249
 10
177.7169893627103
 20
17.17206454808257
 10
177.7748081347105
 20
17.0349610320826
 10
177.8421784267104
 20
16.90519579208256
 10
177.9188008627104
 20
16.78308602408253
 10
178.0043796307104
 20
16.66894179608255
 10
178.0986224827104
 20
16.56308030408257
 10
178.2012229147103
 20
16.46581161608259
 10
178.3118958067103
 20
16.3774529280825
 10
178.4303346547105
 20
16.29831430808264
 10
178.5562472107103
 20
16.22870938808262
 10
178.6893340987103
 20
16.16895536408253
 10
178.8293030707103
 20
16.11936230408258
 10
178.9758511867105
 20
16.08024384008263
 10
179.1286897627103
 20
16.05191360408264
 10
179.2875122947104
 20
16.03468522808259
 10
179.4520300987104
 20
16.02887234408263
 10
179.6160275587104
 20
16.03412568008258
 10
179.7733603387104
 20
16.04976451208262
 10
179.9238395467104
 20
16.07559638408259
 10
180.0672762907103
 20
16.11142884008262
 10
180.2034852427104
 20
16.15707298808257
 10
180.3322739467103
 20
16.21233993608257
 10
180.4534570747104
 20
16.27703722808258
 10
180.5668386067104
 20
16.3509795360826
 10
180.6722403427104
 20
16.43397440408256
 10
180.7694626987104
 20
16.52582581208259
 10
180.8583239107104
 20
16.62635556008257
 10
180.9386350867105
 20
16.73536050008255
 10
181.0102037707104
 20
16.85266243208258
 10
181.0728410707104
 20
16.97806177208258
 10
181.1263616587105
 20
17.11137319208251
 10
181.1705766427103
 20
17.25240423608255
 10
181.2052900027104
 20
17.40096601208256
 10
181.2303235387104
 20
17.55686962808261
 10
181.2454812307105
 20
17.71992619208254
 10
181.2505741867103
 20
17.88993968408255
 10
181.2505741867103
 20
17.88993968408255
 10
181.2505741867103
 20
17.9413218720826
 10
179.6164659307104
 20
17.9413218720826
 10
179.6164659307104
 20
17.65355025608255
 10
180.8857275067103
 20
17.65355025608255
 10
180.8749891747103
 20
17.49100690808257
 10
180.8476568587103
 20
17.33636138408258
 10
180.8044362307105
 20
17.19027658808261
 10
180.7460329627104
 20
17.05341898808257
 10
180.6731598547105
 20
16.9264443600826
 10
180.5865261427104
 20
16.8100263000826
 10
180.4868303707104
 20
16.7048170200826
 10
180.3747889027104
 20
16.61149011608256
 10
180.2511074107103
 20
16.53069780008258
 10
180.1164915667104
 20
16.4631101040826
 10
179.9716506067103
 20
16.40938636808255
 10
179.8172937667104
 20
16.37019306008267
 10
179.6541267187105
 20
16.34618952008253
 10
179.4828586987105
 20
16.33804221608261
 10
179.3181983347104
 20
16.34599350008256
 10
179.1599032747103
 20
16.36937690408251
 10
179.0085651427103
 20
16.40748319208256
 10
178.8647719987102
 20
16.45960669208256
 10
178.7291047747104
 20
16.52503816808257
 10
178.6021550947103
 20
16.60306838408263
 10
178.4845074547104
 20
16.69299523208258
 10
178.3767534787104
 20
16.79410591208267
 10
178.2794776627105
 20
16.90569475208258
 10
178.1932645027103
 20
17.02705608008256
 10
178.1187056227104
 20
17.15747709608257
 10
178.0563855187104
 20
17.29625569208258
 10
178.0068922507104
 20
17.44268263208255
 10
177.9708138787102
 20
17.59604511608262
 10
177.9487348987103
 20
17.75564460008269
 10
177.9412469347104
 20
17.9207682840825
 10
177.9476336227105
 20
18.0891423360826
 10
177.9665370787104
 20
18.25115464808255
 10
177.9975581347105
 20
18.40630626008254
 10
178.0403011867104
 20
18.55410177608257
 10
178.0943741947103
 20
18.69404580008256
 10
178.1593779907104
 20
18.8256465000826
 10
178.2349169707104
 20
18.94840135208261
 10
178.3205990947104
 20
19.06182208808258
 10
178.4160251947103
 20
19.16540618408265
 10
178.5208067947103
 20
19.25866180808253
 10
178.6345375987105
 20
19.3410900000826
 10
178.7568326947105
 20
19.4121989280826
 10
178.8872893507102
 20
19.47148963208258
 10
179.0255155267105
 20
19.51846671608257
 10
179.1711191827105
 20
19.55263478408255
 10
179.3236975867105
 20
19.57350200408257
 10
179.4828586987105
 20
19.5805658520826
 10
179.6605633027104
 20
19.57164872408259
 10
179.8303166227105
 20
19.54501138808257
 10
179.9917800787104
 20
19.50082135208259
 10
180.1446150907104
 20
19.43924612408256
 10
180.2884830787104
 20
19.36046034008256
 10
180.4230490267105
 20
19.26462794408263
 10
180.5479743547104
 20
19.15192357208258
 10
180.6629169187105
 20
19.02251116808264
  0
LWPOLYLINE
  5
D2
330
89
100
AcDbEntity
  8
06-99
100
AcDbPolyline
 90
       12
 70
     1
 43
0.010692
 10
177.4389973627103
 20
12.25281434408265
 10
179.3222648587105
 20
12.25281434408265
 10
179.4676012147104
 20
13.00768023608259
 10
178.5648720907104
 20
13.00768023608259
 10
178.6210549867103
 20
13.29950768408252
 10
179.4187173907104
 20
13.29950768408252
 10
179.5558030867103
 20
14.01156280808254
 10
178.7581406827103
 20
14.01156280808254
 10
178.8098471947103
 20
14.28005674808253
 10
179.6892285547103
 20
14.28005674808253
 10
179.8345542187104
 20
15.0349083840826
 10
177.9746344867104
 20
15.0349083840826
  0
LWPOLYLINE
  5
D3
330
89
100
AcDbEntity
  8
06-99
100
AcDbPolyline
 90
        4
 70
     1
 43
0.010692
 10
163.6086138067104
 20
12.88042761608255
 10
176.0658630067103
 20
12.88042761608255
 10
175.9422848707104
 20
12.25209798008257
 10
163.4850392347104
 20
12.25209798008257
  0
SOLID
  5
D4
330
89
100
AcDbEntity
  8
06-99
100
AcDbTrace
 10
163.6086138067104
 20
12.88042761608255
 30
0.0
 11
176.0658630067103
 21
12.88042761608255
 31
0.0
 12
163.4850392347104
 22
12.25209798008257
 32
0.0
 13
175.9422848707104
 23
12.25209798008257
 33
0.0
  0
LWPOLYLINE
  5
D5
330
89
100
AcDbEntity
  8
06-99
100
AcDbPolyline
 90
       10
 70
     1
 43
0.010692
 10
169.3458447787104
 20
16.02887234408263
 10
170.3221847587103
 20
19.10266909208258
 10
171.3396497347103
 20
16.02887234408263
 10
172.5678005707104
 20
19.80153385208257
 10
172.2235110427103
 20
19.80153385208257
 10
171.3396497347103
 20
16.89303186008254
 10
170.3221847587103
 20
19.94541253208251
 10
169.3458447787104
 20
16.86733898408261
 10
168.4260120187104
 20
19.80153385208257
 10
168.0765832027105
 20
19.80153385208257
  0
LWPOLYLINE
  5
D6
330
89
100
AcDbEntity
  8
06-99
100
AcDbPolyline
 90
        3
 70
     1
 43
0.010692
 10
174.3244177627104
 20
17.65868598008262
 10
174.9770360587104
 20
19.25683347608253
 10
175.6039650427103
 20
17.65868598008262
  0
LWPOLYLINE
  5
D7
330
89
100
AcDbEntity
  8
06-99
100
AcDbPolyline
 90
        7
 70
     1
 43
0.010692
 10
173.3831831827104
 20
16.12735992008254
 10
173.7231959107104
 20
16.12735992008254
 10
174.2113641187103
 20
17.37092862008256
 10
175.7118651427105
 20
17.37092862008256
 10
176.1794940187103
 20
16.12735992008254
 10
176.5443406987103
 20
16.12735992008254
 10
174.9975932107104
 20
19.94541253208251
  0
LWPOLYLINE
  5
D8
330
89
100
AcDbEntity
  8
06-99
100
AcDbPolyline
 90
        8
 70
     1
 43
0.010692
 10
185.9298068107102
 20
12.25281434408265
 10
187.0043813227103
 20
12.25281434408265
 10
187.1574087907104
 20
12.60301298408257
 10
187.9122746827104
 20
12.60301298408257
 10
187.9343465347103
 20
12.25281434408265
 10
189.0082759627103
 20
12.25281434408265
 10
188.5711513627103
 20
15.0349083840826
 10
187.4583137467103
 20
15.0349083840826
  0
LWPOLYLINE
  5
D9
330
89
100
AcDbEntity
  8
06-99
100
AcDbPolyline
 90
       34
 70
     1
 43
0.010692
 10
183.0434586427104
 20
13.66137842408255
 10
183.0784820707102
 20
13.66137842408255
 10
183.0642260707104
 20
13.48699903208262
 10
183.0638019547103
 20
13.33510135208257
 10
183.0679005547104
 20
13.20222830408261
 10
183.0952328707104
 20
12.25281434408265
 10
183.9668304547102
 20
12.25281434408265
 10
185.3156904067102
 20
15.0349083840826
 10
184.3118078347104
 20
15.0349083840826
 10
183.8579146147103
 20
13.80923096408253
 10
183.8078119027104
 20
13.66872739208253
 10
183.7488419587103
 20
13.48671391208251
 10
183.6900288307102
 20
13.26059949608265
 10
183.6666953227103
 20
13.26059949608265
 10
183.6884214667103
 20
13.45803440408258
 10
183.6929798227104
 20
13.61569507208253
 10
183.6919391347103
 20
13.73531360408259
 10
183.6775548307103
 20
15.0349083840826
 10
182.9732870467103
 20
15.0349083840826
 10
182.4584850667104
 20
13.73531360408259
 10
182.4113832427102
 20
13.61569507208253
 10
182.3552288587104
 20
13.45803440408258
 10
182.3009241907103
 20
13.26059949608265
 10
182.2775906827103
 20
13.26059949608265
 10
182.3058460747104
 20
13.48671391208251
 10
182.3169657547104
 20
13.66872739208253
 10
182.3209609987103
 20
13.80923096408253
 10
182.3390340427103
 20
15.0349083840826
 10
181.3345063867103
 20
15.0349083840826
 10
181.6127371747104
 20
12.25281434408265
 10
182.4843311947103
 20
12.25281434408265
 10
182.8772408107104
 20
13.20222830408261
 10
182.9325148867103
 20
13.33510135208257
 10
182.9905795747104
 20
13.48699903208262
  0
LWPOLYLINE
  5
DA
330
89
100
AcDbEntity
  8
06-99
100
AcDbPolyline
 90
       10
 70
     1
 43
0.010692
 10
187.4520696187103
 20
13.2644842560826
 10
187.5983611267103
 20
13.57965946808258
 10
187.6731124627104
 20
13.74409530008267
 10
187.7541542587104
 20
13.9457107800826
 10
187.8288307507103
 20
14.19056470808266
 10
187.8482901907103
 20
14.19056470808266
 10
187.8286668067103
 20
13.9457107800826
 10
187.8320739907103
 20
13.74409530008267
 10
187.8435073027103
 20
13.57965946808258
 10
187.8684125347105
 20
13.2644842560826
  0
LWPOLYLINE
  5
DB
330
89
100
AcDbEntity
  8
06-99
100
AcDbPolyline
 90
       23
 70
     1
 43
0.010692
 10
190.5867074107104
 20
12.25281434408265
 10
191.5672422187102
 20
12.25281434408265
 10
191.7440380027103
 20
13.17110389208255
 10
192.0536284267105
 20
12.25281434408265
 10
193.1742391267103
 20
12.25281434408265
 10
192.6490694707104
 20
13.38511496408256
 10
192.8084301667104
 20
13.42380931208259
 10
192.9537023707103
 20
13.49881725608259
 10
193.0813505947103
 20
13.60690268408257
 10
193.1878322227103
 20
13.74481879208258
 10
193.2696010747103
 20
13.90932234008255
 10
193.3231145347102
 20
14.09717008808257
 10
193.3446018907103
 20
14.26809240008259
 10
193.3403037067103
 20
14.42330103608265
 10
193.3102306747104
 20
14.56226139608259
 10
193.2543934867102
 20
14.6844353160825
 10
193.1728099627103
 20
14.78928819608262
 10
193.0654943587103
 20
14.87627830808259
 10
192.9324538027104
 20
14.94487461608258
 10
192.7737096787102
 20
14.99453539208264
 10
192.5892655507103
 20
15.0247260360826
 10
192.3791463667103
 20
15.0349083840826
 10
191.1223445347103
 20
15.0349083840826
  0
LWPOLYLINE
  5
DC
330
89
100
AcDbEntity
  8
06-99
100
AcDbPolyline
 90
        9
 70
     1
 43
0.010692
 10
191.9650345147104
 20
14.31896493608258
 10
192.1206850867104
 20
14.31896493608258
 10
192.2773549627104
 20
14.28538492808252
 10
192.3582221227102
 20
14.19041145608264
 10
192.3632188507104
 20
14.04270147608258
 10
192.3008666707103
 20
13.89700159208263
 10
192.1832938747103
 20
13.8057810120826
 10
192.0158143867103
 20
13.77422179208253
 10
191.8601638147104
 20
13.77422179208253
  0
LWPOLYLINE
  5
DD
330
89
100
AcDbEntity
  8
06-99
100
AcDbPolyline
 90
       12
 70
     1
 43
0.010692
 10
187.5798033787105
 20
16.12735992008254
 10
189.3989010547104
 20
16.12735992008254
 10
189.3989010547104
 20
16.44082441208252
 10
187.9138214587104
 20
16.44082441208252
 10
187.9138214587104
 20
18.02353266008265
 10
189.3989010547104
 20
18.02353266008265
 10
189.3989010547104
 20
18.33699715208263
 10
187.9138214587104
 20
18.33699715208263
 10
187.9138214587104
 20
19.48806936008259
 10
189.3989010547104
 20
19.48806936008259
 10
189.3989010547104
 20
19.80153385208257
 10
187.5798033787105
 20
19.80153385208257
  0
LWPOLYLINE
  5
DE
330
89
100
AcDbEntity
  8
06-99
100
AcDbPolyline
 90
        8
 70
     1
 43
0.010692
 10
182.8530269947105
 20
16.12735992008254
 10
183.1870486387104
 20
16.12735992008254
 10
183.1870486387104
 20
19.09753336808256
 10
185.7666682747103
 20
16.01858664008256
 10
185.7666682747103
 20
19.80153385208257
 10
185.4326608867104
 20
19.80153385208257
 10
185.4326608867104
 20
16.88274615608259
 10
182.8530269947105
 20
19.95568398008254
  0
LWPOLYLINE
  5
DF
330
89
100
AcDbEntity
  8
06-99
100
AcDbPolyline
 90
       19
 70
     1
 43
0.010692
 10
191.4484255867105
 20
19.50862651208251
 10
191.7824329747104
 20
19.50862651208251
 10
191.9866180987103
 20
19.50030813608259
 10
192.1604486347104
 20
19.47385969208255
 10
192.3048975547104
 20
19.4270572440825
 10
192.4209200107105
 20
19.35767329208255
 10
192.5094818467105
 20
19.26348033608252
 10
192.5715453427103
 20
19.14225087608264
 10
192.6080799067104
 20
18.99175028408251
 10
192.6200442547104
 20
18.80976175208258
 10
192.6074490787103
 20
18.63100933208255
 10
192.5693784307105
 20
18.48586186808256
 10
192.5054188867104
 20
18.37130421608265
 10
192.4151392027104
 20
18.28432836008261
 10
192.2981259547105
 20
18.2219227200826
 10
192.1539514627104
 20
18.18107215208255
 10
191.9821916107103
 20
18.15877220408265
 10
191.7824329747104
 20
18.15200773208261
 10
191.4484255867105
 20
18.15200773208261
  0
LWPOLYLINE
  5
E0
330
89
100
AcDbEntity
  8
06-99
100
AcDbPolyline
 90
       29
 70
     1
 43
0.010692
 10
193.3446018907103
 20
16.12735992008254
 10
192.0239581267103
 20
17.87965398008259
 10
192.2123761147105
 20
17.89225272008264
 10
192.3829028227104
 20
17.92942167608254
 10
192.5344013347104
 20
17.99023064408266
 10
192.6657240427104
 20
18.0737565480826
 10
192.7757304667104
 20
18.17905849208256
 10
192.8632765627103
 20
18.3052169640826
 10
192.9272254147104
 20
18.45129463208263
 10
192.9664329787103
 20
18.61636129208261
 10
192.9797552107102
 20
18.79949030408261
 10
192.9699399547105
 20
18.9745539840826
 10
192.9404834947105
 20
19.13261738408261
 10
192.8913573187104
 20
19.27374822008261
 10
192.8225436067105
 20
19.39801420808248
 10
192.7340174107104
 20
19.50548662808262
 10
192.6257537827105
 20
19.5962367600826
 10
192.4977313387104
 20
19.67032875608254
 10
192.3499251307103
 20
19.72783389608258
 10
192.1823137747103
 20
19.76882702408261
 10
191.9948758867103
 20
19.79336872808261
 10
191.7875829547104
 20
19.80153385208257
 10
191.7875829547104
 20
19.80153385208257
 10
191.1144075067104
 20
19.80153385208257
 10
191.1144075067104
 20
16.12735992008254
 10
191.4484255867105
 20
16.12735992008254
 10
191.4484255867105
 20
17.87965398008259
 10
191.6488399987104
 20
17.87965398008259
 10
192.9386409067103
 20
16.12735992008254
  0
TEXT
  5
E1
330
89
100
AcDbEntity
  8
06-99
100
AcDbText
 10
172.6083599897699
 20
9.633209504468425
 30
0.0
 40
1.4256
  1
GmbH & Co KG
 41
1.199203187251
 51
15.0
  7
ROMAND8
 72
     5
 11
193.04195998977
 21
9.633209504468425
 31
0.0
100
AcDbText
  0
TEXT
  5
E3
330
89
100
AcDbEntity
  8
06-99
100
AcDbText
 10
172.7098167443538
 20
7.391016232044876
 30
0.0
 40
1.4256
  1
72774 Reutlingen
 50
0.5663244663116128
 41
1.087840993687879
 51
15.0
  7
ROMAND8
 72
     5
 11
192.9434167443538
 21
7.591016232044864
 31
0.0
100
AcDbText
  0
TEXT
  5
E4
330
89
100
AcDbEntity
  8
08-99
100
AcDbText
 10
160.4141200905478
 20
48.45009214919253
 30
0.0
 40
2.25
  1
Zul. Abw.
 51
15.0
  7
ROMANS8
100
AcDbText
  0
TEXT
  5
E5
330
89
100
AcDbEntity
  8
08-99
100
AcDbText
 10
210.2099282109939
 20
49.2861646781227
 30
0.0
 40
2.0
  1
Mat. Art.
 51
15.0
  7
ROMANS8
100
AcDbText
  0
TEXT
  5
E6
330
89
100
AcDbEntity
  8
08-99
100
AcDbText
 10
242.4865328610831
 20
49.40431390209392
 30
0.0
 40
2.0
  1
Oberfläche:
 51
15.0
  7
ROMANS8
100
AcDbText
  0
TEXT
  5
E7
330
89
100
AcDbEntity
  8
08-99
100
AcDbText
 10
270.2625397292909
 20
41.73764723542717
 30
0.0
 40
2.0
  1
Blech Dicke:
 51
15.0
  7
ROMANS8
100
AcDbText
  0
TEXT
  5
E8
330
89
100
AcDbEntity
  8
08-99
100
AcDbText
 10
274.438029919268
 20
49.28616467812275
 30
0.0
 40
2.0
  1
Maßstab:
 51
15.0
  7
ROMANS8
100
AcDbText
  0
LINE
  5
E9
330
89
100
AcDbEntity
  8
01-99
100
AcDbLine
 10
202.0000018907103
 20
46.88888940774922
 30
0.0
 11
179.0000018907103
 21
46.88888940774922
 31
0.0
  0
LINE
  5
EA
330
89
100
AcDbEntity
  8
01-99
100
AcDbLine
 10
202.0000018907103
 20
44.33333385208249
 30
0.0
 11
179.0000018907103
 21
44.33333385208249
 31
0.0
  0
LINE
  5
EB
330
89
100
AcDbEntity
  8
01-99
100
AcDbLine
 10
202.0000018907103
 20
40.50000051874917
 30
0.0
 11
179.0000018907103
 21
40.50000051874917
 31
0.0
  0
ATTDEF
  5
EC
330
89
100
AcDbEntity
  8
06-99
100
AcDbText
 10
203.4954486298875
 20
26.18783921603142
 30
0.0
 40
4.5
  1

 41
0.9
  7
ROMANS8
100
AcDbAttributeDefinition
280
     0
  3
Benennung/Teil
  2
TEILE
 70
     0
280
     0
  0
ATTDEF
  5
ED
330
89
100
AcDbEntity
  8
06-99
100
AcDbText
 10
203.4954486298875
 20
18.95060400366537
 30
0.0
 40
4.5
  1

 41
0.9
  7
ROMANS8
100
AcDbAttributeDefinition
280
     0
  3
Benennung/Teil2
  2
TEILE2
 70
     0
280
     0
  0
ATTDEF
  5
EE
330
89
100
AcDbEntity
  8
06-99
100
AcDbText
 10
278.3473881024249
 20
45.33333385208254
 30
0.0
 40
3.375
  1

  7
ROMANS8
100
AcDbAttributeDefinition
280
     0
  3
Maßstab
  2
:
 70
     0
280
     0
  0
ATTDEF
  5
EF
330
89
100
AcDbEntity
  8
06-99
100
AcDbText
 10
179.9970696900777
 20
27.4416859867805
 30
0.0
 40
2.5
  1

 41
0.9
  7
ROMANS8
100
AcDbAttributeDefinition
280
     0
  3
Name
  2
NAME
 70
     0
280
     0
  0
ATTDEF
  5
F0
330
89
100
AcDbEntity
  8
06-99
100
AcDbText
 10
166.4931483426044
 20
27.46123569286044
 30
0.0
 40
2.5
  1

 50
359.9144597696142
 41
0.9542572414211148
  7
ROMANS8
 72
     5
 11
177.7397390111491
 21
27.44444498541589
 31
0.0
100
AcDbAttributeDefinition
280
     0
  3
Datum
  2
DATUM
 70
     0
280
     0
  0
ATTDEF
  5
F1
330
89
100
AcDbEntity
  8
06-99
100
AcDbText
 10
265.5063458578686
 20
7.492900319037914
 30
0.0
 40
2.99376
  1

  7
ROMANS8
100
AcDbAttributeDefinition
280
     0
  3
Ident-Nummer
  2
ID.NR
 70
     0
280
     0
  0
ATTDEF
  5
F2
330
89
100
AcDbEntity
  8
06-99
100
AcDbText
 10
203.7312681464209
 20
37.66666716319367
 30
0.0
 40
3.0
  1

 41
0.9
  7
ROMANS8
100
AcDbAttributeDefinition
280
     0
  3
Zuschnitts.Länge
  2
LÄNGE
 70
     0
280
     0
  0
ATTDEF
  5
F3
330
89
100
AcDbEntity
  8
06-99
100
AcDbText
 10
237.1808068024801
 20
37.67810438919398
 30
0.0
 40
3.0
  1

 41
0.9
  7
ROMANS8
100
AcDbAttributeDefinition
280
     0
  3
Zuschnitts Breite
  2
BREITE
 70
     0
280
     0
  0
ATTDEF
  5
F4
330
89
100
AcDbEntity
  8
06-99
100
AcDbText
 10
277.6090940174422
 20
37.66666718541598
 30
0.0
 40
3.09375
  1

  7
ROMANS8
100
AcDbAttributeDefinition
280
     0
  3
Blech.Dicke
  2
1.0
 70
     0
280
     0
  0
ATTDEF
  5
F5
330
89
100
AcDbEntity
  8
06-99
100
AcDbText
 10
251.127787492113
 20
45.33333385208266
 30
0.0
 40
3.0
  1

  7
ROMANS8
 72
     1
 11
251.127787492113
 21
45.33333385208266
 31
0.0
100
AcDbAttributeDefinition
280
     0
  3
Oberfläche
  2
IV
 70
     0
280
     0
  0
ATTDEF
  5
F6
330
89
100
AcDbEntity
  8
06-99
100
AcDbText
 10
210.2747424268261
 20
45.33333385208249
 30
0.0
 40
3.375
  1
1.4301
  7
ROMANS8
100
AcDbAttributeDefinition
280
     0
  3
Mat.Art
  2
1.4301
 70
     0
280
     0
  0
ATTDEF
  5
F7
330
89
100
AcDbEntity
  8
06-99
100
AcDbText
 10
233.0006357775904
 20
7.504397123103842
 30
0.0
 40
3.168
  1

 41
0.9
  7
ROMANS8
100
AcDbAttributeDefinition
280
     0
  3
Auftrags Nr.
  2
AUFTRAGS.NR.
 70
     0
280
     0
  0
ATTDEF
  5
F8
330
89
100
AcDbEntity
  8
06-99
100
AcDbText
 10
203.5000018907104
 20
7.500000518749232
 30
0.0
 40
3.168
  1

 41
0.9
  7
ROMANS8
100
AcDbAttributeDefinition
280
     0
  3
Sonder-NR,WPS
  2
SONDER-NR
 70
     0
280
     0
  0
ATTDEF
  5
F9
330
89
100
AcDbEntity
  8
06-99
100
AcDbText
 10
133.4997528857186
 20
6.601810588009072
 30
0.0
 40
1.5
  1

 41
0.9
  7
ROMANS8
100
AcDbAttributeDefinition
280
     0
  3
ERSETZT.Durch
  2
ERSETZT.DURCH
 70
     0
280
     0
  0
ATTDEF
  5
FA
330
89
100
AcDbEntity
  8
06-99
100
AcDbText
 10
108.4994696709088
 20
6.597456916621638
 30
0.0
 40
1.5
  1

 41
0.9
  7
ROMANS8
100
AcDbAttributeDefinition
280
     0
  3
ERSETZT.Für
  2
ERSETZT.FÜR
 70
     0
280
     0
  0
ATTDEF
  5
FB
330
89
100
AcDbEntity
  8
06-99
100
AcDbText
 10
186.9730745371479
 20
47.66851165875721
 30
0.0
 40
1.287
  1
DIN A4
  7
ROMANS8
 72
     1
 11
190.2518602514336
 21
47.66851165875721
 31
0.0
100
AcDbAttributeDefinition
280
     0
  3
Format
  2
FORMAT
 70
     0
280
     0
  0
ATTDEF
  5
FC
330
89
100
AcDbEntity
  8
06-99
100
AcDbText
 10
182.9908211122643
 20
37.31860869812611
 30
0.0
 40
2.34
  1
DIN 2768
  7
ROMANS8
 72
     1
 11
191.0136782551214
 21
37.31860869812611
 31
0.0
100
AcDbAttributeDefinition
280
     0
  3
Norm / Kanten
  2
NORM2
 70
     0
280
     0
  0
ATTDEF
  5
FD
330
89
100
AcDbEntity
  8
06-99
100
AcDbText
 10
179.8151068265501
 20
41.15194203145941
 30
0.0
 40
2.34
  1
DIN 6930-M
  7
ROMANS8
 72
     1
 11
190.5122496836929
 21
41.15194203145941
 31
0.0
100
AcDbAttributeDefinition
280
     0
  3
Norm / Fräsen
  2
NORM1
 70
     0
280
     0
  0
ENDBLK
  5
FE
330
89
100
AcDbEntity
  8
0
100
AcDbBlockEnd
  0
BLOCK
  5
79
330
78
100
AcDbEntity
  8
0
100
AcDbBlockBegin
  2
*D20
 70
     1
 10
0.0
 20
0.0
 30
0.0
  3
*D20
  1

  0
LINE
  5
7A
330
78
100
AcDbEntity
  8
10-01
 62
     4
370
    -2
100
AcDbLine
 10
276.6975349913492
 20
355.2945519486079
 30
0.0
 11
303.7352857837305
 21
355.2945519486079
 31
0.0
  0
LINE
  5
7B
330
78
100
AcDbEntity
  8
10-01
 62
     4
370
    -2
100
AcDbLine
 10
276.6975349913492
 20
349.794551948608
 30
0.0
 11
303.7352857837305
 21
349.794551948608
 31
0.0
  0
LINE
  5
7C
330
78
100
AcDbEntity
  8
10-01
 62
     4
370
    -2
100
AcDbLine
 10
301.7352857837305
 20
360.2945519486079
 30
0.0
 11
301.7352857837305
 21
365.2945519486079
 31
0.0
  0
LINE
  5
7D
330
78
100
AcDbEntity
  8
10-01
 62
     4
370
    -2
100
AcDbLine
 10
301.7352857837305
 20
344.7945519486079
 30
0.0
 11
301.7352857837305
 21
339.7945519486079
 31
0.0
  0
LINE
  5
7E
330
78
100
AcDbEntity
  8
10-01
 62
     4
370
    -2
100
AcDbLine
 10
301.7352857837305
 20
355.2945519486079
 30
0.0
 11
301.7352857837305
 21
349.794551948608
 31
0.0
  0
SOLID
  5
7F
330
78
100
AcDbEntity
  8
10-01
 62
     4
100
AcDbTrace
 10
300.9019524503971
 20
360.2945519486079
 30
0.0
 11
302.5686191170637
 21
360.2945519486079
 31
0.0
 12
301.7352857837305
 22
355.2945519486079
 32
0.0
 13
301.7352857837305
 23
355.2945519486079
 33
0.0
  0
SOLID
  5
80
330
78
100
AcDbEntity
  8
10-01
 62
     4
100
AcDbTrace
 10
300.9019524503971
 20
344.7945519486079
 30
0.0
 11
302.5686191170637
 21
344.7945519486079
 31
0.0
 12
301.7352857837305
 22
349.794551948608
 32
0.0
 13
301.7352857837305
 23
349.794551948608
 33
0.0
  0
MTEXT
  5
81
330
78
100
AcDbEntity
  8
10-01
 62
     1
100
AcDbMText
 10
297.2352857837304
 20
352.544551948608
 30
0.0
 40
5.0
 41
0.0
 46
0.0
 71
     5
 72
     1
  1
5.5
 11
0.0000000000000001
 21
1.0
 31
0.0
 73
     1
 44
1.0
  0
POINT
  5
82
330
78
100
AcDbEntity
  8
Defpoints
 62
     0
100
AcDbPoint
 10
274.6975349913492
 20
355.2945519486079
 30
0.0
  0
POINT
  5
84
330
78
100
AcDbEntity
  8
Defpoints
 62
     0
100
AcDbPoint
 10
274.6975349913492
 20
349.794551948608
 30
0.0
  0
POINT
  5
85
330
78
100
AcDbEntity
  8
Defpoints
 62
     0
100
AcDbPoint
 10
301.7352857837305
 20
349.794551948608
 30
0.0
  0
ENDBLK
  5
86
330
78
100
AcDbEntity
  8
0
100
AcDbBlockEnd
  0
ENDSEC
  0
SECTION
  2
ENTITIES
  0
DIMENSION
  5
77
330
2
100
AcDbEntity
  8
10-01
100
AcDbDimension
280
     0
  2
*D20
 10
301.7352857837305
 20
349.794551948608
 30
0.0
 11
297.2352857837304
 21
352.544551948608
 31
0.0
 71
     5
 42
5.5
 73
     0
 74
     0
 75
     0
  3
Wagner$0
100
AcDbAlignedDimension
 13
274.6975349913492
 23
355.2945519486079
 33
0.0
 14
274.6975349913492
 24
349.794551948608
 34
0.0
 50
90.0
100
AcDbRotatedDimension
1001
ACAD
1000
DSTYLE
1002
{
1070
    40
1040
2.0
1002
}
  0
INSERT
  5
88
330
2
100
AcDbEntity
  8
10-01
100
AcDbBlockReference
 66
     1
  2
DIN A4 Quer
 10
0.0
 20
0.0
 30
0.0
 41
2.0
 42
2.0
 43
2.0
  0
ATTRIB
  5
FF
330
88
100
AcDbEntity
  8
06-99
100
AcDbText
 10
406.9908972597749
 20
52.37567843206284
 30
0.0
 40
9.0
  1
Doppel-Toilettenpapierhalter
 41
0.9
  7
ROMANS8
100
AcDbAttribute
280
     0
  2
TEILE
 70
     0
280
     0
  0
ATTRIB
  5
100
330
88
100
AcDbEntity
  8
06-99
100
AcDbText
 10
406.9908972597749
 20
37.90120800733075
 30
0.0
 40
9.0
  1
AC 252
 41
0.9
  7
ROMANS8
100
AcDbAttribute
280
     0
  2
TEILE2
 70
     0
280
     0
  0
ATTRIB
  5
101
330
88
100
AcDbEntity
  8
06-99
100
AcDbText
 10
556.6947762048498
 20
90.66666770416508
 30
0.0
 40
6.75
  1
1:2
  7
ROMANS8
100
AcDbAttribute
280
     0
  2
:
 70
     0
280
     0
  0
ATTRIB
  5
102
330
88
100
AcDbEntity
  8
06-99
100
AcDbText
 10
359.9941393801555
 20
54.88337197356099
 30
0.0
 40
5.0
  1
Roser
 41
0.9
  7
ROMANS8
100
AcDbAttribute
280
     0
  2
NAME
 70
     0
280
     0
  0
ATTRIB
  5
103
330
88
100
AcDbEntity
  8
06-99
100
AcDbText
 10
332.9862966852088
 20
54.92247138572088
 30
0.0
 40
5.0
  1
12.10.2007
 50
359.9144597696142
 41
0.5691052222933153
  7
ROMANS8
 72
     5
 11
355.4794780222983
 21
54.88888997083177
 31
0.0
100
AcDbAttribute
280
     0
  2
DATUM
 70
     0
280
     0
  0
ATTRIB
  5
104
330
88
100
AcDbEntity
  8
06-99
100
AcDbText
 10
531.0126917157372
 20
14.98580063807583
 30
0.0
 40
5.98752
  1
700252
  7
ROMANS8
100
AcDbAttribute
280
     0
  2
ID.NR
 70
     0
280
     0
  0
ATTRIB
  5
105
330
88
100
AcDbEntity
  8
06-99
100
AcDbText
 10
407.4625362928418
 20
75.33333432638733
 30
0.0
 40
6.0
  1

 41
0.9
  7
ROMANS8
100
AcDbAttribute
280
     0
  2
LÄNGE
 70
     0
280
     0
  0
ATTRIB
  5
106
330
88
100
AcDbEntity
  8
06-99
100
AcDbText
 10
474.3616136049602
 20
75.35620877838795
 30
0.0
 40
6.0
  1

 41
0.9
  7
ROMANS8
100
AcDbAttribute
280
     0
  2
BREITE
 70
     0
280
     0
  0
ATTRIB
  5
107
330
88
100
AcDbEntity
  8
06-99
100
AcDbText
 10
555.2181880348844
 20
75.33333437083195
 30
0.0
 40
6.187500000000001
  1

  7
ROMANS8
100
AcDbAttribute
280
     0
  2
1.0
 70
     0
280
     0
  0
ATTRIB
  5
108
330
88
100
AcDbEntity
  8
06-99
100
AcDbText
 10
502.255574984226
 20
90.66666770416532
 30
0.0
 40
6.0
  1

  7
ROMANS8
 72
     1
 11
502.255574984226
 21
90.66666770416532
 31
0.0
100
AcDbAttribute
280
     0
  2
IV
 70
     0
280
     0
  0
ATTRIB
  5
109
330
88
100
AcDbEntity
  8
06-99
100
AcDbText
 10
420.5494848536522
 20
90.66666770416498
 30
0.0
 40
6.75
  1
1.4305
  7
ROMANS8
100
AcDbAttribute
280
     0
  2
1.4301
 70
     0
280
     0
  0
ATTRIB
  5
10A
330
88
100
AcDbEntity
  8
06-99
100
AcDbText
 10
466.0012715551808
 20
15.00879424620768
 30
0.0
 40
6.336
  1

 41
0.9000000000000001
  7
ROMANS8
100
AcDbAttribute
280
     0
  2
AUFTRAGS.NR.
 70
     0
280
     0
  0
ATTRIB
  5
10B
330
88
100
AcDbEntity
  8
06-99
100
AcDbText
 10
407.0000037814207
 20
15.00000103749846
 30
0.0
 40
6.336
  1

 41
0.9000000000000001
  7
ROMANS8
100
AcDbAttribute
280
     0
  2
SONDER-NR
 70
     0
280
     0
  0
ATTRIB
  5
10C
330
88
100
AcDbEntity
  8
06-99
100
AcDbText
 10
266.9995057714373
 20
13.20362117601814
 30
0.0
 40
3.0
  1

 41
0.9
  7
ROMANS8
100
AcDbAttribute
280
     0
  2
ERSETZT.DURCH
 70
     0
280
     0
  0
ATTRIB
  5
10D
330
88
100
AcDbEntity
  8
06-99
100
AcDbText
 10
216.9989393418177
 20
13.19491383324328
 30
0.0
 40
3.0
  1

 41
0.9
  7
ROMANS8
100
AcDbAttribute
280
     0
  2
ERSETZT.FÜR
 70
     0
280
     0
  0
ATTRIB
  5
10E
330
88
100
AcDbEntity
  8
06-99
100
AcDbText
 10
373.9461490742959
 20
95.33702331751442
 30
0.0
 40
2.574
  1
DIN A4
  7
ROMANS8
 72
     1
 11
380.5037205028673
 21
95.33702331751442
 31
0.0
100
AcDbAttribute
280
     0
  2
FORMAT
 70
     0
280
     0
  0
ATTRIB
  5
10F
330
88
100
AcDbEntity
  8
06-99
100
AcDbText
 10
365.9816422245287
 20
74.63721739625222
 30
0.0
 40
4.68
  1
DIN 2768
  7
ROMANS8
 72
     1
 11
382.0273565102429
 21
74.63721739625222
 31
0.0
100
AcDbAttribute
280
     0
  2
NORM2
 70
     0
280
     0
  0
ATTRIB
  5
110
330
88
100
AcDbEntity
  8
06-99
100
AcDbText
 10
359.6302136531002
 20
82.30388406291883
 30
0.0
 40
4.68
  1
DIN 6930-M
  7
ROMANS8
 72
     1
 11
381.0244993673859
 21
82.30388406291883
 31
0.0
100
AcDbAttribute
280
     0
  2
NORM1
 70
     0
280
     0
  0
SEQEND
  5
111
330
88
100
AcDbEntity
  8
10-01
  0
DIMENSION
  5
112
330
2
100
AcDbEntity
  8
09-01
100
AcDbDimension
280
     0
  2
*D18
 10
462.397558106349
 20
141.8755002790807
 30
0.0
 11
447.397558106349
 21
146.3755002790807
 31
0.0
 71
     5
 42
30.00000000000006
 73
     0
 74
     0
 75
     0
  3
Wagner$0
100
AcDbAlignedDimension
 13
432.3975581063489
 23
156.9891398016207
 33
0.0
 14
462.397558106349
 24
156.9891398016207
 34
0.0
100
AcDbRotatedDimension
1001
ACAD
1000
DSTYLE
1002
{
1070
    40
1040
2.0
1002
}
  0
LINE
  5
122
330
2
100
AcDbEntity
  8
03-01
100
AcDbLine
 10
441.397558106349
 20
230.3891398016207
 30
0.0
 11
453.397558106349
 21
230.3891398016207
 31
0.0
  0
DIMENSION
  5
127
330
2
100
AcDbEntity
  8
09-01
100
AcDbDimension
280
     0
  2
*D17
 10
485.7100150904122
 20
230.3891398016207
 30
0.0
 11
481.2100150904122
 21
240.3891398016208
 31
0.0
 71
     5
 42
20.00000000000003
 73
     0
 74
     0
 75
     0
  3
Wagner$0
100
AcDbAlignedDimension
 13
461.397558106349
 23
250.3891398016207
 33
0.0
 14
461.397558106349
 24
230.3891398016207
 34
0.0
 50
90.0
100
AcDbRotatedDimension
1001
ACAD
1000
DSTYLE
1002
{
1070
    40
1040
2.0
1002
}
  0
DIMENSION
  5
134
330
2
100
AcDbEntity
  8
09-01
100
AcDbDimension
280
     0
  2
*D16
 10
396.3975581063491
 20
275.0137236421049
 30
0.0
 11
429.397558106349
 21
279.5137236421049
 31
0.0
 71
     5
 42
66.0
 73
     0
 74
     0
 75
     0
  3
Wagner$0
100
AcDbAlignedDimension
 13
462.397558106349
 23
249.3891398016207
 33
0.0
 14
396.3975581063491
 24
262.8891398016207
 34
0.0
100
AcDbRotatedDimension
1001
ACAD
1000
DSTYLE
1002
{
1070
    40
1040
2.0
1002
}
  0
DIMENSION
  5
141
330
2
100
AcDbEntity
  8
09-01
100
AcDbDimension
280
     0
  2
*D15
 10
57.14024820403573
 20
153.3891398016207
 30
0.0
 11
52.64024820403571
 21
208.1391398016207
 31
0.0
 71
     5
 42
109.5
 73
     0
 74
     0
 75
     0
  3
Wagner$0
100
AcDbAlignedDimension
 13
153.6975349913492
 23
262.8891398016207
 33
0.0
 14
121.0725349913492
 24
153.3891398016207
 34
0.0
 50
90.0
100
AcDbRotatedDimension
1001
ACAD
1000
DSTYLE
1002
{
1070
    40
1040
2.0
1002
}
  0
DIMENSION
  5
14E
330
2
100
AcDbEntity
  8
09-01
100
AcDbDimension
280
     0
  2
*D14
 10
301.6975349913492
 20
204.8682262885022
 30
0.0
 11
281.6975349913493
 21
209.3682262885022
 31
0.0
 71
     5
 42
40.0
 73
     0
 74
     0
 75
     0
  3
Wagner$0
100
AcDbAlignedDimension
 13
261.6975349913492
 23
211.8891398016207
 33
0.0
 14
301.6975349913492
 24
235.3891398016207
 34
0.0
100
AcDbRotatedDimension
1001
ACAD
1000
DSTYLE
1002
{
1070
    40
1040
2.0
1002
}
  0
DIMENSION
  5
15B
330
2
100
AcDbEntity
  8
09-01
100
AcDbDimension
280
     0
  2
*D13
 10
261.6975349913493
 20
312.54762920078
 30
0.0
 11
207.6975349913493
 21
317.04762920078
 31
0.0
 71
     5
 42
108.0
 73
     0
 74
     0
 75
     0
  3
Wagner$0
100
AcDbAlignedDimension
 13
153.6975349913492
 23
318.6445182987758
 33
0.0
 14
261.6975349913493
 24
318.7949109469015
 34
0.0
100
AcDbRotatedDimension
1001
ACAD
1000
DSTYLE
1002
{
1070
    40
1040
2.0
1002
}
  0
LINE
  5
168
330
2
100
AcDbEntity
  8
03-01
100
AcDbLine
 10
441.898467272402
 20
156.9891398016207
 30
0.0
 11
452.896648940296
 21
156.9891398016206
 31
0.0
  0
LINE
  5
169
330
2
100
AcDbEntity
  8
03-01
100
AcDbLine
 10
441.397558106349
 20
161.7891398016207
 30
0.0
 11
453.3975581063491
 21
161.7891398016207
 31
0.0
  0
LINE
  5
16A
330
2
100
AcDbEntity
  8
09-01
100
AcDbLine
 10
432.3975581063489
 20
161.7891398016207
 30
0.0
 11
432.3975581063489
 21
156.9891398016207
 31
0.0
  0
LINE
  5
16B
330
2
100
AcDbEntity
  8
09-01
100
AcDbLine
 10
462.397558106349
 20
161.7891398016207
 30
0.0
 11
462.397558106349
 21
156.9891398016207
 31
0.0
  0
LINE
  5
16C
330
2
100
AcDbEntity
  8
09-01
100
AcDbLine
 10
452.896648940296
 20
156.9891398016207
 30
0.0
 11
462.397558106349
 21
156.9891398016207
 31
0.0
  0
LINE
  5
16D
330
2
100
AcDbEntity
  8
09-01
100
AcDbLine
 10
432.3975581063489
 20
156.9891398016207
 30
0.0
 11
441.898467272402
 21
156.9891398016207
 31
0.0
  0
LINE
  5
16E
330
2
100
AcDbEntity
  8
09-01
100
AcDbLine
 10
453.397558106349
 20
161.7891398016207
 30
0.0
 11
462.397558106349
 21
161.7891398016207
 31
0.0
  0
LINE
  5
16F
330
2
100
AcDbEntity
  8
09-01
100
AcDbLine
 10
432.3975581063489
 20
161.7891398016207
 30
0.0
 11
441.397558106349
 21
161.7891398016207
 31
0.0
  0
LINE
  5
170
330
2
100
AcDbEntity
  8
05-01
100
AcDbLine
 10
465.2574465424579
 20
159.3891398016207
 30
0.0
 11
430.1769963182514
 21
159.3891398016207
 31
0.0
  0
DIMENSION
  5
175
330
2
100
AcDbEntity
  8
09-01
100
AcDbDimension
280
     0
  2
*D12
 10
176.6975349913492
 20
137.117126131887
 30
0.0
 11
236.6975349913492
 21
141.617126131887
 31
0.0
 71
     5
 42
120.0
 73
     0
 74
     0
 75
     0
  3
Wagner$0
100
AcDbAlignedDimension
 13
296.6975349913493
 23
155.9891398016207
 33
0.0
 14
176.6975349913492
 24
155.9891398016207
 34
0.0
100
AcDbRotatedDimension
1001
ACAD
1000
DSTYLE
1002
{
1070
    40
1040
2.0
1002
}
  0
DIMENSION
  5
182
330
2
100
AcDbEntity
  8
09-01
100
AcDbDimension
280
     0
  2
*D11
 10
296.6975349913493
 20
137.117126131887
 30
0.0
 11
329.1975349913493
 21
141.617126131887
 31
0.0
 71
     5
 42
65.0
 73
     0
 74
     0
 75
     0
  3
Wagner$0
100
AcDbAlignedDimension
 13
361.6975349913492
 23
154.3891398016207
 33
0.0
 14
296.6975349913493
 24
155.9891398016207
 34
0.0
100
AcDbRotatedDimension
1001
ACAD
1000
DSTYLE
1002
{
1070
    40
1040
2.0
1002
}
  0
CIRCLE
  5
18F
330
2
100
AcDbEntity
  8
09-01
100
AcDbCircle
 10
296.6975349913493
 20
159.3891398016207
 30
0.0
 40
2.399999999999999
  0
LINE
  5
190
330
2
100
AcDbEntity
  8
05-01
100
AcDbLine
 10
300.0975349913492
 20
159.3891398016207
 30
0.0
 11
293.2975349913493
 21
159.3891398016207
 31
0.0
  0
LINE
  5
191
330
2
100
AcDbEntity
  8
05-01
100
AcDbLine
 10
296.6975349913493
 20
162.7891398016207
 30
0.0
 11
296.6975349913493
 21
155.9891398016207
 31
0.0
  0
CIRCLE
  5
192
330
2
100
AcDbEntity
  8
09-01
100
AcDbCircle
 10
176.6975349913492
 20
159.3891398016207
 30
0.0
 40
2.399999999999999
  0
LINE
  5
193
330
2
100
AcDbEntity
  8
05-01
100
AcDbLine
 10
180.0975349913492
 20
159.3891398016207
 30
0.0
 11
173.2975349913492
 21
159.3891398016207
 31
0.0
  0
ARC
  5
194
330
2
100
AcDbEntity
  8
03-01
100
AcDbCircle
 10
153.6975349913492
 20
240.3891398016207
 30
0.0
 40
22.50000000000001
100
AcDbArc
 50
164.5339900465794
 51
195.4660099534208
  0
ARC
  5
195
330
2
100
AcDbEntity
  8
03-01
100
AcDbCircle
 10
153.6975349913492
 20
240.3891398016207
 30
0.0
 40
22.50000000000001
100
AcDbArc
 50
344.5339900465792
 51
15.4660099534206
  0
ARC
  5
196
330
2
100
AcDbEntity
  8
03-01
100
AcDbCircle
 10
261.6975349913492
 20
240.3891398016207
 30
0.0
 40
22.5
100
AcDbArc
 50
164.5339900465792
 51
195.4660099534205
  0
ARC
  5
197
330
2
100
AcDbEntity
  8
03-01
100
AcDbCircle
 10
261.6975349913492
 20
240.3891398016207
 30
0.0
 40
22.5
100
AcDbArc
 50
344.5339900465796
 51
15.46600995342092
  0
TEXT
  5
198
330
2
100
AcDbEntity
  8
02-01
100
AcDbText
 10
183.2565279621258
 20
371.1337053935873
 30
0.0
 40
7.0
  1
%%UBohrbild
100
AcDbText
  0
DIMENSION
  5
199
330
2
100
AcDbEntity
  8
09-01
100
AcDbDimension
280
     0
  2
*D10
 10
274.6975349913493
 20
321.3689604740086
 30
0.0
 11
261.6975349913493
 21
325.8689604740085
 31
0.0
 71
     5
 42
26.0
 73
     0
 74
     0
 75
     0
  3
Wagner$0
100
AcDbAlignedDimension
 13
248.6975349913493
 23
348.7945519486079
 33
0.0
 14
274.6975349913493
 24
348.7945519486079
 34
0.0
100
AcDbRotatedDimension
1001
ACAD
1000
DSTYLE
1002
{
1070
    40
1040
2.0
1002
}
  0
DIMENSION
  5
1A6
330
2
100
AcDbEntity
  8
09-01
100
AcDbDimension
280
     0
  2
*D9
 10
166.6975349913492
 20
321.3689604740086
 30
0.0
 11
153.6975349913492
 21
325.8689604740085
 31
0.0
 71
     5
 42
26.00000000000003
 73
     0
 74
     0
 75
     0
  3
Wagner$0
100
AcDbAlignedDimension
 13
140.6975349913492
 23
348.7945519486079
 33
0.0
 14
166.6975349913492
 24
348.7945519486079
 34
0.0
100
AcDbRotatedDimension
1001
ACAD
1000
DSTYLE
1002
{
1070
    40
1040
2.0
1002
}
  0
CIRCLE
  5
1B3
330
2
100
AcDbEntity
  8
03-01
100
AcDbCircle
 10
261.6975349913492
 20
352.5445519486079
 30
0.0
 40
22.5
  0
CIRCLE
  5
1B4
330
2
100
AcDbEntity
  8
03-01
100
AcDbCircle
 10
153.6975349913492
 20
352.5445519486079
 30
0.0
 40
22.5
  0
CIRCLE
  5
1B5
330
2
100
AcDbEntity
  8
01-01
100
AcDbCircle
 10
166.6975349913492
 20
352.5445519486079
 30
0.0
 40
2.75
  0
LINE
  5
1B9
330
2
100
AcDbEntity
  8
05-01
100
AcDbLine
 10
166.6975349913492
 20
356.2945519486079
 30
0.0
 11
166.6975349913492
 21
348.7945519486079
 31
0.0
  0
CIRCLE
  5
1BA
330
2
100
AcDbEntity
  8
01-01
100
AcDbCircle
 10
140.6975349913492
 20
352.5445519486079
 30
0.0
 40
2.75
  0
LINE
  5
1BB
330
2
100
AcDbEntity
  8
05-01
100
AcDbLine
 10
140.6975349913492
 20
356.2945519486079
 30
0.0
 11
140.6975349913492
 21
348.7945519486079
 31
0.0
  0
LINE
  5
1BC
330
2
100
AcDbEntity
  8
05-01
100
AcDbLine
 10
130.1975349913492
 20
352.5445519486079
 30
0.0
 11
177.1975349913492
 21
352.5445519486079
 31
0.0
  0
LINE
  5
1BD
330
2
100
AcDbEntity
  8
05-01
100
AcDbLine
 10
153.6975349913492
 20
329.0445519486079
 30
0.0
 11
153.6975349913492
 21
376.0445519486079
 31
0.0
  0
CIRCLE
  5
1BE
330
2
100
AcDbEntity
  8
01-01
100
AcDbCircle
 10
274.6975349913492
 20
352.5445519486079
 30
0.0
 40
2.75
  0
LINE
  5
1BF
330
2
100
AcDbEntity
  8
05-01
100
AcDbLine
 10
274.6975349913493
 20
356.2945519486079
 30
0.0
 11
274.6975349913493
 21
348.7945519486079
 31
0.0
  0
CIRCLE
  5
1C0
330
2
100
AcDbEntity
  8
01-01
100
AcDbCircle
 10
248.6975349913493
 20
352.5445519486079
 30
0.0
 40
2.75
  0
LINE
  5
1C1
330
2
100
AcDbEntity
  8
05-01
100
AcDbLine
 10
285.1975349913492
 20
352.5445519486079
 30
0.0
 11
238.1975349913493
 21
352.5445519486079
 31
0.0
  0
LINE
  5
1C2
330
2
100
AcDbEntity
  8
05-01
100
AcDbLine
 10
248.6975349913493
 20
356.2945519486079
 30
0.0
 11
248.6975349913493
 21
348.7945519486079
 31
0.0
  0
LINE
  5
1C3
330
2
100
AcDbEntity
  8
05-01
100
AcDbLine
 10
261.6975349913492
 20
329.0445519486079
 30
0.0
 11
261.6975349913492
 21
376.0445519486079
 31
0.0
  0
DIMENSION
  5
1C4
330
2
100
AcDbEntity
  8
09-01
100
AcDbDimension
280
     0
  2
*D8
 10
261.6975349913492
 20
204.8682262885022
 30
0.0
 11
207.6975349913492
 21
209.3682262885022
 31
0.0
 71
     5
 42
108.0
 73
     0
 74
     0
 75
     0
  3
Wagner$0
100
AcDbAlignedDimension
 13
153.6975349913492
 23
211.8891398016207
 33
0.0
 14
261.6975349913492
 24
211.8891398016207
 34
0.0
100
AcDbRotatedDimension
1001
ACAD
1000
DSTYLE
1002
{
1070
    40
1040
2.0
1002
}
  0
DIMENSION
  5
1D1
330
2
100
AcDbEntity
  8
09-01
100
AcDbDimension
280
     0
  2
*D7
 10
356.6975349913493
 20
184.1809775487254
 30
0.0
 11
296.6975349913493
 21
188.6809775487254
 31
0.0
 71
     5
 42
120.0
 73
     0
 74
     0
 75
     0
  3
Wagner$0
100
AcDbAlignedDimension
 13
236.6975349913492
 23
171.3891398016206
 33
0.0
 14
356.6975349913493
 24
171.3891398016206
 34
0.0
100
AcDbRotatedDimension
1001
ACAD
1000
DSTYLE
1002
{
1070
    40
1040
2.0
1002
}
  0
LINE
  5
1DE
330
2
100
AcDbEntity
  8
0
100
AcDbLine
 10
238.6975349913492
 20
171.3891398016206
 30
0.0
 11
239.6975349913492
 21
170.3891398016205
 31
0.0
  0
LINE
  5
1DF
330
2
100
AcDbEntity
  8
03-01
100
AcDbLine
 10
239.6975349913493
 20
161.3891398016207
 30
0.0
 11
236.6975349913493
 21
160.3891398016207
 31
0.0
  0
LINE
  5
1E0
330
2
100
AcDbEntity
  8
03-01
100
AcDbLine
 10
239.6975349913493
 20
162.3891398016207
 30
0.0
 11
238.6975349913493
 21
161.3891398016207
 31
0.0
  0
LINE
  5
1E1
330
2
100
AcDbEntity
  8
03-01
100
AcDbLine
 10
239.6975349913493
 20
165.3891398016206
 30
0.0
 11
239.6975349913493
 21
161.3891398016207
 31
0.0
  0
LINE
  5
1E2
330
2
100
AcDbEntity
  8
0
100
AcDbLine
 10
239.6975349913492
 20
170.3891398016205
 30
0.0
 11
239.6975349913493
 21
165.3891398016207
 31
0.0
  0
LINE
  5
1E3
330
2
100
AcDbEntity
  8
0
100
AcDbLine
 10
233.6975349913493
 20
170.3891398016206
 30
0.0
 11
234.6975349913493
 21
171.3891398016206
 31
0.0
  0
LINE
  5
1E4
330
2
100
AcDbEntity
  8
03-01
100
AcDbLine
 10
234.6975349913493
 20
161.3891398016207
 30
0.0
 11
233.6975349913493
 21
162.3891398016207
 31
0.0
  0
LINE
  5
1E5
330
2
100
AcDbEntity
  8
03-01
100
AcDbLine
 10
233.6975349913493
 20
165.3891398016207
 30
0.0
 11
233.6975349913493
 21
161.3891398016207
 31
0.0
  0
LINE
  5
1E6
330
2
100
AcDbEntity
  8
0
100
AcDbLine
 10
233.6975349913493
 20
165.3891398016207
 30
0.0
 11
233.6975349913493
 21
170.3891398016206
 31
0.0
  0
LINE
  5
1E7
330
2
100
AcDbEntity
  8
03-01
100
AcDbLine
 10
236.6975349913493
 20
160.3891398016207
 30
0.0
 11
233.6975349913493
 21
161.3891398016207
 31
0.0
  0
LINE
  5
1E8
330
2
100
AcDbEntity
  8
0
100
AcDbLine
 10
233.6975349913493
 20
165.3891398016207
 30
0.0
 11
239.6975349913493
 21
165.3891398016207
 31
0.0
  0
LINE
  5
1E9
330
2
100
AcDbEntity
  8
03-01
100
AcDbLine
 10
233.6975349913493
 20
161.3891398016207
 30
0.0
 11
239.6975349913493
 21
161.3891398016207
 31
0.0
  0
LINE
  5
1EA
330
2
100
AcDbEntity
  8
03-01
100
AcDbLine
 10
234.6975349913493
 20
161.3891398016207
 30
0.0
 11
238.6975349913493
 21
161.3891398016207
 31
0.0
  0
LINE
  5
1EB
330
2
100
AcDbEntity
  8
03-01
100
AcDbLine
 10
233.6975349913493
 20
162.3891398016207
 30
0.0
 11
239.6975349913493
 21
162.3891398016207
 31
0.0
  0
LINE
  5
1EC
330
2
100
AcDbEntity
  8
0
100
AcDbLine
 10
234.6975349913493
 20
171.3891398016206
 30
0.0
 11
238.6975349913492
 21
171.3891398016206
 31
0.0
  0
LINE
  5
1ED
330
2
100
AcDbEntity
  8
0
100
AcDbLine
 10
233.6975349913493
 20
170.3891398016206
 30
0.0
 11
239.6975349913492
 21
170.3891398016205
 31
0.0
  0
CIRCLE
  5
1EE
330
2
100
AcDbEntity
  8
03-01
100
AcDbCircle
 10
166.6975349913492
 20
240.3891398016207
 30
0.0
 40
2.75
  0
CIRCLE
  5
1EF
330
2
100
AcDbEntity
  8
03-01
100
AcDbCircle
 10
166.6975349913492
 20
240.3891398016207
 30
0.0
 40
5.0
  0
LINE
  5
1F0
330
2
100
AcDbEntity
  8
05-01
100
AcDbLine
 10
166.6975349913493
 20
247.2445580980451
 30
0.0
 11
166.6975349913493
 21
233.6449139014245
 31
0.0
  0
CIRCLE
  5
1F1
330
2
100
AcDbEntity
  8
03-01
100
AcDbCircle
 10
140.6975349913492
 20
240.3891398016207
 30
0.0
 40
2.75
  0
CIRCLE
  5
1F2
330
2
100
AcDbEntity
  8
03-01
100
AcDbCircle
 10
140.6975349913492
 20
240.3891398016207
 30
0.0
 40
5.0
  0
LINE
  5
1F3
330
2
100
AcDbEntity
  8
05-01
100
AcDbLine
 10
140.6975349913492
 20
247.3891398016207
 30
0.0
 11
140.6975349913492
 21
233.3891398016207
 31
0.0
  0
ARC
  5
1F4
330
2
100
AcDbEntity
  8
0
100
AcDbCircle
 10
153.6975349913492
 20
240.3891398016207
 30
0.0
 40
22.5
100
AcDbArc
 50
195.4660099534206
 51
344.5339900465794
  0
ARC
  5
1F5
330
2
100
AcDbEntity
  8
0
100
AcDbCircle
 10
153.6975349913492
 20
240.3891398016207
 30
0.0
 40
22.5
100
AcDbArc
 50
15.4660099534207
 51
164.5339900465793
  0
CIRCLE
  5
1F6
330
2
100
AcDbEntity
  8
0
100
AcDbCircle
 10
153.6975349913492
 20
240.3891398016207
 30
0.0
 40
10.0
  0
CIRCLE
  5
1F7
330
2
100
AcDbEntity
  8
0
100
AcDbCircle
 10
153.6975349913492
 20
240.3891398016207
 30
0.0
 40
9.0
  0
LINE
  5
1F8
330
2
100
AcDbEntity
  8
05-01
100
AcDbLine
 10
142.6975349913492
 20
240.3891398016207
 30
0.0
 11
164.6975349913492
 21
240.3891398016207
 31
0.0
  0
LINE
  5
1F9
330
2
100
AcDbEntity
  8
05-01
100
AcDbLine
 10
134.4913353570005
 20
240.3891398016207
 30
0.0
 11
172.8727546315367
 21
240.3891398016207
 31
0.0
  0
LINE
  5
1FA
330
2
100
AcDbEntity
  8
03-01
100
AcDbLine
 10
145.6975349913492
 20
234.3891398016207
 30
0.0
 11
161.6975349913492
 21
234.3891398016207
 31
0.0
  0
LINE
  5
1FB
330
2
100
AcDbEntity
  8
03-01
100
AcDbLine
 10
145.6975349913492
 20
246.3891398016207
 30
0.0
 11
161.6975349913492
 21
246.3891398016207
 31
0.0
  0
LINE
  5
1FC
330
2
100
AcDbEntity
  8
05-01
100
AcDbLine
 10
153.6975349913492
 20
211.8891398016207
 30
0.0
 11
153.6975349913492
 21
251.0803550985769
 31
0.0
  0
DIMENSION
  5
1FD
330
2
100
AcDbEntity
  8
09-01
100
AcDbDimension
280
     0
  2
*D6
 10
301.6975349913492
 20
274.9230388619472
 30
0.0
 11
201.6975349913492
 21
279.4230388619472
 31
0.0
 71
     5
 42
200.0
 73
     0
 74
     0
 75
     0
  3
Wagner$0
100
AcDbAlignedDimension
 13
101.6975349913492
 23
226.3891398016207
 33
0.0
 14
301.6975349913492
 24
240.3891398016207
 34
0.0
100
AcDbRotatedDimension
1001
ACAD
1000
DSTYLE
1002
{
1070
    40
1040
2.0
1002
}
  0
DIMENSION
  5
20A
330
2
100
AcDbEntity
  8
0
100
AcDbDimension
280
     0
  2
*D5
 10
361.6975349913492
 20
125.6665747856922
 30
0.0
 11
231.6975349913493
 21
130.1665747856922
 31
0.0
 71
     5
 42
260.0
 73
     0
 74
     0
 75
     0
  3
Wagner$0
100
AcDbAlignedDimension
 13
101.6975349913492
 23
173.3891398016207
 33
0.0
 14
361.6975349913492
 24
154.3891398016207
 34
0.0
100
AcDbRotatedDimension
1001
ACAD
1000
DSTYLE
1002
{
1070
    40
1040
2.0
1002
}
  0
ARC
  5
217
330
2
100
AcDbEntity
  8
03-01
100
AcDbCircle
 10
447.397558106349
 20
159.3891398016207
 30
0.0
 40
6.0
100
AcDbArc
 50
0.0
 51
180.0
  0
LINE
  5
218
330
2
100
AcDbEntity
  8
03-01
100
AcDbLine
 10
449.3975581063489
 20
171.3891398016206
 30
0.0
 11
450.3975581063489
 21
170.3891398016205
 31
0.0
  0
LINE
  5
219
330
2
100
AcDbEntity
  8
03-01
100
AcDbLine
 10
444.397558106349
 20
170.3891398016206
 30
0.0
 11
445.397558106349
 21
171.3891398016206
 31
0.0
  0
LINE
  5
21A
330
2
100
AcDbEntity
  8
03-01
100
AcDbLine
 10
444.397558106349
 20
170.3891398016206
 30
0.0
 11
450.3975581063489
 21
170.3891398016205
 31
0.0
  0
LINE
  5
21B
330
2
100
AcDbEntity
  8
03-01
100
AcDbLine
 10
445.397558106349
 20
171.3891398016206
 30
0.0
 11
449.3975581063489
 21
171.3891398016206
 31
0.0
  0
LINE
  5
21C
330
2
100
AcDbEntity
  8
03-01
100
AcDbLine
 10
450.397558106349
 20
162.3891398016207
 30
0.0
 11
449.397558106349
 21
161.3891398016207
 31
0.0
  0
LINE
  5
21D
330
2
100
AcDbEntity
  8
03-01
100
AcDbLine
 10
450.397558106349
 20
165.3891398016206
 30
0.0
 11
450.397558106349
 21
161.3891398016207
 31
0.0
  0
LINE
  5
21E
330
2
100
AcDbEntity
  8
03-01
100
AcDbLine
 10
445.3975581063489
 20
161.3891398016207
 30
0.0
 11
444.3975581063489
 21
162.3891398016207
 31
0.0
  0
LINE
  5
21F
330
2
100
AcDbEntity
  8
03-01
100
AcDbLine
 10
444.397558106349
 20
165.3891398016207
 30
0.0
 11
444.3975581063489
 21
161.3891398016207
 31
0.0
  0
LINE
  5
220
330
2
100
AcDbEntity
  8
03-01
100
AcDbLine
 10
444.3975581063489
 20
161.3891398016207
 30
0.0
 11
450.397558106349
 21
161.3891398016207
 31
0.0
  0
LINE
  5
221
330
2
100
AcDbEntity
  8
03-01
100
AcDbLine
 10
444.3975581063489
 20
162.3891398016207
 30
0.0
 11
450.397558106349
 21
162.3891398016207
 31
0.0
  0
LINE
  5
222
330
2
100
AcDbEntity
  8
03-01
100
AcDbLine
 10
445.3975581063489
 20
161.3891398016207
 30
0.0
 11
449.397558106349
 21
161.3891398016207
 31
0.0
  0
LINE
  5
223
330
2
100
AcDbEntity
  8
03-01
100
AcDbLine
 10
444.3975581063489
 20
162.3891398016207
 30
0.0
 11
444.397558106349
 21
170.3891398016206
 31
0.0
  0
LINE
  5
224
330
2
100
AcDbEntity
  8
03-01
100
AcDbLine
 10
450.3975581063489
 20
170.3891398016205
 30
0.0
 11
450.397558106349
 21
162.3891398016207
 31
0.0
  0
LINE
  5
225
330
2
100
AcDbEntity
  8
03-01
100
AcDbLine
 10
447.397558106349
 20
160.3891398016207
 30
0.0
 11
444.3975581063489
 21
161.3891398016207
 31
0.0
  0
LINE
  5
226
330
2
100
AcDbEntity
  8
03-01
100
AcDbLine
 10
450.397558106349
 20
161.3891398016207
 30
0.0
 11
447.397558106349
 21
160.3891398016207
 31
0.0
  0
LINE
  5
227
330
2
100
AcDbEntity
  8
0
100
AcDbLine
 10
453.397558106349
 20
240.3891398016207
 30
0.0
 11
453.397558106349
 21
159.3891398016207
 31
0.0
  0
LINE
  5
228
330
2
100
AcDbEntity
  8
0
100
AcDbLine
 10
441.397558106349
 20
240.3891398016207
 30
0.0
 11
441.397558106349
 21
159.3891398016207
 31
0.0
  0
ARC
  5
229
330
2
100
AcDbEntity
  8
0
100
AcDbCircle
 10
447.397558106349
 20
159.3891398016207
 30
0.0
 40
6.0
100
AcDbArc
 50
180.0
 51
0.0
  0
DIMENSION
  5
22A
330
2
100
AcDbEntity
  8
09-01
100
AcDbDimension
280
     0
  2
*D4
 10
71.63614867426374
 20
153.3891398016207
 30
0.0
 11
67.13614867426372
 21
199.8891398016207
 31
0.0
 71
     5
 42
93.00000000000009
 73
     0
 74
     0
 75
     0
  3
Wagner$0
100
AcDbAlignedDimension
 13
121.6975349913492
 23
246.3891398016208
 33
0.0
 14
121.6975349913492
 24
153.3891398016207
 34
0.0
 50
90.0
100
AcDbRotatedDimension
1001
ACAD
1000
DSTYLE
1002
{
1070
    40
1040
2.0
1002
}
  0
LINE
  5
237
330
2
100
AcDbEntity
  8
0
100
AcDbLine
 10
353.6975349913492
 20
170.3891398016206
 30
0.0
 11
354.6975349913493
 21
171.3891398016206
 31
0.0
  0
LINE
  5
238
330
2
100
AcDbEntity
  8
0
100
AcDbLine
 10
358.6975349913492
 20
171.3891398016206
 30
0.0
 11
359.6975349913492
 21
170.3891398016205
 31
0.0
  0
LINE
  5
239
330
2
100
AcDbEntity
  8
0
100
AcDbLine
 10
353.6975349913492
 20
170.3891398016206
 30
0.0
 11
359.6975349913492
 21
170.3891398016205
 31
0.0
  0
LINE
  5
23A
330
2
100
AcDbEntity
  8
0
100
AcDbLine
 10
354.6975349913493
 20
171.3891398016206
 30
0.0
 11
358.6975349913492
 21
171.3891398016206
 31
0.0
  0
LINE
  5
23B
330
2
100
AcDbEntity
  8
03-01
100
AcDbLine
 10
354.6975349913493
 20
161.3891398016207
 30
0.0
 11
353.6975349913492
 21
162.3891398016207
 31
0.0
  0
LINE
  5
23C
330
2
100
AcDbEntity
  8
03-01
100
AcDbLine
 10
359.6975349913492
 20
162.3891398016207
 30
0.0
 11
358.6975349913493
 21
161.3891398016207
 31
0.0
  0
LINE
  5
23D
330
2
100
AcDbEntity
  8
03-01
100
AcDbLine
 10
353.6975349913492
 20
162.3891398016207
 30
0.0
 11
359.6975349913492
 21
162.3891398016207
 31
0.0
  0
LINE
  5
23E
330
2
100
AcDbEntity
  8
03-01
100
AcDbLine
 10
354.6975349913493
 20
161.3891398016207
 30
0.0
 11
358.6975349913493
 21
161.3891398016207
 31
0.0
  0
LINE
  5
23F
330
2
100
AcDbEntity
  8
0
100
AcDbLine
 10
353.6975349913492
 20
165.3891398016207
 30
0.0
 11
353.6975349913492
 21
170.3891398016206
 31
0.0
  0
LINE
  5
240
330
2
100
AcDbEntity
  8
0
100
AcDbLine
 10
359.6975349913492
 20
170.3891398016205
 30
0.0
 11
359.6975349913492
 21
165.3891398016207
 31
0.0
  0
LINE
  5
241
330
2
100
AcDbEntity
  8
0
100
AcDbLine
 10
396.3975581063491
 20
246.0441650547901
 30
0.0
 11
396.3975581063491
 21
234.7341145484513
 31
0.0
  0
LINE
  5
242
330
2
100
AcDbEntity
  8
0
100
AcDbLine
 10
462.397558106349
 20
249.3891398016207
 30
0.0
 11
461.397558106349
 21
250.3891398016207
 31
0.0
  0
LINE
  5
243
330
2
100
AcDbEntity
  8
03-01
100
AcDbLine
 10
444.397558106349
 20
230.3891398016207
 30
0.0
 11
444.397558106349
 21
235.1929873789141
 31
0.0
  0
LINE
  5
244
330
2
100
AcDbEntity
  8
05-01
100
AcDbLine
 10
445.397558106349
 20
230.3891398016207
 30
0.0
 11
445.397558106349
 21
234.7322855521283
 31
0.0
  0
LINE
  5
245
330
2
100
AcDbEntity
  8
03-01
100
AcDbLine
 10
450.397558106349
 20
230.3891398016207
 30
0.0
 11
450.397558106349
 21
235.1929873789141
 31
0.0
  0
LINE
  5
246
330
2
100
AcDbEntity
  8
05-01
100
AcDbLine
 10
449.397558106349
 20
230.3891398016207
 30
0.0
 11
449.397558106349
 21
234.7322855521283
 31
0.0
  0
LINE
  5
247
330
2
100
AcDbEntity
  8
0
100
AcDbLine
 10
462.397558106349
 20
231.3891398016207
 30
0.0
 11
461.397558106349
 21
230.3891398016207
 31
0.0
  0
LINE
  5
248
330
2
100
AcDbEntity
  8
0
100
AcDbLine
 10
462.397558106349
 20
249.3891398016207
 30
0.0
 11
462.397558106349
 21
231.3891398016207
 31
0.0
  0
LINE
  5
249
330
2
100
AcDbEntity
  8
0
100
AcDbLine
 10
461.397558106349
 20
250.3891398016207
 30
0.0
 11
461.397558106349
 21
230.3891398016207
 31
0.0
  0
CIRCLE
  5
24A
330
2
100
AcDbEntity
  8
0
100
AcDbCircle
 10
447.397558106349
 20
240.3891398016207
 30
0.0
 40
6.0
  0
LINE
  5
24B
330
2
100
AcDbEntity
  8
05-01
100
AcDbLine
 10
447.397558106349
 20
228.3891398016207
 30
0.0
 11
447.397558106349
 21
252.3891398016207
 31
0.0
  0
DIMENSION
  5
24C
330
2
100
AcDbEntity
  8
09-01
100
AcDbDimension
280
     0
  2
*D3
 10
450.4892135357543
 20
235.2469936829435
 30
0.0
 11
438.9734252952199
 21
263.133628456199
 31
0.0
 70
     3
 71
     5
 42
12.00000000000003
 73
     0
 74
     0
 75
     0
  3
Wagner
100
AcDbDiametricDimension
 15
444.3059026769439
 25
245.5312859202983
 35
0.0
 40
0.0
1001
ACAD
1000
DSTYLE
1002
{
1070
    40
1040
2.0
1002
}
  0
DIMENSION
  5
258
330
2
100
AcDbEntity
  8
09-01
100
AcDbDimension
280
     0
  2
*D2
 10
447.397558106349
 20
261.4800678205317
 30
0.0
 11
454.897558106349
 21
265.9800678205318
 31
0.0
 71
     5
 42
15.0
 73
     0
 74
     0
 75
     0
  3
Wagner$0
100
AcDbAlignedDimension
 13
462.397558106349
 23
243.8988824175229
 33
0.0
 14
447.397558106349
 24
244.8988824175228
 34
0.0
 50
180.0
100
AcDbRotatedDimension
1001
ACAD
1000
DSTYLE
1002
{
1070
    40
1040
2.0
1002
}
  0
LINE
  5
265
330
2
100
AcDbEntity
  8
0
100
AcDbLine
 10
441.397558106349
 20
230.3891398016207
 30
0.0
 11
402.3975581063489
 21
230.3891398016206
 31
0.0
  0
LINE
  5
266
330
2
100
AcDbEntity
  8
01-01
100
AcDbLine
 10
461.397558106349
 20
230.3891398016207
 30
0.0
 11
453.397558106349
 21
230.3891398016207
 31
0.0
  0
LINE
  5
267
330
2
100
AcDbEntity
  8
0
100
AcDbLine
 10
402.397558106349
 20
250.3891398016207
 30
0.0
 11
461.397558106349
 21
250.3891398016207
 31
0.0
  0
LINE
  5
268
330
2
100
AcDbEntity
  8
05-01
100
AcDbLine
 10
468.397558106349
 20
240.3891398016207
 30
0.0
 11
396.3975581063491
 21
240.3891398016207
 31
0.0
  0
LINE
  5
269
330
2
100
AcDbEntity
  8
03-01
100
AcDbLine
 10
253.6975349913492
 20
246.3891398016207
 30
0.0
 11
269.6975349913492
 21
246.3891398016207
 31
0.0
  0
LINE
  5
26A
330
2
100
AcDbEntity
  8
05-01
100
AcDbLine
 10
249.6975349913493
 20
240.3891398016207
 30
0.0
 11
273.6975349913493
 21
240.3891398016207
 31
0.0
  0
LINE
  5
26B
330
2
100
AcDbEntity
  8
03-01
100
AcDbLine
 10
253.6975349913492
 20
234.3891398016207
 30
0.0
 11
269.6975349913492
 21
234.3891398016207
 31
0.0
  0
CIRCLE
  5
26C
330
2
100
AcDbEntity
  8
0
100
AcDbCircle
 10
261.6975349913492
 20
240.3891398016207
 30
0.0
 40
10.0
  0
CIRCLE
  5
26D
330
2
100
AcDbEntity
  8
0
100
AcDbCircle
 10
261.6975349913492
 20
240.3891398016207
 30
0.0
 40
9.0
  0
LINE
  5
26E
330
2
100
AcDbEntity
  8
05-01
100
AcDbLine
 10
261.6975349913492
 20
224.3891398016207
 30
0.0
 11
261.6975349913492
 21
256.3891398016207
 31
0.0
  0
LINE
  5
26F
330
2
100
AcDbEntity
  8
0
100
AcDbLine
 10
396.3975581063491
 20
260.8891398016207
 30
0.0
 11
396.3975581063491
 21
219.8891398016206
 31
0.0
  0
LINE
  5
270
330
2
100
AcDbEntity
  8
05-01
100
AcDbLine
 10
393.6534191972319
 20
227.3891398016206
 30
0.0
 11
401.6683484972913
 21
227.3891398016206
 31
0.0
  0
LINE
  5
271
330
2
100
AcDbEntity
  8
05-01
100
AcDbLine
 10
393.6534191972319
 20
253.3891398016206
 30
0.0
 11
401.6683484972913
 21
253.3891398016207
 31
0.0
  0
CIRCLE
  5
272
330
2
100
AcDbEntity
  8
03-01
100
AcDbCircle
 10
274.6975349913492
 20
240.3891398016207
 30
0.0
 40
2.75
  0
CIRCLE
  5
273
330
2
100
AcDbEntity
  8
03-01
100
AcDbCircle
 10
274.6975349913492
 20
240.3891398016207
 30
0.0
 40
5.0
  0
LINE
  5
274
330
2
100
AcDbEntity
  8
05-01
100
AcDbLine
 10
274.6975349913493
 20
251.3891398016207
 30
0.0
 11
274.6975349913493
 21
229.3891398016207
 31
0.0
  0
CIRCLE
  5
275
330
2
100
AcDbEntity
  8
03-01
100
AcDbCircle
 10
248.6975349913493
 20
240.3891398016207
 30
0.0
 40
2.75
  0
CIRCLE
  5
276
330
2
100
AcDbEntity
  8
03-01
100
AcDbCircle
 10
248.6975349913493
 20
240.3891398016207
 30
0.0
 40
5.0
  0
LINE
  5
277
330
2
100
AcDbEntity
  8
05-01
100
AcDbLine
 10
248.6975349913493
 20
251.3891398016207
 30
0.0
 11
248.6975349913493
 21
229.3891398016207
 31
0.0
  0
LINE
  5
278
330
2
100
AcDbEntity
  8
05-01
100
AcDbLine
 10
250.6975349913493
 20
240.3891398016207
 30
0.0
 11
272.6975349913492
 21
240.3891398016207
 31
0.0
  0
DIMENSION
  5
279
330
2
100
AcDbEntity
  8
09-01
100
AcDbDimension
280
     0
  2
*D1
 10
203.7667256696353
 20
234.3891398016207
 30
0.0
 11
197.9534512948582
 21
258.9364564092438
 31
0.0
 70
   128
  1
%%C<>
 71
     5
 42
12.0
 73
     0
 74
     0
 75
     0
  3
Wagner$0
100
AcDbAlignedDimension
 13
208.5612736573636
 23
246.3891398016207
 33
0.0
 14
208.5612736573636
 24
234.3891398016207
 34
0.0
 50
90.0
100
AcDbRotatedDimension
1001
ACAD
1000
DSTYLE
1002
{
1070
    40
1040
2.0
1002
}
  0
LINE
  5
288
330
2
100
AcDbEntity
  8
0
100
AcDbLine
 10
396.3975581063491
 20
262.8891398016207
 30
0.0
 11
402.397558106349
 21
262.8891398016207
 31
0.0
  0
LINE
  5
289
330
2
100
AcDbEntity
  8
0
100
AcDbLine
 10
396.3975581063491
 20
217.8891398016206
 30
0.0
 11
402.397558106349
 21
217.8891398016206
 31
0.0
  0
LINE
  5
28A
330
2
100
AcDbEntity
  8
0
100
AcDbLine
 10
402.397558106349
 20
217.8891398016206
 30
0.0
 11
402.397558106349
 21
262.8891398016207
 31
0.0
  0
LINE
  5
28B
330
2
100
AcDbEntity
  8
0
100
AcDbLine
 10
396.3975581063491
 20
217.8891398016206
 30
0.0
 11
396.3975581063491
 21
262.8891398016207
 31
0.0
  0
LINE
  5
28C
330
2
100
AcDbEntity
  8
05-01
100
AcDbLine
 10
261.6975349913492
 20
211.8891398016207
 30
0.0
 11
261.6975349913492
 21
268.8891398016207
 31
0.0
  0
DIMENSION
  5
28D
330
2
100
AcDbEntity
  8
09-01
100
AcDbDimension
280
     0
  2
*D0
 10
319.3716465614804
 20
219.2391398016207
 30
0.0
 11
314.8716465614803
 21
240.3891398016208
 31
0.0
 71
     5
 42
42.30000000000006
 73
     0
 74
     0
 75
     0
  3
Wagner$0
100
AcDbAlignedDimension
 13
261.6975349913492
 23
261.5391398016208
 33
0.0
 14
261.6975349913492
 24
219.2391398016207
 34
0.0
 50
90.0
100
AcDbRotatedDimension
1001
ACAD
1000
DSTYLE
1002
{
1070
    40
1040
2.0
1002
}
  0
ARC
  5
29A
330
2
100
AcDbEntity
  8
0
100
AcDbCircle
 10
261.6975349913492
 20
240.3891398016207
 30
0.0
 40
22.5
100
AcDbArc
 50
15.46600995342081
 51
164.5339900465792
  0
ARC
  5
29B
330
2
100
AcDbEntity
  8
0
100
AcDbCircle
 10
261.6975349913492
 20
240.3891398016207
 30
0.0
 40
22.5
100
AcDbArc
 50
195.4660099534205
 51
344.5339900465796
  0
LINE
  5
29C
330
2
100
AcDbEntity
  8
05-01
100
AcDbLine
 10
233.1975349913493
 20
240.3891398016207
 30
0.0
 11
306.1975349913491
 21
240.3891398016207
 31
0.0
  0
LINE
  5
29D
330
2
100
AcDbEntity
  8
0
100
AcDbLine
 10
300.6975349913493
 20
246.3891398016208
 30
0.0
 11
301.6975349913492
 21
245.3891398016208
 31
0.0
  0
LINE
  5
29E
330
2
100
AcDbEntity
  8
0
100
AcDbLine
 10
301.6975349913492
 20
235.3891398016207
 30
0.0
 11
300.6975349913493
 21
234.3891398016208
 31
0.0
  0
LINE
  5
29F
330
2
100
AcDbEntity
  8
0
100
AcDbLine
 10
300.6975349913493
 20
246.3891398016208
 30
0.0
 11
300.6975349913493
 21
234.3891398016208
 31
0.0
  0
LINE
  5
2A0
330
2
100
AcDbEntity
  8
0
100
AcDbLine
 10
301.6975349913492
 20
235.3891398016207
 30
0.0
 11
301.6975349913492
 21
245.3891398016208
 31
0.0
  0
LINE
  5
2A1
330
2
100
AcDbEntity
  8
0
100
AcDbLine
 10
359.6975349913492
 20
165.3891398016207
 30
0.0
 11
360.6975349913493
 21
165.3891398016207
 31
0.0
  0
LINE
  5
2A2
330
2
100
AcDbEntity
  8
03-01
100
AcDbLine
 10
359.6975349913492
 20
165.3891398016206
 30
0.0
 11
359.6975349913492
 21
161.3891398016207
 31
0.0
  0
LINE
  5
2A3
330
2
100
AcDbEntity
  8
0
100
AcDbLine
 10
360.6975349913493
 20
165.3891398016207
 30
0.0
 11
361.6975349913492
 21
164.3891398016207
 31
0.0
  0
LINE
  5
2A4
330
2
100
AcDbEntity
  8
05-01
100
AcDbLine
 10
176.6975349913492
 20
162.7891398016207
 30
0.0
 11
176.6975349913492
 21
155.9891398016207
 31
0.0
  0
LINE
  5
2A5
330
2
100
AcDbEntity
  8
0
100
AcDbLine
 10
361.6975349913492
 20
164.3891398016207
 30
0.0
 11
361.6975349913492
 21
154.3891398016207
 31
0.0
  0
LINE
  5
2A6
330
2
100
AcDbEntity
  8
03-01
100
AcDbLine
 10
359.6975349913492
 20
161.3891398016207
 30
0.0
 11
356.6975349913493
 21
160.3891398016207
 31
0.0
  0
LINE
  5
2A7
330
2
100
AcDbEntity
  8
0
100
AcDbLine
 10
360.6975349913493
 20
165.3891398016207
 30
0.0
 11
360.6975349913493
 21
153.3891398016207
 31
0.0
  0
LINE
  5
2A8
330
2
100
AcDbEntity
  8
0
100
AcDbLine
 10
361.6975349913492
 20
154.3891398016207
 30
0.0
 11
360.6975349913493
 21
153.3891398016207
 31
0.0
  0
LINE
  5
2A9
330
2
100
AcDbEntity
  8
03-01
100
AcDbLine
 10
353.6975349913492
 20
165.3891398016207
 30
0.0
 11
353.6975349913492
 21
161.3891398016207
 31
0.0
  0
LINE
  5
2AA
330
2
100
AcDbEntity
  8
03-01
100
AcDbLine
 10
353.6975349913492
 20
161.3891398016207
 30
0.0
 11
359.6975349913492
 21
161.3891398016207
 31
0.0
  0
LINE
  5
2AB
330
2
100
AcDbEntity
  8
0
100
AcDbLine
 10
353.6975349913492
 20
165.3891398016207
 30
0.0
 11
359.6975349913492
 21
165.3891398016207
 31
0.0
  0
LINE
  5
2AC
330
2
100
AcDbEntity
  8
03-01
100
AcDbLine
 10
356.6975349913493
 20
160.3891398016207
 30
0.0
 11
353.6975349913492
 21
161.3891398016207
 31
0.0
  0
LINE
  5
2AD
330
2
100
AcDbEntity
  8
03-01
100
AcDbLine
 10
261.6975349913492
 20
245.3891398016208
 30
0.0
 11
261.6975349913492
 21
235.3891398016207
 31
0.0
  0
ARC
  5
2AE
330
2
100
AcDbEntity
  8
0
100
AcDbCircle
 10
121.6975349913492
 20
226.3891398016207
 30
0.0
 40
8.0
100
AcDbArc
 50
90.0
 51
180.0
  0
ARC
  5
2AF
330
2
100
AcDbEntity
  8
0
100
AcDbCircle
 10
121.6975349913492
 20
226.3891398016207
 30
0.0
 40
20.0
100
AcDbArc
 50
90.0
 51
180.0
  0
LINE
  5
2B0
330
2
100
AcDbEntity
  8
0
100
AcDbLine
 10
161.6975349913492
 20
234.3891398016206
 30
0.0
 11
253.6975349913492
 21
234.3891398016207
 31
0.0
  0
LINE
  5
2B1
330
2
100
AcDbEntity
  8
0
100
AcDbLine
 10
121.6975349913492
 20
234.3891398016207
 30
0.0
 11
145.6975349913493
 21
234.3891398016206
 31
0.0
  0
LINE
  5
2B2
330
2
100
AcDbEntity
  8
0
100
AcDbLine
 10
161.6975349913492
 20
246.3891398016207
 30
0.0
 11
253.6975349913493
 21
246.3891398016208
 31
0.0
  0
LINE
  5
2B3
330
2
100
AcDbEntity
  8
0
100
AcDbLine
 10
121.6975349913492
 20
246.3891398016208
 30
0.0
 11
145.6975349913493
 21
246.3891398016208
 31
0.0
  0
ARC
  5
2B4
330
2
100
AcDbEntity
  8
0
100
AcDbCircle
 10
121.6975349913492
 20
173.3891398016207
 30
0.0
 40
8.0
100
AcDbArc
 50
180.0
 51
270.0
  0
ARC
  5
2B5
330
2
100
AcDbEntity
  8
0
100
AcDbCircle
 10
121.6975349913492
 20
173.3891398016207
 30
0.0
 40
20.0
100
AcDbArc
 50
180.0
 51
270.0
  0
LINE
  5
2B6
330
2
100
AcDbEntity
  8
0
100
AcDbLine
 10
101.6975349913492
 20
226.3891398016206
 30
0.0
 11
101.6975349913492
 21
173.3891398016207
 31
0.0
  0
LINE
  5
2B7
330
2
100
AcDbEntity
  8
0
100
AcDbLine
 10
113.6975349913492
 20
226.3891398016207
 30
0.0
 11
113.6975349913492
 21
173.3891398016207
 31
0.0
  0
LINE
  5
2B8
330
2
100
AcDbEntity
  8
0
100
AcDbLine
 10
121.6975349913492
 20
153.3891398016207
 30
0.0
 11
360.6975349913493
 21
153.3891398016207
 31
0.0
  0
LINE
  5
2B9
330
2
100
AcDbEntity
  8
0
100
AcDbLine
 10
239.6975349913492
 20
165.3891398016207
 30
0.0
 11
353.6975349913492
 21
165.3891398016207
 31
0.0
  0
LINE
  5
2BA
330
2
100
AcDbEntity
  8
0
100
AcDbLine
 10
121.6975349913492
 20
165.3891398016207
 30
0.0
 11
233.6975349913493
 21
165.3891398016207
 31
0.0
  0
LINE
  5
2BB
330
2
100
AcDbEntity
  8
0
100
AcDbLine
 10
269.6975349913491
 20
246.3891398016208
 30
0.0
 11
300.6975349913493
 21
246.3891398016208
 31
0.0
  0
LINE
  5
2BC
330
2
100
AcDbEntity
  8
0
100
AcDbLine
 10
269.6975349913493
 20
234.3891398016208
 30
0.0
 11
300.6975349913493
 21
234.3891398016208
 31
0.0
  0
ENDSEC
  0
SECTION
  2
OBJECTS
  0
DICTIONARY
  5
B
330
0
100
AcDbDictionary
281
     1
  3
ACAD_COLOR
350
4A
  3
ACAD_GROUP
350
37
  3
ACAD_LAYOUT
350
18
  3
ACAD_MATERIAL
350
D
  3
ACAD_MLEADERSTYLE
350
4D
  3
ACAD_MLINESTYLE
350
38
  3
ACAD_PLOTSETTINGS
350
39
  3
ACAD_PLOTSTYLENAME
350
A
  3
ACAD_SCALELIST
350
4B
  3
ACAD_TABLESTYLE
350
4C
  3
ACAD_VISUALSTYLE
350
2D
  3
ACDB_RECOMPOSE_DATA
350
2C9
  3
AcDbVariableDictionary
350
2BF
  0
DICTIONARY
  5
2E
330
2A
100
AcDbDictionary
280
     1
281
     1
  0
DICTIONARY
  5
20
330
1F
100
AcDbDictionary
280
     1
281
     1
  3
ACAD_LAYERSTATES
360
21
  0
DICTIONARY
  5
7
330
6
100
AcDbDictionary
280
     1
281
     1
  3
ADSK_XREC_LAYER_RECONCILED
360
8
  0
DICTIONARY
  5
8F
330
8E
100
AcDbDictionary
280
     1
281
     1
  3
ADSK_XREC_LAYER_RECONCILED
360
90
  0
DICTIONARY
  5
CF
330
CE
100
AcDbDictionary
280
     1
281
     1
  3
ADSK_XREC_LAYER_RECONCILED
360
D0
  0
DICTIONARY
  5
B9
330
B8
100
AcDbDictionary
280
     1
281
     1
  3
ADSK_XREC_LAYER_RECONCILED
360
BA
  0
DICTIONARY
  5
1B7
330
1B6
100
AcDbDictionary
280
     1
281
     1
  3
ADSK_XREC_LAYER_RECONCILED
360
1B8
  0
DICTIONARY
  5
172
330
171
100
AcDbDictionary
280
     1
281
     1
  3
ADSK_XREC_LAYER_RECONCILED
360
173
  0
DICTIONARY
  5
124
330
123
100
AcDbDictionary
280
     1
281
     1
  3
ADSK_XREC_LAYER_RECONCILED
360
125
  0
DICTIONARY
  5
114
330
113
100
AcDbDictionary
280
     1
281
     1
  3
ADSK_XREC_LAYER_RECONCILED
360
115
  0
DICTIONARY
  5
94
330
93
100
AcDbDictionary
280
     1
281
     1
  3
ADSK_XREC_LAYER_RECONCILED
360
95
  0
DICTIONARY
  5
4F
330
4E
100
AcDbDictionary
280
     1
281
     1
  3
ADSK_XREC_LAYER_RECONCILED
360
50
  0
DICTIONARY
  5
3
330
2
100
AcDbDictionary
280
     1
281
     1
  3
ACAD_SORTENTS
360
2BE
  0
DICTIONARY
  5
8A
330
89
100
AcDbDictionary
280
     1
281
     1
  3
ACAD_SORTENTS
360
2BD
  0
DICTIONARY
  5
4A
102
{ACAD_REACTORS
330
B
102
}
330
B
100
AcDbDictionary
281
     1
  0
DICTIONARY
  5
37
102
{ACAD_REACTORS
330
B
102
}
330
B
100
AcDbDictionary
281
     1
  0
DICTIONARY
  5
18
102
{ACAD_REACTORS
330
B
102
}
330
B
100
AcDbDictionary
281
     1
  3
Layout1
350
1E
  3
Model
350
17
  0
DICTIONARY
  5
D
102
{ACAD_REACTORS
330
B
102
}
330
B
100
AcDbDictionary
281
     1
  3
ByBlock
350
42
  3
ByLayer
350
3A
  3
Global
350
C
  0
DICTIONARY
  5
4D
102
{ACAD_REACTORS
330
B
102
}
330
B
100
AcDbDictionary
281
     1
  0
DICTIONARY
  5
38
102
{ACAD_REACTORS
330
B
102
}
330
B
100
AcDbDictionary
281
     1
  3
STANDARD
350
51
  0
DICTIONARY
  5
39
102
{ACAD_REACTORS
330
B
102
}
330
B
100
AcDbDictionary
281
     1
  0
ACDBDICTIONARYWDFLT
  5
A
102
{ACAD_REACTORS
330
B
102
}
330
B
100
AcDbDictionary
281
     1
  3
Normal
350
9
100
AcDbDictionaryWithDefault
340
9
  0
DICTIONARY
  5
4B
102
{ACAD_REACTORS
330
B
102
}
330
B
100
AcDbDictionary
281
     1
  3
A0
350
56
  3
A1
350
57
  3
A2
350
58
  3
A3
350
59
  3
A4
350
5A
  3
A5
350
5B
  3
A6
350
5C
  3
A7
350
5D
  3
A8
350
5E
  3
A9
350
5F
  3
B0
350
60
  3
B1
350
61
  3
B2
350
62
  3
B3
350
63
  3
B4
350
64
  3
B5
350
65
  3
B6
350
66
  3
B7
350
67
  3
B8
350
68
  3
B9
350
69
  3
C0
350
6A
  3
C1
350
6B
  3
C2
350
6C
  3
C3
350
6D
  3
C4
350
6E
  3
C5
350
6F
  3
C6
350
70
  3
C7
350
71
  3
C8
350
72
  3
C9
350
73
  3
D0
350
74
  3
D1
350
75
  3
D2
350
76
  0
DICTIONARY
  5
4C
102
{ACAD_REACTORS
330
B
102
}
330
B
100
AcDbDictionary
281
     1
  3
Standard
350
52
  0
DICTIONARY
  5
2D
102
{ACAD_REACTORS
330
B
102
}
330
B
100
AcDbDictionary
281
     1
  3
2dWireframe
350
2C
  3
3dWireframe
350
55
  3
Realistic
350
54
  0
XRECORD
  5
2C9
102
{ACAD_REACTORS
330
B
102
}
330
B
100
AcDbXrecord
280
     1
 90
        1
330
52
  0
DICTIONARY
  5
2BF
102
{ACAD_REACTORS
330
B
102
}
330
B
100
AcDbDictionary
281
     1
  3
CANNOSCALE
350
2C3
  3
CMLEADERSTYLE
350
2C1
  3
CTABLESTYLE
350
2C0
  3
LAYEREVAL
350
2C5
  3
LAYERNOTIFY
350
2C6
  3
LIGHTINGUNITS
350
2C4
  3
MSLTSCALE
350
2C2
  0
DICTIONARY
  5
21
102
{ACAD_REACTORS
330
20
102
}
330
20
100
AcDbDictionary
281
     1
  0
XRECORD
  5
8
102
{ACAD_REACTORS
330
7
102
}
330
7
100
AcDbXrecord
280
     1
290
     1
  0
XRECORD
  5
90
102
{ACAD_REACTORS
330
8F
102
}
330
8F
100
AcDbXrecord
280
     1
290
     1
  0
XRECORD
  5
D0
102
{ACAD_REACTORS
330
CF
102
}
330
CF
100
AcDbXrecord
280
     1
290
     1
  0
XRECORD
  5
BA
102
{ACAD_REACTORS
330
B9
102
}
330
B9
100
AcDbXrecord
280
     1
290
     1
  0
XRECORD
  5
1B8
102
{ACAD_REACTORS
330
1B7
102
}
330
1B7
100
AcDbXrecord
280
     1
290
     1
  0
XRECORD
  5
173
102
{ACAD_REACTORS
330
172
102
}
330
172
100
AcDbXrecord
280
     1
290
     1
  0
XRECORD
  5
125
102
{ACAD_REACTORS
330
124
102
}
330
124
100
AcDbXrecord
280
     1
290
     1
  0
XRECORD
  5
115
102
{ACAD_REACTORS
330
114
102
}
330
114
100
AcDbXrecord
280
     1
290
     1
  0
XRECORD
  5
95
102
{ACAD_REACTORS
330
94
102
}
330
94
100
AcDbXrecord
280
     1
290
     1
  0
XRECORD
  5
50
102
{ACAD_REACTORS
330
4F
102
}
330
4F
100
AcDbXrecord
280
     1
290
     1
  0
SORTENTSTABLE
  5
2BE
102
{ACAD_REACTORS
330
3
102
}
330
3
100
AcDbSortentsTable
330
2
331
77
  5
2BC
331
21D
  5
228
331
28A
  5
1BC
331
1DE
  5
272
331
219
  5
238
331
15B
  5
2B4
331
197
  5
2A0
331
193
  5
2A4
331
24C
  5
1ED
331
2B9
  5
122
331
248
  5
1F1
331
18F
  5
2A8
331
244
  5
1F5
331
240
  5
1F9
331
2B5
  5
14E
331
276
  5
1C2
331
272
  5
1DE
331
2B1
  5
16A
331
26E
  5
1E2
331
2AD
  5
16E
331
1C2
  5
276
331
26A
  5
1E6
331
1FD
  5
23C
331
23C
  5
1FD
331
2A9
  5
182
331
238
  5
219
331
1BE
  5
288
331
1F9
  5
240
331
1BA
  5
28C
331
1F5
  5
244
331
1F1
  5
248
331
2A5
  5
192
331
266
  5
1EA
331
2A1
  5
196
331
29D
  5
1A6
331
1ED
  5
24C
331
16F
  5
2AC
331
1E9
  5
267
331
228
  5
21D
331
224
  5
221
331
16B
  5
2B0
331
1E5
  5
26B
331
1E1
  5
26F
331
220
  5
225
331
127
  5
2B8
331
1A6
  5
29D
331
28D
  5
1B9
331
21C
  5
229
331
289
  5
1BD
331
218
  5
239
331
2BC
  5
77
331
196
  5
2A1
331
192
  5
2A5
331
1D1
  5
273
331
279
  5
1BF
331
24B
  5
1EE
331
2B8
  5
127
331
247
  5
1F2
331
243
  5
1F6
331
14E
  5
2B5
331
2B4
  5
15B
331
275
  5
1C3
331
271
  5
1DF
331
2B0
  5
16B
331
26D
  5
1E3
331
23F
  5
1FA
331
2AC
  5
16F
331
182
  5
2A9
331
1C1
  5
277
331
269
  5
1E7
331
1FC
  5
23D
331
23B
  5
20A
331
2A8
  5
18F
331
237
  5
21A
331
1BD
  5
289
331
1F8
  5
241
331
1F4
  5
245
331
1B9
  5
28D
331
1F0
  5
249
331
2A4
  5
193
331
265
  5
1EB
331
2A0
  5
197
331
1B5
  5
29A
331
29C
  5
1B3
331
1EC
  5
258
331
227
  5
21E
331
16E
  5
2AD
331
1E8
  5
268
331
223
  5
222
331
16A
  5
2B1
331
1E4
  5
26C
331
1E0
  5
270
331
122
  5
2B9
331
21F
  5
226
331
28C
  5
1BA
331
21B
  5
22A
331
288
  5
1BE
331
217
  5
23A
331
199
  5
29E
331
112
  5
2BA
331
195
  5
2A2
331
2BB
  5
88
331
191
  5
2A6
331
278
  5
1C0
331
24A
  5
1EF
331
246
  5
1F3
331
242
  5
1F7
331
2B7
  5
134
331
2B3
  5
168
331
274
  5
1C4
331
88
  5
2BB
331
270
  5
1E0
331
2AF
  5
16C
331
141
  5
2B6
331
1C4
  5
274
331
26C
  5
1E4
331
23E
  5
1FB
331
2AB
  5
170
331
1C0
  5
278
331
268
  5
1E8
331
1FB
  5
23E
331
23A
  5
217
331
1BC
  5
28A
331
1F7
  5
242
331
1F3
  5
246
331
2A7
  5
190
331
2A3
  5
194
331
29F
  5
198
331
1B4
  5
29B
331
29B
  5
1B4
331
1EF
  5
24A
331
175
  5
2AA
331
258
  5
1EC
331
1EB
  5
265
331
22A
  5
21B
331
226
  5
21F
331
16D
  5
2AE
331
1E7
  5
269
331
1E3
  5
26D
331
222
  5
223
331
169
  5
2B2
331
21E
  5
227
331
28B
  5
1BB
331
1DF
  5
271
331
21A
  5
237
331
198
  5
29F
331
194
  5
2A3
331
2BA
  5
112
331
249
  5
1F0
331
190
  5
2A7
331
20A
  5
23B
331
245
  5
1F4
331
241
  5
1F8
331
2B6
  5
141
331
277
  5
1C1
331
273
  5
1D1
331
2B2
  5
169
331
26F
  5
1E1
331
2AE
  5
16D
331
1C3
  5
275
331
26B
  5
1E5
331
23D
  5
1FC
331
2AA
  5
175
331
1BF
  5
279
331
1FA
  5
23F
331
239
  5
218
331
1BB
  5
28B
331
1F6
  5
243
331
1F2
  5
247
331
2A6
  5
191
331
267
  5
1E9
331
2A2
  5
195
331
134
  5
2B7
331
29E
  5
199
331
1B3
  5
29C
331
1EE
  5
24B
331
29A
  5
1B5
331
170
  5
2AB
331
1EA
  5
266
331
229
  5
21C
331
225
  5
220
331
16C
  5
2AF
331
1E6
  5
26A
331
1E2
  5
26E
331
221
  5
224
331
168
  5
2B3
  0
SORTENTSTABLE
  5
2BD
102
{ACAD_REACTORS
330
8A
102
}
330
8A
100
AcDbSortentsTable
330
89
  0
LAYOUT
  5
1E
102
{ACAD_REACTORS
330
18
102
}
330
18
100
AcDbPlotSettings
  1

  2
\\SERVER\HP LaserJet 4V
  4

  6

 40
0.0
 41
0.0
 42
0.0
 43
0.0
 44
0.0
 45
0.0
 46
0.0
 47
0.0
 48
0.0
 49
0.0
140
0.0
141
0.0
142
1.0
143
1.0
 70
   688
 72
     0
 73
     0
 74
     5
  7
CNC-Soft.ctb
 75
    16
147
1.0
 76
     0
 77
     2
 78
   300
148
0.0
149
0.0
100
AcDbLayout
  1
Layout1
 70
     1
 71
     1
 10
0.0
 20
0.0
 11
420.0
 21
297.0
 12
0.0
 22
0.0
 32
0.0
 14
1.000000000000000E+20
 24
1.000000000000000E+20
 34
1.000000000000000E+20
 15
-1.000000000000000E+20
 25
-1.000000000000000E+20
 35
-1.000000000000000E+20
146
0.0
 13
0.0
 23
0.0
 33
0.0
 16
1.0
 26
0.0
 36
0.0
 17
0.0
 27
1.0
 37
0.0
 76
     0
330
1B
  0
LAYOUT
  5
17
102
{ACAD_XDICTIONARY
360
19
102
}
102
{ACAD_REACTORS
330
18
102
}
330
18
100
AcDbPlotSettings
  1

  2
HP LaserJet 4 Plus.pc3
  4
A4
  6

 40
6.805083274841308
 41
5.069413185119628
 42
6.805084228515625
 43
5.027069091796875
 44
209.9733276367187
 45
296.9683227539062
 46
0.0
 47
0.0
 48
0.0
 49
0.0
140
0.0
141
0.0
142
1.0
143
1.987168599913192
 70
 11952
 72
     1
 73
     1
 74
     1
  7
CNC-Soft.ctb
 75
     0
147
0.5032285635167967
 76
     0
 77
     2
 78
   300
148
0.0181260584135998
149
0.0128164049386896
100
AcDbLayout
  1
Model
 70
     1
 71
     0
 10
0.0
 20
0.0
 11
12.0
 21
9.0
 12
0.0
 22
0.0
 32
0.0
 14
0.0
 24
0.0
 34
0.0
 15
0.0
 25
0.0
 35
0.0
146
0.0
 13
0.0
 23
0.0
 33
0.0
 16
1.0
 26
0.0
 36
0.0
 17
0.0
 27
1.0
 37
0.0
 76
     0
330
2
331
2B
  0
MATERIAL
  5
42
102
{ACAD_XDICTIONARY
360
43
102
}
102
{ACAD_REACTORS
330
D
102
}
330
D
100
AcDbMaterial
  1
ByBlock
 72
     0
 43
0.0208333333333333
 43
0.0
 43
0.0
 43
0.0
 43
0.0
 43
0.0208333333333333
 43
0.0
 43
0.0
 43
0.0
 43
0.0
 43
1.0
 43
0.0
 43
0.0
 43
0.0
 43
0.0
 43
1.0
 77
     0
 47
0.0208333333333333
 47
0.0
 47
0.0
 47
0.0
 47
0.0
 47
0.0208333333333333
 47
0.0
 47
0.0
 47
0.0
 47
0.0
 47
1.0
 47
0.0
 47
0.0
 47
0.0
 47
0.0
 47
1.0
171
     0
 49
0.0208333333333333
 49
0.0
 49
0.0
 49
0.0
 49
0.0
 49
0.0208333333333333
 49
0.0
 49
0.0
 49
0.0
 49
0.0
 49
1.0
 49
0.0
 49
0.0
 49
0.0
 49
0.0
 49
1.0
175
     0
142
0.0208333333333333
142
0.0
142
0.0
142
0.0
142
0.0
142
0.0208333333333333
142
0.0
142
0.0
142
0.0
142
0.0
142
1.0
142
0.0
142
0.0
142
0.0
142
0.0
142
1.0
179
     0
144
0.0208333333333333
144
0.0
144
0.0
144
0.0
144
0.0
144
0.0208333333333333
144
0.0
144
0.0
144
0.0
144
0.0
144
1.0
144
0.0
144
0.0
144
0.0
144
0.0
144
1.0
147
0.0208333333333333
147
0.0
147
0.0
147
0.0
147
0.0
147
0.0208333333333333
147
0.0
147
0.0
147
0.0
147
0.0
147
1.0
147
0.0
147
0.0
147
0.0
147
0.0
147
1.0
  0
MATERIAL
  5
3A
102
{ACAD_XDICTIONARY
360
3B
102
}
102
{ACAD_REACTORS
330
D
102
}
330
D
100
AcDbMaterial
  1
ByLayer
 72
     0
 43
0.0208333333333333
 43
0.0
 43
0.0
 43
0.0
 43
0.0
 43
0.0208333333333333
 43
0.0
 43
0.0
 43
0.0
 43
0.0
 43
1.0
 43
0.0
 43
0.0
 43
0.0
 43
0.0
 43
1.0
 77
     0
 47
0.0208333333333333
 47
0.0
 47
0.0
 47
0.0
 47
0.0
 47
0.0208333333333333
 47
0.0
 47
0.0
 47
0.0
 47
0.0
 47
1.0
 47
0.0
 47
0.0
 47
0.0
 47
0.0
 47
1.0
171
     0
 49
0.0208333333333333
 49
0.0
 49
0.0
 49
0.0
 49
0.0
 49
0.0208333333333333
 49
0.0
 49
0.0
 49
0.0
 49
0.0
 49
1.0
 49
0.0
 49
0.0
 49
0.0
 49
0.0
 49
1.0
175
     0
142
0.0208333333333333
142
0.0
142
0.0
142
0.0
142
0.0
142
0.0208333333333333
142
0.0
142
0.0
142
0.0
142
0.0
142
1.0
142
0.0
142
0.0
142
0.0
142
0.0
142
1.0
179
     0
144
0.0208333333333333
144
0.0
144
0.0
144
0.0
144
0.0
144
0.0208333333333333
144
0.0
144
0.0
144
0.0
144
0.0
144
1.0
144
0.0
144
0.0
144
0.0
144
0.0
144
1.0
147
0.0208333333333333
147
0.0
147
0.0
147
0.0
147
0.0
147
0.0208333333333333
147
0.0
147
0.0
147
0.0
147
0.0
147
1.0
147
0.0
147
0.0
147
0.0
147
0.0
147
1.0
  0
MATERIAL
  5
C
102
{ACAD_XDICTIONARY
360
E
102
}
102
{ACAD_REACTORS
330
D
102
}
330
D
100
AcDbMaterial
  1
Global
 72
     0
 43
0.0208333333333333
 43
0.0
 43
0.0
 43
0.0
 43
0.0
 43
0.0208333333333333
 43
0.0
 43
0.0
 43
0.0
 43
0.0
 43
1.0
 43
0.0
 43
0.0
 43
0.0
 43
0.0
 43
1.0
 77
     0
 47
0.0208333333333333
 47
0.0
 47
0.0
 47
0.0
 47
0.0
 47
0.0208333333333333
 47
0.0
 47
0.0
 47
0.0
 47
0.0
 47
1.0
 47
0.0
 47
0.0
 47
0.0
 47
0.0
 47
1.0
171
     0
 49
0.0208333333333333
 49
0.0
 49
0.0
 49
0.0
 49
0.0
 49
0.0208333333333333
 49
0.0
 49
0.0
 49
0.0
 49
0.0
 49
1.0
 49
0.0
 49
0.0
 49
0.0
 49
0.0
 49
1.0
175
     0
142
0.0208333333333333
142
0.0
142
0.0
142
0.0
142
0.0
142
0.0208333333333333
142
0.0
142
0.0
142
0.0
142
0.0
142
1.0
142
0.0
142
0.0
142
0.0
142
0.0
142
1.0
179
     0
144
0.0208333333333333
144
0.0
144
0.0
144
0.0
144
0.0
144
0.0208333333333333
144
0.0
144
0.0
144
0.0
144
0.0
144
1.0
144
0.0
144
0.0
144
0.0
144
0.0
144
1.0
147
0.0208333333333333
147
0.0
147
0.0
147
0.0
147
0.0
147
0.0208333333333333
147
0.0
147
0.0
147
0.0
147
0.0
147
1.0
147
0.0
147
0.0
147
0.0
147
0.0
147
1.0
  0
MLINESTYLE
  5
51
102
{ACAD_REACTORS
330
38
102
}
330
38
100
AcDbMlineStyle
  2
STANDARD
 70
     0
  3

 62
   256
 51
90.0
 52
90.0
 71
     2
 49
0.5
 62
   256
  6
BYLAYER
 49
-0.5
 62
   256
  6
BYLAYER
  0
ACDBPLACEHOLDER
  5
9
102
{ACAD_REACTORS
330
A
102
}
330
A
  0
SCALE
  5
56
102
{ACAD_REACTORS
330
4B
102
}
330
4B
100
AcDbScale
 70
     0
300
1:1
140
1.0
141
1.0
290
     1
  0
SCALE
  5
57
102
{ACAD_REACTORS
330
4B
102
}
330
4B
100
AcDbScale
 70
     0
300
1:2
140
1.0
141
2.0
290
     0
  0
SCALE
  5
58
102
{ACAD_REACTORS
330
4B
102
}
330
4B
100
AcDbScale
 70
     0
300
1:4
140
1.0
141
4.0
290
     0
  0
SCALE
  5
59
102
{ACAD_REACTORS
330
4B
102
}
330
4B
100
AcDbScale
 70
     0
300
1:5
140
1.0
141
5.0
290
     0
  0
SCALE
  5
5A
102
{ACAD_REACTORS
330
4B
102
}
330
4B
100
AcDbScale
 70
     0
300
1:8
140
1.0
141
8.0
290
     0
  0
SCALE
  5
5B
102
{ACAD_REACTORS
330
4B
102
}
330
4B
100
AcDbScale
 70
     0
300
1:10
140
1.0
141
10.0
290
     0
  0
SCALE
  5
5C
102
{ACAD_REACTORS
330
4B
102
}
330
4B
100
AcDbScale
 70
     0
300
1:16
140
1.0
141
16.0
290
     0
  0
SCALE
  5
5D
102
{ACAD_REACTORS
330
4B
102
}
330
4B
100
AcDbScale
 70
     0
300
1:20
140
1.0
141
20.0
290
     0
  0
SCALE
  5
5E
102
{ACAD_REACTORS
330
4B
102
}
330
4B
100
AcDbScale
 70
     0
300
1:30
140
1.0
141
30.0
290
     0
  0
SCALE
  5
5F
102
{ACAD_REACTORS
330
4B
102
}
330
4B
100
AcDbScale
 70
     0
300
1:40
140
1.0
141
40.0
290
     0
  0
SCALE
  5
60
102
{ACAD_REACTORS
330
4B
102
}
330
4B
100
AcDbScale
 70
     0
300
1:50
140
1.0
141
50.0
290
     0
  0
SCALE
  5
61
102
{ACAD_REACTORS
330
4B
102
}
330
4B
100
AcDbScale
 70
     0
300
1:100
140
1.0
141
100.0
290
     0
  0
SCALE
  5
62
102
{ACAD_REACTORS
330
4B
102
}
330
4B
100
AcDbScale
 70
     0
300
2:1
140
2.0
141
1.0
290
     0
  0
SCALE
  5
63
102
{ACAD_REACTORS
330
4B
102
}
330
4B
100
AcDbScale
 70
     0
300
4:1
140
4.0
141
1.0
290
     0
  0
SCALE
  5
64
102
{ACAD_REACTORS
330
4B
102
}
330
4B
100
AcDbScale
 70
     0
300
8:1
140
8.0
141
1.0
290
     0
  0
SCALE
  5
65
102
{ACAD_REACTORS
330
4B
102
}
330
4B
100
AcDbScale
 70
     0
300
10:1
140
10.0
141
1.0
290
     0
  0
SCALE
  5
66
102
{ACAD_REACTORS
330
4B
102
}
330
4B
100
AcDbScale
 70
     0
300
100:1
140
100.0
141
1.0
290
     0
  0
SCALE
  5
67
102
{ACAD_REACTORS
330
4B
102
}
330
4B
100
AcDbScale
 70
     0
300
1/128" = 1'-0"
140
0.0078125
141
12.0
290
     0
  0
SCALE
  5
68
102
{ACAD_REACTORS
330
4B
102
}
330
4B
100
AcDbScale
 70
     0
300
1/64" = 1'-0"
140
0.015625
141
12.0
290
     0
  0
SCALE
  5
69
102
{ACAD_REACTORS
330
4B
102
}
330
4B
100
AcDbScale
 70
     0
300
1/32" = 1'-0"
140
0.03125
141
12.0
290
     0
  0
SCALE
  5
6A
102
{ACAD_REACTORS
330
4B
102
}
330
4B
100
AcDbScale
 70
     0
300
1/16" = 1'-0"
140
0.0625
141
12.0
290
     0
  0
SCALE
  5
6B
102
{ACAD_REACTORS
330
4B
102
}
330
4B
100
AcDbScale
 70
     0
300
3/32" = 1'-0"
140
0.09375
141
12.0
290
     0
  0
SCALE
  5
6C
102
{ACAD_REACTORS
330
4B
102
}
330
4B
100
AcDbScale
 70
     0
300
1/8" = 1'-0"
140
0.125
141
12.0
290
     0
  0
SCALE
  5
6D
102
{ACAD_REACTORS
330
4B
102
}
330
4B
100
AcDbScale
 70
     0
300
3/16" = 1'-0"
140
0.1875
141
12.0
290
     0
  0
SCALE
  5
6E
102
{ACAD_REACTORS
330
4B
102
}
330
4B
100
AcDbScale
 70
     0
300
1/4" = 1'-0"
140
0.25
141
12.0
290
     0
  0
SCALE
  5
6F
102
{ACAD_REACTORS
330
4B
102
}
330
4B
100
AcDbScale
 70
     0
300
3/8" = 1'-0"
140
0.375
141
12.0
290
     0
  0
SCALE
  5
70
102
{ACAD_REACTORS
330
4B
102
}
330
4B
100
AcDbScale
 70
     0
300
1/2" = 1'-0"
140
0.5
141
12.0
290
     0
  0
SCALE
  5
71
102
{ACAD_REACTORS
330
4B
102
}
330
4B
100
AcDbScale
 70
     0
300
3/4" = 1'-0"
140
0.75
141
12.0
290
     0
  0
SCALE
  5
72
102
{ACAD_REACTORS
330
4B
102
}
330
4B
100
AcDbScale
 70
     0
300
1" = 1'-0"
140
1.0
141
12.0
290
     0
  0
SCALE
  5
73
102
{ACAD_REACTORS
330
4B
102
}
330
4B
100
AcDbScale
 70
     0
300
1-1/2" = 1'-0"
140
1.5
141
12.0
290
     0
  0
SCALE
  5
74
102
{ACAD_REACTORS
330
4B
102
}
330
4B
100
AcDbScale
 70
     0
300
3" = 1'-0"
140
3.0
141
12.0
290
     0
  0
SCALE
  5
75
102
{ACAD_REACTORS
330
4B
102
}
330
4B
100
AcDbScale
 70
     0
300
6" = 1'-0"
140
6.0
141
12.0
290
     0
  0
SCALE
  5
76
102
{ACAD_REACTORS
330
4B
102
}
330
4B
100
AcDbScale
 70
     0
300
1'-0" = 1'-0"
140
12.0
141
12.0
290
     0
  0
TABLESTYLE
  5
52
102
{ACAD_XDICTIONARY
360
53
102
}
102
{ACAD_REACTORS
330
4C
102
}
330
4C
100
AcDbTableStyle
280
     0
  3
Standard
 70
     0
 71
     0
 40
1.5
 41
1.5
280
     0
281
     0
  7
STANDARD
140
4.5
170
     2
 62
     0
 63
     7
283
     0
 90
      512
 91
        0
  1

274
    -2
284
     1
 64
     0
275
    -2
285
     1
 65
     0
276
    -2
286
     1
 66
     0
277
    -2
287
     1
 67
     0
278
    -2
288
     1
 68
     0
279
    -2
289
     1
 69
     0
  7
STANDARD
140
6.0
170
     5
 62
     0
 63
     7
283
     0
 90
      512
 91
        0
  1

274
    -2
284
     1
 64
     0
275
    -2
285
     1
 65
     0
276
    -2
286
     1
 66
     0
277
    -2
287
     1
 67
     0
278
    -2
288
     1
 68
     0
279
    -2
289
     1
 69
     0
  7
STANDARD
140
4.5
170
     5
 62
     0
 63
     7
283
     0
 90
      512
 91
        0
  1

274
    -2
284
     1
 64
     0
275
    -2
285
     1
 65
     0
276
    -2
286
     1
 66
     0
277
    -2
287
     1
 67
     0
278
    -2
288
     1
 68
     0
279
    -2
289
     1
 69
     0
  0
VISUALSTYLE
  5
2C
102
{ACAD_REACTORS
330
2D
102
}
330
2D
100
AcDbVisualStyle
  2
2dWireframe
 70
     4
177
     2
291
     0
 71
     0
176
     1
 72
     2
176
     1
 73
     0
176
     1
 90
        0
176
     1
 40
0.6
176
     1
 41
30.0
176
     1
 63
     7
176
     1
 74
     1
176
     1
 91
        4
176
     1
 64
     7
176
     1
 65
   257
176
     1
 75
     1
176
     1
175
     1
176
     1
 42
1.0
176
     1
 92
        0
176
     1
 66
   257
176
     1
 43
1.0
176
     1
 76
     1
176
     1
 77
     6
176
     1
 78
     2
176
     1
 67
     7
176
     1
 79
     5
176
     1
170
     0
176
     1
171
     0
176
     1
290
     0
176
     1
 93
        1
176
     1
 44
0.0
176
     1
173
     0
176
     1
  0
VISUALSTYLE
  5
55
102
{ACAD_REACTORS
330
2D
102
}
330
2D
100
AcDbVisualStyle
  2
3dWireframe
 70
     5
177
     2
291
     0
 71
     0
176
     1
 72
     2
176
     1
 73
     0
176
     1
 90
        0
176
     1
 40
0.6
176
     1
 41
30.0
176
     1
 63
     7
176
     1
 74
     1
176
     1
 91
        4
176
     1
 64
     7
176
     1
 65
   257
176
     1
 75
     1
176
     1
175
     1
176
     1
 42
1.0
176
     1
 92
        0
176
     1
 66
   257
176
     1
 43
1.0
176
     1
 76
     1
176
     1
 77
     6
176
     1
 78
     2
176
     1
 67
     7
176
     1
 79
     5
176
     1
170
     0
176
     1
171
     0
176
     1
290
     0
176
     1
 93
        1
176
     1
 44
0.0
176
     1
173
     0
176
     1
  0
VISUALSTYLE
  5
54
102
{ACAD_REACTORS
330
2D
102
}
330
2D
100
AcDbVisualStyle
  2
Realistic
 70
     8
177
     2
291
     0
 71
     2
176
     1
 72
     2
176
     1
 73
     0
176
     1
 90
        0
176
     1
 40
0.6
176
     1
 41
30.0
176
     1
 63
     7
176
     1
 74
     1
176
     1
 91
        0
176
     1
 64
     7
176
     1
 65
   257
176
     1
 75
     1
176
     1
175
     1
176
     1
 42
1.0
176
     1
 92
        8
176
     1
 66
     8
176
     1
 43
1.0
176
     1
 76
     1
176
     1
 77
     6
176
     1
 78
     2
176
     1
 67
     7
176
     1
 79
     5
176
     1
170
     0
176
     1
171
     0
176
     1
290
     0
176
     1
 93
       13
176
     1
 44
0.0
176
     1
173
     0
176
     1
  0
DICTIONARYVAR
  5
2C3
102
{ACAD_REACTORS
330
2BF
102
}
330
2BF
100
DictionaryVariables
280
     0
  1
1:1
  0
DICTIONARYVAR
  5
2C1
102
{ACAD_REACTORS
330
2BF
102
}
330
2BF
100
DictionaryVariables
280
     0
  1
STANDARD
  0
DICTIONARYVAR
  5
2C0
102
{ACAD_REACTORS
330
2BF
102
}
330
2BF
100
DictionaryVariables
280
     0
  1
STANDARD
  0
DICTIONARYVAR
  5
2C5
102
{ACAD_REACTORS
330
2BF
102
}
330
2BF
100
DictionaryVariables
280
     0
  1
1
  0
DICTIONARYVAR
  5
2C6
102
{ACAD_REACTORS
330
2BF
102
}
330
2BF
100
DictionaryVariables
280
     0
  1
15
  0
DICTIONARYVAR
  5
2C4
102
{ACAD_REACTORS
330
2BF
102
}
330
2BF
100
DictionaryVariables
280
     0
  1
0
  0
DICTIONARYVAR
  5
2C2
102
{ACAD_REACTORS
330
2BF
102
}
330
2BF
100
DictionaryVariables
280
     0
  1
0
  0
DICTIONARY
  5
19
330
17
100
AcDbDictionary
280
     1
281
     1
  3
ADSK_XREC_LAYOUTTHUMBNAIL
360
1A
  0
DICTIONARY
  5
43
330
42
100
AcDbDictionary
280
     1
281
     1
  3
BUMPTILE
360
44
  3
DIFFUSETILE
360
45
  3
OPACITYTILE
360
46
  3
REFLECTIONTILE
360
47
  3
REFRACTIONTILE
360
48
  3
SPECULARTILE
360
49
  0
DICTIONARY
  5
3B
330
3A
100
AcDbDictionary
280
     1
281
     1
  3
BUMPTILE
360
3C
  3
DIFFUSETILE
360
3D
  3
OPACITYTILE
360
3E
  3
REFLECTIONTILE
360
3F
  3
REFRACTIONTILE
360
40
  3
SPECULARTILE
360
41
  0
DICTIONARY
  5
E
330
C
100
AcDbDictionary
280
     1
281
     1
  3
BUMPTILE
360
F
  3
DIFFUSETILE
360
10
  3
OPACITYTILE
360
11
  3
REFLECTIONTILE
360
12
  3
REFRACTIONTILE
360
13
  3
SPECULARTILE
360
14
  0
DICTIONARY
  5
53
330
52
100
AcDbDictionary
280
     1
281
     1
  3
ACAD_ROUNDTRIP_2008_TABLESTYLE_CELLSTYLEMAP
360
2C7
  0
XRECORD
  5
1A
102
{ACAD_REACTORS
330
19
102
}
330
19
100
AcDbXrecord
280
     1
310
280000000001000084000000010008000000000000840000000000000000000000010000000000000000000000000000FFFFFF000000000000000000000000000000000000000000000000000000000000000000330000006600000099000000CC000000FF00000000330000333300006633000099330000CC330000FF3300
310
0000660000336600006666000099660000CC660000FF66000000990000339900006699000099990000CC990000FF99000000CC000033CC000066CC000099CC0000CCCC0000FFCC000000FF000033FF000066FF000099FF0000CCFF0000FFFF000000003300330033006600330099003300CC003300FF003300003333003333
310
33006633330099333300CC333300FF33330000663300336633006666330099663300CC663300FF66330000993300339933006699330099993300CC993300FF99330000CC330033CC330066CC330099CC3300CCCC3300FFCC330000FF330033FF330066FF330099FF3300CCFF3300FFFF330000006600330066006600660099
310
006600CC006600FF00660000336600333366006633660099336600CC336600FF33660000666600336666006666660099666600CC666600FF66660000996600339966006699660099996600CC996600FF99660000CC660033CC660066CC660099CC6600CCCC6600FFCC660000FF660033FF660066FF660099FF6600CCFF6600
310
FFFF660000009900330099006600990099009900CC009900FF00990000339900333399006633990099339900CC339900FF33990000669900336699006666990099669900CC669900FF66990000999900339999006699990099999900CC999900FF99990000CC990033CC990066CC990099CC9900CCCC9900FFCC990000FF99
310
0033FF990066FF990099FF9900CCFF9900FFFF99000000CC003300CC006600CC009900CC00CC00CC00FF00CC000033CC003333CC006633CC009933CC00CC33CC00FF33CC000066CC003366CC006666CC009966CC00CC66CC00FF66CC000099CC003399CC006699CC009999CC00CC99CC00FF99CC0000CCCC0033CCCC0066CC
310
CC0099CCCC00CCCCCC00FFCCCC0000FFCC0033FFCC0066FFCC0099FFCC00CCFFCC00FFFFCC000000FF003300FF006600FF009900FF00CC00FF00FF00FF000033FF003333FF006633FF009933FF00CC33FF00FF33FF000066FF003366FF006666FF009966FF00CC66FF00FF66FF000099FF003399FF006699FF009999FF00CC
310
99FF00FF99FF0000CCFF0033CCFF0066CCFF0099CCFF00CCCCFF00FFCCFF0000FFFF0033FFFF0066FFFF0099FFFF00CCFFFF00FFFFFF00000000000D0D0D001A1A1A00282828003535350043434300505050005D5D5D006B6B6B00787878008686860093939300A1A1A100AEAEAE00BBBBBB00C9C9C900D6D6D600E4E4E400
310
F1F1F100FFFFFF0000000000000000000000000000000000000000000000000000000000000000000000000000000000E2E2E2E2E2E2E2E2E2E2E2E2E2E2E2E2E2E2E2E2E2E2E2E2E2E2E2E2E2E2E2E2E2E2E2E2E2E2E2E2E2E2E2E2E2E2E2E2E2E2E2E2E2E2E2E2E2E2E2E2E2E2E2E2E2E2E2E2E2E2E2E2E2E2E2E2E2E2E2
310
E2E2E2E2E2E2E2E2E2E2E2E2E2E2E2E2E2E2E2E2E2E2E2E2E2E2E2E2E2E2E2E2E2E2E2E2E2E2E2E2E2E2E2E2E2E2E2E2E2E2E2E2E2E2E2E2E2E2E2E2E2E2E2E2E2E2E2E2E2E2E2E2E2E2E2E2E2E2E2E2E2E2E2E2E2E2E2E2E2E2E2E2E2E2E2E2E2E2E2E2E2E2E2E2E2E2E2E2E2E2E2E2E2E2E2E2E2E2E2E2E2E2E2E2E2E2E2
310
E2E2E2E2E2E2E2E2E2E2E2E2E2E2E2E2E2E2E2E2E2E2E2E2E2E2E2E2E2E2E2E2E2E2E2E2E2E2E2E2E2E2E2E2E2E2E2E2E2E2E2E2E2E2E2E2E2E2E2E2E2E2E2E2E2E2E2E2E2E2E2E2E2E2E2E2E2E2E2E2E2E2E2E2E2E2E2E2E2E2E2E2E2E2E2E2E2E2E2E2E2E2E2E2E2E2E2E2E2E2E2E2E2E2E2E2E2E2E2E2E2E2E2E2E2E2E2
310
E2E2E2E2E2E2E2E2E2E2E2E2E2E2E2E2E2E2E2E2E2E2E2E2E2E2E2E2E2E2E2E2E2E2E2E2E2E2E2E2E2E2E2E2E2E2E2E2E2E2E2E2E2E2E2E2E2E2E2E2E2E2E2E2E2E2E2E2E2E2E2E2E2E2E2E2E2E2E2E2E2E2E2E2E2E2E2E2E2E2E2E2E2E2E2E2E2E2E2E2E2E2E2E2E2E2E2E2E2E2E2E2E2E2E2E2E2E2E2E2E2E2E2E2E2E2E2
310
E2E2E2E2E2E2E2E2E2E2E2E2E2E2E2E2E2E2E2E2E2E2E2E2E2E2E2E2E2E2E2E2E2E2E2E2E2E2E2E2E2E2E2E2E2E2E2E2E2E2E2E2E2E2E2E2E2E2E2E2E2E2E2E2E2E2E2E2E2E2E2E2E2E2E2E2E2E2E2E2E2E2E2E2E2E2E2E2E2E2E2E2E2E2E2E2E2E2E2E2E2E2E2E2E2E2E2E2E2E2E2E2E2E2E2E2E2E2E2E2E2E2E2E2E2E2E2
310
E2E2E2E2E2E2E2E2E2E2E2E2E2E2E2E2E2E2E2E2E2E2E2E2E2E2E2E2E2E2E2E2E2E2E2E2E2E2E2E2E2E2E2E2E2E2E2E2E2E2E2E2E2E2E2E2E2E2E2E2E2E2E2E2E2E2E2E2E2E2E2E2E2E2E2E2E2E2E2E2E2E2E2E2E2E2E2E2E2E2E2E2E2E2E2E2E2E2E2E2E2E2E2E2E2E2E2E2E2E2E2E2E2E2E2E2E2E2E2E2E2E2E2E2E2E2E2
310
E2E2E2E2E2E2E2E2E2E2E2E2E2E2E2E2E2E2E2E2E2E2E2E2E2E2E2E2E2E2E2E2E2E2E2E2E2E2E2E2E2E2E2E2E2E2E2E2E2E2E2E2E2E2E2E2E2E2E2E2E2E2E2E2E2E2E2E2E2E2E2E2E2E2E2E2E2E2E2E2E2E2E2E2E2E2E2E2E2E2E2E2E2E2E2E2E2E2E2E2E2E2E2E2E2E2E2E2E2E2E2E2E2E2E2E2E2E2E2E2E2E2E2E2E2E2E2
310
E2E2E2E2E2E2E2E2E2E2E2E2E2E2E2E2E2E2E2E2E2E2E2E2E2E2E2E2E2E2E2E2E2E2E2E2E2E2E2E2E2E2E2E2E2E2E2E2E2E2E2E2E2E2E2E2E2E2E2E2E2E2E2E2E2E2E2E2E2E2E2E2E2E2E2E2E2E2E2E2E2E2E2E2E2E2E2E2E2E2E2E2E2E2E2E2E2E2E2E2E2E2E2E2E2E2E2E2E2E2E2E2E2E2E2E2E2E2E2E2E2E2E2E2E2E2E2
310
E2E2E2E2E2E2E2E2E2E2E2E2E2E2E2E2E2E2E2E2E2E2E2E2E2E2E2E2E2E2E2E2E2E2E2E2E2E2E2E2E2E2E2E2E2E2E2E2E2E2E2E2E2E2E2E2E2E2E2E2E2E2E2E2E2E2E2E2E2E2E2E2E2E2E2E2E2E2E2E2E2E2E2E2E2E2E2E2E2E2E2E2E2E2E2E2E2E2E2E2E2E2E2E2E2E2E2E2E2E2E2E2E2E2E2E2E2E2E2E2E2E2E2E2E2E2E2
310
E2E2E2E2E2E2E2E2E2E2E2E2E2E2E2E2E2E2E2E2E2E2E2E2E2E2E2E2E2E2E2E2E2E2E2E2E2E2E2E2E2E2E2E2E2E2E2E2E2E2E2E2E2E2E2E2E2E2E2E2E2E2E2E2E2E2E2E2E2E2E2E2E2E2E2E2E2E2E2E2E2E2E2E2E2E2E2E2E2E2E2E2E2E2E2E2E2E2E2E2E2E2E2E2E2E2E2E2E2E2E2E2E2E2E2E2E2E2E2E2E2E2E2E2E2E2E2
310
E2E2E2E2E2E2E2E2E2E2E2E2E2E2E2E2E2E2E2E2E2E2E2E2E2E2E2E2E2E2E2E2E2E2E2E2E2E2E2E2E2E2E2E2E2E2E2E2E2E2E2E2E2E2E2E2E2E2E2E2E2E2E2E2E2E2E2E2E2E2E2E2E2E2E2E2E2E2E2E2E2E2E2E2E2E2E2E2E2E2E2E2E2E2E2E2E2E2E2E2E2E2E2E2E2E2E2E2E2E2E2E2E2E2E2E2E2E2E2E2E2E2E2E2E2E2E2
310
E2E2E2E2E2E2E2E2E2E2E2E2E2E2E2E2E2E2E2E2E2E2E2E2E2E2E2E2E2E2E2E2E2E2E2E2E2E2E2E2E2E2E2E2E2E2E2E2E2E2E2E2E2E2E2E2E2E2E2E2E2E2E2E2E2E2E2E2E2E2E2E2E2E2E2E2E2E2E2E2E2E2E2E2E2E2E2E2E2E2E2E2E2E2E2E2E2E2E2E2E2E2E2E2E2E2E2E2E2E2E2E2E2E2E2E2E2E2E2E2E2E2E2E2E2E2E2
310
E2E2E2E2E2E2E2E2E2E2E2E2E2E2E2E2E2E2E2E2E2E2E2E2E2E2E2E2E2E2E2E2E2E2E2E2E2E2E2E2E2E2E2E2E2E2E2E2E2E2E2E2E2E2E2E2E2E2E2E2E2E2E2E2E2E2E2E2E2E2E2E2E2E2E2E2E2E2E2E2E2E2E2E2E2E2E2E2E2E2E2E2E2E2E2E2E2E2E2E2E2E2E2E2E2E2E2E2E2E2E2E2E2E2E2E2E2E2E2E2E2E2E2E2E2E2E2
310
E2E2E2E2E2E2E2E2E2E2E2E2E2E2E2E2E2E2E2E2E2E2E2E2E2E2E2E2E2E2E2E2E2E2E2E2E2E2E2E2E2E2E2E2E2E2E2E2E2E2E2E2E2E2E2E2E2E2E2E2E2E2E2E2E2E2E2E2E2E2E2E2E2E2E2E2E2E2E2E2E2E2E2E2E2E2E2E2E2E2E2E2E2E2E2E2E2E2E2E2E2E2E2E2E2E2E2E2E2E2E2E2E2E2E2E2E2E2E2E2E2E2E2E2E2E2E2
310
E2E2E2E2E2E2E2E2E2E2E2E2E2E2E2E2E2E2E2E2E2E2E2E2E2E2E2E2E2E2E2E2E2E2E2E2E2E2E2E2E2E2E2E2E2E2E2E2E2E2E2E2E2E2E2E2E2E2E2E2E2E2E2E2E2E2E2E2E2E2E2E2E2E2E2E2E2E2E2E2E2E2E2E2E2E2E2E2E2E2E2E2E2E2E2E2E2E2E2E2E2E2E2E2E2E2E2BEBEBEBEBEBEBEBEBEBEBEBEBEBEBEBEBEBEBEBE
310
BEBEBEBEBEBEBEBEBEBEBEBEBEBEBEBEBEBEBEBEBEBEBEBEBEBEBEBEBEBEBEBEBEBEBEBEBEBEBEBEBEBEBEBEBEBEBEBEBEBEBEBEBEBEBEBEBEBEBEBEBEBEBEBEBEBEBEBEBEBEBEBEBEBEBEBEBEBEBEBEBEBEBEBEBEBEBEBEBEBEBEBEBEBEBEBEBEBEBEBEBEBEBEBEBEBEBEBEBEBEBEBEBEBEBEBEBEBEBEBEBEBEBEBEBEBEBE
310
BEBEBEBEBEBEBEBEBEBEBEBEBEBEBEBEBEBEBEBEBEBEBEBEBEBEBEBEBEBEBEE2E2E2E2E2E2E2E2E2E2E2E2E2E2E2E2E2E2E2E2E2E2E2E2E2E2E2E2E2E2E2E2E2E2E2E2E2E2E2E2E2E2E2E2E2E2E2E2E2E2E2E2E2E2E2E2E2E2E2E2E2E2E2E2E2E2E2E2E2E2E2E2E2E2E2E2E2E2BEE2E2E2E2E2E2E2E2E2E2E2E2E2E2E2E2E2
310
E2E2E2E2E2E2E2E2E2E2E2E2E2E2E2E2E2E2E2E2E2E2E2E2E2E2E2E2E2E2E2E2E2E2E2E2E2E2E2E2E2E2E2E2E2E2E2E2E2E2E2E2E2E2E2E2E2E2E2E2E2E2E2E2E2E2E2E2E2E2E2E2E2E2E2E2E2E2E2E2E2E2E2E2E2E2E2E2E2E2E2E2E2E2E2E2E2E2E2E2E2E2E2E2E2E2E2E2E2E2E2E2E2E2E2E2E2E2E2E2E2E2E2E2E2E2E2
310
E2E2E2E2E2E2E2E2E2E2E2E2E2E2E2E2E2E2E2E2E2E2E2E2E2E2E2E2E2E2E2E2BEE2E2E2E2E2E2E2E2E2E2E2E2E2E2E2E2E2E2E2E2E2E2E2E2E2E2E2E2E2E2E2E2E2E2E2E2E2E2E2E2E2E2E2E2E2E2E2E2E2E2E2E2E2E2E2E2E2E2E2E2E2E2E2E2E2E2E2E2E2E2E2E2E2E2E2E2E2E2BEE2E2E2E2E2E2E2E2E2E2E2E2E2E2E2
310
E2E2E2E2E2E2E2E2E2E2E2E2E2E2E2E2E2E2E2E2E2E2E2E2E2E2E2E2E2E2E2E2E2E2E2E2E2E2E2E2E2E2E2E2E2E2E2E2E2E2E2E2E2E2E2E2E2E2E2E2E2E2E2E2E2E2E2E2E2E2E2E2E2E2E2E2E2E2E2E2E2E2E2E2E2E2E2E2E2E2E2E2E2E2E2E2E2E2E2E2E2E2E2E2E2E2E2E2E2E2E2E2E2E2E2E2E2E2E2E2E2E2E2E2E2E2E2
310
E2E2E2E2E2E2E2E2E2E2E2E2E2E2E2E2E2E2E2E2E2E2E2E2E2E2E2E2E2E2E2E2E2E2BEE2E2E2E2E2E2E2E2E2E2E2E2E2E2E2E2E2E2E2E2E2E2E2E2E2E2E2E2E2E2E2E2E2E2E2E2E2E2E2E2E2E2E2E2E2E2E2E2E2E2E2E2E2E2E2E2E2E2E2E2E2E2E2E2E2E2E2E2E2E2E2E2E2E2E2E2E2E2BEE2E2E2DCDCDCDCDCDCDCDCDCDC
310
DCDCDCDCDCDCDCDCDCDCDCDCDCDCDCDCDCDCDCDCDCDCDCDCDCDCDCDCDCDCDCDCDCDCDCDCDCDCDCDCDCDCDCDCDCDCDCDCDCDCDCDCDCDCDCDCDCDCDCDCDCDCDCDCDCDCDCDCDCDCDCDCDCDCDCDCDCDCDCDCDCDCDCDCDCDCDCDCDCDCDCDCDCDCDCDCDCDCDCDCDCDCDCDCDCDCDCDCDCDCDCDCDCDCDCDCDCDCDCDCDCDCDCDCDCDCDC
310
DCDCDCDCDCDCDCDCDCDCDCDCDCDCDCDCDCDCDCDCDCDCDCDCDCDCDCDCDCDCDCDCDCDCE2E2BEE2E2E2E2E2E2E2E2E2E2E2E2E2E2E2E2E2E2E2E2E2E2E2E2E2E2E2E2E2E2E2E2E2E2E2E2E2E2E2E2E2E2E2E2E2E2E2E2E2E2E2E2E2E2E2E2E2E2E2E2E2E2E2E2E2E2E2E2E2E2E2E2E2E2E2E2E2E2BEE2E2E2DCE2E2E2E2E2E2E2
310
E2E2E2E2E2E2E2E2E2E2E2E2E2E2E2E2E2E2E2E2E2E2E2E2E2E2E2E2E2E2E2E2E2E2E2E2E2E2E2E2E2E2E2E2E2E2E2E2E2E2E2E2DCE2E2E2E2E2E2E2E2E2E2E2E2E2E2DCE2E2E2E2E2E2E2E2E2E2E2E2E2E2DCE2E2E2E2E2E2E2E2BEBEBEBEBEBEBEBEBEBEBEBEBEE2E2E2E2E2DCE2E2E2E2E2E2E2E2E2E2E2E2E2E2E2E2DC
310
E2E2E2E2E2E2E2E2E2E2E2E2E2E2E2E2E2E2E2DCBEBEBEBEBEBEBEBEBEBEE2E2E2E2E2DCE2E2BEE2E2E2E2E2E2E2E2E2E2E2E2E2E2E2E2E2E2E2E2E2E2E2E2E2E2E2E2E2E2E2E2E2E2E2E2E2E2E2E2E2E2E2E2E2E2E2E2E2E2E2E2E2E2E2E2E2E2E2E2E2E2E2E2E2E2E2E2E2E2E2E2E2E2E2E2E2E2BEE2E2E2DCE2E2E2E2E2
310
E2E2E2E2E2E2E2E2E2E2E2E2E2E2E2E2E2E2E2E2E2E2E2E2E2E2E2E2E2E2E2E2E2E2E2E2E2E2E2E2E2E2E2E2E2E2E2E2E2E2E2E2E2E2DCF5F5F5F5F5F5F5E2E2E2E2E2E2E2DCF5F5F5F5F5F5F5F5E2E2E2E2E2E2DCE2E2E2E2E2E2E2E2BEBEBEBEBEE2BEBEBEBEBEBEBEE2E2E2E2E2DCE2E2E2E2E2E2E2E2E2E2E2E2E2E2E2
310
E2DCE2E2E2E2E2E2E2E2E2E2E2E2E2E2E2E2E2E2E2DCE2BEBEBEBEBEBEBEBEBEE2E2E2E2E2DCE2E2BEE2E2E2E2E2E2E2E2E2E2E2E2E2E2E2E2E2E2E2E2E2E2E2E2E2E2E2E2E2E2E2E2E2E2E2E2E2E2E2E2E2E2E2E2E2E2E2E2E2E2E2E2E2E2E2E2E2E2E2E2E2E2E2E2E2E2E2E2E2E2E2E2E2E2E2E2E2E2BEE2E2E2DCE2E2E2
310
E2E2E2E2E2E2E2E2E2E2E2E2E2E2E2E2E2E2E2E2E2E2E2E2E2E2E2E2E2E2E2E2E2E2E2E2E2E2E2E2E2E2E2E2E2E2E2E2E2E2E2E2E2E2E2E2DCF5F5F5F5F5F5F5DCDCDCDCDCDCDCDCF5F5F5F5F5F5F5F5DCDCDCDCDCDCDCE2E2E2E2E2E2E2E2BEBEBEBEBEE2BEBEBEBEE2BEBEBEE2E2E2E2DCE2E2E2E2E2E2E2E2E2E2E2E2E2
310
E2E2E2DCE2E2E2E2E2E2E2E2E2E2E2E2E2E2E2E2E2E2E2DCBEBEBEBEBEBEBEBEBEBEE2E2E2E2E2DCE2E2BEE2E2E2E2E2E2E2E2E2E2E2E2E2E2E2E2E2E2E2E2E2E2E2E2E2E2E2E2E2E2E2E2E2E2E2E2E2E2E2E2E2E2E2E2E2E2E2E2E2E2E2E2E2E2E2E2E2E2E2E2E2E2E2E2E2E2E2E2E2E2E2E2E2E2E2E2E2E2BEE2E2E2DCE2
310
E2E2E2E2E2E2E2E2E2E2E2E2E2E2E2E2E2E2E2E2E2E2E2E2E2E2E2E2E2E2E2E2E2E2E2E2E2E2E2E2E2E2E2E2E2E2E2E2E2E2E2E2E2E2E2E2E2E2DCE2E2E2E2DCE2E2E2E2E2E2E2E2E2E2E2DCE2E2E2E2E2E2DCE2E2E2E2E2DCE2E2E2BEBEBEBEBEBEBEBEBEBEE2BEBEBEBEBEBEBEE2E2E2E2E2DCF5F5F5F5F5F5E2E2F5F5F5
310
E2E2E2E2E2DCF5F5F5F5F5F5F5F5F5F5F5F5F5F5F5E2E2E2E2DCF5F5F5F5F5F5F5F5F5F5F5E2E2E2E2DCE2E2BEE2E2E2E2E2E2E2E2E2E2E2E2E2E2E2E2E2E2E2E2E2E2E2E2E2E2E2E2E2E2E2E2E2E2E2E2E2E2E2E2E2E2E2E2E2E2E2E2E2E2E2E2E2E2E2E2E2E2E2E2E2E2E2E2E2E2E2E2E2E2E2E2E2E2E2E2E2E2BEE2E2E2
310
DCE2E2E2E2E2E2E2E2E2E2E2E2E2E2E2E2E2E2E2E2E2E2E2E2E2E2E2E2E2E2E2E2E2E2E2E2E2E2E2E2E2E2E2E2E2E2E2E2E2E2E2E2E2E2E2E2E2E2E2DCE2E2E2E2DCE2E2E2E2E2E2E2E2E2E2E2DCE2E2E2E2E2E2DCE2E2E2E2E2DCE2E2E2E2E2E2E2E2E2E2E2BEBEBEBEBEBEBEBEBEBEBEE2E2E2E2DCF5F5F5F5F5F5F5F5F5
310
F5F5E2E2E2E2E2DCE2F5F5F5F5F5F5F5F5F5F5F5F5F5F5E2E2E2E2DCF5F5F5F5F5F5E2E2F5F5F5E2E2E2E2DCE2E2BEE2E2E2E2E2E2E2E2E2E2E2E2E2E2E2E2E2E2E2E2E2E2E2E2E2E2E2E2E2E2E2E2E2E2E2E2E2E2E2E2E2E2E2E2E2E2E2E2E2E2E2E2E2E2E2E2E2E2E2E2E2E2E2E2E2E2E2E2E2E2E2E2E2E2E2E2E2E2BEE2
310
E2E2DCE2E2E2E2E2E2E2E2E2E2E2E2E2E2E2E2E2E2E2E2E2E2E2E2E2E2E2E2E2E2E2E2E2E2E2E2E2E2E2E2E2E2E2E2E2E2E2E2E2E2E2E2E2E2E2E2E2E2E2DCDCDCDCDCDCDCDCDCDCDCDCDCDCDCDCDCDCDCDCDCDCDCDCDCDCDCDCDCDCDCE2E2E2E2E2E2BEBEE2BEBEBEBEBEBEE2BEBEBEBEBEBEE2E2E2E2DCDCDCDCDCDCDCDC
310
DCDCDCDCDCDCDCDCDCDCDCDCDCDCDCDCDCDCDCDCDCDCDCDCDCDCDCDCDCDCDCDCDCDCDCDCDCDCDCDCDCDCDCDCDCDCE2E2BEE2E2E2E2E2E2E2E2E2E2E2E2E2E2E2E2E2E2E2E2E2E2E2E2E2E2E2E2E2E2E2E2E2E2E2E2E2E2E2E2E2E2E2E2E2E2E2E2E2E2E2E2E2E2E2E2E2E2E2E2E2E2E2E2E2E2E2E2E2E2E2E2E2E2E2E2E2E2
310
BEE2E2E2DCE2E2E2E2E2E2E2E2E2E2E2E2E2E2E2E2E2E2E2E2E2E2E2E2E2E2E2E2E2E2E2E2E2E2E2E2E2E2E2E2E2E2E2E2E2E2E2E2E2E2E2E2E2E2E2E2E2E2E2DCE2E2E2E2DCE2E2E2E2E2E2E2E2E2E2E2DCE2E2E2E2E2E2DCE2E2E2E2E2DCE2E2E2E2E2E2BEBEBEBEBEBEBEBEBEBEBEBEBEBEBEE2E2E2E2E2DCE2E2E2E2E2
310
E2E2E2E2E2E2E2E2E2E2E2E2E2E2E2E2E2E2E2E2E2E2E2E2E2E2E2E2E2E2E2E2E2E2E2E2E2E2E2E2E2E2E2E2E2E2E2DCE2E2BEE2E2E2E2E2E2E2E2E2E2E2E2E2E2E2E2E2E2E2E2E2E2E2E2E2E2E2E2E2E2E2E2E2E2E2E2E2E2E2E2E2E2E2E2E2E2E2E2E2E2E2E2E2E2E2E2E2E2E2E2E2E2E2E2E2E2E2E2E2E2E2E2E2E2E2E2
310
E2E2BEE2E2E2DCE2E2E2E2E2E2E2E2E2E2E2E2E2E2E2E2E2E2E2E2E2E2E2E2E2E2E2E2E2E2E2E2E2E2E2E2E2E2E2E2E2E2E2E2E2E2E2E2E2E2E2E2E2E2E2E2E2E2E2DCE2E2E2E2DCE2E2E2E2E2E2E2E2E2E2E2DCE2E2E2E2E2E2DCE2E2E2E2E2DCE2E2E2E2E2BEBEBEBEE2BEBEBEBEBEBEBEBEBEBEBEE2E2E2E2E2DCBEBEBE
310
BEBEE2E2BEBEBEBEBEBEBEE2E2E2E2E2E2E2E2E2E2E2E2E2E2E2E2E2E2E2E2E2E2E2E2E2E2E2E2E2E2E2E2E2E2E2E2E2E2DCE2E2BEE2E2E2E2E2E2E2E2E2E2E2E2E2E2E2E2E2E2E2E2E2E2E2E2E2E2E2E2E2E2E2E2E2E2E2E2E2E2E2E2E2E2E2E2E2E2E2E2E2E2E2E2E2E2E2E2E2E2E2E2E2E2E2E2E2E2E2E2E2E2E2E2E2E2
310
E2E2E2E2BEE2E2E2DCE2E2E2E2E2E2E2E2E2E2E2E2E2E2E2E2E2E2E2E2E2E2E2E2E2E2E2E2E2E2E2E2E2E2E2E2E2E2E2E2E2E2E2E2E2E2E2E2E2E2E2E2E2E2E2E2E2E2E2DCDCDCDCDCDCDCDCDCDCDCDCDCDCDCDCDCDCDCDCDCDCDCDCDCDCDCDCDCDCDCDCDCDCDCDCDCDCDCDCDCDCDCDCDCDCDCDCDCDCDCDCDCDCDCDCDCDCBE
310
BEBEE2E2E2E2E2BEBEBEBEBEBEE2E2E2E2E2E2E2E2E2E2E2E2E2E2E2E2E2E2E2E2E2E2E2E2E2E2E2E2E2E2E2E2E2E2E2E2E2E2DCE2E2BEE2E2E2E2E2E2E2E2E2E2E2E2E2E2E2E2E2E2E2E2E2E2E2E2E2E2E2E2E2E2E2E2E2E2E2E2E2E2E2E2E2E2E2E2E2E2E2E2E2E2E2E2E2E2E2E2E2E2E2E2E2E2E2E2E2E2E2E2E2E2E2E2
310
E2E2E2E2E2E2BEE2E2E2DCE2E2E2E2E2E2E2E2E2E2E2E2E2E2E2E2E2E2E2E2E2E2E2E2E2E2E2E2E2E2E2E2E2E2E2E2E2E2E2E2E2E2E2E2E2E2E2E2E2E2E2E2E2E2E2E2E2E2E2DCE2E2E2E2DCE2E2E2E2E2E2E2E2E2E2E2DCE2E2E2E2E2E2DCE2E2E2E2E2F5F5F5F5F5DCE2E2E2E2E2E2E2DCE2E2E2E2E2E2E2E2E2E2E2E2E2
310
DCBEE2BEBEBEE2E2BEBEBEBEBEBEBEE2E2E2E2E2E2E2E2E2E2E2E2E2E2E2E2E2E2E2E2E2E2E2E2E2E2E2E2E2E2E2E2E2E2E2E2E2E2DCE2E2BEE2E2E2E2E2E2E2E2E2E2E2E2E2E2E2E2E2E2E2E2E2E2E2E2E2E2E2E2E2E2E2E2E2E2E2E2E2E2E2E2E2E2E2E2E2E2E2E2E2E2E2E2E2E2E2E2E2E2E2E2E2E2E2E2E2E2E2E2E2E2
310
E2E2E2E2E2E2E2E2BEE2E2E2DCE2E2E2E2E2E2E2E2E2E2E2E2E2E2E2E2E2E2E2E2E2E2E2E2E2E2E2E2E2E2E2E2E2E2E2E2E2E2E2E2E2E2E2E2E2E2E2E2E2E2E2E2E2E2E2E2E2E2E2DCE2E2E2E2DCE2E2E2E2E2E2E2E2E2E2E2DCE2E2E2E2E2E2DCE2E2E2E2E2F5F5F5F5F5DCE2E2E2E2E2E2E2DCE2E2E2E2E2E2E2E2E2E2E2
310
E2E2DCE2E2E2E2BEE2BEE2E2E2E2E2E2E2E2E2E2E2E2E2E2E2E2E2E2E2E2E2E2E2BEE2E2E2E2BEE2E2E2E2E2E2E2E2E2E2E2E2E2E2E2E2DCE2E2BEE2E2E2E2E2E2E2E2E2E2E2E2E2E2E2E2E2E2E2E2E2E2E2E2E2E2E2E2E2E2E2E2E2E2E2E2E2E2E2E2E2E2E2E2E2E2E2E2E2E2E2E2E2E2E2E2E2E2E2E2E2E2E2E2E2E2E2E2
310
E2E2E2E2E2E2E2E2E2E2BEE2E2E2DCE2E2E2E2E2E2E2E2E2E2E2E2E2E2E2E2E2E2E2E2E2E2E2E2E2E2E2E2E2E2E2E2E2E2E2E2E2E2E2E2E2E2E2E2E2E2E2E2E2E2E2E2E2E2E2E2E2E2E2DCDCDCDCDCDCDCDCDCDCDCDCDCDCDCDCDCDCDCDCDCDCDCDCDCDCDCDCDCDCDCDCDCDCDCDCDCDCDCDCDCDCDCDCDCDCDCDCDCDCDCDCDC
310
DCDCDCDCDCBEBEBEBEBEBEBEBEBEBEBEBEE2E2E2BEE2BEBEBEBEBEBEBEBEBEBEBEBEBEBEBEE2BEBEBEBEBEBEBEBEBEE2BEBEBEBEBEBEBEBEE2DCE2E2BEE2E2E2E2E2E2E2E2E2E2E2E2E2E2E2E2E2E2E2E2E2E2E2E2E2E2E2E2E2E2E2E2E2E2E2E2E2E2E2E2E2E2E2E2E2E2E2E2E2E2E2E2E2E2E2E2E2E2E2E2E2E2E2E2E2E2
310
E2E2E2E2E2E2E2E2E2E2E2E2BEE2E2E2DCE2E2E2E2E2E2E2E2E2E2E2E2E2E2E2E2E2E2E2E2E2E2E2E2E2E2E2E2E2E2E2E2E2E2E2E2E2E2E2E2E2E2E2E2E2E2E2E2E2E2E2E2E2E2E2E2E2E2E2DCE2E2E2E2DCE2E2E2E2E2E2E2E2E2E2E2DCE2E2E2E2E2E2DCE2E2E2E2E2DCF5F5F5E2DCBEBEBEBEBEBEBEDCBEBEBEBEBEE2E2
310
E2E2E2E2E2E2DCBEBEBEBEBEBEBEE2BEBEBEBEBEBEBEBEE2BEBEBEBEBEBEBEE2BEBEBEBEBEBEBEBEBEBEBEBEBEBEBEBEBEE2BEBEBEBEBEBEBEBEE2DCE2E2BEE2E2E2E2E2E2E2E2E2E2E2E2E2E2E2E2E2E2E2E2E2E2E2E2E2E2E2E2E2E2E2E2E2E2E2E2E2E2E2E2E2E2E2E2E2E2E2E2E2E2E2E2E2E2E2E2E2E2E2E2E2E2E2E2
310
E2E2E2E2E2E2E2E2E2E2E2E2E2E2BEE2E2E2DCE2E2E2E2E2E2E2E2E2E2E2E2E2E2E2E2E2E2E2E2E2E2E2E2E2E2E2E2E2E2E2E2E2E2E2E2E2E2E2E2E2E2E2E2E2E2E2E2E2E2E2E2E2E2E2E2E2E2E2DCE2E2E2E2DCE2E2E2E2E2E2E2E2E2E2E2DCE2E2E2E2E2E2DCE2E2E2E2E2DCF5F5F5E2BEBEBEBEBEBEBEBEDCBEBEBEBEBE
310
BEE2E2E2E2E2E2E2DCBEBEBEBEBEBEBEBEE2BEBEBEE2E2E2BEE2BEBEBEBEBEBEBEBEBEBEBEBEBEBEBEE2BEBEBEBEBEBEBEBEBEBEE2BEBEBEBEE2BEBEBEDCE2E2BEE2E2E2E2E2E2E2E2E2E2E2E2E2E2E2E2E2E2E2E2E2E2E2E2E2E2E2E2E2E2E2E2E2E2E2E2E2E2E2E2E2E2E2E2E2E2E2E2E2E2E2E2E2E2E2E2E2E2E2E2E2E2
310
E2E2E2E2E2E2E2E2E2E2E2E2E2E2E2E2BEE2E2E2DCE2E2E2E2E2E2E2E2E2E2E2E2E2E2E2E2E2E2E2E2E2E2E2E2E2E2E2E2E2E2E2E2E2E2E2E2E2E2E2E2E2E2E2E2E2E2E2E2E2E2E2E2E2E2E2E2E2E2E2DCDCDCDCDCDCDCDCDCDCDCDCDCDCDCDCDCDCDCDCDCDCDCDCDCDCDCDCDCDCDCDCDCDCDCDCDCDCDCDCDCDCDCDCDCDCDC
310
DCDCDCDCDCDCDCDCDCDCDCBEBEE2E2E2E2E2E2E2E2F5BEF5E2E2BEBEE2E2BEBEE2E2BEE2BEE2E2E2E2E2E2E2E2E2E2E2BEE2E2E2BEE2E2E2E2BEBEE2E2E2E2DCE2E2BEE2E2E2E2E2E2E2E2E2E2E2E2E2E2E2E2E2E2E2E2E2E2E2E2E2E2E2E2E2E2E2E2E2E2E2E2E2E2E2E2E2E2E2E2E2E2E2E2E2E2E2E2E2E2E2E2E2E2E2E2
310
E2E2E2E2E2E2E2E2E2E2E2E2E2E2E2E2E2E2BEE2E2E2DCE2E2E2E2E2E2E2E2E2E2E2E2E2E2E2E2E2E2E2E2E2E2E2E2E2E2E2E2E2E2E2E2E2E2E2E2E2E2E2E2E2E2E2E2E2E2E2E2E2E2E2E2E2E2E2E2E2E2E2DCF5F5F5F5DCF5F5F5F5F5F5F5E2E2E2E2DCF5F5F5F5F5E2DCF5F5F5F5F5DCDCDCDCDCDCF5F5F5F5F5F5F5DCF5
310
F5F5F5F5F5F5E2E2E2E2E2E2DCF5F5F5F5F5F5F5F5F5F5F5F5F5E2F5F5F5F5E2E2E2E2E2E2E2E2E2E2E2E2E2E2E2E2E2E2E2E2E2E2E2E2E2E2E2E2E2E2E2E2E2E2DCE2E2BEE2E2E2E2E2E2E2E2E2E2E2E2E2E2E2E2E2E2E2E2E2E2E2E2E2E2E2E2E2E2E2E2E2E2E2E2E2E2E2E2E2E2E2E2E2E2E2E2E2E2E2E2E2E2E2E2E2E2
310
E2E2E2E2E2E2E2E2E2E2E2E2E2E2E2E2E2E2E2E2BEE2E2E2DCE2E2E2E2E2E2E2E2E2E2E2E2E2E2E2E2E2E2E2E2E2E2E2E2E2E2E2E2E2E2E2E2E2E2E2E2E2E2E2E2E2E2E2E2E2E2E2E2E2E2E2E2E2E2E2E2E2E2E2DCF5F5F5F5DCF5F5F5F5F5F5F5F5E2E2E2DCF5F5F5F5F5F5DCF5F5F5F5F5DCDCDCDCDCDCF5F5F5F5F5F5F5
310
DCF5F5F5F5F5F5F5F5E2E2E2E2E2DCF5F5F5F5F5F5F5F5F5F5F5F5F5F5F5F5F5F5E2E2E2E2E2E2E2E2E2E2E2E2E2E2E2E2E2E2E2E2E2E2E2E2E2E2E2E2E2E2E2E2E2E2DCE2E2BEE2E2E2E2E2E2E2E2E2E2E2E2E2E2E2E2E2E2E2E2E2E2E2E2E2E2E2E2E2E2E2E2E2E2E2E2E2E2E2E2E2E2E2E2E2E2E2E2E2E2E2E2E2E2E2E2
310
E2E2E2E2E2E2E2E2E2E2E2E2E2E2E2E2E2E2E2E2E2E2BEE2E2E2DCE2E2E2E2E2E2E2E2E2E2E2E2E2E2E2E2E2E2E2E2E2E2E2E2E2E2E2E2E2E2E2E2E2E2E2E2E2E2E2E2E2E2E2E2E2E2E2E2E2E2E2E2E2E2E2E2E2E2E2DCDCDCDCDCDCDCDCDCDCDCDCDCDCDCDCDCDCDCDCDCDCDCDCDCDCDCDCDCDCDCDCDCDCDCDCF5F5DCF5DC
310
DCDCDCF5F5DCDCDCDCDCDCDCDCDCDCDCDCDCDCDCDCDCDCDCDCDCDCDCDCDCF5DCDCDCDCDCDCDCDCDCDCDCDCDCDCDCDCDCDCDCDCDCDCDCDCDCDCDCDCDCDCDCDCDCDCDCDCDCDCDCE2E2BEE2E2E2E2E2E2E2E2E2E2E2E2E2E2E2E2E2E2E2E2E2E2E2E2E2E2E2E2E2E2E2E2E2E2E2E2E2E2E2E2E2E2E2E2E2E2E2E2E2E2E2E2E2E2
310
E2E2E2E2E2E2E2E2E2E2E2E2E2E2E2E2E2E2E2E2E2E2E2E2BEE2E2E2DCE2E2E2E2E2E2E2E2E2E2E2E2E2E2E2E2E2E2E2E2E2E2E2E2E2E2E2E2E2E2E2E2E2E2E2E2E2E2E2E2E2E2E2E2E2E2E2E2E2E2E2E2E2E2E2E2E2E2E2DCE2E2E2E2E2E2E2E2E2E2E2E2E2E2E2E2E2E2E2E2E2E2E2E2E2E2E2E2E2DCE2E2E2E2E2E2E2E2
310
E2E2E2E2DCE2BEBEBEBEE2BEBEBEBEBEBEE2DCE2E2E2E2E2E2E2E2E2E2E2E2E2E2E2E2E2E2E2DCE2E2E2E2E2E2E2E2E2E2E2E2E2E2E2E2E2E2E2DCE2E2E2E2E2E2E2E2E2E2E2E2DCE2E2BEE2E2E2E2E2E2E2E2E2E2E2E2E2E2E2E2E2E2E2E2E2E2E2E2E2E2E2E2E2E2E2E2E2E2E2E2E2E2E2E2E2E2E2E2E2E2E2E2E2E2E2E2
310
E2E2E2E2E2E2E2E2E2E2E2E2E2E2E2E2E2E2E2E2E2E2E2E2E2E2BEE2E2E2DCE2E2E2E2E2E2E2E2E2E2E2E2E2E2E2E2E2E2E2E2E2E2E2E2E2E2E2E2E2E2E2E2E2E2E2E2E2E2E2E2E2E2E2E2E2E2E2E2E2E2E2E2E2E2E2E2E2E2E2DCE2E2E2E2E2E2E2E2E2E2E2E2E2E2E2E2E2E2E2E2E2E2E2E2E2E2E2E2E2DCE2E2E2E2E2E2
310
E2E2E2E2E2E2DCE2BEBEBEBEE2BEBEBEBEBEBEE2DCE2E2E2E2E2E2E2E2E2E2E2E2E2E2E2E2E2E2E2DCE2E2E2E2E2E2E2E2E2E2E2E2E2E2E2E2E2E2E2DCE2E2E2E2E2E2E2E2E2E2E2E2DCE2E2BEE2E2E2E2E2E2E2E2E2E2E2E2E2E2E2E2E2E2E2E2E2E2E2E2E2E2E2E2E2E2E2E2E2E2E2E2E2E2E2E2E2E2E2E2E2E2E2E2E2E2
310
E2E2E2E2E2E2E2E2E2E2E2E2E2E2E2E2E2E2E2E2E2E2E2E2E2E2E2E2BEE2E2E2DCE2E2E2E2E2E2E2E2E2E2E2E2E2E2E2E2E2E2E2E2E2E2E2E2E2E2E2E2E2E2E2E2E2E2E2E2E2E2E2E2E2E2E2E2E2E2E2E2E2E2E2E2E2E2E2E2E2E2E2DCE2E2E2E2E2E2E2E2E2E2E2E2E2E2E2E2E2E2E2E2E2E2E2E2E2E2E2E2E2DCDCDCDCDC
310
DCDCDCDCDCDCDCDCBEBEBEBEDCBEBEBEBEBEBEDCBEBEDCF5F5F5F5F5F5F5F5F5F5F5F5F5F5F5E2E2E2E2F5F5F5F5F5F5F5F5F5F5F5F5F5F5F5F5E2E2E2E2F5F5F5F5F5F5F5F5F5F5F5F5E2DCE2E2BEE2E2E2E2E2E2E2E2E2E2E2E2E2E2E2E2E2E2E2E2E2E2E2E2E2E2E2E2E2E2E2E2E2E2E2E2E2E2E2E2E2E2E2E2E2E2E2E2
310
E2E2E2E2E2E2E2E2E2E2E2E2E2E2E2E2E2E2E2E2E2E2E2E2E2E2E2E2E2E2BEE2E2E2DCE2E2E2E2E2E2E2E2E2E2E2E2E2E2E2E2E2E2E2E2E2E2E2E2E2E2E2E2E2E2E2E2E2E2E2E2E2E2E2E2E2E2E2E2E2E2E2E2E2E2E2E2E2E2E2E2E2E2E2DCE2E2E2E2E2E2E2E2E2E2E2E2E2E2E2E2E2E2E2E2E2E2E2E2E2E2E2E2E2DCE2E2
310
E2E2E2E2E2E2E2E2E2E2BEBEBEBEE2BEBEBEBEBEBEBEBEBEDCF5F5F5F5F5F5F5F5F5F5F5F5F5F5F5E2E2E2E2DCF5F5F5F5F5F5F5F5F5F5F5F5F5F5F5E2E2E2E2DCF5F5F5F5F5E2F5F5F5F5F5E2DCE2E2BEE2E2E2E2E2E2E2E2E2E2E2E2E2E2E2E2E2E2E2E2E2E2E2E2E2E2E2E2E2E2E2E2E2E2E2E2E2E2E2E2E2E2E2E2E2E2
310
E2E2E2E2E2E2E2E2E2E2E2E2E2E2E2E2E2E2E2E2E2E2E2E2E2E2E2E2E2E2E2E2BEE2E2E2DCE2E2E2E2E2E2E2E2E2E2E2E2E2E2E2E2E2E2E2E2E2E2E2E2E2E2E2E2E2E2E2E2E2E2E2E2E2E2E2E2E2E2E2E2E2E2E2E2E2E2E2E2E2E2E2E2E2E2E2DCE2E2E2E2E2E2E2E2E2E2E2E2E2E2E2E2E2E2E2E2E2E2E2E2E2E2E2E2E2DC
310
E2E2E2E2E2E2E2E2E2E2E2E2DCDCDCDCDCDCDCDCDCDCDCDCDCDCDCDCDCDCDCBEBEDCBEDCBEDCBEBEBEDCDCDCDCDCDCDCDCDCDCDCDCDCDCDCDCDCDCDCDCDCDCDCDCDCDCDCDCDCDCDCBEBEBEBEBEDCDCDCE2E2BEE2E2E2E2E2E2E2E2E2E2E2E2E2E2E2E2E2E2E2E2E2E2E2E2E2E2E2E2E2E2E2E2E2E2E2E2E2E2E2E2E2E2E2E2
310
E2E2E2E2E2E2E2E2E2E2E2E2E2E2E2E2E2E2E2E2E2E2E2E2E2E2E2E2E2E2E2E2E2E2BEE2E2E2DCE2E2E2E2E2E2E2E2E2E2E2E2E2E2E2E2E2E2E2E2E2E2E2E2E2E2E2E2E2E2E2E2E2E2E2E2E2E2E2E2E2E2E2E2E2E2E2E2E2E2E2E2E2E2E2E2E2E2E2DCE2E2E2E2E2E2E2E2E2E2E2E2E2E2E2E2E2E2E2E2E2E2E2E2E2E2E2E2
310
E2DCDCDCDCDCDCDCDCDCDCDCDCDCDCDCDCDCDCDCDCDCDCDCDCDCDCDCDCE2E2E2E2BEBEBEBEBEBEBEBEBEBEE2E2E2E2E2DCE2E2E2E2E2E2E2E2E2E2E2E2E2E2E2E2E2E2E2DCE2E2E2E2E2BEBEE2BEE2E2E2DCE2E2BEE2E2E2E2E2E2E2E2E2E2E2E2E2E2E2E2E2E2E2E2E2E2E2E2E2E2E2E2E2E2E2E2E2E2E2E2E2E2E2E2E2E2
310
E2E2E2E2E2E2E2E2E2E2E2E2E2E2E2E2E2E2E2E2E2E2E2E2E2E2E2E2E2E2E2E2E2E2E2E2BEE2E2E2DCE2E2E2E2E2E2E2E2E2E2E2E2E2E2E2E2E2E2E2E2E2E2E2E2E2E2E2E2E2E2E2E2E2E2E2E2E2E2E2E2E2E2E2E2E2E2E2E2E2E2E2E2E2E2E2E2E2E2E2DCE2E2E2E2E2E2E2E2E2E2E2E2E2E2E2E2E2E2E2E2E2E2E2E2E2E2
310
E2E2E2DCE2F5F5F5F5E2F5F5F5F5F5E2DCE2E2E2E2BEBEBEBEBEE2E2E2E2DCE2E2E2E2BEE2E2BEBEBEBEBEBEBEE2E2E2E2E2DCE2E2E2E2E2E2E2E2E2E2E2E2E2E2E2E2E2E2E2DCE2E2E2E2BEBEBEBEBEE2E2E2DCE2E2BEE2E2E2E2E2E2E2E2E2E2E2E2E2E2E2E2E2E2E2E2E2E2E2E2E2E2E2E2E2E2E2E2E2E2E2E2E2E2E2E2
310
E2E2E2E2E2E2E2E2E2E2E2E2E2E2E2E2E2E2E2E2E2E2E2E2E2E2E2E2E2E2E2E2E2E2E2E2E2E2BEE2E2E2DCE2E2E2E2E2E2E2E2E2E2E2E2E2E2E2E2E2E2E2E2E2E2E2E2E2E2E2E2E2E2E2E2E2E2E2E2E2E2E2E2E2E2E2E2E2E2E2E2E2E2E2E2E2E2E2E2E2E2E2DCE2E2E2E2E2E2E2E2E2E2E2E2E2E2E2E2E2E2E2E2E2E2E2E2
310
E2E2E2E2E2DCE2E2F5F5F5E2F5F5F5F5F5E2DCE2E2E2E2BEBEF5BEF5E2E2E2E2DCE2E2E2E2F5F5F5F5F5F5F5F5E2E2E2E2E2E2E2DCE2E2E2F5F5F5F5F5F5F5F5F5F5E2E2E2E2E2E2DCE2E2F5F5F5F5F5F5F5F5F5E2DCE2E2BEE2E2E2E2E2E2E2E2E2E2E2E2E2E2E2E2E2E2E2E2E2E2E2E2E2E2E2E2E2E2E2E2E2E2E2E2E2E2
310
E2E2E2E2E2E2E2E2E2E2E2E2E2E2E2E2E2E2E2E2E2E2E2E2E2E2E2E2E2E2E2E2E2E2E2E2E2E2E2E2BEE2E2E2DCE2E2E2E2E2E2E2E2E2E2E2E2E2E2E2E2E2E2E2E2E2E2E2E2E2E2E2E2E2E2E2E2E2E2E2E2E2E2E2E2E2E2E2E2E2E2E2E2E2E2E2E2E2E2E2E2E2E2E2DCDCDCDCDCDCDCDCDCDCDCDCDCDCDCDCDCDCDCDCDCDCDC
310
DCDCDCDCDCDCDCDCDCF5F5DCF5DCDCF5DCDCDCDCDCDCDCDCDCF5F5F5F5F5DCDCDCDCDCDCDCDCDCF5F5F5F5DCF5F5F5DCDCDCDCDCDCDCDCDCDCDCF5F5F5F5F5F5F5F5F5F5F5DCDCDCDCDCDCDCDCF5F5F5F5F5F5F5F5F5DCDCE2E2BEE2E2E2E2E2E2E2E2E2E2E2E2E2E2E2E2E2E2E2E2E2E2E2E2E2E2E2E2E2E2E2E2E2E2E2E2
310
E2E2E2E2E2E2E2E2E2E2E2E2E2E2E2E2E2E2E2E2E2E2E2E2E2E2E2E2E2E2E2E2E2E2E2E2E2E2E2E2E2E2BEE2E2E2DCE2E2E2E2E2E2E2E2E2E2E2E2E2E2E2E2E2E2E2E2E2E2E2E2E2E2E2E2E2E2E2E2E2E2E2E2E2E2E2E2E2E2E2E2E2E2E2E2E2E2E2E2E2E2E2E2E2E2E2E2E2E2E2E2E2E2E2E2E2E2E2E2E2E2E2E2E2E2E2E2
310
E2E2E2E2E2E2E2E2E2E2E2E2E2E2E2E2E2E2E2E2E2E2E2E2E2E2E2E2E2E2E2E2E2E2E2E2E2E2E2E2E2E2E2E2E2E2E2E2E2E2E2E2E2E2E2E2E2E2E2E2E2E2E2E2E2E2E2E2E2E2E2E2E2E2E2E2E2E2E2E2E2E2E2E2E2E2E2E2E2DCE2E2BEE2E2E2E2E2E2E2E2E2E2E2E2E2E2E2E2E2E2E2E2E2E2E2E2E2E2E2E2E2E2E2E2E2E2
310
E2E2E2E2E2E2E2E2E2E2E2E2E2E2E2E2E2E2E2E2E2E2E2E2E2E2E2E2E2E2E2E2E2E2E2E2E2E2E2E2E2E2E2E2BEE2E2E2DCE2E2E2E2E2E2E2E2E2E2E2E2E2E2E2E2E2E2E2E2E2E2E2E2E2E2E2E2E2E2E2E2E2E2E2E2E2E2E2E2E2E2E2E2E2E2E2E2E2E2E2E2E2E2E2E2E2E2E2E2E2E2E2E2E2E2E2E2E2E2E2E2E2E2E2E2E2E2
310
E2E2E2E2E2E2E2E2E2E2E2E2E2E2E2E2E2E2E2E2E2E2E2E2E2E2E2E2E2E2E2E2E2E2E2E2E2E2E2E2E2E2E2E2E2E2E2E2E2E2E2E2E2E2E2E2E2E2E2E2E2E2E2E2E2E2E2E2E2E2E2E2E2E2E2E2E2E2E2E2E2E2E2E2E2E2E2E2E2E2E2DCE2E2BEE2E2E2E2E2E2E2E2E2E2E2E2E2E2E2E2E2E2E2E2E2E2E2E2E2E2E2E2E2E2E2E2
310
E2E2E2E2E2E2E2E2E2E2E2E2E2E2E2E2E2E2E2E2E2E2E2E2E2E2E2E2E2E2E2E2E2E2E2E2E2E2E2E2E2E2E2E2E2E2BEE2E2E2DCE2E2E2E2E2E2E2E2E2E2E2E2E2E2E2E2E2E2E2E2E2E2E2E2E2E2E2E2E2E2E2E2E2E2E2E2E2E2E2E2E2E2E2E2E2E2E2E2E2E2E2E2E2E2E2E2E2E2E2E2E2E2E2E2E2E2E2E2E2E2E2E2E2E2E2E2
310
E2E2E2E2E2E2E2E2E2E2E2E2E2E2E2E2E2E2E2E2E2E2E2E2E2E2E2E2E2E2E2E2E2E2E2E2E2E2E2E2E2E2E2E2E2E2E2E2E2E2E2E2E2E2E2E2E2E2E2E2E2E2E2E2E2E2E2E2E2E2E2E2E2E2E2E2E2E2E2E2E2E2E2E2E2E2E2E2E2E2E2E2E2DCE2E2BEE2E2E2E2E2E2E2E2E2E2E2E2E2E2E2E2E2E2E2E2E2E2E2E2E2E2E2E2E2E2
310
E2E2E2E2E2E2E2E2E2E2E2E2E2E2E2E2E2E2E2E2E2E2E2E2E2E2E2E2E2E2E2E2E2E2E2E2E2E2E2E2E2E2E2E2E2E2E2E2BEE2E2E2DCE2E2E2E2E2E2E2E2E2E2E2E2E2E2E2E2E2E2E2E2E2E2E2E2E2E2E2E2E2E2E2E2E2E2E2E2E2E2E2E2E2E2E2E2E2E2E2E2E2E2E2E2E2E2E2E2E2E2E2E2E2E2E2E2E2E2E2E2E2E2E2E2E2E2
310
E2E2E2E2E2E2E2E2E2E2E2E2E2E2E2E2E2E2E2E2E2E2E2E2E2E2E2E2E2E2E2E2E2E2E2E2E2E2E2E2E2E2E2E2E2E2E2E2E2E2E2E2E2E2E2E2E2E2E2E2E2E2E2E2E2E2E2E2E2E2E2E2E2E2E2E2E2E2E2E2E2E2E2E2E2E2E2E2E2E2E2E2E2E2E2DCE2E2BEE2E2E2E2E2E2E2E2E2E2E2E2E2E2E2E2E2E2E2E2E2E2E2E2E2E2E2E2
310
E2E2E2E2E2E2E2E2E2E2E2E2E2E2E2E2E2E2E2E2E2E2E2E2E2E2E2E2E2E2E2E2E2E2E2E2E2E2E2E2E2E2E2E2E2E2E2E2E2E2BEE2E2E2DCE2E2E2E2E2E2E2E2E2E2E2E2E2E2E2E2E2E2E2E2E2E2E2E2E2E2E2E2E2E2E2E2E2E2E2E2E2E2E2E2E2E2E2E2E2E2E2E2E2E2E2E2E2E2E2E2E2E2E2E2E2E2E2E2E2E2E2E2E2E2E2E2
310
E2E2E2E2E2E2E2E2E2E2E2E2E2E2E2E2E2E2E2E2E2E2E2E2E2E2E2E2E2E2E2E2E2E2E2E2E2E2E2E2E2E2E2E2E2E2E2E2E2E2E2E2E2E2E2E2E2E2E2E2E2E2E2E2E2E2E2E2E2E2E2E2E2E2E2E2E2E2E2E2E2E2E2E2E2E2E2E2E2E2E2E2E2E2E2E2E2DCE2E2BEE2E2E2E2E2E2E2E2E2E2E2E2E2E2E2E2E2E2E2E2E2E2E2E2E2E2
310
E2E2E2E2E2E2E2E2E2E2E2E2E2E2E2E2E2E2E2E2E2E2E2E2E2E2E2E2E2E2E2E2E2E2E2E2E2E2E2E2E2E2E2E2E2E2E2E2E2E2E2E2BEE2E2E2DCE2E2E2E2E2E2E2E2E2E2E2E2E2E2E2E2E2E2E2E2E2E2E2E2E22DE2E2E2E2E2E2E2E2E2E2E2E2E2E2E2E2E2E2E2E2E2E2E2E2E2E2E2E2E2E2E2E2E2E2E2E2E2E2E2E2E2E2E2E2
310
E2E2E2E2E2E2E2E2E2E2E2E2E2E2E2E2E2E2E2E2E2E2E2E2E2E2E2E2E2E2E2E2E22DE2E2E2E2E2E2E2E2E2E2E2E2E2E2E2E2E2E2E2E2E2E2E2E2E2E2E2E2E2E2E2E2E2E2E2E2E2E2E2E2E2E2E2E2E2E2E2E2E2E2E2E2E2E2E2E2E2E2E2E2E2E2E2E2E2DCE2E2BEE2E2E2E2E2E2E2E2E2E2E2E2E2E2E2E2E2E2E2E2E2E2E2E2
310
E2E2E2E2E2E2E2E2E2E2E2E2E2E2E2E2E2E2E2E2E2E2E2E2E2E2E2E2E2E2E2E2E2E2E2E2E2E2E2E2E2E2E2E2E2E2E2E2E2E2E2E2E2E2BEE2E2E2DCE2E2E2E2E2E2E2E2E2E2E2E2E2E2E2E2E2E2E2E2E2E2E2E2E22D2D2D2D2D2D2D2D2D2D2D2D2D2D2D2D2D2D2D2D2D2D2D2D2D2D2D2D2D2D2D2D2D2D2D2D2DBEBEBEBEBE2D
310
2D2D2D2D2D2D2D2D2D2D2D2D2D2D2D2D2D2D2D2D2D2D2D2D2D2D2D2D2D2D2D2D2D2D2DF5E2E2E2E2E2E2E2E2E2E2E2E2E2E2E2E2E2E2E2E2E2E2E2E2E2E2E2E2E2E2E2E2E2E2E2E2E2E2E2E2E2E2E2E2E2E2E2E2E2E2E2E2E2E2E2E2E2E2E2E2E2E2E2E2E2DCE2E2BEE2E2E2E2E2E2E2E2E2E2E2E2E2E2E2E2E2E2E2E2E2E2
310
E2E2E2E2E2E2E2E2E2E2E2E2E2E2E2E2E2E2E2E2E2E2E2E2E2E2E2E2E2E2E2E2E2E2E2E2E2E2E2E2E2E2E2E2E2E2E2E2E2E2E2E2E2E2E2E2BEE2E2E2DCE2E2E2E2E2E2E2E2E2E2E2E2E2E2E2E2E2E2E2E2E2E2E2E2E22DE2E2E2E2E2E2E2E2E2E2E2E2E2E2E2E2E2E2E2E2E2E2E2E2E2E2E2E2E2E2E2E2E2E2E2E2BEBEBEBE
310
BEE2E2E2E2E2E2E2E2E2E2E2E2E2E2E2E2E2E2E2E2E2E2E2E2E2E2E2E2E2E2E2E2E2E2E2E22DE2E2E2E2E2E2E2E2E2E2E2E2E2E2E2E2E2E2E2E2E2E2E2E2E2E2E2E2E2E2E2E2E2E2E2E2E2E2E2E2E2E2E2E2E2E2E2E2E2E2E2E2E2E2E2E2E2E2E2E2E2E2E2E2E2DCE2E2BEE2E2E2E2E2E2E2E2E2E2E2E2E2E2E2E2E2E2E2E2
310
E2E2E2E2E2E2E2E2E2E2E2E2E2E2E2E2E2E2E2E2E2E2E2E2E2E2E2E2E2E2E2E2E2E2E2E2E2E2E2E2E2E2E2E2E2E2E2E2E2E2E2E2E2E2E2E2E2E2BEE2E2E2DCE2E2E2E2E2E2E2E2E2E2E2E2E2E2E2E2E2E2E2E2E2E2E2E2E22DE2E2E2E2E2E2E2E2E2E2E2E2E2E2E2E2E2E2E2E2E2E2E2E2E2E2E2E2E2E2E2E2E2E2E2E2BEBE
310
BEBEBEE2E2E2E2E2E2E2E2E2E2E2E2E2E2E2E2E2E2E2E2E2E2E2E2E2E2E2E2E2E2E2E2E2E2E2E22DE2E2E2E2E2E2E2E2E2E2E2E2E2E2E2E2E2E2E2E2E2E2E2E2E2E2E2E2E2E2E2E2E2E2E2E2E2E2E2E2E2E2E2E2E2E2E2E2E2E2E2E2E2E2E2E2E2E2E2E2E2E2E2E2E2DCE2E2BEE2E2E2E2E2E2E2E2E2E2E2E2E2E2E2E2E2E2
310
E2E2E2E2E2E2E2E2E2E2E2E2E2E2E2E2E2E2E2E2E2E2E2E2E2E2E2E2E2E2E2E2E2E2E2E2E2E2E2E2E2E2E2E2E2E2E2E2E2E2E2E2E2E2E2E2E2E2E2E2BEE2E2E2DCE2E2E2E2E2E2E2E2E2E2E2E2E2E2E2E2E2E2E2E2E2E2E2E2E22DE2E2E2E2E2E2E2E2E2E2E2E2E2E2E2E2E2E2E2E2E2E2F52D2D2D2D2D2D2D2D2D2D2D2D2D
310
2D2D2D2D2D2D2D2D2D2D2D2D2D2D2D2D2D2D2D2D2D2D2D2D2D2D2D2D2D2D2D2D2D2D2D2D2D2D2D2D2D2DE2E2E2E2E2E2E2E2E2E2E2E2E2E2E2E2E2E2E2E2E2E2E2E2E2E2E2E2E2E2E2E2E2E2E2E2E2E2E2E2E2E2E2E2E2E2E2E2E2E2E2E2E2E2E2E2E2E2E2E2E2E2E2E2E2DCE2E2BEE2E2E2E2E2E2E2E2E2E2E2E2E2E2E2E2
310
E2E2E2E2E2E2E2E2E2E2E2E2E2E2E2E2E2E2E2E2E2E2E2E2E2E2E2E2E2E2E2E2E2E2E2E2E2E2E2E2E2E2E2E2E2E2E2E2E2E2E2E2E2E2E2E2E2E2E2E2E2E2BEE2E2E2DCE2E2E2E2E2E2E2E2E2E2E2E2E2E2E2E2E2E2E2E2E2E2E2E2E22DE2E2E2E2E2E2E2E2E2E2E2E2E2E2E2E2E2E2E2E2E2E22DE2E2E2E2E2E2E2E2E2E2E2
310
E2E2E2E2BEBEBEBEE2E2E2E2E2E2E2E2E2E2E2E2E2E2E2E22DE2E2E2E2E2E2E2BEBEBEBEE2E2E2E2E2E2E22DE2E2E2E2E2E2E2E2E2E2E2E2E2E2E2E2E2E2E2E22DE22DE2E2E2E2E22D2DE2E2E2E2E2E2E2E2E2E2E2E2E2E2E2E2E2E2E2E2E2E2E2E2E2E2E2E2E2E2E2E2E2E2E2DCE2E2BEE2E2E2E2E2E2E2E2E2E2E2E2E2E2
310
E2E2E2E2E2E2E2E2E2E2E2E2E2E2E2E2E2E2E2E2E2E2E2E2E2E2E2E2E2E2E2E2E2E2E2E2E2E2E2E2E2E2E2E2E2E2E2E2E2E2E2E2E2E2E2E2E2E2E2E2E2E2E2E2BEE2E2E2DCE2E2E2E2E2E2E2E2E2E2E2E2E2E2E2E2E2E2E2E2E2E2E2E2E22DE2E2E2E2E2E2E2E2E2E2E2E2E2E2E2E2E2E2E2E2E2E22DE2E2E2E2E2E2E2E2E2
310
E2E2E2E2E2E2BEBEBEBEE2E2E2E2E2E2E2E2E2E2E2E2E2E2E2E22DE2E2E2E2E2E2E2BEBEBEBEE2E2E2E2E2E2E22DE2E2E2E2E2E2E2E2E2E2E2E2E2E2E2E2E2E2E2E22D2D2D2DBEBEBE2D2DF5E2E2E2E2E2E2E2E2E2E2E2E2E2E2E2E2E2E2E2E2E2E2E2E2E2E2E2E2E2E2E2E2E2E2E2DCE2E2BEE2E2E2E2E2E2E2E2E2E2E2E2
310
E2E2E2E2E2E2E2E2E2E2E2E2E2E2E2E2E2E2E2E2E2E2E2E2E2E2E2E2E2E2E2E2E2E2E2E2E2E2E2E2E2E2E2E2E2E2E2E2E2E2E2E2E2E2E2E2E2E2E2E2E2E2E2E2E2E2BEE2E2E2DCE2E2E2E2E2E2E2E2E2E2E2E2E2E2E2E2E2E2E2E2E2E2E2E2E22DE2E2E2E2E2E2E2E2E2E2E2E2E2E2E2E2E2E2E2E2E2E22DE2E2E2E2E2E2E2
310
E2E2E2E2E2E2E2E2E2E2E2E2E2E2E2E2E2E2E2E2E2E2E2E2E2E2E2E22DE2E2E2E2E2E2E2E2E2E2E2E2E2E2E2E2E2E22DE2E2E2E2E2E2E2E2E2E2E2E2E2E2E2E2E2E2E2E22DE2E2E2BEBEBEE2E22DE2E2E2E2E2E2E2E2E2E2E2E2E2E2E2E2E2E2E2E2E2E2E2E2E2E2E2E2E2E2E2E2E2E2E2DCE2E2BEE2E2E2E2E2E2E2E2E2E2
310
E2E2E2E2E2E2E2E2E2E2E2E2E2E2E2E2E2E2E2E2E2E2E2E2E2E2E2E2E2E2E2E2E2E2E2E2E2E2E2E2E2E2E2E2E2E2E2E2E2E2E2E2E2E2E2E2E2E2E2E2E2E2E2E2E2E2E2E2BEE2E2E2DCE2E2E2E2E2E2E2E2E2E2E2E2E2E2E2E2E2E2E2E2E2E2E2E2E22DE2E2E2E2E2E2E2E2E2E2E2E2E2E2E2E2E2E2E2E2E2E22DE2E2E2E2E2
310
E2E2E2E2E2E2E2E2E2E2E2E2E2E2E2E2E2E2E2E2E2E2E2E2E2E2E2E2E2E22DE2E2E2E2E2E2E2E2E2E2E2E2E2E2E2E2E2E22DE2E2E2E2E2E2E2E2E2E2E2E2E2E2E2E2E2E2E2E22DE2E2E2BEBEBEE2E22DE2E2E2E2E2E2E2E2E2E2E2E2E2E2E2E2E2E2E2E2E2E2E2E2E2E2E2E2E2E2E2E2E2E2E2DCE2E2BEE2E2E2E2E2E2E2E2
310
E2E2E2E2E2E2E2E2E2E2E2E2E2E2E2E2E2E2E2E2E2E2E2E2E2E2E2E2E2E2E2E2E2E2E2E2E2E2E2E2E2E2E2E2E2E2E2E2E2E2E2E2E2E2E2E2E2E2E2E2E2E2E2E2E2E2E2E2E2E2BEE2E2E2DCE2E2E2E2E2E2E2E2E2E2E2E2F52D2D2D2D2D2D2D2D2D2D2D2D2D2D2D2D2D2DF5F5F5F5F5F5F5F5F5F5F5F5F5F5F5F5F52DF5F5F5
310
F5F5F5F5F5F5F5F5F5F5F5F5F5F5F5F5F5F5F5F5F5F5F5F5F5F5F5F5F5F5F5F52DF5F5F5F5F5F5F5F5F5F5F5F5F5F5F5F5F5F5F5E2E2E2E2E2E2E2E2E2E2E2E2E2E2E2E2E2E2E2E22DE2E2E2F5F5F5E2E22DE2E2E2E2E2E2E2E2E2E2E2E2E2E2E2E2E2E2E2E2E2E2E2E2E2E2E2E2E2E2E2E2E2E2E2DCE2E2BEE2E2E2E2E2E2
310
E2E2E2E2E2E2E2E2E2E2E2E2E2E2E2E2E2E2E2E2E2E2E2E2E2E2E2E2E2E2E2E2E2E2E2E2E2E2E2E2E2E2E2E2E2E2E2E2E2E2E2E2E2E2E2E2E2E2E2E2E2E2E2E2E2E2E2E2E2E2E2E2BEE2E2E2DCE2E2E2E2E2E2E2E2E2E2E2E22DE2E2E22D2DE2E2E2E2E2E2E22DE2E2F5F5E2E2E2E2E2E2E2E2E2E2E2E2E2E2E2E2E2F5F5E2
310
E2E2E2E2E2E2E2E2E2E2E2E2E2E2E2E2E2E2E2E2E2E2E2E2E2E2E2E2E2E2E2E2E2F5F5E2E2E2E2E2E2E2E2E2E2E2E2E2E2E2E2E2E2F5E2E2E2E2E2E2E2E2E2E2E2E2E2E2E2E2E2E2E2E2F5F5F528282828F5F5F5E2E2E2E2E2E2E2E2E2E2E2E2E2E2E2E2E2E2E2E2E2E2E2E2E2E2E2E2E2E2E2E2E2E2E2DCE2E2BEE2E2E2E2
310
E2E2E2E2E2E2E2E2E2E2E2E2E2E2E2E2E2E2E2E2E2E2E2E2E2E2E2E2E2E2E2E2E2E2E2E2E2E2E2E2E2E2E2E2E2E2E2E2E2E2E2E2E2E2E2E2E2E2E2E2E2E2E2E2E2E2E2E2E2E2E2E2E2E2BEE2E2E2DCE2E2E2E2E2E2E2E2E2E2E2E22DE2E2E22DE2E2E2E2E2E2E2E22DE2F5E2E2E2E2E2E2E2E2E2E2E2E2E2E2E2E2E2E2E2F5
310
F5F5E2E2E2E2E2E2E2E2E2E2E2E2E2E2E2282828E2E2E2E2E2E2E2E2E2E2E2E2E2E2E2F5F5BEE2E2E2E2E2E2E2E2E2E2E2E2E2E2E22828F5E2E2E2E2E2E2E2E2E2E2E2E2E2E2E2E2E2E2E2BEF5F5F528282828F5F5F5BEE2E2E2E2E2E2E2E2E2E2E2E2E2E2E2E2E2E2E2E2E2E2E2E2E2E2E2E2E2E2E2E2E2E2DCE2E2BEE2E2
310
E2E2E2E2E2E2E2E2E2E2E2E2E2E2E2E2E2E2E2E2E2E2E2E2E2E2E2E2E2E2E2E2E2E2E2E2E2E2E2E2E2E2E2E2E2E2E2E2E2E2E2E2E2E2E2E2E2E2E2E2E2E2E2E2E2E2E2E2E2E2E2E2E2E2E2E2BEE2E2E2DCE2E2E2E2E2E2E2E2E2E2E2E22DE2E2E22DE2E2E2E2E2E2E2E22DF5E2E2E2E2E2E2E2E2E2E2E2E2E2E2E2E2E2E2E2
310
E2E2BEE2E2E2E2E2E2E2E2E2E2E2E2E2E2E2E2282828E2E2E2E2E2E2E2E2E2E2E2E2E2E2E2E2BEE2E2E2E2E2E2E2E2E2E2E2E2E2E2E2E22828F5E2E2E2E2E2E2E2E2E2E2E2E2E2E2E2E2E2E2E2E2E2E2E228282828E2E2E2E2E2E2E2E2E2E2E2E2E2E2E2E2E2E2E2E2E2E2E2E2E2E2E2E2E2E2E2E2E2E2E2E2E2E2DCE2E2BE
310
E2E2E2E2E2E2E2E2E2E2E2E2E2E2E2E2E2E2E2E2E2E2E2E2E2E2E2E2E2E2E2E2E2E2E2E2E2E2E2E2E2E2E2E2E2E2E2E2E2E2E2E2E2E2E2E2E2E2E2E2E2E2E2E2E2E2E2E2E2E2E2E2E2E2E2E2E2E2BEE2E2E2DCE2E2E2E2E2E2E2E2E2E2E2E22DE2E2E22DE2E2E2E2E2E2E2E22DF5E2E2E2F5F5F5F5F5F5F5F5F5F5F5F5F5F5
310
F5F5F5F5F5F5F5F5F5F5F5F5F5F5F5F5F5F5F5F5F528F528F5F5F5F5F5F5F5F5F5F5F5F5F5F5F5F5F5F5F5F5F5F5F5F5F5F5F5F5F5F5F5F5F5F5F5F5E2E2E2E2E2E2E2E2E2E2E2E2E2E2E2E2E2E2E2E2E2E2E2F5282828E2E2E2E2E2E2E2E2E2E2E2E2E2E2E2E2E2E2E2E2E2E2E2E2E2E2E2E2E2E2E2E2E2E2E2E2E2E2DCE2
310
E2BEE2E2E2E2E2E2E2E2E2E2E2E2E2E2E2E2E2E2E2E2E2E2E2E2E2E2E2E2E2E2E2E2E2E2E2E2E2E2E2E2E2E2E2E2E2E2E2E2E2E2E2E2E2E2E2E2E2E2E2E2E2E2E2E2E2E2E2E2E2E2E2E2E2E2E2E2E2E2BEE2E2E2DCE2E2E2E2E2E2E2E2E2E2E2E22DE2E2E22DE2E2E2E2E2E2E2E22DF5E2E2F5F5E2E2E2E2E2E2E2E2E2E2E2
310
E2E2E2E2E2E2E2E2E2E2E2E2E2E2E2E2E2E2E2E2E2E2E2F5F5F5E2E2E2E2E2E2E2E2E2E2E2E2E2E2E2E2E2E2E2E2E2E2E2E2E2E2E2E2E2E2E2E2E2F5F5E2E2E2E2E2E2E2E2E2E2E2E2E2E2E2E2E2E2E2E2E2E2E2E2F5282828E2E2E2E2E2E2E2E2E2E2E2E2E2E2E2E2E2E2E2E2E2E2E2E2E2E2E2E2E2E2E2E2E2E2E2E2E2E2
310
DCE2E2BEE2E2E2E2E2E2E2E2E2E2E2E2E2E2E2E2E2E2E2E2E2E2E2E2E2E2E2E2E2E2E2E2E2E2E2E2E2E2E2E2E2E2E2E2E2E2E2E2E2E2E2E2E2E2E2E2E2E2E2E2E2E2E2E2E2E2E2E2E2E2E2E2E2E2E2E2E2E2BEE2E2E2DCE2E2E2E2E2E2E2E2E2E2E2E22DE2E2E22DE2E2E2E2E2E2E2E2F5E2E2E2F5E2E2E2E2E2E2E2E2E2E2
310
E2E2E2E2E2E2E2E2E2E2E2E2E2E2E2E2E2E2E2E2E2E2E2E2E2E22DE2E2E2E2E2E2E2E2E2E2E2E2E2E2E2E2E2E2E2E2E2E2E2E2E2E2E2E2E2E2E2E2E2E2E22DE2E2E2E2E2E2E2E2E2E2E2E2E2E2E2E2E2E2E2E2E2E2E2E2F5E2E2F5E2E2E2E2E2E2E2E2E2E2E2E2E2E2E2E2E2E2E2E2E2E2E2E2E2E2E2E2E2E2E2E2E2E2E2E2
310
E2E2DCE2E2BEE2E2E2E2E2E2E2E2E2E2E2E2E2E2E2E2E2E2E2E2E2E2E2E2E2E2E2E2E2E2E2E2E2E2E2E2E2E2E2E2E2E2E2E2E2E2E2E2E2E2E2E2E2E2E2E2E2E2E2E2E2E2E2E2E2E2E2E2E2E2E2E2E2E2E2E2E2E2BEE2E2E2DCE2E2E2E2E2E2E2E2E2E2E2E22DE2E2E22DE2E2E2E2E2E2E2E2F5E2E2E2F5E2E2E2E2E2E2E2E2
310
E2E2E2E2E2E2E2E2E2E2E2E2E2E2E2E2E2E2E2E2E2E2E2E2E2E2E2E22DE2E2E2E2E2E2E2E2E2E2E2E2E2E2E2E2E2E2E2E2E2E2E2E2E2E2E2E2E2E2E2E2E2E2E22DE2E2E2E2E2E2E2E2E2E2E2E2E2E2E2E2E2E2E2E2E2E2E2E2F5E2E2F5E2E2E2E2E2E2E2E2E2E2E2E2E2E2E2E2E2E2E2E2E2E2E2E2E2E2E2E2E2E2E2E2E2E2
310
E2E2E2E2DCE2E2BEE2E2E2E2E2E2E2E2E2E2E2E2E2E2E2E2E2E2E2E2E2E2E2E2E2E2E2E2E2E2E2E2E2E2E2E2E2E2E2E2E2E2E2E2E2E2E2E2E2E2E2E2E2E2E2E2E2E2E2E2E2E2E2E2E2E2E2E2E2E2E2E2E2E2E2E2E2E2BEE2E2E2DCE2E2E2E2E2E2E2E2E2E2E2E22DE2E2E22DE2E2E2E2E2E2E2E2F5E2E2E2F5E2E2E2E2E2E2
310
E2E2E2E2E2E2E2E2E2E2E2E2E2E2E2E2E2E2E2E2E2E2E2E2E2E2E2E2E2E22DE2E2E2E2E2E2E2E2E2E2E2E2E2E2E2E2E2E2E2E2E2E2E2E2E2E2E2E2E2E2E2E2E2E2E22DE2E2E2E2E2E2E2E2E2E2E2E2E2E2E2E2E2E2E2E2E2E2E2E2F5E2E2F5E2E2E2E2E2E2E2E2E2E2E2E2E2E2E2E2E2E2E2E2E2E2E2E2E2E2E2E2E2E2E2E2
310
E2E2E2E2E2E2DCE2E2BEE2E2E2E2E2E2E2E2E2E2E2E2E2E2E2E2E2E2E2E2E2E2E2E2E2E2E2E2E2E2E2E2E2E2E2E2E2E2E2E2E2E2E2E2E2E2E2E2E2E2E2E2E2E2E2E2E2E2E2E2E2E2E2E2E2E2E2E2E2E2E2E2E2E2E2E2E2E2BEE2E2E2DCE2E2E2E2E2E2E2E2E2E2E2E22DE2E2E22DE2E2E2E2E2E2E2E2F5E2E2E2F5E2E2E2E2
310
E2E2E2E2E2E2E2E2E2E2E2E2E2E2E2E2E2E2E2E2E2E2E2E2E2E2E2E2E2E2E2E22D2D2D2D2D2D2D2D2D2D2D2D2D2D2D2D2D2D2D2D2D2D2D2D2D2D2D2D2D2D2D2D2D2D2D2DF5E2E2E2E2E2E2E2E2E2E2E2E2E2E2E2E2E2E2E2E2E2E2E2E2F5E2E2F5E2E2E2E2E2E2E2E2E2E2E2E2E2E2E2E2E2E2E2E2E2E2E2E2E2E2E2E2E2E2
310
E2E2E2E2E2E2E2E2DCE2E2BEE2E2E2E2E2E2E2E2E2E2E2E2E2E2E2E2E2E2E2E2E2E2E2E2E2E2E2E2E2E2E2E2E2E2E2E2E2E2E2E2E2E2E2E2E2E2E2E2E2E2E2E2E2E2E2E2E2E2E2E2E2E2E2E2E2E2E2E2E2E2E2E2E2E2E2E2E2E2BEE2E2E2DCE2E2E2E2E2E2E2E2E2E2E2E22DE2E2E22DE2E2E2E2E2E2E2E2F5E2E2E2F5E2E2
310
E2E2E2E2E2E2E2E2E2E2E2E2E2E2E2E2E2E2E2E2E2E2E2E2E2E2E2E2E2E2E2E2E2E22DE2E2E2E2E2E2E2E2E2E2E2E2E2E2E2BEBEBEBEE2E2E2E2E2E2E2E2E2E2E2E2E2E2E2E22DE2E2E2E2E2E2E2E2E2E2E2E2E2E2E2E2E2E2E2E2E2E2E2E2F5E2E2F5E2E2E2E2E2E2E2E2E2E2E2E2E2E2E2E2E2E2E2E2E2E2E2E2E2E2E2E2
310
E2E2E2E2E2E2E2E2E2E2DCE2E2BEE2E2E2E2E2E2E2E2E2E2E2E2E2E2E2E2E2E2E2E2E2E2E2E2E2E2E2E2E2E2E2E2E2E2E2E2E2E2E2E2E2E2E2E2E2E2E2E2E2E2E2E2E2E2E2E2E2E2E2E2E2E2E2E2E2E2E2E2E2E2E2E2E2E2E2E2E2E2BEE2E2E2DCE2E2E2E2E2E2E2E2E2E2E2E22DE2E2E22DE2E2E2E2E2E2E2E2F5E2E2E2F5
310
E2E2E2E2E2E2E2E2E2E2E2E2E2E2E2E2E2E2E2E2E2E2E2E2E2E2E2E2E2E2E2E2E2E2E2E2E2E2E2E2E2E2E2E2E2E2E2E2E2E2E2E2BEBEBEBEE2E2E2E2E2E2E2E2E2E2E2E2E2E2E2E2E2E2E2E2E2E2E2E2E2E2E2E2E2E2E2E2E2E2E2E2E2E2E2E2E2F5E2E2F5E2E2E2E2E2E2E2E2E2E2E2E2E2E2E2E2E2E2E2E2E2E2E2E2E2E2
310
E2E2E2E2E2E2E2E2E2E2E2E2DCE2E2BEE2E2E2E2E2E2E2E2E2E2E2E2E2E2E2E2E2E2E2E2E2E2E2E2E2E2E2E2E2E2E2E2E2E2E2E2E2E2E2E2E2E2E2E2E2E2E2E2E2E2E2E2E2E2E2E2E2E2E2E2E2E2E2E2E2E2E2E2E2E2E2E2E2E2E2E2E2E2BEE2E2E2DCE2E2E2E2E2E2E2E2E2E2E2E22DE2E2E22DE2E2E2E2E2E2E2E2F5E2E2
310
E2F5E2E2E2E2E2E2E2E2E2E2E2E2E2E2E2E2E2E2E2E2E2E2E2E2E2E2E2E2E2E2E2E2E2E2E2E2E2E2E2E2E2E2E2E2E2E2E2E2E2E2E2E2E2E2E2E2E2E2E2E2E2E2E2E2E2E2E2E2E2E2E2E2E2E2E2E2E2E2E2E2E2E2E2E2E2E2E2E2E2E2E2E2E2E2E2E2E2F5E2E2F5E2E2E2E2E2E2E2E2E2E2E2E2E2E2E2E2E2E2E2E2E2E2E2E2
310
E2E2E2E2E2E2E2E2E2E2E2E2E2E2DCE2E2BEE2E2E2E2E2E2E2E2E2E2E2E2E2E2E2E2E2E2E2E2E2E2E2E2E2E2E2E2E2E2E2E2E2E2E2E2E2E2E2E2E2E2E2E2E2E2E2E2E2E2E2E2E2E2E2E2E2E2E2E2E2E2E2E2E2E2E2E2E2E2E2E2E2E2E2E2E2E2BEE2E2E2DCE2E2E2E2E2E2E2E2E2E2E2E22DE2BEBEBEE2E2E2E2E2E2E2E2F5
310
E2E2E2F5E2E2E2E2E2E2E2E2E2E2E2E2E2E2E2E2E2E2E2E2E2E2E2E2E2E2E2E2E2E2E2E2E2E2E2E2E2E2E2E2E2E2E2E2E2E2E2E2E2E2E2E2E2E2E2E2E2E2E2E2E2E2E2E2E2E2E2E2E2E2E2E2E2E2E2E2E2E2E2E2E2E2E2E2E2E2E2E2E2E2E2E2E2E2E2E2E2F5E2E2F5E2E2E2E2E2E2E2E2E2E2E2E2E2E2E2E2E2E2E2E2E2E2
310
E2E2E2E2E2E2E2E2E2E2E2E2E2E2E2E2DCE2E2BEE2E2E2E2E2E2E2E2E2E2E2E2E2E2E2E2E2E2E2E2E2E2E2E2E2E2E2E2E2E2E2E2E2E2E2E2E2E2E2E2E2E2E2E2E2E2E2E2E2E2E2E2E2E2E2E2E2E2E2E2E2E2E2E2E2E2E2E2E2E2E2E2E2E2E2E2E2E2BEE2E2E2DCE2E2E2E2E2E2E2E2E2E2BEBEBEE2BEBEBEE2E2E2E2E2E2E2
310
E2F5E2E2E2F5E2E2E2E2E2E2E2E2E2E2E2E2E2E2E2E2E2E2E2E2E2E2E2E2E2E2E2E2E2E2E2E2E2E2E2E2E2E2E2E2E2E2E2E2E2E2E2E2E2E2E2E2E2E2E2E2E2E2E2E2E2E2E2E2E2E2E2E2E2E2E2E2E2E2E2E2E2E2E2E2E2E2E2E2E2E2E2E2E2E2E2E2E2E2E2E2E2F5E2E2F5E2E2E2E2E2E2E2E2E2E2E2E2E2E2E2E2E2E2E2E2
310
E2E2E2E2E2E2E2E2E2E2E2E2E2E2E2E2E2E2DCE2E2BEE2E2E2E2E2E2E2E2E2E2E2E2E2E2E2E2E2E2E2E2E2E2E2E2E2E2E2E2E2E2E2E2E2E2E2E2E2E2E2E2E2E2E2E2E2E2E2E2E2E2E2E2E2E2E2E2E2E2E2E2E2E2E2E2E2E2E2E2E2E2E2E2E2E2E2E2E2E2BEE2E2E2DCE2E2E2E2E2E2E2E2E2E2BEBEBEE2BEBEBEE2E2E2E2E2
310
E2E2E2F5E2E2E2F5E2E2E2E2E2E2E2E2E2E2E22D2D2D2D2D2D2D2D2D2D2D2D2D2D2D2D2D2D2D2D2D2D2D2D2D2D2D2D2D2D2D2D2D2D2D2D2D2D2D2D2D2D2D2DF5E2E2E2E2E2E2E2E2E2E2E2E2E2E2E2E2E2E2E2E2E2E2E2E2E2E2E2E2E2E2E2E2E2E2E2E2E2E2E2E2E2F5E2E2F5E2E2E2E2E2E2E2E2E2E2E2E2E2E2E2E2E2E2
310
E2E2E2E2E2E2E2E2E2E2E2E2E2E2E2E2E2E2E2E2DCE2E2BEE2E2E2E2E2E2E2E2E2E2E2E2E2E2E2E2E2E2E2E2E2E2E2E2E2E2E2E2E2E2E2E2E2E2E2E2E2E2E2E2E2E2E2E2E2E2E2E2E2E2E2E2E2E2E2E2E2E2E2E2E2E2E2E2E2E2E2E2E2E2E2E2E2E2E2E2E2E2BEE2E2E2DCE2E2E2E2E2E2E2E2E2E2BEBEBEE2E2E22DE2E2E2
310
E2E2E2E2E2F5E2E2E2F5E2E2E2E2E2E2E2E2E2E2E22D2DE2E2E2E2E2E2E2E2E2E2E2E2BEBEBEBEBEE2E2E2E2E2E2E2E2E2E2E2E22D2D2D2DE2E2BEBEBEE2E2E22D2DE2E2E2E2E2E2E2E2E2E2E2E2E2E2E2E2E2E2E2E2E2E2E2E2E2E2E2E2E2E2E2E2E2E2E2E2E2E2E2E2E2F5E2E2F5E2E2E2E2E2E2E2E2E2E2E2E2E2E2E2E2
310
E2E2E2E2E2E2E2E2E2E2E2E2E2E2E2E2E2E2E2E2E2E2DCE2E2BEE2E2E2E2E2E2E2E2E2E2E2E2E2E2E2E2E2E2E2E2E2E2E2E2E2E2E2E2E2E2E2E2E2E2E2E2E2E2E2E2E2E2E2E2E2E2E2E2E2E2E2E2E2E2E2E2E2E2E2E2E2E2E2E2E2E2E2E2E2E2E2E2E2E2E2E2E2E2BEE2E2E2DCE2E2E2E2E2E2E2E2E2E2BEBEBEE2E2E22DE2
310
E2E2E2E2E2E2E2F5E2E2E2F5E2E2E2E2E2E2E2E2E2E2E2F5E2E2E2E2E2E2E2E2E2E2E2E2E2BEBEBEBEBEE2E2E2E2E2E2E2E2E2E2E2E2E2F5E2E2E2E2E2BEBEE2E2E2E22DE2E2E2E2E2E2E2E2E2E2E2E2E2E2E2E2E2E2E2E2E2E2E2E2E2E2E2E2E2E2E2E2E2E2E2E2E2E2E2E2E2F5E2E2F5E2E2E2E2E2E2E2E2E2E2E2E2E2E2
310
E2E2E2E2E2E2E2E2E2E2E2E2E2E2E2E2E2E2E2E2E2E2E2E2DCE2E2BEE2E2E2E2E2E2E2E2E2E2E2E2E2E2E2E2E2E2E2E2E2E2E2E2E2E2E2E2E2E2E2E2E2E2E2E2E2E2E2E2E2E2E2E2E2E2E2E2E2E2E2E2E2E2E2E2E2E2E2E2E2E2E2E2E2E2E2E2E2E2E2E2E2E2E2E2E2E2BEE2E2E2DCE2E2E2E2E2E2E2E2E2E2BEBEBEE2E2E2
310
2DE2E2E2E2E2E2E2E2F5E2E2E2F5E2E2E2E2E2E2E2E2E2E2E2BEE2E2E2E2E2E2E2E2E2E2E2E2E2E2E2E2E2E2E2E2E2E2E2E2E2E2E2E2E2E2E2BEE2E2E2E2E2E2E2E2E2E2E22DE2E2E2E2E2E2E2E2E2E2E2E2E2E2E2E2E2E2E2E2E2E2E2E2E2E2E2E2E2E2E2E2E2E2E2E2E2E2E2E2E2F5E2E2F5E2E2E2E2E2E2E2E2E2E2E2E2
310
E2E2E2E2E2E2E2E2E2E2E2E2E2E2E2E2E2E2E2E2E2E2E2E2E2E2DCE2E2BEE2E2E2E2E2E2E2E2E2E2E2E2E2E2E2E2E2E2E2E2E2E2E2E2E2E2E2E2E2E2E2E2E2E2E2E2E2E2E2E2E2E2E2E2E2E2E2E2E2E2E2E2E2E2E2E2E2E2E2E2E2E2E2E2E2E2E2E2E2E2E2E2E2E2E2E2E2E2BEE2E2E2DCE2E2E2E2E2E2E2E2E2E2BEBEBEE2
310
E2E22DE2E2E2E2E2E2E2E2F5E2E2E2F5E2E2E2E2E2E2E2E2E2F5F5F5F5F5E2E2E2E2E2E2E2E2E2E2E2E2E2E2E2E2E2E2E2E2E2E2E2E2E2E2E2F5F5BEF5F5E2E2E2E2E2E2E2E2E22DE2E2E2E2E2E2E2E2E2E2E2E2E2E2E2E2E2E2E2E2E2E2E2E2E2E2E2F5F5F5E2E2E2E2E2E2E2E2E2E2E2F5E2E2F5E2E2E2E2E2E2E2E2E2E2
310
E2E2E2E2E2E2E2E2E2E2E2E2E2E2E2E2E2E2E2E2E2E2E2E2E2E2E2E2DCE2E2BEE2E2E2E2E2E2E2E2E2E2E2E2E2E2E2E2E2E2E2E2E2E2E2E2E2E2E2E2E2E2E2E2E2E2E2E2E2E2E2E2E2E2E2E2E2E2E2E2E2E2E2E2E2E2E2E2E2E2E2E2E2E2E2E2E2E2E2E2E2E2E2E2E2E2E2E2E2E2BEE2E2E2DCE2E2E2E2E2E2E2E2E2E2E2E2
310
2DE2E2E22DE2E2E2E2E2E2E2E2F5E2E2E2F5E2E2E2E2E2E2E2F5F5E2E2BEE2E2F5F5E2E2E2E2E2E2E2E2E2E2E2E2E2E2E2E2E2E2E2E2E2E2E2F5F5E2E2BE2D2D2D2D2D2D2D2D2D2D2D2D2D2D2D2DF52DE2E2E2E2E2E2E2E2E2E2E2E2E2E2E2E2E2E2E2E2E2F5E2F5E2E2E2E2E2E2E2E2E2E2E2F5E2E2F5E2E2E2E2E2E2E2E2
310
E2E2E2E2E2E2E2E2E2E2E2E2E2E2E2E2E2E2E2E2E2E2E2E2E2E2E2E2E2E2DCE2E2BEE2E2E2E2E2E2E2E2E2E2E2E2E2E2E2E2E2E2E2E2E2E2E2E2E2E2E2E2E2E2E2E2E2E2E2E2E2E2E2E2E2E2E2E2E2E2E2E2E2E2E2E2E2E2E2E2E2E2E2E2E2E2E2E2E2E2E2E2E2E2E2E2E2E2E2E2E2E2BEE2E2E2DCE2E2E2E2E2E2E2E2E2E2
310
E2E22DE2E2E22DE2E2E2E2E2E2E2E2F5E2E2E2F5E2E2E2E2E2E2F5F5E2E2E2BEE2E2E2F5F5E2E2E2E2E2E2E2E2E22DE2E2E2E2E2E2E2E2E2E2E2F5F5E2E2E2BEE2E2E2E2F5E2E2E2E2E2E22DE2E2E2E22D2DE2E2E2E2E2E2E2E2E2E2E2E2E2E2E2E2E2E2E2E2E2F5E2F5E2E2E2E2E2E2E2E2E2E2E2F5E2E2F5E2E2E2E2E2E2
310
E2E2E2E2E2E2E2E2E2E2E2E2E2E2E2E2E2E2E2E2E2E2E2E2E2E2E2E2E2E2E2E2DCE2E2BEE2E2E2E2E2E2E2E2E2E2E2E2E2E2E2E2E2E2E2E2E2E2E2E2E2E2E2E2E2E2E2E2E2E2E2E2E2E2E2E2E2E2E2E2E2E2E2E2E2E2E2E2E2E2E2E2E2E2E2E2E2E2E2E2E2E2E2E2E2E2E2E2E2E2E2E2E2E2BEE2E2E2DCE2E2E2E2E2E2E2E2
310
E2E2E2E22DE2E2E22DE2E2E2E2E2E2E2E2F5F5E2E2F5E2E2E2E2E2F5F5E2E2E2E2BEE2E2E2E2F5F5E2E2E2E2E2E2E2E22DE2E2E2E2E2E2E2E2E2E2E2F5E2E2E2E2BEE2E2E2E2E2F5E2E2E2E2E22DE2E2E2E22DE2E2E2E2E2E2E2E2E2E2E2E2E2E2E2E2E2E2E2E2E2E2F5BEBEE2E2E2E2E2E2E2E2E2E2E2F5E2BEF52DE2E2E2
310
E2E2E2E2E2E2E2E2E2E2E2E2E2E2E2E2E2E2E2E2E2E2E2E2E2E2E2E2E2E2E2E2E2E2DCE2E2BEE2E2E2E2E2E2E2E2E2E2E2E2E2E2E2E2E2E2E2E2E2E2E2E2E2E2E2E2E2E2E2E2E2E2E2E2E2E2E2E2E2E2E2E2E2E2E2E2E2E2E2E2E2E2E2E2E2E2E2E2E2E2E2E2E2E2E2E2E2E2E2E2E2E2E2E2E2E2BEE2E2E2DCE2E2E2E2E2E2
310
E2E2E2E2E2E22DE2E2E22DE2E2E2E2E2E2E2E22DF5E2E2F5F5E2E2E2E2F5E2E2E2F5F5F5F5F5E2E2E2F5E2E2E2E2E2E2E2E22DE2E2E2E2E2E2E2E2E2E2F5E2BEE2E2F5F5F5F5E2BEE2F5E2E2E2E2E22DE2E2E2E22DE2E2E2E2E2E2E2E2E2E2E2E2E2E2E2E2E2E2E2E2E2E2F5E2F5F5F5F5F5F5F5F5F5F5F5F5282828282DDC
310
F52D2D2D2D2D2DF52DE2E2E2E2E2E2E2E2E2E2E2E2E2E2E2E2E2E2E2E2E2E2E2E2E2E2E2DCE2E2BEE2E2E2E2E2E2E2E2E2E2E2E2E2E2E2E2E2E2E2E2E2E2E2E2E2E2E2E2E2E2E2E2E2E2E2E2E2E2E2E2E2E2E2E2E2E2E2E2E2E2E2E2E2E2E2E2E2E2E2E2E2E2E2E2E2E2E2E2E2E2E2E2E2E2E2E2E2E2BEE2E2E2DCE2E2E2E2
310
E2E2E2E2E2E2E2E22DE2E2E22DE2E2E2E2E2E2E2E22DF5E2E2E2F5F5F5F5F528F52828F5282828F52828F528F5F5F5F5F5F5F52DF5F5F5F5F5F5F5F5F5F5F528F528282828282828282828F528F5F5F5F5F5E2E2BEBEBEE2E2E2E2E2E2E2E2E2E2E2E2E2E2E2E2E2E2E2E2E2E2F5E2F5E2E2E2E2E2E2E2E2E2E2E2F528BEF5
310
E2E2F5E2E2E2E2E2E22DE2E2E2E2E2E2E2E2E2E2E2E2E2E2E2E2E2E2E2E2E2E2E2E2E2E2E2E2DCE2E2BEE2E2E2E2E2E2E2E2E2E2E2E2E2E2E2E2E2E2E2E2E2E2E2E2E2E2E2E2E2E2E2E2E2E2E2E2E2E2E2E2E2E2E2E2E2E2E2E2E2E2E2E2E2E2E2E2E2E2E2E2E2E2E2E2E2E2E2E2E2E2E2E2E2E2E2E2E2E2BEE2E2E2DCE2E2
310
E2E2E2E2E2E2E2E2E2E22DE2E2E22DE2E2E2E2E2E2E2E22DF5F5E2E2E2E2E2E228E228282828E2BEE228282828E228E2E2E2E2E2E2E22DE2E2E2E2E2E2E2E2E2E2282828F5F5E2BEE2E2F528282828E2E2E2E2F5E2E2BEBEBEE2E2E2E2E2E2E2E2E2E2E2E2E2E2E2E2E2E2E2E2E2E2F5E2F5E2E2E2E2E2E2E2E2E2E2E2F5E2
310
BEF5E2E2F5E2E2E2E2BEBE2DE2E2E2E2E2E2E2E2E2E2E2E2E2E2E2E2E2E2E2E2E2E2E2E2E2E2E2E2DCE2E2BEE2E2E2E2E2E2E2E2E2E2E2E2E2E2E2E2E2E2E2E2E2E2E2E2E2E2E2E2E2E2E2E2E2E2E2E2E2E2E2E2E2E2E2E2E2E2E2E2E2E2E2E2E2E2E2E2E2E2E2E2E2E2E2E2E2E2E2E2E2E2E2E2E2E2E2E2E2E2BEE2E2E2DC
310
E2E2E2E2E2E2E2E2E2E2E2E22DE2E2E22D2DE2E2E2E2E2E2E22DE2F5F5E2E2E2E2E228BE28282828BEBEBE28282828BE28E2E2E2E2E2E2E22DE2E2E2E2E2E2E2E2BEBE282828BEBEBEBEBEBEBEBE282828BEBEBEBEF5BEE2BEBEBEE2E2E2E2E2E2E2E2E2E2E2E2E2E2E2E2E2E2E2E2E2E2F5BEBEBEBEBEBEBEBEBEBEBEBEBE
310
F5BEBEF5BEBEF5BEBEE2E2BEBE2DE2E2E2E2E2E2E2E2E2E2E2E2E2E2E2E2E2E2E2E2E2E2E2E2E2E2E2E2DCE2E2BEE2E2E2E2E2E2E2E2E2E2E2E2E2E2E2E2E2E2E2E2E2E2E2E2E2E2E2E2E2E2E2E2E2E2E2E2E2E2E2E2E2E2E2E2E2E2E2E2E2E2E2E2E2E2E2E2E2E2E2E2E2E2E2E2E2E2E2E2E2E2E2E2E2E2E2E2E2E2BEE2E2
310
E2DCE2E2E2E2E2E2E2E2E2E2E2E22DE2E2E22D2DE2E2E2E2E2E2E22DE2E2F5F5F5E2E2E228E2282828F5E2BEE2F5282828E228E2E2E2E2E2E2E22DE2E2E2E2E2E2E2E2E2E2282828F5F5E2BEE2F5F52828E228E2E2E2E22DE2E2BEBEBEE2E2E2E2E2E2E2E2E2E2E2E2E2E2E2E2E2E2E2E2E2E2F5E2F5E2E2E2E2E2E2E2E2E2
310
E2E2F5F5F5F5E2E2F5E2E2E2E2BEBE2DE2E2E2E2E2E2E2E2E2E2E2E2E2E2E2E2E2E2E2E2E2E2E2E2E2E2E2E2DCE2E2BEE2E2E2E2E2E2E2E2E2E2E2E2E2E2E2E2E2E2E2E2E2E2E2E2E2E2E2E2E2E2E2E2E2E2E2E2E2E2E2E2E2E2E2E2E2E2E2E2E2E2E2E2E2E2E2E2E2E2E2E2E2E2E2E2E2E2E2E2E2E2E2E2E2E2E2E2E2E2BE
310
E2E2E2DCE2E2E2E2E2E2E2E2E2E2E2E22DE2E2E22D2D2D2D2D2D2D2D2D2D2D2D2D2D2DF5F5F5F528F5BEF5F5F5F5F5F5F5BEF528F5F5F5F5F5F5F52D2DF5F5F5F5F5F5F5F5F5F528F5BEF5282828282828BEF5F528F5F5F5F52DE2E2BEBEBEE2E2E2E2E2E2E2E2E2E2E2E2E2E2E2E2E2E2E2E2E2E2F5E2F5E2E2E2E2E2E2E2
310
E2E2E2E22DF5F5E2E2E2F5E2E2E2E2E2E22DE2E2E2E2E2E2E2E2E2E2E2E2E2E2E2E2E2E2E2E2E2E2E2E2E2E2E2E2DCE2E2BEE2E2E2E2E2E2E2E2E2E2E2E2E2E2E2E2E2E2E2E2E2E2E2E2E2E2E2E2E2E2E2E2E2E2E2E2E2E2E2E2E2E2E2E2E2E2E2E2E2E2E2E2E2E2E2E2E2E2E2E2E2E2E2E2E2E2E2E2E2E2E2E2E2E2E2E2E2
310
E2BEE2E2E2DCE2E2E2E2E2E2E2E2E2E2E2E22DE2E2E2E2E2E2E2E2E2E2E2E22DE2E2E2E2E2E2E2E2E2F5E2E2E2E2F5F5F5E2E2E2E2F5E2E2E2E2E2E2E2E22DE2E2E2E2E2E2E2E2E2E2F5F5BEE2E2F5F5F5E2E2BEE2F5E2E2E2E2E22DE2E2E2E22DE2E2E2E2E2E2E2E2E2E2E2E2E2E2E2E2E2E2E2E2E2E2F5E2F5F5F5F5F5F5
310
F5F5F5F5F5F52DF5BEF5F5F5F52D2D2D2D2D2D2D2DE2E2E2E2E2E2E2E2E2E2E2E2E2E2E2E2E2E2E2E2E2E2E2E2E2E2E2DCE2E2BEE2E2E2E2E2E2E2E2E2E2E2E2E2E2E2E2E2E2E2E2E2E2E2E2E2E2E2E2E2E2E2E2E2E2E2E2E2E2E2E2E2E2E2E2E2E2E2E2E2E2E2E2E2E2E2E2E2E2E2E2E2E2E2E2E2E2E2E2E2E2E2E2E2E2E2
310
E2E2E2BEE2E2E2DCE2E2E2E2E2E2E2E2E2E2E2E22DE2E2E2E2E2E2E2E2E2E2E2E22DE2E2E2E2E2E2E2E2E2E2F5E2E2E2E2E2E2E2E2E2F5E2E2E2E2E2E2BEBEBE2DE2E2E2E2E2E2E2E2E2E2E2F5E2E2E2E2BEE2E2E2E2F5F5E2E2E2E2E22DE2E2E2E22DE2E2E2E2E2E2E2E2E2E2E2E2E2E2E2E2E2E2E2E2E2E2F5BEBEE2E2E2
310
E2E2E2E2E2E2E22DE2E22DE2E2E22DE2E2E2E2E2E2E2E2E2E2E2E2E2E2E2E2E2E2E2E2E2E2E2E2E2E2E2E2E2E2E2E2E2E2E2DCE2E2BEE2E2E2E2E2E2E2E2E2E2E2E2E2E2E2E2E2E2E2E2E2E2E2E2E2E2E2E2E2E2E2E2E2E2E2E2E2E2E2E2E2E2E2E2E2E2E2E2E2E2E2E2E2E2E2E2E2E2E2E2E2E2E2E2E2E2E2E2E2E2E2E2E2
310
E2E2E2E2E2BEE2E2E2DCE2E2E2E2E2E2E2E2E2E2E2E22DE2E2E2E2E2E2E2E2E2E2E2E22DE2E2E2E2E2E2E2E2E2E2E2F5E2E2E2E2E2E2E2F5E2E2E2E2E2E2E2BEBEBE2DE2E2E2E2E2E2E2E2E2E2E2E2F5E2E2E2BEE2E2E2F5F5E2E2E2E2E2E22DE2E2E2E22D2DE2E2E2E2E2E2E2E2E2E2E2E2E2E2E2E2E2E2E2E2E2F5E2F5E2
310
E2E2E2E2E2E2E2E2E2BEBEE22DE2E2E22DE2E2E2E2E2E2E2E2E2E2E2E2E2E2E2E2E2E2E2E2E2E2E2E2E2E2E2E2E2E2E2E2E2E2E2DCE2E2BEE2E2E2E2E2E2E2E2E2E2E2E2E2E2E2E2E2E2E2E2E2E2E2E2E2E2E2E2E2E2E2E2E2E2E2E2E2E2E2E2E2E2E2E2E2E2E2E2E2E2E2E2E2E2E2E2E2E2E2E2E2E2E2E2E2E2E2E2E2E2E2
310
E2E2E2E2E2E2E2BEE2E2E2DCE2E2E2E2E2E2E2E2E2E2E2E22D2D2D2D2D2D2D2D2D2D2D2D2D2D2D2D2D2D2D2D2D2D2D2D2D2D2D2D2DF5F5F5F5E2E2E2E2E2E2E2E2BEBEBEE2E2E2E2E2E2E2E2E2E2E2E2E2E2F5F5F5BE2D2D2D2D2D2D2D2D2D2D2D2D2D2D2D2D2D2DE2E2E2E2E2E2E2E2E2E2E2E2E2E2E2E2E2E2E2E2E2F5F5
310
F5E2E2E2E2E2E2E2E2E2BEBEBEBEF52D2D2D2DE2E2E2E2E2E2E2E2E2E2E2E2E2E2E2E2E2E2E2E2E2E2E2E2E2E2E2E2E2E2E2E2E2E2E2DCE2E2BEE2E2E2E2E2E2E2E2E2E2E2E2E2E2E2E2E2E2E2E2E2E2E2E2E2E2E2E2E2E2E2E2E2E2E2E2E2E2E2E2E2E2E2E2E2E2E2E2E2E2E2E2E2E2E2E2E2E2E2E2E2E2E2E2E2E2E2E2E2
310
E2E2E2E2E2E2E2E2E2BEE2E2E2DCE2E2E2E2E2E2E2E2E2E2E2E2E2E2E2E2E2E2E2E2E2E2E2E2E22DE2E2E2E2E2E2E2E2E2E2E2E2E2E2E2E2E2E2E2E2E2E2E2E2E2E2E2BEBEBEE2E2E2E2E2E2E2E2E2E2E2E2E2E2E2E2E2BEE2E2E2E2E2E2E2E2E2E2E22DE2E2E2E2E2E2E2E2E2E2E2E2E2E2E2E2E2E2E2E2E2E2E2E2E2E2E2
310
2DE2E2E2E2E2E2E2E2E2E2E2BEBEBEE22DBEBEBE2DE2E2E2E2E2E2E2E2E2E2E2E2E2E2E2E2E2E2E2E2E2E2E2E2E2E2E2E2E2E2E2E2E2E2E2DCE2E2BEE2E2E2E2E2E2E2E2E2E2E2E2E2E2E2E2E2E2E2E2E2E2E2E2E2E2E2E2E2E2E2E2E2E2E2E2E2E2E2E2E2E2E2E2E2E2E2E2E2E2E2E2E2E2E2E2E2E2E2E2E2E2E2E2E2E2E2
310
E2E2E2E2E2E2E2E2E2E2E2BEE2E2E2DCE2E2E2E2E2E2E2E2E2E2E2E2E2E2E2E2E2E2E2E2E2E2E2E2E22DE2E2E2E2E2E2E2E2E2E2E2E2E2E2E2E2E2E2E2E2E2E2E2E2E2E2E2E2E2E2E2E2E2E2E2E2E2E2E2E2E2E2E2E2E2E2E2BEE2E2E2E2E2E2E2E2E2E2E22DE2E2E2E2E2E2E2E2E2E2E2E2E2E2E2E2E2E2E2E2E2E2E2E2E2
310
E2E22DE2E2E2E2E2E2E2E2E2E22DBEBEE2E2E2BEBEBE2DE2E2E2E2E2E2E2E2E2E2E2E2E2E2E2E2E2E2E2E2E2E2E2E2E2E2E2E2E2E2E2E2E2E2E2DCE2E2BEE2E2E2E2E2E2E2E2E2E2E2E2E2E2E2E2E2E2E2E2E2E2E2E2E2E2E2E2E2E2E2E2E2E2E2E2E2E2E2E2E2E2E2E2E2E2E2E2E2E2E2E2E2E2E2E2E2E2E2E2E2E2E2E2E2
310
E2E2E2E2E2E2E2E2E2E2E2E2E2BEE2E2E2DCE2E2E2E2E2E2E2E2E2E2E2E2E2E2E2E2E2E2E2E2E2E2E2E2E22DE2E2E2E2E2E2E2E2E2E2E2E2E2E2E2E2E2E2E2E2E2E2E2E2E2E2E2E2E2E2E2E2E2E2E2E2E2E2E2E2E2E2E2E2E2E2E2E2E2E2E2E2E2E2E2E2E2E2E22DE2E2E2E2E2E2E2E2E2E2E2E2E2E2E2E2E2E2E2E2E2E2E2
310
E2E2E2E22DE2E2E2E2E2E2E2E2E2E2E2E2E2E2E2E2E2E2E22DE2E2E2E2E2E2E2E2E2E2E2E2E2E2E2E2E2E2E2E2E2E2E2E2E2E2E2E2E2E2E2E2E2E2E2DCE2E2BEE2E2E2E2E2E2E2E2E2E2E2E2E2E2E2E2E2E2E2E2E2E2E2E2E2E2E2E2E2E2E2E2E2E2E2E2E2E2E2E2E2E2E2E2E2E2E2E2E2E2E2E2E2E2E2E2E2E2E2E2E2E2E2
310
E2E2E2E2E2E2E2E2E2E2E2E2E2E2E2BEE2E2E2DCE2E2E2E2E2E2E2E2E2E2E2E2E2E2E2E2E2E2E2E2E2E2E2E2E22D2D2D2D2D2D2D2D2D2D2D2D2D2D2D2D2D2D2D2D2D2D2D2D2D2D2D2D2D2D2D2D2D2D2D2D2D2D2D2D2D2D2D2D2D2D2D2D2D2D2D2D2D2D2D2D2D2D2D2DF5E2E2E2E2E2E2E2E2E2E2E2E2E2E2E2E2E2E2E2E2E2
310
E2E2E2E2E2E2F52D2D2D2D2D2D2D2D2D2D2D2D2D2D2D2D2D2D2D2DE2E2E2E2E2E2E2E2E2E2E2E2E2E2E2E2E2E2E2E2E2E2E2E2E2E2E2E2E2E2E2E2E2E2E2DCE2E2BEE2E2E2E2E2E2E2E2E2E2E2E2E2E2E2E2E2E2E2E2E2E2E2E2E2E2E2E2E2E2E2E2E2E2E2E2E2E2E2E2E2E2E2E2E2E2E2E2E2E2E2E2E2E2E2E2E2E2E2E2E2
310
E2E2E2E2E2E2E2E2E2E2E2E2E2E2E2E2E2BEE2E2E2DCE2E2E2E2E2E2E2E2E2E2E2E2E2E2E2E2E2E2E2E2E2E2E2E2E22DE2E2E2E2E2E2E2E2E2E2E2E2E2E2E2E2E2E2E2E2E2E2E2E2E2E2E2E2BEBEBEBEE2E2E2E2E2E2E2E2E2E2E2E2E2E2E2E2E2E2E2E2E2E2E2E2E2E2E22DE2E2E2E2E2E2E2E2E2E2E2E2E2E2E2E2E2E2E2
310
E2E2E2E2E2E2E2E22DE2E2E2E2E2E2E2E2BEBEBEBEE2E2E2E2E2E2E22DE2E2E2E2E2E2E2E2E2E2E2E2E2E2E2E2E2E2E2E2E2E2E2E2E2E2E2E2E2E2E2E2E2E2E2DCE2E2BEE2E2E2E2E2E2E2E2E2E2E2E2E2E2E2E2E2E2E2E2E2E2E2E2E2E2E2E2E2E2E2E2E2E2E2E2E2E2E2E2E2E2E2E2E2E2E2E2E2E2E2E2E2E2E2E2E2E2E2
310
E2E2E2E2E2E2E2E2E2E2E2E2E2E2E2E2E2E2E2BEE2E2E2DCE2E2E2E2E2E2E2E2E2E2E2E2E2E2E2E2E2E2E2E2E2E2E2E2E2E2E2E2E2E2E2E2E2E2E2E2E2E2E2E2E2E2E2E2E2E2E2E2E2E2E2E2E2E2BEBEBEBEE2E2E2E2E2E2E2E2E2E2E2E2E2E2E2E2E2E2E2E2E2E2E2E2E2E2E2E2E2E2E2E2E2E2E2E2E2E2E2E2E2E2E2E2E2
310
E2E2E2E2E2E2E2E2E2E2E2E2E2E2E2E2E2E2E2BEBEBEE2E2E2E2E2E2E2E2E2E2E2E2E2E2E2E2E2E2E2E2E2E2E2E2E2E2E2E2E2E2E2E2E2E2E2E2E2E2E2E2E2E2E2E2DCE2E2BEE2E2E2E2E2E2E2E2E2E2E2E2E2E2E2E2E2E2E2E2E2E2E2E2E2E2E2E2E2E2E2E2E2E2E2E2E2E2E2E2E2E2E2E2E2E2E2E2E2E2E2E2E2E2E2E2E2
310
E2E2E2E2E2E2E2E2E2E2E2E2E2E2E2E2E2E2E2E2E2BEE2E2E2DCE2E2E2E2E2E2E2E2E2E2E2E2E2E2E2E2E2E2E2E2E2E2E2E2E2E2E2E2E2E2E2E2E2E2E2E2E2E2E2E2E2E2E2E2E2E2E2E2E2E2E2E2E2E2E2E2E2E2E2E2E2E2E2E2E2E2E2E2E2E2E2E2E2E2E2E2E2E2E2E2E2E2E2E2E2E2E2E2E2E2E2E2E2E2E2E2E2E2E2E2E2
310
E2E2E2E2E2E2E2E2E2E2E2E2E2E2E2E2E2E2E2E2E2E2E2E2E2E2E2E2E2E2E2E2E2E2E2E2E2E2E2E2E2E2E2E2E2E2E2E2E2E2E2E2E2E2E2E2E2E2E2E2E2E2E2E2E2E2E2E2DCE2E2BEE2E2E2E2E2E2E2E2E2E2E2E2E2E2E2E2E2E2E2E2E2E2E2E2E2E2E2E2E2E2E2E2E2E2E2E2E2E2E2E2E2E2E2E2E2E2E2E2E2E2E2E2E2E2E2
310
E2E2E2E2E2E2E2E2E2E2E2E2E2E2E2E2E2E2E2E2E2E2E2BEE2E2E2DCE2E2E2E2E2E2E2E2E2E2E2E2E2E2E2E2E2E2E2E2E2E2E2E2E2E2E2E2E2E2E2E2E2E2E2E2E2E2E2E2E2E2E2E2E2E2E2E2E2E2E2E2E2E2E2E2E2E2E2E2E2E2E2E2E2E2E2E2E2E2E2E2E2E2E2E2E2E2E2E2E2E2E2E2E2E2E2E2E2E2E2E2E2E2E2E2E2E2E2
310
E2E2E2E2E2E2E2E2E2E2E2E2E2E2E2E2E2E2E2E2E2E2E2E2E2E2E2E2E2E2E2E2E2E2E2E2E2E2E2E2E2E2E2E2E2E2E2E2E2E2E2E2E2E2E2E2E2E2E2E2E2E2E2E2E2E2E2E2E2E2DCE2E2BEE2E2E2E2E2E2E2E2E2E2E2E2E2E2E2E2E2E2E2E2E2E2E2E2E2E2E2E2E2E2E2E2E2E2E2E2E2E2E2E2E2E2E2E2E2E2E2E2E2E2E2E2E2
310
E2E2E2E2E2E2E2E2E2E2E2E2E2E2E2E2E2E2E2E2E2E2E2E2E2BEE2E2E2DCE2E2E2E2E2E2E2E2E2E2E2E2E2E2E2E2E2E2E2E2E2E2E2E2E2E2E2E2E2E2E2E2E2E2E2E2E2E2E2E2E2E2E2E2E2E2E2E2E2E2E2E2E2E2E2E2E2E2E2E2E2E2E2E2E2E2E2E2E2E2E2E2E2E2E2E2E2E2E2E2E2E2E2E2E2E2E2E2E2E2E2E2E2E2E2E2E2
310
E2E2E2E2E2E2E2E2E2E2E2E2E2E2E2E2E2E2E2E2E2E2E2E2E2E2E2E2E2E2E2E2E2E2E2E2E2E2E2E2E2E2E2E2E2E2E2E2E2E2E2E2E2E2E2E2E2E2E2E2E2E2E2E2E2E2E2E2E2E2E2E2DCE2E2BEE2E2E2E2E2E2E2E2E2E2E2E2E2E2E2E2E2E2E2E2E2E2E2E2E2E2E2E2E2E2E2E2E2E2E2E2E2E2E2E2E2E2E2E2E2E2E2E2E2E2E2
310
E2E2E2E2E2E2E2E2E2E2E2E2E2E2E2E2E2E2E2E2E2E2E2E2E2E2E2BEE2E2E2DCE2E2E2E2E2E2E2E2E2E2E2E2E2E2E2E2E2E2E2E2E2E2E2E2E2E2E2E2E2E2E2E2E2E2E2E2E2E2E2E2E2E2E2E2E2E2E2E2E2E2E2E2E2E2E2E2E2E2E2E2E2E2E2E2E2E2E2E2E2E2E2E2E2E2E2E2E2E2E2E2E2E2E2E2E2E2E2E2E2E2E2E2E2E2E2
310
E2E2E2E2E2E2E2E2E2E2E2E2E2E2E2E2E2E2E2E2E2E2E2E2E2E2E2E2E2E2E2E2E2E2E2E2E2E2E2E2E2E2E2E2E2E2E2E2E2E2E2E2E2E2E2E2E2E2E2E2E2E2E2E2E2E2E2E2E2E2E2E2E2E2DCE2E2BEE2E2E2E2E2E2E2E2E2E2E2E2E2E2E2E2E2E2E2E2E2E2E2E2E2E2E2E2E2E2E2E2E2E2E2E2E2E2E2E2E2E2E2E2E2E2E2E2E2
310
E2E2E2E2E2E2E2E2E2E2E2E2E2E2E2E2E2E2E2E2E2E2E2E2E2E2E2E2E2BEE2E2E2DCE2E2E2E2E2E2E2E2E2E2E2E2E2E2E2E2E2E2E2E2E2E2E2E2E2E2E2E2E2E2E2E2E2E2E2E2E2E2E2E2E2E2E2E2E2E2E2E2E2E2E2E2E2E2E2E2E2E2E2E2E2E2E2E2E2E2E2E2E2E2E2E2E2E2E2E2E2E2E2E2E2E2E2E2E2E2E2E2E2E2E2E2E2
310
E2E2E2E2E2E2E2E2E2E2E2E2E2E2E2E2E2E2E2E2E2E2E2E2E2E2E2E2E2E2E2E2E2E2E2E2E2E2E2E2E2E2E2E2E2E2E2E2E2E2E2E2E2E2E2E2E2E2E2E2E2E2E2E2E2E2E2E2E2E2E2E2E2E2E2E2DCE2E2BEE2E2E2E2E2E2E2E2E2E2E2E2E2E2E2E2E2E2E2E2E2E2E2E2E2E2E2E2E2E2E2E2E2E2E2E2E2E2E2E2E2E2E2E2E2E2E2
310
E2E2E2E2E2E2E2E2E2E2E2E2E2E2E2E2E2E2E2E2E2E2E2E2E2E2E2E2E2E2E2BEE2E2E2DCE2E2E2E2E2E2E2E2E2E2E2E2E2E2E2E2E2E2E2E2E2E2E2E2E2E2E2E2E2E2E2E2E2E2E2E2E2E2E2E2E2E2E2E2E2E2E2E2E2E2E2E2E2E2E2E2E2E2E2E2E2E2E2E2E2E2E2E2E2E2E2E2E2E2E2E2E2E2E2E2E2E2E2E2E2E2E2E2E2E2E2
310
E2E2E2E2E2E2E2E2E2E2E2E2E2E2E2E2E2E2E2E2E2E2E2E2E2E2E2E2E2E2E2E2E2E2E2E2E2E2E2E2E2E2E2E2E2E2E2E2E2E2E2E2E2E2E2E2E2E2E2E2E2E2E2E2E2E2E2E2E2E2E2E2E2E2E2E2E2E2DCE2E2BEE2E2E2E2E2E2E2E2E2E2E2E2E2E2E2E2E2E2E2E2E2E2E2E2E2E2E2E2E2E2E2E2E2E2E2E2E2E2E2E2E2E2E2E2E2
310
E2E2E2E2E2E2E2E2E2E2E2E2E2E2E2E2E2E2E2E2E2E2E2E2E2E2E2E2E2E2E2E2E2BEE2E2E2DCE2E2E2E2E2E2E2E2E2E2E2E2E2E2E2E2E2E2E2E2E2E2E2E2E2E2E2E2E2E2E2E2E2E2E2E2E2E2E2E2E2E2E2E2E2E2E2E2E2E2E2E2E2E2E2E2E2E2E2E2E2E2E2E2E2E2E2E2E2E2E2E2E2E2E2E2E2E2E2E2E2E2E2E2E2E2E2E2E2
310
E2E2E2E2E2E2E2E2E2E2E2E2E2E2E2E2E2E2E2E2E2E2E2E2E2E2E2E2E2E2E2E2E2E2E2E2E2E2E2E2E2E2E2E2E2E2E2E2E2E2E2E2E2E2E2E2E2E2E2E2E2E2E2E2E2E2E2E2E2E2E2E2E2E2E2E2E2E2E2E2DCE2E2BEE2E2E2E2E2E2E2E2E2E2E2E2E2E2E2E2E2E2E2E2E2E2E2E2E2E2E2E2E2E2E2E2E2E2E2E2E2E2E2E2E2E2E2
310
E2E2E2E2E2E2E2E2E2E2E2E2E2E2E2E2E2E2E2E2E2E2E2E2E2E2E2E2E2E2E2E2E2E2E2BEE2E2E2DCE2E2E2E2E2E2E2E2E2E2E2E2E2E2E2E2E2E2E2E2E2E2E2E2E2E2E2E2E2E2E2E2E2E2E2E2E2E2E2E2E2E2E2E2E2E2E2E2E2E2E2E2E2E2E2E2E2E2E2E2E2E2E2E2E2E2E2E2E2E2E2E2E2E2E2E2E2E2E2E2E2E2E2E2E2E2E2
310
E2E2E2E2E2E2E2E2E2E2E2E2E2E2E2E2E2E2E2E2E2E2E2E2E2E2E2E2E2E2E2E2E2E2E2E2E2E2E2E2E2E2E2E2E2E2E2E2E2E2E2E2E2E2E2E2E2E2E2E2E2E2E2E2E2E2E2E2E2E2E2E2E2E2E2E2E2E2E2E2E2E2DCE2E2BEE2E2E2E2E2E2E2E2E2E2E2E2E2E2E2E2E2E2E2E2E2E2E2E2E2E2E2E2E2E2E2E2E2E2E2E2E2E2E2E2E2
310
E2E2E2E2E2E2E2E2E2E2E2E2E2E2E2E2E2E2E2E2E2E2E2E2E2E2E2E2E2E2E2E2E2E2E2E2E2BEE2E2E2DCE2E2E2E2E2E2E2E2E2E2E2E2E2E2E2E2E2E2E2E2E2E2E2E2E2E2E2E2E2E2E2E2E2E2E2E2E2E2E2E2E22D2D2D2D2D2D2D2D2D2D2D2D2D2D2D2D2D2D2D2D2D2D2D2D2D2D2D2D2D2D2D2DF5E2E2E2E2E2E2E2E2E2E2E2
310
E2E2E2E2E2E2E2E2E2E2E2E2E2E2E2E2E2E2E2E2E2E2E2E2E2E2E2E2E2E2E2E2E2E2E2E2E2E2E2E2E2E2E2E2E2E2E2E2E2E2E2E2E2E2E2E2E2E2E2E2E2E2E2E2E2E2E2E2E2E2E2E2E2E2E2E2E2E2E2E2E2E2E2E2DCE2E2BEE2E2E2E2E2E2E2E2E2E2E2E2E2E2E2E2E2E2E2E2E2E2E2E2E2E2E2E2E2E2E2E2E2E2E2E2E2E2E2
310
E2E2E2E2E2E2E2E2E2E2E2E2E2E2E2E2E2E2E2E2E2E2E2E2E2E2E2E2E2E2E2E2E2E2E2E2E2E2E2BEE2E2E2DCE2E2E2E2E2E2E2E2E2E2E2E2E2E2E2E2E2E2E2E2E2E2E2E2E2E2E2E2E2E2E2E2E2E2E2E2E2E2E2E2E22DE2E2E2E2E2E2E2E2E2E2E2E2E2BEBEBEBEBEE2E2E2E2E2E2E2E2E2E2E2E2E22DE2E2E2E2E2E2E2E2E2
310
E2E2E2E2E2E2E2E2E2E2E2E2E2E2E2E2E2E2E2E2E2E2E2E2E2E2E2E2E2E2E2E2E2E2E2E2E2E2E2E2E2E2E2E2E2E2E2E2E2E2E2E2E2E2E2E2E2E2E2E2E2E2E2E2E2E2E2E2E2E2E2E2E2E2E2E2E2E2E2E2E2E2E2E2E2E2DCE2E2BEE2E2E2E2E2E2E2E2E2E2E2E2E2E2E2E2E2E2E2E2E2E2E2E2E2E2E2E2E2E2E2E2E2E2E2E2E2
310
E2E2E2E2E2E2E2E2E2E2E2E2E2E2E2E2E2E2E2E2E2E2E2E2E2E2E2E2E2E2E2E2E2E2E2E2E2E2E2E2E2BEE2E2E2DCE2E2E2E2E2E2E2E2E2E2E2E2E2E2E2E2E2E2E2E2E2E2E2E2E2E2E2E2E2E2E2E2E2E2E2E2E22DE2E2E2F5E2E2E22DE2E2E2E2E2E2E2E2E2BEBEBEBEBEE2E2E2E2E2E2E2E2E22DE2E2E2F5E2E2E22DE2E2E2
310
E2E2E2E2E2E2E2E2E2E2E2E2E2E2E2E2E2E2E2E2E2E2E2E2E2E2E2E2E2E2E2E2E2E2E2E2E2E2E2E2E2E2E2E2E2E2E2E2E2E2E2E2E2E2E2E2E2E2E2E2E2E2E2E2E2E2E2E2E2E2E2E2E2E2E2E2E2E2E2E2E2E2E2E2E2E2E2E2DCE2E2BEE2E2E2E2E2E2E2E2E2E2E2E2E2E2E2E2E2E2E2E2E2E2E2E2E2E2E2E2E2E2E2E2E2E2E2
310
E2E2E2E2E2E2E2E2E2E2E2E2E2E2E2E2E2E2E2E2E2E2E2E2E2E2E2E2E2E2E2E2E2E2E2E2E2E2E2E2E2E2E2BEE2E2E2DCE2E2E2E2E2E2E2E2E2E2E2E2E2E2E2E2E2E2E2E2E2E2E2E2E2E2E2E2E2E2E2E2E2E2E2E2E22D2D2DBEBEBE2D2DF5E2E2E2E2E2E2E2E2E2E2E2E2E2E2E2E2E2E2E2E2E2E2E22D2D2DBEBEBE2D2DF5E2
310
E2E2E2E2E2E2E2E2E2E2E2E2E2E2E2E2E2E2E2E2E2E2E2E2E2E2E2E2E2E2E2E2E2E2E2E2E2E2E2E2E2E2E2E2E2E2E2E2E2E2E2E2E2E2E2E2E2E2E2E2E2E2E2E2E2E2E2E2E2E2E2E2E2E2E2E2E2E2E2E2E2E2E2E2E2E2E2E2E2E2DCE2E2BEE2E2E2E2E2E2E2E2E2E2E2E2E2E2E2E2E2E2E2E2E2E2E2E2E2E2E2E2E2E2E2E2E2
310
E2E2E2E2E2E2E2E2E2E2E2E2E2E2E2E2E2E2E2E2E2E2E2E2E2E2E2E2E2E2E2E2E2E2E2E2E2E2E2E2E2E2E2E2E2BEE2E2E2DCE2E2E2E2E2E2E2E2E2E2E2E2E2E2E2E2E2E2E2E2E2E2E2E2E2E2E2E2E2E2E2E2E2E2E2E2E22DE2E2BEBEBEE2E22DE2E2E2E2E2E2E2E2E2E2E2E2E2E2E2E2E2E2E2E2E2E2E22DE2E2BEBEBEE2E2
310
2DE2E2E2E2E2E2E2E2E2E2E2E2E2E2E2E2E2E2E2E2E2E2E2E2E2E2E2E2E2E2E2E2E2E2E2E2E2E2E2E2E2E2E2E2E2E2E2E2E2E2E2E2E2E2E2E2E2E2E2E2E2E2E2E2E2E2E2E2E2E2E2E2E2E2E2E2E2E2E2E2E2E2E2E2E2E2E2E2E2E2E2DCE2E2BEE2E2E2E2E2E2E2E2E2E2E2E2E2E2E2E2E2E2E2E2E2E2E2E2E2E2E2E2E2E2E2
310
E2E2E2E2E2E2E2E2E2E2E2E2E2E2E2E2E2E2E2E2E2E2E2E2E2E2E2E2E2E2E2E2E2E2E2E2E2E2E2E2E2E2E2E2E2E2E2BEE2E2E2DCE2E2E2E2E2E2E2E2E2E2E2E2E2E2E2E2E2E2E2E2E2E2E2E2E2E2E2E2E2E2E2E2E2E2E2E2E22DE2E2BEBEBEE2E22DE2E2E2E2E2E2E2E2E2E2E2E2E2E2E2E2E2E2E2E2E2E2E22DE2E2BEBEBE
310
28E22DE2E2E2E2E2E2E2E2E2E2E2E2E2E2E2E2E2E2E2E2E2E2E2E2E2E2E2E2E2E2E2E2E2E2E2E2E2E2E2E2E2E2E2E2E2E2E2E2E2E2E2E2E2E2E2E2E2E2E2E2E2E2E2E2E2E2E2E2E2E2E2E2E2E2E2E2E2E2E2E2E2E2E2E2E2E2E2E2E2E2E2DCE2E2BEE2E2E2E2E2E2E2E2E2E2E2E2E2E2E2E2E2E2E2E2E2E2E2E2E2E2E2E2E2
310
E2E2E2E2E2E2E2E2E2E2E2E2E2E2E2E2E2E2E2E2E2E2E2E2E2E2E2E2E2E2E2E2E2E2E2E2E2E2E2E2E2E2E2E2E2E2E2E2E2BEE2E2E2DCE2E2E2E2E2E2E2E2E2E2E2E2E2E2E2E2E2E2E2E2E2E2E2E2E2E2E2E2E2E2E2E2E2E2E2E2E22D2828E2BEE228282DE2E2E2E2E2E2E2E2E2E2E2E2E2E2E2E2E2E2E2E2E2E2E22D282828
310
BEE228282DE2E2E2E2E2E2E2E2E2E2E2E2E2E2E2E2E2E2E2E2E2E2E2E2E2E2E2E2E2E2E2E2E2E2E2E2E2E2E2E2E2E2E2E2E2E2E2E2E2E2E2E2E2E2E2E2E2E2E2E2E2E2E2E2E2E2E2E2E2E2E2E2E2E2E2E2E2E2E2E2E2E2E2E2E2E2E2E2E2E2E2DCE2E2BEE2E2E2E2E2E2E2E2E2E2E2E2E2E2E2E2E2E2E2E2E2E2E2E2E2E2E2
310
E2E2E2E2E2E2E2E2E2E2E2E2E2E2E2E2E2E2E2E2E2E2E2E2E2E2E2E2E2E2E2E2E2E2E2E2E2E2E2E2E2E2E2E2E2E2E2E2E2E2E2BEE2E2E2DCE2E2E2E2E2E2E2E2E2E2E2E2E2E2E2E2E2E2E2E2E2E2E2E2E2E2E2E2E2E2E2E2E2E2E2E2282DE2E2E2BEE2E2E22D28E2E2E2E2E2E2E2E2E2E2E2E2E2E2E2E2E2E2E2E2E2282DE2
310
E2E2BEE2E2E22D28E2E2E2E2E2E2E2E2E2E2E2E2E2E2E2E2E2E2E2E2E2E2E2E2E2E2E2E2E2E2E2E2E2E2E2E2E2E2E2E2E2E2E2E2E2E2E2E2E2E2E2E2E2E2E2E2E2E2E2E2E2E2E2E2E2E2E2E2E2E2E2E2E2E2E2E2E2E2E2E2E2E2E2E2E2E2E2E2E2E2DCE2E2BEE2E2E2E2E2E2E2E2E2E2E2E2E2E2E2E2E2E2E2E2E2E2E2E2E2
310
E2E2E2E2E2E2E2E2E2E2E2E2E2E2E2E2E2E2E2E2E2E2E2E2E2E2E2E2E2E2E2E2E2E2E2E2E2E2E2E2E2E2E2E2E2E2E2E2E2E2E2E2E2BEE2E2E2DCE2E2E2E2E2E2E2E2E2E2E2E2E2E2E2E2E2E2E2E2E2E2E2E2E2E2E2E2E2E2E2E2E2E2E228282DE2E2E2BEE2E2E22D2828E2E2E2E2E2E2E2E2E2E2E2E2E2E2E2E2E2E2E2E228
310
2DE2E2E2BEE2E2E22D2828E2E2E2E2E22DE2E2E2E2E2E2E2E2E2E2E2E2E2E2E2E2E2E2E2E2E2E2E2E2E2E2E2E2E2E2E2E2E2E2E2E2E2E2E2E2E2E2E2E2E2E2E2E2E2E2E2E2E2E2E2E2E2E2E2E2E2E2E2E2E2E2E2E2E2E2E2E2E2E2E2E2E2E2E2E2E2E2E2DCE2E2BEE2E2E2E2E2E2E2E2E2E2E2E2E2E2E2E2E2E2E2E2E2E2E2
310
E2E2E2E2E2E2E2E2E2E2E2E2E2E2E2E2E2E2E2E2E2E2E2E2E2E2E2E2E2E2E2E2E2E2E2E2E2E2E2E2E2E2E2E2E2E2E2E2E2E2E2E2E2E2E2BEE2E2E2DCE2E2E2E2E2E2E2E2E2E2E2E2E2E2E2E2E2E2E2E2E2E2E2E2E2E2E2E2E2E2E2E2E2E2E228E22DE2E2E2BEE2E2E22DE228E2E2E2E2E2E2E2E2E2E2E2E2E2E2E2E2E2E2E2
310
28E22DE2E2E2BEE2E2E22DE228E2E2E2E2E22DE2E2E2E2E2E2E2E2E2E2E2E2E2E2E2E2E2E2E2E2E2E2E2E2E2E2E2E2E2E2E2E2E2E2E2E2E2E2E2E2E2E2E2E2E2E2E2E2E2E2E2E2E2E2E2E2E2E2E2E2E2E2E2E2E2E2E2E2E2E2E2E2E2E2E2E2E2E2E2E2E2E2E2DCE2E2BEE2E2E2E2E2E2E2E2E2E2E2E2E2E2E2E2E2E2E2E2E2
310
E2E2E2E2E2E2E2E2E2E2E2E2E2E2E2E2E2E2E2E2E2E2E2E2E2E2E2E2E2E2E2E2E2E2E2E2E2E2E2E2E2E2E2E2E2E2E2E2E2E2E2E2E2E2E2E2E2BEE2E2E2DCE2E2E2E2E2E2E2E2E2E2E2E2E2E2E2E2E2E2E2E2E2E2E2E2E2E2E2E2E2E2E2E2E2E2E228E22DE2E2E2BEE2E2E22DE228E2E2E2E2E2E2E2E2E2E2E2E2E2E2E2E2E2
310
E2E228E22DE2E2E2BEE2E2E22DE22828E2E2E2E22DE2E2E2E2E2E2E2E2E2E2E2E2E2E2E2E2E2E2E2E2E2E2E2E2E2E2E2E2E2E2E2E2E2E2E2E2E2E2E2E2E2E2E2E2E2E2E2E2E2E2E2E2E2E2E2E2E2E2E2E2E2E2E2E2E2E2E2E2E2E2E2E2E2E2E2E2E2E2E2E2E2E2E2DCE2E2BEE2E2E2E2E2E2E2E2E2E2E2E2E2E2E2E2E2E2E2
310
E2E2E2E2E2E2E2E2E2E2E2E2E2E2E2E2E2E2E2E2E2E2E2E2E2E2E2E2E2E2E2E2E2E2E2E2E2E2E2E2E2E2E2E2E2E2E2E2E2E2E2E2E2E2E2E2E2E2E2BEE2E2E2DCE2E2E2E2E2E2E2E2E2E2E2E2E2E2E2E2E2E2E2E2E2E2E2E2E2E2E2E2E2E2E2E2E2E228E2E2F5DCE2E2BEE2E2DCF5E2E228E2E2E2E2E2E2E2E2E2E2E2E2E2E2
310
E2E2E2E228E2F5DCE2E2BEE2E2E22D2D2D2D2D2DBEBE2D2DE2E2E2E2E2E2E2E2E2E2E2E2E2E2E2E2E2E2E2E2E2E2E2E2E2E2E2E2E2E2E2E2E2E2E2E2E2E2E2E2E2E2E2E2E2E2E2E2E2E2E2E2E2E2E2E2E2E2E2E2E2E2E2E2E2E2E2E2E2E2E2E2E2E2E2E2E2E2E2E2E2E2DCE2E2BEE2E2E2E2E2E2E2E2E2E2E2E2E2E2E2E2E2
310
E2E2E2E2E2E2E2E2E2E2E2E2E2E2E2E2E2E2E2E2E2E2E2E2E2E2E2E2E2E2E2E2E2E2E2E2E2E2E2E2E2E2E2E2E2E2E2E2E2E2E2E2E2E2E2E2E2E2E2E2E2BEE2E2E2DCE2E2E2E2E2E2E2E2E2E2E2E2E2E2E2E2E2E2E2E2E2E2E2E2E2E2E2E2E2E2E2E2E2E228BEDCBEDCBEBEBEBEBEDCBEDCBE28E2E2E2E2E2E2E2E2E2E2E2E2
310
E2E2E2E2E2BE28BEDCDCBEBEBEBEBEDCBEDCBE28E2E2BEBEBEE2E2E2E2E2E2E2E2E2E2E2E2E2E2E2E2E2E2E2E2E2E2E2E2E2E2E2E2E2E2E2E2E2E2E2E2E2E2E2E2E2E2E2E2E2E2E2E2E2E2E2E2E2E2E2E2E2E2E2E2E2E2E2E2E2E2E2E2E2E2E2E2E2E2E2E2E2E2E2E2E2E2E2DCE2E2BEE2E2E2E2E2E2E2E2E2E2E2E2E2E2E2
310
E2E2E2E2E2E2E2E2E2E2E2E2E2E2E2E2E2E2E2E2E2E2E2E2E2E2E2E2E2E2E2E2E2E2E2E2E2E2E2E2E2E2E2E2E2E2E2E2E2E2E2E2E2E2E2E2E2E2E2E2E2E2E2BEE2E2E2DCE2E2E2E2E2E2E2E2E2E2E2E2E2E2E2E2E2E2E2E2E2E2E2E2E2E2E2E2E2E2E2E2E2E228E2E2DCDCE2E2BEE2E2DCDCE2E228E2E2E2E2E2E2E2E2E2E2
310
E2E2E2E2E2E2E2E228E2DCDCE2E2BEE2E2E22D2D2D2D2D2DBEBEBE2DE2E2E2E2E2E2E2E2E2E2E2E2E2E2E2E2E2E2E2E2E2E2E2E2E2E2E2E2E2E2E2E2E2E2E2E2E2E2E2E2E2E2E2E2E2E2E2E2E2E2E2E2E2E2E2E2E2E2E2E2E2E2E2E2E2E2E2E2E2E2E2E2E2E2E2E2E2E2E2E2E2E2DCE2E2BEE2E2E2E2E2E2E2E2E2E2E2E2E2
310
E2E2E2E2E2E2E2E2E2E2E2E2E2E2E2E2E2E2E2E2E2E2E2E2E2E2E2E2E2E2E2E2E2E2E2E2E2E2E2E2E2E2E2E2E2E2E2E2E2E2E2E2E2E2E2E2E2E2E2E2E2E2E2E2E2BEE2E2E2DCE2E2E2E2E2E2E2E2E2E2E2E2E2E2E2E2E2E2E2E2E2E2E2E2E2E2E2E2E2E2E2E2E2E2E228E2E2E2E2E2BEE2E2E2E2E228E2E2E2E2E2E2E2E2E2
310
E2E2E2E2E2E2E2E2E2E228E2E2E2E2E2BEE2E2E2E2E2E228E2E2BEBE2DE2E2E2E2E2E2E2E2E2E2E2E2E2E2E2E2E2E2E2E2E2E2E2E2E2E2E2E2E2E2E2E2E2E2E2E2E2E2E2E2E2E2E2E2E2E2E2E2E2E2E2E2E2E2E2E2E2E2E2E2E2E2E2E2E2E2E2E2E2E2E2E2E2E2E2E2E2E2E2E2E2E2E2DCE2E2BEE2E2E2E2E2E2E2E2E2E2E2
310
E2E2E2E2E2E2E2E2E2E2E2E2E2E2E2E2E2E2E2E2E2E2E2E2E2E2E2E2E2E2E2E2E2E2E2E2E2E2E2E2E2E2E2E2E2E2E2E2E2E2E2E2E2E2E2E2E2E2E2E2E2E2E2E2E2E2E2BEE2E2E2DCE2E2E2E2E2E2E2E2E2E2E2E2E2E2E2E2E2E2E2E2E2E2E2E2E2E2E2E2E2E2E2E2E2E2E228E2E2E2E2E2BEE2E2E2E2E228E2E2E2E2E2E2E2
310
E2E2E2E2E2E2E2E2E2E2E2E228E2E2E2E2E2BEE2E2E2E2E228E2E2E2E2E22DE2E2E2E2E2E2E2E2E2E2E2E2E2E2E2E2E2E2E2E2E2E2E2E2E2E2E2E2E2E2E2E2E2E2E2E2E2E2E2E2E2E2E2E2E2E2E2E2E2E2E2E2E2E2E2E2E2E2E2E2E2E2E2E2E2E2E2E2E2E2E2E2E2E2E2E2E2E2E2E2E2E2E2DCE2E2BEE2E2E2E2E2E2E2E2E2
310
E2E2E2E2E2E2E2E2E2E2E2E2E2E2E2E2E2E2E2E2E2E2E2E2E2E2E2E2E2E2E2E2E2E2E2E2E2E2E2E2E2E2E2E2E2E2E2E2E2E2E2E2E2E2E2E2E2E2E2E2E2E2E2E2E2E2E2E2E2BEE2E2E2DCE2E2E2E2E2E2E2E2E2E2E2E2E2E2E2E2E2E2E2E2E2E2E2E2E2E2E2E2E2E2E2E2E2E2E22828E2E2E2E2BEE2E2E2E22828E2E2E2E2E2
310
E2E2E2E2E2E2E2E2E2E2E2E2E2E2E228E2E2E2E2BEE2E2E2E22828E2E2E2E2E22DE2E2E2E2E2E2E2E2E2E2E2E2E2E2E2E2E2E2E2E2E2E2E2E2E2E2E2E2E2E2E2E2E2E2E2E2E2E2E2E2E2E2E2E2E2E2E2E2E2E2E2E2E2E2E2E2E2E2E2E2E2E2E2E2E2E2E2E2E2E2E2E2E2E2E2E2E2E2E2E2E2E2E2DCE2E2BEE2E2E2E2E2E2E2
310
E2E2E2E2E2E2E2E2E2E2E2E2E2E2E2E2E2E2E2E2E2E2E2E2E2E2E2E2E2E2E2E2E2E2E2E2E2E2E2E2E2E2E2E2E2E2E2E2E2E2E2E2E2E2E2E2E2E2E2E2E2E2E2E2E2E2E2E2E2E2E2BEE2E2E2DCE2E2E2E2E2E2E2E2E2E2E2E2E2E2E2E2E2E2E2E2E2E2E2E2E2E2E2E2E2E2E2E2E2E2E2E22828E2E2E2BEE2E2E22828E2E2BEBE
310
BEBEBEBEBEBEBEBEBEBEBEBEBEBEE2E2E22828E2E2E2BEE2E2E22828E2E2E2E2E2E2E2E2E2E2E2E2E2E2E2E2E2E2E2E2E2E2E2E2E2E2E2E2E2E2E2E2E2E2E2E2E2E2E2E2E2E2E2E2E2E2E2E2E2E2E2E2E2E2E2E2E2E2E2E2E2E2E2E2E2E2E2E2E2E2E2E2E2E2E2E2E2E2E2E2E2E2E2E2E2E2E2E2E2E2DCE2E2BEE2E2E2E2E2
310
E2E2E2E2E2E2E2E2E2E2E2E2E2E2E2E2E2E2E2E2E2E2E2E2E2E2E2E2E2E2E2E2E2E2E2E2E2E2E2E2E2E2E2E2E2E2E2E2E2E2E2E2E2E2E2E2E2E2E2E2E2E2E2E2E2E2E2E2E2E2E2E2E2BEE2E2E2DCE2E2E2E2E2E2E2E2E2E2E2E2E2E2E2E2E2E2E2E2E2E2E2E2E2E2E2E2E2E2E2E2E2E2E2E2E2282828E2BEE2282828E2E2E2
310
E2BEBEBEBEBEBEBEE2BEBEBEBEBEBEE2E2E2E2E228282828BEE2282828E2E2E2E2E2E2E2E2E2E2E2E2E2E2E2E2E2E2E2E2E2E2E2E2E2E2E2E2E2E2E2E2E2E2E2E2E2E2E2E2E2E2E2E2E2E2E2E2E2E2E2E2E2E2E2E2E2E2E2E2E2E2E2E2E2E2E2E2E2E2E2E2E2E2E2E2E2E2E2E2E2E2E2E2E2E2E2E2E2E2E2DCE2E2BEE2E2E2
310
E2E2E2E2E2E2E2E2E2E2E2E2E2E2E2E2E2E2E2E2E2E2E2E2E2E2E2E2E2E2E2E2E2E2E2E2E2E2E2E2E2E2E2E2E2E2E2E2E2E2E2E2E2E2E2E2E2E2E2E2E2E2E2E2E2E2E2E2E2E2E2E2E2E2E2BEE2E2E2DCE2E2E2E2E2E2E2E2E2E2E2E2E2E2E2E2E2E2E2E2E2E2E2E2E2E2E2E2E2E2E2E2E2E2E2E2E2E2E2E2282828E2E2E2E2
310
E2E2E2BEBEBEBEBEBEBEBEBEBEBEBEBEBEE2E2E2E2E2E2E2E228282828E2E2E2E2E2E2E2E2E2E2E2E2E2E2E2E2E2E2E2E2E2E2E2E2E2E2E2E2E2E2E2E2E2E2E2E2E2E2E2E2E2E2E2E2E2E2E2E2E2E2E2E2E2E2E2E2E2E2E2E2E2E2E2E2E2E2E2E2E2E2E2E2E2E2E2E2E2E2E2E2E2E2E2E2E2E2E2E2E2E2E2E2E2DCE2E2BEE2
310
E2E2E2E2E2E2E2E2E2E2E2E2E2E2E2E2E2E2E2E2E2E2E2E2E2E2E2E2E2E2E2E2E2E2E2E2E2E2E2E2E2E2E2E2E2E2E2E2E2E2E2E2E2E2E2E2E2E2E2E2E2E2E2E2E2E2E2E2E2E2E2E2E2E2E2E2E2BEE2E2E2DCE2E2E2E2E2E2E2E2E2E2E2E2E2E2E2E2E2E2E2E2E2E2E2E2E2E2E2E2E2E2E2E2E2E2E2E2E2E2E2E2E2E2E2E2E2
310
E2E2E2E2E2BEBEE2E2BEE2E2E2BEE2BEBEE2BEE2E2E2E2E2E2E2E2E2E2E2E2E2E2E2E2E2E2E2E2E2E2E2E2E2E2E2E2E2E2E2E2E2E2E2E2E2E2E2E2E2E2E2E2E2E2E2E2E2E2E2E2E2E2E2E2E2E2E2E2E2E2E2E2E2E2E2E2E2E2E2E2E2E2E2E2E2E2E2E2E2E2E2E2E2E2E2E2E2E2E2E2E2E2E2E2E2E2E2E2E2E2E2E2E2DCE2E2
310
BEE2E2E2E2E2E2E2E2E2E2E2E2E2E2E2E2E2E2E2E2E2E2E2E2E2E2E2E2E2E2E2E2E2E2E2E2E2E2E2E2E2E2E2E2E2E2E2E2E2E2E2E2E2E2E2E2E2E2E2E2E2E2E2E2E2E2E2E2E2E2E2E2E2E2E2E2E2E2BEE2E2E2DCE2E2E2E2E2E2E2E2E2E2E2E2E2E2E2E2E2E2E2E2E2E2E2E2E2E2E2E2E2E2E2E2E2E2E2E2E2E2E2E2E2E2E2
310
E2E2E2E2E2E2E2E2E2E2E2E2E2E2E2E2E2E2E2E2E2E2E2E2E2E2E2E2E2E2E2E2E2E2E2E2E2E2E2E2E2E2E2E2E2E2E2E2E2E2E2E2E2E2E2E2E2E2E2E2E2E2E2E2E2E2E2E2E2E2E2E2E2E2E2E2E2E2E2E2E2E2E2E2E2E2E2E2E2E2E2E2E2E2E2E2E2E2E2E2E2E2E2E2E2E2E2E2E2E2E2E2E2E2E2E2E2E2E2E2E2E2E2E2E2E2DC
310
E2E2BEE2E2E2E2E2E2E2E2E2E2E2E2E2E2E2E2E2E2E2E2E2E2E2E2E2E2E2E2E2E2E2E2E2E2E2E2E2E2E2E2E2E2E2E2E2E2E2E2E2E2E2E2E2E2E2E2E2E2E2E2E2E2E2E2E2E2E2E2E2E2E2E2E2E2E2E2E2E2BEE2E2E2DCE2E2E2E2E2E2E2E2E2E2E2E2E2E2E2E2E2E2E2E2E2E2E2E2E2E2E2E2E2E2E2E2E2E2E2E2E2E2E2E2E2
310
E2E2E2E2E2E2E2E2E2E2E2E2E2E2E2E2E2E2E2E2E2E2E2E2E2E2E2E2E2E2E2E2E2E2E2E2E2E2E2E2E2E2E2E2E2E2E2E2E2E2E2E2E2E2E2E2E2E2E2E2E2E2E2E2E2E2E2E2E2E2E2E2E2E2E2E2E2E2E2E2E2E2E2E2E2E2E2E2E2E2E2E2E2E2E2E2E2E2E2E2E2E2E2E2E2E2E2E2E2E2E2E2E2E2E2E2E2E2E2E2E2E2E2E2E2E2E2
310
E2DCE2E2BEE2E2E2E2E2E2E2E2E2E2E2E2E2E2E2E2E2E2E2E2E2E2E2E2E2E2E2E2E2E2E2E2E2E2E2E2E2E2E2E2E2E2E2E2E2E2E2E2E2E2E2E2E2E2E2E2E2E2E2E2E2E2E2E2E2E2E2E2E2E2E2E2E2E2E2E2E2E2BEE2E2E2DCE2E2E2E2E2E2E2E2E2E2E2E2E2E2E2E2E2E2E2E2E2E2E2E2E2E2E2E2E2E2E2E2E2E2E2E2E2E2E2
310
E2E2E2E2E2E2E2E2E2E2E2E2E2E2E2E2E2E2E2E2E2E2E2E2E2E2E2E2E2E2E2E2E2E2E2E2E2E2E2E2E2E2E2E2E2E2E2E2E2E2E2E2E2E2E2E2E2E2E2E2E2E2E2E2E2E2E2E2E2E2E2E2E2E2E2E2E2E2E2E2E2E2E2E2E2E2E2E2E2E2E2E2E2E2E2E2E2E2E2E2E2E2E2E2E2E2E2E2E2E2E2E2E2E2E2E2E2E2E2E2E2E2E2E2E2E2E2
310
E2E2E2DCE2E2BEE2E2E2E2E2E2E2E2E2E2E2E2E2E2E2E2E2E2E2E2E2E2E2E2E2E2E2E2E2E2E2E2E2E2E2E2E2E2E2E2E2E2E2E2E2E2E2E2E2E2E2E2E2E2E2E2E2E2E2E2E2E2E2E2E2E2E2E2E2E2E2E2E2E2E2E2E2E2BEE2E2E2DCE2E2E2E2E2E2E2E2E2E2E2E2E2E2E2E2E2E2E2E2E2E2E2E2E2E2E2E2E2E2E2E2E2E2E2E2E2
310
E2E2E2E2E2E2E2E2E2E2E2E2E2E2E2E2E2E2E2E2E2E2E2E2E2E2E2E2E2E2E2E2E2E2E2E2E2E2E2E2E2E2E2E2E2E2E2E2E2E2E2E2E2E2E2E2E2E2E2E2E2E2E2E2E2E2E2E2E2E2E2E2E2E2E2E2E2E2E2E2E2E2E2E2E2E2E2E2E2E2E2E2E2E2E2E2E2E2E2E2E2E2E2E2E2E2E2E2E2E2E2E2E2E2E2E2E2E2E2E2E2E2E2E2E2E2E2
310
E2E2E2E2E2DCE2E2BEE2E2E2E2E2E2E2E2E2E2E2E2E2E2E2E2E2E2E2E2E2E2E2E2E2E2E2E2E2E2E2E2E2E2E2E2E2E2E2E2E2E2E2E2E2E2E2E2E2E2E2E2E2E2E2E2E2E2E2E2E2E2E2E2E2E2E2E2E2E2E2E2E2E2E2E2E2E2BEE2E2E2DCE2E2E2E2E2E2E2E2E2E2E2E2E2E2E2E2E2E2E2E2E2E2E2E2E2E2E2E2E2E2E2E2E2E2E2
310
E2E2E2E2E2E2E2E2E2E2E2E2E2E2E2E2E2E2E2E2E2E2E2E2E2E2E2E2E2E2E2E2E2E2E2E2E2E2E2E2E2E2E2E2E2E2E2E2E2E2E2E2E2E2E2E2E2E2E2E2E2E2E2E2E2E2E2E2E2E2E2E2E2E2E2E2E2E2E2E2E2E2E2E2E2E2E2E2E2E2E2E2E2E2E2E2E2E2E2E2E2E2E2E2E2E2E2E2E2E2E2E2E2E2E2E2E2E2E2E2E2E2E2E2E2E2E2
310
E2E2E2E2E2E2E2DCE2E2BEE2E2E2E2E2E2E2E2E2E2E2E2E2E2E2E2E2E2E2E2E2E2E2E2E2E2E2E2E2E2E2E2E2E2E2E2E2E2E2E2E2E2E2E2E2E2E2E2E2E2E2E2E2E2E2E2E2E2E2E2E2E2E2E2E2E2E2E2E2E2E2E2E2E2E2E2E2E2BEE2E2E2DCE2E2E2E2E2E2E2E2E2E2E2E2E2E2E2E2E2E2E2E2E2E2E2E2E2E2E2E2E2E2E2E2E2
310
E2E2E2E2E2E2E2E2E2E2E2E2E2E2E2E2E2E2E2E2E2E2E2E2E2E2E2E2E2E2E2E2E2E2E2E2E2E2E2E2E2E2E2E2E2E2E2E2E2E2E2E2E2E2E2E2E2E2E2E2E2E2E2E2E2E2E2E2E2E2E2E2E2E2E2E2E2E2E2E2E2E2E2E2E2E2E2E2E2E2E2E2E2E2E2E2E2E2E2E2E2E2E2E2E2E2E2E2E2E2E2E2E2E2E2E2E2E2E2E2E2E2E2E2E2E2E2
310
E2E2E2E2E2E2E2E2E2DCE2E2BEE2E2E2E2E2E2E2E2E2E2E2E2E2E2E2E2E2E2E2E2E2E2E2E2E2E2E2E2E2E2E2E2E2E2E2E2E2E2E2E2E2E2E2E2E2E2E2E2E2E2E2E2E2E2E2E2E2E2E2E2E2E2E2E2E2E2E2E2E2E2E2E2E2E2E2E2E2E2BEE2E2E2DCE2E2E2E2E2E2E2E2E2E2E2E2E2E2E2E2E2E2E2E2E2E2E2E2E2E2E2E2E2E2E2
310
E2E2E2E2E2E2E2E2E2E2E2E2E2E2E2E2E2E2E2E2E2E2E2E2E2E2E2E2E2E2E2E2E2E2E2E2E2E2E2E2E2E2E2E2E2E2E2E2E2E2E2E2E2E2E2E2E2E2E2E2E2E2E2E2E2E2E2E2E2E2E2E2E2E2E2E2E2E2E2E2E2E2E2E2E2E2E2E2E2E2E2E2E2E2E2E2E2E2E2E2E2E2E2E2E2E2E2E2E2E2E2E2E2E2E2E2E2E2E2E2E2E2E2E2E2E2E2
310
E2E2E2E2E2E2E2E2E2E2E2DCE2E2BEE2E2E2E2E2E2E2E2E2E2E2E2E2E2E2E2E2E2E2E2E2E2E2E2E2E2E2E2E2E2E2E2E2E2E2E2E2E2E2E2E2E2E2E2E2E2E2E2E2E2E2E2E2E2E2E2E2E2E2E2E2E2E2E2E2E2E2E2E2E2E2E2E2E2E2E2E2E2BEE2E2E2DCDCDCDCDCDCDCDCDCDCDCDCDCDCDCDCDCDCDCDCDCDCDCDCDCDCDCDCDCDC
310
DCDCDCDCDCDCDCDCDCDCDCDCDCDCDCDCDCDCDCDCDCDCDCDCDCDCDCDCDCDCDCDCDCDCDCDCDCDCDCDCDCDCDCDCDCDCDCDCDCDCDCDCDCDCDCDCDCDCDCDCDCDCDCDCDCDCDCDCDCDCDCDCDCDCDCDCDCDCDCDCDCDCDCDCDCDCDCDCDCDCDCDCDCDCDCDCDCDCDCDCDCDCDCDCDCDCDCDCDCDCDCDCDCDCDCDCDCDCDCDCDCDCDCDCDCDCDC
310
DCDCDCDCDCDCDCDCDCDCDCDCDCDCE2E2BEE2E2E2E2E2E2E2E2E2E2E2E2E2E2E2E2E2E2E2E2E2E2E2E2E2E2E2E2E2E2E2E2E2E2E2E2E2E2E2E2E2E2E2E2E2E2E2E2E2E2E2E2E2E2E2E2E2E2E2E2E2E2E2E2E2E2E2E2E2E2E2E2E2E2E2E2E2E2BEE2E2E2E2E2E2E2E2E2E2E2E2E2E2E2E2E2E2E2E2E2E2E2E2E2E2E2E2E2E2E2
310
E2E2E2E2E2E2E2E2E2E2E2E2E2E2E2E2E2E2E2E2E2E2E2E2E2E2E2E2E2E2E2E2E2E2E2E2E2E2E2E2E2E2E2E2E2E2E2E2E2E2E2E2E2E2E2E2E2E2E2E2E2E2E2E2E2E2E2E2E2E2E2E2E2E2E2E2E2E2E2E2E2E2E2E2E2E2E2E2E2E2E2E2E2E2E2E2E2E2E2E2E2E2E2E2E2E2E2E2E2E2E2E2E2E2E2E2E2E2E2E2E2E2E2E2E2E2E2
310
E2E2E2E2E2E2E2E2E2E2E2E2E2E2E2E2E2E2BEE2E2E2E2E2E2E2E2E2E2E2E2E2E2E2E2E2E2E2E2E2E2E2E2E2E2E2E2E2E2E2E2E2E2E2E2E2E2E2E2E2E2E2E2E2E2E2E2E2E2E2E2E2E2E2E2E2E2E2E2E2E2E2E2E2E2E2E2E2E2E2E2E2E2E2E2E2E2BEE2E2E2E2E2E2E2E2E2E2E2E2E2E2E2E2E2E2E2E2E2E2E2E2E2E2E2E2E2
310
E2E2E2E2E2E2E2E2E2E2E2E2E2E2E2E2E2E2E2E2E2E2E2E2E2E2E2E2E2E2E2E2E2E2E2E2E2E2E2E2E2E2E2E2E2E2E2E2E2E2E2E2E2E2E2E2E2E2E2E2E2E2E2E2E2E2E2E2E2E2E2E2E2E2E2E2E2E2E2E2E2E2E2E2E2E2E2E2E2E2E2E2E2E2E2E2E2E2E2E2E2E2E2E2E2E2E2E2E2E2E2E2E2E2E2E2E2E2E2E2E2E2E2E2E2E2E2
310
E2E2E2E2E2E2E2E2E2E2E2E2E2E2E2E2E2E2E2E2BEE2E2E2E2E2E2E2E2E2E2E2E2E2E2E2E2E2E2E2E2E2E2E2E2E2E2E2E2E2E2E2E2E2E2E2E2E2E2E2E2E2E2E2E2E2E2E2E2E2E2E2E2E2E2E2E2E2E2E2E2E2E2E2E2E2E2E2E2E2E2E2E2E2E2E2E2E2E2BEE2E2E2E2E2E2E2E2E2E2E2E2E2E2E2E2E2E2E2E2E2E2E2E2E2E2E2
310
E2E2E2E2E2E2E2E2E2E2E2E2E2E2E2E2E2E2E2E2E2E2E2E2E2E2E2E2E2E2E2E2E2E2E2E2E2E2E2E2E2E2E2E2E2E2E2E2E2E2E2E2E2E2E2E2E2E2E2E2E2E2E2E2E2E2E2E2E2E2E2E2E2E2E2E2E2E2E2E2E2E2E2E2E2E2E2E2E2E2E2E2E2E2E2E2E2E2E2E2E2E2E2E2E2E2E2E2E2E2E2E2E2E2E2E2E2E2E2E2E2E2E2E2E2E2E2
310
E2E2E2E2E2E2E2E2E2E2E2E2E2E2E2E2E2E2E2E2E2E2BEE2E2E2E2E2E2E2E2E2E2E2E2E2E2E2E2E2E2E2E2E2E2E2E2E2E2E2E2E2E2E2E2E2E2E2E2E2E2E2E2E2E2E2E2E2E2E2E2E2E2E2E2E2E2E2E2E2E2E2E2E2E2E2E2E2E2E2E2E2E2E2E2E2E2E2E2E2E2BEBEBEBEBEBEBEBEBEBEBEBEBEBEBEBEBEBEBEBEBEBEBEBEBEBE
310
BEBEBEBEBEBEBEBEBEBEBEBEBEBEBEBEBEBEBEBEBEBEBEBEBEBEBEBEBEBEBEBEBEBEBEBEBEBEBEBEBEBEBEBEBEBEBEBEBEBEBEBEBEBEBEBEBEBEBEBEBEBEBEBEBEBEBEBEBEBEBEBEBEBEBEBEBEBEBEBEBEBEBEBEBEBEBEBEBEBEBEBEBEBEBEBEBEBEBEBEBEBEBEBEBEBEBEBEBEBEBEBEBEBEBEBEBEBEBEBEBEBEBEBEBEBEBE
310
BEBEBEBEBEBEBEBEBEBEBEBEBEBEBEBEBEBEBEBEBEBEBEBEBEE2E2E2E2E2E2E2E2E2E2E2E2E2E2E2E2E2E2E2E2E2E2E2E2E2E2E2E2E2E2E2E2E2
  0
XRECORD
  5
44
102
{ACAD_REACTORS
330
43
102
}
330
43
100
AcDbXrecord
280
     1
270
     1
271
     1
  0
XRECORD
  5
45
102
{ACAD_REACTORS
330
43
102
}
330
43
100
AcDbXrecord
280
     1
270
     1
271
     1
  0
XRECORD
  5
46
102
{ACAD_REACTORS
330
43
102
}
330
43
100
AcDbXrecord
280
     1
270
     1
271
     1
  0
XRECORD
  5
47
102
{ACAD_REACTORS
330
43
102
}
330
43
100
AcDbXrecord
280
     1
270
     1
271
     1
  0
XRECORD
  5
48
102
{ACAD_REACTORS
330
43
102
}
330
43
100
AcDbXrecord
280
     1
270
     1
271
     1
  0
XRECORD
  5
49
102
{ACAD_REACTORS
330
43
102
}
330
43
100
AcDbXrecord
280
     1
270
     1
271
     1
  0
XRECORD
  5
3C
102
{ACAD_REACTORS
330
3B
102
}
330
3B
100
AcDbXrecord
280
     1
270
     1
271
     1
  0
XRECORD
  5
3D
102
{ACAD_REACTORS
330
3B
102
}
330
3B
100
AcDbXrecord
280
     1
270
     1
271
     1
  0
XRECORD
  5
3E
102
{ACAD_REACTORS
330
3B
102
}
330
3B
100
AcDbXrecord
280
     1
270
     1
271
     1
  0
XRECORD
  5
3F
102
{ACAD_REACTORS
330
3B
102
}
330
3B
100
AcDbXrecord
280
     1
270
     1
271
     1
  0
XRECORD
  5
40
102
{ACAD_REACTORS
330
3B
102
}
330
3B
100
AcDbXrecord
280
     1
270
     1
271
     1
  0
XRECORD
  5
41
102
{ACAD_REACTORS
330
3B
102
}
330
3B
100
AcDbXrecord
280
     1
270
     1
271
     1
  0
XRECORD
  5
F
102
{ACAD_REACTORS
330
E
102
}
330
E
100
AcDbXrecord
280
     1
270
     1
271
     1
  0
XRECORD
  5
10
102
{ACAD_REACTORS
330
E
102
}
330
E
100
AcDbXrecord
280
     1
270
     1
271
     1
  0
XRECORD
  5
11
102
{ACAD_REACTORS
330
E
102
}
330
E
100
AcDbXrecord
280
     1
270
     1
271
     1
  0
XRECORD
  5
12
102
{ACAD_REACTORS
330
E
102
}
330
E
100
AcDbXrecord
280
     1
270
     1
271
     1
  0
XRECORD
  5
13
102
{ACAD_REACTORS
330
E
102
}
330
E
100
AcDbXrecord
280
     1
270
     1
271
     1
  0
XRECORD
  5
14
102
{ACAD_REACTORS
330
E
102
}
330
E
100
AcDbXrecord
280
     1
270
     1
271
     1
  0
CELLSTYLEMAP
  5
2C7
102
{ACAD_REACTORS
330
53
102
}
330
53
100
AcDbCellStyleMap
 90
        3
300
CELLSTYLE
  1
TABLEFORMAT_BEGIN
 90
        5
170
     1
 91
        0
 92
    32768
 62
   257
 93
        1
300
CONTENTFORMAT
  1
CONTENTFORMAT_BEGIN
 90
        0
 91
        0
 92
      512
 93
        0
300

 40
0.0
140
1.0
 94
        5
 62
     0
340
23
144
6.0
309
CONTENTFORMAT_END
171
     1
301
MARGIN
  1
CELLMARGIN_BEGIN
 40
1.5
 40
1.5
 40
1.5
 40
1.5
 40
0.18
 40
0.18
309
CELLMARGIN_END
 94
        6
 95
        1
302
GRIDFORMAT
  1
GRIDFORMAT_BEGIN
 90
        0
 91
        1
 62
     0
 92
       -2
340
0
 93
        0
 40
1.125
309
GRIDFORMAT_END
 95
        2
302
GRIDFORMAT
  1
GRIDFORMAT_BEGIN
 90
        0
 91
        1
 62
     0
 92
       -2
340
0
 93
        0
 40
1.125
309
GRIDFORMAT_END
 95
        4
302
GRIDFORMAT
  1
GRIDFORMAT_BEGIN
 90
        0
 91
        1
 62
     0
 92
       -2
340
0
 93
        0
 40
1.125
309
GRIDFORMAT_END
 95
        8
302
GRIDFORMAT
  1
GRIDFORMAT_BEGIN
 90
        0
 91
        1
 62
     0
 92
       -2
340
0
 93
        0
 40
1.125
309
GRIDFORMAT_END
 95
       16
302
GRIDFORMAT
  1
GRIDFORMAT_BEGIN
 90
        0
 91
        1
 62
     0
 92
       -2
340
0
 93
        0
 40
1.125
309
GRIDFORMAT_END
 95
       32
302
GRIDFORMAT
  1
GRIDFORMAT_BEGIN
 90
        0
 91
        1
 62
     0
 92
       -2
340
0
 93
        0
 40
1.125
309
GRIDFORMAT_END
309
TABLEFORMAT_END
  1
CELLSTYLE_BEGIN
 90
        1
 91
        1
300
_TITLE
309
CELLSTYLE_END
300
CELLSTYLE
  1
TABLEFORMAT_BEGIN
 90
        5
170
     1
 91
        0
 92
        0
 62
   257
 93
        1
300
CONTENTFORMAT
  1
CONTENTFORMAT_BEGIN
 90
        0
 91
        0
 92
      512
 93
        0
300

 40
0.0
140
1.0
 94
        5
 62
     0
340
23
144
4.5
309
CONTENTFORMAT_END
171
     1
301
MARGIN
  1
CELLMARGIN_BEGIN
 40
1.5
 40
1.5
 40
1.5
 40
1.5
 40
0.18
 40
0.18
309
CELLMARGIN_END
 94
        6
 95
        1
302
GRIDFORMAT
  1
GRIDFORMAT_BEGIN
 90
        0
 91
        1
 62
     0
 92
       -2
340
0
 93
        0
 40
1.125
309
GRIDFORMAT_END
 95
        2
302
GRIDFORMAT
  1
GRIDFORMAT_BEGIN
 90
        0
 91
        1
 62
     0
 92
       -2
340
0
 93
        0
 40
1.125
309
GRIDFORMAT_END
 95
        4
302
GRIDFORMAT
  1
GRIDFORMAT_BEGIN
 90
        0
 91
        1
 62
     0
 92
       -2
340
0
 93
        0
 40
1.125
309
GRIDFORMAT_END
 95
        8
302
GRIDFORMAT
  1
GRIDFORMAT_BEGIN
 90
        0
 91
        1
 62
     0
 92
       -2
340
0
 93
        0
 40
1.125
309
GRIDFORMAT_END
 95
       16
302
GRIDFORMAT
  1
GRIDFORMAT_BEGIN
 90
        0
 91
        1
 62
     0
 92
       -2
340
0
 93
        0
 40
1.125
309
GRIDFORMAT_END
 95
       32
302
GRIDFORMAT
  1
GRIDFORMAT_BEGIN
 90
        0
 91
        1
 62
     0
 92
       -2
340
0
 93
        0
 40
1.125
309
GRIDFORMAT_END
309
TABLEFORMAT_END
  1
CELLSTYLE_BEGIN
 90
        2
 91
        1
300
_HEADER
309
CELLSTYLE_END
300
CELLSTYLE
  1
TABLEFORMAT_BEGIN
 90
        5
170
     1
 91
        0
 92
        0
 62
   257
 93
        1
300
CONTENTFORMAT
  1
CONTENTFORMAT_BEGIN
 90
        0
 91
        0
 92
      512
 93
        0
300

 40
0.0
140
1.0
 94
        2
 62
     0
340
23
144
4.5
309
CONTENTFORMAT_END
171
     1
301
MARGIN
  1
CELLMARGIN_BEGIN
 40
1.5
 40
1.5
 40
1.5
 40
1.5
 40
0.18
 40
0.18
309
CELLMARGIN_END
 94
        6
 95
        1
302
GRIDFORMAT
  1
GRIDFORMAT_BEGIN
 90
        0
 91
        1
 62
     0
 92
       -2
340
0
 93
        0
 40
1.125
309
GRIDFORMAT_END
 95
        2
302
GRIDFORMAT
  1
GRIDFORMAT_BEGIN
 90
        0
 91
        1
 62
     0
 92
       -2
340
0
 93
        0
 40
1.125
309
GRIDFORMAT_END
 95
        4
302
GRIDFORMAT
  1
GRIDFORMAT_BEGIN
 90
        0
 91
        1
 62
     0
 92
       -2
340
0
 93
        0
 40
1.125
309
GRIDFORMAT_END
 95
        8
302
GRIDFORMAT
  1
GRIDFORMAT_BEGIN
 90
        0
 91
        1
 62
     0
 92
       -2
340
0
 93
        0
 40
1.125
309
GRIDFORMAT_END
 95
       16
302
GRIDFORMAT
  1
GRIDFORMAT_BEGIN
 90
        0
 91
        1
 62
     0
 92
       -2
340
0
 93
        0
 40
1.125
309
GRIDFORMAT_END
 95
       32
302
GRIDFORMAT
  1
GRIDFORMAT_BEGIN
 90
        0
 91
        1
 62
     0
 92
       -2
340
0
 93
        0
 40
1.125
309
GRIDFORMAT_END
309
TABLEFORMAT_END
  1
CELLSTYLE_BEGIN
 90
        3
 91
        2
300
_DATA
309
CELLSTYLE_END
  0
ENDSEC
  0
EOF
