  0
SECTION
  2
HEADER
  9
$ACADVER
  1
AC1024
  9
$ACADMAINTVER
 70
     6
  9
$DWGCODEPAGE
  3
ANSI_1252
  9
$INSBASE
 10
0.0
 20
0.0
 30
0.0
  9
$EXTMIN
 10
-79.9314028259796
 20
-238.1667244015007
 30
-0.0000000349181948
  9
$EXTMAX
 10
970.2402578971451
 20
1247.716981453013
 30
0.0000000814935746
  9
$LIMMIN
 10
0.0
 20
0.0
  9
$LIMMAX
 10
420.0
 20
297.0
  9
$ORTHOMODE
 70
     1
  9
$REGENMODE
 70
     1
  9
$FILLMODE
 70
     1
  9
$QTEXTMODE
 70
     0
  9
$MIRRTEXT
 70
     0
  9
$LTSCALE
 40
1.0
  9
$ATTMODE
 70
     1
  9
$TEXTSIZE
 40
10.0
  9
$TRACEWID
 40
1.0
  9
$TEXTSTYLE
  7
Standard
  9
$CLAYER
  8
0
  9
$CELTYPE
  6
ByLayer
  9
$CECOLOR
 62
   256
  9
$CELTSCALE
 40
1.0
  9
$DISPSILH
 70
     0
  9
$DIMSCALE
 40
2.0
  9
$DIMASZ
 40
5.0
  9
$DIMEXO
 40
1.0
  9
$DIMDLI
 40
10.0
  9
$DIMRND
 40
0.0
  9
$DIMDLE
 40
0.0
  9
$DIMEXE
 40
1.0
  9
$DIMTP
 40
0.0
  9
$DIMTM
 40
0.0
  9
$DIMTXT
 40
5.0
  9
$DIMCEN
 40
0.0
  9
$DIMTSZ
 40
0.0
  9
$DIMTOL
 70
     0
  9
$DIMLIM
 70
     0
  9
$DIMTIH
 70
     0
  9
$DIMTOH
 70
     0
  9
$DIMSE1
 70
     0
  9
$DIMSE2
 70
     0
  9
$DIMTAD
 70
     1
  9
$DIMZIN
 70
     8
  9
$DIMBLK
  1

  9
$DIMASO
 70
     1
  9
$DIMSHO
 70
     1
  9
$DIMPOST
  1

  9
$DIMAPOST
  1

  9
$DIMALT
 70
     0
  9
$DIMALTD
 70
     3
  9
$DIMALTF
 40
0.03937007874016
  9
$DIMLFAC
 40
1.0
  9
$DIMTOFL
 70
     1
  9
$DIMTVP
 40
0.0
  9
$DIMTIX
 70
     0
  9
$DIMSOXD
 70
     0
  9
$DIMSAH
 70
     0
  9
$DIMBLK1
  1

  9
$DIMBLK2
  1

  9
$DIMSTYLE
  2
Wagner
  9
$DIMCLRD
 70
     4
  9
$DIMCLRE
 70
     4
  9
$DIMCLRT
 70
     1
  9
$DIMTFAC
 40
1.0
  9
$DIMGAP
 40
1.0
  9
$DIMJUST
 70
     0
  9
$DIMSD1
 70
     0
  9
$DIMSD2
 70
     0
  9
$DIMTOLJ
 70
     0
  9
$DIMTZIN
 70
     8
  9
$DIMALTZ
 70
     0
  9
$DIMALTTZ
 70
     0
  9
$DIMUPT
 70
     0
  9
$DIMDEC
 70
     2
  9
$DIMTDEC
 70
     2
  9
$DIMALTU
 70
     2
  9
$DIMALTTD
 70
     3
  9
$DIMTXSTY
  7
Standard
  9
$DIMAUNIT
 70
     0
  9
$DIMADEC
 70
     2
  9
$DIMALTRND
 40
0.0
  9
$DIMAZIN
 70
     2
  9
$DIMDSEP
 70
    46
  9
$DIMATFIT
 70
     3
  9
$DIMFRAC
 70
     0
  9
$DIMLDRBLK
  1

  9
$DIMLUNIT
 70
     2
  9
$DIMLWD
 70
    -2
  9
$DIMLWE
 70
    -2
  9
$DIMTMOVE
 70
     0
  9
$DIMFXL
 40
1.0
  9
$DIMFXLON
 70
     0
  9
$DIMJOGANG
 40
0.7853981633974483
  9
$DIMTFILL
 70
     0
  9
$DIMTFILLCLR
 70
     0
  9
$DIMARCSYM
 70
     0
  9
$DIMLTYPE
  6

  9
$DIMLTEX1
  6

  9
$DIMLTEX2
  6

  9
$DIMTXTDIRECTION
 70
     0
  9
$LUNITS
 70
     2
  9
$LUPREC
 70
     4
  9
$SKETCHINC
 40
1.0
  9
$FILLETRAD
 40
0.0
  9
$AUNITS
 70
     0
  9
$AUPREC
 70
     0
  9
$MENU
  1
.
  9
$ELEVATION
 40
0.0
  9
$PELEVATION
 40
0.0
  9
$THICKNESS
 40
0.0
  9
$LIMCHECK
 70
     0
  9
$CHAMFERA
 40
0.0
  9
$CHAMFERB
 40
0.0
  9
$CHAMFERC
 40
0.0
  9
$CHAMFERD
 40
0.0
  9
$SKPOLY
 70
     0
  9
$TDCREATE
 40
2456002.626331401
  9
$TDUCREATE
 40
2456002.542998067
  9
$TDUPDATE
 40
2456912.666628727
  9
$TDUUPDATE
 40
2456912.583295394
  9
$TDINDWG
 40
0.0625173148
  9
$TDUSRTIMER
 40
0.0625167708
  9
$USRTIMER
 70
     1
  9
$ANGBASE
 50
0.0
  9
$ANGDIR
 70
     0
  9
$PDMODE
 70
     0
  9
$PDSIZE
 40
0.0
  9
$PLINEWID
 40
0.0
  9
$SPLFRAME
 70
     0
  9
$SPLINETYPE
 70
     6
  9
$SPLINESEGS
 70
     8
  9
$HANDSEED
  5
2D5
  9
$SURFTAB1
 70
     6
  9
$SURFTAB2
 70
     6
  9
$SURFTYPE
 70
     6
  9
$SURFU
 70
     6
  9
$SURFV
 70
     6
  9
$UCSBASE
  2

  9
$UCSNAME
  2

  9
$UCSORG
 10
0.0
 20
0.0
 30
0.0
  9
$UCSXDIR
 10
1.0
 20
0.0
 30
0.0
  9
$UCSYDIR
 10
0.0
 20
1.0
 30
0.0
  9
$UCSORTHOREF
  2

  9
$UCSORTHOVIEW
 70
     0
  9
$UCSORGTOP
 10
0.0
 20
0.0
 30
0.0
  9
$UCSORGBOTTOM
 10
0.0
 20
0.0
 30
0.0
  9
$UCSORGLEFT
 10
0.0
 20
0.0
 30
0.0
  9
$UCSORGRIGHT
 10
0.0
 20
0.0
 30
0.0
  9
$UCSORGFRONT
 10
0.0
 20
0.0
 30
0.0
  9
$UCSORGBACK
 10
0.0
 20
0.0
 30
0.0
  9
$PUCSBASE
  2

  9
$PUCSNAME
  2

  9
$PUCSORG
 10
0.0
 20
0.0
 30
0.0
  9
$PUCSXDIR
 10
1.0
 20
0.0
 30
0.0
  9
$PUCSYDIR
 10
0.0
 20
1.0
 30
0.0
  9
$PUCSORTHOREF
  2

  9
$PUCSORTHOVIEW
 70
     0
  9
$PUCSORGTOP
 10
0.0
 20
0.0
 30
0.0
  9
$PUCSORGBOTTOM
 10
0.0
 20
0.0
 30
0.0
  9
$PUCSORGLEFT
 10
0.0
 20
0.0
 30
0.0
  9
$PUCSORGRIGHT
 10
0.0
 20
0.0
 30
0.0
  9
$PUCSORGFRONT
 10
0.0
 20
0.0
 30
0.0
  9
$PUCSORGBACK
 10
0.0
 20
0.0
 30
0.0
  9
$USERI1
 70
     0
  9
$USERI2
 70
     0
  9
$USERI3
 70
     0
  9
$USERI4
 70
     0
  9
$USERI5
 70
     0
  9
$USERR1
 40
0.0
  9
$USERR2
 40
0.0
  9
$USERR3
 40
0.0
  9
$USERR4
 40
0.0
  9
$USERR5
 40
0.0
  9
$WORLDVIEW
 70
     1
  9
$SHADEDGE
 70
     3
  9
$SHADEDIF
 70
    70
  9
$TILEMODE
 70
     1
  9
$MAXACTVP
 70
    64
  9
$PINSBASE
 10
0.0
 20
0.0
 30
0.0
  9
$PLIMCHECK
 70
     0
  9
$PEXTMIN
 10
0.0
 20
0.0
 30
0.0
  9
$PEXTMAX
 10
0.0
 20
0.0
 30
0.0
  9
$PLIMMIN
 10
0.0
 20
0.0
  9
$PLIMMAX
 10
12.0
 20
9.0
  9
$UNITMODE
 70
     0
  9
$VISRETAIN
 70
     1
  9
$PLINEGEN
 70
     0
  9
$PSLTSCALE
 70
     1
  9
$TREEDEPTH
 70
  3020
  9
$CMLSTYLE
  2
Standard
  9
$CMLJUST
 70
     0
  9
$CMLSCALE
 40
20.0
  9
$PROXYGRAPHICS
 70
     1
  9
$MEASUREMENT
 70
     1
  9
$CELWEIGHT
370
    -1
  9
$ENDCAPS
280
     0
  9
$JOINSTYLE
280
     0
  9
$LWDISPLAY
290
     0
  9
$INSUNITS
 70
     4
  9
$HYPERLINKBASE
  1

  9
$STYLESHEET
  1

  9
$XEDIT
290
     1
  9
$CEPSNTYPE
380
     0
  9
$PSTYLEMODE
290
     1
  9
$FINGERPRINTGUID
  2
{50A07F1A-B2A7-49D8-A114-775870EE313A}
  9
$VERSIONGUID
  2
{D49CD70F-E816-4912-8025-039196D0FC0B}
  9
$EXTNAMES
290
     1
  9
$PSVPSCALE
 40
0.0
  9
$OLESTARTUP
290
     0
  9
$SORTENTS
280
   127
  9
$INDEXCTL
280
     0
  9
$HIDETEXT
280
     1
  9
$XCLIPFRAME
280
     2
  9
$HALOGAP
280
     0
  9
$OBSCOLOR
 70
   257
  9
$OBSLTYPE
280
     0
  9
$INTERSECTIONDISPLAY
280
     0
  9
$INTERSECTIONCOLOR
 70
   257
  9
$DIMASSOC
280
     2
  9
$PROJECTNAME
  1

  9
$CAMERADISPLAY
290
     0
  9
$LENSLENGTH
 40
50.0
  9
$CAMERAHEIGHT
 40
0.0
  9
$STEPSPERSEC
 40
2.0
  9
$STEPSIZE
 40
6.0
  9
$3DDWFPREC
 40
2.0
  9
$PSOLWIDTH
 40
5.0
  9
$PSOLHEIGHT
 40
80.0
  9
$LOFTANG1
 40
1.570796326794896
  9
$LOFTANG2
 40
1.570796326794896
  9
$LOFTMAG1
 40
0.0
  9
$LOFTMAG2
 40
0.0
  9
$LOFTPARAM
 70
     7
  9
$LOFTNORMALS
280
     1
  9
$LATITUDE
 40
37.795
  9
$LONGITUDE
 40
-122.394
  9
$NORTHDIRECTION
 40
0.0
  9
$TIMEZONE
 70
 -8000
  9
$LIGHTGLYPHDISPLAY
280
     1
  9
$TILEMODELIGHTSYNCH
280
     1
  9
$CMATERIAL
347
37
  9
$SOLIDHIST
280
     1
  9
$SHOWHIST
280
     1
  9
$DWFFRAME
280
     2
  9
$DGNFRAME
280
     0
  9
$REALWORLDSCALE
290
     1
  9
$INTERFERECOLOR
 62
     1
  9
$INTERFEREOBJVS
345
40
  9
$INTERFEREVPVS
346
41
  9
$CSHADOW
280
     0
  9
$SHADOWPLANELOCATION
 40
0.0
  0
ENDSEC
  0
SECTION
  2
CLASSES
  0
CLASS
  1
ACDBDICTIONARYWDFLT
  2
AcDbDictionaryWithDefault
  3
ObjectDBX Classes
 90
        0
 91
        1
280
     0
281
     0
  0
CLASS
  1
DICTIONARYVAR
  2
AcDbDictionaryVar
  3
ObjectDBX Classes
 90
        0
 91
        3
280
     0
281
     0
  0
CLASS
  1
TABLESTYLE
  2
AcDbTableStyle
  3
ObjectDBX Classes
 90
     4095
 91
        1
280
     0
281
     0
  0
CLASS
  1
MATERIAL
  2
AcDbMaterial
  3
ObjectDBX Classes
 90
     1153
 91
        3
280
     0
281
     0
  0
CLASS
  1
VISUALSTYLE
  2
AcDbVisualStyle
  3
ObjectDBX Classes
 90
     4095
 91
        3
280
     0
281
     0
  0
CLASS
  1
SCALE
  2
AcDbScale
  3
ObjectDBX Classes
 90
     1153
 91
       17
280
     0
281
     0
  0
CLASS
  1
MLEADERSTYLE
  2
AcDbMLeaderStyle
  3
ACDB_MLEADERSTYLE_CLASS
 90
     4095
 91
        0
280
     0
281
     0
  0
CLASS
  1
CELLSTYLEMAP
  2
AcDbCellStyleMap
  3
ObjectDBX Classes
 90
     1152
 91
        1
280
     0
281
     0
  0
CLASS
  1
EXACXREFPANELOBJECT
  2
ExAcXREFPanelObject
  3
EXAC_ESW
 90
     1025
 91
        0
280
     1
281
     0
  0
CLASS
  1
NPOCOLLECTION
  2
AcDbImpNonPersistentObjectsCollection
  3
ObjectDBX Classes
 90
     1153
 91
        0
280
     0
281
     0
  0
CLASS
  1
LAYER_INDEX
  2
AcDbLayerIndex
  3
ObjectDBX Classes
 90
        0
 91
        0
280
     0
281
     0
  0
CLASS
  1
SPATIAL_INDEX
  2
AcDbSpatialIndex
  3
ObjectDBX Classes
 90
        0
 91
        0
280
     0
281
     0
  0
CLASS
  1
IDBUFFER
  2
AcDbIdBuffer
  3
ObjectDBX Classes
 90
        0
 91
        0
280
     0
281
     0
  0
CLASS
  1
SORTENTSTABLE
  2
AcDbSortentsTable
  3
ObjectDBX Classes
 90
        0
 91
        4
280
     0
281
     0
  0
CLASS
  1
AEC_REFEDIT_STATUS_TRACKER
  2
AecDbRefEditStatusTracker
  3
AecArchBase60|Product Desc: Autodesk Architectural Desktop 2007 |Company: Autodesk,Inc. |WEB Address: www.autodesk.com
 90
      129
 91
        0
280
     0
281
     0
  0
CLASS
  1
DIMASSOC
  2
AcDbDimAssoc
  3
"AcDbDimAssoc|Product Desc:     AcDim ARX App For Dimension|Company:          Autodesk, Inc.|WEB Address:      www.autodesk.com"
 90
        0
 91
        4
280
     0
281
     0
  0
ENDSEC
  0
SECTION
  2
TABLES
  0
TABLE
  2
VPORT
  5
29
330
0
100
AcDbSymbolTable
 70
     1
  0
VPORT
  5
2A
330
29
100
AcDbSymbolTableRecord
100
AcDbViewportTableRecord
  2
*Active
 70
     0
 10
0.0
 20
0.0
 11
1.0
 21
1.0
 12
824.2346136880552
 22
467.6339683972419
 13
0.0
 23
0.0
 14
10.0
 24
10.0
 15
10.0
 25
10.0
 16
0.0
 26
0.0
 36
1.0
 17
0.0
 27
0.0
 37
0.0
 40
2087.222323532748
 41
1.937738246505718
 42
50.0
 43
0.0
 44
0.0
 50
0.0
 51
0.0
 71
     0
 72
  1000
 73
     1
 74
     2
 75
     0
 76
     0
 77
     0
 78
     0
281
     0
 65
     1
110
0.0
120
0.0
130
0.0
111
1.0
121
0.0
131
0.0
112
0.0
122
1.0
132
0.0
 79
     0
146
0.0
348
2B
 60
     2
 61
     5
292
     1
282
     1
141
0.0
142
0.0
 63
   250
421
  3355443
  0
ENDTAB
  0
TABLE
  2
LTYPE
  5
24
330
0
100
AcDbSymbolTable
 70
     4
  0
LTYPE
  5
25
330
24
100
AcDbSymbolTableRecord
100
AcDbLinetypeTableRecord
  2
ByBlock
 70
     0
  3

 72
    65
 73
     0
 40
0.0
  0
LTYPE
  5
26
330
24
100
AcDbSymbolTableRecord
100
AcDbLinetypeTableRecord
  2
ByLayer
 70
     0
  3

 72
    65
 73
     0
 40
0.0
  0
LTYPE
  5
13
330
24
100
AcDbSymbolTableRecord
100
AcDbLinetypeTableRecord
  2
Continuous
 70
     0
  3
Solid line
 72
    65
 73
     0
 40
0.0
  0
LTYPE
  5
7D
330
24
100
AcDbSymbolTableRecord
100
AcDbLinetypeTableRecord
  2
AUSGEZOGEN
 70
     0
  3
Ausgezogene Linie
 72
    65
 73
     0
 40
0.0
  0
LTYPE
  5
1B2
330
24
100
AcDbSymbolTableRecord
100
AcDbLinetypeTableRecord
  2
VERDECKT
 70
     0
  3
Verdeckt __ __ __ __ __ __ __ __ __ __ __ __ __
 72
    65
 73
     2
 40
0.375
 49
0.25
 74
     0
 49
-0.125
 74
     0
  0
LTYPE
  5
F6
330
24
100
AcDbSymbolTableRecord
100
AcDbLinetypeTableRecord
  2
STRICHPUNKT
 70
     0
  3
Strichpunkt __ . __ . __ . __ . __ . __ . __ . 
 72
    65
 73
     4
 40
1.0
 49
0.5
 74
     0
 49
-0.25
 74
     0
 49
0.0
 74
     0
 49
-0.25
 74
     0
  0
ENDTAB
  0
TABLE
  2
LAYER
  5
1E
102
{ACAD_XDICTIONARY
360
1F
102
}
330
0
100
AcDbSymbolTable
 70
    10
  0
LAYER
  5
6
102
{ACAD_XDICTIONARY
360
7
102
}
330
1E
100
AcDbSymbolTableRecord
100
AcDbLayerTableRecord
  2
0
 70
     0
 62
     7
  6
Continuous
370
    -3
390
8
347
B
  0
LAYER
  5
76
102
{ACAD_XDICTIONARY
360
77
102
}
330
1E
100
AcDbSymbolTableRecord
100
AcDbLayerTableRecord
  2
01-99
 70
     0
 62
     2
  6
Continuous
370
    -3
390
8
347
B
  0
LAYER
  5
B1
102
{ACAD_XDICTIONARY
360
B2
102
}
330
1E
100
AcDbSymbolTableRecord
100
AcDbLayerTableRecord
  2
06-99
 70
     0
 62
     1
  6
AUSGEZOGEN
370
    -3
390
8
347
B
  0
LAYER
  5
9C
102
{ACAD_XDICTIONARY
360
9D
102
}
330
1E
100
AcDbSymbolTableRecord
100
AcDbLayerTableRecord
  2
08-99
 70
     0
 62
     7
  6
Continuous
370
    -3
390
8
347
B
  0
LAYER
  5
198
102
{ACAD_XDICTIONARY
360
199
102
}
330
1E
100
AcDbSymbolTableRecord
100
AcDbLayerTableRecord
  2
09-01
 70
     0
 62
     7
  6
Continuous
370
    -3
390
8
347
B
  0
LAYER
  5
65
330
1E
100
AcDbSymbolTableRecord
100
AcDbLayerTableRecord
  2
Defpoints
 70
     0
 62
     7
  6
Continuous
290
     0
370
    -3
390
8
347
B
  0
LAYER
  5
1A4
102
{ACAD_XDICTIONARY
360
1A5
102
}
330
1E
100
AcDbSymbolTableRecord
100
AcDbLayerTableRecord
  2
01-01
 70
     0
 62
     2
  6
Continuous
370
    -3
390
8
347
B
  0
LAYER
  5
1B1
330
1E
100
AcDbSymbolTableRecord
100
AcDbLayerTableRecord
  2
03-01
 70
     0
 62
     3
  6
VERDECKT
370
    -3
390
8
347
B
  0
LAYER
  5
F4
102
{ACAD_XDICTIONARY
360
F5
102
}
330
1E
100
AcDbSymbolTableRecord
100
AcDbLayerTableRecord
  2
05-01
 70
     0
 62
     1
  6
STRICHPUNKT
370
    -3
390
8
347
B
  0
LAYER
  5
7B
102
{ACAD_XDICTIONARY
360
7C
102
}
330
1E
100
AcDbSymbolTableRecord
100
AcDbLayerTableRecord
  2
02-99
 70
     0
 62
     1
  6
AUSGEZOGEN
370
    -3
390
8
347
B
  0
ENDTAB
  0
TABLE
  2
STYLE
  5
21
330
0
100
AcDbSymbolTable
 70
     3
  0
STYLE
  5
22
330
21
100
AcDbSymbolTableRecord
100
AcDbTextStyleTableRecord
  2
Standard
 70
     0
 40
0.0
 41
1.0
 50
0.0
 71
     0
 42
10.0
  3
arial.ttf
  4

1001
ACAD
1000
Arial
1071
       34
  0
STYLE
  5
9E
330
21
100
AcDbSymbolTableRecord
100
AcDbTextStyleTableRecord
  2
ROMANS8
 70
     0
 40
0.0
 41
1.0
 50
0.0
 71
     0
 42
2.5
  3
ROMANS8
  4

  0
STYLE
  5
C3
330
21
100
AcDbSymbolTableRecord
100
AcDbTextStyleTableRecord
  2
ROMAND8
 70
     0
 40
0.0
 41
1.0
 50
0.0
 71
     0
 42
3.5
  3
ROMAND8
  4

  0
ENDTAB
  0
TABLE
  2
VIEW
  5
27
330
0
100
AcDbSymbolTable
 70
     0
  0
ENDTAB
  0
TABLE
  2
UCS
  5
28
330
0
100
AcDbSymbolTable
 70
     0
  0
ENDTAB
  0
TABLE
  2
APPID
  5
2D
330
0
100
AcDbSymbolTable
 70
     6
  0
APPID
  5
12
330
2D
100
AcDbSymbolTableRecord
100
AcDbRegAppTableRecord
  2
ACAD
 70
     0
  0
APPID
  5
19
330
2D
100
AcDbSymbolTableRecord
100
AcDbRegAppTableRecord
  2
ACAD_PSEXT
 70
     0
  0
APPID
  5
31
330
2D
100
AcDbSymbolTableRecord
100
AcDbRegAppTableRecord
  2
ACAD_DSTYLE_DIMJAG
 70
     0
  0
APPID
  5
32
330
2D
100
AcDbSymbolTableRecord
100
AcDbRegAppTableRecord
  2
ACAD_DSTYLE_DIMTALN
 70
     0
  0
APPID
  5
30
330
2D
100
AcDbSymbolTableRecord
100
AcDbRegAppTableRecord
  2
ACAD_DSTYLE_DIMJOGGED_JOGANGLE_SYMBOL
 70
     0
  0
APPID
  5
117
330
2D
100
AcDbSymbolTableRecord
100
AcDbRegAppTableRecord
  2
AcDbBlockRepETag
 70
     0
  0
ENDTAB
  0
TABLE
  2
DIMSTYLE
  5
2E
330
0
100
AcDbSymbolTable
 70
     2
100
AcDbDimStyleTable
 71
     1
340
2F
  0
DIMSTYLE
105
2F
330
2E
100
AcDbSymbolTableRecord
100
AcDbDimStyleTableRecord
  2
Wagner
 70
     0
 41
2.5
 42
1.0
 43
10.0
 44
1.0
 73
     0
 74
     0
 77
     1
 78
     8
 79
     2
140
2.5
141
0.0
143
0.03937007874016
147
1.0
171
     3
172
     1
176
     4
177
     4
178
     1
179
     2
271
     2
272
     2
274
     3
283
     0
284
     8
340
22
1001
ACAD_DSTYLE_DIMJOGGED_JOGANGLE_SYMBOL
1070
   384
1040
0.7853981633974483
1001
ACAD_DSTYLE_DIMJAG
1070
   388
1040
1.5
1001
ACAD_DSTYLE_DIMTALN
1070
   392
1070
     0
  0
DIMSTYLE
105
69
102
{ACAD_REACTORS
330
255
330
160
330
16F
330
224
330
231
330
23E
330
188
330
1EC
330
1FB
330
208
330
215
330
274
330
281
330
57
102
}
330
2E
100
AcDbSymbolTableRecord
100
AcDbDimStyleTableRecord
  2
Wagner$0
 70
     0
 41
2.5
 42
1.0
 43
10.0
 44
1.0
 73
     0
 74
     0
 77
     1
 78
     8
 79
     2
140
2.5
141
0.0
143
0.03937007874016
147
1.0
171
     3
172
     1
174
     1
176
     4
177
     4
178
     1
179
     2
271
     2
272
     2
274
     3
279
     2
283
     0
284
     8
340
22
1001
ACAD_DSTYLE_DIMJOGGED_JOGANGLE_SYMBOL
1070
   384
1040
0.7853981633974483
1001
ACAD_DSTYLE_DIMJAG
1070
   388
1040
1.5
1001
ACAD_DSTYLE_DIMTALN
1070
   392
1070
     0
  0
ENDTAB
  0
TABLE
  2
BLOCK_RECORD
  5
1
330
0
100
AcDbSymbolTable
 70
    15
  0
BLOCK_RECORD
  5
2
102
{ACAD_XDICTIONARY
360
3
102
}
330
1
100
AcDbSymbolTableRecord
100
AcDbBlockTableRecord
  2
*Model_Space
340
15
 70
     0
280
     1
281
     0
  0
BLOCK_RECORD
  5
1A
330
1
100
AcDbSymbolTableRecord
100
AcDbBlockTableRecord
  2
*Paper_Space
340
1D
 70
     0
280
     1
281
     0
  0
BLOCK_RECORD
  5
256
330
1
100
AcDbSymbolTableRecord
100
AcDbBlockTableRecord
  2
*D0
340
0
 70
     0
280
     1
281
     0
  0
BLOCK_RECORD
  5
23F
330
1
100
AcDbSymbolTableRecord
100
AcDbBlockTableRecord
  2
*D1
340
0
 70
     0
280
     1
281
     0
  0
BLOCK_RECORD
  5
232
330
1
100
AcDbSymbolTableRecord
100
AcDbBlockTableRecord
  2
*D2
340
0
 70
     0
280
     1
281
     0
  0
BLOCK_RECORD
  5
225
330
1
100
AcDbSymbolTableRecord
100
AcDbBlockTableRecord
  2
*D3
340
0
 70
     0
280
     1
281
     0
  0
BLOCK_RECORD
  5
216
330
1
100
AcDbSymbolTableRecord
100
AcDbBlockTableRecord
  2
*D4
340
0
 70
     0
280
     1
281
     0
  0
BLOCK_RECORD
  5
209
330
1
100
AcDbSymbolTableRecord
100
AcDbBlockTableRecord
  2
*D5
340
0
 70
     0
280
     1
281
     0
  0
BLOCK_RECORD
  5
1FC
330
1
100
AcDbSymbolTableRecord
100
AcDbBlockTableRecord
  2
*D6
340
0
 70
     0
280
     1
281
     0
  0
BLOCK_RECORD
  5
1ED
330
1
100
AcDbSymbolTableRecord
100
AcDbBlockTableRecord
  2
*D7
340
0
 70
     0
280
     1
281
     0
  0
BLOCK_RECORD
  5
282
330
1
100
AcDbSymbolTableRecord
100
AcDbBlockTableRecord
  2
*D8
340
0
 70
     0
280
     1
281
     0
  0
BLOCK_RECORD
  5
275
330
1
100
AcDbSymbolTableRecord
100
AcDbBlockTableRecord
  2
*D9
340
0
 70
     0
280
     1
281
     0
  0
BLOCK_RECORD
  5
18B
330
1
100
AcDbSymbolTableRecord
100
AcDbBlockTableRecord
  2
*D10
340
0
 70
     0
280
     1
281
     0
  0
BLOCK_RECORD
  5
172
330
1
100
AcDbSymbolTableRecord
100
AcDbBlockTableRecord
  2
*D11
340
0
 70
     0
280
     1
281
     0
  0
BLOCK_RECORD
  5
163
330
1
100
AcDbSymbolTableRecord
100
AcDbBlockTableRecord
  2
*D12
340
0
 70
     0
280
     1
281
     0
  0
BLOCK_RECORD
  5
71
102
{ACAD_XDICTIONARY
360
72
102
}
330
1
100
AcDbSymbolTableRecord
100
AcDbBlockTableRecord
  2
DIN A4
340
0
102
{BLKREFS
331
70
102
}
 70
     4
280
     1
281
     0
  0
BLOCK_RECORD
  5
5A
330
1
100
AcDbSymbolTableRecord
100
AcDbBlockTableRecord
  2
*D14
340
0
 70
     0
280
     1
281
     0
  0
ENDTAB
  0
ENDSEC
  0
SECTION
  2
BLOCKS
  0
BLOCK
  5
5
330
2
100
AcDbEntity
  8
0
100
AcDbBlockBegin
  2
*Model_Space
 70
     0
 10
0.0
 20
0.0
 30
0.0
  3
*Model_Space
  1

  0
ENDBLK
  5
14
330
2
100
AcDbEntity
  8
0
100
AcDbBlockEnd
  0
BLOCK
  5
1B
330
1A
100
AcDbEntity
 67
     1
  8
0
100
AcDbBlockBegin
  2
*Paper_Space
 70
     0
 10
0.0
 20
0.0
 30
0.0
  3
*Paper_Space
  1

  0
ENDBLK
  5
1C
330
1A
100
AcDbEntity
 67
     1
  8
0
100
AcDbBlockEnd
  0
BLOCK
  5
257
330
256
100
AcDbEntity
  8
0
100
AcDbBlockBegin
  2
*D0
 70
     1
 10
0.0
 20
0.0
 30
0.0
  3
*D0
  1

  0
LINE
  5
258
330
256
100
AcDbEntity
  8
0
 62
     4
370
    -2
100
AcDbLine
 10
126.5135118067256
 20
892.9554018665342
 30
0.0
 11
105.8044819223073
 21
892.9554018665342
 31
0.0
  0
LINE
  5
259
330
256
100
AcDbEntity
  8
0
 62
     4
370
    -2
100
AcDbLine
 10
126.5135118067256
 20
886.955401866534
 30
0.0
 11
105.8044819223073
 21
886.955401866534
 31
0.0
  0
LINE
  5
25A
330
256
100
AcDbEntity
  8
0
 62
     4
370
    -2
100
AcDbLine
 10
107.8044819223073
 20
902.9554018665342
 30
0.0
 11
107.8044819223073
 21
912.9554018665341
 31
0.0
  0
LINE
  5
25B
330
256
100
AcDbEntity
  8
0
 62
     4
370
    -2
100
AcDbLine
 10
107.8044819223073
 20
876.955401866534
 30
0.0
 11
107.8044819223073
 21
866.9554018665339
 31
0.0
  0
LINE
  5
25C
330
256
100
AcDbEntity
  8
0
 62
     4
370
    -2
100
AcDbLine
 10
107.8044819223073
 20
892.9554018665342
 30
0.0
 11
107.8044819223073
 21
886.955401866534
 31
0.0
  0
SOLID
  5
25D
330
256
100
AcDbEntity
  8
0
 62
     4
100
AcDbTrace
 10
106.1378152556407
 20
902.9554018665342
 30
0.0
 11
109.471148588974
 21
902.9554018665342
 31
0.0
 12
107.8044819223073
 22
892.9554018665342
 32
0.0
 13
107.8044819223073
 23
892.9554018665342
 33
0.0
  0
SOLID
  5
25E
330
256
100
AcDbEntity
  8
0
 62
     4
100
AcDbTrace
 10
106.1378152556407
 20
876.955401866534
 30
0.0
 11
109.471148588974
 21
876.955401866534
 31
0.0
 12
107.8044819223073
 22
886.955401866534
 32
0.0
 13
107.8044819223073
 23
886.955401866534
 33
0.0
  0
MTEXT
  5
25F
330
256
100
AcDbEntity
  8
0
 62
     1
100
AcDbMText
 10
100.6987520450903
 20
889.9554018665341
 30
0.0
 40
10.0
 41
0.0
 46
0.0
 71
     5
 72
     1
  1
6
 11
0.0000000000000001
 21
1.0
 31
0.0
 73
     1
 44
1.0
  0
POINT
  5
260
330
256
100
AcDbEntity
  8
Defpoints
 62
     0
100
AcDbPoint
 10
128.5135118067255
 20
892.9554018665342
 30
0.0
  0
POINT
  5
261
330
256
100
AcDbEntity
  8
Defpoints
 62
     0
100
AcDbPoint
 10
128.5135118067255
 20
886.955401866534
 30
0.0
  0
POINT
  5
262
330
256
100
AcDbEntity
  8
Defpoints
 62
     0
100
AcDbPoint
 10
107.8044819223073
 20
886.955401866534
 30
0.0
  0
ENDBLK
  5
263
330
256
100
AcDbEntity
  8
0
100
AcDbBlockEnd
  0
BLOCK
  5
240
330
23F
100
AcDbEntity
  8
0
100
AcDbBlockBegin
  2
*D1
 70
     1
 10
0.0
 20
0.0
 30
0.0
  3
*D1
  1

  0
LINE
  5
241
330
23F
100
AcDbEntity
  8
0
 62
     4
370
    -2
100
AcDbLine
 10
208.1135118067255
 20
769.2830035957909
 30
0.0
 11
208.1135118067255
 21
798.6146184663996
 31
0.0
  0
LINE
  5
242
330
23F
100
AcDbEntity
  8
0
 62
     4
370
    -2
100
AcDbLine
 10
181.5135118067254
 20
768.7530035957911
 30
0.0
 11
181.5135118067254
 21
798.6146184663996
 31
0.0
  0
LINE
  5
243
330
23F
100
AcDbEntity
  8
0
 62
     4
370
    -2
100
AcDbLine
 10
198.1135118067255
 20
796.6146184663996
 30
0.0
 11
191.5135118067254
 21
796.6146184663996
 31
0.0
  0
MTEXT
  5
244
330
23F
100
AcDbEntity
  8
0
 62
     1
100
AcDbMText
 10
209.1708844588356
 20
803.7203483436165
 30
0.0
 40
10.0
 41
0.0
 46
0.0
 71
     5
 72
     1
  1
26.6
 73
     1
 44
1.0
  0
SOLID
  5
245
330
23F
100
AcDbEntity
  8
0
 62
     4
100
AcDbTrace
 10
198.1135118067255
 20
798.2812851330662
 30
0.0
 11
198.1135118067255
 21
794.947951799733
 31
0.0
 12
208.1135118067255
 22
796.6146184663996
 32
0.0
 13
208.1135118067255
 23
796.6146184663996
 33
0.0
  0
SOLID
  5
246
330
23F
100
AcDbEntity
  8
0
 62
     4
100
AcDbTrace
 10
191.5135118067254
 20
798.2812851330662
 30
0.0
 11
191.5135118067254
 21
794.947951799733
 31
0.0
 12
181.5135118067254
 22
796.6146184663996
 32
0.0
 13
181.5135118067254
 23
796.6146184663996
 33
0.0
  0
POINT
  5
247
330
23F
100
AcDbEntity
  8
Defpoints
 62
     0
100
AcDbPoint
 10
208.1135118067255
 20
767.2830035957908
 30
0.0
  0
POINT
  5
248
330
23F
100
AcDbEntity
  8
Defpoints
 62
     0
100
AcDbPoint
 10
181.5135118067254
 20
766.7530035957911
 30
0.0
  0
POINT
  5
249
330
23F
100
AcDbEntity
  8
Defpoints
 62
     0
100
AcDbPoint
 10
181.5135118067254
 20
796.6146184663996
 30
0.0
  0
ENDBLK
  5
24A
330
23F
100
AcDbEntity
  8
0
100
AcDbBlockEnd
  0
BLOCK
  5
233
330
232
100
AcDbEntity
  8
0
100
AcDbBlockBegin
  2
*D2
 70
     1
 10
0.0
 20
0.0
 30
0.0
  3
*D2
  1

  0
LINE
  5
234
330
232
100
AcDbEntity
  8
0
 62
     4
370
    -2
100
AcDbLine
 10
181.5135118067254
 20
768.7530035957911
 30
0.0
 11
181.5135118067254
 21
798.6146184663996
 31
0.0
  0
LINE
  5
235
330
232
100
AcDbEntity
  8
0
 62
     4
370
    -2
100
AcDbLine
 10
153.5135118067254
 20
770.7530035957911
 30
0.0
 11
153.5135118067254
 21
798.6146184663996
 31
0.0
  0
LINE
  5
236
330
232
100
AcDbEntity
  8
0
 62
     4
370
    -2
100
AcDbLine
 10
171.5135118067254
 20
796.6146184663996
 30
0.0
 11
163.5135118067254
 21
796.6146184663996
 31
0.0
  0
MTEXT
  5
237
330
232
100
AcDbEntity
  8
0
 62
     1
100
AcDbMText
 10
167.5135118067254
 20
805.496232208101
 30
0.0
 40
10.0
 41
0.0
 46
0.0
 71
     5
 72
     1
  1
28
 73
     1
 44
1.0
  0
SOLID
  5
238
330
232
100
AcDbEntity
  8
0
 62
     4
100
AcDbTrace
 10
171.5135118067254
 20
798.2812851330662
 30
0.0
 11
171.5135118067254
 21
794.947951799733
 31
0.0
 12
181.5135118067254
 22
796.6146184663996
 32
0.0
 13
181.5135118067254
 23
796.6146184663996
 33
0.0
  0
SOLID
  5
239
330
232
100
AcDbEntity
  8
0
 62
     4
100
AcDbTrace
 10
163.5135118067254
 20
798.2812851330662
 30
0.0
 11
163.5135118067254
 21
794.947951799733
 31
0.0
 12
153.5135118067254
 22
796.6146184663996
 32
0.0
 13
153.5135118067254
 23
796.6146184663996
 33
0.0
  0
POINT
  5
23A
330
232
100
AcDbEntity
  8
Defpoints
 62
     0
100
AcDbPoint
 10
181.5135118067254
 20
766.7530035957911
 30
0.0
  0
POINT
  5
23B
330
232
100
AcDbEntity
  8
Defpoints
 62
     0
100
AcDbPoint
 10
153.5135118067254
 20
768.7530035957911
 30
0.0
  0
POINT
  5
23C
330
232
100
AcDbEntity
  8
Defpoints
 62
     0
100
AcDbPoint
 10
153.5135118067254
 20
796.6146184663996
 30
0.0
  0
ENDBLK
  5
23D
330
232
100
AcDbEntity
  8
0
100
AcDbBlockEnd
  0
BLOCK
  5
226
330
225
100
AcDbEntity
  8
0
100
AcDbBlockBegin
  2
*D3
 70
     1
 10
0.0
 20
0.0
 30
0.0
  3
*D3
  1

  0
LINE
  5
227
330
225
100
AcDbEntity
  8
0
 62
     4
370
    -2
100
AcDbLine
 10
153.5135118067254
 20
768.7530035957911
 30
0.0
 11
153.5135118067254
 21
798.6146184663996
 31
0.0
  0
LINE
  5
228
330
225
100
AcDbEntity
  8
0
 62
     4
370
    -2
100
AcDbLine
 10
126.9135118067254
 20
769.2830035957909
 30
0.0
 11
126.9135118067254
 21
798.6146184663996
 31
0.0
  0
LINE
  5
229
330
225
100
AcDbEntity
  8
0
 62
     4
370
    -2
100
AcDbLine
 10
143.5135118067254
 20
796.6146184663996
 30
0.0
 11
136.9135118067254
 21
796.6146184663996
 31
0.0
  0
MTEXT
  5
22A
330
225
100
AcDbEntity
  8
0
 62
     1
100
AcDbMText
 10
124.7873594403027
 20
803.7203483436165
 30
0.0
 40
10.0
 41
0.0
 46
0.0
 71
     5
 72
     1
  1
26.6
 73
     1
 44
1.0
  0
SOLID
  5
22B
330
225
100
AcDbEntity
  8
0
 62
     4
100
AcDbTrace
 10
143.5135118067254
 20
798.2812851330662
 30
0.0
 11
143.5135118067254
 21
794.947951799733
 31
0.0
 12
153.5135118067254
 22
796.6146184663996
 32
0.0
 13
153.5135118067254
 23
796.6146184663996
 33
0.0
  0
SOLID
  5
22C
330
225
100
AcDbEntity
  8
0
 62
     4
100
AcDbTrace
 10
136.9135118067254
 20
798.2812851330662
 30
0.0
 11
136.9135118067254
 21
794.947951799733
 31
0.0
 12
126.9135118067254
 22
796.6146184663996
 32
0.0
 13
126.9135118067254
 23
796.6146184663996
 33
0.0
  0
POINT
  5
22D
330
225
100
AcDbEntity
  8
Defpoints
 62
     0
100
AcDbPoint
 10
153.5135118067254
 20
766.7530035957911
 30
0.0
  0
POINT
  5
22E
330
225
100
AcDbEntity
  8
Defpoints
 62
     0
100
AcDbPoint
 10
126.9135118067254
 20
767.2830035957908
 30
0.0
  0
POINT
  5
22F
330
225
100
AcDbEntity
  8
Defpoints
 62
     0
100
AcDbPoint
 10
126.9135118067254
 20
796.6146184663996
 30
0.0
  0
ENDBLK
  5
230
330
225
100
AcDbEntity
  8
0
100
AcDbBlockEnd
  0
BLOCK
  5
217
330
216
100
AcDbEntity
  8
0
100
AcDbBlockBegin
  2
*D4
 70
     1
 10
0.0
 20
0.0
 30
0.0
  3
*D4
  1

  0
LINE
  5
218
330
216
100
AcDbEntity
  8
0
 62
     4
370
    -2
100
AcDbLine
 10
208.5135118067255
 20
768.2830035957908
 30
0.0
 11
246.7199352970318
 21
768.2830035957908
 31
0.0
  0
LINE
  5
219
330
216
100
AcDbEntity
  8
0
 62
     4
370
    -2
100
AcDbLine
 10
198.5135118067255
 20
756.7530035957909
 30
0.0
 11
246.7199352970318
 21
756.7530035957909
 31
0.0
  0
LINE
  5
21A
330
216
100
AcDbEntity
  8
0
 62
     4
370
    -2
100
AcDbLine
 10
244.7199352970318
 20
778.2830035957909
 30
0.0
 11
244.7199352970318
 21
788.2830035957908
 31
0.0
  0
LINE
  5
21B
330
216
100
AcDbEntity
  8
0
 62
     4
370
    -2
100
AcDbLine
 10
244.7199352970318
 20
746.7530035957909
 30
0.0
 11
244.7199352970318
 21
736.7530035957909
 31
0.0
  0
MTEXT
  5
21C
330
216
100
AcDbEntity
  8
0
 62
     1
100
AcDbMText
 10
237.6142054198147
 20
784.5727002143339
 30
0.0
 40
10.0
 41
0.0
 46
0.0
 71
     5
 72
     1
  1
11.5
 11
0.0000000000000001
 21
1.0
 31
0.0
 73
     1
 44
1.0
  0
LINE
  5
21D
330
216
100
AcDbEntity
  8
0
 62
     4
370
    -2
100
AcDbLine
 10
244.7199352970318
 20
768.2830035957908
 30
0.0
 11
244.7199352970318
 21
756.7530035957909
 31
0.0
  0
SOLID
  5
21E
330
216
100
AcDbEntity
  8
0
 62
     4
100
AcDbTrace
 10
243.0532686303651
 20
778.2830035957909
 30
0.0
 11
246.3866019636984
 21
778.2830035957909
 31
0.0
 12
244.7199352970318
 22
768.2830035957908
 32
0.0
 13
244.7199352970318
 23
768.2830035957908
 33
0.0
  0
SOLID
  5
21F
330
216
100
AcDbEntity
  8
0
 62
     4
100
AcDbTrace
 10
243.0532686303651
 20
746.7530035957909
 30
0.0
 11
246.3866019636984
 21
746.7530035957909
 31
0.0
 12
244.7199352970318
 22
756.7530035957909
 32
0.0
 13
244.7199352970318
 23
756.7530035957909
 33
0.0
  0
POINT
  5
220
330
216
100
AcDbEntity
  8
Defpoints
 62
     0
100
AcDbPoint
 10
206.5135118067255
 20
768.2830035957908
 30
0.0
  0
POINT
  5
221
330
216
100
AcDbEntity
  8
Defpoints
 62
     0
100
AcDbPoint
 10
196.5135118067254
 20
756.7530035957909
 30
0.0
  0
POINT
  5
222
330
216
100
AcDbEntity
  8
Defpoints
 62
     0
100
AcDbPoint
 10
244.7199352970318
 20
756.7530035957909
 30
0.0
  0
ENDBLK
  5
223
330
216
100
AcDbEntity
  8
0
100
AcDbBlockEnd
  0
BLOCK
  5
20A
330
209
100
AcDbEntity
  8
0
100
AcDbBlockBegin
  2
*D5
 70
     1
 10
0.0
 20
0.0
 30
0.0
  3
*D5
  1

  0
LINE
  5
20B
330
209
100
AcDbEntity
  8
0
 62
     4
370
    -2
100
AcDbLine
 10
202.9135118067254
 20
756.7530035957909
 30
0.0
 11
246.7199352970317
 21
756.7530035957909
 31
0.0
  0
LINE
  5
20C
330
209
100
AcDbEntity
  8
0
 62
     4
370
    -2
100
AcDbLine
 10
202.9135118067254
 20
647.0030035957909
 30
0.0
 11
246.7199352970317
 21
647.0030035957909
 31
0.0
  0
LINE
  5
20D
330
209
100
AcDbEntity
  8
0
 62
     4
370
    -2
100
AcDbLine
 10
244.7199352970317
 20
746.7530035957909
 30
0.0
 11
244.7199352970317
 21
657.0030035957909
 31
0.0
  0
SOLID
  5
20E
330
209
100
AcDbEntity
  8
0
 62
     4
100
AcDbTrace
 10
243.0532686303651
 20
746.7530035957909
 30
0.0
 11
246.3866019636984
 21
746.7530035957909
 31
0.0
 12
244.7199352970317
 22
756.7530035957909
 32
0.0
 13
244.7199352970317
 23
756.7530035957909
 33
0.0
  0
SOLID
  5
20F
330
209
100
AcDbEntity
  8
0
 62
     4
100
AcDbTrace
 10
243.053268630365
 20
657.0030035957909
 30
0.0
 11
246.3866019636983
 21
657.0030035957909
 31
0.0
 12
244.7199352970317
 22
647.0030035957909
 32
0.0
 13
244.7199352970317
 23
647.0030035957909
 33
0.0
  0
MTEXT
  5
210
330
209
100
AcDbEntity
  8
0
 62
     1
100
AcDbMText
 10
237.6142054198147
 20
701.8780035957909
 30
0.0
 40
10.0
 41
0.0
 46
0.0
 71
     5
 72
     1
  1
109.75
 11
0.0000000000000001
 21
1.0
 31
0.0
 73
     1
 44
1.0
  0
POINT
  5
211
330
209
100
AcDbEntity
  8
Defpoints
 62
     0
100
AcDbPoint
 10
200.9135118067254
 20
756.7530035957909
 30
0.0
  0
POINT
  5
212
330
209
100
AcDbEntity
  8
Defpoints
 62
     0
100
AcDbPoint
 10
200.9135118067254
 20
647.0030035957909
 30
0.0
  0
POINT
  5
213
330
209
100
AcDbEntity
  8
Defpoints
 62
     0
100
AcDbPoint
 10
244.7199352970317
 20
647.0030035957909
 30
0.0
  0
ENDBLK
  5
214
330
209
100
AcDbEntity
  8
0
100
AcDbBlockEnd
  0
BLOCK
  5
1FD
330
1FC
100
AcDbEntity
  8
0
100
AcDbBlockBegin
  2
*D6
 70
     1
 10
0.0
 20
0.0
 30
0.0
  3
*D6
  1

  0
LINE
  5
1FE
330
1FC
100
AcDbEntity
  8
0
 62
     4
370
    -2
100
AcDbLine
 10
202.9135118067254
 20
647.0030035957909
 30
0.0
 11
246.7199352970317
 21
647.0030035957909
 31
0.0
  0
LINE
  5
1FF
330
1FC
100
AcDbEntity
  8
0
 62
     4
370
    -2
100
AcDbLine
 10
202.9135118067254
 20
537.2530035957908
 30
0.0
 11
246.7199352970317
 21
537.2530035957908
 31
0.0
  0
LINE
  5
200
330
1FC
100
AcDbEntity
  8
0
 62
     4
370
    -2
100
AcDbLine
 10
244.7199352970317
 20
637.0030035957909
 30
0.0
 11
244.7199352970317
 21
547.2530035957909
 31
0.0
  0
SOLID
  5
201
330
1FC
100
AcDbEntity
  8
0
 62
     4
100
AcDbTrace
 10
243.0532686303651
 20
637.0030035957909
 30
0.0
 11
246.3866019636984
 21
637.0030035957909
 31
0.0
 12
244.7199352970317
 22
647.0030035957909
 32
0.0
 13
244.7199352970317
 23
647.0030035957909
 33
0.0
  0
SOLID
  5
202
330
1FC
100
AcDbEntity
  8
0
 62
     4
100
AcDbTrace
 10
243.053268630365
 20
547.2530035957909
 30
0.0
 11
246.3866019636983
 21
547.2530035957909
 31
0.0
 12
244.7199352970317
 22
537.2530035957908
 32
0.0
 13
244.7199352970317
 23
537.2530035957908
 33
0.0
  0
MTEXT
  5
203
330
1FC
100
AcDbEntity
  8
0
 62
     1
100
AcDbMText
 10
237.6142054198147
 20
592.1280035957908
 30
0.0
 40
10.0
 41
0.0
 46
0.0
 71
     5
 72
     1
  1
109.75
 11
0.0000000000000001
 21
1.0
 31
0.0
 73
     1
 44
1.0
  0
POINT
  5
204
330
1FC
100
AcDbEntity
  8
Defpoints
 62
     0
100
AcDbPoint
 10
200.9135118067254
 20
647.0030035957909
 30
0.0
  0
POINT
  5
205
330
1FC
100
AcDbEntity
  8
Defpoints
 62
     0
100
AcDbPoint
 10
200.9135118067254
 20
537.2530035957908
 30
0.0
  0
POINT
  5
206
330
1FC
100
AcDbEntity
  8
Defpoints
 62
     0
100
AcDbPoint
 10
244.7199352970317
 20
537.2530035957908
 30
0.0
  0
ENDBLK
  5
207
330
1FC
100
AcDbEntity
  8
0
100
AcDbBlockEnd
  0
BLOCK
  5
1EE
330
1ED
100
AcDbEntity
  8
0
100
AcDbBlockBegin
  2
*D7
 70
     1
 10
0.0
 20
0.0
 30
0.0
  3
*D7
  1

  0
LINE
  5
1EF
330
1ED
100
AcDbEntity
  8
0
 62
     4
370
    -2
100
AcDbLine
 10
202.9135118067254
 20
537.2530035957908
 30
0.0
 11
246.7199352970317
 21
537.2530035957908
 31
0.0
  0
LINE
  5
1F0
330
1ED
100
AcDbEntity
  8
0
 62
     4
370
    -2
100
AcDbLine
 10
208.5135118067254
 20
525.7230035957909
 30
0.0
 11
246.7199352970317
 21
525.7230035957909
 31
0.0
  0
LINE
  5
1F1
330
1ED
100
AcDbEntity
  8
0
 62
     4
370
    -2
100
AcDbLine
 10
244.7199352970317
 20
547.2530035957909
 30
0.0
 11
244.7199352970317
 21
557.2530035957909
 31
0.0
  0
LINE
  5
1F2
330
1ED
100
AcDbEntity
  8
0
 62
     4
370
    -2
100
AcDbLine
 10
244.7199352970317
 20
515.7230035957909
 30
0.0
 11
244.7199352970317
 21
505.7230035957909
 31
0.0
  0
MTEXT
  5
1F3
330
1ED
100
AcDbEntity
  8
0
 62
     1
100
AcDbMText
 10
237.6142054198147
 20
507.942463353158
 30
0.0
 40
10.0
 41
0.0
 46
0.0
 71
     5
 72
     1
  1
11.5
 11
0.0000000000000001
 21
1.0
 31
0.0
 73
     1
 44
1.0
  0
LINE
  5
1F4
330
1ED
100
AcDbEntity
  8
0
 62
     4
370
    -2
100
AcDbLine
 10
244.7199352970317
 20
537.2530035957908
 30
0.0
 11
244.7199352970317
 21
525.7230035957909
 31
0.0
  0
SOLID
  5
1F5
330
1ED
100
AcDbEntity
  8
0
 62
     4
100
AcDbTrace
 10
243.053268630365
 20
547.2530035957909
 30
0.0
 11
246.3866019636983
 21
547.2530035957909
 31
0.0
 12
244.7199352970317
 22
537.2530035957908
 32
0.0
 13
244.7199352970317
 23
537.2530035957908
 33
0.0
  0
SOLID
  5
1F6
330
1ED
100
AcDbEntity
  8
0
 62
     4
100
AcDbTrace
 10
243.053268630365
 20
515.7230035957909
 30
0.0
 11
246.3866019636983
 21
515.7230035957909
 31
0.0
 12
244.7199352970317
 22
525.7230035957909
 32
0.0
 13
244.7199352970317
 23
525.7230035957909
 33
0.0
  0
POINT
  5
1F7
330
1ED
100
AcDbEntity
  8
Defpoints
 62
     0
100
AcDbPoint
 10
200.9135118067254
 20
537.2530035957908
 30
0.0
  0
POINT
  5
1F8
330
1ED
100
AcDbEntity
  8
Defpoints
 62
     0
100
AcDbPoint
 10
206.5135118067254
 20
525.7230035957909
 30
0.0
  0
POINT
  5
1F9
330
1ED
100
AcDbEntity
  8
Defpoints
 62
     0
100
AcDbPoint
 10
244.7199352970317
 20
525.7230035957909
 30
0.0
  0
ENDBLK
  5
1FA
330
1ED
100
AcDbEntity
  8
0
100
AcDbBlockEnd
  0
BLOCK
  5
283
330
282
100
AcDbEntity
  8
0
100
AcDbBlockBegin
  2
*D8
 70
     1
 10
0.0
 20
0.0
 30
0.0
  3
*D8
  1

  0
LINE
  5
284
330
282
100
AcDbEntity
  8
0
 62
     4
370
    -2
100
AcDbLine
 10
208.1135118067254
 20
524.7230035957909
 30
0.0
 11
208.1135118067254
 21
486.6489990515526
 31
0.0
  0
LINE
  5
285
330
282
100
AcDbEntity
  8
0
 62
     4
370
    -2
100
AcDbLine
 10
126.9135118067254
 20
524.7230035957909
 30
0.0
 11
126.9135118067254
 21
486.6489990515526
 31
0.0
  0
LINE
  5
286
330
282
100
AcDbEntity
  8
0
 62
     4
370
    -2
100
AcDbLine
 10
198.1135118067254
 20
488.6489990515526
 30
0.0
 11
136.9135118067254
 21
488.6489990515526
 31
0.0
  0
SOLID
  5
287
330
282
100
AcDbEntity
  8
0
 62
     4
100
AcDbTrace
 10
198.1135118067254
 20
490.3156657182193
 30
0.0
 11
198.1135118067254
 21
486.9823323848859
 31
0.0
 12
208.1135118067254
 22
488.6489990515526
 32
0.0
 13
208.1135118067254
 23
488.6489990515526
 33
0.0
  0
SOLID
  5
288
330
282
100
AcDbEntity
  8
0
 62
     4
100
AcDbTrace
 10
136.9135118067254
 20
490.3156657182193
 30
0.0
 11
136.9135118067254
 21
486.9823323848859
 31
0.0
 12
126.9135118067254
 22
488.6489990515526
 32
0.0
 13
126.9135118067254
 23
488.6489990515526
 33
0.0
  0
MTEXT
  5
289
330
282
100
AcDbEntity
  8
0
 62
     1
100
AcDbMText
 10
167.5135118067254
 20
495.7547289287695
 30
0.0
 40
10.0
 41
0.0
 46
0.0
 71
     5
 72
     1
  1
81.2
 73
     1
 44
1.0
  0
POINT
  5
28A
330
282
100
AcDbEntity
  8
Defpoints
 62
     0
100
AcDbPoint
 10
208.1135118067254
 20
526.7230035957909
 30
0.0
  0
POINT
  5
28B
330
282
100
AcDbEntity
  8
Defpoints
 62
     0
100
AcDbPoint
 10
126.9135118067254
 20
526.7230035957909
 30
0.0
  0
POINT
  5
28C
330
282
100
AcDbEntity
  8
Defpoints
 62
     0
100
AcDbPoint
 10
126.9135118067254
 20
488.6489990515526
 30
0.0
  0
ENDBLK
  5
28D
330
282
100
AcDbEntity
  8
0
100
AcDbBlockEnd
  0
BLOCK
  5
276
330
275
100
AcDbEntity
  8
0
100
AcDbBlockBegin
  2
*D9
 70
     1
 10
0.0
 20
0.0
 30
0.0
  3
*D9
  1

  0
LINE
  5
277
330
275
100
AcDbEntity
  8
0
 62
     4
370
    -2
100
AcDbLine
 10
125.9135118067254
 20
525.7230035957909
 30
0.0
 11
85.16001724188001
 21
525.7230035957909
 31
0.0
  0
LINE
  5
278
330
275
100
AcDbEntity
  8
0
 62
     4
370
    -2
100
AcDbLine
 10
126.5135118067254
 20
768.2830035957908
 30
0.0
 11
85.16001724188006
 21
768.2830035957908
 31
0.0
  0
LINE
  5
279
330
275
100
AcDbEntity
  8
0
 62
     4
370
    -2
100
AcDbLine
 10
87.16001724188002
 20
535.7230035957909
 30
0.0
 11
87.16001724188007
 21
758.2830035957909
 31
0.0
  0
SOLID
  5
27A
330
275
100
AcDbEntity
  8
0
 62
     4
100
AcDbTrace
 10
85.49335057521334
 20
535.7230035957909
 30
0.0
 11
88.82668390854668
 21
535.7230035957909
 31
0.0
 12
87.16001724188002
 22
525.7230035957909
 32
0.0
 13
87.16001724188002
 23
525.7230035957909
 33
0.0
  0
SOLID
  5
27B
330
275
100
AcDbEntity
  8
0
 62
     4
100
AcDbTrace
 10
85.49335057521339
 20
758.2830035957909
 30
0.0
 11
88.82668390854673
 21
758.2830035957909
 31
0.0
 12
87.16001724188007
 22
768.2830035957908
 32
0.0
 13
87.16001724188007
 23
768.2830035957908
 33
0.0
  0
MTEXT
  5
27C
330
275
100
AcDbEntity
  8
0
 62
     1
100
AcDbMText
 10
80.05428736466303
 20
647.0030035957909
 30
0.0
 40
10.0
 41
0.0
 46
0.0
 71
     5
 72
     1
  1
242.6
 11
0.0000000000000001
 21
1.0
 31
0.0
 73
     1
 44
1.0
  0
POINT
  5
27D
330
275
100
AcDbEntity
  8
Defpoints
 62
     0
100
AcDbPoint
 10
127.9135118067254
 20
525.7230035957909
 30
0.0
  0
POINT
  5
27E
330
275
100
AcDbEntity
  8
Defpoints
 62
     0
100
AcDbPoint
 10
128.5135118067254
 20
768.2830035957908
 30
0.0
  0
POINT
  5
27F
330
275
100
AcDbEntity
  8
Defpoints
 62
     0
100
AcDbPoint
 10
87.16001724188007
 20
768.2830035957908
 30
0.0
  0
ENDBLK
  5
280
330
275
100
AcDbEntity
  8
0
100
AcDbBlockEnd
  0
BLOCK
  5
18C
330
18B
100
AcDbEntity
  8
0
100
AcDbBlockBegin
  2
*D10
 70
     1
 10
0.0
 20
0.0
 30
0.0
  3
*D10
  1

  0
LINE
  5
18D
330
18B
100
AcDbEntity
  8
0
 62
     4
370
    -2
100
AcDbLine
 10
300.3846552088336
 20
768.2830035957908
 30
0.0
 11
345.0439080964614
 21
768.2830035957908
 31
0.0
  0
LINE
  5
18E
330
18B
100
AcDbEntity
  8
0
 62
     4
370
    -2
100
AcDbLine
 10
300.3846552088337
 20
525.7230035957909
 30
0.0
 11
345.0439080964613
 21
525.7230035957909
 31
0.0
  0
LINE
  5
18F
330
18B
100
AcDbEntity
  8
0
 62
     4
370
    -2
100
AcDbLine
 10
343.0439080964614
 20
758.2830035957909
 30
0.0
 11
343.0439080964613
 21
535.7230035957909
 31
0.0
  0
MTEXT
  5
190
330
18B
100
AcDbEntity
  8
0
 62
     1
100
AcDbMText
 10
335.9381782192444
 20
670.1690015176612
 30
0.0
 40
10.0
 41
0.0
 46
0.0
 71
     5
 72
     1
  1
242.6
 11
0.0000000000000001
 21
1.0
 31
0.0
 73
     1
 44
1.0
  0
SOLID
  5
191
330
18B
100
AcDbEntity
  8
0
 62
     4
100
AcDbTrace
 10
341.3772414297947
 20
758.2830035957909
 30
0.0
 11
344.7105747631281
 21
758.2830035957909
 31
0.0
 12
343.0439080964614
 22
768.2830035957908
 32
0.0
 13
343.0439080964614
 23
768.2830035957908
 33
0.0
  0
SOLID
  5
192
330
18B
100
AcDbEntity
  8
0
 62
     4
100
AcDbTrace
 10
341.3772414297946
 20
535.7230035957909
 30
0.0
 11
344.710574763128
 21
535.7230035957909
 31
0.0
 12
343.0439080964613
 22
525.7230035957909
 32
0.0
 13
343.0439080964613
 23
525.7230035957909
 33
0.0
  0
POINT
  5
193
330
18B
100
AcDbEntity
  8
Defpoints
 62
     0
100
AcDbPoint
 10
298.3846552088336
 20
768.2830035957908
 30
0.0
  0
POINT
  5
194
330
18B
100
AcDbEntity
  8
Defpoints
 62
     0
100
AcDbPoint
 10
298.3846552088337
 20
525.7230035957909
 30
0.0
  0
POINT
  5
195
330
18B
100
AcDbEntity
  8
Defpoints
 62
     0
100
AcDbPoint
 10
343.0439080964613
 20
525.7230035957909
 30
0.0
  0
ENDBLK
  5
196
330
18B
100
AcDbEntity
  8
0
100
AcDbBlockEnd
  0
BLOCK
  5
173
330
172
100
AcDbEntity
  8
0
100
AcDbBlockBegin
  2
*D11
 70
     1
 10
0.0
 20
0.0
 30
0.0
  3
*D11
  1

  0
LINE
  5
174
330
172
100
AcDbEntity
  8
0
 62
     4
370
    -2
100
AcDbLine
 10
421.42961362836
 20
871.0030035957903
 30
0.0
 11
421.42961362836
 21
843.273043761801
 31
0.0
  0
LINE
  5
175
330
172
100
AcDbEntity
  8
0
 62
     4
370
    -2
100
AcDbLine
 10
414.42961362836
 20
871.0030035957903
 30
0.0
 11
414.42961362836
 21
843.273043761801
 31
0.0
  0
LINE
  5
176
330
172
100
AcDbEntity
  8
0
 62
     4
370
    -2
100
AcDbLine
 10
431.42961362836
 20
845.2730437618011
 30
0.0
 11
441.42961362836
 21
845.2730437618011
 31
0.0
  0
LINE
  5
177
330
172
100
AcDbEntity
  8
0
 62
     4
370
    -2
100
AcDbLine
 10
404.42961362836
 20
845.2730437618011
 30
0.0
 11
394.42961362836
 21
845.2730437618011
 31
0.0
  0
MTEXT
  5
178
330
172
100
AcDbEntity
  8
0
 62
     1
100
AcDbMText
 10
397.6328176028319
 20
853.115664955764
 30
0.0
 40
10.0
 41
0.0
 46
0.0
 71
     5
 72
     1
  1
7
 73
     1
 44
1.0
  0
LINE
  5
179
330
172
100
AcDbEntity
  8
0
 62
     4
370
    -2
100
AcDbLine
 10
421.42961362836
 20
845.2730437618011
 30
0.0
 11
414.42961362836
 21
845.2730437618011
 31
0.0
  0
SOLID
  5
17A
330
172
100
AcDbEntity
  8
0
 62
     4
100
AcDbTrace
 10
431.42961362836
 20
846.9397104284677
 30
0.0
 11
431.42961362836
 21
843.6063770951344
 31
0.0
 12
421.42961362836
 22
845.2730437618011
 32
0.0
 13
421.42961362836
 23
845.2730437618011
 33
0.0
  0
SOLID
  5
17B
330
172
100
AcDbEntity
  8
0
 62
     4
100
AcDbTrace
 10
404.42961362836
 20
846.9397104284677
 30
0.0
 11
404.42961362836
 21
843.6063770951344
 31
0.0
 12
414.42961362836
 22
845.2730437618011
 32
0.0
 13
414.42961362836
 23
845.2730437618011
 33
0.0
  0
POINT
  5
17C
330
172
100
AcDbEntity
  8
Defpoints
 62
     0
100
AcDbPoint
 10
421.42961362836
 20
873.0030035957902
 30
0.0
  0
POINT
  5
17D
330
172
100
AcDbEntity
  8
Defpoints
 62
     0
100
AcDbPoint
 10
414.42961362836
 20
873.0030035957902
 30
0.0
  0
POINT
  5
17E
330
172
100
AcDbEntity
  8
Defpoints
 62
     0
100
AcDbPoint
 10
414.42961362836
 20
845.2730437618011
 30
0.0
  0
ENDBLK
  5
17F
330
172
100
AcDbEntity
  8
0
100
AcDbBlockEnd
  0
BLOCK
  5
164
330
163
100
AcDbEntity
  8
0
100
AcDbBlockBegin
  2
*D12
 70
     1
 10
0.0
 20
0.0
 30
0.0
  3
*D12
  1

  0
LINE
  5
165
330
163
100
AcDbEntity
  8
0
 62
     4
370
    -2
100
AcDbLine
 10
423.42961362836
 20
873.0030035957902
 30
0.0
 11
444.3675318730496
 21
873.0030035957902
 31
0.0
  0
LINE
  5
166
330
163
100
AcDbEntity
  8
0
 62
     4
370
    -2
100
AcDbLine
 10
423.42961362836
 20
1123.00300359579
 30
0.0
 11
444.3675318730496
 21
1123.00300359579
 31
0.0
  0
LINE
  5
167
330
163
100
AcDbEntity
  8
0
 62
     4
370
    -2
100
AcDbLine
 10
442.3675318730495
 20
883.0030035957902
 30
0.0
 11
442.3675318730496
 21
1113.00300359579
 31
0.0
  0
SOLID
  5
168
330
163
100
AcDbEntity
  8
0
 62
     4
100
AcDbTrace
 10
440.7008652063828
 20
883.0030035957902
 30
0.0
 11
444.0341985397163
 21
883.0030035957902
 31
0.0
 12
442.3675318730495
 22
873.0030035957902
 32
0.0
 13
442.3675318730495
 23
873.0030035957902
 33
0.0
  0
SOLID
  5
169
330
163
100
AcDbEntity
  8
0
 62
     4
100
AcDbTrace
 10
440.7008652063829
 20
1113.00300359579
 30
0.0
 11
444.0341985397163
 21
1113.00300359579
 31
0.0
 12
442.3675318730496
 22
1123.00300359579
 32
0.0
 13
442.3675318730496
 23
1123.00300359579
 33
0.0
  0
MTEXT
  5
16A
330
163
100
AcDbEntity
  8
0
 62
     1
100
AcDbMText
 10
435.2618019958326
 20
998.0030035957904
 30
0.0
 40
10.0
 41
0.0
 46
0.0
 71
     5
 72
     1
  1
250
 11
0.0000000000000001
 21
1.0
 31
0.0
 73
     1
 44
1.0
  0
POINT
  5
16B
330
163
100
AcDbEntity
  8
Defpoints
 62
     0
100
AcDbPoint
 10
421.42961362836
 20
873.0030035957902
 30
0.0
  0
POINT
  5
16C
330
163
100
AcDbEntity
  8
Defpoints
 62
     0
100
AcDbPoint
 10
421.42961362836
 20
1123.00300359579
 30
0.0
  0
POINT
  5
16D
330
163
100
AcDbEntity
  8
Defpoints
 62
     0
100
AcDbPoint
 10
442.3675318730496
 20
1123.00300359579
 30
0.0
  0
ENDBLK
  5
16E
330
163
100
AcDbEntity
  8
0
100
AcDbBlockEnd
  0
BLOCK
  5
74
330
71
100
AcDbEntity
  8
0
100
AcDbBlockBegin
  2
DIN A4
 70
     2
 10
0.0
 20
0.0
 30
0.0
  3
DIN A4
  1

  0
LINE
  5
75
330
71
100
AcDbEntity
  8
01-99
100
AcDbLine
 10
204.0000075739527
 20
290.9999979434973
 30
0.0
 11
20.0000075739529
 21
290.9999979434973
 31
0.0
  0
LINE
  5
78
330
71
100
AcDbEntity
  8
01-99
100
AcDbLine
 10
204.0000075122353
 20
290.9999979871026
 30
0.0
 11
204.0000075122355
 21
5.999997987102574
 31
0.0
  0
LINE
  5
79
330
71
100
AcDbEntity
  8
01-99
100
AcDbLine
 10
20.0000075122355
 20
5.99999798710246
 30
0.0
 11
20.0000075122355
 21
290.9999979871026
 31
0.0
  0
LWPOLYLINE
  5
7A
330
71
100
AcDbEntity
  8
02-99
100
AcDbPolyline
 90
        4
 70
     1
 43
0.0
 10
0.0000075122354986
 20
-0.0000020128974256
 10
210.0000075122355
 20
-0.0000020128974256
 10
210.0000075122355
 20
296.9999979871026
 10
0.0000075122354986
 20
296.9999979871026
  0
LINE
  5
7E
330
71
100
AcDbEntity
  8
01-99
100
AcDbLine
 10
20.0000075122355
 20
5.99999798710246
 30
0.0
 11
204.0000075122355
 21
5.999997987102631
 31
0.0
  0
LINE
  5
7F
330
71
100
AcDbEntity
  8
01-99
100
AcDbLine
 10
70.0000075122355
 20
11.11110909810247
 30
0.0
 11
20.0000075122355
 21
11.11110909810247
 31
0.0
  0
LINE
  5
80
330
71
100
AcDbEntity
  8
01-99
100
AcDbLine
 10
70.0000075122355
 20
16.22222020910249
 30
0.0
 11
20.0000075122355
 21
16.22222020910249
 31
0.0
  0
LINE
  5
81
330
71
100
AcDbEntity
  8
01-99
100
AcDbLine
 10
70.0000075122355
 20
21.3333313201025
 30
0.0
 11
20.0000075122355
 21
21.33333132010244
 31
0.0
  0
LINE
  5
82
330
71
100
AcDbEntity
  8
01-99
100
AcDbLine
 10
115.0000075122355
 20
26.44444243110252
 30
0.0
 11
20.0000075122355
 21
26.44444243110246
 31
0.0
  0
LINE
  5
83
330
71
100
AcDbEntity
  8
01-99
100
AcDbLine
 10
115.0000075122355
 20
31.55555354210253
 30
0.0
 11
20.0000075122355
 21
31.55555354210247
 31
0.0
  0
LINE
  5
84
330
71
100
AcDbEntity
  8
01-99
100
AcDbLine
 10
45.0000075122355
 20
5.99999798710246
 30
0.0
 11
45.0000075122355
 21
11.11110909810247
 31
0.0
  0
LINE
  5
85
330
71
100
AcDbEntity
  8
01-99
100
AcDbLine
 10
28.0000075122355
 20
11.11110909810247
 30
0.0
 11
28.0000075122355
 21
36.66666465376915
 31
0.0
  0
LINE
  5
86
330
71
100
AcDbEntity
  8
01-99
100
AcDbLine
 10
70.0000075122355
 20
5.99999798710246
 30
0.0
 11
70.0000075122355
 21
51.99999798710246
 31
0.0
  0
LINE
  5
87
330
71
100
AcDbEntity
  8
01-99
100
AcDbLine
 10
115.0000075122355
 20
5.99999798710246
 30
0.0
 11
115.0000075122355
 21
51.99999798710246
 31
0.0
  0
LINE
  5
88
330
71
100
AcDbEntity
  8
01-99
100
AcDbLine
 10
144.5000075122355
 20
5.99999798710246
 30
0.0
 11
144.5000075122355
 21
16.22222020910254
 31
0.0
  0
LINE
  5
89
330
71
100
AcDbEntity
  8
01-99
100
AcDbLine
 10
177.0000075122355
 20
5.99999798710246
 30
0.0
 11
177.0000075122355
 21
16.2222202091026
 31
0.0
  0
LINE
  5
8A
330
71
100
AcDbEntity
  8
01-99
100
AcDbLine
 10
148.5000075122355
 20
36.6666646537692
 30
0.0
 11
148.5000075122355
 21
51.99999798710257
 31
0.0
  0
LINE
  5
8B
330
71
100
AcDbEntity
  8
01-99
100
AcDbLine
 10
182.0000075122355
 20
36.6666646537692
 30
0.0
 11
182.0000075122355
 21
51.99999798710257
 31
0.0
  0
LINE
  5
8C
330
71
100
AcDbEntity
  8
01-99
100
AcDbLine
 10
78.00000751223549
 20
21.33333132043583
 30
0.0
 11
78.00000751223549
 21
36.6666646537692
 31
0.0
  0
LINE
  5
8D
330
71
100
AcDbEntity
  8
01-99
100
AcDbLine
 10
60.00319585166497
 20
11.11110909810247
 30
0.0
 11
60.00319585166497
 21
36.66666465376915
 31
0.0
  0
LINE
  5
8E
330
71
100
AcDbEntity
  8
01-99
100
AcDbLine
 10
48.00319585166497
 20
11.11110909810247
 30
0.0
 11
48.00319585166497
 21
36.66666465376915
 31
0.0
  0
LINE
  5
8F
330
71
100
AcDbEntity
  8
01-99
100
AcDbLine
 10
204.0000075122355
 20
51.99999798710257
 30
0.0
 11
20.00000751223368
 21
51.99999798710246
 31
0.0
  0
LINE
  5
90
330
71
100
AcDbEntity
  8
01-99
100
AcDbLine
 10
115.0000075122355
 20
21.33333132043583
 30
0.0
 11
70.0000075122355
 21
21.33333132043583
 31
0.0
  0
LINE
  5
91
330
71
100
AcDbEntity
  8
01-99
100
AcDbLine
 10
115.0000075122355
 20
36.6666646537692
 30
0.0
 11
20.0000075122355
 21
36.66666465376909
 31
0.0
  0
LINE
  5
92
330
71
100
AcDbEntity
  8
01-99
100
AcDbLine
 10
92.0000075122355
 20
21.33333132043583
 30
0.0
 11
92.0000075122355
 21
51.99999798710251
 31
0.0
  0
LINE
  5
93
330
71
100
AcDbEntity
  8
01-99
100
AcDbLine
 10
70.0000075122355
 20
36.66666465376915
 30
0.0
 11
78.00000751223549
 21
31.55555355376919
 31
0.0
  0
LINE
  5
94
330
71
100
AcDbEntity
  8
01-99
100
AcDbLine
 10
70.0000075122355
 20
31.55555355376919
 30
0.0
 11
78.00000751223549
 21
36.6666646537692
 31
0.0
  0
LINE
  5
95
330
71
100
AcDbEntity
  8
01-99
100
AcDbLine
 10
204.0000075122355
 20
44.33333132043583
 30
0.0
 11
115.0000075122355
 21
44.33333132043578
 31
0.0
  0
LINE
  5
96
330
71
100
AcDbEntity
  8
01-99
100
AcDbLine
 10
115.0000075122355
 20
16.22222020910249
 30
0.0
 11
204.0000075122355
 21
16.2222202091026
 31
0.0
  0
LINE
  5
97
330
71
100
AcDbEntity
  8
01-99
100
AcDbLine
 10
115.0000075122355
 20
36.6666646537692
 30
0.0
 11
204.0000075122355
 21
36.66666465376926
 31
0.0
  0
LINE
  5
98
330
71
100
AcDbEntity
  8
01-99
100
AcDbLine
 10
92.0000075122355
 20
41.77777576510249
 30
0.0
 11
70.0000075122355
 21
41.77777576510249
 31
0.0
  0
LINE
  5
99
330
71
100
AcDbEntity
  8
01-99
100
AcDbLine
 10
92.0000075122355
 20
46.8888868761025
 30
0.0
 11
70.0000075122355
 21
46.88888687610244
 31
0.0
  0
LINE
  5
9A
330
71
100
AcDbEntity
  8
01-99
100
AcDbLine
 10
20.00000751223368
 20
51.99999798710246
 30
0.0
 11
20.00000751223368
 21
5.99999798710246
 31
0.0
  0
TEXT
  5
9B
330
71
100
AcDbEntity
  8
08-99
100
AcDbText
 10
116.4997086805418
 20
32.66987169496042
 30
0.0
 40
2.5
  1
Benennung/Teil:
 51
15.0
  7
ROMANS8
100
AcDbText
  0
TEXT
  5
9F
330
71
100
AcDbEntity
  8
08-99
100
AcDbText
 10
178.5028349598029
 20
12.01760068133313
 30
0.0
 40
2.7
  1
Ident-Nr.
 51
15.0
  7
ROMANS8
100
AcDbText
  0
TEXT
  5
A0
330
71
100
AcDbEntity
  8
08-99
100
AcDbText
 10
93.50002924540357
 20
33.0555749488849
 30
0.0
 40
2.5
  1
Name:
 51
15.0
  7
ROMANS8
100
AcDbText
  0
TEXT
  5
A1
330
71
100
AcDbEntity
  8
08-99
100
AcDbText
 10
79.50777665478042
 20
33.04841594810694
 30
0.0
 40
2.5
  1
Datum:
 50
0.102528160689452
 41
0.8933771909280748
 51
15.0
  7
ROMANS8
 72
     5
 11
90.67497366186243
 21
33.06839915456692
 31
0.0
100
AcDbText
  0
TEXT
  5
A2
330
71
100
AcDbEntity
  8
08-99
100
AcDbText
 10
29.50001559397086
 20
33.05597508608236
 30
0.0
 40
1.6
  1
Änderung:
 51
15.0
  7
ROMANS8
100
AcDbText
  0
TEXT
  5
A3
330
71
100
AcDbEntity
  8
08-99
100
AcDbText
 10
46.49994558798837
 20
9.111117286264914
 30
0.0
 40
1.0
  1
ERSETZT.DURCH:
 51
15.0
  7
ROMANS8
100
AcDbText
  0
TEXT
  5
A4
330
71
100
AcDbEntity
  8
08-99
100
AcDbText
 10
21.49936832790721
 20
9.110852190038713
 30
0.0
 40
1.0
  1
ERSETZT.FÜR:
 51
15.0
  7
ROMANS8
100
AcDbText
  0
TEXT
  5
A5
330
71
100
AcDbEntity
  8
08-99
100
AcDbText
 10
145.9909143543897
 20
12.61295485116625
 30
0.0
 40
2.112
  1
AUFTRAGS.NR.:
 51
15.0
  7
ROMANS8
100
AcDbText
  0
TEXT
  5
A6
330
71
100
AcDbEntity
  8
08-99
100
AcDbText
 10
116.5034717172479
 20
12.61092664313281
 30
0.0
 40
2.112
  1
Sonder-Nr:
 51
15.0
  7
ROMANS8
100
AcDbText
  0
TEXT
  5
A7
330
71
100
AcDbEntity
  8
08-99
100
AcDbText
 10
99.69631500731376
 20
49.92370649414477
 30
0.0
 40
1.349999999999999
  1
Format
 51
15.0
  7
ROMANS8
100
AcDbText
  0
TEXT
  5
A8
330
71
100
AcDbEntity
  8
08-99
100
AcDbText
 10
98.30438725900334
 20
44.6416167802032
 30
0.0
 40
1.822499999999999
  1
Normen
 51
15.0
  7
ROMANS8
100
AcDbText
  0
TEXT
  5
A9
330
71
100
AcDbEntity
  8
08-99
100
AcDbText
 10
21.50003711613706
 20
33.05556582266059
 30
0.0
 40
1.6
  1
Zust.
 51
15.0
  7
ROMANS8
100
AcDbText
  0
TEXT
  5
AA
330
71
100
AcDbEntity
  8
08-99
100
AcDbText
 10
49.50318821340468
 20
33.05555723859902
 30
0.0
 40
1.6
  1
Datum:
 51
15.0
  7
ROMANS8
100
AcDbText
  0
TEXT
  5
AB
330
71
100
AcDbEntity
  8
08-99
100
AcDbText
 10
61.50322112916754
 20
33.05556204504791
 30
0.0
 40
1.6
  1
Name:
 51
15.0
  7
ROMANS8
100
AcDbText
  0
TEXT
  5
AC
330
71
100
AcDbEntity
  8
08-99
100
AcDbText
 10
71.1545619578267
 20
28.03813755505132
 30
0.0
 40
1.6
  1
Erst.
 51
15.0
  7
ROMANS8
100
AcDbText
  0
TEXT
  5
AD
330
71
100
AcDbEntity
  8
08-99
100
AcDbText
 10
70.51718787454618
 20
23.1974490465235
 30
0.0
 40
1.6
  1
Bearb.
 51
15.0
  7
ROMANS8
100
AcDbText
  0
TEXT
  5
AE
330
71
100
AcDbEntity
  8
08-99
100
AcDbText
 10
149.4308124240035
 20
41.61949547980938
 30
0.0
 40
2.0
  1
Zuschnittsbreite:
 51
15.0
  7
ROMANS8
100
AcDbText
  0
TEXT
  5
AF
330
71
100
AcDbEntity
  8
08-99
100
AcDbText
 10
115.9850022862677
 20
41.73762161521608
 30
0.0
 40
2.0
  1
Zuschnittslänge:
 51
15.0
  7
ROMANS8
100
AcDbText
  0
LWPOLYLINE
  5
B0
330
71
100
AcDbEntity
  8
06-99
100
AcDbPolyline
 90
      133
 70
     1
 43
0.010692
 10
93.76754732423549
 20
18.87656283643588
 10
94.00905465623557
 20
19.08724513243589
 10
93.92285931623556
 20
19.22625538843579
 10
93.82427194823552
 20
19.35180441643592
 10
93.71363469623569
 20
19.46393854843592
 10
93.59130396023548
 20
19.56271124443577
 10
93.45762188423558
 20
19.64816170843585
 10
93.31293417623559
 20
19.72033627243581
 10
93.15759367223554
 20
19.77928839643584
 10
92.99194251623569
 20
19.82505728443584
 10
92.81632998023557
 20
19.85768926843593
 10
92.63110533623573
 20
19.87723780843589
 10
92.43661429223564
 20
19.88374210843585
 10
92.27568900023554
 20
19.87767974443585
 10
92.11994932823543
 20
19.85975638843581
 10
91.96972672823566
 20
19.83036051643597
 10
91.82535621623562
 20
19.78988773243583
 10
91.68716924423554
 20
19.73873364043595
 10
91.55549013623559
 20
19.67729028043584
 10
91.43066103623565
 20
19.60594969243584
 10
91.31300626823557
 20
19.52510391643579
 10
91.20285728423553
 20
19.43514499243588
 10
91.10055266423561
 20
19.33647208843587
 10
91.00641316823569
 20
19.22947011643589
 10
90.92077737623563
 20
19.11454180843589
 10
90.84397674023561
 20
18.99207207643587
 10
90.77633914823563
 20
18.86245652443591
 10
90.71819961623559
 20
18.72608719243584
 10
90.66988603223562
 20
18.58336324843583
 10
90.63172984823566
 20
18.43466960443584
 10
90.60406964423547
 20
18.28040542843581
 10
90.5872261802356
 20
18.12095919643588
 10
90.58154160023562
 20
17.95672651243586
 10
90.58715490023557
 20
17.78762184043592
 10
90.60380590823573
 20
17.62428728443586
 10
90.63119524823539
 20
17.46704004043585
 10
90.66902354423545
 20
17.31619374043578
 10
90.71699498423553
 20
17.17206201643586
 10
90.77481375623566
 20
17.03495850043589
 10
90.84218404823563
 20
16.90519326043585
 10
90.91880648423559
 20
16.78308349243582
 10
91.00438525223561
 20
16.66893926443583
 10
91.09862810423559
 20
16.56307777243586
 10
91.2012285362355
 20
16.46580908443587
 10
91.31190142823554
 20
16.37745039643579
 10
91.43034027623562
 20
16.29831177643592
 10
91.55625283223551
 20
16.2287068564359
 10
91.6893397202355
 20
16.16895283243582
 10
91.82930869223552
 20
16.11935977243587
 10
91.9758568082357
 20
16.08024130843591
 10
92.1286953842355
 20
16.05191107243593
 10
92.28751791623555
 20
16.03468269643588
 10
92.45203572023561
 20
16.02886981243591
 10
92.61603318023563
 20
16.03412314843587
 10
92.77336596023557
 20
16.0497619804359
 10
92.92384516823554
 20
16.07559385243587
 10
93.06728191223546
 20
16.11142630843591
 10
93.20349086423565
 20
16.15707045643586
 10
93.33227956823547
 20
16.21233740443585
 10
93.45346269623556
 20
16.27703469643586
 10
93.56684422823562
 20
16.35097700443589
 10
93.67224596423559
 20
16.43397187243585
 10
93.76946832023557
 20
16.52582328043587
 10
93.85832953223555
 20
16.62635302843586
 10
93.93864070823568
 20
16.73535796843583
 10
94.01020939223556
 20
16.85265990043587
 10
94.07284669223557
 20
16.97805924043587
 10
94.12636728023565
 20
17.11137066043579
 10
94.17058226423549
 20
17.25240170443584
 10
94.20529562423556
 20
17.40096348043585
 10
94.23032916023558
 20
17.55686709643589
 10
94.2454868522357
 20
17.71992366043582
 10
94.25057980823547
 20
17.88993715243583
 10
94.25057980823547
 20
17.88993715243583
 10
94.25057980823547
 20
17.94131934043588
 10
92.6164715522356
 20
17.94131934043588
 10
92.6164715522356
 20
17.65354772443584
 10
93.88573312823544
 20
17.65354772443584
 10
93.87499479623548
 20
17.49100437643585
 10
93.84766248023552
 20
17.33635885243586
 10
93.80444185223566
 20
17.19027405643589
 10
93.74603858423554
 20
17.05341645643585
 10
93.67316547623572
 20
16.92644182843588
 10
93.58653176423562
 20
16.81002376843588
 10
93.4868359922356
 20
16.70481448843588
 10
93.37479452423556
 20
16.61148758443585
 10
93.2511130322355
 20
16.53069526843586
 10
93.11649718823563
 20
16.46310757243589
 10
92.9716562282355
 20
16.40938383643583
 10
92.81729938823563
 20
16.37019052843595
 10
92.65413234023563
 20
16.34618698843581
 10
92.48286432023567
 20
16.3380396844359
 10
92.31820395623563
 20
16.34599096843584
 10
92.15990889623553
 20
16.3693743724358
 10
92.00857076423554
 20
16.40748066043585
 10
91.86477762023541
 20
16.45960416043584
 10
91.7291103962356
 20
16.52503563643586
 10
91.60216071623555
 20
16.60306585243592
 10
91.48451307623558
 20
16.69299270043586
 10
91.37675910023554
 20
16.79410338043595
 10
91.27948328423569
 20
16.90569222043587
 10
91.19327012423552
 20
17.02705354843584
 10
91.11871124423558
 20
17.15747456443586
 10
91.05639114023555
 20
17.29625316043587
 10
91.00689787223556
 20
17.44268010043583
 10
90.97081950023541
 20
17.5960425844359
 10
90.94874052023547
 20
17.75564206843597
 10
90.94125255623557
 20
17.92076575243578
 10
90.94763924423572
 20
18.08913980443589
 10
90.96654270023558
 20
18.25115211643583
 10
90.99756375623568
 20
18.40630372843583
 10
91.04030680823555
 20
18.55409924443586
 10
91.09437981623548
 20
18.69404326843585
 10
91.15938361223554
 20
18.82564396843588
 10
91.23492259223556
 20
18.9483988204359
 10
91.32060471623564
 20
19.06181955643586
 10
91.41603081623546
 20
19.16540365243594
 10
91.52081241623548
 20
19.25865927643582
 10
91.63454322023566
 20
19.34108746843589
 10
91.75683831623567
 20
19.41219639643589
 10
91.88729497223542
 20
19.47148710043586
 10
92.02552114823564
 20
19.51846418443586
 10
92.17112480423569
 20
19.55263225243584
 10
92.32370320823568
 20
19.57349947243585
 10
92.48286432023567
 20
19.58056332043588
 10
92.66056892423561
 20
19.57164619243588
 10
92.83032224423564
 20
19.54500885643586
 10
92.99178570023562
 20
19.50081882043588
 10
93.14462071223559
 20
19.43924359243584
 10
93.28848870023561
 20
19.36045780843585
 10
93.42305464823565
 20
19.26462541243592
 10
93.54797997623554
 20
19.15192104043586
 10
93.66292254023566
 20
19.02250863643593
  0
LWPOLYLINE
  5
B3
330
71
100
AcDbEntity
  8
06-99
100
AcDbPolyline
 90
       12
 70
     1
 43
0.010692
 10
90.43900298423549
 20
12.25281181243593
 10
92.32227048023563
 20
12.25281181243593
 10
92.46760683623554
 20
13.00767770443588
 10
91.56487771223558
 20
13.00767770443588
 10
91.62106060823546
 20
13.29950515243581
 10
92.41872301223557
 20
13.29950515243581
 10
92.55580870823544
 20
14.01156027643583
 10
91.75814630423545
 20
14.01156027643583
 10
91.80985281623547
 20
14.28005421643581
 10
92.68923417623549
 20
14.28005421643581
 10
92.83455984023559
 20
15.03490585243588
 10
90.97464010823561
 20
15.03490585243588
  0
LWPOLYLINE
  5
B4
330
71
100
AcDbEntity
  8
06-99
100
AcDbPolyline
 90
        4
 70
     1
 43
0.010692
 10
76.60861942823558
 20
12.88042508443584
 10
89.06586862823544
 20
12.88042508443584
 10
88.94229049223557
 20
12.25209544843585
 10
76.48504485623553
 20
12.25209544843585
  0
SOLID
  5
B5
330
71
100
AcDbEntity
  8
06-99
100
AcDbTrace
 10
76.60861942823558
 20
12.88042508443584
 30
0.0
 11
89.06586862823544
 21
12.88042508443584
 31
0.0
 12
76.48504485623553
 22
12.25209544843585
 32
0.0
 13
88.94229049223557
 23
12.25209544843585
 33
0.0
  0
LWPOLYLINE
  5
B6
330
71
100
AcDbEntity
  8
06-99
100
AcDbPolyline
 90
       10
 70
     1
 43
0.010692
 10
82.3458504002356
 20
16.02886981243591
 10
83.32219038023552
 20
19.10266656043586
 10
84.33965535623546
 20
16.02886981243591
 10
85.56780619223562
 20
19.80153132043585
 10
85.22351666423551
 20
19.80153132043585
 10
84.33965535623546
 20
16.89302932843583
 10
83.32219038023552
 20
19.9454100004358
 10
82.3458504002356
 20
16.86733645243589
 10
81.42601764023565
 20
19.80153132043585
 10
81.07658882423564
 20
19.80153132043585
  0
LWPOLYLINE
  5
B7
330
71
100
AcDbEntity
  8
06-99
100
AcDbPolyline
 90
        3
 70
     1
 43
0.010692
 10
87.32442338423565
 20
17.65868344843591
 10
87.97704168023555
 20
19.25683094443582
 10
88.6039706642355
 20
17.65868344843591
  0
LWPOLYLINE
  5
B8
330
71
100
AcDbEntity
  8
06-99
100
AcDbPolyline
 90
        7
 70
     1
 43
0.010692
 10
86.38318880423563
 20
16.12735738843582
 10
86.72320153223555
 20
16.12735738843582
 10
87.21136974023549
 20
17.37092608843585
 10
88.71187076423566
 20
17.37092608843585
 10
89.17949964023549
 20
16.12735738843582
 10
89.54434632023552
 20
16.12735738843582
 10
87.99759883223558
 20
19.9454100004358
  0
LWPOLYLINE
  5
B9
330
71
100
AcDbEntity
  8
06-99
100
AcDbPolyline
 90
        8
 70
     1
 43
0.010692
 10
98.92981243223543
 20
12.25281181243593
 10
100.0043869442354
 20
12.25281181243593
 10
100.1574144122356
 20
12.60301045243585
 10
100.9122803042355
 20
12.60301045243585
 10
100.9343521562355
 20
12.25281181243593
 10
102.0082815842354
 20
12.25281181243593
 10
101.5711569842355
 20
15.03490585243588
 10
100.4583193682355
 20
15.03490585243588
  0
LWPOLYLINE
  5
BA
330
71
100
AcDbEntity
  8
06-99
100
AcDbPolyline
 90
       34
 70
     1
 43
0.010692
 10
96.0434642642356
 20
13.66137589243584
 10
96.07848769223544
 20
13.66137589243584
 10
96.0642316922356
 20
13.48699650043591
 10
96.06380757623552
 20
13.33509882043586
 10
96.06790617623554
 20
13.20222577243589
 10
96.09523849223561
 20
12.25281181243593
 10
96.9668360762354
 20
12.25281181243593
 10
98.31569602823542
 20
15.03490585243588
 10
97.31181345623557
 20
15.03490585243588
 10
96.85792023623552
 20
13.80922843243581
 10
96.80781752423563
 20
13.66872486043581
 10
96.74884758023544
 20
13.48671138043579
 10
96.69003445223545
 20
13.26059696443593
 10
96.66670094423549
 20
13.26059696443593
 10
96.6884270882355
 20
13.45803187243587
 10
96.69298544423558
 20
13.61569254043581
 10
96.69194475623548
 20
13.73531107243588
 10
96.67756045223544
 20
15.03490585243588
 10
95.97329266823548
 20
15.03490585243588
 10
95.45849068823557
 20
13.73531107243588
 10
95.41138886423542
 20
13.61569254043581
 10
95.35523448023562
 20
13.45803187243587
 10
95.30092981223551
 20
13.26059696443593
 10
95.27759630423545
 20
13.26059696443593
 10
95.30585169623558
 20
13.48671138043579
 10
95.31697137623556
 20
13.66872486043581
 10
95.32096662023551
 20
13.80922843243581
 10
95.33903966423546
 20
15.03490585243588
 10
94.33451200823553
 20
15.03490585243588
 10
94.61274279623561
 20
12.25281181243593
 10
95.48433681623547
 20
12.25281181243593
 10
95.87724643223557
 20
13.20222577243589
 10
95.93252050823551
 20
13.33509882043586
 10
95.99058519623557
 20
13.48699650043591
  0
LWPOLYLINE
  5
BB
330
71
100
AcDbEntity
  8
06-99
100
AcDbPolyline
 90
       10
 70
     1
 43
0.010692
 10
100.4520752402354
 20
13.26448172443588
 10
100.5983667482354
 20
13.57965693643587
 10
100.6731180842355
 20
13.74409276843596
 10
100.7541598802355
 20
13.94570824843589
 10
100.8288363722355
 20
14.19056217643595
 10
100.8482958122355
 20
14.19056217643595
 10
100.8286724282354
 20
13.94570824843589
 10
100.8320796122355
 20
13.74409276843596
 10
100.8435129242355
 20
13.57965693643587
 10
100.8684181562356
 20
13.26448172443588
  0
LWPOLYLINE
  5
BC
330
71
100
AcDbEntity
  8
06-99
100
AcDbPolyline
 90
       23
 70
     1
 43
0.010692
 10
103.5867130322356
 20
12.25281181243593
 10
104.5672478402354
 20
12.25281181243593
 10
104.7440436242355
 20
13.17110136043584
 10
105.0536340482356
 20
12.25281181243593
 10
106.1742447482354
 20
12.25281181243593
 10
105.6490750922355
 20
13.38511243243585
 10
105.8084357882355
 20
13.42380678043588
 10
105.9537079922354
 20
13.49881472443587
 10
106.0813562162355
 20
13.60690015243585
 10
106.1878378442354
 20
13.74481626043587
 10
106.2696066962354
 20
13.90931980843584
 10
106.3231201562354
 20
14.09716755643586
 10
106.3446075122355
 20
14.26808986843588
 10
106.3403093282354
 20
14.42329850443593
 10
106.3102362962355
 20
14.56225886443587
 10
106.2543991082354
 20
14.68443278443578
 10
106.1728155842354
 20
14.78928566443591
 10
106.0654999802355
 20
14.87627577643587
 10
105.9324594242355
 20
14.94487208443587
 10
105.7737153002354
 20
14.99453286043592
 10
105.5892711722355
 20
15.02472350443588
 10
105.3791519882354
 20
15.03490585243588
 10
104.1223501562355
 20
15.03490585243588
  0
LWPOLYLINE
  5
BD
330
71
100
AcDbEntity
  8
06-99
100
AcDbPolyline
 90
        9
 70
     1
 43
0.010692
 10
104.9650401362355
 20
14.31896240443586
 10
105.1206907082355
 20
14.31896240443586
 10
105.2773605842356
 20
14.28538239643581
 10
105.3582277442354
 20
14.19040892443593
 10
105.3632244722355
 20
14.04269894443587
 10
105.3008722922355
 20
13.89699906043591
 10
105.1832994962355
 20
13.80577848043589
 10
105.0158200082354
 20
13.77421926043581
 10
104.8601694362355
 20
13.77421926043581
  0
LWPOLYLINE
  5
BE
330
71
100
AcDbEntity
  8
06-99
100
AcDbPolyline
 90
       12
 70
     1
 43
0.010692
 10
100.5798090002356
 20
16.12735738843582
 10
102.3989066762356
 20
16.12735738843582
 10
102.3989066762356
 20
16.4408218804358
 10
100.9138270802356
 20
16.4408218804358
 10
100.9138270802356
 20
18.02353012843594
 10
102.3989066762356
 20
18.02353012843594
 10
102.3989066762356
 20
18.33699462043592
 10
100.9138270802356
 20
18.33699462043592
 10
100.9138270802356
 20
19.48806682843587
 10
102.3989066762356
 20
19.48806682843587
 10
102.3989066762356
 20
19.80153132043585
 10
100.5798090002356
 20
19.80153132043585
  0
LWPOLYLINE
  5
BF
330
71
100
AcDbEntity
  8
06-99
100
AcDbPolyline
 90
        8
 70
     1
 43
0.010692
 10
95.85303261623565
 20
16.12735738843582
 10
96.18705426023556
 20
16.12735738843582
 10
96.18705426023556
 20
19.09753083643585
 10
98.76667389623552
 20
16.01858410843584
 10
98.76667389623552
 20
19.80153132043585
 10
98.4326665082356
 20
19.80153132043585
 10
98.4326665082356
 20
16.88274362443587
 10
95.85303261623565
 20
19.95568144843582
  0
LWPOLYLINE
  5
C0
330
71
100
AcDbEntity
  8
06-99
100
AcDbPolyline
 90
       19
 70
     1
 43
0.010692
 10
104.4484312082357
 20
19.5086239804358
 10
104.7824385962356
 20
19.5086239804358
 10
104.9866237202355
 20
19.50030560443588
 10
105.1604542562355
 20
19.47385716043584
 10
105.3049031762356
 20
19.42705471243579
 10
105.4209256322356
 20
19.35767076043584
 10
105.5094874682356
 20
19.26347780443581
 10
105.5715509642355
 20
19.14224834443593
 10
105.6080855282355
 20
18.9917477524358
 10
105.6200498762355
 20
18.80975922043586
 10
105.6074547002355
 20
18.63100680043584
 10
105.5693840522356
 20
18.48585933643585
 10
105.5054245082356
 20
18.37130168443593
 10
105.4151448242355
 20
18.28432582843589
 10
105.2981315762356
 20
18.22192018843589
 10
105.1539570842356
 20
18.18106962043583
 10
104.9821972322354
 20
18.15876967243594
 10
104.7824385962356
 20
18.15200520043589
 10
104.4484312082357
 20
18.15200520043589
  0
LWPOLYLINE
  5
C1
330
71
100
AcDbEntity
  8
06-99
100
AcDbPolyline
 90
       29
 70
     1
 43
0.010692
 10
106.3446075122355
 20
16.12735738843582
 10
105.0239637482355
 20
17.87965144843588
 10
105.2123817362357
 20
17.89225018843592
 10
105.3829084442356
 20
17.92941914443582
 10
105.5344069562356
 20
17.99022811243594
 10
105.6657296642355
 20
18.07375401643588
 10
105.7757360882356
 20
18.17905596043584
 10
105.8632821842355
 20
18.30521443243589
 10
105.9272310362355
 20
18.45129210043592
 10
105.9664386002355
 20
18.6163587604359
 10
105.9797608322353
 20
18.79948777243589
 10
105.9699455762357
 20
18.97455145243589
 10
105.9404891162357
 20
19.13261485243589
 10
105.8913629402356
 20
19.27374568843589
 10
105.8225492282356
 20
19.39801167643577
 10
105.7340230322356
 20
19.50548409643591
 10
105.6257594042356
 20
19.59623422843589
 10
105.4977369602356
 20
19.67032622443582
 10
105.3499307522354
 20
19.72783136443587
 10
105.1823193962355
 20
19.76882449243589
 10
104.9948815082355
 20
19.79336619643589
 10
104.7875885762355
 20
19.80153132043585
 10
104.7875885762355
 20
19.80153132043585
 10
104.1144131282356
 20
19.80153132043585
 10
104.1144131282356
 20
16.12735738843582
 10
104.4484312082357
 20
16.12735738843582
 10
104.4484312082357
 20
17.87965144843588
 10
104.6488456202355
 20
17.87965144843588
 10
105.9386465282355
 20
16.12735738843582
  0
TEXT
  5
C2
330
71
100
AcDbEntity
  8
06-99
100
AcDbText
 10
85.6083656112951
 20
9.63320697282171
 30
0.0
 40
1.4256
  1
GmbH & Co KG
 41
1.199203187251
 51
15.0
  7
ROMAND8
 72
     5
 11
106.0419656112951
 21
9.63320697282171
 31
0.0
100
AcDbText
  0
TEXT
  5
C4
330
71
100
AcDbEntity
  8
06-99
100
AcDbText
 10
85.70982236587898
 20
7.391013700398161
 30
0.0
 40
1.4256
  1
72774 Reutlingen
 50
0.5663244663116128
 41
1.087840993687879
 51
15.0
  7
ROMAND8
 72
     5
 11
105.943422365879
 21
7.59101370039815
 31
0.0
100
AcDbText
  0
TEXT
  5
C5
330
71
100
AcDbEntity
  8
08-99
100
AcDbText
 10
73.414125712073
 20
48.45008961754581
 30
0.0
 40
2.25
  1
Zul. Abw.
 51
15.0
  7
ROMANS8
100
AcDbText
  0
TEXT
  5
C6
330
71
100
AcDbEntity
  8
08-99
100
AcDbText
 10
123.2099338325191
 20
49.28616214647601
 30
0.0
 40
2.0
  1
Mat. Art.
 51
15.0
  7
ROMANS8
100
AcDbText
  0
TEXT
  5
C7
330
71
100
AcDbEntity
  8
08-99
100
AcDbText
 10
155.4865384826082
 20
49.4043113704472
 30
0.0
 40
2.0
  1
Oberfläche:
 51
15.0
  7
ROMANS8
100
AcDbText
  0
TEXT
  5
C8
330
71
100
AcDbEntity
  8
08-99
100
AcDbText
 10
184.762545350816
 20
41.73764470378046
 30
0.0
 40
2.0
  1
Blech Dicke:
 51
15.0
  7
ROMANS8
100
AcDbText
  0
TEXT
  5
C9
330
71
100
AcDbEntity
  8
08-99
100
AcDbText
 10
187.4380355407932
 20
49.28616214647604
 30
0.0
 40
2.0
  1
Maßstab:
 51
15.0
  7
ROMANS8
100
AcDbText
  0
LINE
  5
CA
330
71
100
AcDbEntity
  8
01-99
100
AcDbLine
 10
115.0000075122355
 20
46.8888868761025
 30
0.0
 11
92.0000075122355
 21
46.8888868761025
 31
0.0
  0
LINE
  5
CB
330
71
100
AcDbEntity
  8
01-99
100
AcDbLine
 10
115.0000075122355
 20
44.33333132043578
 30
0.0
 11
92.0000075122355
 21
44.33333132043578
 31
0.0
  0
LINE
  5
CC
330
71
100
AcDbEntity
  8
01-99
100
AcDbLine
 10
115.0000075122355
 20
40.49999798710246
 30
0.0
 11
92.00000751223544
 21
40.49999798710246
 31
0.0
  0
ATTDEF
  5
CD
330
71
100
AcDbEntity
  8
06-99
100
AcDbText
 10
116.4954542514127
 20
26.18783668438471
 30
0.0
 40
4.0
  1

 41
0.9
  7
ROMANS8
100
AcDbAttributeDefinition
280
     0
  3
Benennung/Teil
  2
TEILE
 70
     0
280
     0
  0
ATTDEF
  5
CE
330
71
100
AcDbEntity
  8
06-99
100
AcDbText
 10
116.4954542514127
 20
19.29547648609889
 30
0.0
 40
4.0
  1

 41
0.9
  7
ROMANS8
100
AcDbAttributeDefinition
280
     0
  3
Benennung/Teil2
  2
TEILE2
 70
     0
280
     0
  0
ATTDEF
  5
CF
330
71
100
AcDbEntity
  8
06-99
100
AcDbText
 10
191.3473937239501
 20
45.33333132043583
 30
0.0
 40
3.375
  1

  7
ROMANS8
100
AcDbAttributeDefinition
280
     0
  3
Maßstab
  2
:
 70
     0
280
     0
  0
ATTDEF
  5
D0
330
71
100
AcDbEntity
  8
06-99
100
AcDbText
 10
92.99707531160292
 20
27.44168345513378
 30
0.0
 40
2.5
  1

 41
0.9
  7
ROMANS8
100
AcDbAttributeDefinition
280
     0
  3
Name
  2
NAME
 70
     0
280
     0
  0
ATTDEF
  5
D1
330
71
100
AcDbEntity
  8
06-99
100
AcDbText
 10
79.49315396412956
 20
27.46123316121373
 30
0.0
 40
2.5
  1

 50
359.9144597696142
 41
0.9542572414211148
  7
ROMANS8
 72
     5
 11
90.73974463267431
 21
27.44444245376917
 31
0.0
100
AcDbAttributeDefinition
280
     0
  3
Datum
  2
DATUM
 70
     0
280
     0
  0
ATTDEF
  5
D2
330
71
100
AcDbEntity
  8
06-99
100
AcDbText
 10
178.5063514793938
 20
7.4928977873912
 30
0.0
 40
2.99376
  1

  7
ROMANS8
100
AcDbAttributeDefinition
280
     0
  3
Ident-Nummer
  2
ID.NR
 70
     0
280
     0
  0
ATTDEF
  5
D3
330
71
100
AcDbEntity
  8
06-99
100
AcDbText
 10
116.731273767946
 20
37.66666463154695
 30
0.0
 40
3.0
  1

 41
0.9
  7
ROMANS8
100
AcDbAttributeDefinition
280
     0
  3
Zuschnitts.Länge
  2
LÄNGE
 70
     0
280
     0
  0
ATTDEF
  5
D4
330
71
100
AcDbEntity
  8
06-99
100
AcDbText
 10
150.1808124240052
 20
37.67810185754732
 30
0.0
 40
3.0
  1

 41
0.9
  7
ROMANS8
100
AcDbAttributeDefinition
280
     0
  3
Zuschnitts Breite
  2
BREITE
 70
     0
280
     0
  0
ATTDEF
  5
D5
330
71
100
AcDbEntity
  8
06-99
100
AcDbText
 10
190.6090996389673
 20
37.66666465376926
 30
0.0
 40
3.09375
  1

  7
ROMANS8
100
AcDbAttributeDefinition
280
     0
  3
Blech.Dicke
  2
1.0
 70
     0
280
     0
  0
ATTDEF
  5
D6
330
71
100
AcDbEntity
  8
06-99
100
AcDbText
 10
164.1277931136382
 20
45.33333132043594
 30
0.0
 40
3.0
  1

  7
ROMANS8
 72
     1
 11
164.1277931136382
 21
45.33333132043594
 31
0.0
100
AcDbAttributeDefinition
280
     0
  3
Oberfläche
  2
IV
 70
     0
280
     0
  0
ATTDEF
  5
D7
330
71
100
AcDbEntity
  8
06-99
100
AcDbText
 10
123.2747480483513
 20
45.3333313204358
 30
0.0
 40
3.375
  1
1.4301
  7
ROMANS8
100
AcDbAttributeDefinition
280
     0
  3
Mat.Art
  2
1.4301
 70
     0
280
     0
  0
ATTDEF
  5
D8
330
71
100
AcDbEntity
  8
06-99
100
AcDbText
 10
146.0006413991156
 20
7.504394591457128
 30
0.0
 40
3.168
  1

 41
0.9
  7
ROMANS8
100
AcDbAttributeDefinition
280
     0
  3
Auftrags Nr.
  2
AUFTRAGS.NR.
 70
     0
280
     0
  0
ATTDEF
  5
D9
330
71
100
AcDbEntity
  8
06-99
100
AcDbText
 10
116.5000075122355
 20
7.499997987102517
 30
0.0
 40
3.168
  1

 41
0.9
  7
ROMANS8
100
AcDbAttributeDefinition
280
     0
  3
Sonder-NR,WPS
  2
SONDER-NR
 70
     0
280
     0
  0
ATTDEF
  5
DA
330
71
100
AcDbEntity
  8
06-99
100
AcDbText
 10
46.4997585072438
 20
6.601808056362358
 30
0.0
 40
1.5
  1

 41
0.9
  7
ROMANS8
100
AcDbAttributeDefinition
280
     0
  3
ERSETZT.Durch
  2
ERSETZT.DURCH
 70
     0
280
     0
  0
ATTDEF
  5
DB
330
71
100
AcDbEntity
  8
06-99
100
AcDbText
 10
21.49947529243403
 20
6.597454384974923
 30
0.0
 40
1.5
  1

 41
0.9
  7
ROMANS8
100
AcDbAttributeDefinition
280
     0
  3
ERSETZT.Für
  2
ERSETZT.FÜR
 70
     0
280
     0
  0
ATTDEF
  5
DC
330
71
100
AcDbEntity
  8
06-99
100
AcDbText
 10
99.97308015867309
 20
47.66850912711049
 30
0.0
 40
1.287
  1
DIN A4
  7
ROMANS8
 72
     1
 11
103.2518658729588
 21
47.66850912711049
 31
0.0
100
AcDbAttributeDefinition
280
     0
  3
Format
  2
FORMAT
 70
     0
280
     0
  0
ATTDEF
  5
DD
330
71
100
AcDbEntity
  8
06-99
100
AcDbText
 10
95.9874465096418
 20
37.19696532096725
 30
0.0
 40
2.34
  1
DIN 2768
  7
ROMANS8
 72
     1
 11
104.0103036524989
 21
37.19696532096725
 31
0.0
100
AcDbAttributeDefinition
280
     0
  3
Norm / Kanten
  2
NORM2
 70
     0
280
     0
  0
ATTDEF
  5
DE
330
71
100
AcDbEntity
  8
06-99
100
AcDbText
 10
92.81173222392748
 20
41.03029865430056
 30
0.0
 40
2.34
  1
DIN 6930-M
  7
ROMANS8
 72
     1
 11
103.5088750810703
 21
41.03029865430056
 31
0.0
100
AcDbAttributeDefinition
280
     0
  3
Norm / Fräsen
  2
NORM1
 70
     0
280
     0
  0
ENDBLK
  5
DF
330
71
100
AcDbEntity
  8
0
100
AcDbBlockEnd
  0
BLOCK
  5
5B
330
5A
100
AcDbEntity
  8
0
100
AcDbBlockBegin
  2
*D14
 70
     1
 10
0.0
 20
0.0
 30
0.0
  3
*D14
  1

  0
LINE
  5
5C
330
5A
100
AcDbEntity
  8
0
 62
     4
370
    -2
100
AcDbLine
 10
149.2635118067258
 20
884.955401866534
 30
0.0
 11
149.2635118067258
 21
856.26988769956
 31
0.0
  0
LINE
  5
5D
330
5A
100
AcDbEntity
  8
0
 62
     4
370
    -2
100
AcDbLine
 10
157.7635118067253
 20
884.955401866534
 30
0.0
 11
157.7635118067253
 21
856.26988769956
 31
0.0
  0
LINE
  5
5E
330
5A
100
AcDbEntity
  8
0
 62
     4
370
    -2
100
AcDbLine
 10
139.2635118067258
 20
858.26988769956
 30
0.0
 11
129.2635118067258
 21
858.26988769956
 31
0.0
  0
LINE
  5
5F
330
5A
100
AcDbEntity
  8
0
 62
     4
370
    -2
100
AcDbLine
 10
167.7635118067253
 20
858.26988769956
 30
0.0
 11
177.7635118067253
 21
858.26988769956
 31
0.0
  0
MTEXT
  5
60
330
5A
100
AcDbEntity
  8
0
 62
     1
100
AcDbMText
 10
176.989866742475
 20
865.6552901552217
 30
0.0
 40
10.0
 41
0.0
 46
0.0
 71
     5
 72
     1
  1
%%c8.5
 73
     1
 44
1.0
  0
LINE
  5
61
330
5A
100
AcDbEntity
  8
0
 62
     4
370
    -2
100
AcDbLine
 10
149.2635118067258
 20
858.26988769956
 30
0.0
 11
157.7635118067253
 21
858.26988769956
 31
0.0
  0
SOLID
  5
62
330
5A
100
AcDbEntity
  8
0
 62
     4
100
AcDbTrace
 10
139.2635118067258
 20
859.9365543662267
 30
0.0
 11
139.2635118067258
 21
856.6032210328934
 31
0.0
 12
149.2635118067258
 22
858.26988769956
 32
0.0
 13
149.2635118067258
 23
858.26988769956
 33
0.0
  0
SOLID
  5
63
330
5A
100
AcDbEntity
  8
0
 62
     4
100
AcDbTrace
 10
167.7635118067253
 20
859.9365543662267
 30
0.0
 11
167.7635118067253
 21
856.6032210328934
 31
0.0
 12
157.7635118067253
 22
858.26988769956
 32
0.0
 13
157.7635118067253
 23
858.26988769956
 33
0.0
  0
POINT
  5
64
330
5A
100
AcDbEntity
  8
Defpoints
 62
     0
100
AcDbPoint
 10
149.2635118067258
 20
886.955401866534
 30
0.0
  0
POINT
  5
66
330
5A
100
AcDbEntity
  8
Defpoints
 62
     0
100
AcDbPoint
 10
157.7635118067253
 20
886.955401866534
 30
0.0
  0
POINT
  5
67
330
5A
100
AcDbEntity
  8
Defpoints
 62
     0
100
AcDbPoint
 10
157.7635118067253
 20
858.26988769956
 30
0.0
  0
ENDBLK
  5
68
330
5A
100
AcDbEntity
  8
0
100
AcDbBlockEnd
  0
ENDSEC
  0
SECTION
  2
ENTITIES
  0
TEXT
  5
53
330
2
100
AcDbEntity
  8
0
100
AcDbText
 10
634.8374040127819
 20
296.0250576865601
 30
0.0
 40
10.0
  1
Optional Stützklappgriff
100
AcDbText
  0
TEXT
  5
54
330
2
100
AcDbEntity
  8
0
100
AcDbText
 10
634.8374040127819
 20
649.2896908688126
 30
0.0
 40
10.0
  1
Optional Stützgriff
100
AcDbText
  0
TEXT
  5
55
330
2
100
AcDbEntity
  8
0
100
AcDbText
 10
497.6861599894509
 20
1011.39295027915
 30
0.0
 40
10.0
  1
Abdeckung im Lieferumfang enthalten
100
AcDbText
  0
TEXT
  5
56
330
2
100
AcDbEntity
  8
0
100
AcDbText
 10
120.3692570234743
 20
942.3673423170548
 30
0.0
 40
10.0
  1
Befestigung
100
AcDbText
  0
DIMENSION
  5
57
102
{ACAD_XDICTIONARY
360
58
102
}
102
{ACAD_REACTORS
330
59
102
}
330
2
100
AcDbEntity
  8
0
100
AcDbDimension
280
     0
  2
*D14
 10
157.7635118067253
 20
858.26988769956
 30
0.0
 11
176.989866742475
 21
865.6552901552217
 31
0.0
 70
   128
  1
%%c<>
 71
     5
 42
8.499999999999545
 73
     0
 74
     0
 75
     0
  3
Wagner$0
100
AcDbAlignedDimension
 13
149.2635118067258
 23
886.955401866534
 33
0.0
 14
157.7635118067253
 24
886.955401866534
 34
0.0
100
AcDbRotatedDimension
1001
ACAD
1000
DSTYLE
1002
{
1070
    40
1040
2.0
1070
    41
1040
5.0
1070
   140
1040
5.0
1002
}
  0
SOLID
  5
6A
330
2
100
AcDbEntity
  8
0
100
AcDbTrace
 10
310.0707906132381
 20
629.1563037210655
 30
0.0
 11
303.7624975361877
 21
626.9999450082151
 31
0.0
 12
300.4475679361624
 22
647.0030035957909
 32
0.0
 13
300.4475679361624
 23
647.0030035957909
 33
0.0
  0
SOLID
  5
6B
330
2
100
AcDbEntity
  8
0
100
AcDbTrace
 10
310.0707906132381
 20
664.8497034705163
 30
0.0
 11
303.7624975361877
 21
667.0060621833666
 31
0.0
 12
300.4475679361624
 22
647.0030035957909
 32
0.0
 13
300.4475679361624
 23
647.0030035957909
 33
0.0
  0
SOLID
  5
6C
330
2
100
AcDbEntity
  8
0
100
AcDbTrace
 10
320.4475679361624
 20
643.6696702624574
 30
0.0
 11
320.4475679361624
 21
650.3363369291244
 31
0.0
 12
300.4475679361624
 22
647.0030035957909
 32
0.0
 13
300.4475679361624
 23
647.0030035957909
 33
0.0
  0
LINE
  5
6D
330
2
100
AcDbEntity
  8
0
100
AcDbLine
 10
300.4475679361624
 20
647.0030035957909
 30
0.0
 11
412.5296136283642
 21
647.0032209912037
 31
0.0
  0
LINE
  5
6E
330
2
100
AcDbEntity
  8
0
100
AcDbLine
 10
300.4475679361624
 20
647.0030035957909
 30
0.0
 11
412.5296136283656
 21
352.2532209912047
 31
0.0
  0
LINE
  5
6F
330
2
100
AcDbEntity
  8
0
100
AcDbLine
 10
420.42961362836
 20
998.0030035957904
 30
0.0
 11
300.4475679361624
 21
647.0030035957909
 31
0.0
  0
INSERT
  5
70
330
2
100
AcDbEntity
  8
0
100
AcDbBlockReference
 66
     1
  2
DIN A4
 10
-79.76644659370504
 20
-237.7442231925979
 30
0.0
 41
5.0
 42
5.0
 43
5.0
  0
ATTRIB
  5
E0
330
70
100
AcDbEntity
  8
06-99
100
AcDbText
 10
502.7108246633583
 20
-106.8050397706744
 30
0.0
 40
20.0
  1
Vormontageplatte BA017
 41
0.9
  7
ROMANS8
100
AcDbAttribute
280
     0
  2
TEILE
 70
     0
280
     0
  0
ATTRIB
  5
E1
330
70
100
AcDbEntity
  8
06-99
100
AcDbText
 10
502.7108246633583
 20
-141.2668407621034
 30
0.0
 40
20.0
  1

 41
0.9
  7
ROMANS8
100
AcDbAttribute
280
     0
  2
TEILE2
 70
     0
280
     0
  0
ATTRIB
  5
E2
330
70
100
AcDbEntity
  8
06-99
100
AcDbText
 10
876.9705220260453
 20
-11.07756659041877
 30
0.0
 40
16.875
  1
1:5
  7
ROMANS8
100
AcDbAttribute
280
     0
  2
:
 70
     0
280
     0
  0
ATTRIB
  5
E3
330
70
100
AcDbEntity
  8
06-99
100
AcDbText
 10
385.2189299643096
 20
-100.535805916929
 30
0.0
 40
12.5
  1
Häberle
 41
0.9
  7
ROMANS8
100
AcDbAttribute
280
     0
  2
NAME
 70
     0
280
     0
  0
ATTRIB
  5
E4
330
70
100
AcDbEntity
  8
06-99
100
AcDbText
 10
317.6993232269428
 20
-100.4380573865293
 30
0.0
 40
12.5
  1
29.09.2014
 50
359.9144597696142
 41
0.5524647187174878
  7
ROMANS8
 72
     5
 11
373.9322765696666
 21
-100.5220109237521
 31
0.0
100
AcDbAttribute
280
     0
  2
DATUM
 70
     0
280
     0
  0
ATTRIB
  5
E5
330
70
100
AcDbEntity
  8
06-99
100
AcDbText
 10
812.7653108032637
 20
-200.2797342556419
 30
0.0
 40
14.9688
  1
600017
  7
ROMANS8
100
AcDbAttribute
280
     0
  2
ID.NR
 70
     0
280
     0
  0
ATTRIB
  5
E6
330
70
100
AcDbEntity
  8
06-99
100
AcDbText
 10
503.8899222460254
 20
-49.41090003486317
 30
0.0
 40
15.0
  1

 41
0.9
  7
ROMANS8
100
AcDbAttribute
280
     0
  2
LÄNGE
 70
     0
280
     0
  0
ATTRIB
  5
E7
330
70
100
AcDbEntity
  8
06-99
100
AcDbText
 10
671.1376155263212
 20
-49.35371390486134
 30
0.0
 40
15.0
  1

 41
0.9
  7
ROMANS8
100
AcDbAttribute
280
     0
  2
BREITE
 70
     0
280
     0
  0
ATTRIB
  5
E8
330
70
100
AcDbEntity
  8
06-99
100
AcDbText
 10
873.2790516011318
 20
-49.41089992375163
 30
0.0
 40
15.46875
  1

  7
ROMANS8
100
AcDbAttribute
280
     0
  2
1.0
 70
     0
280
     0
  0
ATTRIB
  5
E9
330
70
100
AcDbEntity
  8
06-99
100
AcDbText
 10
740.8725189744859
 20
-11.0775665904182
 30
0.0
 40
15.0
  1

  7
ROMANS8
 72
     1
 11
740.8725189744859
 21
-11.0775665904182
 31
0.0
100
AcDbAttribute
280
     0
  2
IV
 70
     0
280
     0
  0
ATTRIB
  5
EA
330
70
100
AcDbEntity
  8
06-99
100
AcDbText
 10
536.6072936480518
 20
-11.07756659041891
 30
0.0
 40
16.875
  1
1.4301
  7
ROMANS8
100
AcDbAttribute
280
     0
  2
1.4301
 70
     0
280
     0
  0
ATTRIB
  5
EB
330
70
100
AcDbEntity
  8
06-99
100
AcDbText
 10
650.2367604018729
 20
-200.2222502353123
 30
0.0
 40
15.84
  1

 41
0.9000000000000001
  7
ROMANS8
100
AcDbAttribute
280
     0
  2
AUFTRAGS.NR.
 70
     0
280
     0
  0
ATTRIB
  5
EC
330
70
100
AcDbEntity
  8
06-99
100
AcDbText
 10
502.7335909674725
 20
-200.2442332570853
 30
0.0
 40
15.84
  1

 41
0.9000000000000001
  7
ROMANS8
100
AcDbAttribute
280
     0
  2
SONDER-NR
 70
     0
280
     0
  0
ATTRIB
  5
ED
330
70
100
AcDbEntity
  8
06-99
100
AcDbText
 10
152.732345942514
 20
-204.7351829107861
 30
0.0
 40
7.5
  1

 41
0.9
  7
ROMANS8
100
AcDbAttribute
280
     0
  2
ERSETZT.DURCH
 70
     0
280
     0
  0
ATTRIB
  5
EE
330
70
100
AcDbEntity
  8
06-99
100
AcDbText
 10
27.73092986846518
 20
-204.7569512677233
 30
0.0
 40
7.5
  1

 41
0.9
  7
ROMANS8
100
AcDbAttribute
280
     0
  2
ERSETZT.FÜR
 70
     0
280
     0
  0
ATTRIB
  5
EF
330
70
100
AcDbEntity
  8
06-99
100
AcDbText
 10
420.0989541996603
 20
0.5983224429545544
 30
0.0
 40
6.435
  1
DIN A4
  7
ROMANS8
 72
     1
 11
436.4928827710889
 21
0.5983224429545544
 31
0.0
100
AcDbAttribute
280
     0
  2
FORMAT
 70
     0
280
     0
  0
ATTRIB
  5
F0
330
70
100
AcDbEntity
  8
06-99
100
AcDbText
 10
400.170785954504
 20
-51.75939658776167
 30
0.0
 40
11.7
  1
DIN 2768
  7
ROMANS8
 72
     1
 11
440.2850716687896
 21
-51.75939658776167
 31
0.0
100
AcDbAttribute
280
     0
  2
NORM2
 70
     0
280
     0
  0
ATTRIB
  5
F1
330
70
100
AcDbEntity
  8
06-99
100
AcDbText
 10
384.2922145259324
 20
-32.5927299210951
 30
0.0
 40
11.7
  1
DIN 6930-M
  7
ROMANS8
 72
     1
 11
437.7779288116466
 21
-32.5927299210951
 31
0.0
100
AcDbAttribute
280
     0
  2
NORM1
 70
     0
280
     0
  0
SEQEND
  5
F2
330
70
100
AcDbEntity
  8
0
  0
LINE
  5
F3
330
2
100
AcDbEntity
  8
05-01
 48
10.0
100
AcDbLine
 10
602.4296136283647
 20
238.8030035957913
 30
0.0
 11
602.4296136283647
 21
351.8030035957913
 31
0.0
  0
LINE
  5
F7
330
2
100
AcDbEntity
  8
05-01
 48
10.0
100
AcDbLine
 10
592.4296136283646
 20
351.8030035957913
 30
0.0
 11
592.4296136283646
 21
238.8030035957913
 31
0.0
  0
LINE
  5
F8
330
2
100
AcDbEntity
  8
05-01
 48
10.0
100
AcDbLine
 10
427.1227391992442
 20
222.8030035957913
 30
0.0
 11
447.9763227033409
 21
222.8030035957913
 31
0.0
  0
LINE
  5
F9
330
2
100
AcDbEntity
  8
05-01
 48
10.0
100
AcDbLine
 10
428.6296136283644
 20
236.8030035957913
 30
0.0
 11
428.6296136283644
 21
208.8030035957913
 31
0.0
  0
ARC
  5
FA
330
2
100
AcDbEntity
  8
05-01
 48
10.0
100
AcDbCircle
 10
430.6296136283645
 20
208.8030035957913
 30
0.0
 40
2.0
100
AcDbArc
 50
180.0
 51
270.0
  0
LINE
  5
FB
330
2
100
AcDbEntity
  8
05-01
 48
10.0
100
AcDbLine
 10
431.6296136283645
 20
206.8030035957913
 30
0.0
 11
430.6296136283645
 21
206.8030035957913
 31
0.0
  0
ARC
  5
FC
330
2
100
AcDbEntity
  8
05-01
 48
10.0
100
AcDbCircle
 10
430.6296136283645
 20
236.8030035957913
 30
0.0
 40
2.0
100
AcDbArc
 50
90.0
 51
180.0
  0
LINE
  5
FD
330
2
100
AcDbEntity
  8
05-01
 48
10.0
100
AcDbLine
 10
431.6296136283645
 20
238.8030035957913
 30
0.0
 11
430.6296136283645
 21
238.8030035957913
 31
0.0
  0
LINE
  5
FE
330
2
100
AcDbEntity
  8
05-01
 48
10.0
100
AcDbLine
 10
431.6296136283645
 20
238.8030035957913
 30
0.0
 11
431.6296136283645
 21
206.8030035957913
 31
0.0
  0
LINE
  5
FF
330
2
100
AcDbEntity
  8
05-01
 48
10.0
100
AcDbLine
 10
602.4296136283647
 20
351.8030035957913
 30
0.0
 11
592.4296136283646
 21
351.8030035957913
 31
0.0
  0
LINE
  5
100
330
2
100
AcDbEntity
  8
05-01
 48
10.0
100
AcDbLine
 10
592.4296136283646
 20
238.8030035957913
 30
0.0
 11
602.4296136283647
 21
238.8030035957913
 31
0.0
  0
LINE
  5
101
330
2
100
AcDbEntity
  8
05-01
 48
10.0
100
AcDbLine
 10
431.629613628364
 20
238.8030035957913
 30
0.0
 11
431.6296136283645
 21
206.8030035957913
 31
0.0
  0
LINE
  5
102
330
2
100
AcDbEntity
  8
05-01
 48
10.0
100
AcDbLine
 10
492.4296136283642
 20
383.8030035957913
 30
0.0
 11
492.4296136283646
 21
351.8030035957913
 31
0.0
  0
ARC
  5
103
330
2
100
AcDbEntity
  8
05-01
 48
10.0
100
AcDbCircle
 10
825.9296136283646
 20
295.3030035957913
 30
0.0
 40
56.5
100
AcDbArc
 50
270.0
 51
90.0
  0
ARC
  5
104
330
2
100
AcDbEntity
  8
05-01
 48
10.0
100
AcDbCircle
 10
825.9296136283646
 20
295.3030035957913
 30
0.0
 40
88.49999999999999
100
AcDbArc
 50
270.0
 51
90.0
  0
LINE
  5
105
330
2
100
AcDbEntity
  8
05-01
 48
10.0
100
AcDbLine
 10
492.4296136283646
 20
351.8030035957913
 30
0.0
 11
825.9296136283646
 21
351.8030035957913
 31
0.0
  0
LINE
  5
106
330
2
100
AcDbEntity
  8
05-01
 48
10.0
100
AcDbLine
 10
492.4296136283642
 20
383.8030035957913
 30
0.0
 11
825.9296136283646
 21
383.8030035957913
 31
0.0
  0
LINE
  5
107
330
2
100
AcDbEntity
  8
05-01
 48
10.0
100
AcDbLine
 10
825.9296136283646
 20
238.8030035957913
 30
0.0
 11
431.6296136283645
 21
238.8030035957913
 31
0.0
  0
LINE
  5
108
330
2
100
AcDbEntity
  8
05-01
 48
10.0
100
AcDbLine
 10
825.9296136283646
 20
206.8030035957913
 30
0.0
 11
431.6296136283645
 21
206.8030035957913
 31
0.0
  0
LINE
  5
109
330
2
100
AcDbEntity
  8
05-01
 48
10.0
100
AcDbLine
 10
431.6296136283645
 20
222.8030035957913
 30
0.0
 11
825.9296136283646
 21
222.8030035957913
 31
0.0
  0
LINE
  5
10A
330
2
100
AcDbEntity
  8
05-01
 48
10.0
100
AcDbLine
 10
437.4296136283646
 20
367.8030035957913
 30
0.0
 11
825.9296136283646
 21
367.8030035957913
 31
0.0
  0
ARC
  5
10B
330
2
100
AcDbEntity
  8
05-01
 48
10.0
100
AcDbCircle
 10
825.9296136283646
 20
295.3030035957913
 30
0.0
 40
72.5
100
AcDbArc
 50
270.0
 51
90.0
  0
LWPOLYLINE
  5
10C
330
2
100
AcDbEntity
  8
05-01
 48
10.0
100
AcDbPolyline
 90
       13
 70
   128
 43
0.0
 10
480.038975422136
 20
366.3849116783918
 10
479.9160745097037
 20
365.7551846619213
 10
479.7528470509405
 20
365.1346316596196
 10
479.3105554578992
 20
363.9094173858562
 10
478.7850811714752
 20
362.8130561701478
 10
478.1727236327997
 20
361.7621733400724
 10
477.4773335040699
 20
360.7340775265388
 10
476.7252993022825
 20
359.7463440820525
 10
475.5424697455528
 20
358.3577203034515
 10
474.2868317079423
 20
357.0322940441952
 10
472.9779901111401
 20
355.760077861562
 10
470.916657087685
 20
353.9058100663228
 10
469.4296136283664
 20
352.6629584892294
  0
LWPOLYLINE
  5
10D
330
2
100
AcDbEntity
  8
05-01
 48
10.0
100
AcDbPolyline
 90
       13
 70
   128
 43
0.0
 10
468.429896602724
 20
383.827511255317
 10
470.8938386699465
 20
381.7688890398699
 10
472.9340671217064
 20
379.9361807284336
 10
474.2585971528906
 20
378.6512821709607
 10
475.5290567704164
 20
377.3122125062769
 10
476.7252993022889
 20
375.9086784285742
 10
477.4639400538399
 20
374.9394955560515
 10
478.1482590666619
 20
373.9315031653682
 10
478.7743147188743
 20
372.8621318171504
 10
479.3105554579069
 20
371.7456051247614
 10
479.7474035668697
 20
370.5386911668452
 10
479.9139324405837
 20
369.9091394761513
 10
480.03897542213
 20
369.2701108322785
  0
LWPOLYLINE
  5
10E
330
2
100
AcDbEntity
  8
05-01
 48
10.0
100
AcDbPolyline
 90
        4
 70
   128
 43
0.0
 10
480.03897542213
 20
369.2701108322785
 10
480.2072163925617
 20
368.2843153771341
 10
480.2845737605561
 20
367.8520189148426
 10
480.28897542213
 20
367.827511255317
  0
ARC
  5
10F
330
2
100
AcDbEntity
  8
05-01
 48
10.0
100
AcDbCircle
 10
582.8362512862035
 20
349.313284464803
 30
0.0
 40
104.205184039917
100
AcDbArc
 50
169.7658755292057
 51
170.5708981785441
  0
LWPOLYLINE
  5
110
330
2
100
AcDbEntity
  8
05-01
 48
10.0
100
AcDbPolyline
 90
       13
 70
   128
 43
0.0
 10
480.038975422136
 20
369.2701108322422
 10
479.9160745097037
 20
369.8998378487126
 10
479.7528470509405
 20
370.5203908510143
 10
479.3105554578992
 20
371.7456051247777
 10
478.7850811714756
 20
372.8419663404861
 10
478.1727236327997
 20
373.8928491705615
 10
477.4773335040699
 20
374.9209449840951
 10
476.7252993022825
 20
375.9086784285814
 10
475.5424697455528
 20
377.2973022071824
 10
474.2868317079423
 20
378.6227284664387
 10
472.9779901111401
 20
379.8949446490719
 10
470.9166570876854
 20
381.7492124443111
 10
468.7889632710135
 20
383.5275112553159
  0
LINE
  5
111
330
2
100
AcDbEntity
  8
05-01
 48
10.0
100
AcDbLine
 10
480.2845737605561
 20
351.8030035957913
 30
0.0
 11
480.2845737605561
 21
383.8030035957913
 31
0.0
  0
LINE
  5
112
330
2
100
AcDbEntity
  8
05-01
 48
10.0
100
AcDbLine
 10
492.4296136283642
 20
351.8030035957913
 30
0.0
 11
492.4296136283646
 21
383.8030035957913
 31
0.0
  0
LINE
  5
113
330
2
100
AcDbEntity
  8
05-01
 48
10.0
100
AcDbLine
 10
464.4296136283647
 20
383.8030035957913
 30
0.0
 11
492.4296136283646
 21
383.8030035957913
 31
0.0
  0
LINE
  5
114
330
2
100
AcDbEntity
  8
05-01
 48
10.0
100
AcDbLine
 10
492.4296136283646
 20
351.8030035957913
 30
0.0
 11
469.4296136283655
 21
351.8030035957913
 31
0.0
  0
LINE
  5
115
330
2
100
AcDbEntity
  8
05-01
 48
10.0
100
AcDbLine
 10
453.4296136283646
 20
351.8030035957913
 30
0.0
 11
453.4296136283646
 21
383.8030035957913
 31
0.0
  0
ARC
  5
116
330
2
100
AcDbEntity
  8
05-01
 48
10.0
100
AcDbCircle
 10
414.5296136283623
 20
349.753003595792
 30
0.0
 40
0.1
100
AcDbArc
 50
90.0
 51
180.0
1001
AcDbBlockRepETag
1070
     1
1071
       22
1005
0
  0
LINE
  5
118
330
2
100
AcDbEntity
  8
05-01
 48
10.0
100
AcDbLine
 10
428.1296136283627
 20
320.2030035957928
 30
0.0
 11
428.1296136283627
 21
349.8530035957942
 31
0.0
1001
AcDbBlockRepETag
1070
     1
1071
       21
1005
0
  0
LINE
  5
119
330
2
100
AcDbEntity
  8
05-01
 48
10.0
100
AcDbLine
 10
414.4296136283619
 20
171.0030035957948
 30
0.0
 11
414.4296136283619
 21
349.753003595792
 31
0.0
1001
AcDbBlockRepETag
1070
     1
1071
       20
1005
0
  0
LINE
  5
11A
330
2
100
AcDbEntity
  8
05-01
 48
10.0
100
AcDbLine
 10
428.6296136283627
 20
320.2030035957928
 30
0.0
 11
428.1296136283627
 21
320.2030035957928
 31
0.0
1001
AcDbBlockRepETag
1070
     1
1071
       18
1005
0
  0
LINE
  5
11B
330
2
100
AcDbEntity
  8
05-01
 48
10.0
100
AcDbLine
 10
414.4296136283619
 20
171.0030035957948
 30
0.0
 11
428.6296136283627
 21
171.0030035957929
 31
0.0
1001
AcDbBlockRepETag
1070
     1
1071
       17
1005
0
  0
LINE
  5
11C
330
2
100
AcDbEntity
  8
05-01
 48
10.0
100
AcDbLine
 10
428.6296136283627
 20
171.0030035957929
 30
0.0
 11
428.6296136283627
 21
320.2030035957928
 31
0.0
1001
AcDbBlockRepETag
1070
     1
1071
       15
1005
0
  0
LINE
  5
11D
330
2
100
AcDbEntity
  8
05-01
 48
10.0
100
AcDbLine
 10
414.5296136283623
 20
349.8530035957942
 30
0.0
 11
428.1296136283627
 21
349.8530035957924
 31
0.0
1001
AcDbBlockRepETag
1070
     1
1071
       11
1005
0
  0
LINE
  5
11E
330
2
100
AcDbEntity
  8
05-01
 48
10.0
100
AcDbLine
 10
414.5296136283623
 20
349.8530035957924
 30
0.0
 11
428.1296136283627
 21
349.8530035957924
 31
0.0
1001
AcDbBlockRepETag
1070
     1
1071
       19
1005
0
  0
ARC
  5
11F
330
2
100
AcDbEntity
  8
05-01
 48
10.0
100
AcDbCircle
 10
414.5296136283623
 20
349.9530035957946
 30
0.0
 40
0.1
100
AcDbArc
 50
180.0
 51
270.0
1001
AcDbBlockRepETag
1070
     1
1071
       13
1005
0
  0
LINE
  5
120
330
2
100
AcDbEntity
  8
05-01
 48
10.0
100
AcDbLine
 10
428.6296136283608
 20
381.3030035957932
 30
0.0
 11
428.1296136283627
 21
381.3030035957932
 31
0.0
1001
AcDbBlockRepETag
1070
     1
1071
       12
1005
0
  0
LINE
  5
121
330
2
100
AcDbEntity
  8
05-01
 48
10.0
100
AcDbLine
 10
414.4296136283619
 20
421.0030035957934
 30
0.0
 11
428.6296136283608
 21
421.0030035957916
 31
0.0
1001
AcDbBlockRepETag
1070
     1
1071
        5
1005
0
  0
LINE
  5
122
330
2
100
AcDbEntity
  8
05-01
 48
10.0
100
AcDbLine
 10
428.1296136283627
 20
349.8530035957924
 30
0.0
 11
428.1296136283627
 21
381.3030035957932
 31
0.0
1001
AcDbBlockRepETag
1070
     1
1071
        3
1005
0
  0
LINE
  5
123
330
2
100
AcDbEntity
  8
05-01
 48
10.0
100
AcDbLine
 10
414.4296136283619
 20
349.9530035957946
 30
0.0
 11
414.4296136283619
 21
421.0030035957916
 31
0.0
1001
AcDbBlockRepETag
1070
     1
1071
        2
1005
0
  0
LINE
  5
124
330
2
100
AcDbEntity
  8
05-01
 48
10.0
100
AcDbLine
 10
428.6296136283608
 20
381.3030035957932
 30
0.0
 11
428.6296136283608
 21
421.0030035957916
 31
0.0
1001
AcDbBlockRepETag
1070
     1
1071
        1
1005
0
  0
LINE
  5
125
330
2
100
AcDbEntity
  8
05-01
 48
10.0
100
AcDbLine
 10
412.5296136283655
 20
183.5032209912047
 30
0.0
 11
412.5296136283659
 21
296.0032209912047
 31
0.0
  0
LINE
  5
126
330
2
100
AcDbEntity
  8
05-01
 48
10.0
100
AcDbLine
 10
414.4296136283619
 20
173.919488664867
 30
0.0
 11
414.0296136283654
 21
173.9334569726466
 31
0.0
  0
LINE
  5
127
330
2
100
AcDbEntity
  8
05-01
 48
10.0
100
AcDbLine
 10
414.0296136283654
 20
173.9334569726466
 30
0.0
 11
414.0296136283654
 21
296.0032209912047
 31
0.0
  0
LINE
  5
128
330
2
100
AcDbEntity
  8
05-01
 48
10.0
100
AcDbLine
 10
414.0296136283654
 20
181.5032209912047
 30
0.0
 11
413.5296136283654
 21
181.5032209912047
 31
0.0
  0
LINE
  5
129
330
2
100
AcDbEntity
  8
05-01
 48
10.0
100
AcDbLine
 10
413.5296136283654
 20
296.0032209912065
 30
0.0
 11
413.5296136283654
 21
181.5032209912047
 31
0.0
  0
LINE
  5
12A
330
2
100
AcDbEntity
  8
05-01
 48
10.0
100
AcDbLine
 10
413.529613628365
 20
183.201029065804
 30
0.0
 11
412.6535664017155
 21
183.3554998282057
 31
0.0
  0
ARC
  5
12B
330
2
100
AcDbEntity
  8
05-01
 48
10.0
100
AcDbCircle
 10
412.6796136283656
 20
183.5032209912047
 30
0.0
 40
0.15
100
AcDbArc
 50
180.0
 51
259.9999999999948
  0
LINE
  5
12C
330
2
100
AcDbEntity
  8
05-01
 48
10.0
100
AcDbLine
 10
412.5296136283655
 20
408.5032209912046
 30
0.0
 11
412.5296136283659
 21
296.0032209912047
 31
0.0
  0
LINE
  5
12D
330
2
100
AcDbEntity
  8
05-01
 48
10.0
100
AcDbLine
 10
414.4296136283619
 20
418.0869533175427
 30
0.0
 11
414.0296136283654
 21
418.0729850097632
 31
0.0
  0
LINE
  5
12E
330
2
100
AcDbEntity
  8
05-01
 48
10.0
100
AcDbLine
 10
414.0296136283654
 20
418.0729850097632
 30
0.0
 11
414.0296136283654
 21
296.0032209912047
 31
0.0
  0
LINE
  5
12F
330
2
100
AcDbEntity
  8
05-01
 48
10.0
100
AcDbLine
 10
414.0296136283654
 20
410.5032209912046
 30
0.0
 11
413.5296136283654
 21
410.5032209912046
 31
0.0
  0
LINE
  5
130
330
2
100
AcDbEntity
  8
05-01
 48
10.0
100
AcDbLine
 10
413.5296136283654
 20
296.0032209912029
 30
0.0
 11
413.5296136283654
 21
410.5032209912046
 31
0.0
  0
LINE
  5
131
330
2
100
AcDbEntity
  8
05-01
 48
10.0
100
AcDbLine
 10
413.529613628365
 20
408.8054129166052
 30
0.0
 11
412.6535664017155
 21
408.6509421542037
 31
0.0
  0
ARC
  5
132
330
2
100
AcDbEntity
  8
05-01
 48
10.0
100
AcDbCircle
 10
412.6796136283656
 20
408.5032209912046
 30
0.0
 40
0.15
100
AcDbArc
 50
100.0000000000051
 51
180.0
  0
LINE
  5
133
330
2
100
AcDbEntity
  8
05-01
 48
10.0
100
AcDbLine
 10
428.6296136283636
 20
383.8030035957931
 30
0.0
 11
428.6296136283636
 21
381.3030035957932
 31
0.0
  0
ARC
  5
134
330
2
100
AcDbEntity
  8
05-01
 48
10.0
100
AcDbCircle
 10
464.4296136283647
 20
378.8030035957913
 30
0.0
 40
5.0
100
AcDbArc
 50
0.0
 51
90.0
  0
LINE
  5
135
330
2
100
AcDbEntity
  8
05-01
 48
10.0
100
AcDbLine
 10
464.4296136283647
 20
383.8030035957913
 30
0.0
 11
428.6296136283636
 21
383.8030035957913
 31
0.0
  0
LINE
  5
136
330
2
100
AcDbEntity
  8
05-01
 48
10.0
100
AcDbLine
 10
428.6296136283617
 20
317.8030035957913
 30
0.0
 11
464.4296136283656
 21
317.8030035957913
 31
0.0
  0
ARC
  5
137
330
2
100
AcDbEntity
  8
05-01
 48
10.0
100
AcDbCircle
 10
453.4298339888692
 20
367.802935845692
 30
0.0
 40
15.99977963963942
100
AcDbArc
 50
359.9997574369873
 51
0.00024261553971
  0
ARC
  5
138
330
2
100
AcDbEntity
  8
05-01
 48
10.0
100
AcDbCircle
 10
464.4296136283656
 20
322.8030035957913
 30
0.0
 40
5.0
100
AcDbArc
 50
270.0
 51
0.0
  0
LINE
  5
139
330
2
100
AcDbEntity
  8
05-01
 48
10.0
100
AcDbLine
 10
469.4296136283655
 20
322.8030035957913
 30
0.0
 11
469.4296136283664
 21
378.8030035957913
 31
0.0
  0
LINE
  5
13A
330
2
100
AcDbEntity
  8
05-01
 48
10.0
100
AcDbLine
 10
428.629613628359
 20
593.0030035957902
 30
0.0
 11
431.129613628359
 21
590.5030035957902
 31
0.0
1001
AcDbBlockRepETag
1070
     1
1071
       15
1005
14C
  0
LINE
  5
13B
330
2
100
AcDbEntity
  8
05-01
 48
10.0
100
AcDbLine
 10
428.629613628359
 20
556.0030035957902
 30
0.0
 11
431.129613628359
 21
558.5030035957902
 31
0.0
1001
AcDbBlockRepETag
1070
     1
1071
       14
1005
14D
  0
LINE
  5
13C
330
2
100
AcDbEntity
  8
05-01
 48
10.0
100
AcDbLine
 10
431.129613628359
 20
590.5030035957902
 30
0.0
 11
431.129613628359
 21
558.5030035957902
 31
0.0
1001
AcDbBlockRepETag
1070
     1
1071
        3
1005
14E
  0
LINE
  5
13D
330
2
100
AcDbEntity
  8
05-01
 48
10.0
100
AcDbLine
 10
414.4296136283601
 20
521.0030035957934
 30
0.0
 11
428.6296136283608
 21
521.0030035957916
 31
0.0
1001
AcDbBlockRepETag
1070
     1
1071
       17
1005
0
  0
LINE
  5
13E
330
2
100
AcDbEntity
  8
05-01
 48
10.0
100
AcDbLine
 10
414.4296136283601
 20
773.003003595792
 30
0.0
 11
428.629613628359
 21
773.0030035957902
 31
0.0
1001
AcDbBlockRepETag
1070
     1
1071
        5
1005
0
  0
LINE
  5
13F
330
2
100
AcDbEntity
  8
05-01
 48
10.0
100
AcDbLine
 10
414.4296136283603
 20
521.0030035957934
 30
0.0
 11
414.4296136283601
 21
773.0030035957902
 31
0.0
1001
AcDbBlockRepETag
1070
     1
1071
        2
1005
0
  0
LINE
  5
140
330
2
100
AcDbEntity
  8
05-01
 48
10.0
100
AcDbLine
 10
428.629613628359
 20
521.0030035957916
 30
0.0
 11
428.629613628359
 21
773.0030035957902
 31
0.0
1001
AcDbBlockRepETag
1070
     1
1071
        1
1005
0
  0
LINE
  5
141
330
2
100
AcDbEntity
  8
05-01
 48
10.0
100
AcDbLine
 10
414.4296136283601
 20
524.9194886648656
 30
0.0
 11
414.0296136283637
 21
524.9334569726451
 31
0.0
  0
LINE
  5
142
330
2
100
AcDbEntity
  8
05-01
 48
10.0
100
AcDbLine
 10
414.0296136283637
 20
532.5032209912037
 30
0.0
 11
413.5296136283637
 21
532.5032209912037
 31
0.0
  0
LINE
  5
143
330
2
100
AcDbEntity
  8
05-01
 48
10.0
100
AcDbLine
 10
413.5296136283632
 20
534.2010290658031
 30
0.0
 11
412.6535664017137
 21
534.3554998282047
 31
0.0
  0
ARC
  5
144
330
2
100
AcDbEntity
  8
05-01
 48
10.0
100
AcDbCircle
 10
412.6796136283637
 20
534.5032209912037
 30
0.0
 40
0.15
100
AcDbArc
 50
180.0
 51
259.9999999999948
  0
LINE
  5
145
330
2
100
AcDbEntity
  8
05-01
 48
10.0
100
AcDbLine
 10
412.5296136283636
 20
759.5032209912037
 30
0.0
 11
412.5296136283647
 21
534.5032209912037
 31
0.0
  0
LINE
  5
146
330
2
100
AcDbEntity
  8
05-01
 48
10.0
100
AcDbLine
 10
414.4296136283601
 20
769.0869533175414
 30
0.0
 11
414.0296136283637
 21
769.0729850097619
 31
0.0
  0
LINE
  5
147
330
2
100
AcDbEntity
  8
05-01
 48
10.0
100
AcDbLine
 10
414.0296136283637
 20
769.0729850097619
 30
0.0
 11
414.0296136283637
 21
524.9334569726451
 31
0.0
  0
LINE
  5
148
330
2
100
AcDbEntity
  8
05-01
 48
10.0
100
AcDbLine
 10
414.0296136283637
 20
761.5032209912037
 30
0.0
 11
413.5296136283637
 21
761.5032209912037
 31
0.0
  0
LINE
  5
149
330
2
100
AcDbEntity
  8
05-01
 48
10.0
100
AcDbLine
 10
413.5296136283637
 20
532.5032209912037
 30
0.0
 11
413.5296136283637
 21
761.5032209912037
 31
0.0
  0
LINE
  5
14A
330
2
100
AcDbEntity
  8
05-01
 48
10.0
100
AcDbLine
 10
413.5296136283632
 20
759.8054129166044
 30
0.0
 11
412.6535664017137
 21
759.6509421542028
 31
0.0
  0
ARC
  5
14B
330
2
100
AcDbEntity
  8
05-01
 48
10.0
100
AcDbCircle
 10
412.6796136283637
 20
759.5032209912037
 30
0.0
 40
0.15
100
AcDbArc
 50
100.0000000000051
 51
180.0
  0
LINE
  5
14C
330
2
100
AcDbEntity
  8
05-01
 48
10.0
100
AcDbLine
 10
428.629613628359
 20
738.0030035957902
 30
0.0
 11
431.129613628359
 21
735.5030035957902
 31
0.0
1001
AcDbBlockRepETag
1070
     1
1071
       15
1005
14C
  0
LINE
  5
14D
330
2
100
AcDbEntity
  8
05-01
 48
10.0
100
AcDbLine
 10
428.629613628359
 20
701.0030035957902
 30
0.0
 11
431.129613628359
 21
703.5030035957902
 31
0.0
1001
AcDbBlockRepETag
1070
     1
1071
       14
1005
14D
  0
LINE
  5
14E
330
2
100
AcDbEntity
  8
05-01
 48
10.0
100
AcDbLine
 10
431.129613628359
 20
735.5030035957902
 30
0.0
 11
431.129613628359
 21
703.5030035957902
 31
0.0
1001
AcDbBlockRepETag
1070
     1
1071
        3
1005
14E
  0
LINE
  5
14F
330
2
100
AcDbEntity
  8
05-01
 48
10.0
100
AcDbLine
 10
602.8296136283611
 20
703.5030035957902
 30
0.0
 11
592.8296136283611
 21
703.5030035957902
 31
0.0
  0
LINE
  5
150
330
2
100
AcDbEntity
  8
05-01
 48
10.0
100
AcDbLine
 10
592.8296136283611
 20
590.5030035957902
 30
0.0
 11
602.8296136283611
 21
590.5030035957902
 31
0.0
  0
ARC
  5
151
330
2
100
AcDbEntity
  8
05-01
 48
10.0
100
AcDbCircle
 10
825.9296136283618
 20
647.0030035957902
 30
0.0
 40
58.5
100
AcDbArc
 50
270.0
 51
90.0
  0
ARC
  5
152
330
2
100
AcDbEntity
  8
05-01
 48
10.0
100
AcDbCircle
 10
825.9296136283618
 20
647.0030035957902
 30
0.0
 40
56.5
100
AcDbArc
 50
270.0
 51
90.0
  0
ARC
  5
153
330
2
100
AcDbEntity
  8
05-01
 48
10.0
100
AcDbCircle
 10
825.9296136283618
 20
647.0030035957902
 30
0.0
 40
86.5
100
AcDbArc
 50
270.0
 51
90.0
  0
ARC
  5
154
330
2
100
AcDbEntity
  8
05-01
 48
10.0
100
AcDbCircle
 10
825.9296136283618
 20
647.0030035957902
 30
0.0
 40
88.49999999999999
100
AcDbArc
 50
270.0
 51
90.0
  0
LINE
  5
155
330
2
100
AcDbEntity
  8
05-01
 48
10.0
100
AcDbLine
 10
431.129613628359
 20
705.5030035957902
 30
0.0
 11
825.9296136283618
 21
705.5030035957902
 31
0.0
  0
LINE
  5
156
330
2
100
AcDbEntity
  8
05-01
 48
10.0
100
AcDbLine
 10
431.129613628359
 20
703.5030035957902
 30
0.0
 11
825.9296136283618
 21
703.5030035957902
 31
0.0
  0
LINE
  5
157
330
2
100
AcDbEntity
  8
05-01
 48
10.0
100
AcDbLine
 10
431.129613628359
 20
733.5030035957902
 30
0.0
 11
825.9296136283618
 21
733.5030035957902
 31
0.0
  0
LINE
  5
158
330
2
100
AcDbEntity
  8
05-01
 48
10.0
100
AcDbLine
 10
431.129613628359
 20
735.5030035957902
 30
0.0
 11
825.9296136283618
 21
735.5030035957902
 31
0.0
  0
LINE
  5
159
330
2
100
AcDbEntity
  8
05-01
 48
10.0
100
AcDbLine
 10
825.9296136283618
 20
588.5030035957902
 30
0.0
 11
431.129613628359
 21
588.5030035957902
 31
0.0
  0
LINE
  5
15A
330
2
100
AcDbEntity
  8
05-01
 48
10.0
100
AcDbLine
 10
825.9296136283618
 20
590.5030035957902
 30
0.0
 11
431.129613628359
 21
590.5030035957902
 31
0.0
  0
LINE
  5
15B
330
2
100
AcDbEntity
  8
05-01
 48
10.0
100
AcDbLine
 10
825.9296136283618
 20
560.5030035957902
 30
0.0
 11
431.129613628359
 21
560.5030035957902
 31
0.0
  0
LINE
  5
15C
330
2
100
AcDbEntity
  8
05-01
 48
10.0
100
AcDbLine
 10
825.9296136283618
 20
558.5030035957902
 30
0.0
 11
431.129613628359
 21
558.5030035957902
 31
0.0
  0
LINE
  5
15D
330
2
100
AcDbEntity
  8
05-01
 48
10.0
100
AcDbLine
 10
431.129613628359
 20
574.5030035957902
 30
0.0
 11
825.9296136283618
 21
574.5030035957902
 31
0.0
  0
LINE
  5
15E
330
2
100
AcDbEntity
  8
05-01
 48
10.0
100
AcDbLine
 10
431.129613628359
 20
719.5030035957902
 30
0.0
 11
825.9296136283618
 21
719.5030035957902
 31
0.0
  0
ARC
  5
15F
330
2
100
AcDbEntity
  8
05-01
 48
10.0
100
AcDbCircle
 10
825.9296136283618
 20
647.0030035957902
 30
0.0
 40
72.5
100
AcDbArc
 50
270.0
 51
90.0
  0
DIMENSION
  5
160
102
{ACAD_XDICTIONARY
360
161
102
}
102
{ACAD_REACTORS
330
162
102
}
330
2
100
AcDbEntity
  8
0
100
AcDbDimension
280
     0
  2
*D12
 10
442.3675318730496
 20
1123.00300359579
 30
0.0
 11
435.2618019958326
 21
998.0030035957904
 31
0.0
 71
     5
 42
250.0000000000001
 73
     0
 74
     0
 75
     0
  3
Wagner$0
100
AcDbAlignedDimension
 13
421.42961362836
 23
873.0030035957902
 33
0.0
 14
421.42961362836
 24
1123.00300359579
 34
0.0
 50
270.0
100
AcDbRotatedDimension
1001
ACAD
1000
DSTYLE
1002
{
1070
    40
1040
2.0
1070
    41
1040
5.0
1070
   140
1040
5.0
1002
}
  0
DIMENSION
  5
16F
102
{ACAD_XDICTIONARY
360
170
102
}
102
{ACAD_REACTORS
330
171
102
}
330
2
100
AcDbEntity
  8
0
100
AcDbDimension
280
     0
  2
*D11
 10
414.42961362836
 20
845.2730437618011
 30
0.0
 11
397.6328176028319
 21
853.115664955764
 31
0.0
 70
   128
 71
     5
 42
7.0
 73
     0
 74
     0
 75
     0
  3
Wagner$0
100
AcDbAlignedDimension
 13
421.42961362836
 23
873.0030035957902
 33
0.0
 14
414.42961362836
 24
873.0030035957902
 34
0.0
100
AcDbRotatedDimension
1001
ACAD
1000
DSTYLE
1002
{
1070
    40
1040
2.0
1070
    41
1040
5.0
1070
   140
1040
5.0
1002
}
  0
LINE
  5
180
330
2
100
AcDbEntity
  8
0
100
AcDbLine
 10
414.42961362836
 20
1123.00300359579
 30
0.0
 11
414.42961362836
 21
1122.00300359579
 31
0.0
  0
LINE
  5
181
102
{ACAD_REACTORS
330
162
102
}
330
2
100
AcDbEntity
  8
0
100
AcDbLine
 10
421.42961362836
 20
1123.00300359579
 30
0.0
 11
414.42961362836
 21
1123.00300359579
 31
0.0
  0
LINE
  5
182
102
{ACAD_REACTORS
330
171
330
162
102
}
330
2
100
AcDbEntity
  8
0
100
AcDbLine
 10
421.42961362836
 20
873.0030035957902
 30
0.0
 11
421.42961362836
 21
1123.00300359579
 31
0.0
  0
LINE
  5
183
102
{ACAD_REACTORS
330
171
102
}
330
2
100
AcDbEntity
  8
0
100
AcDbLine
 10
414.42961362836
 20
873.0030035957902
 30
0.0
 11
421.42961362836
 21
873.0030035957902
 31
0.0
  0
LINE
  5
184
330
2
100
AcDbEntity
  8
0
100
AcDbLine
 10
414.42961362836
 20
874.0030035957902
 30
0.0
 11
414.42961362836
 21
873.0030035957902
 31
0.0
  0
LINE
  5
185
330
2
100
AcDbEntity
  8
0
100
AcDbLine
 10
420.42961362836
 20
874.0030035957902
 30
0.0
 11
414.42961362836
 21
874.0030035957902
 31
0.0
  0
LINE
  5
186
330
2
100
AcDbEntity
  8
0
100
AcDbLine
 10
420.42961362836
 20
1122.00300359579
 30
0.0
 11
420.42961362836
 21
874.0030035957902
 31
0.0
  0
LINE
  5
187
330
2
100
AcDbEntity
  8
0
100
AcDbLine
 10
414.42961362836
 20
1122.00300359579
 30
0.0
 11
420.42961362836
 21
1122.00300359579
 31
0.0
  0
DIMENSION
  5
188
102
{ACAD_XDICTIONARY
360
189
102
}
102
{ACAD_REACTORS
330
18A
102
}
330
2
100
AcDbEntity
  8
0
100
AcDbDimension
280
     0
  2
*D10
 10
343.0439080964613
 20
525.7230035957909
 30
0.0
 11
335.9381782192444
 21
670.1690015176612
 31
0.0
 70
   128
 71
     5
 42
242.5599999999999
 73
     0
 74
     0
 75
     0
  3
Wagner$0
100
AcDbAlignedDimension
 13
298.3846552088336
 23
768.2830035957908
 33
0.0
 14
298.3846552088337
 24
525.7230035957909
 34
0.0
 50
270.0
100
AcDbRotatedDimension
1001
ACAD
1000
DSTYLE
1002
{
1070
    40
1040
2.0
1070
    41
1040
5.0
1070
   140
1040
5.0
1070
   271
1070
     1
1002
}
  0
LINE
  5
197
330
2
100
AcDbEntity
  8
09-01
100
AcDbLine
 10
199.9135118067252
 20
892.1054018665339
 30
0.0
 11
200.7635118067255
 21
892.9554018665342
 31
0.0
  0
LINE
  5
19A
330
2
100
AcDbEntity
  8
09-01
100
AcDbLine
 10
192.2635118067255
 20
892.9554018665342
 30
0.0
 11
193.113511806725
 21
892.1054018665344
 31
0.0
  0
LINE
  5
19B
330
2
100
AcDbEntity
  8
09-01
100
AcDbLine
 10
141.9135118067252
 20
892.1054018665339
 30
0.0
 11
142.7635118067254
 21
892.9554018665342
 31
0.0
  0
LINE
  5
19C
330
2
100
AcDbEntity
  8
09-01
100
AcDbLine
 10
134.2635118067254
 20
892.9554018665342
 30
0.0
 11
135.113511806725
 21
892.1054018665344
 31
0.0
  0
CIRCLE
  5
19D
330
2
100
AcDbEntity
  8
0
100
AcDbCircle
 10
138.5135118067254
 20
537.2530035957908
 30
0.0
 40
4.25
  0
CIRCLE
  5
19E
330
2
100
AcDbEntity
  8
0
100
AcDbCircle
 10
196.5135118067254
 20
537.2530035957908
 30
0.0
 40
4.25
  0
CIRCLE
  5
19F
330
2
100
AcDbEntity
  8
0
100
AcDbCircle
 10
196.5135118067254
 20
647.0030035957909
 30
0.0
 40
4.25
  0
CIRCLE
  5
1A0
330
2
100
AcDbEntity
  8
0
100
AcDbCircle
 10
138.5135118067254
 20
647.0030035957909
 30
0.0
 40
4.25
  0
CIRCLE
  5
1A1
330
2
100
AcDbEntity
  8
0
100
AcDbCircle
 10
138.5135118067254
 20
756.7530035957909
 30
0.0
 40
4.25
  0
CIRCLE
  5
1A2
330
2
100
AcDbEntity
  8
0
100
AcDbCircle
 10
196.5135118067254
 20
756.7530035957909
 30
0.0
 40
4.25
  0
CIRCLE
  5
1A3
330
2
100
AcDbEntity
  8
01-01
100
AcDbCircle
 10
138.5135118067254
 20
537.2530035957908
 30
0.0
 40
3.400000000000034
  0
ARC
  5
1A6
330
2
100
AcDbEntity
  8
0
 62
     4
100
AcDbCircle
 10
138.5135118067254
 20
537.2530035957908
 30
0.0
 40
4.0
100
AcDbArc
 50
349.4844960861005
 51
279.7871892583415
  0
CIRCLE
  5
1A7
330
2
100
AcDbEntity
  8
01-01
100
AcDbCircle
 10
196.5135118067254
 20
537.2530035957908
 30
0.0
 40
3.400000000000034
  0
ARC
  5
1A8
330
2
100
AcDbEntity
  8
0
 62
     4
100
AcDbCircle
 10
196.5135118067254
 20
537.2530035957908
 30
0.0
 40
4.0
100
AcDbArc
 50
349.4844960861005
 51
279.7871892583426
  0
CIRCLE
  5
1A9
330
2
100
AcDbEntity
  8
01-01
100
AcDbCircle
 10
138.5135118067254
 20
647.0030035957909
 30
0.0
 40
3.400000000000034
  0
ARC
  5
1AA
330
2
100
AcDbEntity
  8
0
 62
     4
100
AcDbCircle
 10
138.5135118067254
 20
647.0030035957909
 30
0.0
 40
4.0
100
AcDbArc
 50
349.4844960861005
 51
279.7871892583415
  0
CIRCLE
  5
1AB
330
2
100
AcDbEntity
  8
01-01
100
AcDbCircle
 10
196.5135118067254
 20
647.0030035957909
 30
0.0
 40
3.400000000000034
  0
ARC
  5
1AC
330
2
100
AcDbEntity
  8
0
 62
     4
100
AcDbCircle
 10
196.5135118067254
 20
647.0030035957909
 30
0.0
 40
4.0
100
AcDbArc
 50
349.4844960861005
 51
279.7871892583426
  0
CIRCLE
  5
1AD
330
2
100
AcDbEntity
  8
01-01
100
AcDbCircle
 10
138.5135118067254
 20
756.7530035957909
 30
0.0
 40
3.400000000000034
  0
ARC
  5
1AE
330
2
100
AcDbEntity
  8
0
 62
     4
100
AcDbCircle
 10
138.5135118067254
 20
756.7530035957909
 30
0.0
 40
4.0
100
AcDbArc
 50
349.4844960861005
 51
279.7871892583415
  0
CIRCLE
  5
1AF
330
2
100
AcDbEntity
  8
01-01
100
AcDbCircle
 10
196.5135118067254
 20
756.7530035957909
 30
0.0
 40
3.400000000000034
  0
LINE
  5
1B0
330
2
100
AcDbEntity
  8
03-01
 62
     4
100
AcDbLine
 10
292.3846552088331
 20
541.2530035957908
 30
0.0
 11
298.3846552088333
 21
541.2530035957908
 31
0.0
  0
LINE
  5
1B3
330
2
100
AcDbEntity
  8
03-01
 62
     4
100
AcDbLine
 10
292.3846552088331
 20
533.2530035957907
 30
0.0
 11
298.3846552088333
 21
533.2530035957908
 31
0.0
  0
LINE
  5
1B4
330
2
100
AcDbEntity
  8
03-01
100
AcDbLine
 10
292.3846552088333
 20
533.853003595791
 30
0.0
 11
298.3846552088333
 21
533.853003595791
 31
0.0
  0
LINE
  5
1B5
330
2
100
AcDbEntity
  8
03-01
100
AcDbLine
 10
298.3846552088333
 20
540.6530035957912
 30
0.0
 11
292.3846552088333
 21
540.6530035957912
 31
0.0
  0
LINE
  5
1B6
330
2
100
AcDbEntity
  8
03-01
100
AcDbLine
 10
297.3348740881095
 20
545.2530035957908
 30
0.0
 11
297.3348740881095
 21
529.2530035957908
 31
0.0
  0
LINE
  5
1B7
330
2
100
AcDbEntity
  8
03-01
100
AcDbLine
 10
293.5848740881093
 20
541.5030035957906
 30
0.0
 11
297.3348740881095
 21
545.2530035957908
 31
0.0
  0
LINE
  5
1B8
330
2
100
AcDbEntity
  8
03-01
100
AcDbLine
 10
293.5848740881093
 20
533.0030035957909
 30
0.0
 11
297.3348740881095
 21
529.2530035957908
 31
0.0
  0
LINE
  5
1B9
330
2
100
AcDbEntity
  8
03-01
100
AcDbLine
 10
298.3846552088333
 20
545.2530035957908
 30
0.0
 11
297.3348740881095
 21
545.2530035957908
 31
0.0
  0
LINE
  5
1BA
330
2
100
AcDbEntity
  8
03-01
100
AcDbLine
 10
298.3846552088333
 20
529.2530035957908
 30
0.0
 11
297.3348740881095
 21
529.2530035957908
 31
0.0
  0
LINE
  5
1BB
330
2
100
AcDbEntity
  8
05-01
100
AcDbLine
 10
300.4475679361624
 20
537.2530035957908
 30
0.0
 11
288.1405927473604
 21
537.2530035957908
 31
0.0
  0
LINE
  5
1BC
330
2
100
AcDbEntity
  8
03-01
100
AcDbLine
 10
292.3846552088333
 20
541.5030035957904
 30
0.0
 11
293.5848740881093
 21
541.5030035957904
 31
0.0
  0
LINE
  5
1BD
330
2
100
AcDbEntity
  8
03-01
100
AcDbLine
 10
293.5848740881093
 20
533.0030035957909
 30
0.0
 11
292.3846552088333
 21
533.0030035957909
 31
0.0
  0
LINE
  5
1BE
330
2
100
AcDbEntity
  8
03-01
100
AcDbLine
 10
293.5848740881093
 20
533.0030035957909
 30
0.0
 11
293.5848740881093
 21
541.5030035957904
 31
0.0
  0
LINE
  5
1BF
330
2
100
AcDbEntity
  8
03-01
 62
     4
100
AcDbLine
 10
292.3846552088331
 20
643.0030035957907
 30
0.0
 11
298.3846552088333
 21
643.0030035957907
 31
0.0
  0
LINE
  5
1C0
330
2
100
AcDbEntity
  8
03-01
 62
     4
100
AcDbLine
 10
292.3846552088331
 20
651.0030035957909
 30
0.0
 11
298.3846552088333
 21
651.0030035957909
 31
0.0
  0
LINE
  5
1C1
330
2
100
AcDbEntity
  8
03-01
100
AcDbLine
 10
292.3846552088333
 20
650.4030035957905
 30
0.0
 11
298.3846552088333
 21
650.4030035957905
 31
0.0
  0
LINE
  5
1C2
330
2
100
AcDbEntity
  8
03-01
100
AcDbLine
 10
298.3846552088333
 20
643.6030035957903
 30
0.0
 11
292.3846552088333
 21
643.6030035957903
 31
0.0
  0
LINE
  5
1C3
330
2
100
AcDbEntity
  8
03-01
100
AcDbLine
 10
297.3348740881095
 20
639.0030035957907
 30
0.0
 11
297.3348740881095
 21
655.0030035957907
 31
0.0
  0
LINE
  5
1C4
330
2
100
AcDbEntity
  8
03-01
100
AcDbLine
 10
293.5848740881093
 20
642.7530035957909
 30
0.0
 11
297.3348740881095
 21
639.0030035957907
 31
0.0
  0
LINE
  5
1C5
330
2
100
AcDbEntity
  8
03-01
100
AcDbLine
 10
293.5848740881093
 20
651.2530035957906
 30
0.0
 11
297.3348740881095
 21
655.0030035957907
 31
0.0
  0
LINE
  5
1C6
330
2
100
AcDbEntity
  8
03-01
100
AcDbLine
 10
298.3846552088333
 20
639.0030035957907
 30
0.0
 11
297.3348740881095
 21
639.0030035957907
 31
0.0
  0
LINE
  5
1C7
330
2
100
AcDbEntity
  8
03-01
100
AcDbLine
 10
298.3846552088333
 20
655.0030035957907
 30
0.0
 11
297.3348740881095
 21
655.0030035957907
 31
0.0
  0
LINE
  5
1C8
330
2
100
AcDbEntity
  8
05-01
100
AcDbLine
 10
300.4475679361624
 20
647.0030035957909
 30
0.0
 11
288.1405927473604
 21
647.0030035957909
 31
0.0
  0
LINE
  5
1C9
330
2
100
AcDbEntity
  8
03-01
100
AcDbLine
 10
292.3846552088333
 20
642.7530035957911
 30
0.0
 11
293.5848740881093
 21
642.7530035957911
 31
0.0
  0
LINE
  5
1CA
330
2
100
AcDbEntity
  8
03-01
100
AcDbLine
 10
293.5848740881093
 20
651.2530035957906
 30
0.0
 11
292.3846552088333
 21
651.2530035957906
 31
0.0
  0
LINE
  5
1CB
330
2
100
AcDbEntity
  8
03-01
100
AcDbLine
 10
293.5848740881093
 20
651.2530035957906
 30
0.0
 11
293.5848740881093
 21
642.7530035957911
 31
0.0
  0
LINE
  5
1CC
330
2
100
AcDbEntity
  8
03-01
 62
     4
100
AcDbLine
 10
292.3846552088331
 20
752.7530035957907
 30
0.0
 11
298.3846552088333
 21
752.7530035957907
 31
0.0
  0
LINE
  5
1CD
330
2
100
AcDbEntity
  8
03-01
 62
     4
100
AcDbLine
 10
292.3846552088331
 20
760.7530035957909
 30
0.0
 11
298.3846552088333
 21
760.7530035957909
 31
0.0
  0
LINE
  5
1CE
330
2
100
AcDbEntity
  8
03-01
100
AcDbLine
 10
292.3846552088331
 20
760.1530035957905
 30
0.0
 11
298.3846552088333
 21
760.1530035957905
 31
0.0
  0
LINE
  5
1CF
330
2
100
AcDbEntity
  8
03-01
100
AcDbLine
 10
298.3846552088333
 20
753.3530035957904
 30
0.0
 11
292.3846552088331
 21
753.3530035957904
 31
0.0
  0
LINE
  5
1D0
330
2
100
AcDbEntity
  8
03-01
100
AcDbLine
 10
297.3348740881095
 20
748.7530035957907
 30
0.0
 11
297.3348740881093
 21
764.7530035957906
 31
0.0
  0
LINE
  5
1D1
330
2
100
AcDbEntity
  8
03-01
100
AcDbLine
 10
293.5848740881093
 20
752.5030035957909
 30
0.0
 11
297.3348740881095
 21
748.7530035957907
 31
0.0
  0
LINE
  5
1D2
330
2
100
AcDbEntity
  8
03-01
100
AcDbLine
 10
293.5848740881093
 20
761.0030035957906
 30
0.0
 11
297.3348740881093
 21
764.7530035957906
 31
0.0
  0
LINE
  5
1D3
330
2
100
AcDbEntity
  8
03-01
100
AcDbLine
 10
298.3846552088333
 20
748.7530035957907
 30
0.0
 11
297.3348740881095
 21
748.7530035957907
 31
0.0
  0
LINE
  5
1D4
330
2
100
AcDbEntity
  8
03-01
100
AcDbLine
 10
298.3846552088333
 20
764.7530035957906
 30
0.0
 11
297.3348740881093
 21
764.7530035957906
 31
0.0
  0
LINE
  5
1D5
330
2
100
AcDbEntity
  8
05-01
100
AcDbLine
 10
300.4475679361624
 20
756.7530035957909
 30
0.0
 11
288.1405927473604
 21
756.7530035957909
 31
0.0
  0
LINE
  5
1D6
330
2
100
AcDbEntity
  8
03-01
100
AcDbLine
 10
292.3846552088331
 20
752.5030035957911
 30
0.0
 11
293.5848740881093
 21
752.5030035957911
 31
0.0
  0
LINE
  5
1D7
330
2
100
AcDbEntity
  8
03-01
100
AcDbLine
 10
293.5848740881093
 20
761.0030035957906
 30
0.0
 11
292.3846552088331
 21
761.0030035957906
 31
0.0
  0
LINE
  5
1D8
330
2
100
AcDbEntity
  8
03-01
100
AcDbLine
 10
293.5848740881093
 20
761.0030035957906
 30
0.0
 11
293.5848740881093
 21
752.5030035957911
 31
0.0
  0
LINE
  5
1D9
330
2
100
AcDbEntity
  8
09-01
100
AcDbLine
 10
145.5135118067254
 20
891.9056207458101
 30
0.0
 11
161.5135118067254
 21
891.9056207458101
 31
0.0
  0
LINE
  5
1DA
330
2
100
AcDbEntity
  8
0
100
AcDbLine
 10
149.2635118067255
 20
888.15562074581
 30
0.0
 11
145.5135118067254
 21
891.9056207458101
 31
0.0
  0
LINE
  5
1DB
330
2
100
AcDbEntity
  8
0
100
AcDbLine
 10
157.7635118067253
 20
888.15562074581
 30
0.0
 11
161.5135118067254
 21
891.9056207458101
 31
0.0
  0
LINE
  5
1DC
330
2
100
AcDbEntity
  8
0
100
AcDbLine
 10
145.5135118067254
 20
892.9554018665342
 30
0.0
 11
145.5135118067254
 21
891.9056207458101
 31
0.0
  0
LINE
  5
1DD
330
2
100
AcDbEntity
  8
0
100
AcDbLine
 10
161.5135118067253
 20
892.9554018665342
 30
0.0
 11
161.5135118067254
 21
891.9056207458101
 31
0.0
  0
LINE
  5
1DE
330
2
100
AcDbEntity
  8
05-01
100
AcDbLine
 10
153.5135118067254
 20
895.018314593863
 30
0.0
 11
153.5135118067254
 21
882.7113394050611
 31
0.0
  0
LINE
  5
1DF
102
{ACAD_REACTORS
330
59
102
}
330
2
100
AcDbEntity
  8
0
100
AcDbLine
 10
149.2635118067258
 20
886.955401866534
 30
0.0
 11
149.2635118067258
 21
888.15562074581
 31
0.0
  0
LINE
  5
1E0
102
{ACAD_REACTORS
330
59
102
}
330
2
100
AcDbEntity
  8
0
100
AcDbLine
 10
157.7635118067253
 20
888.15562074581
 30
0.0
 11
157.7635118067253
 21
886.955401866534
 31
0.0
  0
LINE
  5
1E1
330
2
100
AcDbEntity
  8
0
100
AcDbLine
 10
157.7635118067253
 20
888.15562074581
 30
0.0
 11
149.2635118067258
 21
888.15562074581
 31
0.0
  0
LINE
  5
1E2
330
2
100
AcDbEntity
  8
03-01
100
AcDbLine
 10
292.3846552088331
 20
561.4030035957908
 30
0.0
 11
298.3846552088333
 21
561.4030035957908
 31
0.0
  0
LINE
  5
1E3
330
2
100
AcDbEntity
  8
03-01
100
AcDbLine
 10
292.3846552088331
 20
565.603003595791
 30
0.0
 11
298.3846552088333
 21
565.603003595791
 31
0.0
  0
LINE
  5
1E4
330
2
100
AcDbEntity
  8
03-01
 62
     4
100
AcDbLine
 10
292.3846552088333
 20
561.0030035957909
 30
0.0
 11
298.3846552088333
 21
561.0030035957909
 31
0.0
  0
LINE
  5
1E5
330
2
100
AcDbEntity
  8
03-01
 62
     4
100
AcDbLine
 10
292.3846552088331
 20
566.0030035957909
 30
0.0
 11
298.3846552088333
 21
566.0030035957909
 31
0.0
  0
LINE
  5
1E6
330
2
100
AcDbEntity
  8
05-01
100
AcDbLine
 10
299.7472540817607
 20
563.5030035957909
 30
0.0
 11
290.9472540817607
 21
563.5030035957909
 31
0.0
  0
LINE
  5
1E7
330
2
100
AcDbEntity
  8
03-01
100
AcDbLine
 10
292.3846552088331
 20
728.4030035957905
 30
0.0
 11
298.3846552088333
 21
728.4030035957908
 31
0.0
  0
LINE
  5
1E8
330
2
100
AcDbEntity
  8
03-01
100
AcDbLine
 10
292.3846552088331
 20
732.603003595791
 30
0.0
 11
298.3846552088333
 21
732.6030035957908
 31
0.0
  0
LINE
  5
1E9
330
2
100
AcDbEntity
  8
03-01
 62
     4
100
AcDbLine
 10
292.3846552088331
 20
728.0030035957906
 30
0.0
 11
298.3846552088333
 21
728.0030035957909
 31
0.0
  0
LINE
  5
1EA
330
2
100
AcDbEntity
  8
03-01
 62
     4
100
AcDbLine
 10
292.3846552088331
 20
733.0030035957909
 30
0.0
 11
298.3846552088333
 21
733.0030035957906
 31
0.0
  0
LINE
  5
1EB
330
2
100
AcDbEntity
  8
05-01
100
AcDbLine
 10
299.7472540817607
 20
730.5030035957907
 30
0.0
 11
290.9472540817607
 21
730.5030035957907
 31
0.0
  0
DIMENSION
  5
1EC
330
2
100
AcDbEntity
  8
0
100
AcDbDimension
280
     0
  2
*D7
 10
244.7199352970317
 20
525.7230035957909
 30
0.0
 11
237.6142054198147
 21
507.942463353158
 31
0.0
 70
   128
 71
     5
 42
11.52999999999997
 73
     0
 74
     0
 75
     0
  3
Wagner$0
100
AcDbAlignedDimension
 13
200.9135118067254
 23
537.2530035957908
 33
0.0
 14
206.5135118067254
 24
525.7230035957909
 34
0.0
 50
270.0
100
AcDbRotatedDimension
1001
ACAD
1000
DSTYLE
1002
{
1070
    40
1040
2.0
1070
    41
1040
5.0
1070
   140
1040
5.0
1070
   271
1070
     1
1002
}
  0
DIMENSION
  5
1FB
330
2
100
AcDbEntity
  8
0
100
AcDbDimension
280
     0
  2
*D6
 10
244.7199352970317
 20
537.2530035957908
 30
0.0
 11
237.6142054198147
 21
592.1280035957908
 31
0.0
 71
     5
 42
109.75
 73
     0
 74
     0
 75
     0
  3
Wagner$0
100
AcDbAlignedDimension
 13
200.9135118067254
 23
647.0030035957909
 33
0.0
 14
200.9135118067254
 24
537.2530035957908
 34
0.0
 50
270.0
100
AcDbRotatedDimension
1001
ACAD
1000
DSTYLE
1002
{
1070
    40
1040
2.0
1070
    41
1040
5.0
1070
   140
1040
5.0
1002
}
  0
DIMENSION
  5
208
330
2
100
AcDbEntity
  8
0
100
AcDbDimension
280
     0
  2
*D5
 10
244.7199352970317
 20
647.0030035957909
 30
0.0
 11
237.6142054198147
 21
701.8780035957909
 31
0.0
 71
     5
 42
109.75
 73
     0
 74
     0
 75
     0
  3
Wagner$0
100
AcDbAlignedDimension
 13
200.9135118067254
 23
756.7530035957909
 33
0.0
 14
200.9135118067254
 24
647.0030035957909
 34
0.0
 50
270.0
100
AcDbRotatedDimension
1001
ACAD
1000
DSTYLE
1002
{
1070
    40
1040
2.0
1070
    41
1040
5.0
1070
   140
1040
5.0
1002
}
  0
DIMENSION
  5
215
330
2
100
AcDbEntity
  8
0
100
AcDbDimension
280
     0
  2
*D4
 10
244.7199352970318
 20
756.7530035957909
 30
0.0
 11
237.6142054198147
 21
784.5727002143339
 31
0.0
 70
   128
 71
     5
 42
11.52999999999997
 73
     0
 74
     0
 75
     0
  3
Wagner$0
100
AcDbAlignedDimension
 13
206.5135118067255
 23
768.2830035957908
 33
0.0
 14
196.5135118067254
 24
756.7530035957909
 34
0.0
 50
270.0
100
AcDbRotatedDimension
1001
ACAD
1000
DSTYLE
1002
{
1070
    40
1040
2.0
1070
    41
1040
5.0
1070
   140
1040
5.0
1070
   271
1070
     1
1002
}
  0
DIMENSION
  5
224
330
2
100
AcDbEntity
  8
0
100
AcDbDimension
280
     0
  2
*D3
 10
126.9135118067254
 20
796.6146184663996
 30
0.0
 11
124.7873594403027
 21
803.7203483436165
 31
0.0
 70
   128
 71
     5
 42
26.60000000000002
 73
     0
 74
     0
 75
     0
  3
Wagner$0
100
AcDbAlignedDimension
 13
153.5135118067254
 23
766.7530035957911
 33
0.0
 14
126.9135118067254
 24
767.2830035957908
 34
0.0
100
AcDbRotatedDimension
1001
ACAD
1000
DSTYLE
1002
{
1070
    40
1040
2.0
1070
    41
1040
5.0
1070
   140
1040
5.0
1002
}
  0
DIMENSION
  5
231
330
2
100
AcDbEntity
  8
0
100
AcDbDimension
280
     0
  2
*D2
 10
153.5135118067254
 20
796.6146184663996
 30
0.0
 11
167.5135118067254
 21
805.496232208101
 31
0.0
 70
   128
 71
     5
 42
28.0
 73
     0
 74
     0
 75
     0
  3
Wagner$0
100
AcDbAlignedDimension
 13
181.5135118067254
 23
766.7530035957911
 33
0.0
 14
153.5135118067254
 24
768.7530035957911
 34
0.0
100
AcDbRotatedDimension
1001
ACAD
1000
DSTYLE
1002
{
1070
    40
1040
2.0
1070
    41
1040
5.0
1070
   140
1040
5.0
1002
}
  0
DIMENSION
  5
23E
330
2
100
AcDbEntity
  8
0
100
AcDbDimension
280
     0
  2
*D1
 10
181.5135118067254
 20
796.6146184663996
 30
0.0
 11
209.1708844588356
 21
803.7203483436165
 31
0.0
 70
   128
 71
     5
 42
26.60000000000002
 73
     0
 74
     0
 75
     0
  3
Wagner$0
100
AcDbAlignedDimension
 13
208.1135118067255
 23
767.2830035957908
 33
0.0
 14
181.5135118067254
 24
766.7530035957911
 34
0.0
100
AcDbRotatedDimension
1001
ACAD
1000
DSTYLE
1002
{
1070
    40
1040
2.0
1070
    41
1040
5.0
1070
   140
1040
5.0
1002
}
  0
CIRCLE
  5
24B
330
2
100
AcDbEntity
  8
01-01
100
AcDbCircle
 10
167.5135118067254
 20
563.5030035957909
 30
0.0
 40
2.100000000000022
  0
ARC
  5
24C
330
2
100
AcDbEntity
  8
0
 62
     4
100
AcDbCircle
 10
167.5135118067254
 20
563.5030035957909
 30
0.0
 40
2.5
100
AcDbArc
 50
351.8582124984458
 51
275.809652689225
  0
CIRCLE
  5
24D
330
2
100
AcDbEntity
  8
01-01
100
AcDbCircle
 10
167.5135118067254
 20
730.5030035957909
 30
0.0
 40
2.100000000000022
  0
LINE
  5
24E
330
2
100
AcDbEntity
  8
09-01
100
AcDbLine
 10
165.4135118067253
 20
886.9554018665338
 30
0.0
 11
165.4135118067254
 21
892.9554018665342
 31
0.0
  0
LINE
  5
24F
330
2
100
AcDbEntity
  8
09-01
100
AcDbLine
 10
169.6135118067256
 20
886.9554018665338
 30
0.0
 11
169.6135118067255
 21
892.9554018665342
 31
0.0
  0
LINE
  5
250
330
2
100
AcDbEntity
  8
09-01
 62
     4
100
AcDbLine
 10
165.0135118067254
 20
886.955401866534
 30
0.0
 11
165.0135118067255
 21
892.9554018665342
 31
0.0
  0
LINE
  5
251
330
2
100
AcDbEntity
  8
09-01
 62
     4
100
AcDbLine
 10
170.0135118067255
 20
886.9554018665338
 30
0.0
 11
170.0135118067254
 21
892.9554018665342
 31
0.0
  0
LINE
  5
252
330
2
100
AcDbEntity
  8
09-01
100
AcDbLine
 10
189.5135118067255
 20
891.9056207458101
 30
0.0
 11
173.5135118067255
 21
891.9056207458101
 31
0.0
  0
LINE
  5
253
330
2
100
AcDbEntity
  8
0
100
AcDbLine
 10
185.7635118067253
 20
888.15562074581
 30
0.0
 11
189.5135118067255
 21
891.9056207458101
 31
0.0
  0
LINE
  5
254
330
2
100
AcDbEntity
  8
0
100
AcDbLine
 10
177.2635118067255
 20
888.15562074581
 30
0.0
 11
173.5135118067255
 21
891.9056207458101
 31
0.0
  0
DIMENSION
  5
255
330
2
100
AcDbEntity
  8
0
100
AcDbDimension
280
     0
  2
*D0
 10
107.8044819223073
 20
886.955401866534
 30
0.0
 11
100.6987520450903
 21
889.9554018665341
 31
0.0
 71
     5
 42
6.000000000000227
 73
     0
 74
     0
 75
     0
  3
Wagner$0
100
AcDbAlignedDimension
 13
128.5135118067255
 23
892.9554018665342
 33
0.0
 14
128.5135118067255
 24
886.955401866534
 34
0.0
 50
270.0
100
AcDbRotatedDimension
1001
ACAD
1000
DSTYLE
1002
{
1070
    40
1040
2.0
1070
    41
1040
5.0
1070
   140
1040
5.0
1002
}
  0
LINE
  5
264
330
2
100
AcDbEntity
  8
05-01
100
AcDbLine
 10
171.9135118067254
 20
563.5030035957909
 30
0.0
 11
163.1135118067254
 21
563.5030035957909
 31
0.0
  0
LINE
  5
265
330
2
100
AcDbEntity
  8
05-01
100
AcDbLine
 10
167.5135118067254
 20
567.903003595791
 30
0.0
 11
167.5135118067254
 21
559.1030035957908
 31
0.0
  0
ARC
  5
266
330
2
100
AcDbEntity
  8
0
 62
     4
100
AcDbCircle
 10
167.5135118067254
 20
730.5030035957909
 30
0.0
 40
2.5
100
AcDbArc
 50
351.8582124984458
 51
275.809652689225
  0
LINE
  5
267
330
2
100
AcDbEntity
  8
05-01
100
AcDbLine
 10
167.5135118067254
 20
894.3180007394614
 30
0.0
 11
167.5135118067254
 21
885.5180007394613
 31
0.0
  0
LINE
  5
268
330
2
100
AcDbEntity
  8
0
 62
     4
100
AcDbLine
 10
200.5135118067257
 20
886.9554018665338
 30
0.0
 11
200.5135118067257
 21
892.7054018665343
 31
0.0
  0
LINE
  5
269
330
2
100
AcDbEntity
  8
0
 62
     4
100
AcDbLine
 10
192.5135118067256
 20
886.9554018665338
 30
0.0
 11
192.5135118067257
 21
892.7054018665337
 31
0.0
  0
LINE
  5
26A
330
2
100
AcDbEntity
  8
0
100
AcDbLine
 10
193.1135118067259
 20
886.955401866534
 30
0.0
 11
193.1135118067259
 21
892.1054018665333
 31
0.0
  0
LINE
  5
26B
330
2
100
AcDbEntity
  8
0
100
AcDbLine
 10
199.9135118067261
 20
892.1054018665348
 30
0.0
 11
199.9135118067261
 21
886.955401866534
 31
0.0
  0
LINE
  5
26C
330
2
100
AcDbEntity
  8
0
 62
     4
100
AcDbLine
 10
134.5135118067254
 20
886.9554018665338
 30
0.0
 11
134.5135118067254
 21
892.7054018665343
 31
0.0
  0
LINE
  5
26D
330
2
100
AcDbEntity
  8
0
 62
     4
100
AcDbLine
 10
142.5135118067255
 20
886.9554018665338
 30
0.0
 11
142.5135118067254
 21
892.7054018665343
 31
0.0
  0
LINE
  5
26E
330
2
100
AcDbEntity
  8
05-01
100
AcDbLine
 10
138.5135118067254
 20
894.4424043845895
 30
0.0
 11
138.5135118067254
 21
885.6424043845892
 31
0.0
  0
LINE
  5
26F
330
2
100
AcDbEntity
  8
05-01
100
AcDbLine
 10
196.5135118067254
 20
894.4424043845895
 30
0.0
 11
196.5135118067254
 21
885.6424043845892
 31
0.0
  0
LINE
  5
270
330
2
100
AcDbEntity
  8
0
100
AcDbLine
 10
189.5135118067255
 20
892.9554018665342
 30
0.0
 11
189.5135118067255
 21
891.9056207458101
 31
0.0
  0
LINE
  5
271
330
2
100
AcDbEntity
  8
0
100
AcDbLine
 10
173.5135118067256
 20
892.9554018665342
 30
0.0
 11
173.5135118067255
 21
891.9056207458101
 31
0.0
  0
LINE
  5
272
330
2
100
AcDbEntity
  8
05-01
100
AcDbLine
 10
181.5135118067254
 20
895.018314593863
 30
0.0
 11
181.5135118067254
 21
882.7113394050611
 31
0.0
  0
ARC
  5
273
330
2
100
AcDbEntity
  8
0
 62
     4
100
AcDbCircle
 10
196.5135118067254
 20
756.7530035957909
 30
0.0
 40
4.0
100
AcDbArc
 50
349.4844960861005
 51
279.7871892583426
  0
DIMENSION
  5
274
330
2
100
AcDbEntity
  8
0
100
AcDbDimension
280
     0
  2
*D9
 10
87.16001724188007
 20
768.2830035957908
 30
0.0
 11
80.05428736466303
 21
647.0030035957909
 31
0.0
 71
     5
 42
242.5599999999999
 73
     0
 74
     0
 75
     0
  3
Wagner$0
100
AcDbAlignedDimension
 13
127.9135118067254
 23
525.7230035957909
 33
0.0
 14
128.5135118067254
 24
768.2830035957908
 34
0.0
 50
270.0
100
AcDbRotatedDimension
1001
ACAD
1000
DSTYLE
1002
{
1070
    40
1040
2.0
1070
    41
1040
5.0
1070
   140
1040
5.0
1070
   271
1070
     1
1002
}
  0
DIMENSION
  5
281
330
2
100
AcDbEntity
  8
0
100
AcDbDimension
280
     0
  2
*D8
 10
126.9135118067254
 20
488.6489990515526
 30
0.0
 11
167.5135118067254
 21
495.7547289287695
 31
0.0
 71
     5
 42
81.19999999999999
 73
     0
 74
     0
 75
     0
  3
Wagner$0
100
AcDbAlignedDimension
 13
208.1135118067254
 23
526.7230035957909
 33
0.0
 14
126.9135118067254
 24
526.7230035957909
 34
0.0
100
AcDbRotatedDimension
1001
ACAD
1000
DSTYLE
1002
{
1070
    40
1040
2.0
1070
    41
1040
5.0
1070
   140
1040
5.0
1002
}
  0
LINE
  5
28E
330
2
100
AcDbEntity
  8
05-01
100
AcDbLine
 10
171.9135118067254
 20
563.5030035957909
 30
0.0
 11
163.1135118067254
 21
563.5030035957909
 31
0.0
  0
LINE
  5
28F
330
2
100
AcDbEntity
  8
05-01
100
AcDbLine
 10
167.5135118067254
 20
567.903003595791
 30
0.0
 11
167.5135118067254
 21
559.1030035957908
 31
0.0
  0
LINE
  5
290
330
2
100
AcDbEntity
  8
05-01
100
AcDbLine
 10
171.9135118067254
 20
730.5030035957909
 30
0.0
 11
163.1135118067254
 21
730.5030035957909
 31
0.0
  0
LINE
  5
291
330
2
100
AcDbEntity
  8
05-01
100
AcDbLine
 10
167.5135118067254
 20
734.9030035957907
 30
0.0
 11
167.5135118067254
 21
726.1030035957908
 31
0.0
  0
LINE
  5
292
330
2
100
AcDbEntity
  8
05-01
100
AcDbLine
 10
142.9135118067254
 20
756.7530035957909
 30
0.0
 11
134.1135118067253
 21
756.7530035957909
 31
0.0
  0
LINE
  5
293
330
2
100
AcDbEntity
  8
05-01
100
AcDbLine
 10
138.5135118067254
 20
761.1530035957907
 30
0.0
 11
138.5135118067254
 21
752.3530035957908
 31
0.0
  0
LINE
  5
294
330
2
100
AcDbEntity
  8
05-01
100
AcDbLine
 10
142.9135118067254
 20
647.0030035957909
 30
0.0
 11
134.1135118067253
 21
647.0030035957909
 31
0.0
  0
LINE
  5
295
330
2
100
AcDbEntity
  8
05-01
100
AcDbLine
 10
138.5135118067254
 20
651.4030035957907
 30
0.0
 11
138.5135118067254
 21
642.6030035957908
 31
0.0
  0
LINE
  5
296
330
2
100
AcDbEntity
  8
05-01
100
AcDbLine
 10
142.9135118067254
 20
537.2530035957908
 30
0.0
 11
134.1135118067253
 21
537.2530035957908
 31
0.0
  0
LINE
  5
297
330
2
100
AcDbEntity
  8
05-01
100
AcDbLine
 10
138.5135118067254
 20
541.653003595791
 30
0.0
 11
138.5135118067254
 21
532.8530035957908
 31
0.0
  0
LINE
  5
298
330
2
100
AcDbEntity
  8
05-01
100
AcDbLine
 10
200.9135118067254
 20
537.2530035957908
 30
0.0
 11
192.1135118067254
 21
537.2530035957908
 31
0.0
  0
LINE
  5
299
330
2
100
AcDbEntity
  8
05-01
100
AcDbLine
 10
196.5135118067254
 20
541.653003595791
 30
0.0
 11
196.5135118067254
 21
532.8530035957908
 31
0.0
  0
LINE
  5
29A
330
2
100
AcDbEntity
  8
05-01
100
AcDbLine
 10
200.9135118067254
 20
647.0030035957909
 30
0.0
 11
192.1135118067254
 21
647.0030035957909
 31
0.0
  0
LINE
  5
29B
330
2
100
AcDbEntity
  8
05-01
100
AcDbLine
 10
196.5135118067254
 20
651.4030035957907
 30
0.0
 11
196.5135118067254
 21
642.6030035957908
 31
0.0
  0
LINE
  5
29C
330
2
100
AcDbEntity
  8
05-01
100
AcDbLine
 10
200.9135118067254
 20
756.7530035957909
 30
0.0
 11
192.1135118067254
 21
756.7530035957909
 31
0.0
  0
LINE
  5
29D
330
2
100
AcDbEntity
  8
05-01
100
AcDbLine
 10
196.5135118067254
 20
761.1530035957907
 30
0.0
 11
196.5135118067254
 21
752.3530035957908
 31
0.0
  0
LINE
  5
29E
330
2
100
AcDbEntity
  8
05-01
100
AcDbLine
 10
191.5135118067255
 20
537.2530035957911
 30
0.0
 11
171.5135118067254
 21
537.2530035957911
 31
0.0
  0
LINE
  5
29F
330
2
100
AcDbEntity
  8
05-01
100
AcDbLine
 10
181.5135118067254
 20
547.2530035957911
 30
0.0
 11
181.5135118067254
 21
527.2530035957911
 31
0.0
  0
LINE
  5
2A0
330
2
100
AcDbEntity
  8
05-01
100
AcDbLine
 10
163.5135118067255
 20
537.2530035957911
 30
0.0
 11
143.5135118067254
 21
537.2530035957911
 31
0.0
  0
LINE
  5
2A1
330
2
100
AcDbEntity
  8
05-01
100
AcDbLine
 10
153.5135118067254
 20
547.2530035957911
 30
0.0
 11
153.5135118067254
 21
527.2530035957911
 31
0.0
  0
LINE
  5
2A2
330
2
100
AcDbEntity
  8
05-01
100
AcDbLine
 10
191.5135118067255
 20
647.0030035957911
 30
0.0
 11
171.5135118067254
 21
647.0030035957911
 31
0.0
  0
LINE
  5
2A3
330
2
100
AcDbEntity
  8
05-01
100
AcDbLine
 10
181.5135118067254
 20
657.0030035957911
 30
0.0
 11
181.5135118067254
 21
637.0030035957911
 31
0.0
  0
LINE
  5
2A4
330
2
100
AcDbEntity
  8
05-01
100
AcDbLine
 10
163.5135118067255
 20
647.0030035957911
 30
0.0
 11
143.5135118067254
 21
647.0030035957911
 31
0.0
  0
LINE
  5
2A5
330
2
100
AcDbEntity
  8
05-01
100
AcDbLine
 10
153.5135118067254
 20
657.0030035957911
 30
0.0
 11
153.5135118067254
 21
637.0030035957911
 31
0.0
  0
LINE
  5
2A6
330
2
100
AcDbEntity
  8
05-01
100
AcDbLine
 10
163.5135118067255
 20
756.7530035957911
 30
0.0
 11
143.5135118067254
 21
756.7530035957911
 31
0.0
  0
LINE
  5
2A7
330
2
100
AcDbEntity
  8
05-01
100
AcDbLine
 10
153.5135118067254
 20
766.7530035957911
 30
0.0
 11
153.5135118067254
 21
746.7530035957911
 31
0.0
  0
LINE
  5
2A8
330
2
100
AcDbEntity
  8
05-01
100
AcDbLine
 10
191.5135118067255
 20
756.7530035957911
 30
0.0
 11
171.5135118067254
 21
756.7530035957911
 31
0.0
  0
LINE
  5
2A9
330
2
100
AcDbEntity
  8
05-01
100
AcDbLine
 10
181.5135118067254
 20
766.7530035957911
 30
0.0
 11
181.5135118067254
 21
746.7530035957911
 31
0.0
  0
LINE
  5
2AA
330
2
100
AcDbEntity
  8
0
100
AcDbLine
 10
292.3846552088333
 20
525.7230035957909
 30
0.0
 11
292.3846552088331
 21
768.2830035957908
 31
0.0
  0
LINE
  5
2AB
102
{ACAD_REACTORS
330
18A
102
}
330
2
100
AcDbEntity
  8
0
100
AcDbLine
 10
298.3846552088336
 20
768.2830035957908
 30
0.0
 11
292.3846552088331
 21
768.2830035957908
 31
0.0
  0
LINE
  5
2AC
102
{ACAD_REACTORS
330
18A
102
}
330
2
100
AcDbEntity
  8
0
100
AcDbLine
 10
298.3846552088337
 20
525.7230035957909
 30
0.0
 11
298.3846552088336
 21
768.2830035957908
 31
0.0
  0
LINE
  5
2AD
330
2
100
AcDbEntity
  8
0
100
AcDbLine
 10
298.3846552088337
 20
525.7230035957909
 30
0.0
 11
292.3846552088333
 21
525.7230035957909
 31
0.0
  0
LINE
  5
2AE
330
2
100
AcDbEntity
  8
0
100
AcDbLine
 10
141.9135118067252
 20
886.955401866534
 30
0.0
 11
141.9135118067252
 21
892.1054018665339
 31
0.0
  0
LINE
  5
2AF
330
2
100
AcDbEntity
  8
0
100
AcDbLine
 10
135.113511806725
 20
892.1054018665344
 30
0.0
 11
135.113511806725
 21
886.955401866534
 31
0.0
  0
LINE
  5
2B0
330
2
100
AcDbEntity
  8
0
100
AcDbLine
 10
185.7635118067251
 20
886.955401866534
 30
0.0
 11
185.7635118067251
 21
888.15562074581
 31
0.0
  0
LINE
  5
2B1
330
2
100
AcDbEntity
  8
0
100
AcDbLine
 10
177.2635118067255
 20
888.15562074581
 30
0.0
 11
177.2635118067255
 21
886.955401866534
 31
0.0
  0
LINE
  5
2B2
330
2
100
AcDbEntity
  8
0
100
AcDbLine
 10
177.2635118067255
 20
888.15562074581
 30
0.0
 11
185.7635118067251
 21
888.15562074581
 31
0.0
  0
LINE
  5
2B3
330
2
100
AcDbEntity
  8
0
100
AcDbLine
 10
208.1135118067256
 20
892.9554018665342
 30
0.0
 11
208.1135118067256
 21
886.955401866534
 31
0.0
  0
LINE
  5
2B4
330
2
100
AcDbEntity
  8
0
100
AcDbLine
 10
126.9135118067255
 20
892.9554018665342
 30
0.0
 11
208.1135118067256
 21
892.9554018665342
 31
0.0
  0
LINE
  5
2B5
330
2
100
AcDbEntity
  8
0
100
AcDbLine
 10
126.9135118067255
 20
892.9554018665342
 30
0.0
 11
126.9135118067255
 21
886.955401866534
 31
0.0
  0
LINE
  5
2B6
330
2
100
AcDbEntity
  8
0
100
AcDbLine
 10
126.9135118067255
 20
886.955401866534
 30
0.0
 11
208.1135118067256
 21
886.955401866534
 31
0.0
  0
HATCH
  5
2B7
330
2
100
AcDbEntity
  8
0
100
AcDbHatch
 10
0.0
 20
0.0
 30
0.0
210
0.0
220
0.0
230
1.0
  2
ANSI31
 70
     0
 71
     0
 91
        6
 92
        7
 72
     0
 73
     1
 93
        5
 10
134.5135118067254
 20
892.7054018665343
 10
134.2635118067254
 20
892.9554018665342
 10
126.9135118067255
 20
892.9554018665342
 10
126.9135118067255
 20
886.955401866534
 10
134.5135118067254
 20
886.955401866534
 97
        0
 92
        7
 72
     0
 73
     1
 93
        7
 10
145.5135118067254
 20
891.9056207458101
 10
145.5135118067254
 20
892.9554018665342
 10
142.7635118067254
 20
892.9554018665342
 10
142.5135118067254
 20
892.7054018665343
 10
142.5135118067255
 20
886.955401866534
 10
149.2635118067258
 20
886.955401866534
 10
149.2635118067258
 20
888.1556207458098
 97
        0
 92
        7
 72
     0
 73
     1
 93
        6
 10
165.0135118067255
 20
892.9554018665342
 10
161.5135118067253
 20
892.9554018665342
 10
161.5135118067254
 20
891.9056207458101
 10
157.7635118067253
 20
888.15562074581
 10
157.7635118067253
 20
886.955401866534
 10
165.0135118067254
 20
886.955401866534
 97
        0
 92
        7
 72
     0
 73
     1
 93
        6
 10
173.5135118067255
 20
891.9056207458101
 10
173.5135118067256
 20
892.9554018665342
 10
170.0135118067254
 20
892.9554018665342
 10
170.0135118067255
 20
886.955401866534
 10
177.2635118067255
 20
886.955401866534
 10
177.2635118067255
 20
888.15562074581
 97
        0
 92
        7
 72
     0
 73
     1
 93
        7
 10
192.5135118067257
 20
892.7054018665339
 10
192.2635118067255
 20
892.9554018665342
 10
189.5135118067255
 20
892.9554018665342
 10
189.5135118067255
 20
891.9056207458101
 10
185.7635118067251
 20
888.1556207458098
 10
185.7635118067251
 20
886.955401866534
 10
192.5135118067256
 20
886.955401866534
 97
        0
 92
        7
 72
     0
 73
     1
 93
        5
 10
208.1135118067256
 20
892.9554018665342
 10
200.7635118067255
 20
892.9554018665342
 10
200.5135118067257
 20
892.7054018665344
 10
200.5135118067257
 20
886.955401866534
 10
208.1135118067256
 20
886.955401866534
 97
        0
 75
     0
 76
     1
 52
270.0
 41
0.5
 77
     0
 78
     1
 53
315.0
 43
-220.6956410001949
 44
-199.3155612593362
 45
1.122532015133644
 46
1.122532015133643
 79
     0
 47
0.2276986556948529
 98
        6
 10
130.6020300305245
 20
890.2825343137486
 10
144.2723425457989
 20
889.1440432237402
 10
162.0437528661423
 20
889.5994396597437
 10
172.5243271446825
 20
889.5994396597437
 10
190.5235773571094
 20
888.6886433038755
 10
205.1052426899059
 20
889.8271378777451
1001
ACAD
1010
0.0
1020
0.0
1030
0.0
  0
CIRCLE
  5
2B8
330
2
100
AcDbEntity
  8
01-01
100
AcDbCircle
 10
153.5135118067254
 20
537.2530035957908
 30
0.0
 40
4.250000000000042
  0
CIRCLE
  5
2B9
330
2
100
AcDbEntity
  8
01-01
100
AcDbCircle
 10
181.5135118067254
 20
647.0030035957909
 30
0.0
 40
4.249999999999971
  0
CIRCLE
  5
2BA
330
2
100
AcDbEntity
  8
01-01
100
AcDbCircle
 10
153.5135118067254
 20
647.0030035957909
 30
0.0
 40
4.250000000000042
  0
CIRCLE
  5
2BB
330
2
100
AcDbEntity
  8
01-01
100
AcDbCircle
 10
153.5135118067254
 20
756.7530035957909
 30
0.0
 40
4.250000000000042
  0
CIRCLE
  5
2BC
330
2
100
AcDbEntity
  8
01-01
100
AcDbCircle
 10
181.5135118067254
 20
756.7530035957909
 30
0.0
 40
4.249999999999971
  0
CIRCLE
  5
2BD
330
2
100
AcDbEntity
  8
01-01
100
AcDbCircle
 10
181.5135118067254
 20
537.2530035957908
 30
0.0
 40
4.249999999999971
  0
LINE
  5
2BE
330
2
100
AcDbEntity
  8
01-01
100
AcDbLine
 10
208.1135118067254
 20
526.7230035957909
 30
0.0
 11
208.1135118067255
 21
767.2830035957908
 31
0.0
  0
ARC
  5
2BF
330
2
100
AcDbEntity
  8
01-01
100
AcDbCircle
 10
127.9135118067254
 20
767.2830035957908
 30
0.0
 40
1.0
100
AcDbArc
 50
90.0
 51
180.0
  0
ARC
  5
2C0
330
2
100
AcDbEntity
  8
01-01
100
AcDbCircle
 10
207.1135118067255
 20
767.2830035957908
 30
0.0
 40
1.0
100
AcDbArc
 50
0.0
 51
90.0
  0
LINE
  5
2C1
330
2
100
AcDbEntity
  8
01-01
100
AcDbLine
 10
207.1135118067255
 20
768.2830035957908
 30
0.0
 11
127.9135118067254
 21
768.2830035957908
 31
0.0
  0
ARC
  5
2C2
330
2
100
AcDbEntity
  8
01-01
100
AcDbCircle
 10
127.9135118067254
 20
526.7230035957909
 30
0.0
 40
1.0
100
AcDbArc
 50
180.0
 51
270.0
  0
LINE
  5
2C3
330
2
100
AcDbEntity
  8
01-01
100
AcDbLine
 10
126.9135118067254
 20
767.2830035957908
 30
0.0
 11
126.9135118067254
 21
526.7230035957909
 31
0.0
  0
ARC
  5
2C4
330
2
100
AcDbEntity
  8
01-01
100
AcDbCircle
 10
207.1135118067254
 20
526.7230035957909
 30
0.0
 40
1.0
100
AcDbArc
 50
270.0
 51
0.0
  0
LINE
  5
2C5
330
2
100
AcDbEntity
  8
01-01
100
AcDbLine
 10
127.9135118067254
 20
525.7230035957909
 30
0.0
 11
207.1135118067254
 21
525.7230035957909
 31
0.0
  0
CIRCLE
  5
2C6
330
2
100
AcDbEntity
  8
0
100
AcDbCircle
 10
181.5135118067254
 20
756.7530035957909
 30
0.0
 40
7.999999999999971
  0
CIRCLE
  5
2C7
330
2
100
AcDbEntity
  8
0
100
AcDbCircle
 10
153.5135118067254
 20
756.7530035957909
 30
0.0
 40
8.000000000000042
  0
CIRCLE
  5
2C8
330
2
100
AcDbEntity
  8
0
100
AcDbCircle
 10
153.5135118067254
 20
647.0030035957909
 30
0.0
 40
8.000000000000042
  0
CIRCLE
  5
2C9
330
2
100
AcDbEntity
  8
0
100
AcDbCircle
 10
181.5135118067254
 20
647.0030035957909
 30
0.0
 40
7.999999999999971
  0
CIRCLE
  5
2CA
330
2
100
AcDbEntity
  8
0
100
AcDbCircle
 10
153.5135118067254
 20
537.2530035957908
 30
0.0
 40
8.000000000000042
  0
CIRCLE
  5
2CB
330
2
100
AcDbEntity
  8
0
100
AcDbCircle
 10
181.5135118067254
 20
537.2530035957908
 30
0.0
 40
7.999999999999971
  0
ENDSEC
  0
SECTION
  2
OBJECTS
  0
DICTIONARY
  5
A
330
0
100
AcDbDictionary
281
     1
  3
ACAD_COLOR
350
39
  3
ACAD_GROUP
350
34
  3
ACAD_LAYOUT
350
16
  3
ACAD_MATERIAL
350
C
  3
ACAD_MLEADERSTYLE
350
3C
  3
ACAD_MLINESTYLE
350
35
  3
ACAD_PLOTSETTINGS
350
36
  3
ACAD_PLOTSTYLENAME
350
9
  3
ACAD_SCALELIST
350
3A
  3
ACAD_TABLESTYLE
350
3B
  3
ACAD_VISUALSTYLE
350
2C
  3
ACDB_RECOMPOSE_DATA
350
2D4
  3
AcDbVariableDictionary
350
2CE
  0
DICTIONARY
  5
1F
330
1E
100
AcDbDictionary
280
     1
281
     1
  3
ACAD_LAYERSTATES
360
20
  0
DICTIONARY
  5
7
330
6
100
AcDbDictionary
280
     1
281
     1
  0
DICTIONARY
  5
77
330
76
100
AcDbDictionary
280
     1
281
     1
  0
DICTIONARY
  5
B2
330
B1
100
AcDbDictionary
280
     1
281
     1
  0
DICTIONARY
  5
9D
330
9C
100
AcDbDictionary
280
     1
281
     1
  0
DICTIONARY
  5
199
330
198
100
AcDbDictionary
280
     1
281
     1
  0
DICTIONARY
  5
1A5
330
1A4
100
AcDbDictionary
280
     1
281
     1
  0
DICTIONARY
  5
F5
330
F4
100
AcDbDictionary
280
     1
281
     1
  0
DICTIONARY
  5
7C
330
7B
100
AcDbDictionary
280
     1
281
     1
  0
DICTIONARY
  5
3
330
2
100
AcDbDictionary
280
     1
281
     1
  3
ACAD_SORTENTS
360
2CD
  0
DICTIONARY
  5
72
330
71
100
AcDbDictionary
280
     1
281
     1
  3
ACAD_SORTENTS
360
2CC
  0
DICTIONARY
  5
58
330
57
100
AcDbDictionary
280
     1
281
     1
  3
ACAD_DIMASSOC
360
59
  0
DICTIONARY
  5
161
330
160
100
AcDbDictionary
280
     1
281
     1
  3
ACAD_DIMASSOC
360
162
  0
DICTIONARY
  5
170
330
16F
100
AcDbDictionary
280
     1
281
     1
  3
ACAD_DIMASSOC
360
171
  0
DICTIONARY
  5
189
330
188
100
AcDbDictionary
280
     1
281
     1
  3
ACAD_DIMASSOC
360
18A
  0
DICTIONARY
  5
39
102
{ACAD_REACTORS
330
A
102
}
330
A
100
AcDbDictionary
281
     1
  0
DICTIONARY
  5
34
102
{ACAD_REACTORS
330
A
102
}
330
A
100
AcDbDictionary
281
     1
  0
DICTIONARY
  5
16
102
{ACAD_REACTORS
330
A
102
}
330
A
100
AcDbDictionary
281
     1
  3
Layout1
350
1D
  3
Model
350
15
  0
DICTIONARY
  5
C
102
{ACAD_REACTORS
330
A
102
}
330
A
100
AcDbDictionary
281
     1
  3
ByBlock
350
38
  3
ByLayer
350
37
  3
Global
350
B
  0
DICTIONARY
  5
3C
102
{ACAD_REACTORS
330
A
102
}
330
A
100
AcDbDictionary
281
     1
  0
DICTIONARY
  5
35
102
{ACAD_REACTORS
330
A
102
}
330
A
100
AcDbDictionary
281
     1
  3
Standard
350
3D
  0
DICTIONARY
  5
36
102
{ACAD_REACTORS
330
A
102
}
330
A
100
AcDbDictionary
281
     1
  0
ACDBDICTIONARYWDFLT
  5
9
102
{ACAD_REACTORS
330
A
102
}
330
A
100
AcDbDictionary
281
     1
  3
Normal
350
8
100
AcDbDictionaryWithDefault
340
8
  0
DICTIONARY
  5
3A
102
{ACAD_REACTORS
330
A
102
}
330
A
100
AcDbDictionary
281
     1
  3
A0
350
42
  3
A1
350
43
  3
A2
350
44
  3
A3
350
45
  3
A4
350
46
  3
A5
350
47
  3
A6
350
48
  3
A7
350
49
  3
A8
350
4A
  3
A9
350
4B
  3
B0
350
4C
  3
B1
350
4D
  3
B2
350
4E
  3
B3
350
4F
  3
B4
350
50
  3
B5
350
51
  3
B6
350
52
  0
DICTIONARY
  5
3B
102
{ACAD_REACTORS
330
A
102
}
330
A
100
AcDbDictionary
281
     1
  3
Standard
350
3E
  0
DICTIONARY
  5
2C
102
{ACAD_REACTORS
330
A
102
}
330
A
100
AcDbDictionary
281
     1
  3
2dWireframe
350
2B
  3
3dWireframe
350
41
  3
Realistic
350
40
  0
XRECORD
  5
2D4
102
{ACAD_REACTORS
330
A
102
}
330
A
100
AcDbXrecord
280
     1
 90
        1
330
3E
  0
DICTIONARY
  5
2CE
102
{ACAD_REACTORS
330
A
102
}
330
A
100
AcDbDictionary
281
     1
  3
CANNOSCALE
350
2D1
  3
CMLEADERSTYLE
350
2D0
  3
CTABLESTYLE
350
2CF
  0
DICTIONARY
  5
20
102
{ACAD_REACTORS
330
1F
102
}
330
1F
100
AcDbDictionary
281
     1
  0
SORTENTSTABLE
  5
2CD
102
{ACAD_REACTORS
330
3
102
}
330
3
100
AcDbSortentsTable
330
2
331
295
  5
121
331
291
  5
125
331
2C8
  5
56
331
12D
  5
271
331
129
  5
281
331
1A7
  5
1C1
331
70
  5
2C0
331
125
  5
291
331
1A3
  5
1C3
331
160
  5
1D8
331
19F
  5
1C7
331
1DE
  5
15A
331
121
  5
295
331
19B
  5
1CB
331
1DA
  5
15E
331
215
  5
149
331
254
  5
13C
331
250
  5
140
331
2C4
  5
6C
331
2C0
  5
70
331
281
  5
129
331
2BC
  5
F9
331
2B8
  5
FD
331
6C
  5
2C4
331
11D
  5
299
331
15C
  5
1DC
331
119
  5
29D
331
158
  5
1E0
331
197
  5
1CD
331
1D6
  5
180
331
1D2
  5
184
331
24C
  5
144
331
115
  5
2A0
331
154
  5
1E4
331
150
  5
1E8
331
1CE
  5
188
331
111
  5
2A4
331
1CA
  5
19C
331
2B4
  5
101
331
2B0
  5
105
331
271
  5
12D
331
26D
  5
131
331
2AC
  5
109
331
269
  5
135
331
2A8
  5
10D
331
14C
  5
1EC
331
54
  5
2CA
331
10D
  5
2A8
331
109
  5
2AC
331
148
  5
224
331
187
  5
1CF
331
1C6
  5
1A0
331
105
  5
2B0
331
144
  5
24C
331
183
  5
1D3
331
1C2
  5
1A6
331
1BE
  5
1AA
331
101
  5
2B4
331
140
  5
250
331
1BA
  5
1AE
331
265
  5
139
331
2A4
  5
111
331
2A0
  5
115
331
29C
  5
11A
331
298
  5
11E
331
13C
  5
254
331
FD
  5
2B8
331
F9
  5
2BC
331
138
  5
266
331
1B6
  5
1B4
331
134
  5
26A
331
1AE
  5
1BA
331
1E9
  5
14F
331
16F
  5
1D7
331
130
  5
26E
331
1AA
  5
1BE
331
1E5
  5
153
331
224
  5
148
331
1E1
  5
157
331
294
  5
122
331
290
  5
126
331
2CB
  5
53
331
12C
  5
272
331
128
  5
28E
331
1A6
  5
1C2
331
124
  5
292
331
1A2
  5
1C4
331
19E
  5
1C8
331
1DD
  5
15B
331
120
  5
296
331
253
  5
13D
331
19A
  5
1CC
331
1D9
  5
15F
331
2C7
  5
57
331
2C3
  5
6D
331
2BF
  5
F3
331
2BB
  5
FA
331
6F
  5
2C1
331
6B
  5
2C5
331
15F
  5
1D9
331
11C
  5
29A
331
15B
  5
1DD
331
118
  5
29E
331
157
  5
1E1
331
24F
  5
141
331
1D5
  5
181
331
1D1
  5
185
331
24B
  5
145
331
114
  5
2A1
331
153
  5
1E5
331
1CD
  5
197
331
208
  5
14A
331
110
  5
2A5
331
1C9
  5
19D
331
2B7
  5
FE
331
274
  5
12A
331
2B3
  5
102
331
2AF
  5
106
331
270
  5
12E
331
26C
  5
132
331
2AB
  5
10A
331
268
  5
136
331
14F
  5
1E9
331
57
  5
2C7
331
10C
  5
2A9
331
14B
  5
1FB
331
53
  5
2CB
331
108
  5
2AD
331
147
  5
231
331
186
  5
1D0
331
1C5
  5
1A1
331
1C1
  5
1A7
331
104
  5
2B1
331
182
  5
1D4
331
143
  5
24D
331
1BD
  5
1AB
331
100
  5
2B5
331
1B9
  5
1AF
331
2A7
  5
10E
331
264
  5
13A
331
2A3
  5
112
331
29F
  5
116
331
29B
  5
11B
331
13F
  5
251
331
13B
  5
255
331
FC
  5
2B9
331
F8
  5
2BD
331
137
  5
267
331
1EC
  5
14C
331
133
  5
26B
331
1AD
  5
1BB
331
1E8
  5
150
331
1A9
  5
1BF
331
1E4
  5
154
331
1E0
  5
158
331
297
  5
11F
331
293
  5
123
331
28F
  5
127
331
2CA
  5
54
331
12F
  5
26F
331
12B
  5
273
331
127
  5
28F
331
123
  5
293
331
1A1
  5
1C5
331
19D
  5
1C9
331
1DC
  5
15C
331
252
  5
13E
331
1D8
  5
160
331
2C6
  5
6A
331
2C2
  5
6E
331
2BE
  5
F7
331
2BA
  5
FB
331
6E
  5
2C2
331
6A
  5
2C6
331
15E
  5
1DA
331
11F
  5
297
331
11B
  5
29B
331
15A
  5
1DE
331
156
  5
1E2
331
24E
  5
142
331
1D4
  5
182
331
1D0
  5
186
331
113
  5
2A2
331
152
  5
1E6
331
1CC
  5
19A
331
1C8
  5
19E
331
2B6
  5
FF
331
273
  5
12B
331
2B2
  5
103
331
2AE
  5
107
331
26F
  5
12F
331
26B
  5
133
331
2AA
  5
10B
331
14E
  5
1EA
331
56
  5
2C8
331
10F
  5
2A6
331
10B
  5
2AA
331
14A
  5
208
331
107
  5
2AE
331
146
  5
23E
331
23E
  5
146
331
185
  5
1D1
331
1C4
  5
1A2
331
1C0
  5
1A8
331
103
  5
2B2
331
1FB
  5
14B
331
181
  5
1D5
331
142
  5
24E
331
1BC
  5
1AC
331
1B8
  5
1B0
331
267
  5
137
331
2A6
  5
10F
331
2A2
  5
113
331
29E
  5
118
331
29A
  5
11C
331
13E
  5
252
331
FF
  5
2B6
331
FB
  5
2BA
331
13A
  5
264
331
F7
  5
2BE
331
136
  5
268
331
1B4
  5
1B6
331
1B0
  5
1B8
331
1EB
  5
14D
331
F3
  5
2BF
331
132
  5
26C
331
1AC
  5
1BC
331
1E7
  5
151
331
1A8
  5
1C0
331
1E3
  5
155
331
296
  5
120
331
292
  5
124
331
28E
  5
128
331
2C9
  5
55
331
12E
  5
270
331
12A
  5
274
331
126
  5
290
331
1DF
  5
159
331
122
  5
294
331
1A0
  5
1C6
331
19C
  5
1CA
331
1DB
  5
15D
331
255
  5
13B
331
251
  5
13F
331
2C5
  5
6B
331
2C1
  5
6F
331
2BD
  5
F8
331
2B9
  5
FC
331
6D
  5
2C3
331
15D
  5
1DB
331
11E
  5
298
331
11A
  5
29C
331
159
  5
1DF
331
1D7
  5
16F
331
116
  5
29F
331
155
  5
1E3
331
24D
  5
143
331
1D3
  5
183
331
1CF
  5
187
331
112
  5
2A3
331
151
  5
1E7
331
1CB
  5
19B
331
188
  5
1CE
331
2B5
  5
100
331
2B1
  5
104
331
272
  5
12C
331
2AD
  5
108
331
26E
  5
130
331
26A
  5
134
331
2A9
  5
10C
331
14D
  5
1EB
331
55
  5
2C9
331
10E
  5
2A7
331
10A
  5
2AB
331
149
  5
215
331
1C7
  5
19F
331
106
  5
2AF
331
145
  5
24B
331
184
  5
1D2
331
1C3
  5
1A3
331
1BF
  5
1A9
331
102
  5
2B3
331
180
  5
1D6
331
141
  5
24F
331
1BB
  5
1AD
331
231
  5
147
331
266
  5
138
331
2A5
  5
110
331
2A1
  5
114
331
29D
  5
119
331
299
  5
11D
331
13D
  5
253
331
FE
  5
2B7
331
FA
  5
2BB
331
139
  5
265
331
1B7
  5
1B3
331
135
  5
269
331
1B3
  5
1B7
331
1AF
  5
1B9
331
1EA
  5
14E
331
131
  5
26D
331
1AB
  5
1BD
331
1E6
  5
152
331
1E2
  5
156
  0
SORTENTSTABLE
  5
2CC
102
{ACAD_REACTORS
330
72
102
}
330
72
100
AcDbSortentsTable
330
71
  0
DIMASSOC
  5
59
102
{ACAD_REACTORS
330
58
102
}
330
58
100
AcDbDimAssoc
330
57
 90
        3
 70
     0
 71
     0
  1
AcDbOsnapPointRef
 72
    13
331
1DF
 73
     2
 91
        0
 40
0.0
 10
0.0
 20
0.0
 30
2.000000000000000E+50
 75
     0
  1
AcDbOsnapPointRef
 72
     1
331
1E0
 73
     2
 91
        0
 40
1.0
 10
0.0
 20
0.0
 30
2.000000000000000E+50
 75
     0
  0
DIMASSOC
  5
162
102
{ACAD_REACTORS
330
161
102
}
330
161
100
AcDbDimAssoc
330
160
 90
        3
 70
     0
 71
     0
  1
AcDbOsnapPointRef
 72
    13
331
182
 73
     2
 91
        0
 40
0.0
 10
0.0
 20
0.0
 30
2.000000000000000E+50
 75
     0
  1
AcDbOsnapPointRef
 72
    13
331
181
 73
     2
 91
        0
 40
0.0
 10
0.0
 20
0.0
 30
2.000000000000000E+50
 75
     0
  0
DIMASSOC
  5
171
102
{ACAD_REACTORS
330
170
102
}
330
170
100
AcDbDimAssoc
330
16F
 90
        3
 70
     0
 71
     0
  1
AcDbOsnapPointRef
 72
    13
331
182
 73
     2
 91
        0
 40
0.0
 10
0.0
 20
0.0
 30
2.000000000000000E+50
 75
     0
  1
AcDbOsnapPointRef
 72
    13
331
183
 73
     2
 91
        0
 40
0.0
 10
0.0
 20
0.0
 30
2.000000000000000E+50
 75
     0
  0
DIMASSOC
  5
18A
102
{ACAD_REACTORS
330
189
102
}
330
189
100
AcDbDimAssoc
330
188
 90
        3
 70
     0
 71
     0
  1
AcDbOsnapPointRef
 72
    13
331
2AB
 73
     2
 91
        0
 40
0.0
 10
0.0
 20
0.0
 30
2.000000000000000E+50
 75
     0
  1
AcDbOsnapPointRef
 72
    13
331
2AC
 73
     2
 91
        0
 40
0.0
 10
0.0
 20
0.0
 30
2.000000000000000E+50
 75
     0
  0
LAYOUT
  5
1D
102
{ACAD_REACTORS
330
16
102
}
330
16
100
AcDbPlotSettings
  1

  2
C:\Documents and Settings\basas\Application Data\Autodesk\AutoCAD 2005\R16.1\enu\plotters\Default Windows System Printer.pc3
  4

  6

 40
0.0
 41
0.0
 42
0.0
 43
0.0
 44
0.0
 45
0.0
 46
0.0
 47
0.0
 48
0.0
 49
0.0
140
0.0
141
0.0
142
1.0
143
1.0
 70
   688
 72
     0
 73
     0
 74
     5
  7

 75
    16
147
1.0
 76
     0
 77
     2
 78
   300
148
0.0
149
0.0
100
AcDbLayout
  1
Layout1
 70
     1
 71
     1
 10
0.0
 20
0.0
 11
12.0
 21
9.0
 12
0.0
 22
0.0
 32
0.0
 14
0.0
 24
0.0
 34
0.0
 15
0.0
 25
0.0
 35
0.0
146
0.0
 13
0.0
 23
0.0
 33
0.0
 16
1.0
 26
0.0
 36
0.0
 17
0.0
 27
1.0
 37
0.0
 76
     0
330
1A
  0
LAYOUT
  5
15
102
{ACAD_XDICTIONARY
360
17
102
}
102
{ACAD_REACTORS
330
16
102
}
330
16
100
AcDbPlotSettings
  1

  2
\\MASOLA\hp color LaserJet 2550 PCL 6 (Kopie 1)
  4
A4
  6

 40
5.027082920074462
 41
5.069413661956787
 42
5.027069091796875
 43
5.027069091796875
 44
209.9733276367187
 45
296.9683227539062
 46
0.0
 47
0.0
 48
0.0000004996159078
 49
0.0000000496122539
140
420.000000499574
141
297.0000000495827
142
1.0
143
1.485600363605426
 70
  3760
 72
     1
 73
     1
 74
     4
  7
monochrome.ctb
 75
     0
147
0.6731285374574658
 76
     1
 77
     2
 78
   300
148
-0.0000004996159078
149
-0.0000000496122539
100
AcDbLayout
  1
Model
 70
     1
 71
     0
 10
0.0
 20
0.0
 11
12.0
 21
9.0
 12
0.0
 22
0.0
 32
0.0
 14
0.0
 24
0.0
 34
0.0
 15
0.0
 25
0.0
 35
0.0
146
0.0
 13
0.0
 23
0.0
 33
0.0
 16
1.0
 26
0.0
 36
0.0
 17
0.0
 27
1.0
 37
0.0
 76
     0
330
2
331
2A
1001
ACAD_PSEXT
1000
\\MASOLA\hp color LaserJet 2550 PCL 6 (Kopie 1)
1000
hp color LaserJet 2550 PCL 6
1000
\\MASOLA
1000

1070
     0
  0
MATERIAL
  5
38
102
{ACAD_REACTORS
330
C
102
}
330
C
100
AcDbMaterial
  1
ByBlock
 94
       63
  0
MATERIAL
  5
37
102
{ACAD_REACTORS
330
C
102
}
330
C
100
AcDbMaterial
  1
ByLayer
 94
       63
  0
MATERIAL
  5
B
102
{ACAD_XDICTIONARY
360
D
102
}
102
{ACAD_REACTORS
330
C
102
}
330
C
100
AcDbMaterial
  1
Global
 43
0.0007999999797903
 43
0.0
 43
0.0
 43
0.0
 43
0.0
 43
0.0007999999797903
 43
0.0
 43
0.0
 43
0.0
 43
0.0
 43
1.0
 43
0.0
 43
0.0
 43
0.0
 43
0.0
 43
1.0
 49
0.0007999999797903
 49
0.0
 49
0.0
 49
0.0
 49
0.0
 49
0.0007999999797903
 49
0.0
 49
0.0
 49
0.0
 49
0.0
 49
1.0
 49
0.0
 49
0.0
 49
0.0
 49
0.0
 49
1.0
142
0.0007999999797903
142
0.0
142
0.0
142
0.0
142
0.0
142
0.0007999999797903
142
0.0
142
0.0
142
0.0
142
0.0
142
1.0
142
0.0
142
0.0
142
0.0
142
0.0
142
1.0
144
0.0007999999797903
144
0.0
144
0.0
144
0.0
144
0.0
144
0.0007999999797903
144
0.0
144
0.0
144
0.0
144
0.0
144
1.0
144
0.0
144
0.0
144
0.0
144
0.0
144
1.0
 94
       63
1001
ACAD
1070
    -1
1070
     3
1070
     0
1000

1071
        0
1070
     0
  0
MLINESTYLE
  5
3D
102
{ACAD_REACTORS
330
35
102
}
330
35
100
AcDbMlineStyle
  2
STANDARD
 70
     0
  3

 62
   256
 51
90.0
 52
90.0
 71
     2
 49
0.5
 62
   256
  6
BYLAYER
 49
-0.5
 62
   256
  6
BYLAYER
  0
ACDBPLACEHOLDER
  5
8
102
{ACAD_REACTORS
330
9
102
}
330
9
  0
SCALE
  5
42
102
{ACAD_REACTORS
330
3A
102
}
330
3A
100
AcDbScale
 70
     0
300
1:1
140
1.0
141
1.0
290
     1
  0
SCALE
  5
43
102
{ACAD_REACTORS
330
3A
102
}
330
3A
100
AcDbScale
 70
     0
300
1:2
140
1.0
141
2.0
290
     0
  0
SCALE
  5
44
102
{ACAD_REACTORS
330
3A
102
}
330
3A
100
AcDbScale
 70
     0
300
1:4
140
1.0
141
4.0
290
     0
  0
SCALE
  5
45
102
{ACAD_REACTORS
330
3A
102
}
330
3A
100
AcDbScale
 70
     0
300
1:5
140
1.0
141
5.0
290
     0
  0
SCALE
  5
46
102
{ACAD_REACTORS
330
3A
102
}
330
3A
100
AcDbScale
 70
     0
300
1:8
140
1.0
141
8.0
290
     0
  0
SCALE
  5
47
102
{ACAD_REACTORS
330
3A
102
}
330
3A
100
AcDbScale
 70
     0
300
1:10
140
1.0
141
10.0
290
     0
  0
SCALE
  5
48
102
{ACAD_REACTORS
330
3A
102
}
330
3A
100
AcDbScale
 70
     0
300
1:16
140
1.0
141
16.0
290
     0
  0
SCALE
  5
49
102
{ACAD_REACTORS
330
3A
102
}
330
3A
100
AcDbScale
 70
     0
300
1:20
140
1.0
141
20.0
290
     0
  0
SCALE
  5
4A
102
{ACAD_REACTORS
330
3A
102
}
330
3A
100
AcDbScale
 70
     0
300
1:30
140
1.0
141
30.0
290
     0
  0
SCALE
  5
4B
102
{ACAD_REACTORS
330
3A
102
}
330
3A
100
AcDbScale
 70
     0
300
1:40
140
1.0
141
40.0
290
     0
  0
SCALE
  5
4C
102
{ACAD_REACTORS
330
3A
102
}
330
3A
100
AcDbScale
 70
     0
300
1:50
140
1.0
141
50.0
290
     0
  0
SCALE
  5
4D
102
{ACAD_REACTORS
330
3A
102
}
330
3A
100
AcDbScale
 70
     0
300
1:100
140
1.0
141
100.0
290
     0
  0
SCALE
  5
4E
102
{ACAD_REACTORS
330
3A
102
}
330
3A
100
AcDbScale
 70
     0
300
2:1
140
2.0
141
1.0
290
     0
  0
SCALE
  5
4F
102
{ACAD_REACTORS
330
3A
102
}
330
3A
100
AcDbScale
 70
     0
300
4:1
140
4.0
141
1.0
290
     0
  0
SCALE
  5
50
102
{ACAD_REACTORS
330
3A
102
}
330
3A
100
AcDbScale
 70
     0
300
8:1
140
8.0
141
1.0
290
     0
  0
SCALE
  5
51
102
{ACAD_REACTORS
330
3A
102
}
330
3A
100
AcDbScale
 70
     0
300
10:1
140
10.0
141
1.0
290
     0
  0
SCALE
  5
52
102
{ACAD_REACTORS
330
3A
102
}
330
3A
100
AcDbScale
 70
     0
300
100:1
140
100.0
141
1.0
290
     0
  0
TABLESTYLE
  5
3E
102
{ACAD_XDICTIONARY
360
3F
102
}
102
{ACAD_REACTORS
330
3B
102
}
330
3B
100
AcDbTableStyle
280
     0
  3
Standard
 70
     0
 71
     0
 40
1.5
 41
1.5
280
     0
281
     0
  7
Standard
140
4.5
170
     2
 62
     0
 63
     7
283
     0
 90
      512
 91
        0
  1

274
    -2
284
     1
 64
     0
275
    -2
285
     1
 65
     0
276
    -2
286
     1
 66
     0
277
    -2
287
     1
 67
     0
278
    -2
288
     1
 68
     0
279
    -2
289
     1
 69
     0
  7
Standard
140
6.0
170
     5
 62
     0
 63
     7
283
     0
 90
      512
 91
        0
  1

274
    -2
284
     1
 64
     0
275
    -2
285
     1
 65
     0
276
    -2
286
     1
 66
     0
277
    -2
287
     1
 67
     0
278
    -2
288
     1
 68
     0
279
    -2
289
     1
 69
     0
  7
Standard
140
4.5
170
     5
 62
     0
 63
     7
283
     0
 90
      512
 91
        0
  1

274
    -2
284
     1
 64
     0
275
    -2
285
     1
 65
     0
276
    -2
286
     1
 66
     0
277
    -2
287
     1
 67
     0
278
    -2
288
     1
 68
     0
279
    -2
289
     1
 69
     0
  0
VISUALSTYLE
  5
2B
102
{ACAD_REACTORS
330
2C
102
}
330
2C
100
AcDbVisualStyle
  2
2dWireframe
 70
     4
177
     2
291
     0
 71
     0
176
     1
 72
     2
176
     1
 73
     1
176
     1
 90
        0
176
     1
 40
0.6
176
     1
 41
30.0
176
     1
 63
     7
421
 16777215
176
     1
 74
     1
176
     1
 91
        4
176
     1
 64
     7
176
     1
 65
   257
176
     1
 75
     1
176
     1
175
     1
176
     1
 42
1.0
176
     1
 92
        0
176
     1
 66
   257
176
     1
 43
1.0
176
     1
 76
     1
176
     1
 77
     6
176
     1
 78
     2
176
     1
 67
     7
176
     1
 79
     5
176
     1
170
     0
176
     1
171
     0
176
     1
290
     0
176
     1
 93
        1
176
     1
 44
0.0
176
     1
173
     0
176
     1
  0
VISUALSTYLE
  5
41
102
{ACAD_REACTORS
330
2C
102
}
330
2C
100
AcDbVisualStyle
  2
3dWireframe
 70
     5
177
     2
291
     0
 71
     0
176
     1
 72
     2
176
     1
 73
     1
176
     1
 90
        0
176
     1
 40
0.6
176
     1
 41
30.0
176
     1
 63
     7
421
 16777215
176
     1
 74
     1
176
     1
 91
        4
176
     1
 64
     7
176
     1
 65
   257
176
     1
 75
     1
176
     1
175
     1
176
     1
 42
1.0
176
     1
 92
        0
176
     1
 66
   257
176
     1
 43
1.0
176
     1
 76
     1
176
     1
 77
     6
176
     1
 78
     2
176
     1
 67
     7
176
     1
 79
     5
176
     1
170
     0
176
     1
171
     0
176
     1
290
     0
176
     1
 93
        1
176
     1
 44
0.0
176
     1
173
     0
176
     1
  0
VISUALSTYLE
  5
40
102
{ACAD_REACTORS
330
2C
102
}
330
2C
100
AcDbVisualStyle
  2
Realistic
 70
     8
177
     2
291
     0
 71
     2
176
     1
 72
     2
176
     1
 73
     1
176
     1
 90
        0
176
     1
 40
0.6
176
     1
 41
30.0
176
     1
 63
     7
421
 16777215
176
     1
 74
     1
176
     1
 91
        0
176
     1
 64
     7
176
     1
 65
   257
176
     1
 75
     1
176
     1
175
     1
176
     1
 42
1.0
176
     1
 92
        8
176
     1
 66
     8
424
  7895160
176
     1
 43
1.0
176
     1
 76
     1
176
     1
 77
     6
176
     1
 78
     2
176
     1
 67
     7
176
     1
 79
     5
176
     1
170
     0
176
     1
171
     0
176
     1
290
     0
176
     1
 93
       13
176
     1
 44
0.0
176
     1
173
     0
176
     1
  0
DICTIONARYVAR
  5
2D1
102
{ACAD_REACTORS
330
2CE
102
}
330
2CE
100
DictionaryVariables
280
     0
  1
1:5
  0
DICTIONARYVAR
  5
2D0
102
{ACAD_REACTORS
330
2CE
102
}
330
2CE
100
DictionaryVariables
280
     0
  1
STANDARD
  0
DICTIONARYVAR
  5
2CF
102
{ACAD_REACTORS
330
2CE
102
}
330
2CE
100
DictionaryVariables
280
     0
  1
STANDARD
  0
DICTIONARY
  5
17
330
15
100
AcDbDictionary
280
     1
281
     1
  3
ADSK_XREC_LAYOUTTHUMBNAIL
360
18
  0
DICTIONARY
  5
D
330
B
100
AcDbDictionary
280
     1
281
     1
  3
BUMPTILE
360
E
  3
DIFFUSETILE
360
F
  3
OPACITYTILE
360
10
  3
REFLECTIONTILE
360
11
  0
DICTIONARY
  5
3F
330
3E
100
AcDbDictionary
280
     1
281
     1
  3
ACAD_ROUNDTRIP_2008_TABLESTYLE_CELLSTYLEMAP
360
2D2
  0
XRECORD
  5
18
102
{ACAD_REACTORS
330
17
102
}
330
17
100
AcDbXrecord
280
     1
310
280000000001000093000000010008000000000000930000000000000000000000010000000000003028210000000000FFFFFF000000000000000000000000000000000000000000000000000000000000000000330000006600000099000000CC000000FF00000000330000333300006633000099330000CC330000FF3300
310
0000660000336600006666000099660000CC660000FF66000000990000339900006699000099990000CC990000FF99000000CC000033CC000066CC000099CC0000CCCC0000FFCC000000FF000033FF000066FF000099FF0000CCFF0000FFFF000000003300330033006600330099003300CC003300FF003300003333003333
310
33006633330099333300CC333300FF33330000663300336633006666330099663300CC663300FF66330000993300339933006699330099993300CC993300FF99330000CC330033CC330066CC330099CC3300CCCC3300FFCC330000FF330033FF330066FF330099FF3300CCFF3300FFFF330000006600330066006600660099
310
006600CC006600FF00660000336600333366006633660099336600CC336600FF33660000666600336666006666660099666600CC666600FF66660000996600339966006699660099996600CC996600FF99660000CC660033CC660066CC660099CC6600CCCC6600FFCC660000FF660033FF660066FF660099FF6600CCFF6600
310
FFFF660000009900330099006600990099009900CC009900FF00990000339900333399006633990099339900CC339900FF33990000669900336699006666990099669900CC669900FF66990000999900339999006699990099999900CC999900FF99990000CC990033CC990066CC990099CC9900CCCC9900FFCC990000FF99
310
0033FF990066FF990099FF9900CCFF9900FFFF99000000CC003300CC006600CC009900CC00CC00CC00FF00CC000033CC003333CC006633CC009933CC00CC33CC00FF33CC000066CC003366CC006666CC009966CC00CC66CC00FF66CC000099CC003399CC006699CC009999CC00CC99CC00FF99CC0000CCCC0033CCCC0066CC
310
CC0099CCCC00CCCCCC00FFCCCC0000FFCC0033FFCC0066FFCC0099FFCC00CCFFCC00FFFFCC000000FF003300FF006600FF009900FF00CC00FF00FF00FF000033FF003333FF006633FF009933FF00CC33FF00FF33FF000066FF003366FF006666FF009966FF00CC66FF00FF66FF000099FF003399FF006699FF009999FF00CC
310
99FF00FF99FF0000CCFF0033CCFF0066CCFF0099CCFF00CCCCFF00FFCCFF0000FFFF0033FFFF0066FFFF0099FFFF00CCFFFF00FFFFFF00000000000D0D0D001A1A1A00282828003535350043434300505050005D5D5D006B6B6B00787878008686860093939300A1A1A100AEAEAE00BBBBBB00C9C9C900D6D6D600E4E4E400
310
F1F1F100FFFFFF0000000000000000000000000000000000000000000000000000000000000000000000000000000000000000000000000000000000000000000000000000000000BEBEBEBEBEBEBEBEBEBEBEBEBEBEBEBEBEBEBEBEBEBEBEBEBEBEBEBEBEBEBEBEBEBEBEBEBEBEBEBEBEBEBEBEBEBEBEBEBEBEBEBEBEBEBE
310
BEBEBEBEBEBEBEBEBEBEBEBEBEBEBEBEBEBEBEBEBEBEBEBEBEBEBEBEBEBEBEBEBEBEBEBEBEBEBEBEBEBEBEBEBEBEBEBEBEBEBEBEBEBEBEBEBEBEBEBEBEBEBEBEBEBEBEBEBEBEBEBEBEBEBEBEBEBEBEBEBEBEBEBEBEBEBEBEBEBEBEBEBEBEBEBEBEBEBEBEBEBEBEBEBEBEBEBEBEBEBEBEBEBEBEBEBEBEBEBEBEBEBEBEBEBEBE
310
BEBEBEBEBEBEBEBEBEBEBEBEBEBEBEBEBEBEBEBEBEBEBEBEBEBE000000000000000000000000000000000000000000000000000000000000000000000000000000000000000000000000BE00000000000000000000000000000000000000000000000000000000000000000000000000000000000000000000000000000000
310
00000000000000000000000000000000000000000000000000000000000000000000000000000000000000000000000000000000000000000000000000000000000000000000000000000000000000000000000000000000000000000000000000000000000000000000000000000000000000000000000000000000000000
310
000000000000000000000000000000000000000000000000000000BE000000000000000000000000000000000000000000000000000000000000000000000000000000000000000000000000BE0000000000000000000000000000000000000000000000000000000000000000000000000000000000000000000000000000
310
00000000000000000000000000000000000000000000000000000000000000000000000000000000000000000000000000000000000000000000000000000000000000000000000000000000000000000000000000000000000000000000000000000000000000000000000000000000000000000000000000000000000000
310
0000000000000000000000000000000000000000000000000000000000BE000000000000000000000000000000000000000000000000000000000000000000000000000000000000000000000000BE000000000000000000000000000000000000000000000000000000000000000000000000000000000000000000000000
310
00000000000000000000000000000000000000000000000000000000000000000000000000000000000000000000000000000000000000000000000000000000000000000000000000000000000000000000000000000000000000000000000000000000000000000000000000000000000000000000000000000000000000
310
00000000000000000000000000000000000000000000000000000000000000BE000000000000000000000000000000000000000000000000000000000000000000000000000000000000000000000000BE000000DCDCDCDCDCDCDCDCDCDCDCDCDCDCDCDCDCDCDCDCDCDCDCDCDCDCDCDCDCDCDCDCDCDCDCDCDCDCDCDCDCDCDC
310
DCDCDCDCDCDCDCDCDCDCDCDCDCDCDCDCDCDCDCDCDCDCDCDCDCDCDCDCDCDCDCDCDCDCDCDCDCDCDCDCDCDCDCDCDCDCDCDCDCDCDCDCDCDCDCDCDCDCDCDCDCDCDCDCDCDCDCDCDCDCDCDCDCDCDCDCDCDCDCDCDCDCDCDCDCDCDCDCDCDCDCDCDCDCDCDCDCDCDCDCDCDCDCDCDCDCBEBEDCDCDCDCDCDCDCDCDCDCDCDCDCDCDCDCDCDCDC
310
DCDCDCDCDCDCDCDCDCDCDCDCDCDCDCDCDCDCDCDCDCDCDCDCDCDCDCDCDCDC000000BE000000000000000000000000000000000000000000000000000000000000000000000000000000000000000000000000BE000000DC00000000000000000000000000000000000000000000000000000000000000000000000000000000
310
0000000000000000000000000000000000000000000000000000000000000000000000000000000000000000000000000000000000000000000000000000000000000000DCF5F5F5F5F5000000000000DCF5F5F5F5F5F5F500000000DC00000000000000BEBEBEBEBEBEBEBEBEBEBE000000DC000000000000000000000000
310
0000DC000000000000000000000000000000DCBEBEBEBEBEBEBEBEBEBE0000DC000000BE000000000000000000000000000000000000000000000000000000000000000000000000000000000000000000000000BE000000DC0000000000000000000000000000000000000000000000000000000000000000000000000000
310
00000000000000000000000000000000000000000000000000000000000000000000000000000000000000000000000000000000000000000000000000000000000000000000DCF5F5F5F5F5F5DCDCDCDCDCDCF5F5F5F5F5F5F5DCDCDCDCDC00000000000000BEBEBEBEBEBEBEBEBEBEBE000000DC00000000000000000000
310
00000000DC000000000000000000000000000000DCBEBEBEBEBEBEBEBEBE000000DC000000BE000000000000000000000000000000000000000000000000000000000000000000000000000000000000000000000000BE000000DC000000000000000000000000000000000000000000000000000000000000000000000000
310
000000000000000000000000000000000000000000000000000000000000000000000000000000000000000000000000000000000000000000000000000000000000000000000000DC000000DC000000000000000000DC00000000DC00000000DC000000BEBEBEBEBEBEBEBEBEBEBEBEBEBEBE000000DCF5F5F5F5F5F500F5
310
F5F500000000DCF5F5F5F5F5F5F5F5F5F5F5F5000000DCF5F5F5F5F5F5F5F5F5F50000DC000000BE000000000000000000000000000000000000000000000000000000000000000000000000000000000000000000000000BE000000DC00000000000000000000000000000000000000000000000000000000000000000000
310
0000000000000000000000000000000000000000000000000000000000000000000000000000000000000000000000000000000000000000000000000000000000000000000000000000DC000000DC000000000000000000DC00000000DC00000000DC00000000000000000000BEBEBEBEBEBEBEBE000000DCF5F5F5F5F5F5
310
F5F5F5F500000000DCF5F5F5F5F5F5F5F5F5F5F5F5000000DCF5F5F5F5F50000F5F5000000DC000000BE000000000000000000000000000000000000000000000000000000000000000000000000000000000000000000000000BE000000DC0000000000000000000000000000000000000000000000000000000000000000
310
00000000000000000000000000000000000000000000000000000000000000000000000000000000000000000000000000000000000000000000000000000000000000000000000000000000DCDCDCDCDCDCDCDCDCDCDCDCDCDCDCDCDCDCDCDCDCDCDCDCDC0000000000BEBEBEBEBEBEBEBEBEBEBEBEBE000000DCDCDCDCDC
310
DCDCDCDCDCDCDCDCBEDCBEDCBEBEDCDCDCDCDCDCDCDCDCDCDCDCDCDCDCDCDCDCDCDCDCDCDCDCDCDC000000BE000000000000000000000000000000000000000000000000000000000000000000000000000000000000000000000000BE000000DC000000000000000000000000000000000000000000000000000000000000
310
000000000000000000000000000000000000000000000000000000000000000000000000000000000000000000000000000000000000000000000000000000000000000000000000000000000000DC000000DC000000000000000000DC00000000DC00000000DC0000000000BEBEBEBEBEBEBEBEBEBEBEBEBE000000DCBEBE
310
BEBEBE00BEBEBEBEBEBEBEBEBEBEBEBEBEBEBEBE0000BEBEBE0000BEBE00BEBEBE0000000000000000DC000000BE000000000000000000000000000000000000000000000000000000000000000000000000000000000000000000000000BE000000DC00000000000000000000000000000000000000000000000000000000
310
0000000000000000000000000000000000000000000000000000000000000000000000000000000000000000000000000000000000000000000000000000000000000000000000000000000000000000DCDCDCDCDCDCDCDCDCDCDCDCDCDCDCDCDCDCDCDCDCDCDCDCDCDCDCDCDCDCBEBEBEBEDCBEBEBEBEBEBEBEBEDCDCDCDC
310
00BEBEBEBE00BE00BEBEBEBEBEBEBEBEBEBEBEBEBEBE0000BEBEBEBE00BEBEBE00BEBE0000000000000000DC000000BE000000000000000000000000000000000000000000000000000000000000000000000000000000000000000000000000BE000000DC0000000000000000000000000000000000000000000000000000
310
00000000000000000000000000000000000000000000000000000000000000000000000000000000000000000000000000000000000000000000000000000000000000000000000000000000000000000000DC000000DC000000000000000000DC00000000DC00000000DCF5F5F5F5000000000000DC000000000000000000
310
00DCBEBEBEBEBEBEBEBEBEBEBEBEBEBEBEBEBEBEBEBEBEBEBE00BEBEBEBE00BEBEBEBEBEBE0000000000000000DC000000BE000000000000000000000000000000000000000000000000000000000000000000000000000000000000000000000000BE000000DC000000000000000000000000000000000000000000000000
310
000000000000000000000000000000000000000000000000000000000000000000000000000000000000000000000000000000000000000000000000000000000000000000000000000000000000000000000000DC000000DC000000000000000000DC00000000DC00000000DCF5F5F5F5000000000000DC00000000000000
310
000000DC000000000000000000000000000000BEBE00BE000000000000000000000000000000000000000000000000DC000000BE000000000000000000000000000000000000000000000000000000000000000000000000000000000000000000000000BE000000DC00000000000000000000000000000000000000000000
310
0000000000000000000000000000000000000000000000000000000000000000000000000000000000000000000000000000000000000000000000000000000000000000000000000000000000000000000000000000DCDCDCDCDCDCDCDCDCDCDCDCDCDCDCDCDCDCDCDCDCDCDCDCDCDCDCDCDCBEBEBEBEBEBEBEBEBEBEDCBE
310
BEBEBEBEBEBE00BEBEBEBEBEBEBEBEBEBEBEBEBEBEBEBEBEBEBEBEBEBEBEBEBEBE00000000000000000000000000000000DC000000BE000000000000000000000000000000000000000000000000000000000000000000000000000000000000000000000000BE000000DC0000000000000000000000000000000000000000
310
00000000000000000000000000000000000000000000000000000000000000000000000000000000000000000000000000000000000000000000000000000000000000000000000000000000000000000000000000000000DC000000DC000000000000000000DC00000000DC00000000DCF5F5F5DCBEBEBEBEBEBEBEBEBEBE
310
00BEBEBEBEBEBEBE00BEBEBEBEBEBEBEBEBEBEBEBEBEBEBEBEBEBEBEBEBEBEBEBEBEBE00000000000000000000000000000000DC000000BE000000000000000000000000000000000000000000000000000000000000000000000000000000000000000000000000BE000000DC000000000000000000000000000000000000
310
000000000000000000000000000000000000000000000000000000000000000000000000000000000000000000000000000000000000000000000000000000000000000000000000000000000000000000000000000000000000DCDCDCDCDCDCDCDCDCDCDCDCDCDCDCDCDCDCDCDCDCDCDCDCDCDCDCDCDCBEBEBEBEBEBEDCDC
310
DCDCDCBEBEDCBEDCDCDCBE00BE000000000000F5F500BE00000000000000BE0000BEBE000000000000000000000000000000000000DC000000BE000000000000000000000000000000000000000000000000000000000000000000000000000000000000000000000000BE000000DC00000000000000000000000000000000
310
0000000000000000000000000000000000000000000000000000000000000000000000000000000000000000000000000000000000000000000000000000000000000000000000000000000000000000000000000000000000000000DCF5F5F5F5F5F5F5F5F5F5000000F5F5F5F5F5DCF5F5F5F5F5DCDCDCDCF5F5F5F5F5F5
310
F5F5F5F5F5F5F500000000DCF5F5F5F5F5F5F5F5F5F5F5F5F5F5F5F5000000000000000000000000000000000000000000000000000000DC000000BE000000000000000000000000000000000000000000000000000000000000000000000000000000000000000000000000BE000000DC0000000000000000000000000000
310
00000000000000000000000000000000000000000000000000000000000000000000000000000000000000000000000000000000000000000000000000000000000000000000000000000000000000000000000000000000000000000000DCF5F5F5DCF5F5F5F5F5F5000000DCF5F5F5F5DCF5F5F5F5F5DCDCDCDCF5F5F5F5
310
F5F5F5F5F5F5F5F5F500000000DCF5F5F5F5F5F5F5F5F5F5F500F5F5F5F5000000000000000000000000000000000000000000000000000000DC000000BE000000000000000000000000000000000000000000000000000000000000000000000000000000000000000000000000BE000000DC000000000000000000000000
310
000000000000000000000000000000000000000000000000000000000000000000000000000000000000000000000000000000000000000000000000000000000000000000000000000000000000000000000000000000000000000000000000DCDCDCDCDCDCDCDCDCDCDCDCDCDCDCDCDCDCDCDCDCDCDCDCDCDCDCDCDCDCDC
310
DCDCDCDCDCDCBEBEBEDCBEBEBEBEBEDCBEBEBEBEBEDCDCDCDCDCDCDCDCDCDCDCDCBEBEBEDCDCDCDCDCDCDCDCDCDCDCDCDCDCDCDCDCBEDCDCDCDCDCDC000000BE000000000000000000000000000000000000000000000000000000000000000000000000000000000000000000000000BE000000DC00000000000000000000
310
0000000000000000000000000000000000000000000000000000000000000000000000000000000000000000000000000000000000000000000000000000000000000000000000000000000000000000000000000000000000000000000000000000DC0000000000000000000000000000000000000000000000DC00000000
310
000000000000DC00BEBEBE00BEBEBEBEBEDCBEBEBEBEBE0000000000000000000000DCBEBEBE000000000000000000000000DC00000000BEBE00000000DC000000BE000000000000000000000000000000000000000000000000000000000000000000000000000000000000000000000000BE000000DC0000000000000000
310
00000000000000000000000000000000000000000000000000000000000000000000000000000000000000000000000000000000000000000000000000000000000000000000000000000000000000000000000000000000000000000000000000000000DC0000000000000000000000000000000000000000000000DCDCDC
310
DCDCDCDCDCDCDCDCDCBEBEBEBEBEBEBEBEDCBEBEBEBEBEBEBEF5F5F5F5F5F5F5F5000000F5BEBEBEF5F5F5F5F5F5F5F5F5000000DC00F5F5F5BE00F5F5F5F5DC000000BE000000000000000000000000000000000000000000000000000000000000000000000000000000000000000000000000BE000000DC000000000000
310
000000000000000000000000000000000000000000000000000000000000000000000000000000000000000000000000000000000000000000000000000000000000000000000000000000000000000000000000000000000000000000000000000000000000DC0000000000000000000000000000000000000000000000DC
310
00000000000000000000DCBEBEBEBEBEBEBEBEBEBEBEF5F5F5F5F5F5F5F5F5F5F5F5F5000000DCF5F5F5F5F5F5F5F5F5F5F5F5F50000DC00F5F5F5F500F5F5F5F5F5000000BE000000000000000000000000000000000000000000000000000000000000000000000000000000000000000000000000BE000000DC00000000
310
0000000000000000000000000000000000000000000000000000000000000000000000000000000000000000000000000000000000000000000000000000000000000000000000000000000000000000000000000000000000000000000000000000000000000000DC00000000000000000000000000000000000000000000
310
00DC00000000000000000000DCDCDCDCDCDCDCDCDCDCDCDCDCDCDCDCBEBEBEBEBEBEBEBEDCDCDCDCDCDCDCDCDCDCBEBEBEBEDCDCDCDCDCDCDCDCDCDCDCBEBEDCBEDCDCDC000000BE000000000000000000000000000000000000000000000000000000000000000000000000000000000000000000000000BE000000DC0000
310
00000000000000000000000000000000000000000000000000000000000000000000000000000000000000000000000000000000000000000000000000000000000000000000000000000000000000000000000000000000000000000000000000000000000000000000DC0000000000000000000000000000000000000000
310
000000DCDCDCDCDCDCDCDCDCDCDCDCDCDCDCBEBEBEBEDCDCDCDC00000000BE00BEBEBEBEBEBE00000000DC0000000000BEBEBEBE000000000000DC00000000BEBEBEBE0000DC000000BE000000000000000000000000000000000000000000000000000000000000000000000000000000000000000000000000BE000000DC
310
000000000000000000000000000000000000000000000000000000000000000000000000000000000000000000000000000000000000000000000000000000000000000000000000000000000000000000000000000000000000000000000000000000000000000000000000DC000000000000000000000000000000000000
310
0000000000DC00F5F5F5F5F5F5F5F500DC000000BEBEBEBE000000DC00000000BEF5BEBEBEBEBEBE00000000DC0000F5F5F5BEBEBEBEF5F500000000DC0000F5F5BEF5F5BEF500DC000000BE000000000000000000000000000000000000000000000000000000000000000000000000000000000000000000000000BE0000
310
00DC000000000000000000000000000000000000000000000000000000000000000000000000000000000000000000000000000000000000000000000000000000000000000000000000000000000000000000000000000000000000000000000000000000000000000000000000DCDCDCDCDCDCDCDCDCDCDCDCDCDCDCDCDC
310
DCDCDCDCDCDCDCDCDCF5F5F5DCDCF5F5DCDCDCDCDCDCF5F5F5F5DCDCDCDCDCDCDCDCF5F5F5DCF5F5F5DCDCDCDCDCDCDCDCDCF5F5F5F5F5F5F5F5DCDCDCDCDCDCDCF5F5F5F5F5F5F5DCDC000000BE000000000000000000000000000000000000000000000000000000000000000000000000000000000000000000000000BE
310
000000DC000000000000000000000000000000000000000000000000000000000000000000000000000000000000000000000000000000000000000000000000000000000000000000000000000000000000000000000000000000000000000000000000000000000000000000000000000000000000000000000000000000
310
000000000000000000000000000000000000000000000000000000000000000000000000000000000000000000000000000000000000000000000000000000000000000000000000000000DC000000BE0000000000000000000000000000000000000000000000000000000000000000000000000000000000000000000000
310
00BE000000DC00000000000000000000000000000000000000000000000000000000000000000000000000000000000000000000000000000000000000000000000000000000000000000000000000000000000000000000000000000000000000000000000000000000000000000000000000000000000000000000000000
310
0000000000000000000000000000000000000000000000000000000000000000000000000000000000000000000000000000000000000000000000000000000000000000000000000000000000DC000000BE000000000000000000000000000000000000000000000000000000000000000000000000000000000000000000
310
000000BE000000DC0000000000000000000000000000000000000000000000000000000000000000000000000000000000000000000000000000000000000000000000000000000000000000000000000000000000000000000000000000000000000000000000000000000000000000000000000000000000000000000000
310
00000000000000000000000000000000000000000000000000000000000000000000000000000000000000000000000000000000000000000000000000000000000000000000000000000000000000DC000000BE00000000000000000000000000000000000000000000000000000000000000000000000000000000000000
310
0000000000BE000000DC000000000000000000000000000000000000000000000000000000000000000000000000000000000000000000000000000000000000000000000000000000000000000000000000000000000000000000000000000000000000000000000000000000000000000000000000000000000000000000
310
000000000000000000000000000000000000000000000000000000000000000000000000000000000000000000000000000000000000000000000000000000000000000000000000000000000000000000DC000000BE0000000000000000000000000000000000000000000000000000000000000000000000000000000000
310
00000000000000BE000000DC00000000000000000000000000000000000000000000000000000000000000000000000000000000000000000000000000000000000000000000000000000000000000000000000000000000000000000000000000000000000000000000000000000000000000000000000000000000000000
310
0000000000000000000000000000000000000000000000000000000000000000000000000000000000000000000000000000000000000000000000000000000000000000000000000000000000000000000000DC000000BE000000000000000000000000000000000000000000000000000000000000000000000000000000
310
000000000000000000BE000000DC0000000000000000000000000000000000000000000000000000000000000000000000000000000000000000000000000000000000000000000000000000000000000000000000000000000000000000000000000000000000000000000000000000000000000000000000000000000000
310
00000000000000000000000000000000000000000000000000000000000000000000000000000000000000000000000000000000000000000000000000000000000000000000000000000000000000000000000000DC000000BE00000000000000000000000000000000000000000000000000000000000000000000000000
310
0000000000000000000000BE000000DC000000000000000000000000000000000000000000000000000000000000000000000000000000000000000000000000000000002D002D2D00000000000000000000000000000000000000000000000000000000000000000000000000000000000000000000000000000000000000
310
000000000000000000000000000000000000000000000000000000000000000000000000000000000000000000000000000000000000000000002D002D0000000000000000000000000000000000000000000000000000DC000000BE0000000000000000000000000000000000000000000000000000000000000000000000
310
00000000000000000000000000BE000000DC000000000000000000000000000000000000000000000000000000000000000000000000000000000000000000000000000000002D2D2D2D2D2D2D2D2D2D2D2D2D2D2D2D2D2D2D2D2D2D2D2D2D2D2D2D2D2D2D2D2D2D2D2D2D2D2D2D2D2D2D2D2D2D2D2D2D2D2D2D2D2D2DBEBE
310
BEBEBEBEBEBEBEBE2D2D2D2D2D2D2D2D2D2D2D2D2D2D2D2D2D2D2D2D2D2D2D2D2D2D2D2D2D2D2D2D2D2D2D2D2D2D2D2D2D2D2D2D2D2D2D2D2D2D2D2D2D2DF50000000000000000000000000000000000000000000000000000DC000000BE000000000000000000000000000000000000000000000000000000000000000000
310
000000000000000000000000000000BE000000DC000000000000000000000000000000000000000000000000000000000000000000000000000000000000000000000000000000002D000000000000000000000000000000000000000000000000000000000000000000000000000000000000000000000000000000000000
310
BEBEBEBEBEBEBEBEBEBE0000000000000000000000000000000000000000000000000000000000000000000000000000000000000000000000000000000000002D0000000000000000000000000000000000000000000000000000DC000000BE00000000000000000000000000000000000000000000000000000000000000
310
0000000000000000000000000000000000BE000000DC000000000000000000000000000000000000000000000000000000000000000000000000000000000000000000000000000000002D00000000000000000000000000000000000000000000000000000000000000000000000000000000000000000000000000000000
310
0000BEBEBEBEBEBEBEBEBEBE0000000000000000000000000000000000000000000000000000000000000000000000000000000000000000000000000000000000002D0000000000000000000000000000000000000000000000000000DC000000BE0000000000000000000000000000000000000000000000000000000000
310
00000000000000000000000000000000000000BE000000DC000000000000000000000000000000000000000000000000000000000000000000000000000000000000000000000000000000002D0000000000000000000000000000000000000000000000000000000000000000000000000000000000000000000000000000
310
00000000BEBEBEBEBEBEBEBEBEBE0000000000000000000000000000000000000000000000000000000000000000000000000000000000000000000000000000000000002D0000000000000000000000000000000000000000000000000000DC000000BE000000000000000000000000000000000000000000000000000000
310
000000000000000000000000000000000000000000BE000000DC000000000000000000000000000000000000000000000000000000000000000000000000000000000000000000000000000000002D000000000000000000000000000000000000000000000000000000000000000000000000000000000000000000000000
310
000000000000000000000000000000000000000000000000000000000000000000000000000000000000000000000000000000000000000000000000000000000000000000002D0000000000000000000000000000000000000000000000000000DC000000BE00000000000000000000000000000000000000000000000000
310
0000000000000000000000000000000000000000000000BE000000DC000000000000000000000000000000000000000000000000000000000000000000000000000000000000000000000000000000002D0000000000BE000000000000000000000000BE000000000000000000000000000000000000000000000000000000
310
00000000000000000000000000BE00000000000000000000000000000000000000000000000000000000000000000000000000000000BE000000000000000000000000BE000000002D0000000000000000000000000000000000000000000000000000DC000000BE0000000000000000000000000000000000000000000000
310
00000000000000000000000000000000000000000000000000BE000000DC00000000000000000000000000000000000000000000000000000000000000000000000000000000000000000000000000000000F5F528282D2828282D2828F5F5F5F5F5F5F528BE28F5F5F5F5F5F5F5F5F5F5F5F5F5F5F5F5F5F5F5F5F5F5F5F5
310
F5F5F5F5F5F5F5F5F5F5F528282D2828282D2828F5F5F5F5F5F5F5F5F5F5F5F5F5F5F5F5F5F5F5F5F5F5F5F5F5F5F5F5F5F5F5F5F5F5F528BE28F5F5F5F5F5F5F528282D2828282D2828F50000000000000000000000000000000000000000000000000000DC000000BE000000000000000000000000000000000000000000
310
000000000000000000000000000000000000000000000000000000BE000000DC00000000000000000000000000000000000000000000000000000000000000000000000000000000000000000000000000000000F50028282D00BE002D28280000000000000028BE2800000000000000000000000000000000000000000000
310
0000000000000000000000000028282D00BE282D2828000000000000000000000000000000000000000000000000000000000000000000000028BE280000000000000028282D00BE282D2828F50000000000000000000000000000000000000000000000000000DC000000BE00000000000000000000000000000000000000
310
0000000000000000000000000000000000000000000000000000000000BE000000DC00000000000000000000000000000000000000000000000000000000000000000000000000000000000000000000000000000000F50000282D28BE282D28000000000000000028BE280000000000000000000000000000000000000000
310
00000000000000000000000000000000282D28BE282D2800000000000000000000000000000000000000000000000000000000000000000000000028BE280000000000000000282D28BE282D2800F50000000000000000000000000000000000000000000000000000DC000000BE0000000000000000000000000000000000
310
00000000000000000000000000000000000000000000000000000000000000BE000000DC00000000000000000000000000000000000000000000000000000000000000000000000000000000000000000000000000000000F5F5F5F52DF5BEF52DF5F5F5F5F5F5F5F5F528BE28F5F5F5F5F5F5F5F5F5F5F5F5F5F5F5F5F5F5
310
F5F5F5F5F5F5F5F5F5F5F5F5F5F5F5F5F5F5F52DF5BE282DF5F5F5F5F5F5F5F5F5F5F5F5F5F5F5F5F5F5F5F5F5F5F5F5F5F5F5F5F5F5F5F5F5F5F5F5F528BE28F5F5F5F5F5F5F5F5F52DF5BE282DF5F5F50000000000000000000000000000000000000000000000000000DC000000BE000000000000000000000000000000
310
000000000000000000000000000000000000000000000000000000000000000000BE000000DC00000000000000000000000000000000000000000000000000000000000000000000000000000000000000000000000000000000000000000000BE000000000000000000000000BE0000000000000000000000000000000000
310
0000000000000000000000000000000000000000000000BE00000000000000000000000000000000000000000000000000000000000000000000000000000000BE000000000000000000000000BE00000000000000000000000000000000000000000000000000000000000000DC000000BE00000000000000000000000000
310
0000000000000000000000000000000000000000000000000000000000000000000000BE000000DC00000000000000000000000000000000000000000000000000000000000000000000000000000000000000000000000000000000000000000000BE00000000000000000000000000000000000000000000000000000000
310
00000000000000000000000000000000000000000000000000BE0000000000000000000000000000000000000000000000000000000000000000000000000000000000000000000000000000000000BE00000000000000000000000000000000000000000000000000000000000000DC000000BE0000000000000000000000
310
00000000000000000000000000000000000000000000000000000000000000000000000000BE000000DC00000000000000000000000000000000000000000000000000000000000000000000000000000000000000000000000000000000000000000000000000000000000000000000000000000000000000000000000000
310
0000000000000000000000000000000000000000000000000000000000000000000000000000000000000000000000000000000000000000000000000000000000000000000000000000000000000000000000000000000000000000000000000000000000000000000000000000000000DC000000BE000000000000000000
310
000000000000000000000000000000000000000000000000000000000000000000000000000000BE000000DC0000000000000000000000000000000000000000000000000000000000000000000000000000000000000000000000000000000000000000000000000000000000000000000000000000000000000000000000
310
00000000000000000000000000000000000000000000000000000000000000000000000000000000000000000000000000000000000000000000000000000000000000000000000000000000000000000000000000000000000000000000000000000000000000000000000000000000000000DC000000BE00000000000000
310
0000000000000000000000000000000000000000000000000000000000000000000000000000000000BE000000DC000000000000000000000000000000000000000000000000000000000000000000000000000000000000000000000000000000000000000000000000000000000000000000000000000000000000000000
310
000000000000000000000000000000000000000000000000000000000000000000000000000000000000000000000000000000000000000000000000000000000000000000000000000000000000000000000000000000000000000000000000000000000000000000000000000000000000000000DC000000BE0000000000
310
00000000000000000000000000000000000000000000000000000000000000000000000000000000000000BE000000DC00000000000000000000000000000000000000000000000000000000000000000000000000000000000000000000000000000000000000000000000000000000000000000000000000000000000000
310
0000000000000000000000000000000000000000000000000000000000000000000000000000000000000000000000000000000000000000000000000000000000000000000000000000000000000000000000000000000000000000000000000000000000000000000000000000000000000000000000DC000000BE000000
310
000000000000000000000000000000000000000000000000000000000000000000000000000000000000000000BE000000DC0000000000000000000000000000000000000000000000000000000000000000000000000000000000000000000000000000000000000000000000000000000000000000000000000000000000
310
00000000000000000000000000000000000000000000000000000000000000000000000000000000000000000000000000000000000000000000000000000000000000000000000000000000000000000000000000000000000000000000000000000000000000000000000000000000000000000000000000DC000000BE00
310
0000000000000000000000000000000000000000000000000000000000000000000000000000000000000000000000BE000000DC000000000000000000000000000000000000000000000000000000000000000000000000000000000000000000000000000000000000000000000000000000000000000000000000000000
310
000000000000000000000000000000000000000000000000000000000000000000000000000000000000000000000000000000000000000000000000000000000000000000000000000000000000000000000000000000000000000000000000000000000000000000000000000000000000000000000000000000DC000000
310
BE000000000000000000000000000000000000000000000000000000000000000000000000000000000000000000000000BE000000DC00000000000000000000000000000000000000000000000000000000000000000000000000000000000000000000000000000000000000000000000000000000000000000000000000
310
0000000000000000000000000000000000000000000000000000000000000000000000000000000000000000000000000000000000000000000000000000000000000000000000000000000000000000000000000000000000000000000000000000000000000000000000000000000000000000000000000000000000DC00
310
0000BE000000000000000000000000000000000000000000000000000000000000000000000000000000000000000000000000BE000000DC0000000000000000000000000000000000000000000000000000000000000000000000000000000000000000000000000000000000000000000000000000000000000000000000
310
00000000000000000000000000000000000000000000000000000000000000000000000000000000000000000000000000000000000000000000000000000000000000000000000000000000000000000000000000000000000000000000000000000000000000000000000000000000000000000000000000000000000000
310
DC000000BE000000000000000000000000000000000000000000000000000000000000000000000000000000000000000000000000BE000000DC000000000000000000000000000000000000000000000000000000000000000000000000000000000000000000000000000000000000000000000000000000000000000000
310
00000000000000000000000000000000000000000000000000000000000000000000000000000000000000BE0000000000000000000000000000000000000000000000000000000000000000000000000000000000000000000000000000000000000000000000000000000000000000000000000000000000000000000000
310
0000DC000000BE000000000000000000000000000000000000000000000000000000000000000000000000000000000000000000000000BE000000DC00000000000000000000000000000000000000000000000000000000000000000000000000000000000000000000000000000000000000000000000000000000000000
310
000000000000000000000000000000000000000000000000000000000000000000000000000000000000000000BE000000000000000000000000000000000000000000000000000000000000000000000000000000000000000000000000000000000000000000000000000000000000000000000000000000000000000000
310
00000000DC000000BE000000000000000000000000000000000000000000000000000000000000000000000000000000000000000000000000BE000000DC0000000000000000000000000000000000000000000000000000000000000000000000000000000000000000000000000000000000000000000000000000000000
310
0000000000000000000000000000000000000000000000000000000000000000000000000000000000000000000000F5F5F5F5F5F5F500000000000000000000000000000000000000000000000000000000000000000000000000000000000000000000000000000000000000000000000000000000000000000000000000
310
000000000000DC000000BE000000000000000000000000000000000000000000000000000000000000000000000000000000000000000000000000BE000000DC000000000000000000000000000000000000000000000000000000000000000000000000000000000000000000000000000000000000000000000000000000
310
00000000000000000000000000000000000000000000000000000000000000000000000000000000000000000000000000BE00F5F50000000000000000000000000000000000000000000000000000000000000000000000000000000000000000000000000000000000000000000000000000000000000000000000000000
310
0000000000000000DC000000BE000000000000000000000000000000000000000000000000000000000000000000000000000000000000000000000000BE000000DC00000000000000000000000000000000000000000000000000000000000000000000000000000000000000000000000000000000000000000000000000
310
000000000000000000000000000000000000000000000000000000000000000000000000000000000000000000000000000000BE000000000000000000000000000000000000000000000000000000000000000000000000000000000000000000000000000000000000000000000000000000000000000000000000000000
310
00000000000000000000DC000000BE000000000000000000000000000000000000000000000000000000000000000000000000000000000000000000000000BE000000DC0000000000000000000000000000000000000000000000000000000000000000000000000000000000000000000000000000000000000000000000
310
0000000000000000000000000000000000000000000000000000000000000000000000000000000000000000000000000000000000BE00000000000000000000000000000000000000000000000000000000000000000000000000000000000000000000000000000000000000000000000000000000000000000000000000
310
000000000000000000000000DC000000BE000000000000000000000000000000000000000000000000000000000000000000000000000000000000000000000000BE000000DC000000000000000000000000000000000000000000000000000000000000000000000000000000000000000000000000000000000000000000
310
00000000000000000000000000000000000000000000000000000000000000000000000000000000000000000000000000000000000000BE0000000000000000000000000000000000000000000000000000000000000000000000000000000000000000000000000000000000000000000000000000000000000000000000
310
0000000000000000000000000000DC000000BE000000000000000000000000000000000000000000000000000000000000000000000000000000000000000000000000BE000000DC00000000000000000000000000000000000000000000000000000000000000000000000000000000000000000000000000000000000000
310
000000000000000000000000000000000000000000000000000000000000000000000000000000000000000000000000000000000000000000BE000000000000000000000000000000000000000000000000000000000000000000000000000000000000000000000000000000000000000000000000000000000000000000
310
00000000000000000000000000000000DC000000BE000000000000000000000000000000000000000000000000000000000000000000000000000000000000000000000000BE000000DC0000000000000000000000000000000000000000000000000000000000000000000000000000000000000000000000000000000000
310
0000000000000000000000000000000000000000000000000000000000000000000000000000000000000000000000000000000000000000000000BE000000F5F5F500000000000000000000000000000000000000000000000000000000000000000000000000000000000000000000000000000000000000000000000000
310
000000000000000000000000000000000000DC000000BE000000000000000000000000000000000000000000000000000000000000000000000000000000000000000000000000BE000000DC000000000000000000000000000000000000000000000000000000000000000000000000000000000000000000000000000000
310
00000000000000000000000000000000000000000000000000000000000000000000000000000000000000000000000000000000000000000000000000BE000000F500F50000000000000000000000000000000000000000000000000000000000000000000000000000000000000000000000000000000000000000000000
310
0000000000000000000000000000000000000000DC000000BE000000000000000000000000000000000000000000000000000000000000000000000000000000000000000000000000BE000000DC00000000000000000000000000000000000000000000000000000000000000000000000000000000000000000000000000
310
000000000000000000000000000000000000000000000000000000000000000000000000000000000000000000000000000000000000000000000000000000BE000000F5F5F5000000000000000000000000000000000000000000000000000000000000000000000000000000000000000000000000000000000000000000
310
00000000000000000000000000000000000000000000DC000000BE000000000000000000000000000000000000000000000000000000000000000000000000000000000000000000000000BE000000DC0000000000000000000000000000000000000000000000000000000000000000000000000000000000000000000000
310
0000000000000000000000000000000000000000000000000000000000000000000000000000000000000000000000000000000000000000000000000000000000BE000000F5F5F500000000000000000000000000000000000000000000000000000000000000000000000000000000000000000000000000000000000000
310
000000000000000000000000000000000000000000000000DC000000BE000000000000000000000000000000000000000000000000000000000000000000000000000000000000000000000000BE000000DC000000000000000000000000000000000000000000000000000000000000000000000000000000000000000000
310
000000000000002D0000000000000000000000000000000000000000000000000000000000000000000000000000000000000000000000000000000000000000000000BE000000000000000000000000000000000000000000000000000000000000000000000000000000000000000000000000000000000000000000002D
310
0000000000000000000000000000000000000000000000000000DC000000BE000000000000000000000000000000000000000000000000000000000000000000000000000000000000000000000000BE000000DC00000000000000000000000000000000000000000000000000000000000000000000000000000000000000
310
000000000000000000F52D2D2D2D2D2D2D2D2D2D2D2D2D2D2D2D2D2D2D2D2D2D2D2D2D2D2D2D2D2D2D2D2D2D2D2D2D2D2D2D2D2D2D2D2D2D2D2D2D2D2D2D2D2D2D2D2D2D2DBE2D2D2D2D2D2D2D2D2D2D2D2D2D2D2D2D2D2D2D2D2D2D2D2D2D2D2D2D2D2D2D2D2D2D2D2D2D2D2D2D2D2D2D2D2D2D2D2D2D2D2D2D2D2D2D2D2D
310
2D2D0000000000000000000000000000000000000000000000000000DC000000BE000000000000000000000000000000000000000000000000000000000000000000000000000000000000000000000000BE000000DC0000000000000000000000000000000000000000000000000000000000000000000000000000000000
310
00000000000000000000002D002D2D0000000000000000000000000000000000000000000000000000000000000000000000000000000000000000000000000000000000000000BE00000000BEBEBEBEBEBEBEBEBEBE0000000000000000000000000000000000000000000000000000000000000000000000000000000000
310
002D2D2D0000000000000000000000000000000000000000000000000000DC000000BE000000000000000000000000000000000000000000000000000000000000000000000000000000000000000000000000BE000000DC000000000000000000000000000000000000000000000000000000000000000000000000000000
310
000000000000000000000000002D0000000000000000000000000000000000000000000000000000000000000000000000000000000000000000000000000000000000000000000000BE00000000BEBEBEBEBEBEBEBEBEBE000000000000000000000000000000000000000000000000000000000000000000000000000000
310
00000000002D0000000000000000000000000000000000000000000000000000DC000000BE000000000000000000000000000000000000000000000000000000000000000000000000000000000000000000000000BE000000DC00000000000000000000000000000000000000000000000000000000000000000000000000
310
0000000000000000000000000000002D0000000000000000000000000000000000000000000000000000000000000000000000000000000000000000000000000000000000000000000000BE00000000BEBEBEBEBEBEBEBEBEBE00000000000000000000000000000000000000000000000000000000000000000000000000
310
000000000000002D0000000000000000000000000000000000000000000000000000DC000000BE000000000000000000000000000000000000000000000000000000000000000000000000000000000000000000000000BE000000DC0000000000000000000000000000000000002D00002D00000000000000000000000000
310
00000000000000000000000000000000002D0000000000000000000000000000000000002D00000000000000000000000000000000000000000000000000000000000000000000000000000000BE000000000000000000000000000000000000000000000000000000000000000000000000000000002D0000000000000000
310
0000000000000000002D0000000000000000000000000000000000000000000000000000DC000000BE000000000000000000000000000000000000000000000000000000000000000000000000000000000000000000000000BE000000DC000000000000000000000000002D2D2D2D2DBEBEBEF52D2D2D2D2D000000000000
310
000000000000000000000000000000000000002D2D2D2D2D2D2D2D2D2D2D2D2D2D2D2D2D2D2D2D2D2D2D2D2D2D2D2D2D2D2D2D2D2D2D2D2D2D2D2D2D2D2D2D2D2D2D2D2D2D2D2D2D2D2D2D2D2D2D2D2D2D2D2D2D2D2D2D2D2D2D2D2D2D2D2D2D2D2D2D2D2D2D2D2D2D2D2D2D2D2D2D2D2D2D2D2D2D2D2D2D2D2D2D2D2D2D2D
310
2D2D2D2D2D2D2D2D2D2D2DF50000000000000000000000000000000000000000000000000000DC000000BE000000000000000000000000000000000000000000000000000000000000000000000000000000000000000000000000BE000000DC000000000000000000002D00000000000000BEBEBE2D000000000000000000
310
00000000000000000000002D0000000000000000002D002D2D00BEBEBEBEBEBEBEBEBE00002D2D002D2D2D0000000000000000000000000000000000000000000000000000000000000000000000000000BEBEBEBEBEBEBE000000000000000000000000000000000000000000000000000000000000002D2D002D2D2D0000
310
BEBEBEBEBEBEBEBE0000002D2D2D0000000000000000000000000000000000000000000000000000DC000000BE000000000000000000000000000000000000000000000000000000000000000000000000000000000000000000000000BE000000DC00000000000000000000002D000000000000BEBEBE2D00000000000000
310
000000000000000000000000002D0000000000000000002D00000000BEBEBEBEBEBEBEBEBE00000000002D00000000000000000000000000000000000000000000000000000000000000000000000000000000BEBEBEBEBEBEBE000000000000000000000000000000000000000000000000000000000000000000002D0000
310
0000BEBEBEBEBEBEBEBE00000000002D0000000000000000000000000000000000000000000000000000DC000000BE000000000000000000000000000000000000000000000000000000000000000000000000000000000000000000000000BE000000DC0000000000000000002D2D002D0000000000BEBEBE2D0000000000
310
0000000000000000000000000000002D0000000000000000002D00000000BEBEBEBEBEBEBEBEBE00000000002D00000000000000000000000000000000000000000000000000000000000000000000000000000000BEBEBEBEBEBEBE000000000000000000000000000000000000000000000000000000000000000000002D
310
00000000BEBEBEBEBEBEBEBE00000000002D0000000000000000000000000000000000000000000000000000DC000000BE000000000000000000000000000000000000000000000000000000000000000000000000000000000000000000000000BE000000DC0000000000000000002D00002D2D000000002D2D2D2D000000
310
00000000000000000000000000000000002D2D00000000000000002D00000000BEBEBEBEBEBEBEBEBE00000000002D00000000000000000000000000000000000000000000000000000000000000000000000000000000BEBEBEBEBEBEBE000000000000000000000000000000000000000000000000000000000000000000
310
002D00000000BEBEBEBEBEBEBEBE00000000002D0000000000000000000000000000000000000000000000000000DC000000BE000000000000000000000000000000000000000000000000000000000000000000000000000000000000000000000000BE000000DC00000000000000002D0000002D002D0000002DF5F52D00
310
000000000000000000000000000000000000002D2D00000000000000002DDCDCDCDCDCDCDCDCDCDCDCDCDCDCDCDCDCDC2DDCDCDCDCDCDCDCDCDCDCDCDCDCDCDCDCDCDCDCDCDCDCDCDCDCDCDCDCDCDCDCDCDCDCDCDCDCDCDCDCBEDCDCDCDCDCDCDCDCDCDCDCDCDCDCDCDCDCDCDCDCDCDCDCDCDCDCDCDCDCDCDCDCDCDCDCDCDC
310
DCDCDC2DDCDCDCDCDCDCDCDCDCDCDCDCDCDCDCDCDC2D2D2D2D2D2D2D2D2D2DF52D000000000000000000000000000000DC000000BE000000000000000000000000000000000000000000000000000000000000000000000000000000000000000000000000BE000000DC00000000000000002D0000002D2D002D0000F50000
310
F5000000000000000000000000000000000000002DF52D2D2D2DF52D2D2D2DF5000000000000000000000000000000000000F52D2D2D2D2D2D2D2D0000000000000000000000000000000000000000000000000000000000000000BE0000000000000000000000000000000000000000000000000000000000000000000000
310
00000000002D0000000000000000000000000000000000F50000000000000000002D00000000000000000000000000000000DC000000BE000000000000000000000000000000000000000000000000000000000000000000000000000000000000000000000000BE000000DC000000000000002D2D0000002D2D00002D00F5
310
0000F500000000000000000000000000000000BEBEBEBE2D000000002D00000000DC0000000000000000000000000000000000002D0000000000002D000000000000000000000000000000000000000000000000000000000000000000BE000000000000000000000000000000000000000000000000000000000000000000
310
000000000000002D0000000000000000000000000000000000DC0000000000000000002D00000000000000000000000000000000DC000000BE000000000000000000000000000000000000000000000000000000000000000000000000000000000000000000000000BE000000DC000000BEBEBE002D000000002D00000000
310
2DF50000F500000000000000000000000000000000BEBEBEBE2D000000002D2D000000DC0000000000000000000000000000000000002D0000000000002D2D0000000000000000000000000000000000000000000000000000000000000000BE00000000000000000000000000000000000000000000000000000000000000
310
0000000000000000002D0000000000000000000000000000000000DC0000000000000000002D00000000000000000000000000000000DC000000BE000000000000000000000000000000000000000000000000000000000000000000000000000000000000000000000000BE000000DC000000BEBEBE002DBEBEBEBEF52D2D
310
2D2D2DF52D2D2D00000000000000000000000000000000BEBEBEBE2D000000002D2D000000DC00000000F5F5F500000000000000000000002D0000000000002D2D00000000000000000000000000000000000000000000000000000000000000F5F5F500000000000000000000000000000000000000000000000000000000
310
00000000000000000000002D00000000000000000000F5F5F5F5000000DC0000000000000000002D00000000000000000000000000000000DC000000BE000000000000000000000000000000000000000000000000000000000000000000000000000000000000000000000000BE000000DC000000BEBEBE002DBEBEBEBE2D
310
0000000000F52D2DF500000000000000000000000000000000000000002D000000002D00000000DC000000F5DCBEF5F5000000000000000000002D0000000000002D00000000000000000000000000000000000000000000000000000000000000F5DCBEF5F500000000000000000000000000000000000000000000000000
310
000000000000000000000000002D00000000000000000000F5DCBEF5F50000DC0000000000000000002D00000000000000000000000000000000DC000000BE000000000000000000000000000000000000000000000000000000000000000000000000000000000000000000000000BE000000DC000000BEBEBE002DBEBEBE
310
BE2D00000000BEBEBEBEBE000000000000000000000000000000000000002D2D2D2D2D2D2D2D2D2D2D2D2D2DF5F5BEBEBEF5000000000000000000002D0000000000002D00000000000000000000000000000000000000000000000000000000000000F5BEBEDCF50000000000000000000000000000000000000000000000
310
0000000000000000000000000000002D00000000000000000000F5BEBEDCF50000DC0000000000000000002D00000000000000000000000000000000DC000000BE000000000000000000000000000000000000000000000000000000000000000000000000000000000000000000000000BE000000DC000000BEBEBE002DBE
310
BEBEBE2D0000000000F52D2DF500000000000000000000000000000000000000002DBEBEBEBE2D00000000DC000000F5DCBEF5F5000000000000000000002D0000000000002D00000000000000000000000000000000000000000000000000000000000000F5DCBEF5F5000000000000000000000000000000000000000000
310
00000000000000000000000000000000002D00000000000000000000F5DCBEF5F50000DC0000000000000000002D00000000000000000000000000000000DC000000BE000000000000000000000000000000000000000000000000000000000000000000000000000000000000000000000000BE000000DC000000BEBEBE00
310
2D0000002D2D2D2D2D2D2DF52D2D2D00000000000000000000000000000000000000002DBEBEBEBE2D00000000DC00000000F5F5F500000000000000000000002D0000000000002D0000000000000000000000000000000000000000000000000000000000000000F5F5F50000000000000000000000000000000000000000
310
000000000000000000000000000000000000002D00000000000000000000F5F5F5F5000000DC0000000000000000002D00000000000000000000000000000000DC000000BE000000000000000000000000000000000000000000000000000000000000000000000000000000000000000000000000BE000000DC0000000000
310
0000F5000000002D000000002DF50000F500000000000000000000000000000000000000002DBEBEBEBE2D00000000DC00000000F5BE0000000000000000000000002D0000BEBEBEBE2D0000000000000000000000000000000000000000000000000000000000000000F5BE00000000000000000000000000000000000000
310
0000000000000000000000000000000000000000002D0000000000000000000000F5BE00000000DC0000000000000000002D00000000000000000000000000000000DC000000BE000000000000000000000000000000000000000000000000000000000000000000000000000000000000000000000000BE000000DC000000
310
000000002D2D0000002D2D00002D00F5F500F500000000000000000000000000000000000000002DBEBEBEBE2D00000000DC0000F5F5F5BEF5F5000000000000000000002D0000BEBEBEBE2D000000000000000000000000000000000000000000000000000000000000F5F5F5BEF5F5000000000000000000000000000000
310
00000000000000000000000000000000000000000000002D000000000000000000F5F5F5BEF5F50000DC0000000000000000002D00000000000000000000000000000000DC000000BE000000000000000000000000000000000000000000000000000000000000000000000000000000000000000000000000BE000000DC00
310
000000000000002D0000002D2D002D0000F500F5F500000000000000000000000000000000000000002D000000002D2D000000DC0000F500DCBEDC00F50000000000000000002D0000BEBEBEBE2D0000000000000000000000000000000000000000000000000000000000F5F500DCBEDC00F5000000000000000000000000
310
000000000000000000000000000000000000000000000000002D0000000000000000F5F500DCBEDCF5F500DC0000000000000000002D00000000000000000000000000000000DC000000BE000000000000000000000000000000000000000000000000000000000000000000000000000000000000000000000000BE000000
310
DC00000000000000002D0000002D002D000000F500F5F500000000000000000000000000000000000000002D000000002D2D000000DC00F500DCDCBEDCDCF5F500000000000000002D0000BEBEBEBE2D0000000000000000000000000000000000000000000000000000000000F500DCDCBEDCDCF5F5000000000000000000
310
0000000000000000000000000000000000000000000000000000002D0000000000000000F500DC00BEDCDCF5F5DC0000000000000000002D00000000000000000000000000000000DC000000BE000000000000000000000000000000000000000000000000000000000000000000000000000000000000000000000000BE00
310
0000DC0000000000000000002D00002D2D000000BEF5BEBEBEBEBE0000000000000000000000000000000000002D0000002D2D2D2D2D2DF5BEBEBEBEBEBEBEBEBEBEBE000000000000002D0000000000002D00000000000000000000000000000000000000000000000000000000BEBEBEBEBEBEBEBEBEBEBE000000000000
310
00000000000000000000000000000000000000000000000000000000002D00000000000000BEBEBEBEBEBEBEBEBEBEBE0000000000000000002D00000000000000000000000000000000DC000000BE000000000000000000000000000000000000000000000000000000000000000000000000000000000000000000000000
310
BE000000DC0000000000000000002D2D002D0000000000F52DF5F500000000000000000000000000000000000000002D000000002D00000000DC00F500DC00BE00DC00F500000000000000002D0000000000002D0000000000000000000000000000000000000000000000000000000000F500DC00BE00DC00F50000000000
310
000000000000000000000000000000000000000000000000000000000000002D0000000000000000F500DC00BE00DC00F5DC0000000000000000002D00000000000000000000000000000000DC000000BE00000000000000000000000000000000000000000000000000000000000000000000000000000000000000000000
310
0000BE000000DC000000000000000000002D2D000000000000F500F5F500000000000000000000000000000000000000002D000000002D2D000000DC00F5F5DCDCBEDCDCF5F500000000000000002D0000000000002D0000000000000000000000000000000000000000000000000000000000F500DCDCBEDCDCF5F5000000
310
0000000000000000000000000000000000000000000000000000000000000000002D0000000000000000F500DCDCBEDC00F500DC0000000000000000002D00000000000000000000000000000000DC000000BE0000000000000000000000000000000000000000000000000000000000000000000000000000000000000000
310
00000000BE000000DC000000000000000000002D00000000000000F5F52DF500000000000000000000000000000000000000002D000000002D2D000000DC0000F50000BE00F5F50000000000000000002D0000000000002D000000000000000000000000000000000000000000000000000000000000F50000BE00F5F50000
310
00000000000000000000000000000000000000000000000000000000000000000000002D000000000000000000F50000BE00F5F500DC0000000000000000002D00000000000000000000000000000000DC000000BE000000000000000000000000000000000000000000000000000000000000000000000000000000000000
310
000000000000BE000000DC0000000000000000000000002D0000000000F52D2DF500000000000000000000000000000000000000002D000000002D00000000DC000000F5F5BEF5F5000000000000000000002D0000000000002D00000000000000000000000000000000000000000000000000000000000000F5F5BEF5F500
310
000000000000000000000000000000000000000000000000000000000000000000000000002D00000000000000000000F5F5BEF5F50000DC0000000000BEBEBEBE2D00000000000000000000000000000000DC000000BE00000000000000000000000000000000000000000000000000000000000000000000000000000000
310
0000000000000000BE000000DC000000000000000000000000002D002D0000F52D2DF500000000000000000000000000000000BEBEBEBE2DBEBEBEBE2D00000000DC0000000000BE000000000000000000000000F50000000000002D2D0000000000000000000000000000000000000000000000000000000000000000BE00
310
000000000000000000000000000000000000000000000000000000000000000000000000000000F5000000000000000000000000BE00000000DC0000000000BEBEBEBE2D00000000000000000000000000000000DC000000BE0000000000000000000000000000000000000000000000000000000000000000000000000000
310
00000000000000000000BE000000DC0000000000000000000000002D2D2D2D0000F5F5F5F500000000000000000000000000000000BEBEBEBE2DBEBEBEBE2D00000000DC0000000000000000000000000000000000DC2D2D00000000002D2D0000000000000000000000000000000000000000000000000000000000000000
310
BE000000000000000000000000000000000000000000000000000000000000000000000000000000DCDC2D00000000000000000000000000000000DC0000000000BEBEBEBE2D00000000000000000000000000000000DC000000BE000000000000000000000000000000000000000000000000000000000000000000000000
310
000000000000000000000000BE000000DC00000000000000000000002D2D00002D2DBEBEBEBEBEBE0000000000002D0000000000000000BEBEBEBE2DBEBEBEBE2D00000000DC00000000000000000000000000000000BEF5F5F5F52D2D2D2D2D2D000000000000000000000000000000000000000000000000000000000000
310
0000BE0000000000000000000000000000000000000000000000000000000000000000000000000000BEDCBEDCBE000000000000000000000000000000DC0000000000BEBEBEBE2D00000000000000000000000000000000DC000000BE00000000000000000000000000000000000000000000000000000000000000000000
310
0000000000000000000000000000BE000000DC00000000000000000000002D00002D2D002DF5F5F5F500BEBEBEBEBE002D0000000000000000BEBEBEBE2DBEBEBEBE2D00000000DC00000000000000000000000000000000002DDC2D00000000002D0000000000000000000000000000000000000000000000000000000000
310
00000000BE000000000000000000000000000000000000000000000000000000000000000000000000000000DCDCDC00000000000000000000000000000000DC0000000000BEBEBEBE2D00000000000000000000000000000000DC000000BE0000000000000000000000000000000000000000000000000000000000000000
310
00000000000000000000000000000000BE000000DC000000000000000000002D000000002D00002D2D2D2D00BEBEBEBEBE002D0000000000000000000000002D000000002D00000000DC0000000000BE00000000000000000000002DBE2D00000000002D2D0000000000000000000000000000000000000000000000000000
310
000000000000BE00000000000000000000000000000000000000000000000000000000000000000000000000000000BE000000000000000000000000BE00000000DC0000000000BEBEBEBE2D00000000000000000000000000000000DC000000BE000000000000000000000000000000000000000000000000000000000000
310
000000000000000000000000000000000000BE000000DC000000000000000000002D0000002D2D2D2DF52D2DF52D2DBEBEBEBE002D2D00000000000000000000002D000000002D00000000DC00000000F5BEF5000000000000002D2D002D002D002D0000002D2D000000000000000000000000000000000000000000000000
310
00000000000000F5BEF50000000000000000000000000000000000000000000000000000000000000000000000000000000000000000000000000000F5F5BEF5000000DC0000000000BEBEBEBE2D00000000000000000000000000000000DC000000BE00000000000000000000000000000000000000000000000000000000
310
0000000000000000000000000000000000000000BE000000DC0000000000BEBEBEBE002DBEBEBE002D00002D2D2D2D2D2D00000000002D2D00000000000000000000002D000000002D00000000DC0000F5F500BE00F5F500BEBEBEBE2D2D2D2D2DF52D2D2D2D2D2D0000000000000000000000000000000000000000000000
310
00000000000000F5F500BE00F5F50000000000000000000000000000000000000000000000000000000000000000000000000000000000000000000000F5F500BEF5F50000DC0000000000000000002D00000000000000000000000000000000DC000000BE0000000000000000000000000000000000000000000000000000
310
00000000000000000000000000000000000000000000BE000000DC0000000000BEBEBEBE002DBEBEBE002D0000F500F5F52D2D2D2D2D2D2DF52D00000000000000000000002D000000002D2D000000DC00F5F500DCBEDC00F500BEBEBEBE0000002D002D00000000002D000000000000000000000000000000000000000000
310
0000BEBEBEBE0000F5F500DCBEDC00F500000000000000000000000000000000000000000000000000000000000000000000000000000000000000000000F5F5DCDCBEDC00F500DC0000000000000000002D00000000000000000000000000000000DC000000BE000000000000000000000000000000000000000000000000
310
000000000000000000000000000000000000000000000000BE000000DC0000000000BEBEBEBE2DBEBEBEBE002D0000F52DF5F5000000000000002D0000000000000000000000002D000000002D2D000000DC00F500DC00BEDCDC00F5BEBEBEBE00000000000000000000002D00000000000000000000000000000000000000
310
00000000BEBEBEBE0000F500DC00BEDCDC00F5000000000000000000000000000000000000000000000000000000000000000000000000000000000000000000F500DC00BEDCDCF5F5DC0000000000000000002D00000000000000000000000000000000DC000000BE00000000000000000000000000000000000000000000
310
0000000000000000000000000000000000000000000000000000BE000000DC0000000000BEBEBEBE2DBEBEBEBE002D00BEF5BEBEBEBEBE00000000002D0000000000000000000000002D0000002D2D2D2D2D2DF5BEBEBEBEBEBEBEBEBEBEBEBEBEBE00000000000000000000002D0000000000000000000000000000000000
310
000000000000BEBEBEBE00BEBEBEBEBEBEBEBEBEBEBE00000000000000000000000000000000000000000000000000000000000000000000000000000000000000BEBEBEBEBEBEBEBEBEBEBE0000000000000000002D00000000000000000000000000000000DC000000BE0000000000000000000000000000000000000000
310
00000000000000000000000000000000000000000000000000000000BE000000DC0000000000BEBEBEBE2DBEBEBEBE002D0000F500F5F5000000000000002D0000000000000000000000002D000000002D2D000000DC00F500DC00BEDCDC00F50000000000000000000000BEBEBEBE2D000000000000000000000000000000
310
0000000000000000BEBEBEBE2D00F500DC00BEDCDC00F5000000000000000000000000000000000000000000000000000000000000000000000000000000000000000000F500DC00BEDCDCF5F5DC0000000000000000002D00000000000000000000000000000000DC000000BE000000000000000000000000000000000000
310
000000000000000000000000000000000000000000000000000000000000BE000000DC0000000000BEBEBEBE002DBEBEBE002D0000F500F5F52D2D2D2D2D2D2D2D2D00000000000000000000002D000000002D2D000000DC00F5F500DCBEDC00F5000000000000000000000000BEBEBEBE2D00000000000000000000000000
310
00000000000000000000BEBEBEBE2D00F5F500DCBEDC00F500000000000000000000000000000000000000000000000000000000000000000000000000000000000000000000F5F5DCDCBEDC00F500DC0000000000000000002D00000000000000000000000000000000DC000000BE00000000000000000000000000000000
310
0000000000000000000000000000000000000000000000000000000000000000BE000000DC00000000000000000000F5000000002D0000F5F500F5000000BEBEBEBE2D0000000000000000000000002DBEBEBEBE2D00000000DC0000F5F500BE00F5F5000000000000000000000000BEBEBEBE2D0000000000000000000000
310
0000000000000000000000000000002D2D0000F5F500BE00F5F50000000000000000000000000000000000000000000000000000000000000000000000000000000000000000000000F5F500BE00F50000DC0000000000000000002D00000000000000000000000000000000DC000000BE0000000000000000000000000000
310
00000000000000000000000000000000000000000000000000000000000000000000BE000000DC000000000000000000002D0000002D2D2D2DF50000F5000000BEBEBEBE2D2D00000000000000000000002DBEBEBEBE2D00000000DC000000F5F5BEF5F500000000000000000000000000BEBEBEBE2D000000000000000000
310
0000000000000000000000000000000000002D000000F5F5BEF5F500000000000000000000000000000000000000000000000000000000000000000000000000000000000000000000000000F5F5BEF5000000DC0000000000000000002D00000000000000000000000000000000DC000000BE000000000000000000000000
310
000000000000000000000000000000000000000000000000000000000000000000000000BE000000DC000000000000000000002D000000002D0000F52D2D2D000000BEBEBEBE2D2D00000000000000000000002DBEBEBEBE2D00000000DC00000000F5F5F50000000000000000000000000000000000002D00000000000000
310
000000000000000000000000000000000000002DF52D2D2D2DF5F500000000000000000000000000000000000000000000000000000000000000000000000000000000000000000000000000000000F5F500000000DC0000000000000000002D00000000000000000000000000000000DC000000BE00000000000000000000
310
0000000000000000000000000000000000000000000000000000000000000000000000000000BE000000DC00000000000000000000002D00002D2D002DF5F5F5F5000000BEBEBEBE2D0000000000000000000000002DBEBEBEBE2D00000000DC000000F5F5DCF5F500000000000000000000000000000000002D0000000000
310
000000000000000000000000000000000000000000002D000000F5F5DCF5F500000000000000000000000000000000000000000000000000000000000000000000000000000000000000000000000000F5F5DCF5F50000DC0000000000000000002D00000000000000000000000000000000DC000000BE0000000000000000
310
00000000000000000000000000000000000000000000000000000000000000000000000000000000BE000000DC00000000000000000000002D2D00002D2DBEBEBEBEBE000000BEBEBEBE2D00000000000000000000002D2D2D2D2D2D2D2D2D2D2D2D2D2DF5F5BEF5DCF500000000000000000000000000000000002D000000
310
0000000000000000000000000000000000000000000000002D000000F5BEBEDCF500000000000000000000000000000000000000000000000000000000000000000000000000000000000000000000000000F5BEBEDCF50000DC0000000000000000002D00000000000000000000000000000000DC000000BE000000000000
310
000000000000000000000000000000000000000000000000000000000000000000000000000000000000BE000000DC00000000000000000000002D2D2D2D2D0000F52D2DF5000000BEBEBEBE000000000000000000BEBEBEBE2D000000002D00000000DC000000F5DC2DDCF500000000000000000000000000000000002D00
310
00000000000000000000000000000000000000000000000000002D000000F5DCBEDCF500000000000000000000000000000000000000000000000000000000000000000000000000000000000000000000000000F500BEDCF50000DC0000000000000000002D00000000000000000000000000000000DC000000BE00000000
310
0000000000000000000000000000000000000000000000000000000000000000000000000000000000000000BE000000DC0000000000000000000000002D2D002D0000F52D2D2D000000BEBEBEBE000000000000000000BEBEBEBE2D000000002D00000000DC000000F5F5F5F5F50000000000000000000000000000000000
310
2D00000000000000000000000000000000000000000000000000002D2D2D2D2DF5F5F5F5F500000000000000000000000000000000000000000000000000000000000000000000000000000000000000000000000000F5F5F5F5000000DC0000000000000000002D00000000000000000000000000000000DC000000BE0000
310
00000000000000000000000000000000000000000000000000000000000000000000000000000000000000000000BE000000DC0000000000000000000000002D0000000000F50000F5000000BEBEBEBE000000000000000000BEBEBEBE2D000000002D2D000000DC0000000000F50000000000000000000000000000000000
310
00002D2D00000000000000000000000000000000000000000000000000002D0000000000F50000000000000000000000000000000000000000000000000000000000000000000000000000000000000000000000000000000000F500000000DC0000000000000000002D00000000000000000000000000000000DC000000BE
310
000000000000000000000000000000000000000000000000000000000000000000000000000000000000000000000000BE000000DC000000000000000000000000000000000000F50000F500000000000000000000000000000000BEBEBEBE2D000000002D2D000000DC00000000002D000000000000000000000000000000
310
000000002D2D000000000000000000000000000000000000000000000000002D2D00000000002D00000000000000000000000000000000000000000000000000000000000000000000000000000000000000000000000000000000002D00000000DC0000000000000000002D00000000000000000000000000000000DC0000
310
00BE000000000000000000000000000000000000000000000000000000000000000000000000000000000000000000000000BE000000DC000000000000000000000000000000000000F50000F5000000000000000000000000000000000000002D2D2D2D2D2D2D2D2D2D2DF500000000002D00000000000000000000000000
310
000000000000F500000000000000000000000000000000000000000000000000002D2D00000000002D00000000000000000000000000000000000000000000000000000000000000000000000000000000000000000000000000000000002D00000000F50000000000000000002D00000000000000000000000000000000DC
310
000000BE000000000000000000000000000000000000000000000000000000000000000000000000000000000000000000000000BE000000DC000000000000000000000000000000000000F5F5F5F500000000000000000000000000000000000000002D0000000000000000002DDCDCDCDCDC2DDCDCDCDCDCDCDCDCDCDCDC
310
DCDCDCDCDCDCDCDCDCDCDCDCDCDCDCDCDCDCDCDCDCDCDCDCDCDCDCDCDCDCDCDCDCDCDCDC2DDCDCDCDCDC2DDCDCDCDCDCDCDCDCDCDCDCDCDCDCDCDCDCDCDCDCDCDCDCDCDCDCDCDCDCDCDCDCDCDCDCDCDCDCDCDCDCDCDCDCDCDCDCDCDCDCDCDCDC2DDCDCDCDC2D2D2D2D2D2D2D2D2D2D2D2D0000000000000000000000000000
310
00DC000000BE000000000000000000000000000000000000000000000000000000000000000000000000000000000000000000000000BE000000DC0000000000000000000000000000000000002D2D2D2D00000000000000000000000000000000000000002D2D00000000000000002D00000000002D000000000000000000
310
00000000000000000000000000000000000000000000000000000000000000000000000000002D00000000002D00000000000000000000000000000000000000000000000000000000000000000000000000000000000000000000000000000000002D000000002D0000000000000000000000000000000000000000000000
310
000000DC000000BE000000000000000000000000000000000000000000000000000000000000000000000000000000000000000000000000BE000000DC0000000000000000000000000000000000002D2D2D2D00000000000000000000000000000000000000002D2D00000000000000002D00000000002D00000000000000
310
000000000000000000000000000000000000000000000000000000000000000000000000000000000000000000002D00000000000000000000000000000000000000000000000000000000000000000000000000000000000000000000000000000000002D000000002D000000000000000000000000000000000000000000
310
0000000000DC000000BE000000000000000000000000000000000000000000000000000000000000000000000000000000000000000000000000BE000000DC0000000000000000000000000000000000000000000000000000000000000000000000000000000000002D000000000000002D002D00000000002D002D000000
310
0000000000000000000000000000000000000000000000000000000000000000000000000000000000000000002D2D002D002D0000000000000000000000000000000000000000000000000000000000000000000000000000000000000000000000002D2D002D000000002D002D2D00000000000000000000000000000000
310
00000000000000DC000000BE000000000000000000000000000000000000000000000000000000000000000000000000000000000000000000000000BE000000DC0000000000000000000000000000000000000000000000000000000000000000000000000000000000002D000000002D2D2D2DBEBEBEBEBEBEBE2D2D2D2D
310
2D2D2D2D2D2D2D2D2D2D2D2D2D2D2D2D2D2DBEBEBEBEBEBEBEBEBEBE2D2D2D2D2D2D2D2D2D2D2D2D2D2D2D2D2D2D2D2D2D2D2D2D2D2D2D2D2D2D2D2D2D2D2D2D2D2D2D2D2D2D2DBEBEBEBEBEBEBEBEBEBEBE2D2D2D2D2D2D2D2D2D2D2D2D2D2D2D2D2D2D2D2DBEBEBEBEBEBEBEF5BE2D2D2D2D000000000000000000000000
310
000000000000000000DC000000BE000000000000000000000000000000000000000000000000000000000000000000000000000000000000000000000000BE000000DC000000000000000000000000000000000000000000000000000000000000000000000000000000000000000000000000000000BEBEBEBEBEBEBE2D00
310
0000000000000000000000000000000000000000BEBEBEBEBEBEBEBEBEBE000000000000000000000000000000000000000000002D0000000000000000000000000000000000000000BEBEBEBEBEBEBEBEBEBEBE0000000000000000000000000000000000000000BEBEBEBEBEBEBEBEBE0000000000000000000000000000
310
0000000000000000000000DC000000BE000000000000000000000000000000000000000000000000000000000000000000000000000000000000000000000000BE000000DC000000000000000000000000000000000000000000000000000000000000000000000000000000000000000000000000000000BEBEBEBEBEBEBE
310
BE000000000000000000000000000000000000000000BEBEBEBEBEBEBEBEBEBE00000000000000000000000000000000000000000000BE0000000000000000000000000000000000000000BEBEBEBEBEBEBEBEBEBEBE0000000000000000000000000000000000000000BEBEBEBEBEBEBEBEBE000000000000000000000000
310
00000000000000000000000000DC000000BE000000000000000000000000000000000000000000000000000000000000000000000000000000000000000000000000BE000000DC000000000000000000000000000000000000000000000000000000000000000000000000000000000000000000000000000000BEBEBEBEBE
310
BEBEBE000000000000000000000000000000000000000000BEBEBEBEBEBEBEBEBEBE00000000000000000000000000000000000000000000BE0000000000000000000000000000000000000000BEBEBEBEBEBEBEBEBEBEBE0000000000000000000000000000000000000000BEBEBEBEBEBEBEBEBE00000000000000000000
310
000000000000000000000000000000DC000000BE000000000000000000000000000000000000000000000000000000000000000000000000000000000000000000000000BE000000DC000000000000000000000000000000000000000000000000000000000000000000000000000000000000000000000000000000000000
310
00000000000000000000000000000000000000000000000000000000000000000000000000000000000000000000000000000000000000000000BE0000000000000000000000000000000000000000000000000000000000000000000000000000000000000000000000000000000000000000000000000000000000000000
310
0000000000000000000000000000000000DC000000BE000000000000000000000000000000000000000000000000000000000000000000000000000000000000000000000000BE000000DC00000000000000000000000000000000000000000000000000000000000000000000000000000000000000000000000000000000
310
000000000000000000000000000000000000000000000000000000000000000000000000000000000000000000000000000000000000000000000000BE000000000000000000000000000000000000000000000000000000000000000000000000000000000000000000000000000000000000000000000000000000000000
310
00000000000000000000000000000000000000DC000000BE000000000000000000000000000000000000000000000000000000000000000000000000000000000000000000000000BE000000DC0000000000000000000000000000000000000000000000000000000000000000000000000000000000000000000000000000
310
0000000000000000000000000000000000000000000000000000000000000000000000000000000000000000000000000000000000000000000000000000BE00F5F500000000000000000000000000000000000000000000000000000000000000000000000000000000000000000000000000000000000000000000000000
310
000000000000000000000000000000000000000000DC000000BE000000000000000000000000000000000000000000000000000000000000000000000000000000000000000000000000BE000000DC000000000000000000000000000000000000000000000000000000000000000000000000000000000000000000000000
310
00000000000000000000000000000000000000000000000000000000000000000000000000000000000000000000000000000000000000000000000000000000F5F5F5F5F5F5F50000000000000000000000000000000000000000000000000000000000000000000000000000000000000000000000000000000000000000
310
0000000000000000000000000000000000000000000000DC000000BE000000000000000000000000000000000000000000000000000000000000000000000000000000000000000000000000BE000000DC00000000000000000000000000000000000000000000000000000000000000000000000000000000000000000000
310
000000000000000000000000000000000000000000000000000000000000000000000000000000000000000000000000000000000000000000000000000000000000BE000000000000000000000000000000000000000000000000000000000000000000000000000000000000000000000000000000000000000000000000
310
00000000000000000000000000000000000000000000000000DC000000BE000000000000000000000000000000000000000000000000000000000000000000000000000000000000000000000000BE000000DC0000000000000000000000000000000000000000000000000000000000000000000000000000000000000000
310
00000000000000000000000000000000000000000000000000000000000000000000000000000000000000000000000000000000000000000000000000000000000000000000000000000000000000000000000000000000000000000000000000000000000000000000000000000000000000000000000000000000000000
310
000000000000000000000000000000000000000000000000000000DC000000BE000000000000000000000000000000000000000000000000000000000000000000000000000000000000000000000000BE000000DC000000000000000000000000000000000000000000000000000000000000000000000000000000000000
310
00000000000000000000000000000000000000000000000000000000000000000000000000000000000000000000000000000000000000000000000000000000000000000000000000000000000000000000000000000000000000000000000000000000000000000000000000000000000000000000000000000000000000
310
0000000000000000000000000000000000000000000000000000000000DC000000BE000000000000000000000000000000000000000000000000000000000000000000000000000000000000000000000000BE000000DC00000000000000000000000000000000000000000000000000000000000000000000000000000000
310
00000000000000000000000000000000000000000000000000000000000000000000000000000000000000000000000000000000000000000000000000000000000000000000000000000000000000000000000000000000000000000000000000000000000000000000000000000000000000000000000000000000000000
310
00000000000000000000000000000000000000000000000000000000000000DC000000BE000000000000000000000000000000000000000000000000000000000000000000000000000000000000000000000000BE000000DC0000000000000000000000000000000000000000000000000000000000000000000000000000
310
000000000000000000000000000000000000000000000000000000000000000000000000000000000000000000000000000000000000000000000000000000000000000000000000000000000000F5F50000000000000000000000000000000000000000000000000000000000000000000000000000000000000000000000
310
000000000000000000000000000000000000000000000000000000000000000000DC000000BE000000000000000000000000000000000000000000000000000000000000000000000000000000000000000000000000BE000000DC000000000000000000000000000000000000000000000000000000000000000000000000
310
0000000000000000000000000000000000000000000000000000000000000000000000000000000000000000000000000000000000000000000000000000000000000000000000000000000000000000F500F50000000000000000000000000000000000000000000000000000000000000000000000000000000000000000
310
0000000000000000000000000000000000000000000000000000000000000000000000DC000000BE000000000000000000000000000000000000000000000000000000000000000000000000000000000000000000000000BE000000DC00000000000000000000000000000000000000000000000000000000000000000000
310
00000000000000000000000000000000000000000000000000000000000000000000000000000000000000000000000000000000000000000000000000000000000000000000000000000000000000000000F5F500000000000000000000000000000000000000000000000000000000000000000000000000000000000000
310
00000000000000000000000000000000000000000000000000000000000000000000000000DC000000BE000000000000000000000000000000000000000000000000000000000000000000000000000000000000000000000000BE000000DC0000000000000000000000000000000000000000000000000000000000000000
310
000000000000000000000000000000000000000000000000000000000000000000000000000000000000000000000000000000000000000000000000000000000000000000000000000000000000000000000000F500F500000000000000000000000000000000000000000000000000000000000000000000000000000000
310
000000000000000000000000000000000000000000000000000000000000000000000000000000DC000000BE000000000000000000000000000000000000000000000000000000000000000000000000000000000000000000000000BE000000DC000000000000000000000000000000000000000000000000000000000000
310
0000000000000000000000000000000000000000000000000000000000000000000000000000000000000000000000000000000000000000000000000000000000000000000000000000000000000000000000000000F5F5000000000000000000000000000000000000000000000000000000000000000000000000000000
310
0000000000000000000000000000000000000000000000000000000000000000000000000000000000DC000000BE000000000000000000000000000000000000000000000000000000000000000000000000000000000000000000000000BE000000DC00000000000000000000000000000000000000000000000000000000
310
00000000000000000000000000000000000000000000000000000000000000000000000000000000000000000000000000000000000000000000000000000000000000000000000000000000000000000000000000000000000000000000000000000000000000000000000000000000000000000000000000000000000000
310
00000000000000000000000000000000000000000000000000000000000000000000000000000000000000DC000000BE000000000000000000000000000000000000000000000000000000000000000000000000000000000000000000000000BE000000DC0000000000000000000000000000000000000000000000000000
310
00000000000000000000000000000000000000000000000000000000000000000000000000000000000000000000000000000000000000000000000000000000000000000000000000000000000000000000000000000000000000000000000000000000000000000000000000000000000000000000000000000000000000
310
000000000000000000000000000000000000000000000000000000000000000000000000000000000000000000DC000000BE000000000000000000000000000000000000000000000000000000000000000000000000000000000000000000000000BE000000DC000000000000000000000000000000000000000000000000
310
00000000000000000000000000000000000000000000000000000000000000000000000000000000000000000000000000000000000000000000000000000000000000000000000000000000000000000000000000000000000000000000000000000000000000000000000000000000000000000000000000000000000000
310
0000000000000000000000000000000000000000000000000000000000000000000000000000000000000000000000DC000000BE000000000000000000000000000000000000000000000000000000000000000000000000000000000000000000000000BE000000DC00000000000000000000000000000000000000000000
310
00000000000000000000000000000000000000000000000000000000000000000000000000000000000000000000000000000000000000000000000000000000000000000000000000000000000000000000000000000000000000000000000000000000000000000000000000000000000000000000000000000000000000
310
00000000000000000000000000000000000000000000000000000000000000000000000000000000000000000000000000DC000000BE000000000000000000000000000000000000000000000000000000000000000000000000000000000000000000000000BE000000DCDCDCDCDCDCDCDCDCDCDCDCDCDCDCDCDCDCDCDCDC
310
DCDCDCDCDCDCDCDCDCDCDCDCDCDCDCDCDCDCDCDCDCDCDCDCDCDCDCDCDCDCDCDCDCDCDCDCDCDCDCDCDCDCDCDCDCDCDCDCDCDCDCDCDCDCDCDCDCDCDCDCDCDCDCDCDCDCDCDCDCDCDCDCDCDCDCDCDCDCDCDCDCDCDCDCDCDCDCDCDCDCDCDCDCDCDCDCDCDCDCDCDCDCDCDCDCDCDCDCDCDCDCDCDCDCDCDCDCDCDCDCDCDCDCDCDCDCDC
310
DCDCDCDCDCDCDCDCDCDCDCDCDCDCDCDCDCDCDCDCDCDCDCDCDCDCDCDCDCDCDCDCDCDCDCDCDCDCDCDCDCDCDCDCDCDCDCDCDCDCDCDC000000BE000000000000000000000000000000000000000000000000000000000000000000000000000000000000000000000000BE00000000000000000000000000000000000000000000
310
00000000000000000000000000000000000000000000000000000000000000000000000000000000000000000000000000000000000000000000000000000000000000000000000000000000000000000000000000000000000000000000000000000000000000000000000000000000000000000000000000000000000000
310
000000000000000000000000000000000000000000000000000000000000000000000000000000000000000000000000000000000000000000BE000000000000000000000000000000000000000000000000000000000000000000000000000000000000000000000000BE0000000000000000000000000000000000000000
310
00000000000000000000000000000000000000000000000000000000000000000000000000000000000000000000000000000000000000000000000000000000000000000000000000000000000000000000000000000000000000000000000000000000000000000000000000000000000000000000000000000000000000
310
0000000000000000000000000000000000000000000000000000000000000000000000000000000000000000000000000000000000000000000000BE000000000000000000000000000000000000000000000000000000000000000000000000000000000000000000000000BE000000000000000000000000000000000000
310
00000000000000000000000000000000000000000000000000000000000000000000000000000000000000000000000000000000000000000000000000000000000000000000000000000000000000000000000000000000000000000000000000000000000000000000000000000000000000000000000000000000000000
310
00000000000000000000000000000000000000000000000000000000000000000000000000000000000000000000000000000000000000000000000000BE000000000000000000000000000000000000000000000000000000000000000000000000000000000000000000000000BEBEBEBEBEBEBEBEBEBEBEBEBEBEBEBEBE
310
BEBEBEBEBEBEBEBEBEBEBEBEBEBEBEBEBEBEBEBEBEBEBEBEBEBEBEBEBEBEBEBEBEBEBEBEBEBEBEBEBEBEBEBEBEBEBEBEBEBEBEBEBEBEBEBEBEBEBEBEBEBEBEBEBEBEBEBEBEBEBEBEBEBEBEBEBEBEBEBEBEBEBEBEBEBEBEBEBEBEBEBEBEBEBEBEBEBEBEBEBEBEBEBEBEBEBEBEBEBEBEBEBEBEBEBEBEBEBEBEBEBEBEBEBEBEBE
310
BEBEBEBEBEBEBEBEBEBEBEBEBEBEBEBEBEBEBEBEBEBEBEBEBEBEBEBEBEBEBEBEBEBEBEBEBEBEBEBEBEBEBEBEBEBEBEBEBEBEBEBEBEBEBEBEBEBEBEBEBEBEBEBE000000000000000000000000000000000000000000000000
  0
XRECORD
  5
E
102
{ACAD_REACTORS
330
D
102
}
330
D
100
AcDbXrecord
280
     1
270
     1
271
     1
  0
XRECORD
  5
F
102
{ACAD_REACTORS
330
D
102
}
330
D
100
AcDbXrecord
280
     1
270
     1
271
     1
  0
XRECORD
  5
10
102
{ACAD_REACTORS
330
D
102
}
330
D
100
AcDbXrecord
280
     1
270
     1
271
     1
  0
XRECORD
  5
11
102
{ACAD_REACTORS
330
D
102
}
330
D
100
AcDbXrecord
280
     1
270
     1
271
     1
  0
CELLSTYLEMAP
  5
2D2
102
{ACAD_REACTORS
330
3F
102
}
330
3F
100
AcDbCellStyleMap
 90
        3
300
CELLSTYLE
  1
TABLEFORMAT_BEGIN
 90
        5
170
     1
 91
        0
 92
    32768
 62
   257
 93
        1
300
CONTENTFORMAT
  1
CONTENTFORMAT_BEGIN
 90
        0
 91
        0
 92
      512
 93
        0
300

 40
0.0
140
1.0
 94
        5
 62
     0
340
22
144
6.0
309
CONTENTFORMAT_END
171
     1
301
MARGIN
  1
CELLMARGIN_BEGIN
 40
1.5
 40
1.5
 40
1.5
 40
1.5
 40
4.5
 40
4.5
309
CELLMARGIN_END
 94
        6
 95
        1
302
GRIDFORMAT
  1
GRIDFORMAT_BEGIN
 90
        0
 91
        1
 62
     0
 92
       -2
340
25
 93
        0
 40
1.125
309
GRIDFORMAT_END
 95
        2
302
GRIDFORMAT
  1
GRIDFORMAT_BEGIN
 90
        0
 91
        1
 62
     0
 92
       -2
340
25
 93
        0
 40
1.125
309
GRIDFORMAT_END
 95
        4
302
GRIDFORMAT
  1
GRIDFORMAT_BEGIN
 90
        0
 91
        1
 62
     0
 92
       -2
340
25
 93
        0
 40
1.125
309
GRIDFORMAT_END
 95
        8
302
GRIDFORMAT
  1
GRIDFORMAT_BEGIN
 90
        0
 91
        1
 62
     0
 92
       -2
340
25
 93
        0
 40
1.125
309
GRIDFORMAT_END
 95
       16
302
GRIDFORMAT
  1
GRIDFORMAT_BEGIN
 90
        0
 91
        1
 62
     0
 92
       -2
340
25
 93
        0
 40
1.125
309
GRIDFORMAT_END
 95
       32
302
GRIDFORMAT
  1
GRIDFORMAT_BEGIN
 90
        0
 91
        1
 62
     0
 92
       -2
340
25
 93
        0
 40
1.125
309
GRIDFORMAT_END
309
TABLEFORMAT_END
  1
CELLSTYLE_BEGIN
 90
        1
 91
        1
300
_TITLE
309
CELLSTYLE_END
300
CELLSTYLE
  1
TABLEFORMAT_BEGIN
 90
        5
170
     1
 91
        0
 92
        0
 62
   257
 93
        1
300
CONTENTFORMAT
  1
CONTENTFORMAT_BEGIN
 90
        0
 91
        0
 92
      512
 93
        0
300

 40
0.0
140
1.0
 94
        5
 62
     0
340
22
144
4.5
309
CONTENTFORMAT_END
171
     1
301
MARGIN
  1
CELLMARGIN_BEGIN
 40
1.5
 40
1.5
 40
1.5
 40
1.5
 40
4.5
 40
4.5
309
CELLMARGIN_END
 94
        6
 95
        1
302
GRIDFORMAT
  1
GRIDFORMAT_BEGIN
 90
        0
 91
        1
 62
     0
 92
       -2
340
25
 93
        0
 40
1.125
309
GRIDFORMAT_END
 95
        2
302
GRIDFORMAT
  1
GRIDFORMAT_BEGIN
 90
        0
 91
        1
 62
     0
 92
       -2
340
25
 93
        0
 40
1.125
309
GRIDFORMAT_END
 95
        4
302
GRIDFORMAT
  1
GRIDFORMAT_BEGIN
 90
        0
 91
        1
 62
     0
 92
       -2
340
25
 93
        0
 40
1.125
309
GRIDFORMAT_END
 95
        8
302
GRIDFORMAT
  1
GRIDFORMAT_BEGIN
 90
        0
 91
        1
 62
     0
 92
       -2
340
25
 93
        0
 40
1.125
309
GRIDFORMAT_END
 95
       16
302
GRIDFORMAT
  1
GRIDFORMAT_BEGIN
 90
        0
 91
        1
 62
     0
 92
       -2
340
25
 93
        0
 40
1.125
309
GRIDFORMAT_END
 95
       32
302
GRIDFORMAT
  1
GRIDFORMAT_BEGIN
 90
        0
 91
        1
 62
     0
 92
       -2
340
25
 93
        0
 40
1.125
309
GRIDFORMAT_END
309
TABLEFORMAT_END
  1
CELLSTYLE_BEGIN
 90
        2
 91
        1
300
_HEADER
309
CELLSTYLE_END
300
CELLSTYLE
  1
TABLEFORMAT_BEGIN
 90
        5
170
     1
 91
        0
 92
        0
 62
   257
 93
        1
300
CONTENTFORMAT
  1
CONTENTFORMAT_BEGIN
 90
        0
 91
        0
 92
      512
 93
        0
300

 40
0.0
140
1.0
 94
        2
 62
     0
340
22
144
4.5
309
CONTENTFORMAT_END
171
     1
301
MARGIN
  1
CELLMARGIN_BEGIN
 40
1.5
 40
1.5
 40
1.5
 40
1.5
 40
4.5
 40
4.5
309
CELLMARGIN_END
 94
        6
 95
        1
302
GRIDFORMAT
  1
GRIDFORMAT_BEGIN
 90
        0
 91
        1
 62
     0
 92
       -2
340
25
 93
        0
 40
1.125
309
GRIDFORMAT_END
 95
        2
302
GRIDFORMAT
  1
GRIDFORMAT_BEGIN
 90
        0
 91
        1
 62
     0
 92
       -2
340
25
 93
        0
 40
1.125
309
GRIDFORMAT_END
 95
        4
302
GRIDFORMAT
  1
GRIDFORMAT_BEGIN
 90
        0
 91
        1
 62
     0
 92
       -2
340
25
 93
        0
 40
1.125
309
GRIDFORMAT_END
 95
        8
302
GRIDFORMAT
  1
GRIDFORMAT_BEGIN
 90
        0
 91
        1
 62
     0
 92
       -2
340
25
 93
        0
 40
1.125
309
GRIDFORMAT_END
 95
       16
302
GRIDFORMAT
  1
GRIDFORMAT_BEGIN
 90
        0
 91
        1
 62
     0
 92
       -2
340
25
 93
        0
 40
1.125
309
GRIDFORMAT_END
 95
       32
302
GRIDFORMAT
  1
GRIDFORMAT_BEGIN
 90
        0
 91
        1
 62
     0
 92
       -2
340
25
 93
        0
 40
1.125
309
GRIDFORMAT_END
309
TABLEFORMAT_END
  1
CELLSTYLE_BEGIN
 90
        3
 91
        2
300
_DATA
309
CELLSTYLE_END
  0
ENDSEC
  0
EOF
