  0
SECTION
  2
HEADER
  9
$ACADVER
  1
AC1024
  9
$ACADMAINTVER
 70
     6
  9
$DWGCODEPAGE
  3
ANSI_1252
  9
$INSBASE
 10
0.0
 20
0.0
 30
0.0
  9
$EXTMIN
 10
0.0000004252228791
 20
-0.0000005738552407
 30
0.0
  9
$EXTMAX
 10
420.0000004252228
 20
593.9999994261447
 30
0.0
  9
$LIMMIN
 10
0.0
 20
0.0
  9
$LIMMAX
 10
420.0
 20
594.0000000000002
  9
$ORTHOMODE
 70
     1
  9
$REGENMODE
 70
     1
  9
$FILLMODE
 70
     1
  9
$QTEXTMODE
 70
     0
  9
$MIRRTEXT
 70
     1
  9
$LTSCALE
 40
15.0
  9
$ATTMODE
 70
     1
  9
$TEXTSIZE
 40
2.5
  9
$TRACEWID
 40
1.0
  9
$TEXTSTYLE
  7
STANDARD
  9
$CLAYER
  8
09-01
  9
$CELTYPE
  6
BYLAYER
  9
$CECOLOR
 62
   256
  9
$CELTSCALE
 40
1.0
  9
$DISPSILH
 70
     0
  9
$DIMSCALE
 40
2.0
  9
$DIMASZ
 40
2.5
  9
$DIMEXO
 40
1.0
  9
$DIMDLI
 40
10.0
  9
$DIMRND
 40
0.0
  9
$DIMDLE
 40
0.0
  9
$DIMEXE
 40
1.0
  9
$DIMTP
 40
0.0
  9
$DIMTM
 40
0.0
  9
$DIMTXT
 40
2.5
  9
$DIMCEN
 40
0.0
  9
$DIMTSZ
 40
0.0
  9
$DIMTOL
 70
     0
  9
$DIMLIM
 70
     0
  9
$DIMTIH
 70
     0
  9
$DIMTOH
 70
     0
  9
$DIMSE1
 70
     0
  9
$DIMSE2
 70
     0
  9
$DIMTAD
 70
     1
  9
$DIMZIN
 70
     8
  9
$DIMBLK
  1

  9
$DIMASO
 70
     1
  9
$DIMSHO
 70
     1
  9
$DIMPOST
  1

  9
$DIMAPOST
  1

  9
$DIMALT
 70
     0
  9
$DIMALTD
 70
     3
  9
$DIMALTF
 40
0.03937007874016
  9
$DIMLFAC
 40
1.0
  9
$DIMTOFL
 70
     1
  9
$DIMTVP
 40
0.0
  9
$DIMTIX
 70
     0
  9
$DIMSOXD
 70
     0
  9
$DIMSAH
 70
     0
  9
$DIMBLK1
  1

  9
$DIMBLK2
  1

  9
$DIMSTYLE
  2
Wagner
  9
$DIMCLRD
 70
     4
  9
$DIMCLRE
 70
     4
  9
$DIMCLRT
 70
     1
  9
$DIMTFAC
 40
1.0
  9
$DIMGAP
 40
1.0
  9
$DIMJUST
 70
     0
  9
$DIMSD1
 70
     0
  9
$DIMSD2
 70
     0
  9
$DIMTOLJ
 70
     0
  9
$DIMTZIN
 70
     8
  9
$DIMALTZ
 70
     0
  9
$DIMALTTZ
 70
     0
  9
$DIMUPT
 70
     0
  9
$DIMDEC
 70
     1
  9
$DIMTDEC
 70
     1
  9
$DIMALTU
 70
     2
  9
$DIMALTTD
 70
     3
  9
$DIMTXSTY
  7
STANDARD
  9
$DIMAUNIT
 70
     0
  9
$DIMADEC
 70
     1
  9
$DIMALTRND
 40
0.0
  9
$DIMAZIN
 70
     2
  9
$DIMDSEP
 70
    46
  9
$DIMATFIT
 70
     3
  9
$DIMFRAC
 70
     0
  9
$DIMLDRBLK
  1

  9
$DIMLUNIT
 70
     2
  9
$DIMLWD
 70
    -2
  9
$DIMLWE
 70
    -2
  9
$DIMTMOVE
 70
     0
  9
$DIMFXL
 40
1.0
  9
$DIMFXLON
 70
     0
  9
$DIMJOGANG
 40
0.7853981633974483
  9
$DIMTFILL
 70
     0
  9
$DIMTFILLCLR
 70
     0
  9
$DIMARCSYM
 70
     0
  9
$DIMLTYPE
  6

  9
$DIMLTEX1
  6

  9
$DIMLTEX2
  6

  9
$DIMTXTDIRECTION
 70
     0
  9
$LUNITS
 70
     2
  9
$LUPREC
 70
     1
  9
$SKETCHINC
 40
1.0
  9
$FILLETRAD
 40
0.0
  9
$AUNITS
 70
     0
  9
$AUPREC
 70
     0
  9
$MENU
  1
.
  9
$ELEVATION
 40
0.0
  9
$PELEVATION
 40
0.0
  9
$THICKNESS
 40
0.0
  9
$LIMCHECK
 70
     0
  9
$CHAMFERA
 40
0.0
  9
$CHAMFERB
 40
0.0
  9
$CHAMFERC
 40
20.0
  9
$CHAMFERD
 40
0.0
  9
$SKPOLY
 70
     0
  9
$TDCREATE
 40
2451661.659095602
  9
$TDUCREATE
 40
2451661.575762269
  9
$TDUPDATE
 40
2456127.727723160
  9
$TDUUPDATE
 40
2456127.644389827
  9
$TDINDWG
 40
1.4069102315
  9
$TDUSRTIMER
 40
1.4069101157
  9
$USRTIMER
 70
     1
  9
$ANGBASE
 50
0.0
  9
$ANGDIR
 70
     0
  9
$PDMODE
 70
     0
  9
$PDSIZE
 40
0.0
  9
$PLINEWID
 40
0.0
  9
$SPLFRAME
 70
     0
  9
$SPLINETYPE
 70
     6
  9
$SPLINESEGS
 70
     8
  9
$HANDSEED
  5
2F1
  9
$SURFTAB1
 70
     6
  9
$SURFTAB2
 70
     6
  9
$SURFTYPE
 70
     6
  9
$SURFU
 70
     6
  9
$SURFV
 70
     6
  9
$UCSBASE
  2

  9
$UCSNAME
  2

  9
$UCSORG
 10
0.0
 20
0.0
 30
0.0
  9
$UCSXDIR
 10
1.0
 20
0.0
 30
0.0
  9
$UCSYDIR
 10
0.0
 20
1.0
 30
0.0
  9
$UCSORTHOREF
  2

  9
$UCSORTHOVIEW
 70
     0
  9
$UCSORGTOP
 10
0.0
 20
0.0
 30
0.0
  9
$UCSORGBOTTOM
 10
0.0
 20
0.0
 30
0.0
  9
$UCSORGLEFT
 10
0.0
 20
0.0
 30
0.0
  9
$UCSORGRIGHT
 10
0.0
 20
0.0
 30
0.0
  9
$UCSORGFRONT
 10
0.0
 20
0.0
 30
0.0
  9
$UCSORGBACK
 10
0.0
 20
0.0
 30
0.0
  9
$PUCSBASE
  2

  9
$PUCSNAME
  2

  9
$PUCSORG
 10
0.0
 20
0.0
 30
0.0
  9
$PUCSXDIR
 10
1.0
 20
0.0
 30
0.0
  9
$PUCSYDIR
 10
0.0
 20
1.0
 30
0.0
  9
$PUCSORTHOREF
  2

  9
$PUCSORTHOVIEW
 70
     0
  9
$PUCSORGTOP
 10
0.0
 20
0.0
 30
0.0
  9
$PUCSORGBOTTOM
 10
0.0
 20
0.0
 30
0.0
  9
$PUCSORGLEFT
 10
0.0
 20
0.0
 30
0.0
  9
$PUCSORGRIGHT
 10
0.0
 20
0.0
 30
0.0
  9
$PUCSORGFRONT
 10
0.0
 20
0.0
 30
0.0
  9
$PUCSORGBACK
 10
0.0
 20
0.0
 30
0.0
  9
$USERI1
 70
     0
  9
$USERI2
 70
     0
  9
$USERI3
 70
     0
  9
$USERI4
 70
     0
  9
$USERI5
 70
     0
  9
$USERR1
 40
0.0
  9
$USERR2
 40
0.0
  9
$USERR3
 40
0.0
  9
$USERR4
 40
0.0
  9
$USERR5
 40
0.0
  9
$WORLDVIEW
 70
     1
  9
$SHADEDGE
 70
     3
  9
$SHADEDIF
 70
    70
  9
$TILEMODE
 70
     1
  9
$MAXACTVP
 70
    48
  9
$PINSBASE
 10
0.0
 20
0.0
 30
0.0
  9
$PLIMCHECK
 70
     0
  9
$PEXTMIN
 10
1.000000000000000E+20
 20
1.000000000000000E+20
 30
1.000000000000000E+20
  9
$PEXTMAX
 10
-1.000000000000000E+20
 20
-1.000000000000000E+20
 30
-1.000000000000000E+20
  9
$PLIMMIN
 10
0.0
 20
0.0
  9
$PLIMMAX
 10
420.0
 20
297.0
  9
$UNITMODE
 70
     0
  9
$VISRETAIN
 70
     1
  9
$PLINEGEN
 70
     0
  9
$PSLTSCALE
 70
     1
  9
$TREEDEPTH
 70
  3020
  9
$CMLSTYLE
  2
STANDARD
  9
$CMLJUST
 70
     0
  9
$CMLSCALE
 40
20.0
  9
$PROXYGRAPHICS
 70
     1
  9
$MEASUREMENT
 70
     1
  9
$CELWEIGHT
370
    -1
  9
$ENDCAPS
280
     0
  9
$JOINSTYLE
280
     0
  9
$LWDISPLAY
290
     0
  9
$INSUNITS
 70
     0
  9
$HYPERLINKBASE
  1

  9
$STYLESHEET
  1

  9
$XEDIT
290
     1
  9
$CEPSNTYPE
380
     0
  9
$PSTYLEMODE
290
     1
  9
$FINGERPRINTGUID
  2
{6F2E249A-6F9F-4BBC-922E-C9CA3A8F10C4}
  9
$VERSIONGUID
  2
{22AB98C5-9CF0-4AC5-81FE-0E2B2B947C3D}
  9
$EXTNAMES
290
     1
  9
$PSVPSCALE
 40
0.0
  9
$OLESTARTUP
290
     0
  9
$SORTENTS
280
   127
  9
$INDEXCTL
280
     0
  9
$HIDETEXT
280
     1
  9
$XCLIPFRAME
280
     0
  9
$HALOGAP
280
     0
  9
$OBSCOLOR
 70
   257
  9
$OBSLTYPE
280
     0
  9
$INTERSECTIONDISPLAY
280
     0
  9
$INTERSECTIONCOLOR
 70
   257
  9
$DIMASSOC
280
     1
  9
$PROJECTNAME
  1

  9
$CAMERADISPLAY
290
     0
  9
$LENSLENGTH
 40
50.0
  9
$CAMERAHEIGHT
 40
0.0
  9
$STEPSPERSEC
 40
2.0
  9
$STEPSIZE
 40
6.0
  9
$3DDWFPREC
 40
2.0
  9
$PSOLWIDTH
 40
0.25
  9
$PSOLHEIGHT
 40
4.0
  9
$LOFTANG1
 40
1.570796326794896
  9
$LOFTANG2
 40
1.570796326794896
  9
$LOFTMAG1
 40
0.0
  9
$LOFTMAG2
 40
0.0
  9
$LOFTPARAM
 70
     7
  9
$LOFTNORMALS
280
     1
  9
$LATITUDE
 40
37.795
  9
$LONGITUDE
 40
-122.394
  9
$NORTHDIRECTION
 40
0.0
  9
$TIMEZONE
 70
 -8000
  9
$LIGHTGLYPHDISPLAY
280
     1
  9
$TILEMODELIGHTSYNCH
280
     1
  9
$CMATERIAL
347
3B
  9
$SOLIDHIST
280
     1
  9
$SHOWHIST
280
     1
  9
$DWFFRAME
280
     2
  9
$DGNFRAME
280
     0
  9
$REALWORLDSCALE
290
     1
  9
$INTERFERECOLOR
 62
     1
  9
$INTERFEREOBJVS
345
55
  9
$INTERFEREVPVS
346
56
  9
$CSHADOW
280
     0
  9
$SHADOWPLANELOCATION
 40
0.0
  0
ENDSEC
  0
SECTION
  2
CLASSES
  0
CLASS
  1
ACDBDICTIONARYWDFLT
  2
AcDbDictionaryWithDefault
  3
ObjectDBX Classes
 90
        0
 91
        1
280
     0
281
     0
  0
CLASS
  1
MATERIAL
  2
AcDbMaterial
  3
ObjectDBX Classes
 90
     1153
 91
        3
280
     0
281
     0
  0
CLASS
  1
VISUALSTYLE
  2
AcDbVisualStyle
  3
ObjectDBX Classes
 90
     4095
 91
        3
280
     0
281
     0
  0
CLASS
  1
TABLESTYLE
  2
AcDbTableStyle
  3
ObjectDBX Classes
 90
     4095
 91
        1
280
     0
281
     0
  0
CLASS
  1
SCALE
  2
AcDbScale
  3
ObjectDBX Classes
 90
     1153
 91
       33
280
     0
281
     0
  0
CLASS
  1
MLEADERSTYLE
  2
AcDbMLeaderStyle
  3
ACDB_MLEADERSTYLE_CLASS
 90
     4095
 91
        0
280
     0
281
     0
  0
CLASS
  1
CELLSTYLEMAP
  2
AcDbCellStyleMap
  3
ObjectDBX Classes
 90
     1152
 91
        1
280
     0
281
     0
  0
CLASS
  1
DICTIONARYVAR
  2
AcDbDictionaryVar
  3
ObjectDBX Classes
 90
        0
 91
        7
280
     0
281
     0
  0
CLASS
  1
SORTENTSTABLE
  2
AcDbSortentsTable
  3
ObjectDBX Classes
 90
        0
 91
        6
280
     0
281
     0
  0
CLASS
  1
SOLID_BACKGROUND
  2
AcDbSolidBackground
  3
SCENEOE
 90
     4095
 91
        0
280
     0
281
     0
  0
CLASS
  1
NPOCOLLECTION
  2
AcDbImpNonPersistentObjectsCollection
  3
ObjectDBX Classes
 90
     1153
 91
        0
280
     0
281
     0
  0
CLASS
  1
DIMASSOC
  2
AcDbDimAssoc
  3
"AcDbDimAssoc|Product Desc:     AcDim ARX App For Dimension|Company:          Autodesk, Inc.|WEB Address:      www.autodesk.com"
 90
        0
 91
        0
280
     0
281
     0
  0
CLASS
  1
ACAD_TABLE
  2
AcDbTable
  3
ObjectDBX Classes
 90
     1025
 91
        0
280
     0
281
     1
  0
CLASS
  1
TABLECONTENT
  2
AcDbTableContent
  3
ObjectDBX Classes
 90
     1152
 91
        0
280
     0
281
     0
  0
CLASS
  1
TABLEGEOMETRY
  2
AcDbTableGeometry
  3
ObjectDBX Classes
 90
     1152
 91
        0
280
     0
281
     0
  0
ENDSEC
  0
SECTION
  2
TABLES
  0
TABLE
  2
VPORT
  5
2B
102
{ACAD_XDICTIONARY
360
2F
102
}
330
0
100
AcDbSymbolTable
 70
     1
  0
VPORT
  5
2C
330
2B
100
AcDbSymbolTableRecord
100
AcDbViewportTableRecord
  2
*Active
 70
     0
 10
0.0
 20
0.0
 11
1.0
 21
1.0
 12
210.0084626801256
 22
306.7977634783164
 13
0.0
 23
0.0
 14
10.0
 24
10.0
 15
100.0
 25
100.0
 16
0.0
 26
0.0
 36
1.0
 17
0.0
 27
0.0
 37
0.0
 40
618.1018668835238
 41
1.937738246505718
 42
50.0
 43
0.0
 44
0.0
 50
0.0
 51
0.0
 71
     0
 72
  1000
 73
     1
 74
     0
 75
     0
 76
     0
 77
     0
 78
     0
281
     0
 65
     1
110
0.0
120
0.0
130
0.0
111
1.0
121
0.0
131
0.0
112
0.0
122
1.0
132
0.0
 79
     0
146
0.0
348
2D
 60
     3
 61
     5
292
     1
282
     1
141
0.0
142
0.0
 63
   250
421
  3355443
  0
ENDTAB
  0
TABLE
  2
LTYPE
  5
26
330
0
100
AcDbSymbolTable
 70
     4
  0
LTYPE
  5
27
330
26
100
AcDbSymbolTableRecord
100
AcDbLinetypeTableRecord
  2
BYBLOCK
 70
     0
  3

 72
    65
 73
     0
 40
0.0
  0
LTYPE
  5
28
330
26
100
AcDbSymbolTableRecord
100
AcDbLinetypeTableRecord
  2
BYLAYER
 70
     0
  3

 72
    65
 73
     0
 40
0.0
  0
LTYPE
  5
15
330
26
100
AcDbSymbolTableRecord
100
AcDbLinetypeTableRecord
  2
CONTINUOUS
 70
     0
  3
Solid line
 72
    65
 73
     0
 40
0.0
  0
LTYPE
  5
1B4
330
26
100
AcDbSymbolTableRecord
100
AcDbLinetypeTableRecord
  2
AUSGEZOGEN
 70
     0
  3
Ausgezogene Linie
 72
    65
 73
     0
 40
0.0
  0
LTYPE
  5
90
330
26
100
AcDbSymbolTableRecord
100
AcDbLinetypeTableRecord
  2
VERDECKT
 70
     0
  3
__ __ __ __ __ __ __ __ __ __ __ __ __ __ __ __
 72
    65
 73
     2
 40
0.375
 49
0.25
 74
     0
 49
-0.125
 74
     0
  0
LTYPE
  5
F0
330
26
100
AcDbSymbolTableRecord
100
AcDbLinetypeTableRecord
  2
STRICHPUNKT
 70
     0
  3
__ . __ . __ . __ . __ . __ . __ . __ . __ . __
 72
    65
 73
     4
 40
1.0
 49
0.5
 74
     0
 49
-0.25
 74
     0
 49
0.0
 74
     0
 49
-0.25
 74
     0
  0
ENDTAB
  0
TABLE
  2
LAYER
  5
1D
102
{ACAD_XDICTIONARY
360
1E
102
}
330
0
100
AcDbSymbolTable
 70
    10
  0
LAYER
  5
6
102
{ACAD_XDICTIONARY
360
7
102
}
330
1D
100
AcDbSymbolTableRecord
100
AcDbLayerTableRecord
  2
0
 70
     0
 62
     7
  6
CONTINUOUS
370
    -3
390
9
347
C
  0
LAYER
  5
1AB
102
{ACAD_XDICTIONARY
360
1AC
102
}
330
1D
100
AcDbSymbolTableRecord
100
AcDbLayerTableRecord
  2
01-99
 70
     0
 62
     2
  6
CONTINUOUS
370
    -3
390
9
347
C
  0
LAYER
  5
1B1
102
{ACAD_XDICTIONARY
360
1B2
102
}
330
1D
100
AcDbSymbolTableRecord
100
AcDbLayerTableRecord
  2
02-99
 70
     0
 62
     1
  6
AUSGEZOGEN
370
    -3
390
9
347
C
  0
LAYER
  5
1E9
102
{ACAD_XDICTIONARY
360
1EA
102
}
330
1D
100
AcDbSymbolTableRecord
100
AcDbLayerTableRecord
  2
06-99
 70
     0
 62
     1
  6
AUSGEZOGEN
370
    -3
390
9
347
C
  0
LAYER
  5
1D3
102
{ACAD_XDICTIONARY
360
1D4
102
}
330
1D
100
AcDbSymbolTableRecord
100
AcDbLayerTableRecord
  2
08-99
 70
     0
 62
     7
  6
CONTINUOUS
370
    -3
390
9
347
C
  0
LAYER
  5
E9
102
{ACAD_XDICTIONARY
360
EA
102
}
330
1D
100
AcDbSymbolTableRecord
100
AcDbLayerTableRecord
  2
03-01
 70
     0
 62
     3
  6
VERDECKT
370
    -3
390
9
347
C
  0
LAYER
  5
ED
102
{ACAD_XDICTIONARY
360
EE
102
}
330
1D
100
AcDbSymbolTableRecord
100
AcDbLayerTableRecord
  2
05-01
 70
     0
 62
     1
  6
STRICHPUNKT
370
    -3
390
9
347
C
  0
LAYER
  5
4F
102
{ACAD_XDICTIONARY
360
50
102
}
330
1D
100
AcDbSymbolTableRecord
100
AcDbLayerTableRecord
  2
09-01
 70
     0
 62
     7
  6
CONTINUOUS
370
    -3
390
9
347
C
  0
LAYER
  5
9E
330
1D
100
AcDbSymbolTableRecord
100
AcDbLayerTableRecord
  2
DEFPOINTS
 70
     0
 62
     7
  6
CONTINUOUS
290
     0
370
    -3
390
9
347
C
  0
LAYER
  5
7E
102
{ACAD_XDICTIONARY
360
7F
102
}
330
1D
100
AcDbSymbolTableRecord
100
AcDbLayerTableRecord
  2
02TNR-01
 70
     0
 62
     1
  6
CONTINUOUS
370
    -3
390
9
347
C
  0
ENDTAB
  0
TABLE
  2
STYLE
  5
23
330
0
100
AcDbSymbolTable
 70
     3
  0
STYLE
  5
24
330
23
100
AcDbSymbolTableRecord
100
AcDbTextStyleTableRecord
  2
STANDARD
 70
     0
 40
0.0
 41
1.0
 50
0.0
 71
     0
 42
2.5
  3
arial.ttf
  4

1001
ACAD
1000
Arial
1071
       34
  0
STYLE
  5
1D6
330
23
100
AcDbSymbolTableRecord
100
AcDbTextStyleTableRecord
  2
ROMANS8
 70
     0
 40
0.0
 41
1.0
 50
0.0
 71
     0
 42
2.5
  3
ROMANS8
  4

  0
STYLE
  5
1FC
330
23
100
AcDbSymbolTableRecord
100
AcDbTextStyleTableRecord
  2
ROMAND8
 70
     0
 40
0.0
 41
1.0
 50
0.0
 71
     0
 42
3.5
  3
ROMAND8
  4

  0
ENDTAB
  0
TABLE
  2
VIEW
  5
29
330
0
100
AcDbSymbolTable
 70
     0
  0
ENDTAB
  0
TABLE
  2
UCS
  5
2A
330
0
100
AcDbSymbolTable
 70
     0
  0
ENDTAB
  0
TABLE
  2
APPID
  5
30
330
0
100
AcDbSymbolTable
 70
     4
  0
APPID
  5
22
330
30
100
AcDbSymbolTableRecord
100
AcDbRegAppTableRecord
  2
ACAD
 70
     0
  0
APPID
  5
33
330
30
100
AcDbSymbolTableRecord
100
AcDbRegAppTableRecord
  2
ACAD_DSTYLE_DIMJOGGED_JOGANGLE_SYMBOL
 70
     0
  0
APPID
  5
34
330
30
100
AcDbSymbolTableRecord
100
AcDbRegAppTableRecord
  2
ACAD_DSTYLE_DIMJAG
 70
     0
  0
APPID
  5
35
330
30
100
AcDbSymbolTableRecord
100
AcDbRegAppTableRecord
  2
ACAD_DSTYLE_DIMTALN
 70
     0
  0
ENDTAB
  0
TABLE
  2
DIMSTYLE
  5
31
330
0
100
AcDbSymbolTable
 70
     3
100
AcDbDimStyleTable
 71
     2
340
32
340
36
  0
DIMSTYLE
105
36
330
31
100
AcDbSymbolTableRecord
100
AcDbDimStyleTableRecord
  2
STANDARD
 70
     0
340
24
  0
DIMSTYLE
105
32
330
31
100
AcDbSymbolTableRecord
100
AcDbDimStyleTableRecord
  2
Wagner
 70
     0
 41
2.5
 42
1.0
 43
10.0
 44
1.0
 73
     0
 74
     0
 77
     1
 78
     8
 79
     2
140
2.5
141
0.0
143
0.03937007874016
147
1.0
171
     3
172
     1
176
     4
177
     4
178
     1
179
     1
271
     1
272
     1
274
     3
283
     0
284
     8
340
24
1001
ACAD_DSTYLE_DIMJOGGED_JOGANGLE_SYMBOL
1070
   384
1040
0.7853981633974483
1001
ACAD_DSTYLE_DIMJAG
1070
   388
1040
1.5
1001
ACAD_DSTYLE_DIMTALN
1070
   392
1070
     0
  0
DIMSTYLE
105
A2
102
{ACAD_REACTORS
330
26A
330
277
330
284
330
291
330
29E
330
10D
330
100
330
DB
330
CE
330
C1
330
B2
330
A3
330
92
102
}
330
31
100
AcDbSymbolTableRecord
100
AcDbDimStyleTableRecord
  2
Wagner$0
 70
     0
 41
2.5
 42
1.0
 43
10.0
 44
1.0
 73
     0
 74
     0
 77
     1
 78
     8
 79
     2
140
2.5
141
0.0
143
0.03937007874016
147
1.0
171
     3
172
     1
174
     1
176
     4
177
     4
178
     1
179
     1
271
     1
272
     1
274
     3
279
     2
283
     0
284
     8
340
24
1001
ACAD_DSTYLE_DIMJOGGED_JOGANGLE_SYMBOL
1070
   384
1040
0.7853981633974483
1001
ACAD_DSTYLE_DIMJAG
1070
   388
1040
1.5
1001
ACAD_DSTYLE_DIMTALN
1070
   392
1070
     0
  0
ENDTAB
  0
TABLE
  2
BLOCK_RECORD
  5
1
330
0
100
AcDbSymbolTable
 70
    17
  0
BLOCK_RECORD
  5
2
102
{ACAD_XDICTIONARY
360
3
102
}
330
1
100
AcDbSymbolTableRecord
100
AcDbBlockTableRecord
  2
*MODEL_SPACE
340
17
 70
     0
280
     1
281
     0
  0
BLOCK_RECORD
  5
19
330
1
100
AcDbSymbolTableRecord
100
AcDbBlockTableRecord
  2
*PAPER_SPACE
340
1C
 70
     0
280
     1
281
     0
  0
BLOCK_RECORD
  5
29F
330
1
100
AcDbSymbolTableRecord
100
AcDbBlockTableRecord
  2
*D0
340
0
 70
     0
280
     1
281
     0
  0
BLOCK_RECORD
  5
292
330
1
100
AcDbSymbolTableRecord
100
AcDbBlockTableRecord
  2
*D1
340
0
 70
     0
280
     1
281
     0
  0
BLOCK_RECORD
  5
285
330
1
100
AcDbSymbolTableRecord
100
AcDbBlockTableRecord
  2
*D2
340
0
 70
     0
280
     1
281
     0
  0
BLOCK_RECORD
  5
278
330
1
100
AcDbSymbolTableRecord
100
AcDbBlockTableRecord
  2
*D3
340
0
 70
     0
280
     1
281
     0
  0
BLOCK_RECORD
  5
26B
330
1
100
AcDbSymbolTableRecord
100
AcDbBlockTableRecord
  2
*D4
340
0
 70
     0
280
     1
281
     0
  0
BLOCK_RECORD
  5
22D
330
1
100
AcDbSymbolTableRecord
100
AcDbBlockTableRecord
  2
Seifenflasche01-v
340
0
310
2800000020000000200000000100080000000000000400000000000000000000000000000000000000000000000080000080000000808000800000008000800080800000C0C0C000C0DCC000F0CAA6000020400000206000002080000020A0000020C0000020E00000400000004020000040400000406000004080000040A0
310
000040C0000040E00000600000006020000060400000606000006080000060A0000060C0000060E00000800000008020000080400000806000008080000080A0000080C0000080E00000A0000000A0200000A0400000A0600000A0800000A0A00000A0C00000A0E00000C0000000C0200000C0400000C0600000C0800000C0
310
A00000C0C00000C0E00000E0000000E0200000E0400000E0600000E0800000E0A00000E0C00000E0E00040000000400020004000400040006000400080004000A0004000C0004000E00040200000402020004020400040206000402080004020A0004020C0004020E000404000004040200040404000404060004040800040
310
40A0004040C0004040E00040600000406020004060400040606000406080004060A0004060C0004060E00040800000408020004080400040806000408080004080A0004080C0004080E00040A0000040A0200040A0400040A0600040A0800040A0A00040A0C00040A0E00040C0000040C0200040C0400040C0600040C08000
310
40C0A00040C0C00040C0E00040E0000040E0200040E0400040E0600040E0800040E0A00040E0C00040E0E00080000000800020008000400080006000800080008000A0008000C0008000E00080200000802020008020400080206000802080008020A0008020C0008020E00080400000804020008040400080406000804080
310
008040A0008040C0008040E00080600000806020008060400080606000806080008060A0008060C0008060E00080800000808020008080400080806000808080008080A0008080C0008080E00080A0000080A0200080A0400080A0600080A0800080A0A00080A0C00080A0E00080C0000080C0200080C0400080C0600080C0
310
800080C0A00080C0C00080C0E00080E0000080E0200080E0400080E0600080E0800080E0A00080E0C00080E0E000C0000000C0002000C0004000C0006000C0008000C000A000C000C000C000E000C0200000C0202000C0204000C0206000C0208000C020A000C020C000C020E000C0400000C0402000C0404000C0406000C0
310
408000C040A000C040C000C040E000C0600000C0602000C0604000C0606000C0608000C060A000C060C000C060E000C0800000C0802000C0804000C0806000C0808000C080A000C080C000C080E000C0A00000C0A02000C0A04000C0A06000C0A08000C0A0A000C0A0C000C0A0E000C0C00000C0C02000C0C04000C0C06000
310
C0C08000C0C0A000F0FBFF00A4A0A000808080000000FF0000FF000000FFFF00FF000000FF00FF00FFFF0000FFFFFF0000000000000000000000000000000000000000000000000000000000000000000000000000000000000000000000FFFFFFFF00000000000000000000000000000000000000000000000000000000FF
310
0000FF00000000000000000000000000000000000000000000000000000000FFFFFFFF00000000000000000000000000000000000000000000000000000000FF0000FF00000000000000000000000000000000000000000000000000000000FFFFFFFF00000000000000000000000000000000000000000000000000FFFFFF
310
FFFFFFFFFFFFFF00000000000000000000000000000000000000000000FF0000000000000000FF00000000000000000000000000000000000000000000FF0000000000000000FF00000000000000000000000000000000000000000000FF0000000000000000FF00000000000000000000000000000000000000000000FF00
310
00000000000000FF00000000000000000000000000000000000000000000FF0000000000000000FF00000000000000000000000000000000000000000000FF0000000000000000FF00000000000000000000000000000000000000000000FF0000000000000000FF00000000000000000000000000000000000000000000FF
310
0000000000000000FF00000000000000000000000000000000000000000000FF0000000000000000FF00000000000000000000000000000000000000000000FF0000000000000000FF00000000000000000000000000000000000000000000FF0000000000000000FF00000000000000000000000000000000000000000000
310
FF0000000000000000FF00000000000000000000000000000000000000000000FF0000000000000000FF00000000000000000000000000000000000000000000FF0000000000000000FF00000000000000000000000000000000000000000000FF0000000000000000FF000000000000000000000000000000000000000000
310
00FF0000000000000000FF00000000000000000000000000000000000000000000FF0000000000000000FF00000000000000000000000000000000000000000000FF0000000000000000FF00000000000000000000000000000000000000000000FF0000000000000000FF0000000000000000000000000000000000000000
310
0000FF00000000000000FFFF00000000000000000000000000000000000000000000FF00000000000000FF0000000000000000000000000000000000000000000000FF00000000000000FF0000000000000000000000000000000000000000000000FF00000000000000FF0000000000000000000000000000000000000000
310
000000FFFFFFFFFFFFFFFF000000000000000000000000000000000000000000000000000000000000000000000000000000000000000000
102
{BLKREFS
331
22C
102
}
 70
     4
280
     1
281
     0
  0
BLOCK_RECORD
  5
24E
330
1
100
AcDbSymbolTableRecord
100
AcDbBlockTableRecord
  2
Seifenflasche01-s
340
0
310
2800000020000000200000000100080000000000000400000000000000000000000000000000000000000000000080000080000000808000800000008000800080800000C0C0C000C0DCC000F0CAA6000020400000206000002080000020A0000020C0000020E00000400000004020000040400000406000004080000040A0
310
000040C0000040E00000600000006020000060400000606000006080000060A0000060C0000060E00000800000008020000080400000806000008080000080A0000080C0000080E00000A0000000A0200000A0400000A0600000A0800000A0A00000A0C00000A0E00000C0000000C0200000C0400000C0600000C0800000C0
310
A00000C0C00000C0E00000E0000000E0200000E0400000E0600000E0800000E0A00000E0C00000E0E00040000000400020004000400040006000400080004000A0004000C0004000E00040200000402020004020400040206000402080004020A0004020C0004020E000404000004040200040404000404060004040800040
310
40A0004040C0004040E00040600000406020004060400040606000406080004060A0004060C0004060E00040800000408020004080400040806000408080004080A0004080C0004080E00040A0000040A0200040A0400040A0600040A0800040A0A00040A0C00040A0E00040C0000040C0200040C0400040C0600040C08000
310
40C0A00040C0C00040C0E00040E0000040E0200040E0400040E0600040E0800040E0A00040E0C00040E0E00080000000800020008000400080006000800080008000A0008000C0008000E00080200000802020008020400080206000802080008020A0008020C0008020E00080400000804020008040400080406000804080
310
008040A0008040C0008040E00080600000806020008060400080606000806080008060A0008060C0008060E00080800000808020008080400080806000808080008080A0008080C0008080E00080A0000080A0200080A0400080A0600080A0800080A0A00080A0C00080A0E00080C0000080C0200080C0400080C0600080C0
310
800080C0A00080C0C00080C0E00080E0000080E0200080E0400080E0600080E0800080E0A00080E0C00080E0E000C0000000C0002000C0004000C0006000C0008000C000A000C000C000C000E000C0200000C0202000C0204000C0206000C0208000C020A000C020C000C020E000C0400000C0402000C0404000C0406000C0
310
408000C040A000C040C000C040E000C0600000C0602000C0604000C0606000C0608000C060A000C060C000C060E000C0800000C0802000C0804000C0806000C0808000C080A000C080C000C080E000C0A00000C0A02000C0A04000C0A06000C0A08000C0A0A000C0A0C000C0A0E000C0C00000C0C02000C0C04000C0C06000
310
C0C08000C0C0A000F0FBFF00A4A0A000808080000000FF0000FF000000FFFF00FF000000FF00FF00FFFF0000FFFFFF0000000000000000000000000000000000000000000000000000000000000000000000000000000000000000000000FFFFFFFF00000000000000000000000000000000000000000000000000000000FF
310
0000FF00000000000000000000000000000000000000000000000000000000FFFFFFFF00000000000000000000000000000000000000000000000000000000FF0000FF00000000000000000000000000000000000000000000000000000000FFFFFFFF000000000000000000000000000000000000000000000000FFFFFFFF
310
FFFFFFFFFFFFFFFF0000000000000000000000000000000000000000FF00000000000000000000FF0000000000000000000000000000000000000000FF00000000000000000000FF0000000000000000000000000000000000000000FF00000000000000000000FF0000000000000000000000000000000000000000FF0000
310
0000000000000000FF0000000000000000000000000000000000000000FF00000000000000000000FF0000000000000000000000000000000000000000FF00000000000000000000FF0000000000000000000000000000000000000000FF00000000000000000000FF0000000000000000000000000000000000000000FF00
310
000000000000000000FF0000000000000000000000000000000000000000FF00000000000000000000FF0000000000000000000000000000000000000000FF00000000000000000000FF0000000000000000000000000000000000000000FF00000000000000000000FF0000000000000000000000000000000000000000FF
310
00000000000000000000FF0000000000000000000000000000000000000000FF00000000000000000000FF0000000000000000000000000000000000000000FF00000000000000000000FF0000000000000000000000000000000000000000FF00000000000000000000FF0000000000000000000000000000000000000000
310
FF00000000000000000000FF0000000000000000000000000000000000000000FF00000000000000000000FF0000000000000000000000000000000000000000FF00000000000000000000FF0000000000000000000000000000000000000000FF00000000000000000000FF00000000000000000000000000000000000000
310
00FF00000000000000000000FF0000000000000000000000000000000000000000FF00000000000000000000FF0000000000000000000000000000000000000000FF00000000000000000000FF0000000000000000000000000000000000000000FF00000000000000000000FF000000000000000000000000000000000000
310
0000FFFFFFFFFFFFFFFFFFFFFFFF000000000000000000000000000000000000000000000000000000000000000000000000000000000000
102
{BLKREFS
331
24D
102
}
 70
     4
280
     1
281
     0
  0
BLOCK_RECORD
  5
1A6
102
{ACAD_XDICTIONARY
360
1A7
102
}
330
1
100
AcDbSymbolTableRecord
100
AcDbBlockTableRecord
  2
DIN A4
340
0
102
{BLKREFS
331
1A5
102
}
 70
     4
280
     1
281
     0
  0
BLOCK_RECORD
  5
10E
330
1
100
AcDbSymbolTableRecord
100
AcDbBlockTableRecord
  2
*D8
340
0
 70
     0
280
     1
281
     0
  0
BLOCK_RECORD
  5
101
330
1
100
AcDbSymbolTableRecord
100
AcDbBlockTableRecord
  2
*D9
340
0
 70
     0
280
     1
281
     0
  0
BLOCK_RECORD
  5
DC
330
1
100
AcDbSymbolTableRecord
100
AcDbBlockTableRecord
  2
*D10
340
0
 70
     0
280
     1
281
     0
  0
BLOCK_RECORD
  5
CF
330
1
100
AcDbSymbolTableRecord
100
AcDbBlockTableRecord
  2
*D11
340
0
 70
     0
280
     1
281
     0
  0
BLOCK_RECORD
  5
C2
330
1
100
AcDbSymbolTableRecord
100
AcDbBlockTableRecord
  2
*D12
340
0
 70
     0
280
     1
281
     0
  0
BLOCK_RECORD
  5
B3
330
1
100
AcDbSymbolTableRecord
100
AcDbBlockTableRecord
  2
*D13
340
0
 70
     0
280
     1
281
     0
  0
BLOCK_RECORD
  5
A4
330
1
100
AcDbSymbolTableRecord
100
AcDbBlockTableRecord
  2
*D14
340
0
 70
     0
280
     1
281
     0
  0
BLOCK_RECORD
  5
93
330
1
100
AcDbSymbolTableRecord
100
AcDbBlockTableRecord
  2
*D15
340
0
 70
     0
280
     1
281
     0
  0
BLOCK_RECORD
  5
79
102
{ACAD_XDICTIONARY
360
7A
102
}
330
1
100
AcDbSymbolTableRecord
100
AcDbBlockTableRecord
  2
aaaaWagner
340
0
102
{BLKREFS
331
78
102
}
 70
     4
280
     1
281
     0
  0
ENDTAB
  0
ENDSEC
  0
SECTION
  2
BLOCKS
  0
BLOCK
  5
5
330
2
100
AcDbEntity
  8
0
100
AcDbBlockBegin
  2
*MODEL_SPACE
 70
     0
 10
0.0
 20
0.0
 30
0.0
  3
*MODEL_SPACE
  1

  0
ENDBLK
  5
16
330
2
100
AcDbEntity
  8
0
100
AcDbBlockEnd
  0
BLOCK
  5
1A
330
19
100
AcDbEntity
 67
     1
  8
0
100
AcDbBlockBegin
  2
*PAPER_SPACE
 70
     0
 10
0.0
 20
0.0
 30
0.0
  3
*PAPER_SPACE
  1

  0
ENDBLK
  5
1B
330
19
100
AcDbEntity
 67
     1
  8
0
100
AcDbBlockEnd
  0
BLOCK
  5
2A0
330
29F
100
AcDbEntity
  8
0
100
AcDbBlockBegin
  2
*D0
 70
     1
 10
0.0
 20
0.0
 30
0.0
  3
*D0
  1

  0
LINE
  5
2A1
330
29F
100
AcDbEntity
  8
09-01
 62
     4
370
    -2
100
AcDbLine
 10
280.0853397933789
 20
569.6025228044053
 30
0.0
 11
280.0853397933789
 21
574.9218650318666
 31
0.0
  0
LINE
  5
2A2
330
29F
100
AcDbEntity
  8
09-01
 62
     4
370
    -2
100
AcDbLine
 10
360.0853397933788
 20
569.6025228044053
 30
0.0
 11
360.0853397933788
 21
574.9218650318666
 31
0.0
  0
LINE
  5
2A3
330
29F
100
AcDbEntity
  8
09-01
 62
     4
370
    -2
100
AcDbLine
 10
285.0853397933789
 20
572.9218650318666
 30
0.0
 11
355.0853397933788
 21
572.9218650318666
 31
0.0
  0
SOLID
  5
2A4
330
29F
100
AcDbEntity
  8
09-01
 62
     4
100
AcDbTrace
 10
285.0853397933789
 20
573.7551983652
 30
0.0
 11
285.0853397933789
 21
572.0885316985333
 31
0.0
 12
280.0853397933789
 22
572.9218650318666
 32
0.0
 13
280.0853397933789
 23
572.9218650318666
 33
0.0
  0
SOLID
  5
2A5
330
29F
100
AcDbEntity
  8
09-01
 62
     4
100
AcDbTrace
 10
355.0853397933788
 20
573.7551983652
 30
0.0
 11
355.0853397933788
 21
572.0885316985333
 31
0.0
 12
360.0853397933788
 22
572.9218650318666
 32
0.0
 13
360.0853397933788
 23
572.9218650318666
 33
0.0
  0
MTEXT
  5
2A6
330
29F
100
AcDbEntity
  8
09-01
 62
     1
100
AcDbMText
 10
320.0853397933788
 20
577.4747299704751
 30
0.0
 40
5.0
 41
0.0
 46
0.0
 71
     5
 72
     1
  1
80
 73
     1
 44
1.0
  0
POINT
  5
2A7
330
29F
100
AcDbEntity
  8
DEFPOINTS
 62
     0
100
AcDbPoint
 10
280.0853397933789
 20
567.6025228044053
 30
0.0
  0
POINT
  5
2A8
330
29F
100
AcDbEntity
  8
DEFPOINTS
 62
     0
100
AcDbPoint
 10
360.0853397933788
 20
567.6025228044053
 30
0.0
  0
POINT
  5
2A9
330
29F
100
AcDbEntity
  8
DEFPOINTS
 62
     0
100
AcDbPoint
 10
360.0853397933788
 20
572.9218650318666
 30
0.0
  0
ENDBLK
  5
2AA
330
29F
100
AcDbEntity
  8
0
100
AcDbBlockEnd
  0
BLOCK
  5
293
330
292
100
AcDbEntity
  8
0
100
AcDbBlockBegin
  2
*D1
 70
     1
 10
0.0
 20
0.0
 30
0.0
  3
*D1
  1

  0
LINE
  5
294
330
292
100
AcDbEntity
  8
09-01
 62
     4
370
    -2
100
AcDbLine
 10
76.46824238446289
 20
567.6025228044053
 30
0.0
 11
61.72648080386995
 21
567.6025228044053
 31
0.0
  0
LINE
  5
295
330
292
100
AcDbEntity
  8
09-01
 62
     4
370
    -2
100
AcDbLine
 10
76.46824238446242
 20
288.7571564522706
 30
0.0
 11
61.72648080386988
 21
288.7571564522706
 31
0.0
  0
LINE
  5
296
330
292
100
AcDbEntity
  8
09-01
 62
     4
370
    -2
100
AcDbLine
 10
63.72648080386994
 20
562.6025228044053
 30
0.0
 11
63.72648080386988
 21
293.7571564522706
 31
0.0
  0
SOLID
  5
297
330
292
100
AcDbEntity
  8
09-01
 62
     4
100
AcDbTrace
 10
62.89314747053661
 20
562.6025228044053
 30
0.0
 11
64.55981413720327
 21
562.6025228044053
 31
0.0
 12
63.72648080386994
 22
567.6025228044053
 32
0.0
 13
63.72648080386994
 23
567.6025228044053
 33
0.0
  0
SOLID
  5
298
330
292
100
AcDbEntity
  8
09-01
 62
     4
100
AcDbTrace
 10
62.89314747053655
 20
293.7571564522706
 30
0.0
 11
64.55981413720322
 21
293.7571564522706
 31
0.0
 12
63.72648080386988
 22
288.7571564522706
 32
0.0
 13
63.72648080386988
 23
288.7571564522706
 33
0.0
  0
MTEXT
  5
299
330
292
100
AcDbEntity
  8
09-01
 62
     1
100
AcDbMText
 10
59.17361586526139
 20
428.1798396283379
 30
0.0
 40
5.0
 41
0.0
 46
0.0
 71
     5
 72
     1
  1
278.8
 11
0.0000000000000001
 21
1.0
 31
0.0
 73
     1
 44
1.0
  0
POINT
  5
29A
330
292
100
AcDbEntity
  8
DEFPOINTS
 62
     0
100
AcDbPoint
 10
78.46824238446288
 20
567.6025228044053
 30
0.0
  0
POINT
  5
29B
330
292
100
AcDbEntity
  8
DEFPOINTS
 62
     0
100
AcDbPoint
 10
78.46824238446242
 20
288.7571564522706
 30
0.0
  0
POINT
  5
29C
330
292
100
AcDbEntity
  8
DEFPOINTS
 62
     0
100
AcDbPoint
 10
63.72648080386988
 20
288.7571564522706
 30
0.0
  0
ENDBLK
  5
29D
330
292
100
AcDbEntity
  8
0
100
AcDbBlockEnd
  0
BLOCK
  5
286
330
285
100
AcDbEntity
  8
0
100
AcDbBlockBegin
  2
*D2
 70
     1
 10
0.0
 20
0.0
 30
0.0
  3
*D2
  1

  0
LINE
  5
287
330
285
100
AcDbEntity
  8
09-01
 62
     4
370
    -2
100
AcDbLine
 10
198.4682423844624
 20
267.5181346187514
 30
0.0
 11
198.4682423844624
 21
230.9731991869835
 31
0.0
  0
LINE
  5
288
330
285
100
AcDbEntity
  8
09-01
 62
     4
370
    -2
100
AcDbLine
 10
154.5093698390878
 20
264.2420291062852
 30
0.0
 11
154.5093698390878
 21
230.9731991869835
 31
0.0
  0
LINE
  5
289
330
285
100
AcDbEntity
  8
09-01
 62
     4
370
    -2
100
AcDbLine
 10
193.4682423844624
 20
232.9731991869835
 30
0.0
 11
159.5093698390878
 21
232.9731991869835
 31
0.0
  0
SOLID
  5
28A
330
285
100
AcDbEntity
  8
09-01
 62
     4
100
AcDbTrace
 10
193.4682423844624
 20
233.8065325203168
 30
0.0
 11
193.4682423844624
 21
232.1398658536502
 31
0.0
 12
198.4682423844624
 22
232.9731991869835
 32
0.0
 13
198.4682423844624
 23
232.9731991869835
 33
0.0
  0
SOLID
  5
28B
330
285
100
AcDbEntity
  8
09-01
 62
     4
100
AcDbTrace
 10
159.5093698390878
 20
233.8065325203168
 30
0.0
 11
159.5093698390878
 21
232.1398658536502
 31
0.0
 12
154.5093698390878
 22
232.9731991869835
 32
0.0
 13
154.5093698390878
 23
232.9731991869835
 33
0.0
  0
MTEXT
  5
28C
330
285
100
AcDbEntity
  8
09-01
 62
     1
100
AcDbMText
 10
176.4888061117751
 20
237.4731991869835
 30
0.0
 40
5.0
 41
0.0
 46
0.0
 71
     5
 72
     1
  1
44
 73
     1
 44
1.0
  0
POINT
  5
28D
330
285
100
AcDbEntity
  8
DEFPOINTS
 62
     0
100
AcDbPoint
 10
198.4682423844624
 20
269.5181346187514
 30
0.0
  0
POINT
  5
28E
330
285
100
AcDbEntity
  8
DEFPOINTS
 62
     0
100
AcDbPoint
 10
154.5093698390878
 20
266.2420291062852
 30
0.0
  0
POINT
  5
28F
330
285
100
AcDbEntity
  8
DEFPOINTS
 62
     0
100
AcDbPoint
 10
154.5093698390878
 20
232.9731991869835
 30
0.0
  0
ENDBLK
  5
290
330
285
100
AcDbEntity
  8
0
100
AcDbBlockEnd
  0
BLOCK
  5
279
330
278
100
AcDbEntity
  8
0
100
AcDbBlockBegin
  2
*D3
 70
     1
 10
0.0
 20
0.0
 30
0.0
  3
*D3
  1

  0
LINE
  5
27A
330
278
100
AcDbEntity
  8
09-01
 62
     4
370
    -2
100
AcDbLine
 10
198.4682423844624
 20
267.5181346187514
 30
0.0
 11
198.4682423844624
 21
215.6995609619817
 31
0.0
  0
LINE
  5
27B
330
278
100
AcDbEntity
  8
09-01
 62
     4
370
    -2
100
AcDbLine
 10
124.2182416692067
 20
282.1025175568178
 30
0.0
 11
124.2182416692067
 21
215.6995609619817
 31
0.0
  0
LINE
  5
27C
330
278
100
AcDbEntity
  8
09-01
 62
     4
370
    -2
100
AcDbLine
 10
193.4682423844624
 20
217.6995609619817
 30
0.0
 11
129.2182416692067
 21
217.6995609619817
 31
0.0
  0
SOLID
  5
27D
330
278
100
AcDbEntity
  8
09-01
 62
     4
100
AcDbTrace
 10
193.4682423844624
 20
218.532894295315
 30
0.0
 11
193.4682423844624
 21
216.8662276286483
 31
0.0
 12
198.4682423844624
 22
217.6995609619817
 32
0.0
 13
198.4682423844624
 23
217.6995609619817
 33
0.0
  0
SOLID
  5
27E
330
278
100
AcDbEntity
  8
09-01
 62
     4
100
AcDbTrace
 10
129.2182416692067
 20
218.532894295315
 30
0.0
 11
129.2182416692067
 21
216.8662276286483
 31
0.0
 12
124.2182416692067
 22
217.6995609619817
 32
0.0
 13
124.2182416692067
 23
217.6995609619817
 33
0.0
  0
MTEXT
  5
27F
330
278
100
AcDbEntity
  8
09-01
 62
     1
100
AcDbMText
 10
161.3432420268345
 20
222.2541312211904
 30
0.0
 40
5.0
 41
0.0
 46
0.0
 71
     5
 72
     1
  1
74.3
 73
     1
 44
1.0
  0
POINT
  5
280
330
278
100
AcDbEntity
  8
DEFPOINTS
 62
     0
100
AcDbPoint
 10
198.4682423844624
 20
269.5181346187514
 30
0.0
  0
POINT
  5
281
330
278
100
AcDbEntity
  8
DEFPOINTS
 62
     0
100
AcDbPoint
 10
124.2182416692067
 20
284.1025175568178
 30
0.0
  0
POINT
  5
282
330
278
100
AcDbEntity
  8
DEFPOINTS
 62
     0
100
AcDbPoint
 10
124.2182416692067
 20
217.6995609619817
 30
0.0
  0
ENDBLK
  5
283
330
278
100
AcDbEntity
  8
0
100
AcDbBlockEnd
  0
BLOCK
  5
26C
330
26B
100
AcDbEntity
  8
0
100
AcDbBlockBegin
  2
*D4
 70
     1
 10
0.0
 20
0.0
 30
0.0
  3
*D4
  1

  0
LINE
  5
26D
330
26B
100
AcDbEntity
  8
09-01
 62
     4
370
    -2
100
AcDbLine
 10
279.585339793379
 20
229.9332865208919
 30
0.0
 11
279.585339793379
 21
236.0259734410436
 31
0.0
  0
LINE
  5
26E
330
26B
100
AcDbEntity
  8
09-01
 62
     4
370
    -2
100
AcDbLine
 10
359.585339793379
 20
229.9332865208918
 30
0.0
 11
359.585339793379
 21
236.0259734410436
 31
0.0
  0
LINE
  5
26F
330
26B
100
AcDbEntity
  8
09-01
 62
     4
370
    -2
100
AcDbLine
 10
284.585339793379
 20
234.0259734410436
 30
0.0
 11
354.585339793379
 21
234.0259734410436
 31
0.0
  0
SOLID
  5
270
330
26B
100
AcDbEntity
  8
09-01
 62
     4
100
AcDbTrace
 10
284.585339793379
 20
234.8593067743769
 30
0.0
 11
284.585339793379
 21
233.1926401077102
 31
0.0
 12
279.585339793379
 22
234.0259734410436
 32
0.0
 13
279.585339793379
 23
234.0259734410436
 33
0.0
  0
SOLID
  5
271
330
26B
100
AcDbEntity
  8
09-01
 62
     4
100
AcDbTrace
 10
354.585339793379
 20
234.8593067743769
 30
0.0
 11
354.585339793379
 21
233.1926401077102
 31
0.0
 12
359.585339793379
 22
234.0259734410436
 32
0.0
 13
359.585339793379
 23
234.0259734410436
 33
0.0
  0
MTEXT
  5
272
330
26B
100
AcDbEntity
  8
09-01
 62
     1
100
AcDbMText
 10
319.585339793379
 20
238.578838379652
 30
0.0
 40
5.0
 41
0.0
 46
0.0
 71
     5
 72
     1
  1
80
 73
     1
 44
1.0
  0
POINT
  5
273
330
26B
100
AcDbEntity
  8
DEFPOINTS
 62
     0
100
AcDbPoint
 10
279.585339793379
 20
227.9332865208919
 30
0.0
  0
POINT
  5
274
330
26B
100
AcDbEntity
  8
DEFPOINTS
 62
     0
100
AcDbPoint
 10
359.585339793379
 20
227.9332865208918
 30
0.0
  0
POINT
  5
275
330
26B
100
AcDbEntity
  8
DEFPOINTS
 62
     0
100
AcDbPoint
 10
359.585339793379
 20
234.0259734410436
 30
0.0
  0
ENDBLK
  5
276
330
26B
100
AcDbEntity
  8
0
100
AcDbBlockEnd
  0
BLOCK
  5
22E
330
22D
100
AcDbEntity
  8
0
100
AcDbBlockBegin
  2
Seifenflasche01-v
 70
     0
 10
0.0
 20
0.0
 30
0.0
  3
Seifenflasche01-v
  1

  0
LINE
  5
22F
330
22D
100
AcDbEntity
  8
0
100
AcDbLine
 10
-35.5
 20
197.0
 30
0.0
 11
-35.5
 21
30.11877347664949
 31
0.0
  0
LINE
  5
230
330
22D
100
AcDbEntity
  8
0
100
AcDbLine
 10
23.5
 20
197.0
 30
0.0
 11
23.5
 21
178.9999999999995
 31
0.0
  0
ARC
  5
231
330
22D
100
AcDbEntity
  8
0
100
AcDbCircle
 10
28.5
 20
178.9999999999995
 30
0.0
 40
5.0
100
AcDbArc
 50
180.0
 51
270.0
  0
ARC
  5
232
330
22D
100
AcDbEntity
  8
0
100
AcDbCircle
 10
18.5
 20
197.0
 30
0.0
 40
5.0
100
AcDbArc
 50
0.0
 51
90.0
  0
LINE
  5
233
330
22D
100
AcDbEntity
  8
0
100
AcDbLine
 10
10.50000000000006
 20
0.0
 30
0.0
 11
10.5
 21
-11.50000000000023
 31
0.0
  0
LINE
  5
234
330
22D
100
AcDbEntity
  8
0
100
AcDbLine
 10
-10.49999999999988
 20
0.0000000000002274
 30
0.0
 11
-10.49999999999994
 21
-11.5
 31
0.0
  0
LINE
  5
235
330
22D
100
AcDbEntity
  8
0
100
AcDbLine
 10
14.5
 20
14.99999999999977
 30
0.0
 11
14.5
 21
-0.0000000000002274
 31
0.0
  0
LINE
  5
236
330
22D
100
AcDbEntity
  8
0
100
AcDbLine
 10
-14.5
 20
14.99999999999977
 30
0.0
 11
-14.5
 21
0.0
 31
0.0
  0
LINE
  5
237
330
22D
100
AcDbEntity
  8
0
100
AcDbLine
 10
11.5
 20
22.0
 30
0.0
 11
11.49999999999994
 21
18.0
 31
0.0
  0
LINE
  5
238
330
22D
100
AcDbEntity
  8
0
100
AcDbLine
 10
-11.5
 20
22.0
 30
0.0
 11
-11.5
 21
18.0
 31
0.0
  0
LINE
  5
239
330
22D
100
AcDbEntity
  8
0
100
AcDbLine
 10
13.24999999999994
 20
17.99999999999977
 30
0.0
 11
13.24999999999994
 21
15.99999999999977
 31
0.0
  0
LINE
  5
23A
330
22D
100
AcDbEntity
  8
0
100
AcDbLine
 10
-13.25
 20
17.99999999999977
 30
0.0
 11
-13.25000000000005
 21
15.99999999999977
 31
0.0
  0
LINE
  5
23B
330
22D
100
AcDbEntity
  8
0
100
AcDbLine
 10
35.5
 20
168.9999999999995
 30
0.0
 11
35.5
 21
30.11877347664995
 31
0.0
  0
ARC
  5
23C
330
22D
100
AcDbEntity
  8
0
100
AcDbCircle
 10
30.5
 20
30.11877347664995
 30
0.0
 40
5.0
100
AcDbArc
 50
279.9999999999974
 51
0.0
  0
ARC
  5
23D
330
22D
100
AcDbEntity
  8
0
100
AcDbCircle
 10
30.5
 20
168.9999999999995
 30
0.0
 40
5.0
100
AcDbArc
 50
0.0
 51
90.0
  0
LINE
  5
23E
330
22D
100
AcDbEntity
  8
0
100
AcDbLine
 10
-30.5
 20
202.0
 30
0.0
 11
18.5
 21
202.0
 31
0.0
  0
LINE
  5
23F
330
22D
100
AcDbEntity
  8
0
100
AcDbLine
 10
28.49999999999994
 20
173.9999999999995
 30
0.0
 11
30.5
 21
173.9999999999995
 31
0.0
  0
ARC
  5
240
330
22D
100
AcDbEntity
  8
0
100
AcDbCircle
 10
-30.5
 20
197.0
 30
0.0
 40
5.0
100
AcDbArc
 50
90.0
 51
180.0
  0
LINE
  5
241
330
22D
100
AcDbEntity
  8
0
100
AcDbLine
 10
-13.25
 20
22.0
 30
0.0
 11
13.2500000000013
 21
22.0
 31
0.0
  0
LINE
  5
242
330
22D
100
AcDbEntity
  8
0
100
AcDbLine
 10
-13.25000000000005
 20
15.99999999999977
 30
0.0
 11
13.24999999999994
 21
15.99999999999977
 31
0.0
  0
LINE
  5
243
330
22D
100
AcDbEntity
  8
0
100
AcDbLine
 10
-14.5
 20
14.99999999999977
 30
0.0
 11
14.5
 21
14.99999999999977
 31
0.0
  0
LINE
  5
244
330
22D
100
AcDbEntity
  8
0
100
AcDbLine
 10
-14.5
 20
0.0
 30
0.0
 11
14.5
 21
-0.0000000000002274
 31
0.0
  0
LINE
  5
245
330
22D
100
AcDbEntity
  8
0
100
AcDbLine
 10
-10.49999999999994
 20
-11.5
 30
0.0
 11
10.5
 21
-11.50000000000023
 31
0.0
  0
LINE
  5
246
330
22D
100
AcDbEntity
  8
0
100
AcDbLine
 10
-13.25
 20
17.99999999999977
 30
0.0
 11
13.24999999999994
 21
17.99999999999977
 31
0.0
  0
LINE
  5
247
330
22D
100
AcDbEntity
  8
0
100
AcDbLine
 10
-31.36824088833464
 20
25.19473471158836
 30
0.0
 11
-13.24999999999994
 21
22.0
 31
0.0
  0
ARC
  5
248
330
22D
100
AcDbEntity
  8
0
100
AcDbCircle
 10
-30.5
 20
30.11877347664949
 30
0.0
 40
5.0
100
AcDbArc
 50
180.0
 51
260.0000000000026
  0
LINE
  5
249
330
22D
100
AcDbEntity
  8
0
100
AcDbLine
 10
31.36824088833464
 20
25.19473471158881
 30
0.0
 11
13.2500000000013
 21
22.0
 31
0.0
  0
LINE
  5
24A
330
22D
100
AcDbEntity
  8
0
100
AcDbLine
 10
11.49999999999994
 20
14.99999999999977
 30
0.0
 11
11.49999999999994
 21
15.99999999999954
 31
0.0
  0
LINE
  5
24B
330
22D
100
AcDbEntity
  8
0
100
AcDbLine
 10
-11.5
 20
14.99999999999977
 30
0.0
 11
-11.5
 21
15.99999999999954
 31
0.0
  0
ENDBLK
  5
24C
330
22D
100
AcDbEntity
  8
0
100
AcDbBlockEnd
  0
BLOCK
  5
24F
330
24E
100
AcDbEntity
  8
0
100
AcDbBlockBegin
  2
Seifenflasche01-s
 70
     0
 10
0.0
 20
0.0
 30
0.0
  3
Seifenflasche01-s
  1

  0
LINE
  5
250
330
24E
100
AcDbEntity
  8
0
100
AcDbLine
 10
-45.0
 20
197.0
 30
0.0
 11
-45.00000000000002
 21
30.34346453353123
 31
0.0
  0
LINE
  5
251
330
24E
100
AcDbEntity
  8
0
100
AcDbLine
 10
10.50000000000006
 20
0.0
 30
0.0
 11
10.5
 21
-11.50000000000023
 31
0.0
  0
LINE
  5
252
330
24E
100
AcDbEntity
  8
0
100
AcDbLine
 10
-10.49999999999988
 20
0.0000000000002274
 30
0.0
 11
-10.49999999999994
 21
-11.5
 31
0.0
  0
LINE
  5
253
330
24E
100
AcDbEntity
  8
0
100
AcDbLine
 10
14.5
 20
14.99999999999977
 30
0.0
 11
14.5
 21
-0.0000000000002274
 31
0.0
  0
LINE
  5
254
330
24E
100
AcDbEntity
  8
0
100
AcDbLine
 10
-14.5
 20
14.99999999999977
 30
0.0
 11
-14.5
 21
0.0
 31
0.0
  0
LINE
  5
255
330
24E
100
AcDbEntity
  8
0
100
AcDbLine
 10
11.5
 20
22.0
 30
0.0
 11
11.49999999999994
 21
18.0
 31
0.0
  0
LINE
  5
256
330
24E
100
AcDbEntity
  8
0
100
AcDbLine
 10
-11.5
 20
22.0
 30
0.0
 11
-11.5
 21
18.0
 31
0.0
  0
LINE
  5
257
330
24E
100
AcDbEntity
  8
0
100
AcDbLine
 10
13.24999999999994
 20
17.99999999999977
 30
0.0
 11
13.24999999999994
 21
15.99999999999977
 31
0.0
  0
LINE
  5
258
330
24E
100
AcDbEntity
  8
0
100
AcDbLine
 10
-13.25
 20
17.99999999999977
 30
0.0
 11
-13.25000000000005
 21
15.99999999999977
 31
0.0
  0
LINE
  5
259
330
24E
100
AcDbEntity
  8
0
100
AcDbLine
 10
44.99999999999994
 20
197.0
 30
0.0
 11
45.0
 21
30.34346453353146
 31
0.0
  0
ARC
  5
25A
330
24E
100
AcDbEntity
  8
0
100
AcDbCircle
 10
40.0
 20
30.34346453353146
 30
0.0
 40
5.0
100
AcDbArc
 50
277.0442014487688
 51
0.0
  0
ARC
  5
25B
330
24E
100
AcDbEntity
  8
0
100
AcDbCircle
 10
39.99999999999995
 20
197.0
 30
0.0
 40
5.0
100
AcDbArc
 50
0.0
 51
90.0
  0
LINE
  5
25C
330
24E
100
AcDbEntity
  8
0
100
AcDbLine
 10
-40.0
 20
202.0
 30
0.0
 11
39.99999999999995
 21
202.0
 31
0.0
  0
ARC
  5
25D
330
24E
100
AcDbEntity
  8
0
100
AcDbCircle
 10
-40.0
 20
197.0
 30
0.0
 40
5.0
100
AcDbArc
 50
90.0
 51
180.0
  0
LINE
  5
25E
330
24E
100
AcDbEntity
  8
0
100
AcDbLine
 10
-13.25
 20
22.0
 30
0.0
 11
13.2500000000013
 21
22.0
 31
0.0
  0
LINE
  5
25F
330
24E
100
AcDbEntity
  8
0
100
AcDbLine
 10
-13.25000000000005
 20
15.99999999999977
 30
0.0
 11
13.24999999999994
 21
15.99999999999977
 31
0.0
  0
LINE
  5
260
330
24E
100
AcDbEntity
  8
0
100
AcDbLine
 10
-14.5
 20
14.99999999999977
 30
0.0
 11
14.5
 21
14.99999999999977
 31
0.0
  0
LINE
  5
261
330
24E
100
AcDbEntity
  8
0
100
AcDbLine
 10
-14.5
 20
0.0
 30
0.0
 11
14.5
 21
-0.0000000000002274
 31
0.0
  0
LINE
  5
262
330
24E
100
AcDbEntity
  8
0
100
AcDbLine
 10
-10.49999999999994
 20
-11.5
 30
0.0
 11
10.5
 21
-11.50000000000023
 31
0.0
  0
LINE
  5
263
330
24E
100
AcDbEntity
  8
0
100
AcDbLine
 10
-13.25
 20
17.99999999999977
 30
0.0
 11
13.24999999999994
 21
17.99999999999977
 31
0.0
  0
LINE
  5
264
330
24E
100
AcDbEntity
  8
0
100
AcDbLine
 10
-40.61317508763525
 20
25.38120533918209
 30
0.0
 11
-13.24999999999994
 21
22.0
 31
0.0
  0
ARC
  5
265
330
24E
100
AcDbEntity
  8
0
100
AcDbCircle
 10
-40.00000000000002
 20
30.34346453353123
 30
0.0
 40
5.0
100
AcDbArc
 50
180.0
 51
262.9557985512313
  0
LINE
  5
266
330
24E
100
AcDbEntity
  8
0
100
AcDbLine
 10
40.61317508763534
 20
25.38120533918232
 30
0.0
 11
13.2500000000013
 21
22.0
 31
0.0
  0
LINE
  5
267
330
24E
100
AcDbEntity
  8
0
100
AcDbLine
 10
11.49999999999994
 20
14.99999999999977
 30
0.0
 11
11.49999999999994
 21
15.99999999999954
 31
0.0
  0
LINE
  5
268
330
24E
100
AcDbEntity
  8
0
100
AcDbLine
 10
-11.5
 20
14.99999999999977
 30
0.0
 11
-11.5
 21
15.99999999999954
 31
0.0
  0
ENDBLK
  5
269
330
24E
100
AcDbEntity
  8
0
100
AcDbBlockEnd
  0
BLOCK
  5
1A9
330
1A6
100
AcDbEntity
  8
0
100
AcDbBlockBegin
  2
DIN A4
 70
     2
 10
0.0
 20
0.0
 30
0.0
  3
DIN A4
  1

  0
LINE
  5
1AA
330
1A6
100
AcDbEntity
  8
01-99
100
AcDbLine
 10
204.0000075739527
 20
290.9999979434973
 30
0.0
 11
20.0000075739529
 21
290.9999979434973
 31
0.0
  0
LINE
  5
1AE
330
1A6
100
AcDbEntity
  8
01-99
100
AcDbLine
 10
204.0000075122353
 20
290.9999979871026
 30
0.0
 11
204.0000075122355
 21
5.999997987102574
 31
0.0
  0
LINE
  5
1AF
330
1A6
100
AcDbEntity
  8
01-99
100
AcDbLine
 10
20.0000075122355
 20
5.99999798710246
 30
0.0
 11
20.0000075122355
 21
290.9999979871026
 31
0.0
  0
LWPOLYLINE
  5
1B0
330
1A6
100
AcDbEntity
  8
02-99
100
AcDbPolyline
 90
        4
 70
     1
 43
0.0
 10
0.0000075122354986
 20
-0.0000020128974256
 10
210.0000075122355
 20
-0.0000020128974256
 10
210.0000075122355
 20
296.9999979871026
 10
0.0000075122354986
 20
296.9999979871026
  0
LINE
  5
1B5
330
1A6
100
AcDbEntity
  8
01-99
100
AcDbLine
 10
20.0000075122355
 20
5.99999798710246
 30
0.0
 11
204.0000075122355
 21
5.999997987102631
 31
0.0
  0
LINE
  5
1B6
330
1A6
100
AcDbEntity
  8
01-99
100
AcDbLine
 10
70.0000075122355
 20
11.11110909810247
 30
0.0
 11
20.0000075122355
 21
11.11110909810247
 31
0.0
  0
LINE
  5
1B7
330
1A6
100
AcDbEntity
  8
01-99
100
AcDbLine
 10
70.0000075122355
 20
16.22222020910249
 30
0.0
 11
20.0000075122355
 21
16.22222020910249
 31
0.0
  0
LINE
  5
1B8
330
1A6
100
AcDbEntity
  8
01-99
100
AcDbLine
 10
70.0000075122355
 20
21.3333313201025
 30
0.0
 11
20.0000075122355
 21
21.33333132010244
 31
0.0
  0
LINE
  5
1B9
330
1A6
100
AcDbEntity
  8
01-99
100
AcDbLine
 10
115.0000075122355
 20
26.44444243110252
 30
0.0
 11
20.0000075122355
 21
26.44444243110246
 31
0.0
  0
LINE
  5
1BA
330
1A6
100
AcDbEntity
  8
01-99
100
AcDbLine
 10
115.0000075122355
 20
31.55555354210253
 30
0.0
 11
20.0000075122355
 21
31.55555354210247
 31
0.0
  0
LINE
  5
1BB
330
1A6
100
AcDbEntity
  8
01-99
100
AcDbLine
 10
45.0000075122355
 20
5.99999798710246
 30
0.0
 11
45.0000075122355
 21
11.11110909810247
 31
0.0
  0
LINE
  5
1BC
330
1A6
100
AcDbEntity
  8
01-99
100
AcDbLine
 10
28.0000075122355
 20
11.11110909810247
 30
0.0
 11
28.0000075122355
 21
36.66666465376915
 31
0.0
  0
LINE
  5
1BD
330
1A6
100
AcDbEntity
  8
01-99
100
AcDbLine
 10
70.0000075122355
 20
5.99999798710246
 30
0.0
 11
70.0000075122355
 21
51.99999798710246
 31
0.0
  0
LINE
  5
1BE
330
1A6
100
AcDbEntity
  8
01-99
100
AcDbLine
 10
115.0000075122355
 20
5.99999798710246
 30
0.0
 11
115.0000075122355
 21
51.99999798710246
 31
0.0
  0
LINE
  5
1BF
330
1A6
100
AcDbEntity
  8
01-99
100
AcDbLine
 10
144.5000075122355
 20
5.99999798710246
 30
0.0
 11
144.5000075122355
 21
16.22222020910254
 31
0.0
  0
LINE
  5
1C0
330
1A6
100
AcDbEntity
  8
01-99
100
AcDbLine
 10
177.0000075122355
 20
5.99999798710246
 30
0.0
 11
177.0000075122355
 21
16.2222202091026
 31
0.0
  0
LINE
  5
1C1
330
1A6
100
AcDbEntity
  8
01-99
100
AcDbLine
 10
148.5000075122355
 20
36.6666646537692
 30
0.0
 11
148.5000075122355
 21
51.99999798710257
 31
0.0
  0
LINE
  5
1C2
330
1A6
100
AcDbEntity
  8
01-99
100
AcDbLine
 10
182.0000075122355
 20
36.6666646537692
 30
0.0
 11
182.0000075122355
 21
51.99999798710257
 31
0.0
  0
LINE
  5
1C3
330
1A6
100
AcDbEntity
  8
01-99
100
AcDbLine
 10
78.00000751223549
 20
21.33333132043583
 30
0.0
 11
78.00000751223549
 21
36.6666646537692
 31
0.0
  0
LINE
  5
1C4
330
1A6
100
AcDbEntity
  8
01-99
100
AcDbLine
 10
60.00319585166497
 20
11.11110909810247
 30
0.0
 11
60.00319585166497
 21
36.66666465376915
 31
0.0
  0
LINE
  5
1C5
330
1A6
100
AcDbEntity
  8
01-99
100
AcDbLine
 10
48.00319585166497
 20
11.11110909810247
 30
0.0
 11
48.00319585166497
 21
36.66666465376915
 31
0.0
  0
LINE
  5
1C6
330
1A6
100
AcDbEntity
  8
01-99
100
AcDbLine
 10
204.0000075122355
 20
51.99999798710257
 30
0.0
 11
20.00000751223368
 21
51.99999798710246
 31
0.0
  0
LINE
  5
1C7
330
1A6
100
AcDbEntity
  8
01-99
100
AcDbLine
 10
115.0000075122355
 20
21.33333132043583
 30
0.0
 11
70.0000075122355
 21
21.33333132043583
 31
0.0
  0
LINE
  5
1C8
330
1A6
100
AcDbEntity
  8
01-99
100
AcDbLine
 10
115.0000075122355
 20
36.6666646537692
 30
0.0
 11
20.0000075122355
 21
36.66666465376909
 31
0.0
  0
LINE
  5
1C9
330
1A6
100
AcDbEntity
  8
01-99
100
AcDbLine
 10
92.0000075122355
 20
21.33333132043583
 30
0.0
 11
92.0000075122355
 21
51.99999798710251
 31
0.0
  0
LINE
  5
1CA
330
1A6
100
AcDbEntity
  8
01-99
100
AcDbLine
 10
70.0000075122355
 20
36.66666465376915
 30
0.0
 11
78.00000751223549
 21
31.55555355376919
 31
0.0
  0
LINE
  5
1CB
330
1A6
100
AcDbEntity
  8
01-99
100
AcDbLine
 10
70.0000075122355
 20
31.55555355376919
 30
0.0
 11
78.00000751223549
 21
36.6666646537692
 31
0.0
  0
LINE
  5
1CC
330
1A6
100
AcDbEntity
  8
01-99
100
AcDbLine
 10
204.0000075122355
 20
44.33333132043583
 30
0.0
 11
115.0000075122355
 21
44.33333132043578
 31
0.0
  0
LINE
  5
1CD
330
1A6
100
AcDbEntity
  8
01-99
100
AcDbLine
 10
115.0000075122355
 20
16.22222020910249
 30
0.0
 11
204.0000075122355
 21
16.2222202091026
 31
0.0
  0
LINE
  5
1CE
330
1A6
100
AcDbEntity
  8
01-99
100
AcDbLine
 10
115.0000075122355
 20
36.6666646537692
 30
0.0
 11
204.0000075122355
 21
36.66666465376926
 31
0.0
  0
LINE
  5
1CF
330
1A6
100
AcDbEntity
  8
01-99
100
AcDbLine
 10
92.0000075122355
 20
41.77777576510249
 30
0.0
 11
70.0000075122355
 21
41.77777576510249
 31
0.0
  0
LINE
  5
1D0
330
1A6
100
AcDbEntity
  8
01-99
100
AcDbLine
 10
92.0000075122355
 20
46.8888868761025
 30
0.0
 11
70.0000075122355
 21
46.88888687610244
 31
0.0
  0
LINE
  5
1D1
330
1A6
100
AcDbEntity
  8
01-99
100
AcDbLine
 10
20.00000751223368
 20
51.99999798710246
 30
0.0
 11
20.00000751223368
 21
5.99999798710246
 31
0.0
  0
TEXT
  5
1D2
330
1A6
100
AcDbEntity
  8
08-99
100
AcDbText
 10
116.4997086805418
 20
32.66987169496042
 30
0.0
 40
2.5
  1
Benennung/Teil:
 51
15.0
  7
ROMANS8
100
AcDbText
  0
TEXT
  5
1D7
330
1A6
100
AcDbEntity
  8
08-99
100
AcDbText
 10
178.5028349598029
 20
12.01760068133313
 30
0.0
 40
2.7
  1
Ident-Nr.
 51
15.0
  7
ROMANS8
100
AcDbText
  0
TEXT
  5
1D8
330
1A6
100
AcDbEntity
  8
08-99
100
AcDbText
 10
93.50002924540357
 20
33.0555749488849
 30
0.0
 40
2.5
  1
Name:
 51
15.0
  7
ROMANS8
100
AcDbText
  0
TEXT
  5
1D9
330
1A6
100
AcDbEntity
  8
08-99
100
AcDbText
 10
79.50777665478042
 20
33.04841594810694
 30
0.0
 40
2.5
  1
Datum:
 50
0.102528160689452
 41
0.8933771909280748
 51
15.0
  7
ROMANS8
 72
     5
 11
90.67497366186243
 21
33.06839915456692
 31
0.0
100
AcDbText
  0
TEXT
  5
1DA
330
1A6
100
AcDbEntity
  8
08-99
100
AcDbText
 10
29.50001559397086
 20
33.05597508608236
 30
0.0
 40
1.6
  1
Änderung:
 51
15.0
  7
ROMANS8
100
AcDbText
  0
TEXT
  5
1DB
330
1A6
100
AcDbEntity
  8
08-99
100
AcDbText
 10
46.49994558798837
 20
9.111117286264914
 30
0.0
 40
1.0
  1
ERSETZT.DURCH:
 51
15.0
  7
ROMANS8
100
AcDbText
  0
TEXT
  5
1DC
330
1A6
100
AcDbEntity
  8
08-99
100
AcDbText
 10
21.49936832790721
 20
9.110852190038713
 30
0.0
 40
1.0
  1
ERSETZT.FÜR:
 51
15.0
  7
ROMANS8
100
AcDbText
  0
TEXT
  5
1DD
330
1A6
100
AcDbEntity
  8
08-99
100
AcDbText
 10
145.9909143543897
 20
12.61295485116625
 30
0.0
 40
2.112
  1
AUFTRAGS.NR.:
 51
15.0
  7
ROMANS8
100
AcDbText
  0
TEXT
  5
1DE
330
1A6
100
AcDbEntity
  8
08-99
100
AcDbText
 10
116.5034717172479
 20
12.61092664313281
 30
0.0
 40
2.112
  1
Sonder-Nr:
 51
15.0
  7
ROMANS8
100
AcDbText
  0
TEXT
  5
1DF
330
1A6
100
AcDbEntity
  8
08-99
100
AcDbText
 10
99.69631500731376
 20
49.92370649414477
 30
0.0
 40
1.349999999999999
  1
Format
 51
15.0
  7
ROMANS8
100
AcDbText
  0
TEXT
  5
1E0
330
1A6
100
AcDbEntity
  8
08-99
100
AcDbText
 10
98.30438725900334
 20
44.6416167802032
 30
0.0
 40
1.822499999999999
  1
Normen
 51
15.0
  7
ROMANS8
100
AcDbText
  0
TEXT
  5
1E1
330
1A6
100
AcDbEntity
  8
08-99
100
AcDbText
 10
21.50003711613706
 20
33.05556582266059
 30
0.0
 40
1.6
  1
Zust.
 51
15.0
  7
ROMANS8
100
AcDbText
  0
TEXT
  5
1E2
330
1A6
100
AcDbEntity
  8
08-99
100
AcDbText
 10
49.50318821340468
 20
33.05555723859902
 30
0.0
 40
1.6
  1
Datum:
 51
15.0
  7
ROMANS8
100
AcDbText
  0
TEXT
  5
1E3
330
1A6
100
AcDbEntity
  8
08-99
100
AcDbText
 10
61.50322112916754
 20
33.05556204504791
 30
0.0
 40
1.6
  1
Name:
 51
15.0
  7
ROMANS8
100
AcDbText
  0
TEXT
  5
1E4
330
1A6
100
AcDbEntity
  8
08-99
100
AcDbText
 10
71.1545619578267
 20
28.03813755505132
 30
0.0
 40
1.6
  1
Erst.
 51
15.0
  7
ROMANS8
100
AcDbText
  0
TEXT
  5
1E5
330
1A6
100
AcDbEntity
  8
08-99
100
AcDbText
 10
70.51718787454618
 20
23.1974490465235
 30
0.0
 40
1.6
  1
Bearb.
 51
15.0
  7
ROMANS8
100
AcDbText
  0
TEXT
  5
1E6
330
1A6
100
AcDbEntity
  8
08-99
100
AcDbText
 10
149.4308124240035
 20
41.61949547980938
 30
0.0
 40
2.0
  1
Zuschnittsbreite:
 51
15.0
  7
ROMANS8
100
AcDbText
  0
TEXT
  5
1E7
330
1A6
100
AcDbEntity
  8
08-99
100
AcDbText
 10
115.9850022862677
 20
41.73762161521608
 30
0.0
 40
2.0
  1
Zuschnittslänge:
 51
15.0
  7
ROMANS8
100
AcDbText
  0
LWPOLYLINE
  5
1E8
330
1A6
100
AcDbEntity
  8
06-99
100
AcDbPolyline
 90
      133
 70
     1
 43
0.010692
 10
93.76754732423549
 20
18.87656283643588
 10
94.00905465623557
 20
19.08724513243589
 10
93.92285931623556
 20
19.22625538843579
 10
93.82427194823552
 20
19.35180441643592
 10
93.71363469623569
 20
19.46393854843592
 10
93.59130396023548
 20
19.56271124443577
 10
93.45762188423558
 20
19.64816170843585
 10
93.31293417623559
 20
19.72033627243581
 10
93.15759367223554
 20
19.77928839643584
 10
92.99194251623569
 20
19.82505728443584
 10
92.81632998023557
 20
19.85768926843593
 10
92.63110533623573
 20
19.87723780843589
 10
92.43661429223564
 20
19.88374210843585
 10
92.27568900023554
 20
19.87767974443585
 10
92.11994932823543
 20
19.85975638843581
 10
91.96972672823566
 20
19.83036051643597
 10
91.82535621623562
 20
19.78988773243583
 10
91.68716924423554
 20
19.73873364043595
 10
91.55549013623559
 20
19.67729028043584
 10
91.43066103623565
 20
19.60594969243584
 10
91.31300626823557
 20
19.52510391643579
 10
91.20285728423553
 20
19.43514499243588
 10
91.10055266423561
 20
19.33647208843587
 10
91.00641316823569
 20
19.22947011643589
 10
90.92077737623563
 20
19.11454180843589
 10
90.84397674023561
 20
18.99207207643587
 10
90.77633914823563
 20
18.86245652443591
 10
90.71819961623559
 20
18.72608719243584
 10
90.66988603223562
 20
18.58336324843583
 10
90.63172984823566
 20
18.43466960443584
 10
90.60406964423547
 20
18.28040542843581
 10
90.5872261802356
 20
18.12095919643588
 10
90.58154160023562
 20
17.95672651243586
 10
90.58715490023557
 20
17.78762184043592
 10
90.60380590823573
 20
17.62428728443586
 10
90.63119524823539
 20
17.46704004043585
 10
90.66902354423545
 20
17.31619374043578
 10
90.71699498423553
 20
17.17206201643586
 10
90.77481375623566
 20
17.03495850043589
 10
90.84218404823563
 20
16.90519326043585
 10
90.91880648423559
 20
16.78308349243582
 10
91.00438525223561
 20
16.66893926443583
 10
91.09862810423559
 20
16.56307777243586
 10
91.2012285362355
 20
16.46580908443587
 10
91.31190142823554
 20
16.37745039643579
 10
91.43034027623562
 20
16.29831177643592
 10
91.55625283223551
 20
16.2287068564359
 10
91.6893397202355
 20
16.16895283243582
 10
91.82930869223552
 20
16.11935977243587
 10
91.9758568082357
 20
16.08024130843591
 10
92.1286953842355
 20
16.05191107243593
 10
92.28751791623555
 20
16.03468269643588
 10
92.45203572023561
 20
16.02886981243591
 10
92.61603318023563
 20
16.03412314843587
 10
92.77336596023557
 20
16.0497619804359
 10
92.92384516823554
 20
16.07559385243587
 10
93.06728191223546
 20
16.11142630843591
 10
93.20349086423565
 20
16.15707045643586
 10
93.33227956823547
 20
16.21233740443585
 10
93.45346269623556
 20
16.27703469643586
 10
93.56684422823562
 20
16.35097700443589
 10
93.67224596423559
 20
16.43397187243585
 10
93.76946832023557
 20
16.52582328043587
 10
93.85832953223555
 20
16.62635302843586
 10
93.93864070823568
 20
16.73535796843583
 10
94.01020939223556
 20
16.85265990043587
 10
94.07284669223557
 20
16.97805924043587
 10
94.12636728023565
 20
17.11137066043579
 10
94.17058226423549
 20
17.25240170443584
 10
94.20529562423556
 20
17.40096348043585
 10
94.23032916023558
 20
17.55686709643589
 10
94.2454868522357
 20
17.71992366043582
 10
94.25057980823547
 20
17.88993715243583
 10
94.25057980823547
 20
17.88993715243583
 10
94.25057980823547
 20
17.94131934043588
 10
92.6164715522356
 20
17.94131934043588
 10
92.6164715522356
 20
17.65354772443584
 10
93.88573312823544
 20
17.65354772443584
 10
93.87499479623548
 20
17.49100437643585
 10
93.84766248023552
 20
17.33635885243586
 10
93.80444185223566
 20
17.19027405643589
 10
93.74603858423554
 20
17.05341645643585
 10
93.67316547623572
 20
16.92644182843588
 10
93.58653176423562
 20
16.81002376843588
 10
93.4868359922356
 20
16.70481448843588
 10
93.37479452423556
 20
16.61148758443585
 10
93.2511130322355
 20
16.53069526843586
 10
93.11649718823563
 20
16.46310757243589
 10
92.9716562282355
 20
16.40938383643583
 10
92.81729938823563
 20
16.37019052843595
 10
92.65413234023563
 20
16.34618698843581
 10
92.48286432023567
 20
16.3380396844359
 10
92.31820395623563
 20
16.34599096843584
 10
92.15990889623553
 20
16.3693743724358
 10
92.00857076423554
 20
16.40748066043585
 10
91.86477762023541
 20
16.45960416043584
 10
91.7291103962356
 20
16.52503563643586
 10
91.60216071623555
 20
16.60306585243592
 10
91.48451307623558
 20
16.69299270043586
 10
91.37675910023554
 20
16.79410338043595
 10
91.27948328423569
 20
16.90569222043587
 10
91.19327012423552
 20
17.02705354843584
 10
91.11871124423558
 20
17.15747456443586
 10
91.05639114023555
 20
17.29625316043587
 10
91.00689787223556
 20
17.44268010043583
 10
90.97081950023541
 20
17.5960425844359
 10
90.94874052023547
 20
17.75564206843597
 10
90.94125255623557
 20
17.92076575243578
 10
90.94763924423572
 20
18.08913980443589
 10
90.96654270023558
 20
18.25115211643583
 10
90.99756375623568
 20
18.40630372843583
 10
91.04030680823555
 20
18.55409924443586
 10
91.09437981623548
 20
18.69404326843585
 10
91.15938361223554
 20
18.82564396843588
 10
91.23492259223556
 20
18.9483988204359
 10
91.32060471623564
 20
19.06181955643586
 10
91.41603081623546
 20
19.16540365243594
 10
91.52081241623548
 20
19.25865927643582
 10
91.63454322023566
 20
19.34108746843589
 10
91.75683831623567
 20
19.41219639643589
 10
91.88729497223542
 20
19.47148710043586
 10
92.02552114823564
 20
19.51846418443586
 10
92.17112480423569
 20
19.55263225243584
 10
92.32370320823568
 20
19.57349947243585
 10
92.48286432023567
 20
19.58056332043588
 10
92.66056892423561
 20
19.57164619243588
 10
92.83032224423564
 20
19.54500885643586
 10
92.99178570023562
 20
19.50081882043588
 10
93.14462071223559
 20
19.43924359243584
 10
93.28848870023561
 20
19.36045780843585
 10
93.42305464823565
 20
19.26462541243592
 10
93.54797997623554
 20
19.15192104043586
 10
93.66292254023566
 20
19.02250863643593
  0
LWPOLYLINE
  5
1EC
330
1A6
100
AcDbEntity
  8
06-99
100
AcDbPolyline
 90
       12
 70
     1
 43
0.010692
 10
90.43900298423549
 20
12.25281181243593
 10
92.32227048023563
 20
12.25281181243593
 10
92.46760683623554
 20
13.00767770443588
 10
91.56487771223558
 20
13.00767770443588
 10
91.62106060823546
 20
13.29950515243581
 10
92.41872301223557
 20
13.29950515243581
 10
92.55580870823544
 20
14.01156027643583
 10
91.75814630423545
 20
14.01156027643583
 10
91.80985281623547
 20
14.28005421643581
 10
92.68923417623549
 20
14.28005421643581
 10
92.83455984023559
 20
15.03490585243588
 10
90.97464010823561
 20
15.03490585243588
  0
LWPOLYLINE
  5
1ED
330
1A6
100
AcDbEntity
  8
06-99
100
AcDbPolyline
 90
        4
 70
     1
 43
0.010692
 10
76.60861942823558
 20
12.88042508443584
 10
89.06586862823544
 20
12.88042508443584
 10
88.94229049223557
 20
12.25209544843585
 10
76.48504485623553
 20
12.25209544843585
  0
SOLID
  5
1EE
330
1A6
100
AcDbEntity
  8
06-99
100
AcDbTrace
 10
76.60861942823558
 20
12.88042508443584
 30
0.0
 11
89.06586862823544
 21
12.88042508443584
 31
0.0
 12
76.48504485623553
 22
12.25209544843585
 32
0.0
 13
88.94229049223557
 23
12.25209544843585
 33
0.0
  0
LWPOLYLINE
  5
1EF
330
1A6
100
AcDbEntity
  8
06-99
100
AcDbPolyline
 90
       10
 70
     1
 43
0.010692
 10
82.3458504002356
 20
16.02886981243591
 10
83.32219038023552
 20
19.10266656043586
 10
84.33965535623546
 20
16.02886981243591
 10
85.56780619223562
 20
19.80153132043585
 10
85.22351666423551
 20
19.80153132043585
 10
84.33965535623546
 20
16.89302932843583
 10
83.32219038023552
 20
19.9454100004358
 10
82.3458504002356
 20
16.86733645243589
 10
81.42601764023565
 20
19.80153132043585
 10
81.07658882423564
 20
19.80153132043585
  0
LWPOLYLINE
  5
1F0
330
1A6
100
AcDbEntity
  8
06-99
100
AcDbPolyline
 90
        3
 70
     1
 43
0.010692
 10
87.32442338423565
 20
17.65868344843591
 10
87.97704168023555
 20
19.25683094443582
 10
88.6039706642355
 20
17.65868344843591
  0
LWPOLYLINE
  5
1F1
330
1A6
100
AcDbEntity
  8
06-99
100
AcDbPolyline
 90
        7
 70
     1
 43
0.010692
 10
86.38318880423563
 20
16.12735738843582
 10
86.72320153223555
 20
16.12735738843582
 10
87.21136974023549
 20
17.37092608843585
 10
88.71187076423566
 20
17.37092608843585
 10
89.17949964023549
 20
16.12735738843582
 10
89.54434632023552
 20
16.12735738843582
 10
87.99759883223558
 20
19.9454100004358
  0
LWPOLYLINE
  5
1F2
330
1A6
100
AcDbEntity
  8
06-99
100
AcDbPolyline
 90
        8
 70
     1
 43
0.010692
 10
98.92981243223543
 20
12.25281181243593
 10
100.0043869442354
 20
12.25281181243593
 10
100.1574144122356
 20
12.60301045243585
 10
100.9122803042355
 20
12.60301045243585
 10
100.9343521562355
 20
12.25281181243593
 10
102.0082815842354
 20
12.25281181243593
 10
101.5711569842355
 20
15.03490585243588
 10
100.4583193682355
 20
15.03490585243588
  0
LWPOLYLINE
  5
1F3
330
1A6
100
AcDbEntity
  8
06-99
100
AcDbPolyline
 90
       34
 70
     1
 43
0.010692
 10
96.0434642642356
 20
13.66137589243584
 10
96.07848769223544
 20
13.66137589243584
 10
96.0642316922356
 20
13.48699650043591
 10
96.06380757623552
 20
13.33509882043586
 10
96.06790617623554
 20
13.20222577243589
 10
96.09523849223561
 20
12.25281181243593
 10
96.9668360762354
 20
12.25281181243593
 10
98.31569602823542
 20
15.03490585243588
 10
97.31181345623557
 20
15.03490585243588
 10
96.85792023623552
 20
13.80922843243581
 10
96.80781752423563
 20
13.66872486043581
 10
96.74884758023544
 20
13.48671138043579
 10
96.69003445223545
 20
13.26059696443593
 10
96.66670094423549
 20
13.26059696443593
 10
96.6884270882355
 20
13.45803187243587
 10
96.69298544423558
 20
13.61569254043581
 10
96.69194475623548
 20
13.73531107243588
 10
96.67756045223544
 20
15.03490585243588
 10
95.97329266823548
 20
15.03490585243588
 10
95.45849068823557
 20
13.73531107243588
 10
95.41138886423542
 20
13.61569254043581
 10
95.35523448023562
 20
13.45803187243587
 10
95.30092981223551
 20
13.26059696443593
 10
95.27759630423545
 20
13.26059696443593
 10
95.30585169623558
 20
13.48671138043579
 10
95.31697137623556
 20
13.66872486043581
 10
95.32096662023551
 20
13.80922843243581
 10
95.33903966423546
 20
15.03490585243588
 10
94.33451200823553
 20
15.03490585243588
 10
94.61274279623561
 20
12.25281181243593
 10
95.48433681623547
 20
12.25281181243593
 10
95.87724643223557
 20
13.20222577243589
 10
95.93252050823551
 20
13.33509882043586
 10
95.99058519623557
 20
13.48699650043591
  0
LWPOLYLINE
  5
1F4
330
1A6
100
AcDbEntity
  8
06-99
100
AcDbPolyline
 90
       10
 70
     1
 43
0.010692
 10
100.4520752402354
 20
13.26448172443588
 10
100.5983667482354
 20
13.57965693643587
 10
100.6731180842355
 20
13.74409276843596
 10
100.7541598802355
 20
13.94570824843589
 10
100.8288363722355
 20
14.19056217643595
 10
100.8482958122355
 20
14.19056217643595
 10
100.8286724282354
 20
13.94570824843589
 10
100.8320796122355
 20
13.74409276843596
 10
100.8435129242355
 20
13.57965693643587
 10
100.8684181562356
 20
13.26448172443588
  0
LWPOLYLINE
  5
1F5
330
1A6
100
AcDbEntity
  8
06-99
100
AcDbPolyline
 90
       23
 70
     1
 43
0.010692
 10
103.5867130322356
 20
12.25281181243593
 10
104.5672478402354
 20
12.25281181243593
 10
104.7440436242355
 20
13.17110136043584
 10
105.0536340482356
 20
12.25281181243593
 10
106.1742447482354
 20
12.25281181243593
 10
105.6490750922355
 20
13.38511243243585
 10
105.8084357882355
 20
13.42380678043588
 10
105.9537079922354
 20
13.49881472443587
 10
106.0813562162355
 20
13.60690015243585
 10
106.1878378442354
 20
13.74481626043587
 10
106.2696066962354
 20
13.90931980843584
 10
106.3231201562354
 20
14.09716755643586
 10
106.3446075122355
 20
14.26808986843588
 10
106.3403093282354
 20
14.42329850443593
 10
106.3102362962355
 20
14.56225886443587
 10
106.2543991082354
 20
14.68443278443578
 10
106.1728155842354
 20
14.78928566443591
 10
106.0654999802355
 20
14.87627577643587
 10
105.9324594242355
 20
14.94487208443587
 10
105.7737153002354
 20
14.99453286043592
 10
105.5892711722355
 20
15.02472350443588
 10
105.3791519882354
 20
15.03490585243588
 10
104.1223501562355
 20
15.03490585243588
  0
LWPOLYLINE
  5
1F6
330
1A6
100
AcDbEntity
  8
06-99
100
AcDbPolyline
 90
        9
 70
     1
 43
0.010692
 10
104.9650401362355
 20
14.31896240443586
 10
105.1206907082355
 20
14.31896240443586
 10
105.2773605842356
 20
14.28538239643581
 10
105.3582277442354
 20
14.19040892443593
 10
105.3632244722355
 20
14.04269894443587
 10
105.3008722922355
 20
13.89699906043591
 10
105.1832994962355
 20
13.80577848043589
 10
105.0158200082354
 20
13.77421926043581
 10
104.8601694362355
 20
13.77421926043581
  0
LWPOLYLINE
  5
1F7
330
1A6
100
AcDbEntity
  8
06-99
100
AcDbPolyline
 90
       12
 70
     1
 43
0.010692
 10
100.5798090002356
 20
16.12735738843582
 10
102.3989066762356
 20
16.12735738843582
 10
102.3989066762356
 20
16.4408218804358
 10
100.9138270802356
 20
16.4408218804358
 10
100.9138270802356
 20
18.02353012843594
 10
102.3989066762356
 20
18.02353012843594
 10
102.3989066762356
 20
18.33699462043592
 10
100.9138270802356
 20
18.33699462043592
 10
100.9138270802356
 20
19.48806682843587
 10
102.3989066762356
 20
19.48806682843587
 10
102.3989066762356
 20
19.80153132043585
 10
100.5798090002356
 20
19.80153132043585
  0
LWPOLYLINE
  5
1F8
330
1A6
100
AcDbEntity
  8
06-99
100
AcDbPolyline
 90
        8
 70
     1
 43
0.010692
 10
95.85303261623565
 20
16.12735738843582
 10
96.18705426023556
 20
16.12735738843582
 10
96.18705426023556
 20
19.09753083643585
 10
98.76667389623552
 20
16.01858410843584
 10
98.76667389623552
 20
19.80153132043585
 10
98.4326665082356
 20
19.80153132043585
 10
98.4326665082356
 20
16.88274362443587
 10
95.85303261623565
 20
19.95568144843582
  0
LWPOLYLINE
  5
1F9
330
1A6
100
AcDbEntity
  8
06-99
100
AcDbPolyline
 90
       19
 70
     1
 43
0.010692
 10
104.4484312082357
 20
19.5086239804358
 10
104.7824385962356
 20
19.5086239804358
 10
104.9866237202355
 20
19.50030560443588
 10
105.1604542562355
 20
19.47385716043584
 10
105.3049031762356
 20
19.42705471243579
 10
105.4209256322356
 20
19.35767076043584
 10
105.5094874682356
 20
19.26347780443581
 10
105.5715509642355
 20
19.14224834443593
 10
105.6080855282355
 20
18.9917477524358
 10
105.6200498762355
 20
18.80975922043586
 10
105.6074547002355
 20
18.63100680043584
 10
105.5693840522356
 20
18.48585933643585
 10
105.5054245082356
 20
18.37130168443593
 10
105.4151448242355
 20
18.28432582843589
 10
105.2981315762356
 20
18.22192018843589
 10
105.1539570842356
 20
18.18106962043583
 10
104.9821972322354
 20
18.15876967243594
 10
104.7824385962356
 20
18.15200520043589
 10
104.4484312082357
 20
18.15200520043589
  0
LWPOLYLINE
  5
1FA
330
1A6
100
AcDbEntity
  8
06-99
100
AcDbPolyline
 90
       29
 70
     1
 43
0.010692
 10
106.3446075122355
 20
16.12735738843582
 10
105.0239637482355
 20
17.87965144843588
 10
105.2123817362357
 20
17.89225018843592
 10
105.3829084442356
 20
17.92941914443582
 10
105.5344069562356
 20
17.99022811243594
 10
105.6657296642355
 20
18.07375401643588
 10
105.7757360882356
 20
18.17905596043584
 10
105.8632821842355
 20
18.30521443243589
 10
105.9272310362355
 20
18.45129210043592
 10
105.9664386002355
 20
18.6163587604359
 10
105.9797608322353
 20
18.79948777243589
 10
105.9699455762357
 20
18.97455145243589
 10
105.9404891162357
 20
19.13261485243589
 10
105.8913629402356
 20
19.27374568843589
 10
105.8225492282356
 20
19.39801167643577
 10
105.7340230322356
 20
19.50548409643591
 10
105.6257594042356
 20
19.59623422843589
 10
105.4977369602356
 20
19.67032622443582
 10
105.3499307522354
 20
19.72783136443587
 10
105.1823193962355
 20
19.76882449243589
 10
104.9948815082355
 20
19.79336619643589
 10
104.7875885762355
 20
19.80153132043585
 10
104.7875885762355
 20
19.80153132043585
 10
104.1144131282356
 20
19.80153132043585
 10
104.1144131282356
 20
16.12735738843582
 10
104.4484312082357
 20
16.12735738843582
 10
104.4484312082357
 20
17.87965144843588
 10
104.6488456202355
 20
17.87965144843588
 10
105.9386465282355
 20
16.12735738843582
  0
TEXT
  5
1FB
330
1A6
100
AcDbEntity
  8
06-99
100
AcDbText
 10
85.6083656112951
 20
9.63320697282171
 30
0.0
 40
1.4256
  1
GmbH & Co KG
 41
1.199203187251
 51
15.0
  7
ROMAND8
 72
     5
 11
106.0419656112951
 21
9.63320697282171
 31
0.0
100
AcDbText
  0
TEXT
  5
1FD
330
1A6
100
AcDbEntity
  8
06-99
100
AcDbText
 10
85.70982236587898
 20
7.391013700398161
 30
0.0
 40
1.4256
  1
72774 Reutlingen
 50
0.5663244663116128
 41
1.087840993687879
 51
15.0
  7
ROMAND8
 72
     5
 11
105.943422365879
 21
7.59101370039815
 31
0.0
100
AcDbText
  0
TEXT
  5
1FE
330
1A6
100
AcDbEntity
  8
08-99
100
AcDbText
 10
73.414125712073
 20
48.45008961754581
 30
0.0
 40
2.25
  1
Zul. Abw.
 51
15.0
  7
ROMANS8
100
AcDbText
  0
TEXT
  5
1FF
330
1A6
100
AcDbEntity
  8
08-99
100
AcDbText
 10
123.2099338325191
 20
49.28616214647601
 30
0.0
 40
2.0
  1
Mat. Art.
 51
15.0
  7
ROMANS8
100
AcDbText
  0
TEXT
  5
200
330
1A6
100
AcDbEntity
  8
08-99
100
AcDbText
 10
155.4865384826082
 20
49.4043113704472
 30
0.0
 40
2.0
  1
Oberfläche:
 51
15.0
  7
ROMANS8
100
AcDbText
  0
TEXT
  5
201
330
1A6
100
AcDbEntity
  8
08-99
100
AcDbText
 10
184.762545350816
 20
41.73764470378046
 30
0.0
 40
2.0
  1
Blech Dicke:
 51
15.0
  7
ROMANS8
100
AcDbText
  0
TEXT
  5
202
330
1A6
100
AcDbEntity
  8
08-99
100
AcDbText
 10
187.4380355407932
 20
49.28616214647604
 30
0.0
 40
2.0
  1
Maßstab:
 51
15.0
  7
ROMANS8
100
AcDbText
  0
LINE
  5
203
330
1A6
100
AcDbEntity
  8
01-99
100
AcDbLine
 10
115.0000075122355
 20
46.8888868761025
 30
0.0
 11
92.0000075122355
 21
46.8888868761025
 31
0.0
  0
LINE
  5
204
330
1A6
100
AcDbEntity
  8
01-99
100
AcDbLine
 10
115.0000075122355
 20
44.33333132043578
 30
0.0
 11
92.0000075122355
 21
44.33333132043578
 31
0.0
  0
LINE
  5
205
330
1A6
100
AcDbEntity
  8
01-99
100
AcDbLine
 10
115.0000075122355
 20
40.49999798710246
 30
0.0
 11
92.00000751223544
 21
40.49999798710246
 31
0.0
  0
ATTDEF
  5
206
330
1A6
100
AcDbEntity
  8
06-99
100
AcDbText
 10
116.4954542514127
 20
26.18783668438471
 30
0.0
 40
4.0
  1

 41
0.9
  7
ROMANS8
100
AcDbAttributeDefinition
280
     0
  3
Benennung/Teil
  2
TEILE
 70
     0
280
     0
  0
ATTDEF
  5
207
330
1A6
100
AcDbEntity
  8
06-99
100
AcDbText
 10
116.4954542514127
 20
19.29547648609889
 30
0.0
 40
4.0
  1

 41
0.9
  7
ROMANS8
100
AcDbAttributeDefinition
280
     0
  3
Benennung/Teil2
  2
TEILE2
 70
     0
280
     0
  0
ATTDEF
  5
208
330
1A6
100
AcDbEntity
  8
06-99
100
AcDbText
 10
191.3473937239501
 20
45.33333132043583
 30
0.0
 40
3.375
  1

  7
ROMANS8
100
AcDbAttributeDefinition
280
     0
  3
Maßstab
  2
:
 70
     0
280
     0
  0
ATTDEF
  5
209
330
1A6
100
AcDbEntity
  8
06-99
100
AcDbText
 10
92.99707531160292
 20
27.44168345513378
 30
0.0
 40
2.5
  1

 41
0.9
  7
ROMANS8
100
AcDbAttributeDefinition
280
     0
  3
Name
  2
NAME
 70
     0
280
     0
  0
ATTDEF
  5
20A
330
1A6
100
AcDbEntity
  8
06-99
100
AcDbText
 10
79.49315396412956
 20
27.46123316121373
 30
0.0
 40
2.5
  1

 50
359.9144597696142
 41
0.9542572414211148
  7
ROMANS8
 72
     5
 11
90.73974463267431
 21
27.44444245376917
 31
0.0
100
AcDbAttributeDefinition
280
     0
  3
Datum
  2
DATUM
 70
     0
280
     0
  0
ATTDEF
  5
20B
330
1A6
100
AcDbEntity
  8
06-99
100
AcDbText
 10
178.5063514793938
 20
7.4928977873912
 30
0.0
 40
2.99376
  1

  7
ROMANS8
100
AcDbAttributeDefinition
280
     0
  3
Ident-Nummer
  2
ID.NR
 70
     0
280
     0
  0
ATTDEF
  5
20C
330
1A6
100
AcDbEntity
  8
06-99
100
AcDbText
 10
116.731273767946
 20
37.66666463154695
 30
0.0
 40
3.0
  1

 41
0.9
  7
ROMANS8
100
AcDbAttributeDefinition
280
     0
  3
Zuschnitts.Länge
  2
LÄNGE
 70
     0
280
     0
  0
ATTDEF
  5
20D
330
1A6
100
AcDbEntity
  8
06-99
100
AcDbText
 10
150.1808124240052
 20
37.67810185754732
 30
0.0
 40
3.0
  1

 41
0.9
  7
ROMANS8
100
AcDbAttributeDefinition
280
     0
  3
Zuschnitts Breite
  2
BREITE
 70
     0
280
     0
  0
ATTDEF
  5
20E
330
1A6
100
AcDbEntity
  8
06-99
100
AcDbText
 10
190.6090996389673
 20
37.66666465376926
 30
0.0
 40
3.09375
  1

  7
ROMANS8
100
AcDbAttributeDefinition
280
     0
  3
Blech.Dicke
  2
1.0
 70
     0
280
     0
  0
ATTDEF
  5
20F
330
1A6
100
AcDbEntity
  8
06-99
100
AcDbText
 10
164.1277931136382
 20
45.33333132043594
 30
0.0
 40
3.0
  1

  7
ROMANS8
 72
     1
 11
164.1277931136382
 21
45.33333132043594
 31
0.0
100
AcDbAttributeDefinition
280
     0
  3
Oberfläche
  2
IV
 70
     0
280
     0
  0
ATTDEF
  5
210
330
1A6
100
AcDbEntity
  8
06-99
100
AcDbText
 10
123.2747480483513
 20
45.3333313204358
 30
0.0
 40
3.375
  1
1.4301
  7
ROMANS8
100
AcDbAttributeDefinition
280
     0
  3
Mat.Art
  2
1.4301
 70
     0
280
     0
  0
ATTDEF
  5
211
330
1A6
100
AcDbEntity
  8
06-99
100
AcDbText
 10
146.0006413991156
 20
7.504394591457128
 30
0.0
 40
3.168
  1

 41
0.9
  7
ROMANS8
100
AcDbAttributeDefinition
280
     0
  3
Auftrags Nr.
  2
AUFTRAGS.NR.
 70
     0
280
     0
  0
ATTDEF
  5
212
330
1A6
100
AcDbEntity
  8
06-99
100
AcDbText
 10
116.5000075122355
 20
7.499997987102517
 30
0.0
 40
3.168
  1

 41
0.9
  7
ROMANS8
100
AcDbAttributeDefinition
280
     0
  3
Sonder-NR,WPS
  2
SONDER-NR
 70
     0
280
     0
  0
ATTDEF
  5
213
330
1A6
100
AcDbEntity
  8
06-99
100
AcDbText
 10
46.4997585072438
 20
6.601808056362358
 30
0.0
 40
1.5
  1

 41
0.9
  7
ROMANS8
100
AcDbAttributeDefinition
280
     0
  3
ERSETZT.Durch
  2
ERSETZT.DURCH
 70
     0
280
     0
  0
ATTDEF
  5
214
330
1A6
100
AcDbEntity
  8
06-99
100
AcDbText
 10
21.49947529243403
 20
6.597454384974923
 30
0.0
 40
1.5
  1

 41
0.9
  7
ROMANS8
100
AcDbAttributeDefinition
280
     0
  3
ERSETZT.Für
  2
ERSETZT.FÜR
 70
     0
280
     0
  0
ATTDEF
  5
215
330
1A6
100
AcDbEntity
  8
06-99
100
AcDbText
 10
99.97308015867309
 20
47.66850912711049
 30
0.0
 40
1.287
  1
DIN A4
  7
ROMANS8
 72
     1
 11
103.2518658729588
 21
47.66850912711049
 31
0.0
100
AcDbAttributeDefinition
280
     0
  3
Format
  2
FORMAT
 70
     0
280
     0
  0
ATTDEF
  5
216
330
1A6
100
AcDbEntity
  8
06-99
100
AcDbText
 10
95.9874465096418
 20
37.19696532096725
 30
0.0
 40
2.34
  1
DIN 2768
  7
ROMANS8
 72
     1
 11
104.0103036524989
 21
37.19696532096725
 31
0.0
100
AcDbAttributeDefinition
280
     0
  3
Norm / Kanten
  2
NORM2
 70
     0
280
     0
  0
ATTDEF
  5
217
330
1A6
100
AcDbEntity
  8
06-99
100
AcDbText
 10
92.81173222392748
 20
41.03029865430056
 30
0.0
 40
2.34
  1
DIN 6930-M
  7
ROMANS8
 72
     1
 11
103.5088750810703
 21
41.03029865430056
 31
0.0
100
AcDbAttributeDefinition
280
     0
  3
Norm / Fräsen
  2
NORM1
 70
     0
280
     0
  0
ENDBLK
  5
218
330
1A6
100
AcDbEntity
  8
0
100
AcDbBlockEnd
  0
BLOCK
  5
10F
330
10E
100
AcDbEntity
  8
0
100
AcDbBlockBegin
  2
*D8
 70
     1
 10
0.0
 20
0.0
 30
0.0
  3
*D8
  1

  0
LINE
  5
110
330
10E
100
AcDbEntity
  8
09-01
 62
     4
370
    -2
100
AcDbLine
 10
278.0853397933789
 20
567.6025228044053
 30
0.0
 11
268.9375133837067
 21
567.6025228044053
 31
0.0
  0
LINE
  5
111
330
10E
100
AcDbEntity
  8
09-01
 62
     4
370
    -2
100
AcDbLine
 10
314.5853397933789
 20
547.6025228044541
 30
0.0
 11
268.9375133837067
 21
547.6025228044541
 31
0.0
  0
LINE
  5
112
330
10E
100
AcDbEntity
  8
09-01
 62
     4
370
    -2
100
AcDbLine
 10
270.9375133837067
 20
562.6025228044053
 30
0.0
 11
270.9375133837067
 21
552.6025228044541
 31
0.0
  0
SOLID
  5
113
330
10E
100
AcDbEntity
  8
09-01
 62
     4
100
AcDbTrace
 10
270.1041800503734
 20
562.6025228044053
 30
0.0
 11
271.77084671704
 21
562.6025228044053
 31
0.0
 12
270.9375133837067
 22
567.6025228044053
 32
0.0
 13
270.9375133837067
 23
567.6025228044053
 33
0.0
  0
SOLID
  5
114
330
10E
100
AcDbEntity
  8
09-01
 62
     4
100
AcDbTrace
 10
270.1041800503734
 20
552.6025228044541
 30
0.0
 11
271.77084671704
 21
552.6025228044541
 31
0.0
 12
270.9375133837067
 22
547.6025228044541
 32
0.0
 13
270.9375133837067
 23
547.6025228044541
 33
0.0
  0
MTEXT
  5
115
330
10E
100
AcDbEntity
  8
09-01
 62
     1
100
AcDbMText
 10
266.3846484450981
 20
557.6025228044297
 30
0.0
 40
5.0
 41
0.0
 46
0.0
 71
     5
 72
     1
  1
20
 11
0.0000000000000001
 21
1.0
 31
0.0
 73
     1
 44
1.0
  0
POINT
  5
116
330
10E
100
AcDbEntity
  8
DEFPOINTS
 62
     0
100
AcDbPoint
 10
280.0853397933789
 20
567.6025228044053
 30
0.0
  0
POINT
  5
117
330
10E
100
AcDbEntity
  8
DEFPOINTS
 62
     0
100
AcDbPoint
 10
316.5853397933789
 20
547.6025228044541
 30
0.0
  0
POINT
  5
118
330
10E
100
AcDbEntity
  8
DEFPOINTS
 62
     0
100
AcDbPoint
 10
270.9375133837067
 20
547.6025228044541
 30
0.0
  0
ENDBLK
  5
119
330
10E
100
AcDbEntity
  8
0
100
AcDbBlockEnd
  0
BLOCK
  5
102
330
101
100
AcDbEntity
  8
0
100
AcDbBlockBegin
  2
*D9
 70
     1
 10
0.0
 20
0.0
 30
0.0
  3
*D9
  1

  0
LINE
  5
103
330
101
100
AcDbEntity
  8
09-01
 62
     4
370
    -2
100
AcDbLine
 10
315.5853397933789
 20
547.6025228044541
 30
0.0
 11
268.9375133837066
 21
547.6025228044541
 31
0.0
  0
LINE
  5
104
330
101
100
AcDbEntity
  8
09-01
 62
     4
370
    -2
100
AcDbLine
 10
314.5853397933789
 20
304.6025228044537
 30
0.0
 11
268.9375133837066
 21
304.6025228044537
 31
0.0
  0
LINE
  5
105
330
101
100
AcDbEntity
  8
09-01
 62
     4
370
    -2
100
AcDbLine
 10
270.9375133837066
 20
542.6025228044541
 30
0.0
 11
270.9375133837066
 21
309.6025228044537
 31
0.0
  0
SOLID
  5
106
330
101
100
AcDbEntity
  8
09-01
 62
     4
100
AcDbTrace
 10
270.1041800503733
 20
542.6025228044541
 30
0.0
 11
271.77084671704
 21
542.6025228044541
 31
0.0
 12
270.9375133837066
 22
547.6025228044541
 32
0.0
 13
270.9375133837066
 23
547.6025228044541
 33
0.0
  0
SOLID
  5
107
330
101
100
AcDbEntity
  8
09-01
 62
     4
100
AcDbTrace
 10
270.1041800503733
 20
309.6025228044537
 30
0.0
 11
271.7708467170399
 21
309.6025228044537
 31
0.0
 12
270.9375133837066
 22
304.6025228044537
 32
0.0
 13
270.9375133837066
 23
304.6025228044537
 33
0.0
  0
MTEXT
  5
108
330
101
100
AcDbEntity
  8
09-01
 62
     1
100
AcDbMText
 10
266.3829431244978
 20
426.1025228044539
 30
0.0
 40
5.0
 41
0.0
 46
0.0
 71
     5
 72
     1
  1
243
 11
0.0000000000000001
 21
1.0
 31
0.0
 73
     1
 44
1.0
  0
POINT
  5
109
330
101
100
AcDbEntity
  8
DEFPOINTS
 62
     0
100
AcDbPoint
 10
317.5853397933789
 20
547.6025228044541
 30
0.0
  0
POINT
  5
10A
330
101
100
AcDbEntity
  8
DEFPOINTS
 62
     0
100
AcDbPoint
 10
316.5853397933789
 20
304.6025228044537
 30
0.0
  0
POINT
  5
10B
330
101
100
AcDbEntity
  8
DEFPOINTS
 62
     0
100
AcDbPoint
 10
270.9375133837066
 20
304.6025228044537
 30
0.0
  0
ENDBLK
  5
10C
330
101
100
AcDbEntity
  8
0
100
AcDbBlockEnd
  0
BLOCK
  5
DD
330
DC
100
AcDbEntity
  8
0
100
AcDbBlockBegin
  2
*D10
 70
     1
 10
0.0
 20
0.0
 30
0.0
  3
*D10
  1

  0
LINE
  5
DE
330
DC
100
AcDbEntity
  8
09-01
 62
     4
370
    -2
100
AcDbLine
 10
314.5853397933789
 20
304.6025228044537
 30
0.0
 11
268.9375133837066
 21
304.6025228044537
 31
0.0
  0
LINE
  5
DF
330
DC
100
AcDbEntity
  8
09-01
 62
     4
370
    -2
100
AcDbLine
 10
278.0853397933789
 20
269.0618009245744
 30
0.0
 11
268.9375133837066
 21
269.0618009245744
 31
0.0
  0
LINE
  5
E0
330
DC
100
AcDbEntity
  8
09-01
 62
     4
370
    -2
100
AcDbLine
 10
270.9375133837066
 20
299.6025228044537
 30
0.0
 11
270.9375133837066
 21
274.0618009245744
 31
0.0
  0
SOLID
  5
E1
330
DC
100
AcDbEntity
  8
09-01
 62
     4
100
AcDbTrace
 10
270.1041800503733
 20
299.6025228044537
 30
0.0
 11
271.7708467170399
 21
299.6025228044537
 31
0.0
 12
270.9375133837066
 22
304.6025228044537
 32
0.0
 13
270.9375133837066
 23
304.6025228044537
 33
0.0
  0
SOLID
  5
E2
330
DC
100
AcDbEntity
  8
09-01
 62
     4
100
AcDbTrace
 10
270.1041800503733
 20
274.0618009245744
 30
0.0
 11
271.7708467170399
 21
274.0618009245744
 31
0.0
 12
270.9375133837066
 22
269.0618009245744
 32
0.0
 13
270.9375133837066
 23
269.0618009245744
 33
0.0
  0
MTEXT
  5
E3
330
DC
100
AcDbEntity
  8
09-01
 62
     1
100
AcDbMText
 10
266.3829431244978
 20
286.8321618645141
 30
0.0
 40
5.0
 41
0.0
 46
0.0
 71
     5
 72
     1
  1
35.5
 11
0.0000000000000001
 21
1.0
 31
0.0
 73
     1
 44
1.0
  0
POINT
  5
E4
330
DC
100
AcDbEntity
  8
DEFPOINTS
 62
     0
100
AcDbPoint
 10
316.5853397933789
 20
304.6025228044537
 30
0.0
  0
POINT
  5
E5
330
DC
100
AcDbEntity
  8
DEFPOINTS
 62
     0
100
AcDbPoint
 10
280.0853397933789
 20
269.0618009245744
 30
0.0
  0
POINT
  5
E6
330
DC
100
AcDbEntity
  8
DEFPOINTS
 62
     0
100
AcDbPoint
 10
270.9375133837066
 20
269.0618009245744
 30
0.0
  0
ENDBLK
  5
E7
330
DC
100
AcDbEntity
  8
0
100
AcDbBlockEnd
  0
BLOCK
  5
D0
330
CF
100
AcDbEntity
  8
0
100
AcDbBlockBegin
  2
*D11
 70
     1
 10
0.0
 20
0.0
 30
0.0
  3
*D11
  1

  0
LINE
  5
D1
330
CF
100
AcDbEntity
  8
09-01
 62
     4
370
    -2
100
AcDbLine
 10
278.0853397933789
 20
567.6025228044053
 30
0.0
 11
258.9175401363564
 21
567.6025228044053
 31
0.0
  0
LINE
  5
D2
330
CF
100
AcDbEntity
  8
09-01
 62
     4
370
    -2
100
AcDbLine
 10
303.0217486776141
 20
246.2430530683886
 30
0.0
 11
258.9175401363564
 21
246.2430530683886
 31
0.0
  0
LINE
  5
D3
330
CF
100
AcDbEntity
  8
09-01
 62
     4
370
    -2
100
AcDbLine
 10
260.9175401363564
 20
562.6025228044053
 30
0.0
 11
260.9175401363564
 21
251.2430530683886
 31
0.0
  0
SOLID
  5
D4
330
CF
100
AcDbEntity
  8
09-01
 62
     4
100
AcDbTrace
 10
260.0842068030231
 20
562.6025228044053
 30
0.0
 11
261.7508734696897
 21
562.6025228044053
 31
0.0
 12
260.9175401363564
 22
567.6025228044053
 32
0.0
 13
260.9175401363564
 23
567.6025228044053
 33
0.0
  0
SOLID
  5
D5
330
CF
100
AcDbEntity
  8
09-01
 62
     4
100
AcDbTrace
 10
260.084206803023
 20
251.2430530683886
 30
0.0
 11
261.7508734696897
 21
251.2430530683886
 31
0.0
 12
260.9175401363564
 22
246.2430530683886
 32
0.0
 13
260.9175401363564
 23
246.2430530683886
 33
0.0
  0
MTEXT
  5
D6
330
CF
100
AcDbEntity
  8
09-01
 62
     1
100
AcDbMText
 10
256.3629698771476
 20
406.922787936397
 30
0.0
 40
5.0
 41
0.0
 46
0.0
 71
     5
 72
     1
  1
321.4
 11
0.0000000000000001
 21
1.0
 31
0.0
 73
     1
 44
1.0
  0
POINT
  5
D7
330
CF
100
AcDbEntity
  8
DEFPOINTS
 62
     0
100
AcDbPoint
 10
280.0853397933789
 20
567.6025228044053
 30
0.0
  0
POINT
  5
D8
330
CF
100
AcDbEntity
  8
DEFPOINTS
 62
     0
100
AcDbPoint
 10
305.0217486776142
 20
246.2430530683886
 30
0.0
  0
POINT
  5
D9
330
CF
100
AcDbEntity
  8
DEFPOINTS
 62
     0
100
AcDbPoint
 10
260.9175401363564
 20
246.2430530683886
 30
0.0
  0
ENDBLK
  5
DA
330
CF
100
AcDbEntity
  8
0
100
AcDbBlockEnd
  0
BLOCK
  5
C3
330
C2
100
AcDbEntity
  8
0
100
AcDbBlockBegin
  2
*D12
 70
     1
 10
0.0
 20
0.0
 30
0.0
  3
*D12
  1

  0
LINE
  5
C4
330
C2
100
AcDbEntity
  8
09-01
 62
     4
370
    -2
100
AcDbLine
 10
277.585339793379
 20
227.9332865208915
 30
0.0
 11
263.3171365517692
 21
227.9332865208915
 31
0.0
  0
LINE
  5
C5
330
C2
100
AcDbEntity
  8
09-01
 62
     4
370
    -2
100
AcDbLine
 10
277.5853397933788
 20
107.9332865208919
 30
0.0
 11
263.3171365517691
 21
107.9332865208919
 31
0.0
  0
LINE
  5
C6
330
C2
100
AcDbEntity
  8
09-01
 62
     4
370
    -2
100
AcDbLine
 10
265.3171365517692
 20
222.9332865208915
 30
0.0
 11
265.3171365517691
 21
112.9332865208919
 31
0.0
  0
SOLID
  5
C7
330
C2
100
AcDbEntity
  8
09-01
 62
     4
100
AcDbTrace
 10
264.4838032184359
 20
222.9332865208915
 30
0.0
 11
266.1504698851025
 21
222.9332865208915
 31
0.0
 12
265.3171365517692
 22
227.9332865208915
 32
0.0
 13
265.3171365517692
 23
227.9332865208915
 33
0.0
  0
SOLID
  5
C8
330
C2
100
AcDbEntity
  8
09-01
 62
     4
100
AcDbTrace
 10
264.4838032184358
 20
112.9332865208919
 30
0.0
 11
266.1504698851024
 21
112.9332865208919
 31
0.0
 12
265.3171365517691
 22
107.9332865208919
 32
0.0
 13
265.3171365517691
 23
107.9332865208919
 33
0.0
  0
MTEXT
  5
C9
330
C2
100
AcDbEntity
  8
09-01
 62
     1
100
AcDbMText
 10
260.7642716131607
 20
167.9332865208917
 30
0.0
 40
5.0
 41
0.0
 46
0.0
 71
     5
 72
     1
  1
120
 11
0.0000000000000001
 21
1.0
 31
0.0
 73
     1
 44
1.0
  0
POINT
  5
CA
330
C2
100
AcDbEntity
  8
DEFPOINTS
 62
     0
100
AcDbPoint
 10
279.585339793379
 20
227.9332865208915
 30
0.0
  0
POINT
  5
CB
330
C2
100
AcDbEntity
  8
DEFPOINTS
 62
     0
100
AcDbPoint
 10
279.5853397933788
 20
107.9332865208919
 30
0.0
  0
POINT
  5
CC
330
C2
100
AcDbEntity
  8
DEFPOINTS
 62
     0
100
AcDbPoint
 10
265.3171365517691
 20
107.9332865208919
 30
0.0
  0
ENDBLK
  5
CD
330
C2
100
AcDbEntity
  8
0
100
AcDbBlockEnd
  0
BLOCK
  5
B4
330
B3
100
AcDbEntity
  8
0
100
AcDbBlockBegin
  2
*D13
 70
     1
 10
0.0
 20
0.0
 30
0.0
  3
*D13
  1

  0
LINE
  5
B5
330
B3
100
AcDbEntity
  8
09-01
 62
     4
370
    -2
100
AcDbLine
 10
325.5853397933789
 20
547.6025228044541
 30
0.0
 11
340.9270705944697
 21
547.6025228044541
 31
0.0
  0
LINE
  5
B6
330
B3
100
AcDbEntity
  8
09-01
 62
     4
370
    -2
100
AcDbLine
 10
329.3353397933789
 20
535.6025228044541
 30
0.0
 11
340.9270705944697
 21
535.6025228044541
 31
0.0
  0
LINE
  5
B7
330
B3
100
AcDbEntity
  8
09-01
 62
     4
370
    -2
100
AcDbLine
 10
338.9270705944697
 20
552.6025228044541
 30
0.0
 11
338.9270705944697
 21
557.6025228044541
 31
0.0
  0
LINE
  5
B8
330
B3
100
AcDbEntity
  8
09-01
 62
     4
370
    -2
100
AcDbLine
 10
338.9270705944697
 20
530.6025228044541
 30
0.0
 11
338.9270705944697
 21
525.6025228044541
 31
0.0
  0
LINE
  5
B9
330
B3
100
AcDbEntity
  8
09-01
 62
     4
370
    -2
100
AcDbLine
 10
338.9270705944697
 20
547.6025228044541
 30
0.0
 11
338.9270705944697
 21
535.6025228044541
 31
0.0
  0
SOLID
  5
BA
330
B3
100
AcDbEntity
  8
09-01
 62
     4
100
AcDbTrace
 10
338.0937372611364
 20
552.6025228044541
 30
0.0
 11
339.760403927803
 21
552.6025228044541
 31
0.0
 12
338.9270705944697
 22
547.6025228044541
 32
0.0
 13
338.9270705944697
 23
547.6025228044541
 33
0.0
  0
SOLID
  5
BB
330
B3
100
AcDbEntity
  8
09-01
 62
     4
100
AcDbTrace
 10
338.0937372611364
 20
530.6025228044541
 30
0.0
 11
339.760403927803
 21
530.6025228044541
 31
0.0
 12
338.9270705944697
 22
535.6025228044541
 32
0.0
 13
338.9270705944697
 23
535.6025228044541
 33
0.0
  0
MTEXT
  5
BC
330
B3
100
AcDbEntity
  8
09-01
 62
     1
100
AcDbMText
 10
334.416838670868
 20
541.6025228044542
 30
0.0
 40
5.0
 41
0.0
 46
0.0
 71
     5
 72
     1
  1
12
 11
0.0000000000000001
 21
1.0
 31
0.0
 73
     1
 44
1.0
  0
POINT
  5
BD
330
B3
100
AcDbEntity
  8
DEFPOINTS
 62
     0
100
AcDbPoint
 10
323.5853397933789
 20
547.6025228044541
 30
0.0
  0
POINT
  5
BE
330
B3
100
AcDbEntity
  8
DEFPOINTS
 62
     0
100
AcDbPoint
 10
327.3353397933789
 20
535.6025228044541
 30
0.0
  0
POINT
  5
BF
330
B3
100
AcDbEntity
  8
DEFPOINTS
 62
     0
100
AcDbPoint
 10
338.9270705944697
 20
535.6025228044541
 30
0.0
  0
ENDBLK
  5
C0
330
B3
100
AcDbEntity
  8
0
100
AcDbBlockEnd
  0
BLOCK
  5
A5
330
A4
100
AcDbEntity
  8
0
100
AcDbBlockBegin
  2
*D14
 70
     1
 10
0.0
 20
0.0
 30
0.0
  3
*D14
  1

  0
LINE
  5
A6
330
A4
100
AcDbEntity
  8
09-01
 62
     4
370
    -2
100
AcDbLine
 10
317.5853397933789
 20
549.602522804454
 30
0.0
 11
317.5853397933789
 21
557.6898393325192
 31
0.0
  0
LINE
  5
A7
330
A4
100
AcDbEntity
  8
09-01
 62
     4
370
    -2
100
AcDbLine
 10
322.5853397933789
 20
549.602522804454
 30
0.0
 11
322.5853397933789
 21
557.6898393325192
 31
0.0
  0
LINE
  5
A8
330
A4
100
AcDbEntity
  8
09-01
 62
     4
370
    -2
100
AcDbLine
 10
312.5853397933789
 20
555.6898393325192
 30
0.0
 11
307.5853397933789
 21
555.6898393325192
 31
0.0
  0
LINE
  5
A9
330
A4
100
AcDbEntity
  8
09-01
 62
     4
370
    -2
100
AcDbLine
 10
327.5853397933789
 20
555.6898393325192
 30
0.0
 11
332.5853397933789
 21
555.6898393325192
 31
0.0
  0
LINE
  5
AA
330
A4
100
AcDbEntity
  8
09-01
 62
     4
370
    -2
100
AcDbLine
 10
317.5853397933789
 20
555.6898393325192
 30
0.0
 11
322.5853397933789
 21
555.6898393325192
 31
0.0
  0
SOLID
  5
AB
330
A4
100
AcDbEntity
  8
09-01
 62
     4
100
AcDbTrace
 10
312.5853397933789
 20
556.5231726658526
 30
0.0
 11
312.5853397933789
 21
554.8565059991858
 31
0.0
 12
317.5853397933789
 22
555.6898393325192
 32
0.0
 13
317.5853397933789
 23
555.6898393325192
 33
0.0
  0
SOLID
  5
AC
330
A4
100
AcDbEntity
  8
09-01
 62
     4
100
AcDbTrace
 10
327.5853397933789
 20
556.5231726658526
 30
0.0
 11
327.5853397933789
 21
554.8565059991858
 31
0.0
 12
322.5853397933789
 22
555.6898393325192
 32
0.0
 13
322.5853397933789
 23
555.6898393325192
 33
0.0
  0
MTEXT
  5
AD
330
A4
100
AcDbEntity
  8
09-01
 62
     1
100
AcDbMText
 10
320.0853397933789
 20
560.232472347526
 30
0.0
 40
5.0
 41
0.0
 46
0.0
 71
     5
 72
     1
  1
5
 73
     1
 44
1.0
  0
POINT
  5
AE
330
A4
100
AcDbEntity
  8
DEFPOINTS
 62
     0
100
AcDbPoint
 10
317.5853397933789
 20
547.6025228044541
 30
0.0
  0
POINT
  5
AF
330
A4
100
AcDbEntity
  8
DEFPOINTS
 62
     0
100
AcDbPoint
 10
322.5853397933789
 20
547.6025228044541
 30
0.0
  0
POINT
  5
B0
330
A4
100
AcDbEntity
  8
DEFPOINTS
 62
     0
100
AcDbPoint
 10
322.5853397933789
 20
555.6898393325192
 30
0.0
  0
ENDBLK
  5
B1
330
A4
100
AcDbEntity
  8
0
100
AcDbBlockEnd
  0
BLOCK
  5
94
330
93
100
AcDbEntity
  8
0
100
AcDbBlockBegin
  2
*D15
 70
     1
 10
0.0
 20
0.0
 30
0.0
  3
*D15
  1

  0
LINE
  5
95
330
93
100
AcDbEntity
  8
09-01
 62
     4
370
    -2
100
AcDbLine
 10
313.8353397933789
 20
533.602522804454
 30
0.0
 11
313.8353397933789
 21
516.0787244633126
 31
0.0
  0
LINE
  5
96
330
93
100
AcDbEntity
  8
09-01
 62
     4
370
    -2
100
AcDbLine
 10
326.3353397933789
 20
533.602522804454
 30
0.0
 11
326.3353397933789
 21
516.0787244633126
 31
0.0
  0
LINE
  5
97
330
93
100
AcDbEntity
  8
09-01
 62
     4
370
    -2
100
AcDbLine
 10
308.8353397933789
 20
518.0787244633125
 30
0.0
 11
303.8353397933789
 21
518.0787244633125
 31
0.0
  0
LINE
  5
98
330
93
100
AcDbEntity
  8
09-01
 62
     4
370
    -2
100
AcDbLine
 10
331.3353397933789
 20
518.0787244633125
 30
0.0
 11
336.3353397933789
 21
518.0787244633125
 31
0.0
  0
MTEXT
  5
99
330
93
100
AcDbEntity
  8
09-01
 62
     1
100
AcDbMText
 10
303.1123358710867
 20
522.4046031933458
 30
0.0
 40
5.0
 41
0.0
 46
0.0
 71
     5
 72
     1
  1
12.5
 73
     1
 44
1.0
  0
LINE
  5
9A
330
93
100
AcDbEntity
  8
09-01
 62
     4
370
    -2
100
AcDbLine
 10
313.8353397933789
 20
518.0787244633125
 30
0.0
 11
326.3353397933789
 21
518.0787244633125
 31
0.0
  0
SOLID
  5
9B
330
93
100
AcDbEntity
  8
09-01
 62
     4
100
AcDbTrace
 10
308.8353397933789
 20
518.9120577966459
 30
0.0
 11
308.8353397933789
 21
517.2453911299792
 31
0.0
 12
313.8353397933789
 22
518.0787244633125
 32
0.0
 13
313.8353397933789
 23
518.0787244633125
 33
0.0
  0
SOLID
  5
9C
330
93
100
AcDbEntity
  8
09-01
 62
     4
100
AcDbTrace
 10
331.3353397933789
 20
518.9120577966459
 30
0.0
 11
331.3353397933789
 21
517.2453911299792
 31
0.0
 12
326.3353397933789
 22
518.0787244633125
 32
0.0
 13
326.3353397933789
 23
518.0787244633125
 33
0.0
  0
POINT
  5
9D
330
93
100
AcDbEntity
  8
DEFPOINTS
 62
     0
100
AcDbPoint
 10
313.8353397933789
 20
535.6025228044541
 30
0.0
  0
POINT
  5
9F
330
93
100
AcDbEntity
  8
DEFPOINTS
 62
     0
100
AcDbPoint
 10
326.3353397933789
 20
535.6025228044541
 30
0.0
  0
POINT
  5
A0
330
93
100
AcDbEntity
  8
DEFPOINTS
 62
     0
100
AcDbPoint
 10
326.3353397933789
 20
518.0787244633125
 30
0.0
  0
ENDBLK
  5
A1
330
93
100
AcDbEntity
  8
0
100
AcDbBlockEnd
  0
BLOCK
  5
7C
330
79
100
AcDbEntity
  8
0
100
AcDbBlockBegin
  2
aaaaWagner
 70
     0
 10
0.0
 20
0.0
 30
0.0
  3
aaaaWagner
  1

  0
LWPOLYLINE
  5
7D
330
79
100
AcDbEntity
  8
02TNR-01
100
AcDbPolyline
 90
      133
 70
     1
 43
0.0135
 10
2.64276749999999
 20
8.613321999999925
 10
2.947701000000051
 20
8.879334999999969
 10
2.838868499999989
 20
9.054852999999866
 10
2.714389500000038
 20
9.213374499999986
 10
2.57469600000013
 20
9.35495800000001
 10
2.420237999999926
 20
9.479670999999882
 10
2.25144750000004
 20
9.587562999999931
 10
2.068760999999994
 20
9.678692499999897
 10
1.872623999999973
 20
9.753126999999949
 10
1.663468500000135
 20
9.810915999999906
 10
1.441735500000049
 20
9.852118000000018
 10
1.20786600000008
 20
9.876800499999944
 10
0.9622965000000931
 20
9.885012999999958
 10
0.759108000000083
 20
9.8773584999999
 10
0.5624669999999697
 20
9.854727999999909
 10
0.372792000000004
 20
9.817611999999996
 10
0.1905060000001413
 20
9.766509999999925
 10
0.0160275000000638
 20
9.701921499999969
 10
-0.1502339999999549
 20
9.6243414999999
 10
-0.3078464999999824
 20
9.534264999999891
 10
-0.4564004999999725
 20
9.432186999999885
 10
-0.5954774999999018
 20
9.318602499999997
 10
-0.7246499999999969
 20
9.194015499999977
 10
-0.8435129999999162
 20
9.058911999999963
 10
-0.9516390000000001
 20
8.913800499999979
 10
-1.048609499999884
 20
8.759166999999933
 10
-1.134010499999931
 20
8.595510999999987
 10
-1.207418999999958
 20
8.42332749999997
 10
-1.268420999999875
 20
8.243120499999918
 10
-1.316597999999885
 20
8.05537599999991
 10
-1.351522499999987
 20
7.860597999999868
 10
-1.372789499999953
 20
7.659276999999974
 10
-1.379966999999965
 20
7.451912499999991
 10
-1.372879499999953
 20
7.238396500000021
 10
-1.351855499999942
 20
7.032165999999961
 10
-1.317273
 20
6.833621499999935
 10
-1.269509999999968
 20
6.643158999999855
 10
-1.208939999999984
 20
6.46117449999997
 10
-1.135936499999957
 20
6.288063999999963
 10
-1.050873000000024
 20
6.124218999999925
 10
-0.9541274999999131
 20
5.970039999999926
 10
-0.8460734999999885
 20
5.825918499999943
 10
-0.7270800000000009
 20
5.692254999999931
 10
-0.5975339999999961
 20
5.569440999999983
 10
-0.4577954999999747
 20
5.457876999999882
 10
-0.308251499999983
 20
5.357954499999948
 10
-0.1492709999999988
 20
5.270069499999976
 10
0.0187680000000228
 20
5.194622499999979
 10
0.1954964999999902
 20
5.132004999999992
 10
0.3805320000001302
 20
5.082613000000037
 10
0.5735100000000557
 20
5.046842500000025
 10
0.7740435000000617
 20
5.025089499999921
 10
0.9817679999999882
 20
5.017749999999921
 10
1.188835500000095
 20
5.024382999999943
 10
1.387488000000075
 20
5.044128999999998
 10
1.577487000000019
 20
5.076744999999959
 10
1.758594000000016
 20
5.121987999999987
 10
1.930574999999976
 20
5.179619500000001
 10
2.093186999999943
 20
5.24940099999992
 10
2.246196000000054
 20
5.331089499999961
 10
2.389354500000081
 20
5.424450999999976
 10
2.522437500000023
 20
5.529242499999895
 10
2.645193000000062
 20
5.645216499999946
 10
2.757391500000039
 20
5.772147999999901
 10
2.858794500000044
 20
5.909780499999897
 10
2.949159000000122
 20
6.057888999999931
 10
3.028246500000022
 20
6.21622149999996
 10
3.095823000000109
 20
6.384543999999891
 10
3.151650000000017
 20
6.562613499999883
 10
3.195480000000088
 20
6.750191499999914
 10
3.227088000000094
 20
6.947039499999959
 10
3.246226500000034
 20
7.152918999999883
 10
3.252657000000112
 20
7.367582499999912
 10
3.252657000000112
 20
7.367582499999912
 10
3.252657000000112
 20
7.432458999999994
 10
1.189389000000005
 20
7.432458999999994
 10
1.189389000000005
 20
7.069110999999907
 10
2.79199200000005
 20
7.069110999999907
 10
2.778433500000005
 20
6.863879499999995
 10
2.743922999999995
 20
6.668619999999918
 10
2.689351500000043
 20
6.48416949999995
 10
2.61561000000006
 20
6.311369499999955
 10
2.523598500000048
 20
6.151047999999946
 10
2.414212500000076
 20
6.004055499999935
 10
2.288334000000077
 20
5.871215499999948
 10
2.146867500000098
 20
5.753378499999939
 10
1.99070400000005
 20
5.651367999999933
 10
1.820734500000071
 20
5.566030000000012
 10
1.637854500000003
 20
5.49819699999989
 10
1.442959500000142
 20
5.448710500000004
 10
1.236940500000059
 20
5.418402999999898
 10
1.020693000000051
 20
5.408115999999949
 10
0.8127885000001242
 20
5.418155499999897
 10
0.6129210000000285
 20
5.447679999999877
 10
0.4218375000000379
 20
5.495793999999932
 10
0.2402805000000399
 20
5.561606499999925
 10
0.0689835000000585
 20
5.644221999999899
 10
-0.0913064999998596
 20
5.742744999999956
 10
-0.2398514999999861
 20
5.856288999999947
 10
-0.3759045000000469
 20
5.983954000000039
 10
-0.4987274999999727
 20
6.124848999999926
 10
-0.6075824999999213
 20
6.27808299999998
 10
-0.7017224999999599
 20
6.442755999999917
 10
-0.7804095000000189
 20
6.617981499999928
 10
-0.8429009999998697
 20
6.802863999999885
 10
-0.8884544999999661
 20
6.996503500000017
 10
-0.9163320000000112
 20
7.19801799999999
 10
-0.9257864999999583
 20
7.406507499999861
 10
-0.9177224999998543
 20
7.619100999999943
 10
-0.8938544999999749
 20
7.823661999999899
 10
-0.854686499999957
 20
8.019560499999897
 10
-0.8007179999999607
 20
8.206170999999926
 10
-0.7324439999999868
 20
8.382867999999916
 10
-0.6503685000000133
 20
8.549030499999958
 10
-0.5549909999999727
 20
8.704024000000003
 10
-0.446806499999866
 20
8.847231999999962
 10
-0.3263190000000122
 20
8.978020000000014
 10
-0.194018999999912
 20
9.095766999999909
 10
-0.0504194999998617
 20
9.199842999999987
 10
0.1039935000001151
 20
9.289626999999995
 10
0.2687114999999949
 20
9.364488999999935
 10
0.443239500000118
 20
9.423803499999962
 10
0.6270825000000287
 20
9.466944999999896
 10
0.8197320000000445
 20
9.493292499999938
 10
1.020693000000051
 20
9.50221149999993
 10
1.245067500000004
 20
9.490952499999934
 10
1.45940250000001
 20
9.457319499999925
 10
1.663270500000066
 20
9.401523999999994
 10
1.85624400000006
 20
9.323777499999891
 10
2.037895500000104
 20
9.224300499999912
 10
2.207802000000015
 20
9.10329999999999
 10
2.365536000000133
 20
8.960996499999964
 10
2.510665500000072
 20
8.797596999999939
  0
LWPOLYLINE
  5
80
330
79
100
AcDbEntity
  8
02TNR-01
100
AcDbPolyline
 90
       12
 70
     1
 43
0.0135
 10
-1.117729499999995
 20
0.25
 10
1.260133500000165
 20
0.25
 10
1.443639000000075
 20
1.203113499999972
 10
0.3038295000001199
 20
1.203113499999972
 10
0.3747675000000754
 20
1.571582499999863
 10
1.381917000000157
 20
1.571582499999863
 10
1.555004999999937
 20
2.470641999999884
 10
0.5478555000000825
 20
2.470641999999884
 10
0.6131415000000971
 20
2.809649499999864
 10
1.723471500000073
 20
2.809649499999864
 10
1.906963500000074
 20
3.762744999999995
 10
-0.4414199999999937
 20
3.762744999999995
  0
LWPOLYLINE
  5
81
330
79
100
AcDbEntity
  8
02TNR-01
100
AcDbPolyline
 90
        4
 70
     1
 43
0.0135
 10
-18.58033499999988
 20
1.042440999999939
 10
-2.851485000000025
 20
1.042440999999939
 10
-3.007518000000004
 20
0.2490954999999531
 10
-18.73636349999992
 20
0.2490954999999531
  0
SOLID
  5
82
330
79
100
AcDbEntity
  8
02TNR-01
100
AcDbTrace
 10
-18.58033499999988
 20
1.042440999999939
 30
0.0
 11
-2.851485000000025
 21
1.042440999999939
 31
0.0
 12
-18.73636349999992
 22
0.2490954999999531
 32
0.0
 13
-3.007518000000004
 23
0.2490954999999531
 33
0.0
  0
LWPOLYLINE
  5
83
330
79
100
AcDbEntity
  8
02TNR-01
100
AcDbPolyline
 90
       10
 70
     1
 43
0.0135
 10
-11.77856699999995
 20
5.017749999999921
 10
-10.54581449999989
 20
8.898806499999977
 10
-9.261136499999906
 20
5.017749999999921
 10
-7.710440999999946
 20
9.781211499999926
 10
-8.145149999999944
 20
9.781211499999926
 10
-9.261136499999906
 20
6.108860499999877
 10
-10.54581449999989
 20
9.962876499999879
 10
-11.77856699999995
 20
6.076419999999984
 10
-12.93997200000001
 20
9.781211499999926
 10
-13.38116999999988
 20
9.781211499999926
  0
LWPOLYLINE
  5
84
330
79
100
AcDbEntity
  8
02TNR-01
100
AcDbPolyline
 90
        3
 70
     1
 43
0.0135
 10
-5.492489999999861
 20
7.075595499999963
 10
-4.668476999999938
 20
9.093458499999883
 10
-3.876899999999977
 20
7.075595499999963
  0
LWPOLYLINE
  5
85
330
79
100
AcDbEntity
  8
02TNR-01
100
AcDbPolyline
 90
        7
 70
     1
 43
0.0135
 10
-6.68091749999985
 20
5.142102999999906
 10
-6.251608499999974
 20
5.142102999999906
 10
-5.63523449999991
 20
6.712265499999944
 10
-3.740662499999871
 20
6.712265499999944
 10
-3.150221999999985
 20
5.142102999999906
 10
-2.689556999999922
 20
5.142102999999906
 10
-4.642520999999987
 20
9.962876499999879
  0
LWPOLYLINE
  5
86
330
79
100
AcDbEntity
  8
02TNR-01
100
AcDbPolyline
 90
        8
 70
     1
 43
0.0135
 10
9.602989500000035
 20
0.25
 10
10.95977550000009
 20
0.25
 10
11.15299200000004
 20
0.6921699999999192
 10
12.10610550000001
 20
0.6921699999999192
 10
12.13397400000008
 20
0.25
 10
13.48994549999998
 20
0.25
 10
12.93802049999999
 20
3.762744999999995
 10
11.53292250000004
 20
3.762744999999995
  0
LWPOLYLINE
  5
87
330
79
100
AcDbEntity
  8
02TNR-01
100
AcDbPolyline
 90
       34
 70
     1
 43
0.0135
 10
5.958610500000077
 20
2.028489999999919
 10
6.002832000000012
 20
2.028489999999919
 10
5.984831999999983
 20
1.808313999999995
 10
5.984296500000141
 20
1.616523999999913
 10
5.989471500000036
 20
1.448755000000005
 10
6.023982000000046
 20
0.25
 10
7.124483999999938
 20
0.25
 10
8.827589999999986
 20
3.762744999999995
 10
7.560061500000074
 20
3.762744999999995
 10
6.986964000000057
 20
2.215172499999937
 10
6.923703000000045
 20
2.037768999999912
 10
6.849245999999993
 20
1.807953999999881
 10
6.77498700000001
 20
1.522456000000033
 10
6.745525500000098
 20
1.522456000000033
 10
6.772957500000075
 20
1.771742499999959
 10
6.778713000000038
 20
1.970808999999917
 10
6.777399000000059
 20
2.121842499999956
 10
6.759236999999984
 20
3.762744999999995
 10
5.870010000000092
 20
3.762744999999995
 10
5.220007500000065
 20
2.121842499999956
 10
5.160535500000037
 20
1.970808999999917
 10
5.089633500000104
 20
1.771742499999959
 10
5.021067000000016
 20
1.522456000000033
 10
4.991605499999991
 20
1.522456000000033
 10
5.027281500000071
 20
1.807953999999881
 10
5.041321500000094
 20
2.037768999999912
 10
5.046366000000034
 20
2.215172499999937
 10
5.069185500000003
 20
3.762744999999995
 10
3.800842500000044
 20
3.762744999999995
 10
4.152144000000021
 20
0.25
 10
5.252641499999981
 20
0.25
 10
5.748739500000056
 20
1.448755000000005
 10
5.818530000000009
 20
1.616523999999913
 10
5.891844000000105
 20
1.808313999999995
  0
LWPOLYLINE
  5
88
330
79
100
AcDbEntity
  8
02TNR-01
100
AcDbPolyline
 90
       10
 70
     1
 43
0.0135
 10
11.52503850000005
 20
1.527360999999928
 10
11.7097500000001
 20
1.925309499999912
 10
11.80413300000009
 20
2.132930500000043
 10
11.9064585000001
 20
2.387495499999999
 10
12.00074700000004
 20
2.696654500000022
 10
12.02531700000008
 20
2.696654500000022
 10
12.00054
 20
2.387495499999999
 10
12.00484200000005
 20
2.132930500000043
 10
12.0192780000001
 20
1.925309499999912
 10
12.05072400000006
 20
1.527360999999928
  0
LWPOLYLINE
  5
89
330
79
100
AcDbEntity
  8
02TNR-01
100
AcDbPolyline
 90
       23
 70
     1
 43
0.0135
 10
15.4829145000001
 20
0.25
 10
16.72096350000004
 20
0.25
 10
16.9441905000001
 20
1.409456499999919
 10
17.33508749999998
 20
0.25
 10
18.75
 20
0.25
 10
18.08690700000011
 20
1.679672499999924
 10
18.28812000000016
 20
1.72852899999998
 10
18.47154450000005
 20
1.823235999999951
 10
18.63271650000001
 20
1.959707499999922
 10
18.76716300000009
 20
2.133843999999953
 10
18.87040650000006
 20
2.341550499999925
 10
18.93797400000005
 20
2.578731999999945
 10
18.96510450000016
 20
2.794542999999976
 10
18.9596775
 20
2.99051350000002
 10
18.92170650000003
 20
3.165968499999962
 10
18.85120500000005
 20
3.320228499999871
 10
18.74819550000006
 20
3.452618499999971
 10
18.61269600000003
 20
3.562454499999944
 10
18.44471550000003
 20
3.649065999999947
 10
18.244281
 20
3.711769000000003
 10
18.0113970000001
 20
3.74988849999994
 10
17.74609500000008
 20
3.762744999999995
 10
16.15922399999999
 20
3.762744999999995
  0
LWPOLYLINE
  5
8A
330
79
100
AcDbEntity
  8
02TNR-01
100
AcDbPolyline
 90
        9
 70
     1
 43
0.0135
 10
17.22322650000001
 20
2.85877599999992
 10
17.41975500000012
 20
2.85877599999992
 10
17.61757050000005
 20
2.816376999999931
 10
17.71967549999999
 20
2.696460999999999
 10
17.72598450000009
 20
2.509958499999925
 10
17.64725700000008
 20
2.32599399999998
 10
17.4988065
 20
2.210816499999964
 10
17.28734250000002
 20
2.1709689999999
 10
17.09081400000002
 20
2.1709689999999
  0
LWPOLYLINE
  5
8B
330
79
100
AcDbEntity
  8
02TNR-01
100
AcDbPolyline
 90
       12
 70
     1
 43
0.0135
 10
11.24410800000009
 20
5.142102999999906
 10
13.54094850000001
 20
5.142102999999906
 10
13.54094850000001
 20
5.537891499999943
 10
11.66584800000009
 20
5.537891499999943
 10
11.66584800000009
 20
7.536260500000025
 10
13.54094850000001
 20
7.536260500000025
 10
13.54094850000001
 20
7.932049000000006
 10
11.66584800000009
 20
7.932049000000006
 10
11.66584800000009
 20
9.385422999999946
 10
13.54094850000001
 20
9.385422999999946
 10
13.54094850000001
 20
9.781211499999926
 10
11.24410800000009
 20
9.781211499999926
  0
LWPOLYLINE
  5
8C
330
79
100
AcDbEntity
  8
02TNR-01
100
AcDbPolyline
 90
        8
 70
     1
 43
0.0135
 10
5.275956000000064
 20
5.142102999999906
 10
5.697700499999996
 20
5.142102999999906
 10
5.697700499999996
 20
8.892321999999921
 10
8.954796000000101
 20
5.004762999999968
 10
8.954796000000101
 20
9.781211499999926
 10
8.53306950000001
 20
9.781211499999926
 10
8.53306950000001
 20
6.095873499999925
 10
5.275956000000064
 20
9.975845499999877
  0
LWPOLYLINE
  5
8D
330
79
100
AcDbEntity
  8
02TNR-01
100
AcDbPolyline
 90
       19
 70
     1
 43
0.0135
 10
16.12873200000001
 20
9.411378999999897
 10
16.55045849999999
 20
9.411378999999897
 10
16.80826800000011
 20
9.400875999999925
 10
17.02775099999996
 20
9.367481499999939
 10
17.21013600000015
 20
9.308387499999867
 10
17.35662900000011
 20
9.22078149999993
 10
17.46844950000002
 20
9.101850999999896
 10
17.5468125000001
 20
8.94878349999999
 10
17.59294199999999
 20
8.758757499999887
 10
17.60804850000011
 20
8.528973999999948
 10
17.59214550000013
 20
8.303276499999924
 10
17.54407650000007
 20
8.120009499999923
 10
17.46331950000012
 20
7.975366000000008
 10
17.34933000000001
 20
7.865547999999989
 10
17.20158600000002
 20
7.786752999999976
 10
17.01954750000004
 20
7.735173999999915
 10
16.80267900000001
 20
7.707017500000006
 10
16.55045849999999
 20
7.698476499999969
 10
16.12873200000001
 20
7.698476499999969
  0
LWPOLYLINE
  5
8E
330
79
100
AcDbEntity
  8
02TNR-01
100
AcDbPolyline
 90
       29
 70
     1
 43
0.0135
 10
18.52289400000006
 20
5.142102999999906
 10
16.85541450000005
 20
7.354595499999959
 10
17.09331600000007
 20
7.370502999999985
 10
17.30862750000006
 20
7.417433499999901
 10
17.49991350000005
 20
7.494212500000003
 10
17.66572500000006
 20
7.599674499999991
 10
17.80462199999999
 20
7.732631499999911
 10
17.91516000000001
 20
7.891922499999964
 10
17.99590350000005
 20
8.076364000000012
 10
18.04540800000006
 20
8.284781500000008
 10
18.062229
 20
8.51600499999995
 10
18.04983600000014
 20
8.737044999999966
 10
18.01264350000008
 20
8.936619999999891
 10
17.95061550000002
 20
9.114815499999963
 10
17.86372950000009
 20
9.271716999999853
 10
17.75195399999995
 20
9.407414499999958
 10
17.6152575000001
 20
9.521997999999939
 10
17.45361300000002
 20
9.615548499999931
 10
17.26698900000008
 20
9.688155999999935
 10
17.05535850000001
 20
9.739914999999996
 10
16.81869449999999
 20
9.770901999999978
 10
16.55696100000011
 20
9.781211499999926
 10
16.55696100000011
 20
9.781211499999926
 10
15.70699200000001
 20
9.781211499999926
 10
15.70699200000001
 20
5.142102999999906
 10
16.12873200000001
 20
5.142102999999906
 10
16.12873200000001
 20
7.354595499999959
 10
16.3817805000001
 20
7.354595499999959
 10
18.0103170000001
 20
5.142102999999906
  0
LWPOLYLINE
  5
8F
330
79
100
AcDbEntity
  8
02TNR-01
  6
VERDECKT
100
AcDbPolyline
 90
        4
 70
     1
 43
0.0
 10
-19.0
 20
0.0
 10
19.0
 20
0.0
 10
19.0
 20
10.0
 10
-19.0
 20
10.0
  0
ENDBLK
  5
91
330
79
100
AcDbEntity
  8
0
100
AcDbBlockEnd
  0
ENDSEC
  0
SECTION
  2
ENTITIES
  0
INSERT
  5
78
330
2
100
AcDbEntity
  8
09-01
100
AcDbBlockReference
  2
aaaaWagner
 10
319.9941820562293
 20
502.0024468339782
 30
0.0
  0
DIMENSION
  5
92
330
2
100
AcDbEntity
  8
09-01
100
AcDbDimension
280
     0
  2
*D15
 10
326.3353397933789
 20
518.0787244633125
 30
0.0
 11
303.1123358710867
 21
522.4046031933458
 31
0.0
 70
   128
 71
     5
 42
12.5
 73
     0
 74
     0
 75
     0
  3
Wagner$0
100
AcDbAlignedDimension
 13
313.8353397933789
 23
535.6025228044541
 33
0.0
 14
326.3353397933789
 24
535.6025228044541
 34
0.0
100
AcDbRotatedDimension
1001
ACAD
1000
DSTYLE
1002
{
1070
    40
1040
2.0
1002
}
  0
DIMENSION
  5
A3
330
2
100
AcDbEntity
  8
09-01
100
AcDbDimension
280
     0
  2
*D14
 10
322.5853397933789
 20
555.6898393325192
 30
0.0
 11
320.0853397933789
 21
560.232472347526
 31
0.0
 71
     5
 42
5.0
 73
     0
 74
     0
 75
     0
  3
Wagner$0
100
AcDbAlignedDimension
 13
317.5853397933789
 23
547.6025228044541
 33
0.0
 14
322.5853397933789
 24
547.6025228044541
 34
0.0
100
AcDbRotatedDimension
1001
ACAD
1000
DSTYLE
1002
{
1070
    40
1040
2.0
1002
}
  0
DIMENSION
  5
B2
330
2
100
AcDbEntity
  8
09-01
100
AcDbDimension
280
     0
  2
*D13
 10
338.9270705944697
 20
535.6025228044541
 30
0.0
 11
334.416838670868
 21
541.6025228044542
 31
0.0
 71
     5
 42
12.0
 73
     0
 74
     0
 75
     0
  3
Wagner$0
100
AcDbAlignedDimension
 13
323.5853397933789
 23
547.6025228044541
 33
0.0
 14
327.3353397933789
 24
535.6025228044541
 34
0.0
 50
90.0
100
AcDbRotatedDimension
1001
ACAD
1000
DSTYLE
1002
{
1070
    40
1040
2.0
1002
}
  0
DIMENSION
  5
C1
330
2
100
AcDbEntity
  8
09-01
100
AcDbDimension
280
     0
  2
*D12
 10
265.3171365517691
 20
107.9332865208919
 30
0.0
 11
260.7642716131607
 21
167.9332865208917
 31
0.0
 71
     5
 42
119.9999999999996
 73
     0
 74
     0
 75
     0
  3
Wagner$0
100
AcDbAlignedDimension
 13
279.585339793379
 23
227.9332865208915
 33
0.0
 14
279.5853397933788
 24
107.9332865208919
 34
0.0
 50
90.0
100
AcDbRotatedDimension
1001
ACAD
1000
DSTYLE
1002
{
1070
    40
1040
2.0
1002
}
  0
DIMENSION
  5
CE
330
2
100
AcDbEntity
  8
09-01
100
AcDbDimension
280
     0
  2
*D11
 10
260.9175401363564
 20
246.2430530683886
 30
0.0
 11
256.3629698771476
 21
406.922787936397
 31
0.0
 71
     5
 42
321.3594697360168
 73
     0
 74
     0
 75
     0
  3
Wagner$0
100
AcDbAlignedDimension
 13
280.0853397933789
 23
567.6025228044053
 33
0.0
 14
305.0217486776142
 24
246.2430530683886
 34
0.0
 50
90.0
100
AcDbRotatedDimension
1001
ACAD
1000
DSTYLE
1002
{
1070
    40
1040
2.0
1002
}
  0
DIMENSION
  5
DB
330
2
100
AcDbEntity
  8
09-01
100
AcDbDimension
280
     0
  2
*D10
 10
270.9375133837066
 20
269.0618009245744
 30
0.0
 11
266.3829431244978
 21
286.8321618645141
 31
0.0
 71
     5
 42
35.54072187987924
 73
     0
 74
     0
 75
     0
  3
Wagner$0
100
AcDbAlignedDimension
 13
316.5853397933789
 23
304.6025228044537
 33
0.0
 14
280.0853397933789
 24
269.0618009245744
 34
0.0
 50
90.0
100
AcDbRotatedDimension
1001
ACAD
1000
DSTYLE
1002
{
1070
    40
1040
2.0
1002
}
  0
ARC
  5
E8
330
2
100
AcDbEntity
  8
03-01
100
AcDbCircle
 10
320.0853397933789
 20
292.6025228044537
 30
0.0
 40
6.25
100
AcDbArc
 50
113.5781784782075
 51
66.42182152179249
  0
LINE
  5
EC
330
2
100
AcDbEntity
  8
05-01
100
AcDbLine
 10
312.8353397933789
 20
292.6025228044537
 30
0.0
 11
327.3353397933789
 21
292.6025228044537
 31
0.0
  0
LINE
  5
F1
330
2
100
AcDbEntity
  8
05-01
100
AcDbLine
 10
316.5853397933789
 20
304.6025228044537
 30
0.0
 11
323.5853397933789
 21
304.6025228044537
 31
0.0
  0
LINE
  5
F2
330
2
100
AcDbEntity
  8
03-01
100
AcDbLine
 10
317.5853397933789
 20
304.6025228044537
 30
0.0
 11
317.5853397933789
 21
298.3307424231487
 31
0.0
  0
ARC
  5
F3
330
2
100
AcDbEntity
  8
03-01
100
AcDbCircle
 10
320.0853397933789
 20
304.6025228044537
 30
0.0
 40
2.5
100
AcDbArc
 50
0.0
 51
180.0
  0
LINE
  5
F4
330
2
100
AcDbEntity
  8
03-01
100
AcDbLine
 10
322.5853397933789
 20
298.3307424231484
 30
0.0
 11
322.5853397933789
 21
304.6025228044537
 31
0.0
  0
LINE
  5
F5
330
2
100
AcDbEntity
  8
05-01
100
AcDbLine
 10
320.0853397933789
 20
308.1025228044536
 30
0.0
 11
320.0853397933789
 21
285.3525228044536
 31
0.0
  0
CIRCLE
  5
F6
330
2
100
AcDbEntity
  8
03-01
100
AcDbCircle
 10
320.0853397933789
 20
495.602522804454
 30
0.0
 40
3.25
  0
LINE
  5
F7
330
2
100
AcDbEntity
  8
05-01
100
AcDbLine
 10
320.0853397933789
 20
499.8525228044541
 30
0.0
 11
320.0853397933789
 21
491.3525228044541
 31
0.0
  0
LINE
  5
F8
330
2
100
AcDbEntity
  8
05-01
100
AcDbLine
 10
315.8353397933789
 20
495.602522804454
 30
0.0
 11
324.3353397933789
 21
495.602522804454
 31
0.0
  0
ARC
  5
F9
330
2
100
AcDbEntity
  8
03-01
100
AcDbCircle
 10
320.0853397933789
 20
535.6025228044541
 30
0.0
 40
6.25
100
AcDbArc
 50
113.5781784782075
 51
66.42182152179249
  0
LINE
  5
FA
330
2
100
AcDbEntity
  8
05-01
100
AcDbLine
 10
312.8353397933789
 20
535.6025228044541
 30
0.0
 11
327.3353397933789
 21
535.6025228044541
 31
0.0
  0
LINE
  5
FB
330
2
100
AcDbEntity
  8
05-01
100
AcDbLine
 10
316.5853397933789
 20
547.6025228044541
 30
0.0
 11
323.5853397933789
 21
547.6025228044541
 31
0.0
  0
LINE
  5
FC
330
2
100
AcDbEntity
  8
03-01
100
AcDbLine
 10
317.5853397933789
 20
547.6025228044541
 30
0.0
 11
317.5853397933789
 21
541.3307424231491
 31
0.0
  0
ARC
  5
FD
330
2
100
AcDbEntity
  8
03-01
100
AcDbCircle
 10
320.0853397933789
 20
547.6025228044541
 30
0.0
 40
2.5
100
AcDbArc
 50
0.0
 51
180.0
  0
LINE
  5
FE
330
2
100
AcDbEntity
  8
03-01
100
AcDbLine
 10
322.5853397933789
 20
541.3307424231488
 30
0.0
 11
322.5853397933789
 21
547.6025228044541
 31
0.0
  0
LINE
  5
FF
330
2
100
AcDbEntity
  8
05-01
100
AcDbLine
 10
320.0853397933789
 20
551.1025228044541
 30
0.0
 11
320.0853397933789
 21
528.3525228044541
 31
0.0
  0
DIMENSION
  5
100
330
2
100
AcDbEntity
  8
09-01
100
AcDbDimension
280
     0
  2
*D9
 10
270.9375133837066
 20
304.6025228044537
 30
0.0
 11
266.3829431244978
 21
426.1025228044539
 31
0.0
 71
     5
 42
243.0000000000005
 73
     0
 74
     0
 75
     0
  3
Wagner$0
100
AcDbAlignedDimension
 13
317.5853397933789
 23
547.6025228044541
 33
0.0
 14
316.5853397933789
 24
304.6025228044537
 34
0.0
 50
90.0
100
AcDbRotatedDimension
1001
ACAD
1000
DSTYLE
1002
{
1070
    40
1040
2.0
1002
}
  0
DIMENSION
  5
10D
330
2
100
AcDbEntity
  8
09-01
100
AcDbDimension
280
     0
  2
*D8
 10
270.9375133837067
 20
547.6025228044541
 30
0.0
 11
266.3846484450981
 21
557.6025228044297
 31
0.0
 71
     5
 42
19.99999999995123
 73
     0
 74
     0
 75
     0
  3
Wagner$0
100
AcDbAlignedDimension
 13
280.0853397933789
 23
567.6025228044053
 33
0.0
 14
316.5853397933789
 24
547.6025228044541
 34
0.0
 50
90.0
100
AcDbRotatedDimension
1001
ACAD
1000
DSTYLE
1002
{
1070
    40
1040
2.0
1002
}
  0
LINE
  5
11A
330
2
100
AcDbEntity
  8
05-01
100
AcDbLine
 10
320.0853397933789
 20
305.102522804405
 30
0.0
 11
320.0853397933789
 21
298.102522804405
 31
0.0
  0
LINE
  5
11B
330
2
100
AcDbEntity
  8
03-01
100
AcDbLine
 10
170.4682416692064
 20
337.1025175568178
 30
0.0
 11
180.4682416692067
 21
337.1025175568178
 31
0.0
  0
LINE
  5
11C
330
2
100
AcDbEntity
  8
03-01
100
AcDbLine
 10
110.4682416692067
 20
339.1025175568178
 30
0.0
 11
170.4682416692064
 21
339.1025175568178
 31
0.0
  0
LINE
  5
11D
330
2
100
AcDbEntity
  8
03-01
100
AcDbLine
 10
110.4682416692067
 20
341.1025175568178
 30
0.0
 11
170.4682416692064
 21
341.1025175568178
 31
0.0
  0
LINE
  5
11E
330
2
100
AcDbEntity
  8
03-01
100
AcDbLine
 10
110.4682416692067
 20
289.1025175568178
 30
0.0
 11
110.4682416692067
 21
341.1025175568178
 31
0.0
  0
LINE
  5
11F
330
2
100
AcDbEntity
  8
03-01
100
AcDbLine
 10
180.4682416692067
 20
289.1025175568178
 30
0.0
 11
110.4682416692067
 21
289.1025175568178
 31
0.0
  0
LINE
  5
120
330
2
100
AcDbEntity
  8
03-01
100
AcDbLine
 10
171.021004357638
 20
288.5784032125465
 30
0.0
 11
170.9847987251482
 21
289.1025175568178
 31
0.0
  0
ARC
  5
121
330
2
100
AcDbEntity
  8
03-01
100
AcDbCircle
 10
170.7399020357016
 20
292.6476529122988
 30
0.0
 40
9.99999999999342
100
AcDbArc
 50
339.2363669496863
 51
346.6143681387016
  0
ARC
  5
122
330
2
100
AcDbEntity
  8
03-01
100
AcDbCircle
 10
171.4224607063613
 20
292.5913328554546
 30
0.0
 40
9.3235168706339
100
AcDbArc
 50
345.9800071156162
 51
4.586055247683124
  0
LINE
  5
123
330
2
100
AcDbEntity
  8
03-01
100
AcDbLine
 10
180.4682416692067
 20
296.9252075875193
 30
0.0
 11
180.7161271060599
 21
293.3368069919016
 31
0.0
  0
LINE
  5
124
330
2
100
AcDbEntity
  8
03-01
100
AcDbLine
 10
161.5324373127969
 20
274.5733769408811
 30
0.0
 11
164.7625478935831
 21
277.602295045433
 31
0.0
  0
ARC
  5
125
330
2
100
AcDbEntity
  8
03-01
100
AcDbCircle
 10
168.3726772092539
 20
267.2787818075704
 30
0.0
 40
10.0
100
AcDbArc
 50
133.1588977295679
 51
195.0218968025371
  0
LINE
  5
126
330
2
100
AcDbEntity
  8
0
100
AcDbLine
 10
167.1243667843844
 20
273.7940989794725
 30
0.0
 11
165.0305585378494
 21
271.4793740629794
 31
0.0
  0
LINE
  5
127
330
2
100
AcDbEntity
  8
03-01
100
AcDbLine
 10
177.5801419321521
 20
285.3530577789899
 30
0.0
 11
167.1243667843844
 21
273.7940989794725
 31
0.0
  0
ARC
  5
128
330
2
100
AcDbEntity
  8
0
100
AcDbCircle
 10
170.9634398235446
 20
266.1127252343482
 30
0.0
 40
8.0
100
AcDbArc
 50
137.8687577787709
 51
195.0218968025371
  0
ARC
  5
129
330
2
100
AcDbEntity
  8
0
100
AcDbCircle
 10
164.2271029143062
 20
252.2468727964436
 30
0.0
 40
2.900000000000142
100
AcDbArc
 50
331.4190778298263
 51
58.62471577523518
  0
LINE
  5
12A
330
2
100
AcDbEntity
  8
0
100
AcDbLine
 10
165.3604382998458
 20
248.4094842438099
 30
0.0
 11
166.7737156342859
 21
250.8595142795355
 31
0.0
  0
LINE
  5
12B
330
2
100
AcDbEntity
  8
0
100
AcDbLine
 10
163.2368250832128
 20
264.0392198317778
 30
0.0
 11
165.7369629330007
 21
254.7228216497014
 31
0.0
  0
ARC
  5
12C
330
2
100
AcDbEntity
  8
0
100
AcDbCircle
 10
161.1364570181733
 20
251.4174706354154
 30
0.0
 40
2.900000000000142
100
AcDbArc
 50
331.4190778298263
 51
58.62471577523518
  0
LINE
  5
12D
330
2
100
AcDbEntity
  8
0
100
AcDbLine
 10
162.2697924037129
 20
247.5800820827817
 30
0.0
 11
163.6830697381533
 21
250.0301121185072
 31
0.0
  0
LINE
  5
12E
330
2
100
AcDbEntity
  8
0
100
AcDbLine
 10
159.3723118760886
 20
246.8025175568178
 30
0.0
 11
165.3604382998458
 21
248.4094842438099
 31
0.0
  0
ARC
  5
12F
330
2
100
AcDbEntity
  8
0
100
AcDbCircle
 10
164.5093698390878
 20
266.2420291062852
 30
0.0
 40
10.0
100
AcDbArc
 50
133.1588977295679
 51
195.0218968025371
  0
ARC
  5
130
330
2
100
AcDbEntity
  8
0
100
AcDbCircle
 10
167.8727939274117
 20
265.28332307332
 30
0.0
 40
8.0
100
AcDbArc
 50
133.1588977295679
 51
195.0218968025371
  0
LINE
  5
131
330
2
100
AcDbEntity
  8
0
100
AcDbLine
 10
160.1461791870802
 20
263.2098176707497
 30
0.0
 11
162.6463170368679
 21
253.8934194886732
 31
0.0
  0
LINE
  5
132
330
2
100
AcDbEntity
  8
03-01
100
AcDbLine
 10
158.7144087838392
 20
264.6869000543574
 30
0.0
 11
163.2356192462544
 21
247.839270258103
 31
0.0
  0
LINE
  5
133
330
2
100
AcDbEntity
  8
0
100
AcDbLine
 10
154.8511014136734
 20
263.6501473530722
 30
0.0
 11
159.3723118760886
 21
246.8025175568178
 31
0.0
  0
LINE
  5
134
330
2
100
AcDbEntity
  8
03-01
100
AcDbLine
 10
165.5387779258795
 20
274.0617089133973
 30
0.0
 11
177.5801419321521
 21
285.3530577789899
 31
0.0
  0
LINE
  5
135
330
2
100
AcDbEntity
  8
0
100
AcDbLine
 10
162.4006020102463
 20
271.1189991799686
 30
0.0
 11
165.5387779258795
 21
274.0617089133973
 31
0.0
  0
ARC
  5
136
330
2
100
AcDbEntity
  8
03-01
100
AcDbCircle
 10
169.7984999930472
 20
291.7648875643897
 30
0.0
 40
5.0
100
AcDbArc
 50
313.1588977295679
 51
3.951694224596565
  0
LINE
  5
137
330
2
100
AcDbEntity
  8
03-01
100
AcDbLine
 10
169.453011770684
 20
284.5865286060907
 30
0.0
 11
173.2186199412756
 21
288.1175899977343
 31
0.0
  0
LINE
  5
138
330
2
100
AcDbEntity
  8
03-01
100
AcDbLine
 10
159.3440620430528
 20
275.1072305813849
 30
0.0
 11
169.453011770684
 21
284.5865286060907
 31
0.0
  0
LINE
  5
139
330
2
100
AcDbEntity
  8
0
100
AcDbLine
 10
157.6691299426311
 20
273.5366242395959
 30
0.0
 11
159.3440620430528
 21
275.1072305813849
 31
0.0
  0
LINE
  5
13A
330
2
100
AcDbEntity
  8
0
100
AcDbLine
 10
164.5670504933138
 20
274.2257135433662
 30
0.0
 11
157.9138630010993
 21
273.7661137177536
 31
0.0
  0
LINE
  5
13B
330
2
100
AcDbEntity
  8
03-01
100
AcDbLine
 10
165.8048638374857
 20
274.3112212489266
 30
0.0
 11
164.7247642514028
 21
274.2366083536808
 31
0.0
  0
LINE
  5
13C
330
2
100
AcDbEntity
  8
03-01
100
AcDbLine
 10
170.2197793102105
 20
300.1769725916532
 30
0.0
 11
170.1725148362675
 21
330.0139926517983
 31
0.0
  0
ARC
  5
13D
330
2
100
AcDbEntity
  8
03-01
100
AcDbCircle
 10
174.1725098176055
 20
330.0203289969892
 30
0.0
 40
4.0
100
AcDbArc
 50
3.951694224596565
 51
180.0907614972026
  0
LINE
  5
13E
330
2
100
AcDbEntity
  8
05-01
100
AcDbLine
 10
173.9056713559803
 20
333.8830944211488
 30
0.0
 11
174.4393482792306
 21
326.1575635728294
 31
0.0
  0
LINE
  5
13F
330
2
100
AcDbEntity
  8
05-01
100
AcDbLine
 10
178.0352752417652
 20
330.2871674586143
 30
0.0
 11
170.3097443934457
 21
329.7534905353641
 31
0.0
  0
LINE
  5
140
330
2
100
AcDbEntity
  8
05-01
100
AcDbLine
 10
174.9410533837676
 20
304.3843150556134
 30
0.0
 11
175.474730307018
 21
296.658784207294
 31
0.0
  0
LINE
  5
141
330
2
100
AcDbEntity
  8
05-01
100
AcDbLine
 10
179.0706572695524
 20
300.7883880930789
 30
0.0
 11
171.3451264212331
 21
300.2547111698287
 31
0.0
  0
LINE
  5
142
330
2
100
AcDbEntity
  8
03-01
100
AcDbLine
 10
179.9341258303266
 20
304.6570921979929
 30
0.0
 11
173.9483907881078
 21
304.2435997502322
 31
0.0
  0
LINE
  5
143
330
2
100
AcDbEntity
  8
03-01
100
AcDbLine
 10
179.9341258303266
 20
304.6570921979929
 30
0.0
 11
173.9483907881078
 21
304.2435997502322
 31
0.0
  0
LINE
  5
144
330
2
100
AcDbEntity
  8
03-01
100
AcDbLine
 10
174.7866125282296
 20
292.1094646041902
 30
0.0
 11
173.9483907881078
 21
304.2435997502322
 31
0.0
  0
ARC
  5
145
330
2
100
AcDbEntity
  8
03-01
100
AcDbCircle
 10
166.0328918224559
 20
288.233826172746
 30
0.0
 40
5.0
100
AcDbArc
 50
313.1588977295679
 51
3.951694224596565
  0
LINE
  5
146
330
2
100
AcDbEntity
  8
03-01
100
AcDbLine
 10
170.9847987251482
 20
289.1025175568178
 30
0.0
 11
170.2197793102105
 21
300.1769725916532
 31
0.0
  0
ARC
  5
147
330
2
100
AcDbEntity
  8
03-01
100
AcDbCircle
 10
170.7399020356954
 20
292.6476529123006
 30
0.0
 40
10.0
100
AcDbArc
 50
313.1588977295679
 51
339.2363669496995
  0
LINE
  5
148
330
2
100
AcDbEntity
  8
03-01
100
AcDbLine
 10
165.7811743772552
 20
281.1433973324795
 30
0.0
 11
164.7625478935829
 21
277.6022950454328
 31
0.0
  0
LINE
  5
149
330
2
100
AcDbEntity
  8
03-01
100
AcDbLine
 10
178.1629998457513
 20
330.2959906288297
 30
0.0
 11
180.4682416692067
 21
296.9252075875193
 31
0.0
  0
CIRCLE
  5
14A
330
2
100
AcDbEntity
  8
03-01
100
AcDbCircle
 10
174.1725098176055
 20
330.0203289969892
 30
0.0
 40
1.900000000000028
  0
CIRCLE
  5
14B
330
2
100
AcDbEntity
  8
03-01
100
AcDbCircle
 10
175.2078918453928
 20
300.5215496314538
 30
0.0
 40
2.399999999999999
  0
LINE
  5
14C
330
2
100
AcDbEntity
  8
03-01
100
AcDbLine
 10
173.4643047643277
 20
335.1025175568178
 30
0.0
 11
173.3679994911663
 21
289.1025175568178
 31
0.0
  0
LINE
  5
14D
330
2
100
AcDbEntity
  8
03-01
100
AcDbLine
 10
175.8932416692065
 20
335.1025175568178
 30
0.0
 11
176.4682416692064
 21
289.1025175568178
 31
0.0
  0
LINE
  5
14E
330
2
100
AcDbEntity
  8
03-01
100
AcDbLine
 10
137.8682416692065
 20
355.1025175568178
 30
0.0
 11
137.8682416692065
 21
345.6025175568178
 31
0.0
  0
LINE
  5
14F
330
2
100
AcDbEntity
  8
03-01
100
AcDbLine
 10
152.8682416692065
 20
349.6025175568178
 30
0.0
 11
137.8682416692065
 21
355.1025175568178
 31
0.0
  0
LINE
  5
150
330
2
100
AcDbEntity
  8
03-01
100
AcDbLine
 10
152.8682416692065
 20
345.6025175568178
 30
0.0
 11
152.8682416692065
 21
349.6025175568178
 31
0.0
  0
LINE
  5
151
330
2
100
AcDbEntity
  8
03-01
100
AcDbLine
 10
159.2682416692066
 20
341.1025175568178
 30
0.0
 11
159.2682416692066
 21
345.6025175568178
 31
0.0
  0
LINE
  5
152
330
2
100
AcDbEntity
  8
03-01
100
AcDbLine
 10
131.4682416692067
 20
341.1025175568178
 30
0.0
 11
131.4682416692067
 21
345.6025175568178
 31
0.0
  0
LINE
  5
153
330
2
100
AcDbEntity
  8
03-01
100
AcDbLine
 10
125.9682416692067
 20
284.1025175568178
 30
0.0
 11
127.1682416692065
 21
289.1025175568178
 31
0.0
  0
LINE
  5
154
330
2
100
AcDbEntity
  8
03-01
100
AcDbLine
 10
122.4682416692067
 20
284.1025175568178
 30
0.0
 11
125.9682416692067
 21
284.1025175568178
 31
0.0
  0
LINE
  5
155
330
2
100
AcDbEntity
  8
03-01
100
AcDbLine
 10
121.0682416692066
 20
289.1025175568178
 30
0.0
 11
122.4682416692067
 21
284.1025175568178
 31
0.0
  0
LINE
  5
156
330
2
100
AcDbEntity
  8
03-01
100
AcDbLine
 10
170.4682416692067
 20
341.1025175568178
 30
0.0
 11
170.4682416692064
 21
337.1025175568178
 31
0.0
  0
LINE
  5
157
330
2
100
AcDbEntity
  8
03-01
100
AcDbLine
 10
180.4682416692065
 20
337.1025175568178
 30
0.0
 11
180.4682416692067
 21
289.1025175568178
 31
0.0
  0
LINE
  5
158
330
2
100
AcDbEntity
  8
03-01
100
AcDbLine
 10
173.4643047643277
 20
335.1025175568178
 30
0.0
 11
175.8932416692065
 21
335.1025175568178
 31
0.0
  0
LINE
  5
159
330
2
100
AcDbEntity
  8
03-01
100
AcDbLine
 10
333.8353397933783
 20
344.7525506812691
 30
0.0
 11
306.3353397933783
 21
344.7525506812691
 31
0.0
  0
LINE
  5
15A
330
2
100
AcDbEntity
  8
03-01
100
AcDbLine
 10
306.3353397933783
 20
341.7525506812691
 30
0.0
 11
333.8353397933783
 21
341.7525506812691
 31
0.0
  0
LINE
  5
15B
330
2
100
AcDbEntity
  8
03-01
100
AcDbLine
 10
332.485339793378
 20
285.1998141573992
 30
0.0
 11
332.485339793378
 21
289.2525506812691
 31
0.0
  0
LINE
  5
15C
330
2
100
AcDbEntity
  8
03-01
100
AcDbLine
 10
307.485339793378
 20
289.2525506812691
 30
0.0
 11
307.485339793378
 21
285.1578322199632
 31
0.0
  0
LINE
  5
15D
330
2
100
AcDbEntity
  8
03-01
100
AcDbLine
 10
350.0853397933783
 20
289.2525506812691
 30
0.0
 11
330.0853397933784
 21
289.2525506812691
 31
0.0
  0
LINE
  5
15E
330
2
100
AcDbEntity
  8
03-01
100
AcDbLine
 10
330.0853397933784
 20
339.2525506812691
 30
0.0
 11
350.0853397933783
 21
339.2525506812691
 31
0.0
  0
LINE
  5
15F
330
2
100
AcDbEntity
  8
03-01
100
AcDbLine
 10
350.0853397933783
 20
339.2525506812691
 30
0.0
 11
350.0853397933783
 21
289.2525506812691
 31
0.0
  0
LINE
  5
160
330
2
100
AcDbEntity
  8
03-01
100
AcDbLine
 10
310.0853397933784
 20
289.2525506812691
 30
0.0
 11
330.0853397933784
 21
289.2525506812691
 31
0.0
  0
LINE
  5
161
330
2
100
AcDbEntity
  8
03-01
100
AcDbLine
 10
310.0853397933784
 20
339.2525506812691
 30
0.0
 11
330.0853397933784
 21
339.2525506812691
 31
0.0
  0
LINE
  5
162
330
2
100
AcDbEntity
  8
03-01
100
AcDbLine
 10
310.0853397933784
 20
289.2525506812691
 30
0.0
 11
290.0853397933783
 21
289.2525506812691
 31
0.0
  0
LINE
  5
163
330
2
100
AcDbEntity
  8
03-01
100
AcDbLine
 10
290.0853397933783
 20
339.2525506812691
 30
0.0
 11
310.0853397933784
 21
339.2525506812691
 31
0.0
  0
LINE
  5
164
330
2
100
AcDbEntity
  8
03-01
100
AcDbLine
 10
290.0853397933783
 20
289.2525506812691
 30
0.0
 11
290.0853397933783
 21
339.2525506812691
 31
0.0
  0
ELLIPSE
  5
165
330
2
100
AcDbEntity
  8
03-01
100
AcDbEllipse
 10
320.0853397933784
 20
351.7525506812691
 30
0.0
 11
7.49999999999997
 21
0.0
 31
0.0
210
0.0
220
0.0
230
1.0
 40
0.3333333333333346
 41
0.0
 42
3.141592653589845
  0
LINE
  5
166
330
2
100
AcDbEntity
  8
03-01
100
AcDbLine
 10
306.8353397933784
 20
345.2525506812691
 30
0.0
 11
333.3353397933783
 21
345.2525506812691
 31
0.0
  0
LINE
  5
167
330
2
100
AcDbEntity
  8
03-01
100
AcDbLine
 10
330.0853397933784
 20
339.2525506812691
 30
0.0
 11
350.0853397933783
 21
339.2525506812691
 31
0.0
  0
LINE
  5
168
330
2
100
AcDbEntity
  8
03-01
100
AcDbLine
 10
330.0853397933784
 20
341.2525506812691
 30
0.0
 11
350.0853397933783
 21
341.2525506812691
 31
0.0
  0
LINE
  5
169
330
2
100
AcDbEntity
  8
03-01
100
AcDbLine
 10
350.0853397933783
 20
341.2525506812691
 30
0.0
 11
350.0853397933783
 21
339.2525506812691
 31
0.0
  0
LINE
  5
16A
330
2
100
AcDbEntity
  8
03-01
100
AcDbLine
 10
310.0853397933784
 20
339.2525506812691
 30
0.0
 11
330.0853397933784
 21
339.2525506812691
 31
0.0
  0
LINE
  5
16B
330
2
100
AcDbEntity
  8
03-01
100
AcDbLine
 10
310.0853397933784
 20
341.2525506812691
 30
0.0
 11
330.0853397933784
 21
341.2525506812691
 31
0.0
  0
LINE
  5
16C
330
2
100
AcDbEntity
  8
03-01
100
AcDbLine
 10
330.0853397933784
 20
341.2525506812691
 30
0.0
 11
330.0853397933784
 21
339.2525506812691
 31
0.0
  0
LINE
  5
16D
330
2
100
AcDbEntity
  8
03-01
100
AcDbLine
 10
290.0853397933783
 20
339.2525506812691
 30
0.0
 11
310.0853397933784
 21
339.2525506812691
 31
0.0
  0
LINE
  5
16E
330
2
100
AcDbEntity
  8
03-01
100
AcDbLine
 10
310.0853397933784
 20
341.2525506812691
 30
0.0
 11
310.0853397933784
 21
339.2525506812691
 31
0.0
  0
LINE
  5
16F
330
2
100
AcDbEntity
  8
03-01
100
AcDbLine
 10
290.0853397933783
 20
341.2525506812691
 30
0.0
 11
310.0853397933784
 21
341.2525506812691
 31
0.0
  0
LINE
  5
170
330
2
100
AcDbEntity
  8
03-01
100
AcDbLine
 10
290.0853397933783
 20
341.2525506812691
 30
0.0
 11
290.0853397933783
 21
339.2525506812691
 31
0.0
  0
LINE
  5
171
330
2
100
AcDbEntity
  8
03-01
100
AcDbLine
 10
332.985339793378
 20
289.2525506812691
 30
0.0
 11
332.985339793378
 21
285.0948593138105
 31
0.0
  0
LINE
  5
172
330
2
100
AcDbEntity
  8
03-01
100
AcDbLine
 10
306.985339793378
 20
285.0429548569678
 30
0.0
 11
306.985339793378
 21
289.2525506812691
 31
0.0
  0
LWPOLYLINE
  5
173
330
2
100
AcDbEntity
  8
03-01
100
AcDbPolyline
 90
        3
 70
   128
 43
0.0
 10
322.0533588382109
 20
286.1940832579227
 10
322.1993847659009
 20
286.7969078343545
 10
323.0069264212775
 20
289.3108231347238
  0
LWPOLYLINE
  5
174
330
2
100
AcDbEntity
  8
03-01
100
AcDbPolyline
 90
        3
 70
   128
 43
0.0
 10
317.0079931991327
 20
289.2100316804086
 10
317.899518613905
 20
286.7246670048868
 10
318.0418958433474
 20
286.2127177416693
  0
LINE
  5
175
330
2
100
AcDbEntity
  8
03-01
100
AcDbLine
 10
312.5853399610164
 20
351.7525446932947
 30
0.0
 11
312.5853399610164
 21
345.25255387241
 31
0.0
  0
LINE
  5
176
330
2
100
AcDbEntity
  8
03-01
100
AcDbLine
 10
327.5853396257403
 20
345.25255387241
 30
0.0
 11
327.5853396257403
 21
351.7525446932947
 31
0.0
  0
ARC
  5
177
330
2
100
AcDbEntity
  8
03-01
100
AcDbCircle
 10
333.3353397933783
 20
344.7525506812691
 30
0.0
 40
0.5
100
AcDbArc
 50
0.0
 51
90.0
  0
ARC
  5
178
330
2
100
AcDbEntity
  8
03-01
100
AcDbCircle
 10
306.8353397933784
 20
344.7525506812691
 30
0.0
 40
0.5
100
AcDbArc
 50
90.0
 51
180.0
  0
LINE
  5
179
330
2
100
AcDbEntity
  8
03-01
100
AcDbLine
 10
306.3353397933783
 20
344.7525506812691
 30
0.0
 11
306.3353397933783
 21
341.7525506812691
 31
0.0
  0
LINE
  5
17A
330
2
100
AcDbEntity
  8
03-01
100
AcDbLine
 10
333.8353397933783
 20
341.7525506812691
 30
0.0
 11
333.8353397933783
 21
344.7525506812691
 31
0.0
  0
ARC
  5
17B
330
2
100
AcDbEntity
  8
03-01
100
AcDbCircle
 10
334.3353397933784
 20
341.7525506812691
 30
0.0
 40
0.5
100
AcDbArc
 50
180.0
 51
270.0
  0
ARC
  5
17C
330
2
100
AcDbEntity
  8
03-01
100
AcDbCircle
 10
305.8353397933784
 20
341.7525506812691
 30
0.0
 40
0.5
100
AcDbArc
 50
270.0
 51
0.0
  0
LINE
  5
17D
330
2
100
AcDbEntity
  8
0
100
AcDbLine
 10
305.6696938214841
 20
261.5180713456306
 30
0.0
 11
305.4853397933771
 21
261.5180713456308
 31
0.0
  0
LINE
  5
17E
330
2
100
AcDbEntity
  8
0
100
AcDbLine
 10
334.3009851736965
 20
261.5180713456308
 30
0.0
 11
334.485339793378
 21
261.5180713456308
 31
0.0
  0
LINE
  5
17F
330
2
100
AcDbEntity
  8
0
100
AcDbLine
 10
334.3009851736961
 20
246.7430633824507
 30
0.0
 11
334.3009851736961
 21
261.5180713456315
 31
0.0
  0
LINE
  5
180
330
2
100
AcDbEntity
  8
0
100
AcDbLine
 10
318.5916551996174
 20
284.2359346669351
 30
0.0
 11
321.5790243871397
 21
284.2359346669351
 31
0.0
  0
LINE
  5
181
330
2
100
AcDbEntity
  8
0
100
AcDbLine
 10
332.485339793378
 20
283.0395513945711
 30
0.0
 11
332.485339793378
 21
285.1998141573992
 31
0.0
  0
LINE
  5
182
330
2
100
AcDbEntity
  8
0
100
AcDbLine
 10
307.4853397933789
 20
285.1578322199635
 30
0.0
 11
307.485339793378
 21
283.0395513945711
 31
0.0
  0
LINE
  5
183
330
2
100
AcDbEntity
  8
0
100
AcDbLine
 10
332.985339793378
 20
285.0948593138104
 30
0.0
 11
332.985339793378
 21
282.7430530683886
 31
0.0
  0
LINE
  5
184
330
2
100
AcDbEntity
  8
0
100
AcDbLine
 10
306.985339793378
 20
282.7430530683886
 30
0.0
 11
306.9853397933775
 21
285.0429548569679
 31
0.0
  0
LINE
  5
185
330
2
100
AcDbEntity
  8
0
100
AcDbLine
 10
332.985339793378
 20
282.7430530683886
 30
0.0
 11
333.1419269044468
 21
281.5015412531667
 31
0.0
  0
LINE
  5
186
330
2
100
AcDbEntity
  8
0
100
AcDbLine
 10
306.8287526823092
 20
281.5015412531667
 30
0.0
 11
306.985339793378
 21
282.7430530683886
 31
0.0
  0
LINE
  5
187
330
2
100
AcDbEntity
  8
0
100
AcDbLine
 10
332.6575856155537
 20
281.7179420428832
 30
0.0
 11
332.485339793378
 21
283.0395513945711
 31
0.0
  0
LINE
  5
188
330
2
100
AcDbEntity
  8
0
100
AcDbLine
 10
307.485339793378
 20
283.0395513945711
 30
0.0
 11
307.3130939712023
 21
281.7179420428832
 31
0.0
  0
ARC
  5
189
330
2
100
AcDbEntity
  8
0
100
AcDbCircle
 10
334.485339793378
 20
278.5004123812693
 30
0.0
 40
0.5000000000000293
100
AcDbArc
 50
0.0
 51
50.47880364133347
  0
ARC
  5
18A
330
2
100
AcDbEntity
  8
0
100
AcDbCircle
 10
337.985339793378
 20
282.7430530683886
 30
0.0
 40
5.000000000000007
100
AcDbArc
 50
194.3770774903791
 51
230.4788036413334
  0
ARC
  5
18B
330
2
100
AcDbEntity
  8
0
100
AcDbCircle
 10
301.985339793378
 20
282.7430530683886
 30
0.0
 40
5.000000000000007
100
AcDbArc
 50
309.5211963586665
 51
345.6229225096209
  0
ARC
  5
18C
330
2
100
AcDbEntity
  8
0
100
AcDbCircle
 10
305.485339793378
 20
278.5004123812693
 30
0.0
 40
0.500000000000037
100
AcDbArc
 50
129.5211963586665
 51
180.0
  0
LINE
  5
18D
330
2
100
AcDbEntity
  8
0
100
AcDbLine
 10
334.985339793378
 20
278.5004123812693
 30
0.0
 11
334.985339793378
 21
268.5143677658851
 31
0.0
  0
LINE
  5
18E
330
2
100
AcDbEntity
  8
0
100
AcDbLine
 10
332.6575856155537
 20
281.7179420428832
 30
0.0
 11
307.3130939712023
 21
281.7179420428832
 31
0.0
  0
ARC
  5
18F
330
2
100
AcDbEntity
  8
0
100
AcDbCircle
 10
301.985339793378
 20
283.0836050396273
 30
0.0
 40
5.500000000000002
100
AcDbArc
 50
309.5211963586665
 51
345.6229225096209
  0
LINE
  5
190
330
2
100
AcDbEntity
  8
0
100
AcDbLine
 10
334.485339793378
 20
270.0478554284256
 30
0.0
 11
334.485339793378
 21
278.840964352508
 31
0.0
  0
LINE
  5
191
330
2
100
AcDbEntity
  8
0
100
AcDbLine
 10
334.485339793378
 20
268.8549197371238
 30
0.0
 11
334.485339793378
 21
270.047855428426
 31
0.0
  0
ARC
  5
192
330
2
100
AcDbEntity
  8
0
100
AcDbCircle
 10
337.985339793378
 20
283.0836050396273
 30
0.0
 40
5.499999999999993
100
AcDbArc
 50
194.3770774903791
 51
230.4788036413334
  0
LINE
  5
193
330
2
100
AcDbEntity
  8
0
100
AcDbLine
 10
304.985339793378
 20
268.5143677658851
 30
0.0
 11
304.985339793378
 21
278.5004123812693
 31
0.0
  0
LINE
  5
194
330
2
100
AcDbEntity
  8
0
100
AcDbLine
 10
305.485339793378
 20
278.840964352508
 30
0.0
 11
305.485339793378
 21
268.8549197371238
 31
0.0
  0
LINE
  5
195
330
2
100
AcDbEntity
  8
0
100
AcDbLine
 10
334.985339793378
 20
268.5143677658851
 30
0.0
 11
334.985339793378
 21
261.2861027144808
 31
0.0
  0
LINE
  5
196
330
2
100
AcDbEntity
  8
0
100
AcDbLine
 10
334.985339793378
 20
246.2430530683886
 30
0.0
 11
334.9489309091428
 21
246.2430530683886
 31
0.0
  0
LINE
  5
197
330
2
100
AcDbEntity
  8
0
100
AcDbLine
 10
334.985339793378
 20
261.2861027144808
 30
0.0
 11
334.985339793378
 21
246.2430530683886
 31
0.0
  0
ARC
  5
198
330
2
100
AcDbEntity
  8
0
100
AcDbCircle
 10
335.6324434360481
 20
247.7985818675339
 30
0.0
 40
1.699088101523153
100
AcDbArc
 50
218.4057524358338
 51
246.2790712134563
  0
LINE
  5
199
330
2
100
AcDbEntity
  8
0
100
AcDbLine
 10
334.9489309091428
 20
246.2430530683886
 30
0.0
 11
305.0217486776142
 21
246.2430530683886
 31
0.0
  0
LINE
  5
19A
330
2
100
AcDbEntity
  8
0
100
AcDbLine
 10
304.985339793378
 20
261.2861027144808
 30
0.0
 11
304.985339793378
 21
268.5143677658851
 31
0.0
  0
LINE
  5
19B
330
2
100
AcDbEntity
  8
0
100
AcDbLine
 10
304.985339793378
 20
246.2430530683886
 30
0.0
 11
304.985339793378
 21
261.2861027144808
 31
0.0
  0
LINE
  5
19C
330
2
100
AcDbEntity
  8
0
100
AcDbLine
 10
305.0217486776142
 20
246.2430530683886
 30
0.0
 11
304.985339793378
 21
246.2430530683886
 31
0.0
  0
ARC
  5
19D
330
2
100
AcDbEntity
  8
0
100
AcDbCircle
 10
304.3382395455414
 20
247.798576701825
 30
0.0
 40
1.699081768574774
100
AcDbArc
 50
293.7208757914108
 51
321.5943005592515
  0
LINE
  5
19E
330
2
100
AcDbEntity
  8
0
100
AcDbLine
 10
305.485339793378
 20
268.8549197371238
 30
0.0
 11
305.4853397933775
 21
261.5180713456308
 31
0.0
  0
LINE
  5
19F
330
2
100
AcDbEntity
  8
0
100
AcDbLine
 10
334.4853397933785
 20
261.5180713456308
 30
0.0
 11
334.485339793378
 21
268.8549197371238
 31
0.0
  0
LWPOLYLINE
  5
1A0
330
2
100
AcDbEntity
  8
0
100
AcDbPolyline
 90
       15
 70
   128
 43
0.0
 10
334.3009851736965
 20
261.5180713456308
 10
333.7513083456101
 20
262.4495131295358
 10
332.79867804181
 20
263.5848326008951
 10
331.6762983663025
 20
264.5466429513132
 10
329.7771835563722
 20
265.6878334801828
 10
327.7042131735029
 20
266.5231925767099
 10
324.4024474037829
 20
267.3147124570047
 10
320.9873989903385
 20
267.640511445347
 10
317.4429867280665
 20
267.5480348389779
 10
313.9631669832411
 20
266.9968706887399
 10
311.6664370385947
 20
266.3150531571542
 10
309.5101244611683
 20
265.328864507023
 10
308.1448279185238
 20
264.4341093819772
 10
306.9361882148328
 20
263.3403343480264
 10
305.6696938214841
 20
261.5180713456308
  0
LINE
  5
1A1
330
2
100
AcDbEntity
  8
0
100
AcDbLine
 10
305.6696938214841
 20
261.5180713456308
 30
0.0
 11
305.6696942420363
 21
246.7430530683886
 31
0.0
  0
LINE
  5
1A2
330
2
100
AcDbEntity
  8
0
100
AcDbLine
 10
305.6696942420363
 20
246.7430530683886
 30
0.0
 11
334.3009853447207
 21
246.7430530683886
 31
0.0
  0
LWPOLYLINE
  5
1A3
330
2
100
AcDbEntity
  8
0
100
AcDbPolyline
 90
        2
 70
   128
 43
0.0
 10
321.5790243871397
 20
284.2359346669351
 10
322.0533588382109
 20
286.1940832579227
  0
LWPOLYLINE
  5
1A4
330
2
100
AcDbEntity
  8
0
100
AcDbPolyline
 90
        2
 70
   128
 43
0.0
 10
318.0418958433474
 20
286.2127177416693
 10
318.5916551996174
 20
284.2359346669351
  0
INSERT
  5
1A5
330
2
100
AcDbEntity
  8
09-01
100
AcDbBlockReference
 66
     1
  2
DIN A4
 10
-0.000014599248118
 20
0.0000034519396106
 30
0.0
 41
2.0
 42
2.0
 43
2.0
  0
ATTRIB
  5
219
330
1A5
100
AcDbEntity
  8
06-99
100
AcDbText
 10
232.9908939035772
 20
52.37567682070903
 30
0.0
 40
8.0
  1
Flüssigseifenspender WP 102
 41
0.9
  7
ROMANS8
100
AcDbAttribute
280
     0
  2
TEILE
 70
     0
280
     0
  0
ATTRIB
  5
21A
330
1A5
100
AcDbEntity
  8
06-99
100
AcDbText
 10
232.9908939035772
 20
38.5909564241374
 30
0.0
 40
8.0
  1
für 950 ml Flaschen
 41
0.9
  7
ROMANS8
100
AcDbAttribute
280
     0
  2
TEILE2
 70
     0
280
     0
  0
ATTRIB
  5
21B
330
1A5
100
AcDbEntity
  8
06-99
100
AcDbText
 10
382.6947728486521
 20
90.66666609281126
 30
0.0
 40
6.75
  1
1:2
  7
ROMANS8
100
AcDbAttribute
280
     0
  2
:
 70
     0
280
     0
  0
ATTRIB
  5
21C
330
1A5
100
AcDbEntity
  8
06-99
100
AcDbText
 10
185.9941360239577
 20
54.88337036220718
 30
0.0
 40
5.0
  1
Pfrepper
 41
0.9
  7
ROMANS8
100
AcDbAttribute
280
     0
  2
NAME
 70
     0
280
     0
  0
ATTRIB
  5
21D
330
1A5
100
AcDbEntity
  8
06-99
100
AcDbText
 10
158.986293329011
 20
54.92246977436707
 30
0.0
 40
5.0
  1
12.06.2008
 50
359.9144597696142
 41
0.5557145111805317
  7
ROMANS8
 72
     5
 11
181.4794746661005
 21
54.88888835947795
 31
0.0
100
AcDbAttribute
280
     0
  2
DATUM
 70
     0
280
     0
  0
ATTRIB
  5
21E
330
1A5
100
AcDbEntity
  8
06-99
100
AcDbText
 10
357.0126883595394
 20
14.98579902672201
 30
0.0
 40
5.98752
  1
727302
  7
ROMANS8
100
AcDbAttribute
280
     0
  2
ID.NR
 70
     0
280
     0
  0
ATTRIB
  5
21F
330
1A5
100
AcDbEntity
  8
06-99
100
AcDbText
 10
233.462532936644
 20
75.33333271503351
 30
0.0
 40
6.0
  1

 41
0.9
  7
ROMANS8
100
AcDbAttribute
280
     0
  2
LÄNGE
 70
     0
280
     0
  0
ATTRIB
  5
220
330
1A5
100
AcDbEntity
  8
06-99
100
AcDbText
 10
300.3616102487624
 20
75.35620716703424
 30
0.0
 40
6.0
  1

 41
0.9
  7
ROMANS8
100
AcDbAttribute
280
     0
  2
BREITE
 70
     0
280
     0
  0
ATTRIB
  5
221
330
1A5
100
AcDbEntity
  8
06-99
100
AcDbText
 10
381.2181846786866
 20
75.33333275947812
 30
0.0
 40
6.187500000000001
  1

  7
ROMANS8
100
AcDbAttribute
280
     0
  2
1.0
 70
     0
280
     0
  0
ATTRIB
  5
222
330
1A5
100
AcDbEntity
  8
06-99
100
AcDbText
 10
328.2555716280283
 20
90.66666609281149
 30
0.0
 40
6.0
  1

  7
ROMANS8
 72
     1
 11
328.2555716280283
 21
90.66666609281149
 31
0.0
100
AcDbAttribute
280
     0
  2
IV
 70
     0
280
     0
  0
ATTRIB
  5
223
330
1A5
100
AcDbEntity
  8
06-99
100
AcDbText
 10
246.5494814974546
 20
90.66666609281121
 30
0.0
 40
6.75
  1
1.4301
  7
ROMANS8
100
AcDbAttribute
280
     0
  2
1.4301
 70
     0
280
     0
  0
ATTRIB
  5
224
330
1A5
100
AcDbEntity
  8
06-99
100
AcDbText
 10
292.0012681989831
 20
15.00879263485386
 30
0.0
 40
6.336
  1

 41
0.9000000000000001
  7
ROMANS8
100
AcDbAttribute
280
     0
  2
AUFTRAGS.NR.
 70
     0
280
     0
  0
ATTRIB
  5
225
330
1A5
100
AcDbEntity
  8
06-99
100
AcDbText
 10
233.0000004252229
 20
14.99999942614464
 30
0.0
 40
6.336
  1

 41
0.9000000000000001
  7
ROMANS8
100
AcDbAttribute
280
     0
  2
SONDER-NR
 70
     0
280
     0
  0
ATTRIB
  5
226
330
1A5
100
AcDbEntity
  8
06-99
100
AcDbText
 10
92.99950241523948
 20
13.20361956466433
 30
0.0
 40
3.0
  1

 41
0.9
  7
ROMANS8
100
AcDbAttribute
280
     0
  2
ERSETZT.DURCH
 70
     0
280
     0
  0
ATTRIB
  5
227
330
1A5
100
AcDbEntity
  8
06-99
100
AcDbText
 10
42.99893598561993
 20
13.19491222188946
 30
0.0
 40
3.0
  1

 41
0.9
  7
ROMANS8
100
AcDbAttribute
280
     0
  2
ERSETZT.FÜR
 70
     0
280
     0
  0
ATTRIB
  5
228
330
1A5
100
AcDbEntity
  8
06-99
100
AcDbText
 10
199.946145718098
 20
95.33702170616059
 30
0.0
 40
2.574
  1
DIN A4
  7
ROMANS8
 72
     1
 11
206.5037171466695
 21
95.33702170616059
 31
0.0
100
AcDbAttribute
280
     0
  2
FORMAT
 70
     0
280
     0
  0
ATTRIB
  5
229
330
1A5
100
AcDbEntity
  8
06-99
100
AcDbText
 10
191.9748784200355
 20
74.39393409387411
 30
0.0
 40
4.68
  1
DIN 2768
  7
ROMANS8
 72
     1
 11
208.0205927057498
 21
74.39393409387411
 31
0.0
100
AcDbAttribute
280
     0
  2
NORM2
 70
     0
280
     0
  0
ATTRIB
  5
22A
330
1A5
100
AcDbEntity
  8
06-99
100
AcDbText
 10
185.6234498486068
 20
82.06060076054074
 30
0.0
 40
4.68
  1
DIN 6930-M
  7
ROMANS8
 72
     1
 11
207.0177355628926
 21
82.06060076054074
 31
0.0
100
AcDbAttribute
280
     0
  2
NORM1
 70
     0
280
     0
  0
SEQEND
  5
22B
330
1A5
100
AcDbEntity
  8
09-01
  0
INSERT
  5
22C
330
2
100
AcDbEntity
  8
03-01
100
AcDbBlockReference
  2
Seifenflasche01-v
 10
320.0853397933788
 20
345.2525506812692
 30
0.0
  0
INSERT
  5
24D
330
2
100
AcDbEntity
  8
03-01
100
AcDbBlockReference
  2
Seifenflasche01-s
 10
145.3682416692067
 20
345.6025175568179
 30
0.0
 41
-1.0
  0
DIMENSION
  5
26A
330
2
100
AcDbEntity
  8
09-01
100
AcDbDimension
280
     0
  2
*D4
 10
359.585339793379
 20
234.0259734410436
 30
0.0
 11
319.585339793379
 21
238.578838379652
 31
0.0
 71
     5
 42
80.0
 73
     0
 74
     0
 75
     0
  3
Wagner$0
100
AcDbAlignedDimension
 13
279.585339793379
 23
227.9332865208919
 33
0.0
 14
359.585339793379
 24
227.9332865208918
 34
0.0
100
AcDbRotatedDimension
1001
ACAD
1000
DSTYLE
1002
{
1070
    40
1040
2.0
1002
}
  0
DIMENSION
  5
277
330
2
100
AcDbEntity
  8
09-01
100
AcDbDimension
280
     0
  2
*D3
 10
124.2182416692067
 20
217.6995609619817
 30
0.0
 11
161.3432420268345
 21
222.2541312211904
 31
0.0
 71
     5
 42
74.25000071525573
 73
     0
 74
     0
 75
     0
  3
Wagner$0
100
AcDbAlignedDimension
 13
198.4682423844624
 23
269.5181346187514
 33
0.0
 14
124.2182416692067
 24
284.1025175568178
 34
0.0
100
AcDbRotatedDimension
1001
ACAD
1000
DSTYLE
1002
{
1070
    40
1040
2.0
1002
}
  0
DIMENSION
  5
284
330
2
100
AcDbEntity
  8
09-01
100
AcDbDimension
280
     0
  2
*D2
 10
154.5093698390878
 20
232.9731991869835
 30
0.0
 11
176.4888061117751
 21
237.4731991869835
 31
0.0
 71
     5
 42
43.95887254537456
 73
     0
 74
     0
 75
     0
  3
Wagner$0
100
AcDbAlignedDimension
 13
198.4682423844624
 23
269.5181346187514
 33
0.0
 14
154.5093698390878
 24
266.2420291062852
 34
0.0
100
AcDbRotatedDimension
1001
ACAD
1000
DSTYLE
1002
{
1070
    40
1040
2.0
1002
}
  0
DIMENSION
  5
291
330
2
100
AcDbEntity
  8
09-01
100
AcDbDimension
280
     0
  2
*D1
 10
63.72648080386988
 20
288.7571564522706
 30
0.0
 11
59.17361586526139
 21
428.1798396283379
 31
0.0
 71
     5
 42
278.8453663521348
 73
     0
 74
     0
 75
     0
  3
Wagner$0
100
AcDbAlignedDimension
 13
78.46824238446288
 23
567.6025228044053
 33
0.0
 14
78.46824238446242
 24
288.7571564522706
 34
0.0
 50
90.0
100
AcDbRotatedDimension
1001
ACAD
1000
DSTYLE
1002
{
1070
    40
1040
2.0
1002
}
  0
DIMENSION
  5
29E
330
2
100
AcDbEntity
  8
09-01
100
AcDbDimension
280
     0
  2
*D0
 10
360.0853397933788
 20
572.9218650318666
 30
0.0
 11
320.0853397933788
 21
577.4747299704751
 31
0.0
 71
     5
 42
79.99999999999989
 73
     0
 74
     0
 75
     0
  3
Wagner$0
100
AcDbAlignedDimension
 13
280.0853397933789
 23
567.6025228044053
 33
0.0
 14
360.0853397933788
 24
567.6025228044053
 34
0.0
100
AcDbRotatedDimension
1001
ACAD
1000
DSTYLE
1002
{
1070
    40
1040
2.0
1002
}
  0
LINE
  5
2AB
330
2
100
AcDbEntity
  8
0
100
AcDbLine
 10
361.5853397933789
 20
206.4332865208915
 30
0.0
 11
359.5853397933788
 21
206.4332865208915
 31
0.0
  0
LINE
  5
2AC
330
2
100
AcDbEntity
  8
0
100
AcDbLine
 10
363.5853397933789
 20
191.4332865208916
 30
0.0
 11
361.5853397933789
 21
189.4332865208916
 31
0.0
  0
LINE
  5
2AD
330
2
100
AcDbEntity
  8
0
100
AcDbLine
 10
361.5853397933789
 20
189.4332865208916
 30
0.0
 11
359.585339793379
 21
189.4332865208915
 31
0.0
  0
LINE
  5
2AE
330
2
100
AcDbEntity
  8
0
100
AcDbLine
 10
359.5853397933788
 20
189.4332865203285
 30
0.0
 11
359.5853397933788
 21
206.4332865203285
 31
0.0
  0
LINE
  5
2AF
330
2
100
AcDbEntity
  8
0
100
AcDbLine
 10
359.585339793379
 20
189.4332865208915
 30
0.0
 11
359.5853397933788
 21
206.4332865208915
 31
0.0
  0
LINE
  5
2B0
330
2
100
AcDbEntity
  8
0
100
AcDbLine
 10
361.5853397933789
 20
189.4332865208916
 30
0.0
 11
361.5853397933789
 21
206.4332865208915
 31
0.0
  0
LINE
  5
2B1
330
2
100
AcDbEntity
  8
0
100
AcDbLine
 10
361.5853397933789
 20
206.4332865208915
 30
0.0
 11
363.5853397933789
 21
204.4332865208915
 31
0.0
  0
LINE
  5
2B2
330
2
100
AcDbEntity
  8
0
100
AcDbLine
 10
363.5853397933789
 20
191.4332865208916
 30
0.0
 11
363.5853397933789
 21
204.4332865208915
 31
0.0
  0
LINE
  5
2B3
330
2
100
AcDbEntity
  8
0
100
AcDbLine
 10
359.5853397933791
 20
227.9332865208916
 30
0.0
 11
279.585339793379
 21
227.9332865208915
 31
0.0
  0
LINE
  5
2B4
330
2
100
AcDbEntity
  8
09-01
100
AcDbLine
 10
362.0853397933788
 20
555.1025228044052
 30
0.0
 11
362.0853397933788
 21
538.1025228044054
 31
0.0
  0
LINE
  5
2B5
330
2
100
AcDbEntity
  8
0
100
AcDbLine
 10
362.0853397933788
 20
555.1025228044052
 30
0.0
 11
364.0853397933788
 21
553.1025228044052
 31
0.0
  0
LINE
  5
2B6
330
2
100
AcDbEntity
  8
0
100
AcDbLine
 10
364.0853397933788
 20
540.1025228044054
 30
0.0
 11
364.0853397933788
 21
553.1025228044052
 31
0.0
  0
LINE
  5
2B7
330
2
100
AcDbEntity
  8
0
100
AcDbLine
 10
360.0853397933788
 20
538.1025228044053
 30
0.0
 11
360.0853397933788
 21
555.1025228044052
 31
0.0
  0
LINE
  5
2B8
330
2
100
AcDbEntity
  8
05-01
100
AcDbLine
 10
366.0852895525957
 20
546.6025228044053
 30
0.0
 11
356.2367959028218
 21
546.6025228044053
 31
0.0
  0
LINE
  5
2B9
330
2
100
AcDbEntity
  8
0
100
AcDbLine
 10
364.0853397933788
 20
540.1025228044054
 30
0.0
 11
362.0853397933788
 21
538.1025228044054
 31
0.0
  0
LINE
  5
2BA
330
2
100
AcDbEntity
  8
0
100
AcDbLine
 10
362.0853397933788
 20
538.1025228044054
 30
0.0
 11
360.0853397933788
 21
538.1025228044053
 31
0.0
  0
LINE
  5
2BB
330
2
100
AcDbEntity
  8
0
100
AcDbLine
 10
362.0853397933788
 20
555.1025228044052
 30
0.0
 11
360.0853397933788
 21
555.1025228044052
 31
0.0
  0
LWPOLYLINE
  5
2BC
330
2
100
AcDbEntity
  8
03-01
100
AcDbPolyline
 90
       26
 70
   128
 43
0.0
 10
336.0853405533382
 20
284.4372763177411
 10
335.9591742841551
 20
284.7855164548414
 10
335.5826703695604
 20
285.1282431622998
 10
334.9617631969997
 20
285.4600622197644
 10
334.1062465546677
 20
285.7757582208173
 10
333.0296115813801
 20
286.0703541776197
 10
331.7488381503174
 20
286.3392009278791
 10
330.2841238541553
 20
286.5780665418165
 10
328.6585682867119
 20
286.7831363221662
 10
326.89780843016
 20
286.9512214204328
 10
325.0296116670618
 20
287.0796694299238
 10
323.0834408527264
 20
287.1664537927167
 10
321.0899880718464
 20
287.2101737996595
 10
319.0806915149117
 20
287.2101737996595
 10
317.0872387340316
 20
287.1664537927167
 10
315.1410679196963
 20
287.0796694299238
 10
313.272871156598
 20
286.9512214204328
 10
311.5121113000462
 20
286.7831363221662
 10
309.8865557326028
 20
286.5780665418165
 10
308.4218414364407
 20
286.3392009278791
 10
307.141068005378
 20
286.0703541776197
 10
306.0644330320904
 20
285.7757582208173
 10
305.2089163897583
 20
285.4600622197644
 10
304.5880092171976
 20
285.1282431622998
 10
304.211505302603
 20
284.7855164548414
 10
304.0853390334198
 20
284.4372763177411
  0
LINE
  5
2BD
330
2
100
AcDbEntity
  8
03-01
100
AcDbLine
 10
304.0853397933791
 20
284.4372825917478
 30
0.0
 11
304.0853397933791
 21
283.4524748387357
 31
0.0
  0
LINE
  5
2BE
330
2
100
AcDbEntity
  8
03-01
100
AcDbLine
 10
336.085339793379
 20
284.4372825917478
 30
0.0
 11
336.085339793379
 21
283.4524748387357
 31
0.0
  0
LINE
  5
2BF
330
2
100
AcDbEntity
  8
0
  6
Continuous
 62
     7
370
    15
100
AcDbLine
 10
334.985339793378
 20
275.0602736016766
 30
0.0
 11
336.0853404735258
 21
275.0602736016767
 31
0.0
  0
LINE
  5
2C0
330
2
100
AcDbEntity
  8
0
  6
Continuous
 62
     7
370
    15
100
AcDbLine
 10
304.0853390334196
 20
275.0602736016767
 30
0.0
 11
304.985339793378
 21
275.0602736016766
 31
0.0
  0
LINE
  5
2C1
330
2
100
AcDbEntity
  8
0
  6
Continuous
 62
     7
370
    15
100
AcDbLine
 10
334.985339793378
 20
274.0754856606977
 30
0.0
 11
336.085340553338
 21
274.0754856606977
 31
0.0
  0
LINE
  5
2C2
330
2
100
AcDbEntity
  8
0
  6
Continuous
 62
     7
370
    15
100
AcDbLine
 10
304.0853390334196
 20
274.0754856606977
 30
0.0
 11
304.985339793378
 21
274.0754856606977
 31
0.0
  0
LINE
  5
2C3
330
2
100
AcDbEntity
  8
0
  6
Continuous
 62
     7
370
    15
100
AcDbLine
 10
304.0853397933791
 20
283.4524748387357
 30
0.0
 11
304.0853390334196
 21
274.0754856606977
 31
0.0
  0
LWPOLYLINE
  5
2C4
330
2
100
AcDbEntity
  8
0
  6
Continuous
 62
     7
370
    15
100
AcDbPolyline
 90
       26
 70
   128
 43
0.0
 10
336.0853405533382
 20
283.4524883767621
 10
335.9591742841551
 20
283.80069871154
 10
335.5826703695604
 20
284.1434254189985
 10
334.9617631969997
 20
284.4752742787854
 10
334.1062465546677
 20
284.7909702798383
 10
333.0296115813801
 20
285.0855662366407
 10
331.7488381503174
 20
285.3544129869001
 10
330.2841238541553
 20
285.5932487985151
 10
328.6585682867119
 20
285.7983185788648
 10
326.89780843016
 20
285.9664334794538
 10
325.0296116670618
 20
286.0948516866224
 10
323.0834408527264
 20
286.1816360494153
 10
321.0899880718464
 20
286.2253560563581
 10
319.0806915149117
 20
286.2253560563581
 10
317.0872387340316
 20
286.1816360494153
 10
315.1410679196963
 20
286.0948516866224
 10
313.272871156598
 20
285.9664334794538
 10
311.5121113000462
 20
285.7983185788648
 10
309.8865557326028
 20
285.5932487985151
 10
308.4218414364407
 20
285.3544129869001
 10
307.141068005378
 20
285.0855662366407
 10
306.0644330320904
 20
284.7909702798383
 10
305.2089163897583
 20
284.4752742787854
 10
304.5880092171976
 20
284.1434254189985
 10
304.211505302603
 20
283.80069871154
 10
304.0853390334198
 20
283.4524883767621
  0
LINE
  5
2C5
330
2
100
AcDbEntity
  8
0
  6
Continuous
 62
     7
370
    15
100
AcDbLine
 10
336.085340553338
 20
274.0754856606977
 30
0.0
 11
336.085339793379
 21
283.4524748387357
 31
0.0
  0
LINE
  5
2C6
330
2
100
AcDbEntity
  8
05-01
100
AcDbLine
 10
316.5853397933793
 20
380.6025228044051
 30
0.0
 11
323.5853397933793
 21
380.6025228044051
 31
0.0
  0
LINE
  5
2C7
330
2
100
AcDbEntity
  8
05-01
100
AcDbLine
 10
320.0853397933788
 20
384.1025228044053
 30
0.0
 11
320.0853397933788
 21
326.1025228044053
 31
0.0
  0
LINE
  5
2C8
330
2
100
AcDbEntity
  8
05-01
100
AcDbLine
 10
316.5853397933788
 20
329.6025228044056
 30
0.0
 11
323.5853397933788
 21
329.6025228044056
 31
0.0
  0
LWPOLYLINE
  5
2C9
330
2
100
AcDbEntity
  8
0
100
AcDbPolyline
 90
        9
 70
     0
 43
0.0
 10
320.0853397933788
 20
327.1025228044053
 10
320.0853397933788
 20
327.1025228044053
 42
0.4142135623730951
 10
322.5853397933788
 20
329.6025228044054
 10
322.5853397933788
 20
380.6025228044053
 42
0.4142135623730951
 10
320.0853397933788
 20
383.1025228044053
 10
320.0853397933788
 20
383.1025228044053
 42
0.4142135623730951
 10
317.5853397933788
 20
380.6025228044053
 10
317.5853397933788
 20
329.6025228044054
 42
0.4142135623730951
 10
320.0853397933788
 20
327.1025228044053
 42
0.4142135623730951
  0
LINE
  5
2CA
330
2
100
AcDbEntity
  8
09-01
100
AcDbLine
 10
334.985339793378
 20
269.0618009245744
 30
0.0
 11
360.0853397933788
 21
269.0618009245744
 31
0.0
  0
LINE
  5
2CB
330
2
100
AcDbEntity
  8
09-01
100
AcDbLine
 10
280.0853397933788
 20
269.0618009245744
 30
0.0
 11
304.985339793378
 21
269.0618009245744
 31
0.0
  0
LINE
  5
2CC
330
2
100
AcDbEntity
  8
09-01
100
AcDbLine
 10
280.0853397933788
 20
288.7571564522706
 30
0.0
 11
360.0853397933789
 21
288.7571564522706
 31
0.0
  0
LINE
  5
2CD
330
2
100
AcDbEntity
  8
09-01
100
AcDbLine
 10
280.0853397933789
 20
567.6025228044053
 30
0.0
 11
280.0853397933788
 21
269.0618009245744
 31
0.0
  0
LINE
  5
2CE
330
2
100
AcDbEntity
  8
09-01
100
AcDbLine
 10
360.0853397933788
 20
567.6025228044053
 30
0.0
 11
360.0853397933788
 21
269.0618009245744
 31
0.0
  0
LINE
  5
2CF
330
2
100
AcDbEntity
  8
09-01
100
AcDbLine
 10
280.0853397933789
 20
567.6025228044053
 30
0.0
 11
360.0853397933788
 21
567.6025228044053
 31
0.0
  0
CIRCLE
  5
2D0
330
2
100
AcDbEntity
  8
0
100
AcDbCircle
 10
167.9682423844629
 20
546.6025228044053
 30
0.0
 40
6.25
  0
CIRCLE
  5
2D1
330
2
100
AcDbEntity
  8
0
100
AcDbCircle
 10
167.9682423844629
 20
546.6025228044053
 30
0.0
 40
6.5
  0
CIRCLE
  5
2D2
330
2
100
AcDbEntity
  8
0
100
AcDbCircle
 10
167.9682423844629
 20
546.6025228044053
 30
0.0
 40
8.5
  0
LINE
  5
2D3
330
2
100
AcDbEntity
  8
0
100
AcDbLine
 10
164.9682423844629
 20
547.8025228044052
 30
0.0
 11
172.9682423844628
 21
547.8025228044052
 31
0.0
  0
LINE
  5
2D4
330
2
100
AcDbEntity
  8
0
100
AcDbLine
 10
164.9682423844629
 20
545.4025228044054
 30
0.0
 11
172.9682423844628
 21
545.4025228044052
 31
0.0
  0
LINE
  5
2D5
330
2
100
AcDbEntity
  8
05-01
100
AcDbLine
 10
157.9182423844629
 20
546.6025228044053
 30
0.0
 11
178.0182423844629
 21
546.6025228044053
 31
0.0
  0
LINE
  5
2D6
330
2
100
AcDbEntity
  8
0
100
AcDbLine
 10
172.9682423844628
 20
547.8025228044052
 30
0.0
 11
172.9682423844628
 21
545.4025228044052
 31
0.0
  0
LINE
  5
2D7
330
2
100
AcDbEntity
  8
0
100
AcDbLine
 10
164.9682423844629
 20
547.8025228044052
 30
0.0
 11
164.9682423844629
 21
545.4025228044054
 31
0.0
  0
LINE
  5
2D8
330
2
100
AcDbEntity
  8
05-01
100
AcDbLine
 10
167.9682423844629
 20
555.1525228044054
 30
0.0
 11
167.9682423844629
 21
538.0525228044054
 31
0.0
  0
LINE
  5
2D9
330
2
100
AcDbEntity
  8
0
100
AcDbLine
 10
195.3296465871344
 20
270.0478554284264
 30
0.0
 11
195.1632238860625
 21
269.0618009245744
 31
0.0
  0
LINE
  5
2DA
330
2
100
AcDbEntity
  8
0
100
AcDbLine
 10
78.46824238446242
 20
288.7571564522706
 30
0.0
 11
195.1632238860625
 21
269.0618009245744
 31
0.0
  0
LINE
  5
2DB
330
2
100
AcDbEntity
  8
0
100
AcDbLine
 10
195.3296465871385
 20
270.0478554284264
 30
0.0
 11
198.4682423844624
 21
269.5181346187514
 31
0.0
  0
LINE
  5
2DC
330
2
100
AcDbEntity
  8
0
100
AcDbLine
 10
78.46824238446288
 20
567.6025228044053
 30
0.0
 11
198.4682423844629
 21
567.6025228044048
 31
0.0
  0
LINE
  5
2DD
330
2
100
AcDbEntity
  8
0
100
AcDbLine
 10
78.46824238446242
 20
288.7571564522706
 30
0.0
 11
78.46824238446288
 21
567.6025228044053
 31
0.0
  0
LINE
  5
2DE
330
2
100
AcDbEntity
  8
0
100
AcDbLine
 10
198.4682423844624
 20
269.5181346187514
 30
0.0
 11
198.4682423844629
 21
567.6025228044048
 31
0.0
  0
LINE
  5
2DF
330
2
100
AcDbEntity
  8
09-01
100
AcDbLine
 10
359.5853397933788
 20
107.9332865208918
 30
0.0
 11
279.5853397933788
 21
107.9332865208919
 31
0.0
  0
LINE
  5
2E0
330
2
100
AcDbEntity
  8
09-01
100
AcDbLine
 10
279.5853397933788
 20
107.9332865208919
 30
0.0
 11
279.585339793379
 21
227.9332865208915
 31
0.0
  0
LINE
  5
2E1
330
2
100
AcDbEntity
  8
09-01
100
AcDbLine
 10
359.5853397933788
 20
107.9332865208918
 30
0.0
 11
359.5853397933791
 21
227.9332865208916
 31
0.0
  0
LINE
  5
2E2
330
2
100
AcDbEntity
  8
0
100
AcDbLine
 10
198.4682423844624
 20
565.6025228044052
 30
0.0
 11
198.4682423844624
 21
273.6025228044052
 31
0.0
  0
ENDSEC
  0
SECTION
  2
OBJECTS
  0
DICTIONARY
  5
B
330
0
100
AcDbDictionary
281
     1
  3
ACAD_COLOR
350
4B
  3
ACAD_GROUP
350
38
  3
ACAD_LAYOUT
350
18
  3
ACAD_MATERIAL
350
D
  3
ACAD_MLEADERSTYLE
350
4E
  3
ACAD_MLINESTYLE
350
39
  3
ACAD_PLOTSETTINGS
350
3A
  3
ACAD_PLOTSTYLENAME
350
A
  3
ACAD_SCALELIST
350
4C
  3
ACAD_TABLESTYLE
350
4D
  3
ACAD_VISUALSTYLE
350
2E
  3
ACDB_RECOMPOSE_DATA
350
2F0
  3
AcDbVariableDictionary
350
2E6
  0
DICTIONARY
  5
2F
330
2B
100
AcDbDictionary
280
     1
281
     1
  0
DICTIONARY
  5
1E
330
1D
100
AcDbDictionary
280
     1
281
     1
  3
ACAD_LAYERFILTERS
360
1F
  3
ACAD_LAYERSTATES
360
20
  3
ACLYDICTIONARY
360
21
  0
DICTIONARY
  5
7
330
6
100
AcDbDictionary
280
     1
281
     1
  3
ADSK_XREC_LAYER_RECONCILED
360
8
  0
DICTIONARY
  5
1AC
330
1AB
100
AcDbDictionary
280
     1
281
     1
  3
ADSK_XREC_LAYER_RECONCILED
360
1AD
  0
DICTIONARY
  5
1B2
330
1B1
100
AcDbDictionary
280
     1
281
     1
  3
ADSK_XREC_LAYER_RECONCILED
360
1B3
  0
DICTIONARY
  5
1EA
330
1E9
100
AcDbDictionary
280
     1
281
     1
  3
ADSK_XREC_LAYER_RECONCILED
360
1EB
  0
DICTIONARY
  5
1D4
330
1D3
100
AcDbDictionary
280
     1
281
     1
  3
ADSK_XREC_LAYER_RECONCILED
360
1D5
  0
DICTIONARY
  5
EA
330
E9
100
AcDbDictionary
280
     1
281
     1
  3
ADSK_XREC_LAYER_RECONCILED
360
EB
  0
DICTIONARY
  5
EE
330
ED
100
AcDbDictionary
280
     1
281
     1
  3
ADSK_XREC_LAYER_RECONCILED
360
EF
  0
DICTIONARY
  5
50
330
4F
100
AcDbDictionary
280
     1
281
     1
  3
ADSK_XREC_LAYER_RECONCILED
360
51
  0
DICTIONARY
  5
7F
330
7E
100
AcDbDictionary
280
     1
281
     1
  0
DICTIONARY
  5
3
330
2
100
AcDbDictionary
280
     1
281
     1
  3
ACAD_SORTENTS
360
2E5
  0
DICTIONARY
  5
1A7
330
1A6
100
AcDbDictionary
280
     1
281
     1
  3
ACAD_SORTENTS
360
2E4
  0
DICTIONARY
  5
7A
330
79
100
AcDbDictionary
280
     1
281
     1
  3
ACAD_SORTENTS
360
2E3
  0
DICTIONARY
  5
4B
102
{ACAD_REACTORS
330
B
102
}
330
B
100
AcDbDictionary
281
     1
  0
DICTIONARY
  5
38
102
{ACAD_REACTORS
330
B
102
}
330
B
100
AcDbDictionary
281
     1
  0
DICTIONARY
  5
18
102
{ACAD_REACTORS
330
B
102
}
330
B
100
AcDbDictionary
281
     1
  3
Layout1
350
1C
  3
Model
350
17
  0
DICTIONARY
  5
D
102
{ACAD_REACTORS
330
B
102
}
330
B
100
AcDbDictionary
281
     1
  3
ByBlock
350
43
  3
ByLayer
350
3B
  3
Global
350
C
  0
DICTIONARY
  5
4E
102
{ACAD_REACTORS
330
B
102
}
330
B
100
AcDbDictionary
281
     1
  0
DICTIONARY
  5
39
102
{ACAD_REACTORS
330
B
102
}
330
B
100
AcDbDictionary
281
     1
  3
STANDARD
350
52
  0
DICTIONARY
  5
3A
102
{ACAD_REACTORS
330
B
102
}
330
B
100
AcDbDictionary
281
     1
  0
ACDBDICTIONARYWDFLT
  5
A
102
{ACAD_REACTORS
330
B
102
}
330
B
100
AcDbDictionary
281
     1
  3
Normal
350
9
100
AcDbDictionaryWithDefault
340
9
  0
DICTIONARY
  5
4C
102
{ACAD_REACTORS
330
B
102
}
330
B
100
AcDbDictionary
281
     1
  3
A0
350
57
  3
A1
350
58
  3
A2
350
59
  3
A3
350
5A
  3
A4
350
5B
  3
A5
350
5C
  3
A6
350
5D
  3
A7
350
5E
  3
A8
350
5F
  3
A9
350
60
  3
B0
350
61
  3
B1
350
62
  3
B2
350
63
  3
B3
350
64
  3
B4
350
65
  3
B5
350
66
  3
B6
350
67
  3
B7
350
68
  3
B8
350
69
  3
B9
350
6A
  3
C0
350
6B
  3
C1
350
6C
  3
C2
350
6D
  3
C3
350
6E
  3
C4
350
6F
  3
C5
350
70
  3
C6
350
71
  3
C7
350
72
  3
C8
350
73
  3
C9
350
74
  3
D0
350
75
  3
D1
350
76
  3
D2
350
77
  0
DICTIONARY
  5
4D
102
{ACAD_REACTORS
330
B
102
}
330
B
100
AcDbDictionary
281
     1
  3
Standard
350
53
  0
DICTIONARY
  5
2E
102
{ACAD_REACTORS
330
B
102
}
330
B
100
AcDbDictionary
281
     1
  3
2dWireframe
350
2D
  3
3dWireframe
350
56
  3
Realistic
350
55
  0
XRECORD
  5
2F0
102
{ACAD_REACTORS
330
B
102
}
330
B
100
AcDbXrecord
280
     1
 90
        1
330
53
  0
DICTIONARY
  5
2E6
102
{ACAD_REACTORS
330
B
102
}
330
B
100
AcDbDictionary
281
     1
  3
CANNOSCALE
350
2EA
  3
CMLEADERSTYLE
350
2E8
  3
CTABLESTYLE
350
2E7
  3
LAYEREVAL
350
2EC
  3
LAYERNOTIFY
350
2ED
  3
LIGHTINGUNITS
350
2EB
  3
MSLTSCALE
350
2E9
  0
DICTIONARY
  5
1F
102
{ACAD_REACTORS
330
1E
102
}
330
1E
100
AcDbDictionary
281
     1
  0
DICTIONARY
  5
20
102
{ACAD_REACTORS
330
1E
102
}
330
1E
100
AcDbDictionary
281
     1
  0
DICTIONARY
  5
21
102
{ACAD_REACTORS
330
1E
102
}
330
1E
100
AcDbDictionary
281
     1
1001
ACAD
1000
<All
  0
XRECORD
  5
8
102
{ACAD_REACTORS
330
7
102
}
330
7
100
AcDbXrecord
280
     1
290
     1
  0
XRECORD
  5
1AD
102
{ACAD_REACTORS
330
1AC
102
}
330
1AC
100
AcDbXrecord
280
     1
290
     1
  0
XRECORD
  5
1B3
102
{ACAD_REACTORS
330
1B2
102
}
330
1B2
100
AcDbXrecord
280
     1
290
     1
  0
XRECORD
  5
1EB
102
{ACAD_REACTORS
330
1EA
102
}
330
1EA
100
AcDbXrecord
280
     1
290
     1
  0
XRECORD
  5
1D5
102
{ACAD_REACTORS
330
1D4
102
}
330
1D4
100
AcDbXrecord
280
     1
290
     1
  0
XRECORD
  5
EB
102
{ACAD_REACTORS
330
EA
102
}
330
EA
100
AcDbXrecord
280
     1
290
     1
  0
XRECORD
  5
EF
102
{ACAD_REACTORS
330
EE
102
}
330
EE
100
AcDbXrecord
280
     1
290
     1
  0
XRECORD
  5
51
102
{ACAD_REACTORS
330
50
102
}
330
50
100
AcDbXrecord
280
     1
290
     1
  0
SORTENTSTABLE
  5
2E5
102
{ACAD_REACTORS
330
3
102
}
330
3
100
AcDbSortentsTable
330
2
331
1A4
  5
140
331
1A0
  5
144
331
19C
  5
148
331
198
  5
14C
331
12D
  5
2B5
331
129
  5
2B9
331
125
  5
2BD
331
164
  5
180
331
2CE
  5
FC
331
121
  5
2C1
331
160
  5
184
331
2CA
  5
100
331
194
  5
150
331
24D
  5
13D
331
190
  5
154
331
18C
  5
158
331
188
  5
15C
331
15C
  5
188
331
A3
  5
2E0
331
11D
  5
2C5
331
158
  5
18C
331
2C6
  5
11C
331
2C2
  5
120
331
154
  5
190
331
2BE
  5
124
331
150
  5
194
331
2BA
  5
128
331
184
  5
160
331
180
  5
164
331
17C
  5
168
331
178
  5
16C
331
10D
  5
2C9
331
14C
  5
198
331
148
  5
19C
331
CE
  5
2DD
331
277
  5
13B
331
2B6
  5
12C
331
2B2
  5
130
331
144
  5
1A0
331
2AE
  5
134
331
140
  5
1A4
331
2E1
  5
92
331
174
  5
170
331
170
  5
174
331
16C
  5
178
331
168
  5
17C
331
FD
  5
2CD
331
13C
  5
26A
331
138
  5
29E
331
F9
  5
2D1
331
F5
  5
2D5
331
2DD
  5
CE
331
134
  5
2AE
331
29E
  5
138
331
F1
  5
2D9
331
2D9
  5
F1
331
130
  5
2B2
331
2D5
  5
F5
331
2D1
  5
F9
331
1A3
  5
141
331
19F
  5
145
331
19B
  5
149
331
B2
  5
2DF
331
12C
  5
2B6
331
128
  5
2BA
331
167
  5
17D
331
124
  5
2BE
331
163
  5
181
331
2CD
  5
FD
331
120
  5
2C2
331
2C9
  5
10D
331
197
  5
14D
331
193
  5
151
331
18F
  5
155
331
18B
  5
159
331
15F
  5
185
331
15B
  5
189
331
11C
  5
2C6
331
157
  5
18D
331
2C5
  5
11D
331
2C1
  5
121
331
153
  5
191
331
2BD
  5
125
331
2B9
  5
129
331
187
  5
15D
331
183
  5
161
331
17F
  5
165
331
17B
  5
169
331
14F
  5
195
331
14B
  5
199
331
92
  5
2E1
331
147
  5
19D
331
2B5
  5
12D
331
2B1
  5
131
331
143
  5
1A1
331
2AD
  5
135
331
100
  5
2CA
331
26A
  5
13C
331
2E0
  5
A3
331
177
  5
16D
331
173
  5
171
331
22C
  5
13E
331
16F
  5
175
331
16B
  5
179
331
13F
  5
1A5
331
C1
  5
2DE
331
FC
  5
2CE
331
13B
  5
277
331
137
  5
2AB
331
F8
  5
2D2
331
F4
  5
2D6
331
2DC
  5
DB
331
133
  5
2AF
331
2D8
  5
F2
331
2D4
  5
F6
331
2D0
  5
FA
331
1A2
  5
142
331
19E
  5
146
331
19A
  5
14A
331
12F
  5
2B3
331
12B
  5
2B7
331
EC
  5
2DA
331
127
  5
2BB
331
166
  5
17E
331
E8
  5
2DB
331
291
  5
139
331
123
  5
2BF
331
162
  5
182
331
2CC
  5
FE
331
2C8
  5
11A
331
196
  5
14E
331
192
  5
152
331
18E
  5
156
331
18A
  5
15A
331
11F
  5
2C3
331
15E
  5
186
331
15A
  5
18A
331
11B
  5
2C7
331
2C4
  5
11E
331
156
  5
18E
331
2C0
  5
122
331
152
  5
192
331
2BC
  5
126
331
2B8
  5
12A
331
186
  5
15E
331
182
  5
162
331
17E
  5
166
331
17A
  5
16A
331
14E
  5
196
331
14A
  5
19A
331
146
  5
19E
331
2B4
  5
12E
331
2B0
  5
132
331
142
  5
1A2
331
2AC
  5
136
331
176
  5
16E
331
16E
  5
176
331
16A
  5
17A
331
FF
  5
2CB
331
13E
  5
22C
331
13A
  5
284
331
FB
  5
2CF
331
136
  5
2AC
331
2DF
  5
B2
331
F7
  5
2D3
331
F3
  5
2D7
331
2DB
  5
E8
331
132
  5
2B0
331
2D7
  5
F3
331
2D3
  5
F7
331
1A5
  5
13F
331
1A1
  5
143
331
19D
  5
147
331
199
  5
14B
331
12E
  5
2B4
331
12A
  5
2B8
331
126
  5
2BC
331
165
  5
17F
331
2CF
  5
FB
331
122
  5
2C0
331
161
  5
183
331
2CB
  5
FF
331
195
  5
14F
331
191
  5
153
331
18D
  5
157
331
189
  5
15B
331
11E
  5
2C4
331
15D
  5
187
331
159
  5
18B
331
2C7
  5
11B
331
11A
  5
2C8
331
DB
  5
2DC
331
2C3
  5
11F
331
155
  5
18F
331
284
  5
13A
331
2BF
  5
123
331
151
  5
193
331
2BB
  5
127
331
185
  5
15F
331
181
  5
163
331
17D
  5
167
331
179
  5
16B
331
14D
  5
197
331
149
  5
19B
331
2B7
  5
12B
331
2B3
  5
12F
331
145
  5
19F
331
2AF
  5
133
331
141
  5
1A3
331
2AB
  5
137
331
2E2
  5
78
331
175
  5
16F
331
171
  5
173
331
16D
  5
177
331
169
  5
17B
331
FE
  5
2CC
331
13D
  5
24D
331
139
  5
291
331
FA
  5
2D0
331
F6
  5
2D4
331
2DE
  5
C1
331
135
  5
2AD
331
F2
  5
2D8
331
2DA
  5
EC
331
131
  5
2B1
331
78
  5
2E2
331
2D6
  5
F4
331
2D2
  5
F8
  0
SORTENTSTABLE
  5
2E4
102
{ACAD_REACTORS
330
1A7
102
}
330
1A7
100
AcDbSortentsTable
330
1A6
  0
SORTENTSTABLE
  5
2E3
102
{ACAD_REACTORS
330
7A
102
}
330
7A
100
AcDbSortentsTable
330
79
  0
LAYOUT
  5
1C
102
{ACAD_REACTORS
330
18
102
}
330
18
100
AcDbPlotSettings
  1

  2
HP LaserJet 4 Plus
  4

  6

 40
0.0
 41
0.0
 42
0.0
 43
0.0
 44
0.0
 45
0.0
 46
0.0
 47
0.0
 48
0.0
 49
0.0
140
0.0
141
0.0
142
1.0
143
1.0
 70
   688
 72
     0
 73
     0
 74
     5
  7
CNC-Soft.ctb
 75
    16
147
1.0
 76
     0
 77
     2
 78
   300
148
0.0
149
0.0
100
AcDbLayout
  1
Layout1
 70
     1
 71
     1
 10
0.0
 20
0.0
 11
420.0
 21
297.0
 12
0.0
 22
0.0
 32
0.0
 14
1.000000000000000E+20
 24
1.000000000000000E+20
 34
1.000000000000000E+20
 15
-1.000000000000000E+20
 25
-1.000000000000000E+20
 35
-1.000000000000000E+20
146
0.0
 13
0.0
 23
0.0
 33
0.0
 16
1.0
 26
0.0
 36
0.0
 17
0.0
 27
1.0
 37
0.0
 76
     0
330
19
  0
LAYOUT
  5
17
102
{ACAD_REACTORS
330
18
102
}
330
18
100
AcDbPlotSettings
  1

  2
HP LaserJet 4 Plus.pc3
  4
A4
  6

 40
6.043083190917968
 41
6.720414161682128
 42
7.821090698242187
 43
5.027069091796875
 44
210.0579986572266
 45
296.9259948730469
 46
0.0
 47
0.0
 48
0.0
 49
0.0
140
0.0
141
0.0
142
1.0
143
2.498709976243107
 70
 11952
 72
     1
 73
     0
 74
     1
  7
CNC-Soft.ctb
 75
     0
147
0.4002065103624121
 76
     0
 77
     2
 78
   300
148
0.0160205061733905
149
0.0226575730168861
100
AcDbLayout
  1
Model
 70
     1
 71
     0
 10
0.0
 20
0.0
 11
12.0
 21
9.0
 12
0.0
 22
0.0
 32
0.0
 14
0.0
 24
0.0
 34
0.0
 15
0.0
 25
0.0
 35
0.0
146
0.0
 13
0.0
 23
0.0
 33
0.0
 16
1.0
 26
0.0
 36
0.0
 17
0.0
 27
1.0
 37
0.0
 76
     0
330
2
331
2C
  0
MATERIAL
  5
43
102
{ACAD_XDICTIONARY
360
44
102
}
102
{ACAD_REACTORS
330
D
102
}
330
D
100
AcDbMaterial
  1
ByBlock
 72
     0
 43
0.0208333333333333
 43
0.0
 43
0.0
 43
0.0
 43
0.0
 43
0.0208333333333333
 43
0.0
 43
0.0
 43
0.0
 43
0.0
 43
1.0
 43
0.0
 43
0.0
 43
0.0
 43
0.0
 43
1.0
 77
     0
 47
0.0208333333333333
 47
0.0
 47
0.0
 47
0.0
 47
0.0
 47
0.0208333333333333
 47
0.0
 47
0.0
 47
0.0
 47
0.0
 47
1.0
 47
0.0
 47
0.0
 47
0.0
 47
0.0
 47
1.0
171
     0
 49
0.0208333333333333
 49
0.0
 49
0.0
 49
0.0
 49
0.0
 49
0.0208333333333333
 49
0.0
 49
0.0
 49
0.0
 49
0.0
 49
1.0
 49
0.0
 49
0.0
 49
0.0
 49
0.0
 49
1.0
175
     0
142
0.0208333333333333
142
0.0
142
0.0
142
0.0
142
0.0
142
0.0208333333333333
142
0.0
142
0.0
142
0.0
142
0.0
142
1.0
142
0.0
142
0.0
142
0.0
142
0.0
142
1.0
179
     0
144
0.0208333333333333
144
0.0
144
0.0
144
0.0
144
0.0
144
0.0208333333333333
144
0.0
144
0.0
144
0.0
144
0.0
144
1.0
144
0.0
144
0.0
144
0.0
144
0.0
144
1.0
147
0.0208333333333333
147
0.0
147
0.0
147
0.0
147
0.0
147
0.0208333333333333
147
0.0
147
0.0
147
0.0
147
0.0
147
1.0
147
0.0
147
0.0
147
0.0
147
0.0
147
1.0
  0
MATERIAL
  5
3B
102
{ACAD_XDICTIONARY
360
3C
102
}
102
{ACAD_REACTORS
330
D
102
}
330
D
100
AcDbMaterial
  1
ByLayer
 72
     0
 43
0.0208333333333333
 43
0.0
 43
0.0
 43
0.0
 43
0.0
 43
0.0208333333333333
 43
0.0
 43
0.0
 43
0.0
 43
0.0
 43
1.0
 43
0.0
 43
0.0
 43
0.0
 43
0.0
 43
1.0
 77
     0
 47
0.0208333333333333
 47
0.0
 47
0.0
 47
0.0
 47
0.0
 47
0.0208333333333333
 47
0.0
 47
0.0
 47
0.0
 47
0.0
 47
1.0
 47
0.0
 47
0.0
 47
0.0
 47
0.0
 47
1.0
171
     0
 49
0.0208333333333333
 49
0.0
 49
0.0
 49
0.0
 49
0.0
 49
0.0208333333333333
 49
0.0
 49
0.0
 49
0.0
 49
0.0
 49
1.0
 49
0.0
 49
0.0
 49
0.0
 49
0.0
 49
1.0
175
     0
142
0.0208333333333333
142
0.0
142
0.0
142
0.0
142
0.0
142
0.0208333333333333
142
0.0
142
0.0
142
0.0
142
0.0
142
1.0
142
0.0
142
0.0
142
0.0
142
0.0
142
1.0
179
     0
144
0.0208333333333333
144
0.0
144
0.0
144
0.0
144
0.0
144
0.0208333333333333
144
0.0
144
0.0
144
0.0
144
0.0
144
1.0
144
0.0
144
0.0
144
0.0
144
0.0
144
1.0
147
0.0208333333333333
147
0.0
147
0.0
147
0.0
147
0.0
147
0.0208333333333333
147
0.0
147
0.0
147
0.0
147
0.0
147
1.0
147
0.0
147
0.0
147
0.0
147
0.0
147
1.0
  0
MATERIAL
  5
C
102
{ACAD_XDICTIONARY
360
E
102
}
102
{ACAD_REACTORS
330
D
102
}
330
D
100
AcDbMaterial
  1
Global
 72
     0
 43
0.0208333333333333
 43
0.0
 43
0.0
 43
0.0
 43
0.0
 43
0.0208333333333333
 43
0.0
 43
0.0
 43
0.0
 43
0.0
 43
1.0
 43
0.0
 43
0.0
 43
0.0
 43
0.0
 43
1.0
 77
     0
 47
0.0208333333333333
 47
0.0
 47
0.0
 47
0.0
 47
0.0
 47
0.0208333333333333
 47
0.0
 47
0.0
 47
0.0
 47
0.0
 47
1.0
 47
0.0
 47
0.0
 47
0.0
 47
0.0
 47
1.0
171
     0
 49
0.0208333333333333
 49
0.0
 49
0.0
 49
0.0
 49
0.0
 49
0.0208333333333333
 49
0.0
 49
0.0
 49
0.0
 49
0.0
 49
1.0
 49
0.0
 49
0.0
 49
0.0
 49
0.0
 49
1.0
175
     0
142
0.0208333333333333
142
0.0
142
0.0
142
0.0
142
0.0
142
0.0208333333333333
142
0.0
142
0.0
142
0.0
142
0.0
142
1.0
142
0.0
142
0.0
142
0.0
142
0.0
142
1.0
179
     0
144
0.0208333333333333
144
0.0
144
0.0
144
0.0
144
0.0
144
0.0208333333333333
144
0.0
144
0.0
144
0.0
144
0.0
144
1.0
144
0.0
144
0.0
144
0.0
144
0.0
144
1.0
147
0.0208333333333333
147
0.0
147
0.0
147
0.0
147
0.0
147
0.0208333333333333
147
0.0
147
0.0
147
0.0
147
0.0
147
1.0
147
0.0
147
0.0
147
0.0
147
0.0
147
1.0
  0
MLINESTYLE
  5
52
102
{ACAD_REACTORS
330
39
102
}
330
39
100
AcDbMlineStyle
  2
STANDARD
 70
     0
  3

 62
   256
 51
90.0
 52
90.0
 71
     2
 49
0.5
 62
   256
  6
BYLAYER
 49
-0.5
 62
   256
  6
BYLAYER
  0
ACDBPLACEHOLDER
  5
9
102
{ACAD_REACTORS
330
A
102
}
330
A
  0
SCALE
  5
57
102
{ACAD_REACTORS
330
4C
102
}
330
4C
100
AcDbScale
 70
     0
300
1:1
140
1.0
141
1.0
290
     1
  0
SCALE
  5
58
102
{ACAD_REACTORS
330
4C
102
}
330
4C
100
AcDbScale
 70
     0
300
1:2
140
1.0
141
2.0
290
     0
  0
SCALE
  5
59
102
{ACAD_REACTORS
330
4C
102
}
330
4C
100
AcDbScale
 70
     0
300
1:4
140
1.0
141
4.0
290
     0
  0
SCALE
  5
5A
102
{ACAD_REACTORS
330
4C
102
}
330
4C
100
AcDbScale
 70
     0
300
1:5
140
1.0
141
5.0
290
     0
  0
SCALE
  5
5B
102
{ACAD_REACTORS
330
4C
102
}
330
4C
100
AcDbScale
 70
     0
300
1:8
140
1.0
141
8.0
290
     0
  0
SCALE
  5
5C
102
{ACAD_REACTORS
330
4C
102
}
330
4C
100
AcDbScale
 70
     0
300
1:10
140
1.0
141
10.0
290
     0
  0
SCALE
  5
5D
102
{ACAD_REACTORS
330
4C
102
}
330
4C
100
AcDbScale
 70
     0
300
1:16
140
1.0
141
16.0
290
     0
  0
SCALE
  5
5E
102
{ACAD_REACTORS
330
4C
102
}
330
4C
100
AcDbScale
 70
     0
300
1:20
140
1.0
141
20.0
290
     0
  0
SCALE
  5
5F
102
{ACAD_REACTORS
330
4C
102
}
330
4C
100
AcDbScale
 70
     0
300
1:30
140
1.0
141
30.0
290
     0
  0
SCALE
  5
60
102
{ACAD_REACTORS
330
4C
102
}
330
4C
100
AcDbScale
 70
     0
300
1:40
140
1.0
141
40.0
290
     0
  0
SCALE
  5
61
102
{ACAD_REACTORS
330
4C
102
}
330
4C
100
AcDbScale
 70
     0
300
1:50
140
1.0
141
50.0
290
     0
  0
SCALE
  5
62
102
{ACAD_REACTORS
330
4C
102
}
330
4C
100
AcDbScale
 70
     0
300
1:100
140
1.0
141
100.0
290
     0
  0
SCALE
  5
63
102
{ACAD_REACTORS
330
4C
102
}
330
4C
100
AcDbScale
 70
     0
300
2:1
140
2.0
141
1.0
290
     0
  0
SCALE
  5
64
102
{ACAD_REACTORS
330
4C
102
}
330
4C
100
AcDbScale
 70
     0
300
4:1
140
4.0
141
1.0
290
     0
  0
SCALE
  5
65
102
{ACAD_REACTORS
330
4C
102
}
330
4C
100
AcDbScale
 70
     0
300
8:1
140
8.0
141
1.0
290
     0
  0
SCALE
  5
66
102
{ACAD_REACTORS
330
4C
102
}
330
4C
100
AcDbScale
 70
     0
300
10:1
140
10.0
141
1.0
290
     0
  0
SCALE
  5
67
102
{ACAD_REACTORS
330
4C
102
}
330
4C
100
AcDbScale
 70
     0
300
100:1
140
100.0
141
1.0
290
     0
  0
SCALE
  5
68
102
{ACAD_REACTORS
330
4C
102
}
330
4C
100
AcDbScale
 70
     0
300
1/128" = 1'-0"
140
0.0078125
141
12.0
290
     0
  0
SCALE
  5
69
102
{ACAD_REACTORS
330
4C
102
}
330
4C
100
AcDbScale
 70
     0
300
1/64" = 1'-0"
140
0.015625
141
12.0
290
     0
  0
SCALE
  5
6A
102
{ACAD_REACTORS
330
4C
102
}
330
4C
100
AcDbScale
 70
     0
300
1/32" = 1'-0"
140
0.03125
141
12.0
290
     0
  0
SCALE
  5
6B
102
{ACAD_REACTORS
330
4C
102
}
330
4C
100
AcDbScale
 70
     0
300
1/16" = 1'-0"
140
0.0625
141
12.0
290
     0
  0
SCALE
  5
6C
102
{ACAD_REACTORS
330
4C
102
}
330
4C
100
AcDbScale
 70
     0
300
3/32" = 1'-0"
140
0.09375
141
12.0
290
     0
  0
SCALE
  5
6D
102
{ACAD_REACTORS
330
4C
102
}
330
4C
100
AcDbScale
 70
     0
300
1/8" = 1'-0"
140
0.125
141
12.0
290
     0
  0
SCALE
  5
6E
102
{ACAD_REACTORS
330
4C
102
}
330
4C
100
AcDbScale
 70
     0
300
3/16" = 1'-0"
140
0.1875
141
12.0
290
     0
  0
SCALE
  5
6F
102
{ACAD_REACTORS
330
4C
102
}
330
4C
100
AcDbScale
 70
     0
300
1/4" = 1'-0"
140
0.25
141
12.0
290
     0
  0
SCALE
  5
70
102
{ACAD_REACTORS
330
4C
102
}
330
4C
100
AcDbScale
 70
     0
300
3/8" = 1'-0"
140
0.375
141
12.0
290
     0
  0
SCALE
  5
71
102
{ACAD_REACTORS
330
4C
102
}
330
4C
100
AcDbScale
 70
     0
300
1/2" = 1'-0"
140
0.5
141
12.0
290
     0
  0
SCALE
  5
72
102
{ACAD_REACTORS
330
4C
102
}
330
4C
100
AcDbScale
 70
     0
300
3/4" = 1'-0"
140
0.75
141
12.0
290
     0
  0
SCALE
  5
73
102
{ACAD_REACTORS
330
4C
102
}
330
4C
100
AcDbScale
 70
     0
300
1" = 1'-0"
140
1.0
141
12.0
290
     0
  0
SCALE
  5
74
102
{ACAD_REACTORS
330
4C
102
}
330
4C
100
AcDbScale
 70
     0
300
1-1/2" = 1'-0"
140
1.5
141
12.0
290
     0
  0
SCALE
  5
75
102
{ACAD_REACTORS
330
4C
102
}
330
4C
100
AcDbScale
 70
     0
300
3" = 1'-0"
140
3.0
141
12.0
290
     0
  0
SCALE
  5
76
102
{ACAD_REACTORS
330
4C
102
}
330
4C
100
AcDbScale
 70
     0
300
6" = 1'-0"
140
6.0
141
12.0
290
     0
  0
SCALE
  5
77
102
{ACAD_REACTORS
330
4C
102
}
330
4C
100
AcDbScale
 70
     0
300
1'-0" = 1'-0"
140
12.0
141
12.0
290
     0
  0
TABLESTYLE
  5
53
102
{ACAD_XDICTIONARY
360
54
102
}
102
{ACAD_REACTORS
330
4D
102
}
330
4D
100
AcDbTableStyle
280
     0
  3
Standard
 70
     0
 71
     0
 40
1.5
 41
1.5
280
     0
281
     0
  7
STANDARD
140
4.5
170
     2
 62
     0
 63
     7
283
     0
 90
      512
 91
        0
  1

274
    -2
284
     1
 64
     0
275
    -2
285
     1
 65
     0
276
    -2
286
     1
 66
     0
277
    -2
287
     1
 67
     0
278
    -2
288
     1
 68
     0
279
    -2
289
     1
 69
     0
  7
STANDARD
140
6.0
170
     5
 62
     0
 63
     7
283
     0
 90
      512
 91
        0
  1

274
    -2
284
     1
 64
     0
275
    -2
285
     1
 65
     0
276
    -2
286
     1
 66
     0
277
    -2
287
     1
 67
     0
278
    -2
288
     1
 68
     0
279
    -2
289
     1
 69
     0
  7
STANDARD
140
4.5
170
     5
 62
     0
 63
     7
283
     0
 90
      512
 91
        0
  1

274
    -2
284
     1
 64
     0
275
    -2
285
     1
 65
     0
276
    -2
286
     1
 66
     0
277
    -2
287
     1
 67
     0
278
    -2
288
     1
 68
     0
279
    -2
289
     1
 69
     0
  0
VISUALSTYLE
  5
2D
102
{ACAD_REACTORS
330
2E
102
}
330
2E
100
AcDbVisualStyle
  2
2dWireframe
 70
     4
177
     2
291
     0
 71
     0
176
     1
 72
     2
176
     1
 73
     0
176
     1
 90
        0
176
     1
 40
0.6
176
     1
 41
30.0
176
     1
 63
     7
176
     1
 74
     1
176
     1
 91
        4
176
     1
 64
     7
176
     1
 65
   257
176
     1
 75
     1
176
     1
175
     1
176
     1
 42
1.0
176
     1
 92
        0
176
     1
 66
   257
176
     1
 43
1.0
176
     1
 76
     1
176
     1
 77
     6
176
     1
 78
     2
176
     1
 67
     7
176
     1
 79
     5
176
     1
170
     0
176
     1
171
     0
176
     1
290
     0
176
     1
 93
        1
176
     1
 44
0.0
176
     1
173
     0
176
     1
  0
VISUALSTYLE
  5
56
102
{ACAD_REACTORS
330
2E
102
}
330
2E
100
AcDbVisualStyle
  2
3dWireframe
 70
     5
177
     2
291
     0
 71
     0
176
     1
 72
     2
176
     1
 73
     0
176
     1
 90
        0
176
     1
 40
0.6
176
     1
 41
30.0
176
     1
 63
     7
176
     1
 74
     1
176
     1
 91
        4
176
     1
 64
     7
176
     1
 65
   257
176
     1
 75
     1
176
     1
175
     1
176
     1
 42
1.0
176
     1
 92
        0
176
     1
 66
   257
176
     1
 43
1.0
176
     1
 76
     1
176
     1
 77
     6
176
     1
 78
     2
176
     1
 67
     7
176
     1
 79
     5
176
     1
170
     0
176
     1
171
     0
176
     1
290
     0
176
     1
 93
        1
176
     1
 44
0.0
176
     1
173
     0
176
     1
  0
VISUALSTYLE
  5
55
102
{ACAD_REACTORS
330
2E
102
}
330
2E
100
AcDbVisualStyle
  2
Realistic
 70
     8
177
     2
291
     0
 71
     2
176
     1
 72
     2
176
     1
 73
     0
176
     1
 90
        0
176
     1
 40
0.6
176
     1
 41
30.0
176
     1
 63
     7
176
     1
 74
     1
176
     1
 91
        0
176
     1
 64
     7
176
     1
 65
   257
176
     1
 75
     1
176
     1
175
     1
176
     1
 42
1.0
176
     1
 92
        8
176
     1
 66
     8
176
     1
 43
1.0
176
     1
 76
     1
176
     1
 77
     6
176
     1
 78
     2
176
     1
 67
     7
176
     1
 79
     5
176
     1
170
     0
176
     1
171
     0
176
     1
290
     0
176
     1
 93
       13
176
     1
 44
0.0
176
     1
173
     0
176
     1
  0
DICTIONARYVAR
  5
2EA
102
{ACAD_REACTORS
330
2E6
102
}
330
2E6
100
DictionaryVariables
280
     0
  1
1:1
  0
DICTIONARYVAR
  5
2E8
102
{ACAD_REACTORS
330
2E6
102
}
330
2E6
100
DictionaryVariables
280
     0
  1
STANDARD
  0
DICTIONARYVAR
  5
2E7
102
{ACAD_REACTORS
330
2E6
102
}
330
2E6
100
DictionaryVariables
280
     0
  1
STANDARD
  0
DICTIONARYVAR
  5
2EC
102
{ACAD_REACTORS
330
2E6
102
}
330
2E6
100
DictionaryVariables
280
     0
  1
1
  0
DICTIONARYVAR
  5
2ED
102
{ACAD_REACTORS
330
2E6
102
}
330
2E6
100
DictionaryVariables
280
     0
  1
15
  0
DICTIONARYVAR
  5
2EB
102
{ACAD_REACTORS
330
2E6
102
}
330
2E6
100
DictionaryVariables
280
     0
  1
0
  0
DICTIONARYVAR
  5
2E9
102
{ACAD_REACTORS
330
2E6
102
}
330
2E6
100
DictionaryVariables
280
     0
  1
0
  0
DICTIONARY
  5
44
330
43
100
AcDbDictionary
280
     1
281
     1
  3
BUMPTILE
360
45
  3
DIFFUSETILE
360
46
  3
OPACITYTILE
360
47
  3
REFLECTIONTILE
360
48
  3
REFRACTIONTILE
360
49
  3
SPECULARTILE
360
4A
  0
DICTIONARY
  5
3C
330
3B
100
AcDbDictionary
280
     1
281
     1
  3
BUMPTILE
360
3D
  3
DIFFUSETILE
360
3E
  3
OPACITYTILE
360
3F
  3
REFLECTIONTILE
360
40
  3
REFRACTIONTILE
360
41
  3
SPECULARTILE
360
42
  0
DICTIONARY
  5
E
330
C
100
AcDbDictionary
280
     1
281
     1
  3
BUMPTILE
360
F
  3
DIFFUSETILE
360
10
  3
OPACITYTILE
360
11
  3
REFLECTIONTILE
360
12
  3
REFRACTIONTILE
360
13
  3
SPECULARTILE
360
14
  0
DICTIONARY
  5
54
330
53
100
AcDbDictionary
280
     1
281
     1
  3
ACAD_ROUNDTRIP_2008_TABLESTYLE_CELLSTYLEMAP
360
2EE
  0
XRECORD
  5
45
102
{ACAD_REACTORS
330
44
102
}
330
44
100
AcDbXrecord
280
     1
270
     1
271
     1
  0
XRECORD
  5
46
102
{ACAD_REACTORS
330
44
102
}
330
44
100
AcDbXrecord
280
     1
270
     1
271
     1
  0
XRECORD
  5
47
102
{ACAD_REACTORS
330
44
102
}
330
44
100
AcDbXrecord
280
     1
270
     1
271
     1
  0
XRECORD
  5
48
102
{ACAD_REACTORS
330
44
102
}
330
44
100
AcDbXrecord
280
     1
270
     1
271
     1
  0
XRECORD
  5
49
102
{ACAD_REACTORS
330
44
102
}
330
44
100
AcDbXrecord
280
     1
270
     1
271
     1
  0
XRECORD
  5
4A
102
{ACAD_REACTORS
330
44
102
}
330
44
100
AcDbXrecord
280
     1
270
     1
271
     1
  0
XRECORD
  5
3D
102
{ACAD_REACTORS
330
3C
102
}
330
3C
100
AcDbXrecord
280
     1
270
     1
271
     1
  0
XRECORD
  5
3E
102
{ACAD_REACTORS
330
3C
102
}
330
3C
100
AcDbXrecord
280
     1
270
     1
271
     1
  0
XRECORD
  5
3F
102
{ACAD_REACTORS
330
3C
102
}
330
3C
100
AcDbXrecord
280
     1
270
     1
271
     1
  0
XRECORD
  5
40
102
{ACAD_REACTORS
330
3C
102
}
330
3C
100
AcDbXrecord
280
     1
270
     1
271
     1
  0
XRECORD
  5
41
102
{ACAD_REACTORS
330
3C
102
}
330
3C
100
AcDbXrecord
280
     1
270
     1
271
     1
  0
XRECORD
  5
42
102
{ACAD_REACTORS
330
3C
102
}
330
3C
100
AcDbXrecord
280
     1
270
     1
271
     1
  0
XRECORD
  5
F
102
{ACAD_REACTORS
330
E
102
}
330
E
100
AcDbXrecord
280
     1
270
     1
271
     1
  0
XRECORD
  5
10
102
{ACAD_REACTORS
330
E
102
}
330
E
100
AcDbXrecord
280
     1
270
     1
271
     1
  0
XRECORD
  5
11
102
{ACAD_REACTORS
330
E
102
}
330
E
100
AcDbXrecord
280
     1
270
     1
271
     1
  0
XRECORD
  5
12
102
{ACAD_REACTORS
330
E
102
}
330
E
100
AcDbXrecord
280
     1
270
     1
271
     1
  0
XRECORD
  5
13
102
{ACAD_REACTORS
330
E
102
}
330
E
100
AcDbXrecord
280
     1
270
     1
271
     1
  0
XRECORD
  5
14
102
{ACAD_REACTORS
330
E
102
}
330
E
100
AcDbXrecord
280
     1
270
     1
271
     1
  0
CELLSTYLEMAP
  5
2EE
102
{ACAD_REACTORS
330
54
102
}
330
54
100
AcDbCellStyleMap
 90
        3
300
CELLSTYLE
  1
TABLEFORMAT_BEGIN
 90
        5
170
     1
 91
        0
 92
    32768
 62
   257
 93
        1
300
CONTENTFORMAT
  1
CONTENTFORMAT_BEGIN
 90
        0
 91
        0
 92
      512
 93
        0
300

 40
0.0
140
1.0
 94
        5
 62
     0
340
24
144
6.0
309
CONTENTFORMAT_END
171
     1
301
MARGIN
  1
CELLMARGIN_BEGIN
 40
1.5
 40
1.5
 40
1.5
 40
1.5
 40
4.5
 40
4.5
309
CELLMARGIN_END
 94
        6
 95
        1
302
GRIDFORMAT
  1
GRIDFORMAT_BEGIN
 90
        0
 91
        1
 62
     0
 92
       -2
340
0
 93
        0
 40
1.125
309
GRIDFORMAT_END
 95
        2
302
GRIDFORMAT
  1
GRIDFORMAT_BEGIN
 90
        0
 91
        1
 62
     0
 92
       -2
340
0
 93
        0
 40
1.125
309
GRIDFORMAT_END
 95
        4
302
GRIDFORMAT
  1
GRIDFORMAT_BEGIN
 90
        0
 91
        1
 62
     0
 92
       -2
340
0
 93
        0
 40
1.125
309
GRIDFORMAT_END
 95
        8
302
GRIDFORMAT
  1
GRIDFORMAT_BEGIN
 90
        0
 91
        1
 62
     0
 92
       -2
340
0
 93
        0
 40
1.125
309
GRIDFORMAT_END
 95
       16
302
GRIDFORMAT
  1
GRIDFORMAT_BEGIN
 90
        0
 91
        1
 62
     0
 92
       -2
340
0
 93
        0
 40
1.125
309
GRIDFORMAT_END
 95
       32
302
GRIDFORMAT
  1
GRIDFORMAT_BEGIN
 90
        0
 91
        1
 62
     0
 92
       -2
340
0
 93
        0
 40
1.125
309
GRIDFORMAT_END
309
TABLEFORMAT_END
  1
CELLSTYLE_BEGIN
 90
        1
 91
        1
300
_TITLE
309
CELLSTYLE_END
300
CELLSTYLE
  1
TABLEFORMAT_BEGIN
 90
        5
170
     1
 91
        0
 92
        0
 62
   257
 93
        1
300
CONTENTFORMAT
  1
CONTENTFORMAT_BEGIN
 90
        0
 91
        0
 92
      512
 93
        0
300

 40
0.0
140
1.0
 94
        5
 62
     0
340
24
144
4.5
309
CONTENTFORMAT_END
171
     1
301
MARGIN
  1
CELLMARGIN_BEGIN
 40
1.5
 40
1.5
 40
1.5
 40
1.5
 40
4.5
 40
4.5
309
CELLMARGIN_END
 94
        6
 95
        1
302
GRIDFORMAT
  1
GRIDFORMAT_BEGIN
 90
        0
 91
        1
 62
     0
 92
       -2
340
0
 93
        0
 40
1.125
309
GRIDFORMAT_END
 95
        2
302
GRIDFORMAT
  1
GRIDFORMAT_BEGIN
 90
        0
 91
        1
 62
     0
 92
       -2
340
0
 93
        0
 40
1.125
309
GRIDFORMAT_END
 95
        4
302
GRIDFORMAT
  1
GRIDFORMAT_BEGIN
 90
        0
 91
        1
 62
     0
 92
       -2
340
0
 93
        0
 40
1.125
309
GRIDFORMAT_END
 95
        8
302
GRIDFORMAT
  1
GRIDFORMAT_BEGIN
 90
        0
 91
        1
 62
     0
 92
       -2
340
0
 93
        0
 40
1.125
309
GRIDFORMAT_END
 95
       16
302
GRIDFORMAT
  1
GRIDFORMAT_BEGIN
 90
        0
 91
        1
 62
     0
 92
       -2
340
0
 93
        0
 40
1.125
309
GRIDFORMAT_END
 95
       32
302
GRIDFORMAT
  1
GRIDFORMAT_BEGIN
 90
        0
 91
        1
 62
     0
 92
       -2
340
0
 93
        0
 40
1.125
309
GRIDFORMAT_END
309
TABLEFORMAT_END
  1
CELLSTYLE_BEGIN
 90
        2
 91
        1
300
_HEADER
309
CELLSTYLE_END
300
CELLSTYLE
  1
TABLEFORMAT_BEGIN
 90
        5
170
     1
 91
        0
 92
        0
 62
   257
 93
        1
300
CONTENTFORMAT
  1
CONTENTFORMAT_BEGIN
 90
        0
 91
        0
 92
      512
 93
        0
300

 40
0.0
140
1.0
 94
        2
 62
     0
340
24
144
4.5
309
CONTENTFORMAT_END
171
     1
301
MARGIN
  1
CELLMARGIN_BEGIN
 40
1.5
 40
1.5
 40
1.5
 40
1.5
 40
4.5
 40
4.5
309
CELLMARGIN_END
 94
        6
 95
        1
302
GRIDFORMAT
  1
GRIDFORMAT_BEGIN
 90
        0
 91
        1
 62
     0
 92
       -2
340
0
 93
        0
 40
1.125
309
GRIDFORMAT_END
 95
        2
302
GRIDFORMAT
  1
GRIDFORMAT_BEGIN
 90
        0
 91
        1
 62
     0
 92
       -2
340
0
 93
        0
 40
1.125
309
GRIDFORMAT_END
 95
        4
302
GRIDFORMAT
  1
GRIDFORMAT_BEGIN
 90
        0
 91
        1
 62
     0
 92
       -2
340
0
 93
        0
 40
1.125
309
GRIDFORMAT_END
 95
        8
302
GRIDFORMAT
  1
GRIDFORMAT_BEGIN
 90
        0
 91
        1
 62
     0
 92
       -2
340
0
 93
        0
 40
1.125
309
GRIDFORMAT_END
 95
       16
302
GRIDFORMAT
  1
GRIDFORMAT_BEGIN
 90
        0
 91
        1
 62
     0
 92
       -2
340
0
 93
        0
 40
1.125
309
GRIDFORMAT_END
 95
       32
302
GRIDFORMAT
  1
GRIDFORMAT_BEGIN
 90
        0
 91
        1
 62
     0
 92
       -2
340
0
 93
        0
 40
1.125
309
GRIDFORMAT_END
309
TABLEFORMAT_END
  1
CELLSTYLE_BEGIN
 90
        3
 91
        2
300
_DATA
309
CELLSTYLE_END
  0
ENDSEC
  0
EOF
