  0
SECTION
  2
HEADER
  9
$ACADVER
  1
AC1024
  9
$ACADMAINTVER
 70
     6
  9
$DWGCODEPAGE
  3
ANSI_1252
  9
$INSBASE
 10
0.0
 20
0.0
 30
0.0
  9
$EXTMIN
 10
0.0
 20
0.0
 30
0.0
  9
$EXTMAX
 10
420.0
 20
594.0
 30
0.0
  9
$LIMMIN
 10
0.0
 20
0.0
  9
$LIMMAX
 10
420.0
 20
594.0
  9
$ORTHOMODE
 70
     1
  9
$REGENMODE
 70
     1
  9
$FILLMODE
 70
     1
  9
$QTEXTMODE
 70
     0
  9
$MIRRTEXT
 70
     1
  9
$LTSCALE
 40
15.0
  9
$ATTMODE
 70
     1
  9
$TEXTSIZE
 40
2.5
  9
$TRACEWID
 40
1.0
  9
$TEXTSTYLE
  7
Standard
  9
$CLAYER
  8
09-01
  9
$CELTYPE
  6
ByLayer
  9
$CECOLOR
 62
   256
  9
$CELTSCALE
 40
1.0
  9
$DISPSILH
 70
     0
  9
$DIMSCALE
 40
2.0
  9
$DIMASZ
 40
2.5
  9
$DIMEXO
 40
1.0
  9
$DIMDLI
 40
10.0
  9
$DIMRND
 40
0.0
  9
$DIMDLE
 40
0.0
  9
$DIMEXE
 40
1.0
  9
$DIMTP
 40
0.0
  9
$DIMTM
 40
0.0
  9
$DIMTXT
 40
2.5
  9
$DIMCEN
 40
0.0
  9
$DIMTSZ
 40
0.0
  9
$DIMTOL
 70
     0
  9
$DIMLIM
 70
     0
  9
$DIMTIH
 70
     0
  9
$DIMTOH
 70
     0
  9
$DIMSE1
 70
     0
  9
$DIMSE2
 70
     0
  9
$DIMTAD
 70
     1
  9
$DIMZIN
 70
     8
  9
$DIMBLK
  1

  9
$DIMASO
 70
     1
  9
$DIMSHO
 70
     1
  9
$DIMPOST
  1

  9
$DIMAPOST
  1

  9
$DIMALT
 70
     0
  9
$DIMALTD
 70
     3
  9
$DIMALTF
 40
0.03937007874016
  9
$DIMLFAC
 40
1.0
  9
$DIMTOFL
 70
     1
  9
$DIMTVP
 40
0.0
  9
$DIMTIX
 70
     0
  9
$DIMSOXD
 70
     0
  9
$DIMSAH
 70
     0
  9
$DIMBLK1
  1

  9
$DIMBLK2
  1

  9
$DIMSTYLE
  2
Wagner
  9
$DIMCLRD
 70
     4
  9
$DIMCLRE
 70
     4
  9
$DIMCLRT
 70
     1
  9
$DIMTFAC
 40
1.0
  9
$DIMGAP
 40
1.0
  9
$DIMJUST
 70
     0
  9
$DIMSD1
 70
     0
  9
$DIMSD2
 70
     0
  9
$DIMTOLJ
 70
     0
  9
$DIMTZIN
 70
     8
  9
$DIMALTZ
 70
     0
  9
$DIMALTTZ
 70
     0
  9
$DIMUPT
 70
     0
  9
$DIMDEC
 70
     8
  9
$DIMTDEC
 70
     8
  9
$DIMALTU
 70
     2
  9
$DIMALTTD
 70
     3
  9
$DIMTXSTY
  7
Standard
  9
$DIMAUNIT
 70
     0
  9
$DIMADEC
 70
     2
  9
$DIMALTRND
 40
0.0
  9
$DIMAZIN
 70
     2
  9
$DIMDSEP
 70
    46
  9
$DIMATFIT
 70
     3
  9
$DIMFRAC
 70
     0
  9
$DIMLDRBLK
  1

  9
$DIMLUNIT
 70
     2
  9
$DIMLWD
 70
    -2
  9
$DIMLWE
 70
    -2
  9
$DIMTMOVE
 70
     0
  9
$DIMFXL
 40
1.0
  9
$DIMFXLON
 70
     0
  9
$DIMJOGANG
 40
0.7853981633974483
  9
$DIMTFILL
 70
     0
  9
$DIMTFILLCLR
 70
     0
  9
$DIMARCSYM
 70
     0
  9
$DIMLTYPE
  6

  9
$DIMLTEX1
  6

  9
$DIMLTEX2
  6

  9
$DIMTXTDIRECTION
 70
     0
  9
$LUNITS
 70
     2
  9
$LUPREC
 70
     4
  9
$SKETCHINC
 40
1.0
  9
$FILLETRAD
 40
0.0
  9
$AUNITS
 70
     0
  9
$AUPREC
 70
     0
  9
$MENU
  1
.
  9
$ELEVATION
 40
0.0
  9
$PELEVATION
 40
0.0
  9
$THICKNESS
 40
0.0
  9
$LIMCHECK
 70
     0
  9
$CHAMFERA
 40
0.0
  9
$CHAMFERB
 40
0.0
  9
$CHAMFERC
 40
20.0
  9
$CHAMFERD
 40
0.0
  9
$SKPOLY
 70
     0
  9
$TDCREATE
 40
2454246.368235972
  9
$TDUCREATE
 40
2454246.284902639
  9
$TDUPDATE
 40
2456126.471518079
  9
$TDUUPDATE
 40
2456126.388184745
  9
$TDINDWG
 40
0.7725036227
  9
$TDUSRTIMER
 40
0.7725036227
  9
$USRTIMER
 70
     1
  9
$ANGBASE
 50
0.0
  9
$ANGDIR
 70
     0
  9
$PDMODE
 70
     0
  9
$PDSIZE
 40
0.0
  9
$PLINEWID
 40
0.0
  9
$SPLFRAME
 70
     0
  9
$SPLINETYPE
 70
     6
  9
$SPLINESEGS
 70
     8
  9
$HANDSEED
  5
255
  9
$SURFTAB1
 70
     6
  9
$SURFTAB2
 70
     6
  9
$SURFTYPE
 70
     6
  9
$SURFU
 70
     6
  9
$SURFV
 70
     6
  9
$UCSBASE
  2

  9
$UCSNAME
  2

  9
$UCSORG
 10
0.0
 20
0.0
 30
0.0
  9
$UCSXDIR
 10
1.0
 20
0.0
 30
0.0
  9
$UCSYDIR
 10
0.0
 20
1.0
 30
0.0
  9
$UCSORTHOREF
  2

  9
$UCSORTHOVIEW
 70
     0
  9
$UCSORGTOP
 10
0.0
 20
0.0
 30
0.0
  9
$UCSORGBOTTOM
 10
0.0
 20
0.0
 30
0.0
  9
$UCSORGLEFT
 10
0.0
 20
0.0
 30
0.0
  9
$UCSORGRIGHT
 10
0.0
 20
0.0
 30
0.0
  9
$UCSORGFRONT
 10
0.0
 20
0.0
 30
0.0
  9
$UCSORGBACK
 10
0.0
 20
0.0
 30
0.0
  9
$PUCSBASE
  2

  9
$PUCSNAME
  2

  9
$PUCSORG
 10
0.0
 20
0.0
 30
0.0
  9
$PUCSXDIR
 10
1.0
 20
0.0
 30
0.0
  9
$PUCSYDIR
 10
0.0
 20
1.0
 30
0.0
  9
$PUCSORTHOREF
  2

  9
$PUCSORTHOVIEW
 70
     0
  9
$PUCSORGTOP
 10
0.0
 20
0.0
 30
0.0
  9
$PUCSORGBOTTOM
 10
0.0
 20
0.0
 30
0.0
  9
$PUCSORGLEFT
 10
0.0
 20
0.0
 30
0.0
  9
$PUCSORGRIGHT
 10
0.0
 20
0.0
 30
0.0
  9
$PUCSORGFRONT
 10
0.0
 20
0.0
 30
0.0
  9
$PUCSORGBACK
 10
0.0
 20
0.0
 30
0.0
  9
$USERI1
 70
     0
  9
$USERI2
 70
     0
  9
$USERI3
 70
     0
  9
$USERI4
 70
     0
  9
$USERI5
 70
     0
  9
$USERR1
 40
0.0
  9
$USERR2
 40
0.0
  9
$USERR3
 40
0.0
  9
$USERR4
 40
0.0
  9
$USERR5
 40
0.0
  9
$WORLDVIEW
 70
     1
  9
$SHADEDGE
 70
     3
  9
$SHADEDIF
 70
    70
  9
$TILEMODE
 70
     1
  9
$MAXACTVP
 70
    64
  9
$PINSBASE
 10
0.0
 20
0.0
 30
0.0
  9
$PLIMCHECK
 70
     0
  9
$PEXTMIN
 10
1.000000000000000E+20
 20
1.000000000000000E+20
 30
1.000000000000000E+20
  9
$PEXTMAX
 10
-1.000000000000000E+20
 20
-1.000000000000000E+20
 30
-1.000000000000000E+20
  9
$PLIMMIN
 10
0.0
 20
0.0
  9
$PLIMMAX
 10
420.0
 20
297.0
  9
$UNITMODE
 70
     0
  9
$VISRETAIN
 70
     1
  9
$PLINEGEN
 70
     0
  9
$PSLTSCALE
 70
     1
  9
$TREEDEPTH
 70
  3020
  9
$CMLSTYLE
  2
Standard
  9
$CMLJUST
 70
     0
  9
$CMLSCALE
 40
20.0
  9
$PROXYGRAPHICS
 70
     1
  9
$MEASUREMENT
 70
     1
  9
$CELWEIGHT
370
    -1
  9
$ENDCAPS
280
     0
  9
$JOINSTYLE
280
     0
  9
$LWDISPLAY
290
     0
  9
$INSUNITS
 70
     4
  9
$HYPERLINKBASE
  1

  9
$STYLESHEET
  1

  9
$XEDIT
290
     1
  9
$CEPSNTYPE
380
     0
  9
$PSTYLEMODE
290
     1
  9
$FINGERPRINTGUID
  2
{EE5D802D-508A-44BB-A2A7-3482052F015D}
  9
$VERSIONGUID
  2
{3D8F5A93-89D0-4538-B300-3776CC6F4E14}
  9
$EXTNAMES
290
     1
  9
$PSVPSCALE
 40
0.0
  9
$OLESTARTUP
290
     0
  9
$SORTENTS
280
   127
  9
$INDEXCTL
280
     0
  9
$HIDETEXT
280
     1
  9
$XCLIPFRAME
280
     0
  9
$HALOGAP
280
     0
  9
$OBSCOLOR
 70
   257
  9
$OBSLTYPE
280
     0
  9
$INTERSECTIONDISPLAY
280
     0
  9
$INTERSECTIONCOLOR
 70
   257
  9
$DIMASSOC
280
     1
  9
$PROJECTNAME
  1

  9
$CAMERADISPLAY
290
     0
  9
$LENSLENGTH
 40
50.0
  9
$CAMERAHEIGHT
 40
0.0
  9
$STEPSPERSEC
 40
2.0
  9
$STEPSIZE
 40
6.0
  9
$3DDWFPREC
 40
2.0
  9
$PSOLWIDTH
 40
0.25
  9
$PSOLHEIGHT
 40
4.0
  9
$LOFTANG1
 40
1.570796326794896
  9
$LOFTANG2
 40
1.570796326794896
  9
$LOFTMAG1
 40
0.0
  9
$LOFTMAG2
 40
0.0
  9
$LOFTPARAM
 70
     7
  9
$LOFTNORMALS
280
     1
  9
$LATITUDE
 40
37.795
  9
$LONGITUDE
 40
-122.394
  9
$NORTHDIRECTION
 40
0.0
  9
$TIMEZONE
 70
 -8000
  9
$LIGHTGLYPHDISPLAY
280
     1
  9
$TILEMODELIGHTSYNCH
280
     1
  9
$CMATERIAL
347
39
  9
$SOLIDHIST
280
     1
  9
$SHOWHIST
280
     1
  9
$DWFFRAME
280
     2
  9
$DGNFRAME
280
     0
  9
$REALWORLDSCALE
290
     1
  9
$INTERFERECOLOR
 62
     1
  9
$INTERFEREOBJVS
345
53
  9
$INTERFEREVPVS
346
54
  9
$CSHADOW
280
     0
  9
$SHADOWPLANELOCATION
 40
0.0
  0
ENDSEC
  0
SECTION
  2
CLASSES
  0
CLASS
  1
ACDBDICTIONARYWDFLT
  2
AcDbDictionaryWithDefault
  3
ObjectDBX Classes
 90
        0
 91
        1
280
     0
281
     0
  0
CLASS
  1
MATERIAL
  2
AcDbMaterial
  3
ObjectDBX Classes
 90
     1153
 91
        3
280
     0
281
     0
  0
CLASS
  1
VISUALSTYLE
  2
AcDbVisualStyle
  3
ObjectDBX Classes
 90
     4095
 91
        3
280
     0
281
     0
  0
CLASS
  1
TABLESTYLE
  2
AcDbTableStyle
  3
ObjectDBX Classes
 90
     4095
 91
        1
280
     0
281
     0
  0
CLASS
  1
SCALE
  2
AcDbScale
  3
ObjectDBX Classes
 90
     1153
 91
       33
280
     0
281
     0
  0
CLASS
  1
MLEADERSTYLE
  2
AcDbMLeaderStyle
  3
ACDB_MLEADERSTYLE_CLASS
 90
     4095
 91
        0
280
     0
281
     0
  0
CLASS
  1
SORTENTSTABLE
  2
AcDbSortentsTable
  3
ObjectDBX Classes
 90
        0
 91
        4
280
     0
281
     0
  0
CLASS
  1
CELLSTYLEMAP
  2
AcDbCellStyleMap
  3
ObjectDBX Classes
 90
     1152
 91
        1
280
     0
281
     0
  0
CLASS
  1
DICTIONARYVAR
  2
AcDbDictionaryVar
  3
ObjectDBX Classes
 90
        0
 91
        7
280
     0
281
     0
  0
CLASS
  1
DIMASSOC
  2
AcDbDimAssoc
  3
"AcDbDimAssoc|Product Desc:     AcDim ARX App For Dimension|Company:          Autodesk, Inc.|WEB Address:      www.autodesk.com"
 90
        0
 91
        0
280
     0
281
     0
  0
CLASS
  1
ACAD_TABLE
  2
AcDbTable
  3
ObjectDBX Classes
 90
     1025
 91
        0
280
     0
281
     1
  0
CLASS
  1
TABLECONTENT
  2
AcDbTableContent
  3
ObjectDBX Classes
 90
     1152
 91
        0
280
     0
281
     0
  0
CLASS
  1
TABLEGEOMETRY
  2
AcDbTableGeometry
  3
ObjectDBX Classes
 90
     1152
 91
        0
280
     0
281
     0
  0
CLASS
  1
SOLID_BACKGROUND
  2
AcDbSolidBackground
  3
SCENEOE
 90
     4095
 91
        0
280
     0
281
     0
  0
CLASS
  1
NPOCOLLECTION
  2
AcDbImpNonPersistentObjectsCollection
  3
ObjectDBX Classes
 90
     1153
 91
        0
280
     0
281
     0
  0
ENDSEC
  0
SECTION
  2
TABLES
  0
TABLE
  2
VPORT
  5
2B
330
0
100
AcDbSymbolTable
 70
     1
  0
VPORT
  5
2C
330
2B
100
AcDbSymbolTableRecord
100
AcDbViewportTableRecord
  2
*Active
 70
     0
 10
0.0
 20
0.0
 11
1.0
 21
1.0
 12
257.3644422863529
 22
235.3357115785513
 13
0.0
 23
0.0
 14
10.0
 24
10.0
 15
10.0
 25
10.0
 16
0.0
 26
0.0
 36
1.0
 17
0.0
 27
0.0
 37
0.0
 40
988.8171522437788
 41
1.937738246505718
 42
50.0
 43
0.0
 44
0.0
 50
0.0
 51
0.0
 71
     0
 72
  1000
 73
     1
 74
     0
 75
     0
 76
     0
 77
     0
 78
     0
281
     0
 65
     1
110
0.0
120
0.0
130
0.0
111
1.0
121
0.0
131
0.0
112
0.0
122
1.0
132
0.0
 79
     0
146
0.0
348
2D
 60
     3
 61
     5
292
     1
282
     1
141
0.0
142
0.0
 63
   250
421
  3355443
  0
ENDTAB
  0
TABLE
  2
LTYPE
  5
26
330
0
100
AcDbSymbolTable
 70
     4
  0
LTYPE
  5
27
330
26
100
AcDbSymbolTableRecord
100
AcDbLinetypeTableRecord
  2
ByBlock
 70
     0
  3

 72
    65
 73
     0
 40
0.0
  0
LTYPE
  5
28
330
26
100
AcDbSymbolTableRecord
100
AcDbLinetypeTableRecord
  2
ByLayer
 70
     0
  3

 72
    65
 73
     0
 40
0.0
  0
LTYPE
  5
15
330
26
100
AcDbSymbolTableRecord
100
AcDbLinetypeTableRecord
  2
Continuous
 70
     0
  3
Solid line
 72
    65
 73
     0
 40
0.0
  0
LTYPE
  5
AB
330
26
100
AcDbSymbolTableRecord
100
AcDbLinetypeTableRecord
  2
STRICHPUNKT
 70
     0
  3
Strichpunkt __ . __ . __ . __ . __ . __ . __ . 
 72
    65
 73
     4
 40
1.0
 49
0.5
 74
     0
 49
-0.25
 74
     0
 49
0.0
 74
     0
 49
-0.25
 74
     0
  0
LTYPE
  5
A6
330
26
100
AcDbSymbolTableRecord
100
AcDbLinetypeTableRecord
  2
VERDECKT
 70
     0
  3
Verdeckt __ __ __ __ __ __ __ __ __ __ __ __ __
 72
    65
 73
     2
 40
0.375
 49
0.25
 74
     0
 49
-0.125
 74
     0
  0
LTYPE
  5
CB
330
26
100
AcDbSymbolTableRecord
100
AcDbLinetypeTableRecord
  2
AUSGEZOGEN
 70
     0
  3
Ausgezogene Linie
 72
    65
 73
     0
 40
0.0
  0
ENDTAB
  0
TABLE
  2
LAYER
  5
1D
102
{ACAD_XDICTIONARY
360
1E
102
}
330
0
100
AcDbSymbolTable
 70
    11
  0
LAYER
  5
6
102
{ACAD_XDICTIONARY
360
7
102
}
330
1D
100
AcDbSymbolTableRecord
100
AcDbLayerTableRecord
  2
0
 70
     0
 62
     7
  6
Continuous
370
    -3
390
9
347
C
  0
LAYER
  5
A8
102
{ACAD_XDICTIONARY
360
A9
102
}
330
1D
100
AcDbSymbolTableRecord
100
AcDbLayerTableRecord
  2
05-01
 70
     0
 62
     1
  6
STRICHPUNKT
370
    -3
390
9
347
C
  0
LAYER
  5
180
102
{ACAD_XDICTIONARY
360
181
102
}
330
1D
100
AcDbSymbolTableRecord
100
AcDbLayerTableRecord
  2
01-01
 70
     0
 62
     2
  6
Continuous
370
    -3
390
9
347
C
  0
LAYER
  5
A3
102
{ACAD_XDICTIONARY
360
A4
102
}
330
1D
100
AcDbSymbolTableRecord
100
AcDbLayerTableRecord
  2
03-01
 70
     0
 62
     3
  6
VERDECKT
370
    -3
390
9
347
C
  0
LAYER
  5
4D
102
{ACAD_XDICTIONARY
360
4E
102
}
330
1D
100
AcDbSymbolTableRecord
100
AcDbLayerTableRecord
  2
09-01
 70
     0
 62
     7
  6
Continuous
370
    -3
390
9
347
C
  0
LAYER
  5
C2
102
{ACAD_XDICTIONARY
360
C3
102
}
330
1D
100
AcDbSymbolTableRecord
100
AcDbLayerTableRecord
  2
01-99
 70
     0
 62
     2
  6
Continuous
370
    -3
390
9
347
C
  0
LAYER
  5
100
102
{ACAD_XDICTIONARY
360
101
102
}
330
1D
100
AcDbSymbolTableRecord
100
AcDbLayerTableRecord
  2
06-99
 70
     0
 62
     1
  6
AUSGEZOGEN
370
    -3
390
9
347
C
  0
LAYER
  5
C8
102
{ACAD_XDICTIONARY
360
C9
102
}
330
1D
100
AcDbSymbolTableRecord
100
AcDbLayerTableRecord
  2
02-99
 70
     0
 62
     1
  6
AUSGEZOGEN
370
    -3
390
9
347
C
  0
LAYER
  5
EA
102
{ACAD_XDICTIONARY
360
EB
102
}
330
1D
100
AcDbSymbolTableRecord
100
AcDbLayerTableRecord
  2
08-99
 70
     0
 62
     7
  6
Continuous
370
    -3
390
9
347
C
  0
LAYER
  5
83
330
1D
100
AcDbSymbolTableRecord
100
AcDbLayerTableRecord
  2
Defpoints
 70
     0
 62
     7
  6
Continuous
290
     0
370
    -3
390
9
347
C
  0
LAYER
  5
1D0
102
{ACAD_XDICTIONARY
360
1D1
102
}
330
1D
100
AcDbSymbolTableRecord
100
AcDbLayerTableRecord
  2
02-01
 70
     0
 62
     1
  6
Continuous
370
    -3
390
9
347
C
  0
ENDTAB
  0
TABLE
  2
STYLE
  5
23
330
0
100
AcDbSymbolTable
 70
     3
  0
STYLE
  5
24
330
23
100
AcDbSymbolTableRecord
100
AcDbTextStyleTableRecord
  2
Standard
 70
     0
 40
0.0
 41
1.0
 50
0.0
 71
     0
 42
2.5
  3
txt
  4

  0
STYLE
  5
ED
330
23
100
AcDbSymbolTableRecord
100
AcDbTextStyleTableRecord
  2
ROMANS8
 70
     0
 40
0.0
 41
1.0
 50
0.0
 71
     0
 42
2.5
  3
ROMANS8
  4

  0
STYLE
  5
113
330
23
100
AcDbSymbolTableRecord
100
AcDbTextStyleTableRecord
  2
ROMAND8
 70
     0
 40
0.0
 41
1.0
 50
0.0
 71
     0
 42
3.5
  3
ROMAND8
  4

  0
ENDTAB
  0
TABLE
  2
VIEW
  5
29
330
0
100
AcDbSymbolTable
 70
     0
  0
ENDTAB
  0
TABLE
  2
UCS
  5
2A
330
0
100
AcDbSymbolTable
 70
     0
  0
ENDTAB
  0
TABLE
  2
APPID
  5
2F
330
0
100
AcDbSymbolTable
 70
     4
  0
APPID
  5
22
330
2F
100
AcDbSymbolTableRecord
100
AcDbRegAppTableRecord
  2
ACAD
 70
     0
  0
APPID
  5
32
330
2F
100
AcDbSymbolTableRecord
100
AcDbRegAppTableRecord
  2
ACAD_DSTYLE_DIMJOGGED_JOGANGLE_SYMBOL
 70
     0
  0
APPID
  5
33
330
2F
100
AcDbSymbolTableRecord
100
AcDbRegAppTableRecord
  2
ACAD_DSTYLE_DIMJAG
 70
     0
  0
APPID
  5
34
330
2F
100
AcDbSymbolTableRecord
100
AcDbRegAppTableRecord
  2
ACAD_DSTYLE_DIMTALN
 70
     0
  0
ENDTAB
  0
TABLE
  2
DIMSTYLE
  5
30
330
0
100
AcDbSymbolTable
 70
     2
100
AcDbDimStyleTable
 71
     1
340
31
  0
DIMSTYLE
105
31
330
30
100
AcDbSymbolTableRecord
100
AcDbDimStyleTableRecord
  2
Wagner
 70
     0
 41
2.5
 42
1.0
 43
10.0
 44
1.0
 73
     0
 74
     0
 77
     1
 78
     8
 79
     2
140
2.5
141
0.0
143
0.03937007874016
147
1.0
171
     3
172
     1
176
     4
177
     4
178
     1
179
     2
271
     8
272
     8
274
     3
283
     0
284
     8
340
24
1001
ACAD_DSTYLE_DIMJOGGED_JOGANGLE_SYMBOL
1070
   384
1040
0.7853981633974483
1001
ACAD_DSTYLE_DIMJAG
1070
   388
1040
1.5
1001
ACAD_DSTYLE_DIMTALN
1070
   392
1070
     0
  0
DIMSTYLE
105
87
102
{ACAD_REACTORS
330
220
330
209
330
1FC
330
1EF
330
1B5
330
1A8
330
19B
330
18E
330
16C
330
15D
330
14E
330
141
330
AD
330
95
330
88
330
77
102
}
330
30
100
AcDbSymbolTableRecord
100
AcDbDimStyleTableRecord
  2
Wagner$0
 70
     0
 41
2.5
 42
1.0
 43
10.0
 44
1.0
 73
     0
 74
     0
 77
     1
 78
     8
 79
     2
140
2.5
141
0.0
143
0.03937007874016
147
1.0
171
     3
172
     1
174
     1
176
     4
177
     4
178
     1
179
     2
271
     8
272
     8
274
     3
279
     2
283
     0
284
     8
340
24
1001
ACAD_DSTYLE_DIMJOGGED_JOGANGLE_SYMBOL
1070
   384
1040
0.7853981633974483
1001
ACAD_DSTYLE_DIMJAG
1070
   388
1040
1.5
1001
ACAD_DSTYLE_DIMTALN
1070
   392
1070
     0
  0
ENDTAB
  0
TABLE
  2
BLOCK_RECORD
  5
1
330
0
100
AcDbSymbolTable
 70
    17
  0
BLOCK_RECORD
  5
2
102
{ACAD_XDICTIONARY
360
3
102
}
330
1
100
AcDbSymbolTableRecord
100
AcDbBlockTableRecord
  2
*Model_Space
340
17
 70
     0
280
     1
281
     0
  0
BLOCK_RECORD
  5
19
330
1
100
AcDbSymbolTableRecord
100
AcDbBlockTableRecord
  2
*Paper_Space
340
1C
 70
     0
280
     1
281
     0
  0
BLOCK_RECORD
  5
BD
102
{ACAD_XDICTIONARY
360
BE
102
}
330
1
100
AcDbSymbolTableRecord
100
AcDbBlockTableRecord
  2
DIN A4
340
0
102
{BLKREFS
331
BC
102
}
 70
     4
280
     1
281
     0
  0
BLOCK_RECORD
  5
221
330
1
100
AcDbSymbolTableRecord
100
AcDbBlockTableRecord
  2
*D1
340
0
 70
     0
280
     1
281
     0
  0
BLOCK_RECORD
  5
20A
330
1
100
AcDbSymbolTableRecord
100
AcDbBlockTableRecord
  2
*D2
340
0
 70
     0
280
     1
281
     0
  0
BLOCK_RECORD
  5
1FD
330
1
100
AcDbSymbolTableRecord
100
AcDbBlockTableRecord
  2
*D3
340
0
 70
     0
280
     1
281
     0
  0
BLOCK_RECORD
  5
1F0
330
1
100
AcDbSymbolTableRecord
100
AcDbBlockTableRecord
  2
*D4
340
0
 70
     0
280
     1
281
     0
  0
BLOCK_RECORD
  5
1B6
330
1
100
AcDbSymbolTableRecord
100
AcDbBlockTableRecord
  2
*D5
340
0
 70
     0
280
     1
281
     0
  0
BLOCK_RECORD
  5
1A9
330
1
100
AcDbSymbolTableRecord
100
AcDbBlockTableRecord
  2
*D6
340
0
 70
     0
280
     1
281
     0
  0
BLOCK_RECORD
  5
19C
330
1
100
AcDbSymbolTableRecord
100
AcDbBlockTableRecord
  2
*D7
340
0
 70
     0
280
     1
281
     0
  0
BLOCK_RECORD
  5
18F
330
1
100
AcDbSymbolTableRecord
100
AcDbBlockTableRecord
  2
*D8
340
0
 70
     0
280
     1
281
     0
  0
BLOCK_RECORD
  5
16D
330
1
100
AcDbSymbolTableRecord
100
AcDbBlockTableRecord
  2
*D9
340
0
 70
     0
280
     1
281
     0
  0
BLOCK_RECORD
  5
15E
330
1
100
AcDbSymbolTableRecord
100
AcDbBlockTableRecord
  2
*D10
340
0
 70
     0
280
     1
281
     0
  0
BLOCK_RECORD
  5
14F
330
1
100
AcDbSymbolTableRecord
100
AcDbBlockTableRecord
  2
*D11
340
0
 70
     0
280
     1
281
     0
  0
BLOCK_RECORD
  5
142
330
1
100
AcDbSymbolTableRecord
100
AcDbBlockTableRecord
  2
*D12
340
0
 70
     0
280
     1
281
     0
  0
BLOCK_RECORD
  5
AE
330
1
100
AcDbSymbolTableRecord
100
AcDbBlockTableRecord
  2
*D13
340
0
 70
     0
280
     1
281
     0
  0
BLOCK_RECORD
  5
96
330
1
100
AcDbSymbolTableRecord
100
AcDbBlockTableRecord
  2
*D14
340
0
 70
     0
280
     1
281
     0
  0
BLOCK_RECORD
  5
89
330
1
100
AcDbSymbolTableRecord
100
AcDbBlockTableRecord
  2
*D15
340
0
 70
     0
280
     1
281
     0
  0
BLOCK_RECORD
  5
78
330
1
100
AcDbSymbolTableRecord
100
AcDbBlockTableRecord
  2
*D16
340
0
 70
     0
280
     1
281
     0
  0
ENDTAB
  0
ENDSEC
  0
SECTION
  2
BLOCKS
  0
BLOCK
  5
5
330
2
100
AcDbEntity
  8
0
100
AcDbBlockBegin
  2
*Model_Space
 70
     0
 10
0.0
 20
0.0
 30
0.0
  3
*Model_Space
  1

  0
ENDBLK
  5
16
330
2
100
AcDbEntity
  8
0
100
AcDbBlockEnd
  0
BLOCK
  5
1A
330
19
100
AcDbEntity
 67
     1
  8
0
100
AcDbBlockBegin
  2
*Paper_Space
 70
     0
 10
0.0
 20
0.0
 30
0.0
  3
*Paper_Space
  1

  0
ENDBLK
  5
1B
330
19
100
AcDbEntity
 67
     1
  8
0
100
AcDbBlockEnd
  0
BLOCK
  5
C0
330
BD
100
AcDbEntity
  8
0
100
AcDbBlockBegin
  2
DIN A4
 70
     2
 10
0.0
 20
0.0
 30
0.0
  3
DIN A4
  1

  0
LINE
  5
C1
330
BD
100
AcDbEntity
  8
01-99
100
AcDbLine
 10
204.0000000617172
 20
290.9999999563947
 30
0.0
 11
20.0000000617174
 21
290.9999999563947
 31
0.0
  0
LINE
  5
C5
330
BD
100
AcDbEntity
  8
01-99
100
AcDbLine
 10
203.9999999999998
 20
291.0
 30
0.0
 11
204.0
 21
6.0
 31
0.0
  0
LINE
  5
C6
330
BD
100
AcDbEntity
  8
01-99
100
AcDbLine
 10
20.0
 20
5.999999999999886
 30
0.0
 11
20.0
 21
291.0
 31
0.0
  0
LWPOLYLINE
  5
C7
330
BD
100
AcDbEntity
  8
02-99
100
AcDbPolyline
 90
        4
 70
     1
 43
0.0
 10
0.0
 20
0.0
 10
210.0
 20
0.0
 10
210.0
 20
297.0
 10
0.0
 20
297.0
  0
LINE
  5
CC
330
BD
100
AcDbEntity
  8
01-99
100
AcDbLine
 10
20.0
 20
5.999999999999886
 30
0.0
 11
204.0
 21
6.000000000000056
 31
0.0
  0
LINE
  5
CD
330
BD
100
AcDbEntity
  8
01-99
100
AcDbLine
 10
70.0
 20
11.1111111109999
 30
0.0
 11
20.0
 21
11.1111111109999
 31
0.0
  0
LINE
  5
CE
330
BD
100
AcDbEntity
  8
01-99
370
     5
100
AcDbLine
 10
70.0
 20
16.22222222199991
 30
0.0
 11
20.0
 21
16.22222222199991
 31
0.0
  0
LINE
  5
CF
330
BD
100
AcDbEntity
  8
01-99
370
     5
100
AcDbLine
 10
70.0
 20
21.33333333299993
 30
0.0
 11
20.0
 21
21.33333333299987
 31
0.0
  0
LINE
  5
D0
330
BD
100
AcDbEntity
  8
01-99
370
     5
100
AcDbLine
 10
115.0
 20
26.44444444399994
 30
0.0
 11
20.0
 21
26.44444444399989
 31
0.0
  0
LINE
  5
D1
330
BD
100
AcDbEntity
  8
01-99
100
AcDbLine
 10
115.0
 20
31.55555555499996
 30
0.0
 11
20.0
 21
31.5555555549999
 31
0.0
  0
LINE
  5
D2
330
BD
100
AcDbEntity
  8
01-99
100
AcDbLine
 10
45.0
 20
5.999999999999886
 30
0.0
 11
45.0
 21
11.1111111109999
 31
0.0
  0
LINE
  5
D3
330
BD
100
AcDbEntity
  8
01-99
100
AcDbLine
 10
28.0
 20
11.1111111109999
 30
0.0
 11
28.0
 21
36.66666666666657
 31
0.0
  0
LINE
  5
D4
330
BD
100
AcDbEntity
  8
01-99
100
AcDbLine
 10
70.0
 20
5.999999999999886
 30
0.0
 11
70.0
 21
51.99999999999988
 31
0.0
  0
LINE
  5
D5
330
BD
100
AcDbEntity
  8
01-99
370
    50
100
AcDbLine
 10
115.0
 20
5.999999999999886
 30
0.0
 11
115.0
 21
51.99999999999988
 31
0.0
  0
LINE
  5
D6
330
BD
100
AcDbEntity
  8
01-99
100
AcDbLine
 10
144.5
 20
5.999999999999886
 30
0.0
 11
144.5
 21
16.22222222199997
 31
0.0
  0
LINE
  5
D7
330
BD
100
AcDbEntity
  8
01-99
100
AcDbLine
 10
177.0
 20
5.999999999999886
 30
0.0
 11
177.0
 21
16.22222222200003
 31
0.0
  0
LINE
  5
D8
330
BD
100
AcDbEntity
  8
01-99
100
AcDbLine
 10
148.5
 20
36.66666666666663
 30
0.0
 11
148.5
 21
52.0
 31
0.0
  0
LINE
  5
D9
330
BD
100
AcDbEntity
  8
01-99
100
AcDbLine
 10
182.0
 20
36.66666666666663
 30
0.0
 11
182.0
 21
52.0
 31
0.0
  0
LINE
  5
DA
330
BD
100
AcDbEntity
  8
01-99
100
AcDbLine
 10
78.0
 20
21.33333333333326
 30
0.0
 11
78.0
 21
36.66666666666663
 31
0.0
  0
LINE
  5
DB
330
BD
100
AcDbEntity
  8
01-99
100
AcDbLine
 10
60.00318833942947
 20
11.1111111109999
 30
0.0
 11
60.00318833942947
 21
36.66666666666657
 31
0.0
  0
LINE
  5
DC
330
BD
100
AcDbEntity
  8
01-99
100
AcDbLine
 10
48.00318833942947
 20
11.1111111109999
 30
0.0
 11
48.00318833942947
 21
36.66666666666657
 31
0.0
  0
LINE
  5
DD
330
BD
100
AcDbEntity
  8
01-99
100
AcDbLine
 10
204.0
 20
52.0
 30
0.0
 11
19.99999999999818
 21
51.99999999999988
 31
0.0
  0
LINE
  5
DE
330
BD
100
AcDbEntity
  8
01-99
100
AcDbLine
 10
115.0
 20
21.33333333333326
 30
0.0
 11
70.0
 21
21.33333333333326
 31
0.0
  0
LINE
  5
DF
330
BD
100
AcDbEntity
  8
01-99
370
    50
100
AcDbLine
 10
115.0
 20
36.66666666666663
 30
0.0
 11
20.0
 21
36.66666666666652
 31
0.0
  0
LINE
  5
E0
330
BD
100
AcDbEntity
  8
01-99
100
AcDbLine
 10
92.0
 20
21.33333333333326
 30
0.0
 11
92.0
 21
51.99999999999994
 31
0.0
  0
LINE
  5
E1
330
BD
100
AcDbEntity
  8
01-99
100
AcDbLine
 10
70.0
 20
36.66666666666657
 30
0.0
 11
78.0
 21
31.55555556666661
 31
0.0
  0
LINE
  5
E2
330
BD
100
AcDbEntity
  8
01-99
100
AcDbLine
 10
70.0
 20
31.55555556666661
 30
0.0
 11
78.0
 21
36.66666666666663
 31
0.0
  0
LINE
  5
E3
330
BD
100
AcDbEntity
  8
01-99
100
AcDbLine
 10
204.0
 20
44.33333333333325
 30
0.0
 11
115.0
 21
44.3333333333332
 31
0.0
  0
LINE
  5
E4
330
BD
100
AcDbEntity
  8
01-99
100
AcDbLine
 10
115.0
 20
16.22222222199991
 30
0.0
 11
204.0
 21
16.22222222200003
 31
0.0
  0
LINE
  5
E5
330
BD
100
AcDbEntity
  8
01-99
100
AcDbLine
 10
115.0
 20
36.66666666666663
 30
0.0
 11
204.0
 21
36.66666666666669
 31
0.0
  0
LINE
  5
E6
330
BD
100
AcDbEntity
  8
01-99
370
     5
100
AcDbLine
 10
92.0
 20
41.77777777799991
 30
0.0
 11
70.0
 21
41.77777777799991
 31
0.0
  0
LINE
  5
E7
330
BD
100
AcDbEntity
  8
01-99
370
     5
100
AcDbLine
 10
92.0
 20
46.88888888899993
 30
0.0
 11
70.0
 21
46.88888888899987
 31
0.0
  0
LINE
  5
E8
330
BD
100
AcDbEntity
  8
01-99
100
AcDbLine
 10
19.99999999999818
 20
51.99999999999988
 30
0.0
 11
19.99999999999818
 21
5.999999999999886
 31
0.0
  0
TEXT
  5
E9
330
BD
100
AcDbEntity
  8
08-99
100
AcDbText
 10
116.4997011683063
 20
32.66987370785785
 30
0.0
 40
2.5
  1
Benennung/Teil:
 51
15.0
  7
ROMANS8
100
AcDbText
  0
TEXT
  5
EE
330
BD
100
AcDbEntity
  8
08-99
100
AcDbText
 10
178.5028274475673
 20
12.01760269423056
 30
0.0
 40
2.7
  1
Ident-Nr.
 51
15.0
  7
ROMANS8
100
AcDbText
  0
TEXT
  5
EF
330
BD
100
AcDbEntity
  8
08-99
100
AcDbText
 10
93.50002173316807
 20
33.05557696178232
 30
0.0
 40
2.5
  1
Name:
 51
15.0
  7
ROMANS8
100
AcDbText
  0
TEXT
  5
F0
330
BD
100
AcDbEntity
  8
08-99
100
AcDbText
 10
79.50776914254493
 20
33.04841796100436
 30
0.0
 40
2.5
  1
Datum:
 50
0.102528160689452
 41
0.8933771909280748
 51
15.0
  7
ROMANS8
 72
     5
 11
90.67496614962692
 21
33.06840116746434
 31
0.0
100
AcDbText
  0
TEXT
  5
F1
330
BD
100
AcDbEntity
  8
08-99
100
AcDbText
 10
29.50000808173536
 20
33.05597709897978
 30
0.0
 40
1.6
  1
Änderung:
 51
15.0
  7
ROMANS8
100
AcDbText
  0
TEXT
  5
F2
330
BD
100
AcDbEntity
  8
08-99
100
AcDbText
 10
46.49993807575287
 20
9.111119299162339
 30
0.0
 40
1.0
  1
ERSETZT.DURCH:
 51
15.0
  7
ROMANS8
100
AcDbText
  0
TEXT
  5
F3
330
BD
100
AcDbEntity
  8
08-99
100
AcDbText
 10
21.49936081567171
 20
9.110854202936138
 30
0.0
 40
1.0
  1
ERSETZT.FÜR:
 51
15.0
  7
ROMANS8
100
AcDbText
  0
TEXT
  5
F4
330
BD
100
AcDbEntity
  8
08-99
100
AcDbText
 10
145.9909068421542
 20
12.61295686406368
 30
0.0
 40
2.112
  1
AUFTRAGS.NR.:
 51
15.0
  7
ROMANS8
100
AcDbText
  0
TEXT
  5
F5
330
BD
100
AcDbEntity
  8
08-99
100
AcDbText
 10
116.5034642050124
 20
12.61092865603024
 30
0.0
 40
2.112
  1
Artikel-Nr:
 51
15.0
  7
ROMANS8
100
AcDbText
  0
TEXT
  5
F6
330
BD
100
AcDbEntity
  8
08-99
100
AcDbText
 10
99.69630749507826
 20
49.92370850704219
 30
0.0
 40
1.349999999999999
  1
Format
 51
15.0
  7
ROMANS8
100
AcDbText
  0
TEXT
  5
F7
330
BD
100
AcDbEntity
  8
08-99
100
AcDbText
 10
98.30437974676783
 20
44.64161879310063
 30
0.0
 40
1.822499999999999
  1
Normen
 51
15.0
  7
ROMANS8
100
AcDbText
  0
TEXT
  5
F8
330
BD
100
AcDbEntity
  8
08-99
100
AcDbText
 10
21.50002960390157
 20
33.05556783555801
 30
0.0
 40
1.6
  1
Zust.
 51
15.0
  7
ROMANS8
100
AcDbText
  0
TEXT
  5
F9
330
BD
100
AcDbEntity
  8
08-99
100
AcDbText
 10
49.50318070116918
 20
33.05555925149645
 30
0.0
 40
1.6
  1
Datum:
 51
15.0
  7
ROMANS8
100
AcDbText
  0
TEXT
  5
FA
330
BD
100
AcDbEntity
  8
08-99
100
AcDbText
 10
61.50321361693205
 20
33.05556405794533
 30
0.0
 40
1.6
  1
Name:
 51
15.0
  7
ROMANS8
100
AcDbText
  0
TEXT
  5
FB
330
BD
100
AcDbEntity
  8
08-99
100
AcDbText
 10
71.1545544455912
 20
28.03813956794875
 30
0.0
 40
1.6
  1
Erst.
 51
15.0
  7
ROMANS8
100
AcDbText
  0
TEXT
  5
FC
330
BD
100
AcDbEntity
  8
08-99
100
AcDbText
 10
70.51718036231068
 20
23.19745105942093
 30
0.0
 40
1.6
  1
Bearb.
 51
15.0
  7
ROMANS8
100
AcDbText
  0
TEXT
  5
FD
330
BD
100
AcDbEntity
  8
08-99
100
AcDbText
 10
149.430804911768
 20
41.61949749270681
 30
0.0
 40
2.0
  1
Zuschnittsbreite:
 51
15.0
  7
ROMANS8
100
AcDbText
  0
TEXT
  5
FE
330
BD
100
AcDbEntity
  8
08-99
100
AcDbText
 10
115.9849947740322
 20
41.73762362811351
 30
0.0
 40
2.0
  1
Zuschnittslänge:
 51
15.0
  7
ROMANS8
100
AcDbText
  0
LWPOLYLINE
  5
FF
330
BD
100
AcDbEntity
  8
06-99
100
AcDbPolyline
 90
      133
 70
     1
 43
0.010692
 10
93.767539812
 20
18.8765648493333
 10
94.00904714400008
 20
19.08724714533332
 10
93.92285180400007
 20
19.22625740133321
 10
93.82426443600001
 20
19.35180642933335
 10
93.71362718400019
 20
19.46394056133334
 10
93.59129644799997
 20
19.5627132573332
 10
93.45761437200009
 20
19.64816372133327
 10
93.31292666400008
 20
19.72033828533324
 10
93.15758616000005
 20
19.77929040933327
 10
92.9919350040002
 20
19.82505929733327
 10
92.81632246800006
 20
19.85769128133336
 10
92.63109782400022
 20
19.87723982133332
 10
92.43660678000015
 20
19.88374412133328
 10
92.27568148800003
 20
19.87768175733328
 10
92.11994181599994
 20
19.85975840133324
 10
91.96971921600015
 20
19.8303625293334
 10
91.82534870400013
 20
19.78988974533325
 10
91.68716173200005
 20
19.73873565333338
 10
91.55548262400008
 20
19.67729229333327
 10
91.43065352400014
 20
19.60595170533327
 10
91.31299875600006
 20
19.52510592933322
 10
91.20284977200004
 20
19.4351470053333
 10
91.1005451520001
 20
19.33647410133329
 10
91.0064056560002
 20
19.22947212933332
 10
90.92076986400014
 20
19.11454382133331
 10
90.8439692280001
 20
18.9920740893333
 10
90.77633163600012
 20
18.86245853733334
 10
90.71819210400008
 20
18.72608920533327
 10
90.66987852000011
 20
18.58336526133325
 10
90.63172233600017
 20
18.43467161733326
 10
90.60406213199996
 20
18.28040744133324
 10
90.58721866800011
 20
18.1209612093333
 10
90.58153408800013
 20
17.95672852533329
 10
90.58714738800006
 20
17.78762385333334
 10
90.60379839600022
 20
17.62428929733329
 10
90.6311877359999
 20
17.46704205333327
 10
90.66901603199994
 20
17.3161957533332
 10
90.71698747200002
 20
17.17206402933328
 10
90.77480624400015
 20
17.03496051333331
 10
90.84217653600012
 20
16.90519527333328
 10
90.9187989720001
 20
16.78308550533325
 10
91.00437774000011
 20
16.66894127733326
 10
91.09862059200009
 20
16.56307978533329
 10
91.20122102400001
 20
16.4658110973333
 10
91.31189391600003
 20
16.37745240933321
 10
91.43033276400013
 20
16.29831378933335
 10
91.55624532000002
 20
16.22870886933333
 10
91.68933220799999
 20
16.16895484533324
 10
91.82930118000001
 20
16.11936178533329
 10
91.9758492960002
 20
16.08024332133334
 10
92.12868787199999
 20
16.05191308533335
 10
92.28751040400004
 20
16.0346847093333
 10
92.45202820800011
 20
16.02887182533334
 10
92.61602566800013
 20
16.03412516133329
 10
92.77335844800006
 20
16.04976399333333
 10
92.92383765600005
 20
16.0755958653333
 10
93.06727439999997
 20
16.11142832133333
 10
93.20348335200014
 20
16.15707246933328
 10
93.33227205599996
 20
16.21233941733328
 10
93.45345518400007
 20
16.27703670933328
 10
93.56683671600013
 20
16.35097901733331
 10
93.6722384520001
 20
16.43397388533327
 10
93.76946080800008
 20
16.5258252933333
 10
93.85832202000006
 20
16.62635504133328
 10
93.93863319600018
 20
16.73535998133326
 10
94.01020188000007
 20
16.85266191333329
 10
94.07283918000008
 20
16.97806125333329
 10
94.12635976800016
 20
17.11137267333322
 10
94.170574752
 20
17.25240371733326
 10
94.20528811200005
 20
17.40096549333327
 10
94.23032164800009
 20
17.55686910933332
 10
94.2454793400002
 20
17.71992567333325
 10
94.25057229599998
 20
17.88993916533326
 10
94.25057229599998
 20
17.88993916533326
 10
94.25057229599998
 20
17.94132135333331
 10
92.61646404000009
 20
17.94132135333331
 10
92.61646404000009
 20
17.65354973733326
 10
93.88572561599994
 20
17.65354973733326
 10
93.87498728399998
 20
17.49100638933328
 10
93.84765496800003
 20
17.33636086533329
 10
93.80443434000017
 20
17.19027606933332
 10
93.74603107200005
 20
17.05341846933328
 10
93.67315796400021
 20
16.92644384133331
 10
93.58652425200011
 20
16.81002578133331
 10
93.48682848000009
 20
16.70481650133331
 10
93.37478701200007
 20
16.61148959733327
 10
93.25110552000001
 20
16.53069728133329
 10
93.11648967600012
 20
16.46310958533331
 10
92.97164871600001
 20
16.40938584933326
 10
92.81729187600012
 20
16.37019254133338
 10
92.65412482800014
 20
16.34618900133324
 10
92.48285680800018
 20
16.33804169733332
 10
92.31819644400014
 20
16.34599298133327
 10
92.15990138400002
 20
16.36937638533322
 10
92.00856325200005
 20
16.40748267333328
 10
91.8647701079999
 20
16.45960617333327
 10
91.72910288400009
 20
16.52503764933328
 10
91.60215320400004
 20
16.60306786533334
 10
91.48450556400007
 20
16.69299471333329
 10
91.37675158800005
 20
16.79410539333338
 10
91.27947577200018
 20
16.90569423333329
 10
91.19326261200001
 20
17.02705556133327
 10
91.11870373200009
 20
17.15747657733328
 10
91.05638362800005
 20
17.29625517333329
 10
91.00689036000005
 20
17.44268211333326
 10
90.97081198799992
 20
17.59604459733333
 10
90.94873300799998
 20
17.7556440813334
 10
90.94124504400008
 20
17.92076776533321
 10
90.94763173200021
 20
18.08914181733331
 10
90.96653518800009
 20
18.25115412933326
 10
90.99755624400017
 20
18.40630574133325
 10
91.04029929600006
 20
18.55410125733328
 10
91.09437230399999
 20
18.69404528133327
 10
91.15937610000003
 20
18.82564598133331
 10
91.23491508000006
 20
18.94840083333332
 10
91.32059720400013
 20
19.06182156933329
 10
91.41602330399996
 20
19.16540566533337
 10
91.52080490399999
 20
19.25866128933325
 10
91.63453570800015
 20
19.34108948133331
 10
91.75683080400018
 20
19.41219840933331
 10
91.88728745999993
 20
19.47148911333329
 10
92.02551363600013
 20
19.51846619733328
 10
92.17111729200018
 20
19.55263426533327
 10
92.32369569600018
 20
19.57350148533328
 10
92.48285680800018
 20
19.58056533333331
 10
92.6605614120001
 20
19.5716482053333
 10
92.83031473200015
 20
19.54501086933328
 10
92.99177818800012
 20
19.50082083333331
 10
93.1446132000001
 20
19.43924560533327
 10
93.2884811880001
 20
19.36045982133328
 10
93.42304713600015
 20
19.26462742533334
 10
93.54797246400005
 20
19.15192305333329
 10
93.66291502800015
 20
19.02251064933335
  0
LWPOLYLINE
  5
103
330
BD
100
AcDbEntity
  8
06-99
100
AcDbPolyline
 90
       12
 70
     1
 43
0.010692
 10
90.43899547199998
 20
12.25281382533336
 10
92.32226296800012
 20
12.25281382533336
 10
92.46759932400005
 20
13.0076797173333
 10
91.56487020000009
 20
13.0076797173333
 10
91.62105309599997
 20
13.29950716533324
 10
92.41871550000007
 20
13.29950716533324
 10
92.55580119599995
 20
14.01156228933325
 10
91.75813879199996
 20
14.01156228933325
 10
91.80984530399996
 20
14.28005622933324
 10
92.68922666399999
 20
14.28005622933324
 10
92.83455232800008
 20
15.03490786533331
 10
90.9746325960001
 20
15.03490786533331
  0
LWPOLYLINE
  5
104
330
BD
100
AcDbEntity
  8
06-99
100
AcDbPolyline
 90
        4
 70
     1
 43
0.010692
 10
76.60861191600009
 20
12.88042709733327
 10
89.06586111599995
 20
12.88042709733327
 10
88.94228298000006
 20
12.25209746133328
 10
76.48503734400003
 20
12.25209746133328
  0
SOLID
  5
105
330
BD
100
AcDbEntity
  8
06-99
100
AcDbTrace
 10
76.60861191600009
 20
12.88042709733327
 30
0.0
 11
89.06586111599995
 21
12.88042709733327
 31
0.0
 12
76.48503734400003
 22
12.25209746133328
 32
0.0
 13
88.94228298000006
 23
12.25209746133328
 33
0.0
  0
LWPOLYLINE
  5
106
330
BD
100
AcDbEntity
  8
06-99
100
AcDbPolyline
 90
       10
 70
     1
 43
0.010692
 10
82.34584288800011
 20
16.02887182533334
 10
83.32218286800003
 20
19.10266857333329
 10
84.33964784399995
 20
16.02887182533334
 10
85.56779868000012
 20
19.80153333333328
 10
85.22350915200002
 20
19.80153333333328
 10
84.33964784399995
 20
16.89303134133325
 10
83.32218286800003
 20
19.94541201333322
 10
82.34584288800011
 20
16.86733846533332
 10
81.42601012800014
 20
19.80153333333328
 10
81.07658131200015
 20
19.80153333333328
  0
LWPOLYLINE
  5
107
330
BD
100
AcDbEntity
  8
06-99
100
AcDbPolyline
 90
        3
 70
     1
 43
0.010692
 10
87.32441587200014
 20
17.65868546133333
 10
87.97703416800004
 20
19.25683295733324
 10
88.603963152
 20
17.65868546133333
  0
LWPOLYLINE
  5
108
330
BD
100
AcDbEntity
  8
06-99
100
AcDbPolyline
 90
        7
 70
     1
 43
0.010692
 10
86.38318129200014
 20
16.12735940133325
 10
86.72319402000004
 20
16.12735940133325
 10
87.21136222799998
 20
17.37092810133328
 10
88.71186325200017
 20
17.37092810133328
 10
89.17949212799999
 20
16.12735940133325
 10
89.54433880800001
 20
16.12735940133325
 10
87.99759132000009
 20
19.94541201333322
  0
LWPOLYLINE
  5
109
330
BD
100
AcDbEntity
  8
06-99
100
AcDbPolyline
 90
        8
 70
     1
 43
0.010692
 10
98.92980491999992
 20
12.25281382533336
 10
100.0043794319999
 20
12.25281382533336
 10
100.1574069000001
 20
12.60301246533328
 10
100.9122727920001
 20
12.60301246533328
 10
100.934344644
 20
12.25281382533336
 10
102.0082740719999
 20
12.25281382533336
 10
101.571149472
 20
15.03490786533331
 10
100.458311856
 20
15.03490786533331
  0
LWPOLYLINE
  5
10A
330
BD
100
AcDbEntity
  8
06-99
100
AcDbPolyline
 90
       34
 70
     1
 43
0.010692
 10
96.04345675200011
 20
13.66137790533327
 10
96.07848017999993
 20
13.66137790533327
 10
96.06422418000011
 20
13.48699851333333
 10
96.06380006400002
 20
13.33510083333328
 10
96.06789866400005
 20
13.20222778533332
 10
96.09523098000011
 20
12.25281382533336
 10
96.96682856399991
 20
12.25281382533336
 10
98.31568851599991
 20
15.03490786533331
 10
97.31180594400008
 20
15.03490786533331
 10
96.85791272400003
 20
13.80923044533324
 10
96.80781001200012
 20
13.66872687333324
 10
96.74884006799993
 20
13.48671339333322
 10
96.69002693999994
 20
13.26059897733336
 10
96.66669343199998
 20
13.26059897733336
 10
96.68841957600001
 20
13.45803388533329
 10
96.69297793200009
 20
13.61569455333324
 10
96.69193724399997
 20
13.7353130853333
 10
96.67755293999995
 20
15.03490786533331
 10
95.97328515599997
 20
15.03490786533331
 10
95.45848317600007
 20
13.7353130853333
 10
95.41138135199991
 20
13.61569455333324
 10
95.35522696800013
 20
13.45803388533329
 10
95.30092230000002
 20
13.26059897733336
 10
95.27758879199996
 20
13.26059897733336
 10
95.30584418400009
 20
13.48671339333322
 10
95.31696386400005
 20
13.66872687333324
 10
95.320959108
 20
13.80923044533324
 10
95.33903215199996
 20
15.03490786533331
 10
94.33450449600002
 20
15.03490786533331
 10
94.61273528400012
 20
12.25281382533336
 10
95.48432930399997
 20
12.25281382533336
 10
95.87723892000008
 20
13.20222778533332
 10
95.93251299600002
 20
13.33510083333328
 10
95.99057768400006
 20
13.48699851333333
  0
LWPOLYLINE
  5
10B
330
BD
100
AcDbEntity
  8
06-99
100
AcDbPolyline
 90
       10
 70
     1
 43
0.010692
 10
100.4520677279999
 20
13.26448373733331
 10
100.5983592359999
 20
13.57965894933329
 10
100.673110572
 20
13.74409478133339
 10
100.754152368
 20
13.94571026133332
 10
100.82882886
 20
14.19056418933337
 10
100.8482883
 20
14.19056418933337
 10
100.8286649159999
 20
13.94571026133332
 10
100.8320721
 20
13.74409478133339
 10
100.843505412
 20
13.57965894933329
 10
100.8684106440001
 20
13.26448373733331
  0
LWPOLYLINE
  5
10C
330
BD
100
AcDbEntity
  8
06-99
100
AcDbPolyline
 90
       23
 70
     1
 43
0.010692
 10
103.5867055200001
 20
12.25281382533336
 10
104.5672403279999
 20
12.25281382533336
 10
104.744036112
 20
13.17110337333327
 10
105.0536265360001
 20
12.25281382533336
 10
106.1742372359999
 20
12.25281382533336
 10
105.64906758
 20
13.38511444533327
 10
105.808428276
 20
13.42380879333331
 10
105.9537004799999
 20
13.4988167373333
 10
106.081348704
 20
13.60690216533328
 10
106.187830332
 20
13.74481827333329
 10
106.2695991839999
 20
13.90932182133326
 10
106.3231126439999
 20
14.09716956933329
 10
106.3446
 20
14.2680918813333
 10
106.3403018159999
 20
14.42330051733336
 10
106.310228784
 20
14.5622608773333
 10
106.2543915959999
 20
14.68443479733321
 10
106.1728080719999
 20
14.78928767733333
 10
106.065492468
 20
14.8762777893333
 10
105.932451912
 20
14.9448740973333
 10
105.7737077879999
 20
14.99453487333335
 10
105.58926366
 20
15.02472551733331
 10
105.3791444759999
 20
15.03490786533331
 10
104.122342644
 20
15.03490786533331
  0
LWPOLYLINE
  5
10D
330
BD
100
AcDbEntity
  8
06-99
100
AcDbPolyline
 90
        9
 70
     1
 43
0.010692
 10
104.965032624
 20
14.31896441733329
 10
105.120683196
 20
14.31896441733329
 10
105.2773530720001
 20
14.28538440933323
 10
105.3582202319999
 20
14.19041093733335
 10
105.36321696
 20
14.04270095733329
 10
105.30086478
 20
13.89700107333334
 10
105.183291984
 20
13.80578049333331
 10
105.0158124959999
 20
13.77422127333324
 10
104.860161924
 20
13.77422127333324
  0
LWPOLYLINE
  5
10E
330
BD
100
AcDbEntity
  8
06-99
100
AcDbPolyline
 90
       12
 70
     1
 43
0.010692
 10
100.5798014880001
 20
16.12735940133325
 10
102.3988991640001
 20
16.12735940133325
 10
102.3988991640001
 20
16.44082389333323
 10
100.9138195680001
 20
16.44082389333323
 10
100.9138195680001
 20
18.02353214133336
 10
102.3988991640001
 20
18.02353214133336
 10
102.3988991640001
 20
18.33699663333334
 10
100.9138195680001
 20
18.33699663333334
 10
100.9138195680001
 20
19.4880688413333
 10
102.3988991640001
 20
19.4880688413333
 10
102.3988991640001
 20
19.80153333333328
 10
100.5798014880001
 20
19.80153333333328
  0
LWPOLYLINE
  5
10F
330
BD
100
AcDbEntity
  8
06-99
100
AcDbPolyline
 90
        8
 70
     1
 43
0.010692
 10
95.85302510400016
 20
16.12735940133325
 10
96.18704674800007
 20
16.12735940133325
 10
96.18704674800007
 20
19.09753284933328
 10
98.76666638400003
 20
16.01858612133327
 10
98.76666638400003
 20
19.80153333333328
 10
98.43265899600011
 20
19.80153333333328
 10
98.43265899600011
 20
16.8827456373333
 10
95.85302510400016
 20
19.95568346133325
  0
LWPOLYLINE
  5
110
330
BD
100
AcDbEntity
  8
06-99
100
AcDbPolyline
 90
       19
 70
     1
 43
0.010692
 10
104.4484236960002
 20
19.50862599333322
 10
104.7824310840001
 20
19.50862599333322
 10
104.986616208
 20
19.5003076173333
 10
105.160446744
 20
19.47385917333327
 10
105.3048956640001
 20
19.42705672533321
 10
105.4209181200001
 20
19.35767277333326
 10
105.5094799560001
 20
19.26347981733323
 10
105.571543452
 20
19.14225035733335
 10
105.608078016
 20
18.99174976533322
 10
105.620042364
 20
18.80976123333329
 10
105.607447188
 20
18.63100881333327
 10
105.5693765400001
 20
18.48586134933327
 10
105.5054169960001
 20
18.37130369733336
 10
105.415137312
 20
18.28432784133332
 10
105.2981240640001
 20
18.22192220133331
 10
105.1539495720001
 20
18.18107163333326
 10
104.9821897199999
 20
18.15877168533336
 10
104.7824310840001
 20
18.15200721333332
 10
104.4484236960002
 20
18.15200721333332
  0
LWPOLYLINE
  5
111
330
BD
100
AcDbEntity
  8
06-99
100
AcDbPolyline
 90
       29
 70
     1
 43
0.010692
 10
106.3446
 20
16.12735940133325
 10
105.023956236
 20
17.8796534613333
 10
105.2123742240002
 20
17.89225220133335
 10
105.3829009320001
 20
17.92942115733325
 10
105.5343994440001
 20
17.99023012533337
 10
105.665722152
 20
18.07375602933331
 10
105.7757285760001
 20
18.17905797333327
 10
105.863274672
 20
18.30521644533331
 10
105.927223524
 20
18.45129411333335
 10
105.966431088
 20
18.61636077333333
 10
105.9797533199998
 20
18.79948978533332
 10
105.9699380640002
 20
18.97455346533331
 10
105.9404816040002
 20
19.13261686533332
 10
105.8913554280001
 20
19.27374770133332
 10
105.8225417160001
 20
19.3980136893332
 10
105.7340155200001
 20
19.50548610933333
 10
105.6257518920001
 20
19.59623624133331
 10
105.4977294480001
 20
19.67032823733325
 10
105.3499232399999
 20
19.7278333773333
 10
105.182311884
 20
19.76882650533332
 10
104.994873996
 20
19.79336820933332
 10
104.787581064
 20
19.80153333333328
 10
104.787581064
 20
19.80153333333328
 10
104.1144056160001
 20
19.80153333333328
 10
104.1144056160001
 20
16.12735940133325
 10
104.4484236960002
 20
16.12735940133325
 10
104.4484236960002
 20
17.8796534613333
 10
104.648838108
 20
17.8796534613333
 10
105.938639016
 20
16.12735940133325
  0
TEXT
  5
112
330
BD
100
AcDbEntity
  8
06-99
100
AcDbText
 10
85.60835809905961
 20
9.633208985719136
 30
0.0
 40
1.4256
  1
GmbH & Co KG
 41
1.199203187251
 51
15.0
  7
ROMAND8
 72
     5
 11
106.0419580990597
 21
9.633208985719136
 31
0.0
100
AcDbText
  0
TEXT
  5
114
330
BD
100
AcDbEntity
  8
06-99
100
AcDbText
 10
85.70981485364347
 20
7.391015713295587
 30
0.0
 40
1.4256
  1
72774 Reutlingen
 50
0.5663244663116128
 41
1.087840993687879
 51
15.0
  7
ROMAND8
 72
     5
 11
105.9434148536435
 21
7.591015713295576
 31
0.0
100
AcDbText
  0
TEXT
  5
115
330
BD
100
AcDbEntity
  8
08-99
100
AcDbText
 10
73.41411819983751
 20
48.45009163044323
 30
0.0
 40
2.25
  1
Zul. Abw.
 51
15.0
  7
ROMANS8
100
AcDbText
  0
TEXT
  5
116
330
BD
100
AcDbEntity
  8
08-99
100
AcDbText
 10
123.2099263202836
 20
49.28616415937344
 30
0.0
 40
2.0
  1
Mat. Art.
 51
15.0
  7
ROMANS8
100
AcDbText
  0
TEXT
  5
117
330
BD
100
AcDbEntity
  8
08-99
100
AcDbText
 10
155.4865309703727
 20
49.40431338334462
 30
0.0
 40
2.0
  1
Oberfläche:
 51
15.0
  7
ROMANS8
100
AcDbText
  0
TEXT
  5
118
330
BD
100
AcDbEntity
  8
08-99
100
AcDbText
 10
184.7625378385805
 20
41.73764671667789
 30
0.0
 40
2.0
  1
Blech Dicke:
 51
15.0
  7
ROMANS8
100
AcDbText
  0
TEXT
  5
119
330
BD
100
AcDbEntity
  8
08-99
100
AcDbText
 10
187.4380280285577
 20
49.28616415937347
 30
0.0
 40
2.0
  1
Maßstab:
 51
15.0
  7
ROMANS8
100
AcDbText
  0
LINE
  5
11A
330
BD
100
AcDbEntity
  8
01-99
100
AcDbLine
 10
115.0
 20
46.88888888899993
 30
0.0
 11
92.0
 21
46.88888888899993
 31
0.0
  0
LINE
  5
11B
330
BD
100
AcDbEntity
  8
01-99
370
     5
100
AcDbLine
 10
115.0
 20
44.3333333333332
 30
0.0
 11
92.0
 21
44.3333333333332
 31
0.0
  0
LINE
  5
11C
330
BD
100
AcDbEntity
  8
01-99
370
     5
100
AcDbLine
 10
115.0
 20
40.49999999999989
 30
0.0
 11
91.99999999999993
 21
40.49999999999989
 31
0.0
  0
ATTDEF
  5
11D
330
BD
100
AcDbEntity
  8
06-99
100
AcDbText
 10
116.4954467391771
 20
26.18783869728213
 30
0.0
 40
4.0
  1

 41
0.9
  7
ROMANS8
100
AcDbAttributeDefinition
280
     0
  3
Benennung/Teil
  2
TEILE
 70
     0
280
     0
  0
ATTDEF
  5
11E
330
BD
100
AcDbEntity
  8
06-99
100
AcDbText
 10
92.99706779936741
 20
27.44168546803121
 30
0.0
 40
2.5
  1

 41
0.9
  7
ROMANS8
100
AcDbAttributeDefinition
280
     0
  3
Name
  2
NAME
 70
     0
280
     0
  0
ATTDEF
  5
11F
330
BD
100
AcDbEntity
  8
06-99
100
AcDbText
 10
79.49314645189407
 20
27.46123517411116
 30
0.0
 40
2.5
  1

 50
359.9144597696142
 41
0.9542572414211148
  7
ROMANS8
 72
     5
 11
90.7397371204388
 21
27.4444444666666
 31
0.0
100
AcDbAttributeDefinition
280
     0
  3
Datum
  2
DATUM
 70
     0
280
     0
  0
ATTDEF
  5
120
330
BD
100
AcDbEntity
  8
06-99
100
AcDbText
 10
191.3473862117146
 20
45.33333333333326
 30
0.0
 40
3.375
  1

  7
ROMANS8
100
AcDbAttributeDefinition
280
     0
  3
Maßstab
  2
:
 70
     0
280
     0
  0
ATTDEF
  5
121
330
BD
100
AcDbEntity
  8
06-99
100
AcDbText
 10
178.5063439671582
 20
7.492899800288626
 30
0.0
 40
2.99376
  1

  7
ROMANS8
100
AcDbAttributeDefinition
280
     0
  3
Ident-Nummer
  2
ID.NR
 70
     0
280
     0
  0
ATTDEF
  5
122
330
BD
100
AcDbEntity
  8
06-99
100
AcDbText
 10
116.5
 20
7.499999999999943
 30
0.0
 40
3.168
  1

 41
0.9
  7
ROMANS8
100
AcDbAttributeDefinition
280
     0
  3
ARTIKEL-NR,WPS
  2
ARTIKEL-NR
 70
     0
280
     0
  0
ATTDEF
  5
123
330
BD
100
AcDbEntity
  8
06-99
100
AcDbText
 10
146.0006338868801
 20
7.504396604354553
 30
0.0
 40
3.168
  1

 41
0.9
  7
ROMANS8
100
AcDbAttributeDefinition
280
     0
  3
Auftrags Nr.
  2
AUFTRAGS.NR.
 70
     0
280
     0
  0
ATTDEF
  5
124
330
BD
100
AcDbEntity
  8
06-99
100
AcDbText
 10
116.7312662557105
 20
37.66666664444438
 30
0.0
 40
3.0
  1

 41
0.9
  7
ROMANS8
100
AcDbAttributeDefinition
280
     0
  3
Zuschnitts.Länge
  2
LÄNGE
 70
     0
280
     0
  0
ATTDEF
  5
125
330
BD
100
AcDbEntity
  8
06-99
100
AcDbText
 10
150.1808049117697
 20
37.67810387044475
 30
0.0
 40
3.0
  1

 41
0.9
  7
ROMANS8
100
AcDbAttributeDefinition
280
     0
  3
Zuschnitts Breite
  2
BREITE
 70
     0
280
     0
  0
ATTDEF
  5
126
330
BD
100
AcDbEntity
  8
06-99
100
AcDbText
 10
190.6090921267318
 20
37.66666666666669
 30
0.0
 40
3.09375
  1

  7
ROMANS8
100
AcDbAttributeDefinition
280
     0
  3
Blech.Dicke
  2
1.0
 70
     0
280
     0
  0
ATTDEF
  5
127
330
BD
100
AcDbEntity
  8
06-99
100
AcDbText
 10
164.1277856014027
 20
45.33333333333337
 30
0.0
 40
3.0
  1

  7
ROMANS8
 72
     1
 11
164.1277856014027
 21
45.33333333333337
 31
0.0
100
AcDbAttributeDefinition
280
     0
  3
Oberfläche
  2
IV
 70
     0
280
     0
  0
ATTDEF
  5
128
330
BD
100
AcDbEntity
  8
06-99
100
AcDbText
 10
21.49946778019853
 20
6.597456397872349
 30
0.0
 40
1.5
  1

 41
0.9
  7
ROMANS8
100
AcDbAttributeDefinition
280
     0
  3
ERSETZT.Für
  2
ERSETZT.FÜR
 70
     0
280
     0
  0
ATTDEF
  5
129
330
BD
100
AcDbEntity
  8
06-99
100
AcDbText
 10
46.4997509950083
 20
6.601810069259784
 30
0.0
 40
1.5
  1

 41
0.9
  7
ROMANS8
100
AcDbAttributeDefinition
280
     0
  3
ERSETZT.Durch
  2
ERSETZT.DURCH
 70
     0
280
     0
  0
ATTDEF
  5
12A
330
BD
100
AcDbEntity
  8
06-99
100
AcDbText
 10
92.81172471169201
 20
41.03030066719799
 30
0.0
 40
2.34
  1
DIN 6930-M
  7
ROMANS8
 72
     1
 11
103.5088675688348
 21
41.03030066719799
 31
0.0
100
AcDbAttributeDefinition
280
     0
  3
Norm / Fräsen
  2
NORM1
 70
     0
280
     0
  0
ATTDEF
  5
12B
330
BD
100
AcDbEntity
  8
06-99
100
AcDbText
 10
95.98743899740631
 20
37.19696733386469
 30
0.0
 40
2.34
  1
DIN 2768
  7
ROMANS8
 72
     1
 11
104.0102961402634
 21
37.19696733386469
 31
0.0
100
AcDbAttributeDefinition
280
     0
  3
Norm / Kanten
  2
NORM2
 70
     0
280
     0
  0
ATTDEF
  5
12C
330
BD
100
AcDbEntity
  8
06-99
100
AcDbText
 10
99.97307264643758
 20
47.66851114000792
 30
0.0
 40
1.287
  1
DIN A4
  7
ROMANS8
 72
     1
 11
103.2518583607233
 21
47.66851114000792
 31
0.0
100
AcDbAttributeDefinition
280
     0
  3
Format
  2
FORMAT
 70
     0
280
     0
  0
ATTDEF
  5
12D
330
BD
100
AcDbEntity
  8
06-99
100
AcDbText
 10
123.2747405361158
 20
45.33333333333323
 30
0.0
 40
3.375
  1
1.4301
  7
ROMANS8
100
AcDbAttributeDefinition
280
     0
  3
Mat.Art
  2
1.4301
 70
     0
280
     0
  0
ENDBLK
  5
12E
330
BD
100
AcDbEntity
  8
0
100
AcDbBlockEnd
  0
BLOCK
  5
222
330
221
100
AcDbEntity
  8
0
100
AcDbBlockBegin
  2
*D1
 70
     1
 10
0.0
 20
0.0
 30
0.0
  3
*D1
  1

  0
LINE
  5
223
330
221
100
AcDbEntity
  8
0
 62
     4
370
    -2
100
AcDbLine
 10
65.44631122035799
 20
456.8983335917916
 30
0.0
 11
65.44631122035799
 21
466.1910676649369
 31
0.0
  0
LINE
  5
224
330
221
100
AcDbEntity
  8
0
 62
     4
370
    -2
100
AcDbLine
 10
237.446311220358
 20
456.8983335917916
 30
0.0
 11
237.446311220358
 21
466.1910676649369
 31
0.0
  0
LINE
  5
225
330
221
100
AcDbEntity
  8
0
 62
     4
370
    -2
100
AcDbLine
 10
70.44631122035799
 20
464.1910676649369
 30
0.0
 11
232.446311220358
 21
464.1910676649369
 31
0.0
  0
SOLID
  5
226
330
221
100
AcDbEntity
  8
0
 62
     4
100
AcDbTrace
 10
70.44631122035799
 20
465.0244009982702
 30
0.0
 11
70.44631122035799
 21
463.3577343316036
 31
0.0
 12
65.44631122035799
 22
464.1910676649369
 32
0.0
 13
65.44631122035799
 23
464.1910676649369
 33
0.0
  0
SOLID
  5
227
330
221
100
AcDbEntity
  8
0
 62
     4
100
AcDbTrace
 10
232.446311220358
 20
465.0244009982702
 30
0.0
 11
232.446311220358
 21
463.3577343316036
 31
0.0
 12
237.446311220358
 22
464.1910676649369
 32
0.0
 13
237.446311220358
 23
464.1910676649369
 33
0.0
  0
MTEXT
  5
228
330
221
100
AcDbEntity
  8
0
 62
     1
100
AcDbMText
 10
151.446311220358
 20
468.6910676649369
 30
0.0
 40
5.0
 41
0.0
 46
0.0
 71
     5
 72
     1
  1
172
 73
     1
 44
1.0
  0
POINT
  5
229
330
221
100
AcDbEntity
  8
Defpoints
 62
     0
100
AcDbPoint
 10
65.44631122035799
 20
454.8983335917916
 30
0.0
  0
POINT
  5
22A
330
221
100
AcDbEntity
  8
Defpoints
 62
     0
100
AcDbPoint
 10
237.446311220358
 20
454.8983335917916
 30
0.0
  0
POINT
  5
22B
330
221
100
AcDbEntity
  8
Defpoints
 62
     0
100
AcDbPoint
 10
237.446311220358
 20
464.1910676649369
 30
0.0
  0
ENDBLK
  5
22C
330
221
100
AcDbEntity
  8
0
100
AcDbBlockEnd
  0
BLOCK
  5
20B
330
20A
100
AcDbEntity
  8
0
100
AcDbBlockBegin
  2
*D2
 70
     1
 10
0.0
 20
0.0
 30
0.0
  3
*D2
  1

  0
LINE
  5
20C
330
20A
100
AcDbEntity
  8
09-01
 62
     4
370
    -2
100
AcDbLine
 10
63.44631122035798
 20
455.8983335917916
 30
0.0
 11
52.32631563278712
 21
455.8983335917916
 31
0.0
  0
LINE
  5
20D
330
20A
100
AcDbEntity
  8
09-01
 62
     4
370
    -2
100
AcDbLine
 10
64.44631122035798
 20
377.1983335917921
 30
0.0
 11
52.3263156327871
 21
377.1983335917921
 31
0.0
  0
LINE
  5
20E
330
20A
100
AcDbEntity
  8
09-01
 62
     4
370
    -2
100
AcDbLine
 10
54.32631563278711
 20
450.8983335917916
 30
0.0
 11
54.3263156327871
 21
382.1983335917921
 31
0.0
  0
SOLID
  5
20F
330
20A
100
AcDbEntity
  8
09-01
 62
     4
100
AcDbTrace
 10
53.49298229945378
 20
450.8983335917916
 30
0.0
 11
55.15964896612045
 21
450.8983335917916
 31
0.0
 12
54.32631563278711
 22
455.8983335917916
 32
0.0
 13
54.32631563278711
 23
455.8983335917916
 33
0.0
  0
SOLID
  5
210
330
20A
100
AcDbEntity
  8
09-01
 62
     4
100
AcDbTrace
 10
53.49298229945376
 20
382.1983335917921
 30
0.0
 11
55.15964896612043
 21
382.1983335917921
 31
0.0
 12
54.3263156327871
 22
377.1983335917921
 32
0.0
 13
54.3263156327871
 23
377.1983335917921
 33
0.0
  0
MTEXT
  5
211
330
20A
100
AcDbEntity
  8
09-01
 62
     1
100
AcDbMText
 10
49.82631563278705
 20
416.5483335917919
 30
0.0
 40
5.0
 41
0.0
 46
0.0
 71
     5
 72
     1
  1
78.7
 11
0.0000000000000001
 21
1.0
 31
0.0
 73
     1
 44
1.0
  0
POINT
  5
212
330
20A
100
AcDbEntity
  8
Defpoints
 62
     0
100
AcDbPoint
 10
65.44631122035799
 20
455.8983335917916
 30
0.0
  0
POINT
  5
213
330
20A
100
AcDbEntity
  8
Defpoints
 62
     0
100
AcDbPoint
 10
66.44631122035798
 20
377.1983335917921
 30
0.0
  0
POINT
  5
214
330
20A
100
AcDbEntity
  8
Defpoints
 62
     0
100
AcDbPoint
 10
54.3263156327871
 20
377.1983335917921
 30
0.0
  0
ENDBLK
  5
215
330
20A
100
AcDbEntity
  8
0
100
AcDbBlockEnd
  0
BLOCK
  5
1FE
330
1FD
100
AcDbEntity
  8
0
100
AcDbBlockBegin
  2
*D3
 70
     1
 10
0.0
 20
0.0
 30
0.0
  3
*D3
  1

  0
LINE
  5
1FF
330
1FD
100
AcDbEntity
  8
09-01
 62
     4
370
    -2
100
AcDbLine
 10
66.44631122035798
 20
375.1983335917921
 30
0.0
 11
66.44631122035798
 21
351.5452186800696
 31
0.0
  0
LINE
  5
200
330
1FD
100
AcDbEntity
  8
09-01
 62
     4
370
    -2
100
AcDbLine
 10
236.446311220358
 20
375.1983335917921
 30
0.0
 11
236.446311220358
 21
351.5452186800696
 31
0.0
  0
LINE
  5
201
330
1FD
100
AcDbEntity
  8
09-01
 62
     4
370
    -2
100
AcDbLine
 10
71.44631122035798
 20
353.5452186800696
 30
0.0
 11
231.446311220358
 21
353.5452186800696
 31
0.0
  0
SOLID
  5
202
330
1FD
100
AcDbEntity
  8
09-01
 62
     4
100
AcDbTrace
 10
71.44631122035798
 20
354.378552013403
 30
0.0
 11
71.44631122035798
 21
352.7118853467363
 31
0.0
 12
66.44631122035798
 22
353.5452186800696
 32
0.0
 13
66.44631122035798
 23
353.5452186800696
 33
0.0
  0
SOLID
  5
203
330
1FD
100
AcDbEntity
  8
09-01
 62
     4
100
AcDbTrace
 10
231.446311220358
 20
354.378552013403
 30
0.0
 11
231.446311220358
 21
352.7118853467363
 31
0.0
 12
236.446311220358
 22
353.5452186800696
 32
0.0
 13
236.446311220358
 23
353.5452186800696
 33
0.0
  0
MTEXT
  5
204
330
1FD
100
AcDbEntity
  8
09-01
 62
     1
100
AcDbMText
 10
151.446311220358
 20
358.0452186800696
 30
0.0
 40
5.0
 41
0.0
 46
0.0
 71
     5
 72
     1
  1
170
 73
     1
 44
1.0
  0
POINT
  5
205
330
1FD
100
AcDbEntity
  8
Defpoints
 62
     0
100
AcDbPoint
 10
66.44631122035798
 20
377.1983335917921
 30
0.0
  0
POINT
  5
206
330
1FD
100
AcDbEntity
  8
Defpoints
 62
     0
100
AcDbPoint
 10
236.446311220358
 20
377.1983335917921
 30
0.0
  0
POINT
  5
207
330
1FD
100
AcDbEntity
  8
Defpoints
 62
     0
100
AcDbPoint
 10
236.446311220358
 20
353.5452186800696
 30
0.0
  0
ENDBLK
  5
208
330
1FD
100
AcDbEntity
  8
0
100
AcDbBlockEnd
  0
BLOCK
  5
1F1
330
1F0
100
AcDbEntity
  8
0
100
AcDbBlockBegin
  2
*D4
 70
     1
 10
0.0
 20
0.0
 30
0.0
  3
*D4
  1

  0
LINE
  5
1F2
330
1F0
100
AcDbEntity
  8
09-01
 62
     4
370
    -2
100
AcDbLine
 10
254.1026147311286
 20
375.1983335917921
 30
0.0
 11
254.1026147311286
 21
361.109703876069
 31
0.0
  0
LINE
  5
1F3
330
1F0
100
AcDbEntity
  8
09-01
 62
     4
370
    -2
100
AcDbLine
 10
384.1026147311286
 20
375.1983335917921
 30
0.0
 11
384.1026147311286
 21
361.109703876069
 31
0.0
  0
LINE
  5
1F4
330
1F0
100
AcDbEntity
  8
09-01
 62
     4
370
    -2
100
AcDbLine
 10
259.1026147311286
 20
363.109703876069
 30
0.0
 11
379.1026147311286
 21
363.109703876069
 31
0.0
  0
SOLID
  5
1F5
330
1F0
100
AcDbEntity
  8
09-01
 62
     4
100
AcDbTrace
 10
259.1026147311286
 20
363.9430372094023
 30
0.0
 11
259.1026147311286
 21
362.2763705427357
 31
0.0
 12
254.1026147311286
 22
363.109703876069
 32
0.0
 13
254.1026147311286
 23
363.109703876069
 33
0.0
  0
SOLID
  5
1F6
330
1F0
100
AcDbEntity
  8
09-01
 62
     4
100
AcDbTrace
 10
379.1026147311286
 20
363.9430372094023
 30
0.0
 11
379.1026147311286
 21
362.2763705427357
 31
0.0
 12
384.1026147311286
 22
363.109703876069
 32
0.0
 13
384.1026147311286
 23
363.109703876069
 33
0.0
  0
MTEXT
  5
1F7
330
1F0
100
AcDbEntity
  8
09-01
 62
     1
100
AcDbMText
 10
319.1026147311286
 20
367.6097038760691
 30
0.0
 40
5.0
 41
0.0
 46
0.0
 71
     5
 72
     1
  1
130
 73
     1
 44
1.0
  0
POINT
  5
1F8
330
1F0
100
AcDbEntity
  8
Defpoints
 62
     0
100
AcDbPoint
 10
254.1026147311286
 20
377.1983335917921
 30
0.0
  0
POINT
  5
1F9
330
1F0
100
AcDbEntity
  8
Defpoints
 62
     0
100
AcDbPoint
 10
384.1026147311286
 20
377.1983335917921
 30
0.0
  0
POINT
  5
1FA
330
1F0
100
AcDbEntity
  8
Defpoints
 62
     0
100
AcDbPoint
 10
384.1026147311286
 20
363.109703876069
 30
0.0
  0
ENDBLK
  5
1FB
330
1F0
100
AcDbEntity
  8
0
100
AcDbBlockEnd
  0
BLOCK
  5
1B7
330
1B6
100
AcDbEntity
  8
0
100
AcDbBlockBegin
  2
*D5
 70
     1
 10
0.0
 20
0.0
 30
0.0
  3
*D5
  1

  0
LINE
  5
1B8
330
1B6
100
AcDbEntity
  8
09-01
 62
     4
370
    -2
100
AcDbLine
 10
389.1026147311286
 20
457.9983335917892
 30
0.0
 11
389.1026147311286
 21
472.9470300612224
 31
0.0
  0
LINE
  5
1B9
330
1B6
100
AcDbEntity
  8
09-01
 62
     4
370
    -2
100
AcDbLine
 10
256.8026147311285
 20
457.9983335917892
 30
0.0
 11
256.8026147311285
 21
472.9470300612224
 31
0.0
  0
LINE
  5
1BA
330
1B6
100
AcDbEntity
  8
09-01
 62
     4
370
    -2
100
AcDbLine
 10
384.1026147311286
 20
470.9470300612224
 30
0.0
 11
261.8026147311285
 21
470.9470300612224
 31
0.0
  0
SOLID
  5
1BB
330
1B6
100
AcDbEntity
  8
09-01
 62
     4
100
AcDbTrace
 10
384.1026147311286
 20
471.7803633945557
 30
0.0
 11
384.1026147311286
 21
470.1136967278891
 31
0.0
 12
389.1026147311286
 22
470.9470300612224
 32
0.0
 13
389.1026147311286
 23
470.9470300612224
 33
0.0
  0
SOLID
  5
1BC
330
1B6
100
AcDbEntity
  8
09-01
 62
     4
100
AcDbTrace
 10
261.8026147311285
 20
471.7803633945557
 30
0.0
 11
261.8026147311285
 21
470.1136967278891
 31
0.0
 12
256.8026147311285
 22
470.9470300612224
 32
0.0
 13
256.8026147311285
 23
470.9470300612224
 33
0.0
  0
MTEXT
  5
1BD
330
1B6
100
AcDbEntity
  8
09-01
 62
     1
100
AcDbMText
 10
322.9526147311286
 20
475.4470300612224
 30
0.0
 40
5.0
 41
0.0
 46
0.0
 71
     5
 72
     1
  1
132.3
 73
     1
 44
1.0
  0
POINT
  5
1BE
330
1B6
100
AcDbEntity
  8
Defpoints
 62
     0
100
AcDbPoint
 10
389.1026147311286
 20
455.9983335917892
 30
0.0
  0
POINT
  5
1BF
330
1B6
100
AcDbEntity
  8
Defpoints
 62
     0
100
AcDbPoint
 10
256.8026147311285
 20
455.9983335917892
 30
0.0
  0
POINT
  5
1C0
330
1B6
100
AcDbEntity
  8
Defpoints
 62
     0
100
AcDbPoint
 10
256.8026147311285
 20
470.9470300612224
 30
0.0
  0
ENDBLK
  5
1C1
330
1B6
100
AcDbEntity
  8
0
100
AcDbBlockEnd
  0
BLOCK
  5
1AA
330
1A9
100
AcDbEntity
  8
0
100
AcDbBlockBegin
  2
*D6
 70
     1
 10
0.0
 20
0.0
 30
0.0
  3
*D6
  1

  0
LINE
  5
1AB
330
1A9
100
AcDbEntity
  8
09-01
 62
     4
370
    -2
100
AcDbLine
 10
91.44631122035798
 20
402.1983335917904
 30
0.0
 11
91.44631122035798
 21
361.4638830819747
 31
0.0
  0
LINE
  5
1AC
330
1A9
100
AcDbEntity
  8
09-01
 62
     4
370
    -2
100
AcDbLine
 10
211.446311220358
 20
402.1983335917904
 30
0.0
 11
211.446311220358
 21
361.4638830819747
 31
0.0
  0
LINE
  5
1AD
330
1A9
100
AcDbEntity
  8
09-01
 62
     4
370
    -2
100
AcDbLine
 10
96.44631122035798
 20
363.4638830819747
 30
0.0
 11
206.446311220358
 21
363.4638830819747
 31
0.0
  0
SOLID
  5
1AE
330
1A9
100
AcDbEntity
  8
09-01
 62
     4
100
AcDbTrace
 10
96.44631122035798
 20
364.297216415308
 30
0.0
 11
96.44631122035798
 21
362.6305497486414
 31
0.0
 12
91.44631122035798
 22
363.4638830819747
 32
0.0
 13
91.44631122035798
 23
363.4638830819747
 33
0.0
  0
SOLID
  5
1AF
330
1A9
100
AcDbEntity
  8
09-01
 62
     4
100
AcDbTrace
 10
206.446311220358
 20
364.297216415308
 30
0.0
 11
206.446311220358
 21
362.6305497486414
 31
0.0
 12
211.446311220358
 22
363.4638830819747
 32
0.0
 13
211.446311220358
 23
363.4638830819747
 33
0.0
  0
MTEXT
  5
1B0
330
1A9
100
AcDbEntity
  8
09-01
 62
     1
100
AcDbMText
 10
151.446311220358
 20
367.9638830819747
 30
0.0
 40
5.0
 41
0.0
 46
0.0
 71
     5
 72
     1
  1
120
 73
     1
 44
1.0
  0
POINT
  5
1B1
330
1A9
100
AcDbEntity
  8
Defpoints
 62
     0
100
AcDbPoint
 10
91.44631122035798
 20
404.1983335917904
 30
0.0
  0
POINT
  5
1B2
330
1A9
100
AcDbEntity
  8
Defpoints
 62
     0
100
AcDbPoint
 10
211.446311220358
 20
404.1983335917904
 30
0.0
  0
POINT
  5
1B3
330
1A9
100
AcDbEntity
  8
Defpoints
 62
     0
100
AcDbPoint
 10
211.446311220358
 20
363.4638830819747
 30
0.0
  0
ENDBLK
  5
1B4
330
1A9
100
AcDbEntity
  8
0
100
AcDbBlockEnd
  0
BLOCK
  5
19D
330
19C
100
AcDbEntity
  8
0
100
AcDbBlockBegin
  2
*D7
 70
     1
 10
0.0
 20
0.0
 30
0.0
  3
*D7
  1

  0
LINE
  5
19E
330
19C
100
AcDbEntity
  8
09-01
 62
     4
370
    -2
100
AcDbLine
 10
254.1026147311286
 20
445.9983335917904
 30
0.0
 11
254.1026147311286
 21
484.551274868385
 31
0.0
  0
LINE
  5
19F
330
19C
100
AcDbEntity
  8
09-01
 62
     4
370
    -2
100
AcDbLine
 10
389.1026147311286
 20
457.9983335917892
 30
0.0
 11
389.1026147311286
 21
484.551274868385
 31
0.0
  0
LINE
  5
1A0
330
19C
100
AcDbEntity
  8
09-01
 62
     4
370
    -2
100
AcDbLine
 10
259.1026147311286
 20
482.5512748683849
 30
0.0
 11
384.1026147311286
 21
482.5512748683849
 31
0.0
  0
SOLID
  5
1A1
330
19C
100
AcDbEntity
  8
09-01
 62
     4
100
AcDbTrace
 10
259.1026147311286
 20
483.3846082017183
 30
0.0
 11
259.1026147311286
 21
481.7179415350516
 31
0.0
 12
254.1026147311286
 22
482.5512748683849
 32
0.0
 13
254.1026147311286
 23
482.5512748683849
 33
0.0
  0
SOLID
  5
1A2
330
19C
100
AcDbEntity
  8
09-01
 62
     4
100
AcDbTrace
 10
384.1026147311286
 20
483.3846082017183
 30
0.0
 11
384.1026147311286
 21
481.7179415350516
 31
0.0
 12
389.1026147311286
 22
482.5512748683849
 32
0.0
 13
389.1026147311286
 23
482.5512748683849
 33
0.0
  0
MTEXT
  5
1A3
330
19C
100
AcDbEntity
  8
09-01
 62
     1
100
AcDbMText
 10
321.6026147311286
 20
487.0512748683849
 30
0.0
 40
5.0
 41
0.0
 46
0.0
 71
     5
 72
     1
  1
135
 73
     1
 44
1.0
  0
POINT
  5
1A4
330
19C
100
AcDbEntity
  8
Defpoints
 62
     0
100
AcDbPoint
 10
254.1026147311286
 20
443.9983335917904
 30
0.0
  0
POINT
  5
1A5
330
19C
100
AcDbEntity
  8
Defpoints
 62
     0
100
AcDbPoint
 10
389.1026147311286
 20
455.9983335917892
 30
0.0
  0
POINT
  5
1A6
330
19C
100
AcDbEntity
  8
Defpoints
 62
     0
100
AcDbPoint
 10
389.1026147311286
 20
482.5512748683849
 30
0.0
  0
ENDBLK
  5
1A7
330
19C
100
AcDbEntity
  8
0
100
AcDbBlockEnd
  0
BLOCK
  5
190
330
18F
100
AcDbEntity
  8
0
100
AcDbBlockBegin
  2
*D8
 70
     1
 10
0.0
 20
0.0
 30
0.0
  3
*D8
  1

  0
LINE
  5
191
330
18F
100
AcDbEntity
  8
09-01
 62
     4
370
    -2
100
AcDbLine
 10
91.44631122034843
 20
427.6983335917993
 30
0.0
 11
91.44631122034843
 21
435.7364795532994
 31
0.0
  0
LINE
  5
192
330
18F
100
AcDbEntity
  8
09-01
 62
     4
370
    -2
100
AcDbLine
 10
66.44631122035798
 20
434.595217028419
 30
0.0
 11
66.44631122035798
 21
435.7364795532994
 31
0.0
  0
LINE
  5
193
330
18F
100
AcDbEntity
  8
09-01
 62
     4
370
    -2
100
AcDbLine
 10
86.44631122034843
 20
433.7364795532994
 30
0.0
 11
71.44631122035798
 21
433.7364795532994
 31
0.0
  0
SOLID
  5
194
330
18F
100
AcDbEntity
  8
09-01
 62
     4
100
AcDbTrace
 10
86.44631122034843
 20
434.5698128866327
 30
0.0
 11
86.44631122034843
 21
432.9031462199661
 31
0.0
 12
91.44631122034843
 22
433.7364795532994
 32
0.0
 13
91.44631122034843
 23
433.7364795532994
 33
0.0
  0
SOLID
  5
195
330
18F
100
AcDbEntity
  8
09-01
 62
     4
100
AcDbTrace
 10
71.44631122035798
 20
434.5698128866327
 30
0.0
 11
71.44631122035798
 21
432.9031462199661
 31
0.0
 12
66.44631122035798
 22
433.7364795532994
 32
0.0
 13
66.44631122035798
 23
433.7364795532994
 33
0.0
  0
MTEXT
  5
196
330
18F
100
AcDbEntity
  8
09-01
 62
     1
100
AcDbMText
 10
78.9463112203532
 20
438.2364795532994
 30
0.0
 40
5.0
 41
0.0
 46
0.0
 71
     5
 72
     1
  1
25
 73
     1
 44
1.0
  0
POINT
  5
197
330
18F
100
AcDbEntity
  8
Defpoints
 62
     0
100
AcDbPoint
 10
91.44631122034843
 20
425.6983335917992
 30
0.0
  0
POINT
  5
198
330
18F
100
AcDbEntity
  8
Defpoints
 62
     0
100
AcDbPoint
 10
66.44631122035798
 20
432.595217028419
 30
0.0
  0
POINT
  5
199
330
18F
100
AcDbEntity
  8
Defpoints
 62
     0
100
AcDbPoint
 10
66.44631122035798
 20
433.7364795532994
 30
0.0
  0
ENDBLK
  5
19A
330
18F
100
AcDbEntity
  8
0
100
AcDbBlockEnd
  0
BLOCK
  5
16E
330
16D
100
AcDbEntity
  8
0
100
AcDbBlockBegin
  2
*D9
 70
     1
 10
0.0
 20
0.0
 30
0.0
  3
*D9
  1

  0
LINE
  5
16F
330
16D
100
AcDbEntity
  8
09-01
 62
     4
370
    -2
100
AcDbLine
 10
96.94631122034843
 20
422.1983335917993
 30
0.0
 11
111.1769585565289
 21
422.1983335917993
 31
0.0
  0
LINE
  5
170
330
16D
100
AcDbEntity
  8
09-01
 62
     4
370
    -2
100
AcDbLine
 10
100.6963112203484
 20
410.1983335917993
 30
0.0
 11
111.1769585565289
 21
410.1983335917993
 31
0.0
  0
LINE
  5
171
330
16D
100
AcDbEntity
  8
09-01
 62
     4
370
    -2
100
AcDbLine
 10
109.1769585565289
 20
427.1983335917993
 30
0.0
 11
109.1769585565289
 21
432.1983335917993
 31
0.0
  0
LINE
  5
172
330
16D
100
AcDbEntity
  8
09-01
 62
     4
370
    -2
100
AcDbLine
 10
109.1769585565289
 20
405.1983335917993
 30
0.0
 11
109.1769585565289
 21
400.1983335917993
 31
0.0
  0
LINE
  5
173
330
16D
100
AcDbEntity
  8
09-01
 62
     4
370
    -2
100
AcDbLine
 10
109.1769585565289
 20
422.1983335917993
 30
0.0
 11
109.1769585565289
 21
410.1983335917993
 31
0.0
  0
SOLID
  5
174
330
16D
100
AcDbEntity
  8
09-01
 62
     4
100
AcDbTrace
 10
108.3436252231956
 20
427.1983335917993
 30
0.0
 11
110.0102918898622
 21
427.1983335917993
 31
0.0
 12
109.1769585565289
 22
422.1983335917993
 32
0.0
 13
109.1769585565289
 23
422.1983335917993
 33
0.0
  0
SOLID
  5
175
330
16D
100
AcDbEntity
  8
09-01
 62
     4
100
AcDbTrace
 10
108.3436252231956
 20
405.1983335917993
 30
0.0
 11
110.0102918898622
 21
405.1983335917993
 31
0.0
 12
109.1769585565289
 22
410.1983335917993
 32
0.0
 13
109.1769585565289
 23
410.1983335917993
 33
0.0
  0
MTEXT
  5
176
330
16D
100
AcDbEntity
  8
09-01
 62
     1
100
AcDbMText
 10
104.6769585565288
 20
416.1983335917993
 30
0.0
 40
5.0
 41
0.0
 46
0.0
 71
     5
 72
     1
  1
12
 11
0.0000000000000001
 21
1.0
 31
0.0
 73
     1
 44
1.0
  0
POINT
  5
177
330
16D
100
AcDbEntity
  8
Defpoints
 62
     0
100
AcDbPoint
 10
94.94631122034844
 20
422.1983335917993
 30
0.0
  0
POINT
  5
178
330
16D
100
AcDbEntity
  8
Defpoints
 62
     0
100
AcDbPoint
 10
98.69631122034844
 20
410.1983335917993
 30
0.0
  0
POINT
  5
179
330
16D
100
AcDbEntity
  8
Defpoints
 62
     0
100
AcDbPoint
 10
109.1769585565289
 20
410.1983335917993
 30
0.0
  0
ENDBLK
  5
17A
330
16D
100
AcDbEntity
  8
0
100
AcDbBlockEnd
  0
BLOCK
  5
15F
330
15E
100
AcDbEntity
  8
0
100
AcDbBlockBegin
  2
*D10
 70
     1
 10
0.0
 20
0.0
 30
0.0
  3
*D10
  1

  0
LINE
  5
160
330
15E
100
AcDbEntity
  8
09-01
 62
     4
370
    -2
100
AcDbLine
 10
208.9463112203485
 20
424.1983335917993
 30
0.0
 11
208.9463112203485
 21
429.5952174196282
 31
0.0
  0
LINE
  5
161
330
15E
100
AcDbEntity
  8
09-01
 62
     4
370
    -2
100
AcDbLine
 10
213.9463112203484
 20
424.1983335917993
 30
0.0
 11
213.9463112203484
 21
429.5952174196282
 31
0.0
  0
LINE
  5
162
330
15E
100
AcDbEntity
  8
09-01
 62
     4
370
    -2
100
AcDbLine
 10
203.9463112203484
 20
427.5952174196281
 30
0.0
 11
198.9463112203484
 21
427.5952174196281
 31
0.0
  0
LINE
  5
163
330
15E
100
AcDbEntity
  8
09-01
 62
     4
370
    -2
100
AcDbLine
 10
218.9463112203484
 20
427.5952174196281
 30
0.0
 11
223.9463112203484
 21
427.5952174196281
 31
0.0
  0
LINE
  5
164
330
15E
100
AcDbEntity
  8
09-01
 62
     4
370
    -2
100
AcDbLine
 10
208.9463112203485
 20
427.5952174196281
 30
0.0
 11
213.9463112203484
 21
427.5952174196281
 31
0.0
  0
SOLID
  5
165
330
15E
100
AcDbEntity
  8
09-01
 62
     4
100
AcDbTrace
 10
203.9463112203484
 20
428.4285507529615
 30
0.0
 11
203.9463112203484
 21
426.7618840862948
 31
0.0
 12
208.9463112203485
 22
427.5952174196281
 32
0.0
 13
208.9463112203485
 23
427.5952174196281
 33
0.0
  0
SOLID
  5
166
330
15E
100
AcDbEntity
  8
09-01
 62
     4
100
AcDbTrace
 10
218.9463112203484
 20
428.4285507529615
 30
0.0
 11
218.9463112203484
 21
426.7618840862948
 31
0.0
 12
213.9463112203484
 22
427.5952174196281
 32
0.0
 13
213.9463112203484
 23
427.5952174196281
 33
0.0
  0
MTEXT
  5
167
330
15E
100
AcDbEntity
  8
09-01
 62
     1
100
AcDbMText
 10
211.4463112203484
 20
432.0952174196281
 30
0.0
 40
5.0
 41
0.0
 46
0.0
 71
     5
 72
     1
  1
5
 73
     1
 44
1.0
  0
POINT
  5
168
330
15E
100
AcDbEntity
  8
Defpoints
 62
     0
100
AcDbPoint
 10
208.9463112203485
 20
422.1983335917993
 30
0.0
  0
POINT
  5
169
330
15E
100
AcDbEntity
  8
Defpoints
 62
     0
100
AcDbPoint
 10
213.9463112203484
 20
422.1983335917993
 30
0.0
  0
POINT
  5
16A
330
15E
100
AcDbEntity
  8
Defpoints
 62
     0
100
AcDbPoint
 10
213.9463112203484
 20
427.5952174196281
 30
0.0
  0
ENDBLK
  5
16B
330
15E
100
AcDbEntity
  8
0
100
AcDbBlockEnd
  0
BLOCK
  5
150
330
14F
100
AcDbEntity
  8
0
100
AcDbBlockBegin
  2
*D11
 70
     1
 10
0.0
 20
0.0
 30
0.0
  3
*D11
  1

  0
LINE
  5
151
330
14F
100
AcDbEntity
  8
09-01
 62
     4
370
    -2
100
AcDbLine
 10
205.1963112203484
 20
408.1983335917993
 30
0.0
 11
205.1963112203484
 21
390.387630452733
 31
0.0
  0
LINE
  5
152
330
14F
100
AcDbEntity
  8
09-01
 62
     4
370
    -2
100
AcDbLine
 10
217.6963112203484
 20
408.1983335917993
 30
0.0
 11
217.6963112203484
 21
390.387630452733
 31
0.0
  0
LINE
  5
153
330
14F
100
AcDbEntity
  8
09-01
 62
     4
370
    -2
100
AcDbLine
 10
200.1963112203484
 20
392.387630452733
 30
0.0
 11
195.1963112203484
 21
392.387630452733
 31
0.0
  0
LINE
  5
154
330
14F
100
AcDbEntity
  8
09-01
 62
     4
370
    -2
100
AcDbLine
 10
222.6963112203484
 20
392.387630452733
 30
0.0
 11
227.6963112203485
 21
392.387630452733
 31
0.0
  0
MTEXT
  5
155
330
14F
100
AcDbEntity
  8
09-01
 62
     1
100
AcDbMText
 10
194.4321715157566
 20
397.2105874709205
 30
0.0
 40
5.0
 41
0.0
 46
0.0
 71
     5
 72
     1
  1
12.5
 73
     1
 44
1.0
  0
LINE
  5
156
330
14F
100
AcDbEntity
  8
09-01
 62
     4
370
    -2
100
AcDbLine
 10
205.1963112203484
 20
392.387630452733
 30
0.0
 11
217.6963112203484
 21
392.387630452733
 31
0.0
  0
SOLID
  5
157
330
14F
100
AcDbEntity
  8
09-01
 62
     4
100
AcDbTrace
 10
200.1963112203484
 20
393.2209637860663
 30
0.0
 11
200.1963112203484
 21
391.5542971193997
 31
0.0
 12
205.1963112203484
 22
392.387630452733
 32
0.0
 13
205.1963112203484
 23
392.387630452733
 33
0.0
  0
SOLID
  5
158
330
14F
100
AcDbEntity
  8
09-01
 62
     4
100
AcDbTrace
 10
222.6963112203484
 20
393.2209637860663
 30
0.0
 11
222.6963112203484
 21
391.5542971193997
 31
0.0
 12
217.6963112203484
 22
392.387630452733
 32
0.0
 13
217.6963112203484
 23
392.387630452733
 33
0.0
  0
POINT
  5
159
330
14F
100
AcDbEntity
  8
Defpoints
 62
     0
100
AcDbPoint
 10
205.1963112203484
 20
410.1983335917993
 30
0.0
  0
POINT
  5
15A
330
14F
100
AcDbEntity
  8
Defpoints
 62
     0
100
AcDbPoint
 10
217.6963112203484
 20
410.1983335917993
 30
0.0
  0
POINT
  5
15B
330
14F
100
AcDbEntity
  8
Defpoints
 62
     0
100
AcDbPoint
 10
217.6963112203484
 20
392.387630452733
 30
0.0
  0
ENDBLK
  5
15C
330
14F
100
AcDbEntity
  8
0
100
AcDbBlockEnd
  0
BLOCK
  5
143
330
142
100
AcDbEntity
  8
0
100
AcDbBlockBegin
  2
*D12
 70
     1
 10
0.0
 20
0.0
 30
0.0
  3
*D12
  1

  0
LINE
  5
144
330
142
100
AcDbEntity
  8
09-01
 62
     4
370
    -2
100
AcDbLine
 10
96.94631122034843
 20
422.1983335917993
 30
0.0
 11
125.0681224525669
 21
422.1983335917993
 31
0.0
  0
LINE
  5
145
330
142
100
AcDbEntity
  8
09-01
 62
     4
370
    -2
100
AcDbLine
 10
105.6815962325945
 20
455.8983335917916
 30
0.0
 11
125.0681224525669
 21
455.8983335917916
 31
0.0
  0
LINE
  5
146
330
142
100
AcDbEntity
  8
09-01
 62
     4
370
    -2
100
AcDbLine
 10
123.0681224525669
 20
427.1983335917993
 30
0.0
 11
123.0681224525669
 21
450.8983335917916
 31
0.0
  0
SOLID
  5
147
330
142
100
AcDbEntity
  8
09-01
 62
     4
100
AcDbTrace
 10
122.2347891192336
 20
427.1983335917993
 30
0.0
 11
123.9014557859003
 21
427.1983335917993
 31
0.0
 12
123.0681224525669
 22
422.1983335917993
 32
0.0
 13
123.0681224525669
 23
422.1983335917993
 33
0.0
  0
SOLID
  5
148
330
142
100
AcDbEntity
  8
09-01
 62
     4
100
AcDbTrace
 10
122.2347891192336
 20
450.8983335917916
 30
0.0
 11
123.9014557859003
 21
450.8983335917916
 31
0.0
 12
123.0681224525669
 22
455.8983335917916
 32
0.0
 13
123.0681224525669
 23
455.8983335917916
 33
0.0
  0
MTEXT
  5
149
330
142
100
AcDbEntity
  8
09-01
 62
     1
100
AcDbMText
 10
118.5681224525669
 20
439.0483335917955
 30
0.0
 40
5.0
 41
0.0
 46
0.0
 71
     5
 72
     1
  1
33.7
 11
0.0000000000000001
 21
1.0
 31
0.0
 73
     1
 44
1.0
  0
POINT
  5
14A
330
142
100
AcDbEntity
  8
Defpoints
 62
     0
100
AcDbPoint
 10
94.94631122034844
 20
422.1983335917993
 30
0.0
  0
POINT
  5
14B
330
142
100
AcDbEntity
  8
Defpoints
 62
     0
100
AcDbPoint
 10
103.6815962325945
 20
455.8983335917916
 30
0.0
  0
POINT
  5
14C
330
142
100
AcDbEntity
  8
Defpoints
 62
     0
100
AcDbPoint
 10
123.0681224525669
 20
455.8983335917916
 30
0.0
  0
ENDBLK
  5
14D
330
142
100
AcDbEntity
  8
0
100
AcDbBlockEnd
  0
BLOCK
  5
AF
330
AE
100
AcDbEntity
  8
0
100
AcDbBlockBegin
  2
*D13
 70
     1
 10
0.0
 20
0.0
 30
0.0
  3
*D13
  1

  0
LINE
  5
B0
330
AE
100
AcDbEntity
  8
09-01
 62
     4
370
    -2
100
AcDbLine
 10
384.1026147311286
 20
452.1983335917921
 30
0.0
 11
384.1026147311286
 21
438.7125078895935
 31
0.0
  0
LINE
  5
B1
330
AE
100
AcDbEntity
  8
09-01
 62
     4
370
    -2
100
AcDbLine
 10
389.1026147311286
 20
452.4983335917893
 30
0.0
 11
389.1026147311286
 21
438.7125078895935
 31
0.0
  0
LINE
  5
B2
330
AE
100
AcDbEntity
  8
09-01
 62
     4
370
    -2
100
AcDbLine
 10
379.1026147311286
 20
440.7125078895935
 30
0.0
 11
374.1026147311286
 21
440.7125078895935
 31
0.0
  0
LINE
  5
B3
330
AE
100
AcDbEntity
  8
09-01
 62
     4
370
    -2
100
AcDbLine
 10
394.1026147311286
 20
440.7125078895935
 30
0.0
 11
399.1026147311286
 21
440.7125078895935
 31
0.0
  0
MTEXT
  5
B4
330
AE
100
AcDbEntity
  8
09-01
 62
     1
100
AcDbMText
 10
395.3005755397976
 20
445.2026728187247
 30
0.0
 40
5.0
 41
0.0
 46
0.0
 71
     5
 72
     1
  1
5
 73
     1
 44
1.0
  0
LINE
  5
B5
330
AE
100
AcDbEntity
  8
09-01
 62
     4
370
    -2
100
AcDbLine
 10
384.1026147311286
 20
440.7125078895935
 30
0.0
 11
389.1026147311286
 21
440.7125078895935
 31
0.0
  0
SOLID
  5
B6
330
AE
100
AcDbEntity
  8
09-01
 62
     4
100
AcDbTrace
 10
379.1026147311286
 20
441.5458412229268
 30
0.0
 11
379.1026147311286
 21
439.8791745562602
 31
0.0
 12
384.1026147311286
 22
440.7125078895935
 32
0.0
 13
384.1026147311286
 23
440.7125078895935
 33
0.0
  0
SOLID
  5
B7
330
AE
100
AcDbEntity
  8
09-01
 62
     4
100
AcDbTrace
 10
394.1026147311286
 20
441.5458412229268
 30
0.0
 11
394.1026147311286
 21
439.8791745562602
 31
0.0
 12
389.1026147311286
 22
440.7125078895935
 32
0.0
 13
389.1026147311286
 23
440.7125078895935
 33
0.0
  0
POINT
  5
B8
330
AE
100
AcDbEntity
  8
Defpoints
 62
     0
100
AcDbPoint
 10
384.1026147311286
 20
454.1983335917921
 30
0.0
  0
POINT
  5
B9
330
AE
100
AcDbEntity
  8
Defpoints
 62
     0
100
AcDbPoint
 10
389.1026147311286
 20
454.4983335917892
 30
0.0
  0
POINT
  5
BA
330
AE
100
AcDbEntity
  8
Defpoints
 62
     0
100
AcDbPoint
 10
389.1026147311286
 20
440.7125078895935
 30
0.0
  0
ENDBLK
  5
BB
330
AE
100
AcDbEntity
  8
0
100
AcDbBlockEnd
  0
BLOCK
  5
97
330
96
100
AcDbEntity
  8
0
100
AcDbBlockBegin
  2
*D14
 70
     1
 10
0.0
 20
0.0
 30
0.0
  3
*D14
  1

  0
LINE
  5
98
330
96
100
AcDbEntity
  8
09-01
 62
     4
370
    -2
100
AcDbLine
 10
91.44631122034843
 20
401.9483335917993
 30
0.0
 11
91.44631122034843
 21
391.4317603129298
 31
0.0
  0
LINE
  5
99
330
96
100
AcDbEntity
  8
09-01
 62
     4
370
    -2
100
AcDbLine
 10
151.446311220358
 20
403.9483335917993
 30
0.0
 11
151.446311220358
 21
391.4317603129298
 31
0.0
  0
LINE
  5
9A
330
96
100
AcDbEntity
  8
09-01
 62
     4
370
    -2
100
AcDbLine
 10
96.44631122034844
 20
393.4317603129298
 30
0.0
 11
146.446311220358
 21
393.4317603129298
 31
0.0
  0
SOLID
  5
9B
330
96
100
AcDbEntity
  8
09-01
 62
     4
100
AcDbTrace
 10
96.44631122034844
 20
394.2650936462631
 30
0.0
 11
96.44631122034844
 21
392.5984269795965
 31
0.0
 12
91.44631122034843
 22
393.4317603129298
 32
0.0
 13
91.44631122034843
 23
393.4317603129298
 33
0.0
  0
SOLID
  5
9C
330
96
100
AcDbEntity
  8
09-01
 62
     4
100
AcDbTrace
 10
146.446311220358
 20
394.2650936462631
 30
0.0
 11
146.446311220358
 21
392.5984269795965
 31
0.0
 12
151.446311220358
 22
393.4317603129298
 32
0.0
 13
151.446311220358
 23
393.4317603129298
 33
0.0
  0
MTEXT
  5
9D
330
96
100
AcDbEntity
  8
09-01
 62
     1
100
AcDbMText
 10
121.4463112203532
 20
397.9317603129298
 30
0.0
 40
5.0
 41
0.0
 46
0.0
 71
     5
 72
     1
  1
60
 73
     1
 44
1.0
  0
POINT
  5
9E
330
96
100
AcDbEntity
  8
Defpoints
 62
     0
100
AcDbPoint
 10
91.44631122034843
 20
403.9483335917993
 30
0.0
  0
POINT
  5
9F
330
96
100
AcDbEntity
  8
Defpoints
 62
     0
100
AcDbPoint
 10
151.446311220358
 20
405.9483335917993
 30
0.0
  0
POINT
  5
A0
330
96
100
AcDbEntity
  8
Defpoints
 62
     0
100
AcDbPoint
 10
151.446311220358
 20
393.4317603129298
 30
0.0
  0
ENDBLK
  5
A1
330
96
100
AcDbEntity
  8
0
100
AcDbBlockEnd
  0
BLOCK
  5
8A
330
89
100
AcDbEntity
  8
0
100
AcDbBlockBegin
  2
*D15
 70
     1
 10
0.0
 20
0.0
 30
0.0
  3
*D15
  1

  0
LINE
  5
8B
330
89
100
AcDbEntity
  8
09-01
 62
     4
370
    -2
100
AcDbLine
 10
157.696311220358
 20
410.1983335917993
 30
0.0
 11
167.1130554016258
 21
410.1983335917993
 31
0.0
  0
LINE
  5
8C
330
89
100
AcDbEntity
  8
09-01
 62
     4
370
    -2
100
AcDbLine
 10
151.1438606305269
 20
455.8983335917916
 30
0.0
 11
167.1130554016258
 21
455.8983335917916
 31
0.0
  0
LINE
  5
8D
330
89
100
AcDbEntity
  8
09-01
 62
     4
370
    -2
100
AcDbLine
 10
165.1130554016258
 20
415.1983335917993
 30
0.0
 11
165.1130554016258
 21
450.8983335917916
 31
0.0
  0
SOLID
  5
8E
330
89
100
AcDbEntity
  8
09-01
 62
     4
100
AcDbTrace
 10
164.2797220682924
 20
415.1983335917993
 30
0.0
 11
165.9463887349591
 21
415.1983335917993
 31
0.0
 12
165.1130554016258
 22
410.1983335917993
 32
0.0
 13
165.1130554016258
 23
410.1983335917993
 33
0.0
  0
SOLID
  5
8F
330
89
100
AcDbEntity
  8
09-01
 62
     4
100
AcDbTrace
 10
164.2797220682925
 20
450.8983335917916
 30
0.0
 11
165.9463887349592
 21
450.8983335917916
 31
0.0
 12
165.1130554016258
 22
455.8983335917916
 32
0.0
 13
165.1130554016258
 23
455.8983335917916
 33
0.0
  0
MTEXT
  5
90
330
89
100
AcDbEntity
  8
09-01
 62
     1
100
AcDbMText
 10
160.6130554016257
 20
433.0483335917955
 30
0.0
 40
5.0
 41
0.0
 46
0.0
 71
     5
 72
     1
  1
45.7
 11
0.0000000000000001
 21
1.0
 31
0.0
 73
     1
 44
1.0
  0
POINT
  5
91
330
89
100
AcDbEntity
  8
Defpoints
 62
     0
100
AcDbPoint
 10
155.696311220358
 20
410.1983335917993
 30
0.0
  0
POINT
  5
92
330
89
100
AcDbEntity
  8
Defpoints
 62
     0
100
AcDbPoint
 10
149.1438606305269
 20
455.8983335917916
 30
0.0
  0
POINT
  5
93
330
89
100
AcDbEntity
  8
Defpoints
 62
     0
100
AcDbPoint
 10
165.1130554016258
 20
455.8983335917916
 30
0.0
  0
ENDBLK
  5
94
330
89
100
AcDbEntity
  8
0
100
AcDbBlockEnd
  0
BLOCK
  5
79
330
78
100
AcDbEntity
  8
0
100
AcDbBlockBegin
  2
*D16
 70
     1
 10
0.0
 20
0.0
 30
0.0
  3
*D16
  1

  0
LINE
  5
7A
330
78
100
AcDbEntity
  8
09-01
 62
     4
370
    -2
100
AcDbLine
 10
148.196311220358
 20
412.1983335917993
 30
0.0
 11
148.196311220358
 21
420.6774192580096
 31
0.0
  0
LINE
  5
7B
330
78
100
AcDbEntity
  8
09-01
 62
     4
370
    -2
100
AcDbLine
 10
154.696311220358
 20
412.1983335917993
 30
0.0
 11
154.696311220358
 21
420.6774192580096
 31
0.0
  0
LINE
  5
7C
330
78
100
AcDbEntity
  8
09-01
 62
     4
370
    -2
100
AcDbLine
 10
143.196311220358
 20
418.6774192580096
 30
0.0
 11
138.196311220358
 21
418.6774192580096
 31
0.0
  0
LINE
  5
7D
330
78
100
AcDbEntity
  8
09-01
 62
     4
370
    -2
100
AcDbLine
 10
159.696311220358
 20
418.6774192580096
 30
0.0
 11
164.696311220358
 21
418.6774192580096
 31
0.0
  0
MTEXT
  5
7E
330
78
100
AcDbEntity
  8
09-01
 62
     1
100
AcDbMText
 10
138.4009457628658
 20
423.175209094692
 30
0.0
 40
5.0
 41
0.0
 46
0.0
 71
     5
 72
     1
  1
6.5
 73
     1
 44
1.0
  0
LINE
  5
7F
330
78
100
AcDbEntity
  8
09-01
 62
     4
370
    -2
100
AcDbLine
 10
148.196311220358
 20
418.6774192580096
 30
0.0
 11
154.696311220358
 21
418.6774192580096
 31
0.0
  0
SOLID
  5
80
330
78
100
AcDbEntity
  8
09-01
 62
     4
100
AcDbTrace
 10
143.196311220358
 20
419.5107525913429
 30
0.0
 11
143.196311220358
 21
417.8440859246763
 31
0.0
 12
148.196311220358
 22
418.6774192580096
 32
0.0
 13
148.196311220358
 23
418.6774192580096
 33
0.0
  0
SOLID
  5
81
330
78
100
AcDbEntity
  8
09-01
 62
     4
100
AcDbTrace
 10
159.696311220358
 20
419.5107525913429
 30
0.0
 11
159.696311220358
 21
417.8440859246763
 31
0.0
 12
154.696311220358
 22
418.6774192580096
 32
0.0
 13
154.696311220358
 23
418.6774192580096
 33
0.0
  0
POINT
  5
82
330
78
100
AcDbEntity
  8
Defpoints
 62
     0
100
AcDbPoint
 10
148.196311220358
 20
410.1983335917993
 30
0.0
  0
POINT
  5
84
330
78
100
AcDbEntity
  8
Defpoints
 62
     0
100
AcDbPoint
 10
154.696311220358
 20
410.1983335917993
 30
0.0
  0
POINT
  5
85
330
78
100
AcDbEntity
  8
Defpoints
 62
     0
100
AcDbPoint
 10
154.696311220358
 20
418.6774192580096
 30
0.0
  0
ENDBLK
  5
86
330
78
100
AcDbEntity
  8
0
100
AcDbBlockEnd
  0
ENDSEC
  0
SECTION
  2
ENTITIES
  0
LINE
  5
76
330
2
100
AcDbEntity
  8
0
100
AcDbLine
 10
268.8026147311281
 20
454.4983335917892
 30
0.0
 11
268.8026147311283
 21
455.9983335917872
 31
0.0
  0
DIMENSION
  5
77
330
2
100
AcDbEntity
  8
09-01
100
AcDbDimension
280
     0
  2
*D16
 10
154.696311220358
 20
418.6774192580096
 30
0.0
 11
138.4009457628658
 21
423.175209094692
 31
0.0
 70
   128
 71
     5
 42
6.5
 73
     0
 74
     0
 75
     0
  3
Wagner$0
100
AcDbAlignedDimension
 13
148.196311220358
 23
410.1983335917993
 33
0.0
 14
154.696311220358
 24
410.1983335917993
 34
0.0
100
AcDbRotatedDimension
1001
ACAD
1000
DSTYLE
1002
{
1070
    40
1040
2.0
1002
}
  0
DIMENSION
  5
88
330
2
100
AcDbEntity
  8
09-01
100
AcDbDimension
280
     0
  2
*D15
 10
165.1130554016258
 20
455.8983335917916
 30
0.0
 11
160.6130554016257
 21
433.0483335917955
 31
0.0
 71
     5
 42
45.69999999999232
 73
     0
 74
     0
 75
     0
  3
Wagner$0
100
AcDbAlignedDimension
 13
155.696311220358
 23
410.1983335917993
 33
0.0
 14
149.1438606305269
 24
455.8983335917916
 34
0.0
 50
90.0
100
AcDbRotatedDimension
1001
ACAD
1000
DSTYLE
1002
{
1070
    40
1040
2.0
1002
}
  0
DIMENSION
  5
95
330
2
100
AcDbEntity
  8
09-01
100
AcDbDimension
280
     0
  2
*D14
 10
151.446311220358
 20
393.4317603129298
 30
0.0
 11
121.4463112203532
 21
397.9317603129298
 31
0.0
 71
     5
 42
60.00000000000955
 73
     0
 74
     0
 75
     0
  3
Wagner$0
100
AcDbAlignedDimension
 13
91.44631122034843
 23
403.9483335917993
 33
0.0
 14
151.446311220358
 24
405.9483335917993
 34
0.0
100
AcDbRotatedDimension
1001
ACAD
1000
DSTYLE
1002
{
1070
    40
1040
2.0
1002
}
  0
CIRCLE
  5
A2
330
2
100
AcDbEntity
  8
03-01
100
AcDbCircle
 10
151.446311220358
 20
410.1983335917993
 30
0.0
 40
3.25
  0
LINE
  5
A7
330
2
100
AcDbEntity
  8
05-01
100
AcDbLine
 10
151.446311220358
 20
414.4483335917993
 30
0.0
 11
151.446311220358
 21
405.9483335917993
 31
0.0
  0
LINE
  5
AC
330
2
100
AcDbEntity
  8
05-01
100
AcDbLine
 10
147.196311220358
 20
410.1983335917993
 30
0.0
 11
155.696311220358
 21
410.1983335917993
 31
0.0
  0
DIMENSION
  5
AD
330
2
100
AcDbEntity
  8
09-01
100
AcDbDimension
280
     0
  2
*D13
 10
389.1026147311286
 20
440.7125078895935
 30
0.0
 11
395.3005755397976
 21
445.2026728187247
 31
0.0
 70
   128
 71
     5
 42
5.0
 73
     0
 74
     0
 75
     0
  3
Wagner$0
100
AcDbAlignedDimension
 13
384.1026147311286
 23
454.1983335917921
 33
0.0
 14
389.1026147311286
 24
454.4983335917892
 34
0.0
100
AcDbRotatedDimension
1001
ACAD
1000
DSTYLE
1002
{
1070
    40
1040
2.0
1002
}
  0
INSERT
  5
BC
330
2
100
AcDbEntity
  8
09-01
100
AcDbBlockReference
 66
     1
  2
DIN A4
 10
0.0
 20
0.0
 30
0.0
 41
2.0
 42
2.0
 43
2.0
  0
ATTRIB
  5
12F
330
BC
100
AcDbEntity
  8
06-99
100
AcDbText
 10
232.9908934783543
 20
52.37567739456427
 30
0.0
 40
8.0
  1
Feuchttuchspender WP 119
 41
0.9
  7
ROMANS8
100
AcDbAttribute
280
     0
  2
TEILE
 70
     0
280
     0
  0
ATTRIB
  5
130
330
BC
100
AcDbEntity
  8
06-99
100
AcDbText
 10
185.9941355987348
 20
54.88337093606242
 30
0.0
 40
5.0
  1
Pfrepper
 41
0.9
  7
ROMANS8
100
AcDbAttribute
280
     0
  2
NAME
 70
     0
280
     0
  0
ATTRIB
  5
131
330
BC
100
AcDbEntity
  8
06-99
100
AcDbText
 10
158.9862929037881
 20
54.92247034822231
 30
0.0
 40
5.0
  1
01.10.2010
 50
359.9144597696142
 41
0.5831572030906812
  7
ROMANS8
 72
     5
 11
181.4794742408776
 21
54.88888893333319
 31
0.0
100
AcDbAttribute
280
     0
  2
DATUM
 70
     0
280
     0
  0
ATTRIB
  5
132
330
BC
100
AcDbEntity
  8
06-99
100
AcDbText
 10
382.6947724234292
 20
90.66666666666652
 30
0.0
 40
6.75
  1
1:2
  7
ROMANS8
100
AcDbAttribute
280
     0
  2
:
 70
     0
280
     0
  0
ATTRIB
  5
133
330
BC
100
AcDbEntity
  8
06-99
100
AcDbText
 10
357.0126879343165
 20
14.98579960057725
 30
0.0
 40
5.98752
  1
727525
  7
ROMANS8
100
AcDbAttribute
280
     0
  2
ID.NR
 70
     0
280
     0
  0
ATTRIB
  5
134
330
BC
100
AcDbEntity
  8
06-99
100
AcDbText
 10
233.0
 20
14.99999999999988
 30
0.0
 40
6.336
  1

 41
0.9000000000000001
  7
ROMANS8
100
AcDbAttribute
280
     0
  2
ARTIKEL-NR
 70
     0
280
     0
  0
ATTRIB
  5
135
330
BC
100
AcDbEntity
  8
06-99
100
AcDbText
 10
292.0012677737602
 20
15.00879320870911
 30
0.0
 40
6.336
  1

 41
0.9000000000000001
  7
ROMANS8
100
AcDbAttribute
280
     0
  2
AUFTRAGS.NR.
 70
     0
280
     0
  0
ATTRIB
  5
136
330
BC
100
AcDbEntity
  8
06-99
100
AcDbText
 10
233.4625325114211
 20
75.33333328888875
 30
0.0
 40
6.0
  1

 41
0.9
  7
ROMANS8
100
AcDbAttribute
280
     0
  2
LÄNGE
 70
     0
280
     0
  0
ATTRIB
  5
137
330
BC
100
AcDbEntity
  8
06-99
100
AcDbText
 10
300.3616098235395
 20
75.35620774088949
 30
0.0
 40
6.0
  1

 41
0.9
  7
ROMANS8
100
AcDbAttribute
280
     0
  2
BREITE
 70
     0
280
     0
  0
ATTRIB
  5
138
330
BC
100
AcDbEntity
  8
06-99
100
AcDbText
 10
381.2181842534637
 20
75.33333333333337
 30
0.0
 40
6.187500000000001
  1

  7
ROMANS8
100
AcDbAttribute
280
     0
  2
1.0
 70
     0
280
     0
  0
ATTRIB
  5
139
330
BC
100
AcDbEntity
  8
06-99
100
AcDbText
 10
328.2555712028054
 20
90.66666666666675
 30
0.0
 40
6.0
  1

  7
ROMANS8
 72
     1
 11
328.2555712028054
 21
90.66666666666675
 31
0.0
100
AcDbAttribute
280
     0
  2
IV
 70
     0
280
     0
  0
ATTRIB
  5
13A
330
BC
100
AcDbEntity
  8
06-99
100
AcDbText
 10
42.99893556039705
 20
13.1949127957447
 30
0.0
 40
3.0
  1

 41
0.9
  7
ROMANS8
100
AcDbAttribute
280
     0
  2
ERSETZT.FÜR
 70
     0
280
     0
  0
ATTRIB
  5
13B
330
BC
100
AcDbEntity
  8
06-99
100
AcDbText
 10
92.9995019900166
 20
13.20362013851957
 30
0.0
 40
3.0
  1

 41
0.9
  7
ROMANS8
100
AcDbAttribute
280
     0
  2
ERSETZT.DURCH
 70
     0
280
     0
  0
ATTRIB
  5
13C
330
BC
100
AcDbEntity
  8
06-99
100
AcDbText
 10
207.0177351376697
 20
82.06060133439599
 30
0.0
 40
4.68
  1

  7
ROMANS8
 72
     1
 11
207.0177351376697
 21
82.06060133439599
 31
0.0
100
AcDbAttribute
280
     0
  2
NORM1
 70
     0
280
     0
  0
ATTRIB
  5
13D
330
BC
100
AcDbEntity
  8
06-99
100
AcDbText
 10
191.9748779948126
 20
74.39393466772937
 30
0.0
 40
4.68
  1
DIN 2768
  7
ROMANS8
 72
     1
 11
208.0205922805269
 21
74.39393466772937
 31
0.0
100
AcDbAttribute
280
     0
  2
NORM2
 70
     0
280
     0
  0
ATTRIB
  5
13E
330
BC
100
AcDbEntity
  8
06-99
100
AcDbText
 10
199.9461452928752
 20
95.33702228001585
 30
0.0
 40
2.574
  1
DIN A4
  7
ROMANS8
 72
     1
 11
206.5037167214466
 21
95.33702228001585
 31
0.0
100
AcDbAttribute
280
     0
  2
FORMAT
 70
     0
280
     0
  0
ATTRIB
  5
13F
330
BC
100
AcDbEntity
  8
06-99
100
AcDbText
 10
246.5494810722317
 20
90.66666666666646
 30
0.0
 40
6.75
  1
1.4301
  7
ROMANS8
100
AcDbAttribute
280
     0
  2
1.4301
 70
     0
280
     0
  0
SEQEND
  5
140
330
BC
100
AcDbEntity
  8
09-01
  0
DIMENSION
  5
141
330
2
100
AcDbEntity
  8
09-01
100
AcDbDimension
280
     0
  2
*D12
 10
123.0681224525669
 20
455.8983335917916
 30
0.0
 11
118.5681224525669
 21
439.0483335917955
 31
0.0
 71
     5
 42
33.69999999999232
 73
     0
 74
     0
 75
     0
  3
Wagner$0
100
AcDbAlignedDimension
 13
94.94631122034844
 23
422.1983335917993
 33
0.0
 14
103.6815962325945
 24
455.8983335917916
 34
0.0
 50
90.0
100
AcDbRotatedDimension
1001
ACAD
1000
DSTYLE
1002
{
1070
    40
1040
2.0
1002
}
  0
DIMENSION
  5
14E
330
2
100
AcDbEntity
  8
09-01
100
AcDbDimension
280
     0
  2
*D11
 10
217.6963112203484
 20
392.387630452733
 30
0.0
 11
194.4321715157566
 21
397.2105874709205
 31
0.0
 70
   128
 71
     5
 42
12.5
 73
     0
 74
     0
 75
     0
  3
Wagner$0
100
AcDbAlignedDimension
 13
205.1963112203484
 23
410.1983335917993
 33
0.0
 14
217.6963112203484
 24
410.1983335917993
 34
0.0
100
AcDbRotatedDimension
1001
ACAD
1000
DSTYLE
1002
{
1070
    40
1040
2.0
1002
}
  0
DIMENSION
  5
15D
330
2
100
AcDbEntity
  8
09-01
100
AcDbDimension
280
     0
  2
*D10
 10
213.9463112203484
 20
427.5952174196281
 30
0.0
 11
211.4463112203484
 21
432.0952174196281
 31
0.0
 71
     5
 42
5.0
 73
     0
 74
     0
 75
     0
  3
Wagner$0
100
AcDbAlignedDimension
 13
208.9463112203485
 23
422.1983335917993
 33
0.0
 14
213.9463112203484
 24
422.1983335917993
 34
0.0
100
AcDbRotatedDimension
1001
ACAD
1000
DSTYLE
1002
{
1070
    40
1040
2.0
1002
}
  0
DIMENSION
  5
16C
330
2
100
AcDbEntity
  8
09-01
100
AcDbDimension
280
     0
  2
*D9
 10
109.1769585565289
 20
410.1983335917993
 30
0.0
 11
104.6769585565288
 21
416.1983335917993
 31
0.0
 71
     5
 42
12.0
 73
     0
 74
     0
 75
     0
  3
Wagner$0
100
AcDbAlignedDimension
 13
94.94631122034844
 23
422.1983335917993
 33
0.0
 14
98.69631122034844
 24
410.1983335917993
 34
0.0
 50
90.0
100
AcDbRotatedDimension
1001
ACAD
1000
DSTYLE
1002
{
1070
    40
1040
2.0
1002
}
  0
ARC
  5
17B
330
2
100
AcDbEntity
  8
03-01
100
AcDbCircle
 10
211.4463112203484
 20
410.1983335917993
 30
0.0
 40
6.25
100
AcDbArc
 50
113.5781784782075
 51
66.42182152179249
  0
LINE
  5
17C
330
2
100
AcDbEntity
  8
05-01
100
AcDbLine
 10
218.6963112203484
 20
410.1983335917993
 30
0.0
 11
204.1963112203484
 21
410.1983335917993
 31
0.0
  0
LINE
  5
17D
330
2
100
AcDbEntity
  8
05-01
100
AcDbLine
 10
214.9463112203484
 20
422.1983335917993
 30
0.0
 11
207.9463112203484
 21
422.1983335917993
 31
0.0
  0
LINE
  5
17E
330
2
100
AcDbEntity
  8
03-01
100
AcDbLine
 10
213.9463112203484
 20
422.1983335917993
 30
0.0
 11
213.9463112203484
 21
415.9265532104943
 31
0.0
  0
LINE
  5
17F
330
2
100
AcDbEntity
  8
01-01
100
AcDbLine
 10
211.4463112203484
 20
424.6983335917993
 30
0.0
 11
211.4463112203484
 21
424.6983335917993
 31
0.0
  0
ARC
  5
183
330
2
100
AcDbEntity
  8
03-01
100
AcDbCircle
 10
211.4463112203484
 20
422.1983335917993
 30
0.0
 40
2.5
100
AcDbArc
 50
0.0
 51
180.0
  0
LINE
  5
184
330
2
100
AcDbEntity
  8
03-01
100
AcDbLine
 10
208.9463112203485
 20
415.926553210494
 30
0.0
 11
208.9463112203485
 21
422.1983335917993
 31
0.0
  0
LINE
  5
185
330
2
100
AcDbEntity
  8
05-01
100
AcDbLine
 10
211.4463112203484
 20
425.6983335917992
 30
0.0
 11
211.4463112203484
 21
402.9483335917992
 31
0.0
  0
ARC
  5
186
330
2
100
AcDbEntity
  8
03-01
100
AcDbCircle
 10
91.44631122034843
 20
410.1983335917993
 30
0.0
 40
6.25
100
AcDbArc
 50
113.5781784782075
 51
66.42182152179249
  0
LINE
  5
187
330
2
100
AcDbEntity
  8
05-01
100
AcDbLine
 10
84.19631122034843
 20
410.1983335917993
 30
0.0
 11
98.69631122034844
 21
410.1983335917993
 31
0.0
  0
LINE
  5
188
330
2
100
AcDbEntity
  8
05-01
100
AcDbLine
 10
87.94631122034843
 20
422.1983335917993
 30
0.0
 11
94.94631122034844
 21
422.1983335917993
 31
0.0
  0
LINE
  5
189
330
2
100
AcDbEntity
  8
03-01
100
AcDbLine
 10
88.94631122034843
 20
422.1983335917993
 30
0.0
 11
88.94631122034843
 21
415.9265532104943
 31
0.0
  0
LINE
  5
18A
330
2
100
AcDbEntity
  8
01-01
100
AcDbLine
 10
91.44631122034843
 20
424.6983335917993
 30
0.0
 11
91.44631122034843
 21
424.6983335917993
 31
0.0
  0
ARC
  5
18B
330
2
100
AcDbEntity
  8
03-01
100
AcDbCircle
 10
91.44631122034843
 20
422.1983335917993
 30
0.0
 40
2.5
100
AcDbArc
 50
0.0
 51
180.0
  0
LINE
  5
18C
330
2
100
AcDbEntity
  8
03-01
100
AcDbLine
 10
93.94631122034843
 20
415.926553210494
 30
0.0
 11
93.94631122034843
 21
422.1983335917993
 31
0.0
  0
LINE
  5
18D
330
2
100
AcDbEntity
  8
05-01
100
AcDbLine
 10
91.44631122034843
 20
425.6983335917992
 30
0.0
 11
91.44631122034843
 21
402.9483335917992
 31
0.0
  0
DIMENSION
  5
18E
330
2
100
AcDbEntity
  8
09-01
100
AcDbDimension
280
     0
  2
*D8
 10
66.44631122035798
 20
433.7364795532994
 30
0.0
 11
78.9463112203532
 21
438.2364795532994
 31
0.0
 71
     5
 42
24.99999999999045
 73
     0
 74
     0
 75
     0
  3
Wagner$0
100
AcDbAlignedDimension
 13
91.44631122034843
 23
425.6983335917992
 33
0.0
 14
66.44631122035798
 24
432.595217028419
 34
0.0
100
AcDbRotatedDimension
1001
ACAD
1000
DSTYLE
1002
{
1070
    40
1040
2.0
1002
}
  0
DIMENSION
  5
19B
330
2
100
AcDbEntity
  8
09-01
100
AcDbDimension
280
     0
  2
*D7
 10
389.1026147311286
 20
482.5512748683849
 30
0.0
 11
321.6026147311286
 21
487.0512748683849
 31
0.0
 71
     5
 42
135.0
 73
     0
 74
     0
 75
     0
  3
Wagner$0
100
AcDbAlignedDimension
 13
254.1026147311286
 23
443.9983335917904
 33
0.0
 14
389.1026147311286
 24
455.9983335917892
 34
0.0
100
AcDbRotatedDimension
1001
ACAD
1000
DSTYLE
1002
{
1070
    40
1040
2.0
1002
}
  0
DIMENSION
  5
1A8
330
2
100
AcDbEntity
  8
09-01
100
AcDbDimension
280
     0
  2
*D6
 10
211.446311220358
 20
363.4638830819747
 30
0.0
 11
151.446311220358
 21
367.9638830819747
 31
0.0
 71
     5
 42
120.0
 73
     0
 74
     0
 75
     0
  3
Wagner$0
100
AcDbAlignedDimension
 13
91.44631122035798
 23
404.1983335917904
 33
0.0
 14
211.446311220358
 24
404.1983335917904
 34
0.0
100
AcDbRotatedDimension
1001
ACAD
1000
DSTYLE
1002
{
1070
    40
1040
2.0
1002
}
  0
DIMENSION
  5
1B5
330
2
100
AcDbEntity
  8
09-01
100
AcDbDimension
280
     0
  2
*D5
 10
256.8026147311285
 20
470.9470300612224
 30
0.0
 11
322.9526147311286
 21
475.4470300612224
 31
0.0
 71
     5
 42
132.3
 73
     0
 74
     0
 75
     0
  3
Wagner$0
100
AcDbAlignedDimension
 13
389.1026147311286
 23
455.9983335917892
 33
0.0
 14
256.8026147311285
 24
455.9983335917892
 34
0.0
100
AcDbRotatedDimension
1001
ACAD
1000
DSTYLE
1002
{
1070
    40
1040
2.0
1002
}
  0
ARC
  5
1C2
330
2
100
AcDbEntity
  8
09-01
100
AcDbCircle
 10
69.44631122035798
 20
181.7737933183382
 30
0.0
 40
4.0
100
AcDbArc
 50
179.9999999999996
 51
263.7731278268248
  0
ARC
  5
1C3
330
2
100
AcDbEntity
  8
09-01
100
AcDbCircle
 10
233.4463112203577
 20
181.7737933183381
 30
0.0
 40
4.0
100
AcDbArc
 50
276.226872173162
 51
0.0
  0
ARC
  5
1C4
330
2
100
AcDbEntity
  8
09-01
100
AcDbCircle
 10
151.4463112203582
 20
933.313546092601
 30
0.0
 40
760.0
100
AcDbArc
 50
263.7731278268282
 51
276.2268721731718
  0
LINE
  5
1C5
330
2
100
AcDbEntity
  8
05-01
100
AcDbLine
 10
262.1026147311267
 20
449.1983335917907
 30
0.0
 11
262.1026147311267
 21
452.3983335917915
 31
0.0
  0
LINE
  5
1C6
330
2
100
AcDbEntity
  8
05-01
100
AcDbLine
 10
263.702614731127
 20
450.7983335917911
 30
0.0
 11
260.5026147311263
 21
450.7983335917911
 31
0.0
  0
LINE
  5
1C7
330
2
100
AcDbEntity
  8
0
100
AcDbLine
 10
268.8026147311281
 20
454.4983335917892
 30
0.0
 11
268.8026147311281
 21
454.1983335917921
 31
0.0
  0
LINE
  5
1C8
330
2
100
AcDbEntity
  8
0
100
AcDbLine
 10
269.1026147311283
 20
454.4983335917893
 30
0.0
 11
269.1026147311286
 21
455.9983335917873
 31
0.0
  0
LINE
  5
1C9
330
2
100
AcDbEntity
  8
0
100
AcDbLine
 10
256.8026147311283
 20
454.1983335917921
 30
0.0
 11
256.8026147311285
 21
455.9983335917892
 31
0.0
  0
LINE
  5
1CA
330
2
100
AcDbEntity
  8
09-01
100
AcDbLine
 10
268.8026147311281
 20
454.4983335917892
 30
0.0
 11
389.1026147311286
 21
454.4983335917892
 31
0.0
  0
LINE
  5
1CB
330
2
100
AcDbEntity
  8
09-01
100
AcDbLine
 10
256.8026147311285
 20
455.9983335917892
 30
0.0
 11
389.1026147311286
 21
455.9983335917892
 31
0.0
  0
LINE
  5
1CC
330
2
100
AcDbEntity
  8
09-01
100
AcDbLine
 10
389.1026147311286
 20
454.4983335917892
 30
0.0
 11
389.1026147311286
 21
455.9983335917892
 31
0.0
  0
LINE
  5
1CD
330
2
100
AcDbEntity
  8
05-01
100
AcDbLine
 10
262.1026147311276
 20
449.1983335917907
 30
0.0
 11
262.1026147311276
 21
452.3983335917915
 31
0.0
  0
LINE
  5
1CE
330
2
100
AcDbEntity
  8
05-01
100
AcDbLine
 10
263.7026147311279
 20
450.7983335917911
 30
0.0
 11
260.5026147311272
 21
450.7983335917911
 31
0.0
  0
LINE
  5
1CF
330
2
100
AcDbEntity
  8
02-01
100
AcDbLine
 10
262.1026147311257
 20
449.1983335917907
 30
0.0
 11
262.1026147311276
 21
452.3983335917915
 31
0.0
  0
LINE
  5
1D3
330
2
100
AcDbEntity
  8
02-01
100
AcDbLine
 10
263.7026147311279
 20
450.7983335917911
 30
0.0
 11
260.5026147311272
 21
450.7983335917911
 31
0.0
  0
CIRCLE
  5
1D4
330
2
100
AcDbEntity
  8
0
100
AcDbCircle
 10
262.1026147311276
 20
450.7983335917911
 30
0.0
 40
1.6
  0
LINE
  5
1D5
330
2
100
AcDbEntity
  8
09-01
100
AcDbLine
 10
255.6026147311286
 20
378.6983335917921
 30
0.0
 11
255.6026147311286
 21
377.1983335917921
 31
0.0
  0
LINE
  5
1D6
330
2
100
AcDbEntity
  8
09-01
100
AcDbLine
 10
254.1026147311286
 20
378.6983335917921
 30
0.0
 11
255.6026147311286
 21
378.6983335917921
 31
0.0
  0
LINE
  5
1D7
330
2
100
AcDbEntity
  8
0
100
AcDbLine
 10
233.9463112203584
 20
306.0135460926008
 30
0.0
 11
233.946311220358
 21
306.8135460926007
 31
0.0
  0
LINE
  5
1D8
330
2
100
AcDbEntity
  8
0
100
AcDbLine
 10
68.94631122035798
 20
306.0135460926008
 30
0.0
 11
68.94631122035798
 21
306.8135460926007
 31
0.0
  0
LINE
  5
1D9
330
2
100
AcDbEntity
  8
0
100
AcDbLine
 10
255.1526147311288
 20
443.9983335917904
 30
0.0
 11
254.1026147311286
 21
443.9983335917904
 31
0.0
  0
LINE
  5
1DA
330
2
100
AcDbEntity
  8
05-01
100
AcDbLine
 10
67.76076866355674
 20
450.6983335917916
 30
0.0
 11
65.44631122035799
 21
450.6983335917916
 31
0.0
  0
LINE
  5
1DB
330
2
100
AcDbEntity
  8
0
100
AcDbLine
 10
255.1526147311288
 20
444.2983335917906
 30
0.0
 11
254.6026147311286
 21
444.2983335917906
 31
0.0
  0
ARC
  5
1DC
330
2
100
AcDbEntity
  8
0
100
AcDbCircle
 10
255.1526147311288
 20
444.148333591791
 30
0.0
 40
0.1500000000000057
100
AcDbArc
 50
270.0
 51
90.0
  0
ARC
  5
1DD
330
2
100
AcDbEntity
  8
0
100
AcDbCircle
 10
256.6026147311286
 20
452.1983335917921
 30
0.0
 40
2.0
100
AcDbArc
 50
90.0
 51
180.0
  0
LINE
  5
1DE
330
2
100
AcDbEntity
  8
0
100
AcDbLine
 10
254.1026147311284
 20
443.9983335917904
 30
0.0
 11
255.1526147311288
 21
443.9983335917904
 31
0.0
  0
LINE
  5
1DF
330
2
100
AcDbEntity
  8
09-01
100
AcDbLine
 10
66.44631122035798
 20
454.1983335917916
 30
0.0
 11
236.446311220358
 21
454.1983335917916
 31
0.0
  0
LINE
  5
1E0
330
2
100
AcDbEntity
  8
0
100
AcDbLine
 10
219.946311220358
 20
306.0135460926008
 30
0.0
 11
219.946311220358
 21
307.6135460926007
 31
0.0
  0
LINE
  5
1E1
330
2
100
AcDbEntity
  8
0
100
AcDbLine
 10
234.9463112203578
 20
293.3135460926008
 30
0.0
 11
234.9463112203578
 21
308.313546092601
 31
0.0
  0
LINE
  5
1E2
330
2
100
AcDbEntity
  8
0
100
AcDbLine
 10
219.946311220358
 20
306.813546092601
 30
0.0
 11
219.946311220358
 21
308.313546092601
 31
0.0
  0
LINE
  5
1E3
330
2
100
AcDbEntity
  8
0
100
AcDbLine
 10
234.946311220358
 20
306.813546092601
 30
0.0
 11
219.946311220358
 21
306.813546092601
 31
0.0
  0
LINE
  5
1E4
330
2
100
AcDbEntity
  8
0
100
AcDbLine
 10
236.446311220358
 20
308.313546092601
 30
0.0
 11
219.946311220358
 21
308.313546092601
 31
0.0
  0
ARC
  5
1E5
330
2
100
AcDbEntity
  8
0
100
AcDbCircle
 10
235.446311220358
 20
291.3135460926008
 30
0.0
 40
2.0
100
AcDbArc
 50
0.0
 51
90.0
  0
ARC
  5
1E6
330
2
100
AcDbEntity
  8
0
100
AcDbCircle
 10
67.44631122035798
 20
291.3135460926008
 30
0.0
 40
2.0
100
AcDbArc
 50
90.0
 51
180.0
  0
LINE
  5
1E7
330
2
100
AcDbEntity
  8
0
100
AcDbLine
 10
235.446311220358
 20
293.3135460926008
 30
0.0
 11
234.446311220358
 21
293.3135460926008
 31
0.0
  0
LINE
  5
1E8
330
2
100
AcDbEntity
  8
0
100
AcDbLine
 10
234.446311220358
 20
293.3135460926008
 30
0.0
 11
234.446311220358
 21
305.6135460926012
 31
0.0
  0
LINE
  5
1E9
330
2
100
AcDbEntity
  8
0
100
AcDbLine
 10
67.44631122035798
 20
293.3135460926008
 30
0.0
 11
68.44631122035798
 21
293.3135460926008
 31
0.0
  0
LINE
  5
1EA
330
2
100
AcDbEntity
  8
0
100
AcDbLine
 10
237.446311220358
 20
291.3135460926008
 30
0.0
 11
237.4463112203577
 21
181.7737933183381
 31
0.0
  0
LINE
  5
1EB
330
2
100
AcDbEntity
  8
0
100
AcDbLine
 10
68.44631122035798
 20
293.3135460926008
 30
0.0
 11
68.44631122035798
 21
305.613546092601
 31
0.0
  0
LINE
  5
1EC
330
2
100
AcDbEntity
  8
0
100
AcDbLine
 10
65.44631122035799
 20
181.7737933183383
 30
0.0
 11
65.44631122035799
 21
291.3135460926008
 31
0.0
  0
LINE
  5
1ED
330
2
100
AcDbEntity
  8
0
100
AcDbLine
 10
68.44631122035798
 20
305.613546092601
 30
0.0
 11
234.446311220358
 21
305.613546092601
 31
0.0
  0
LINE
  5
1EE
330
2
100
AcDbEntity
  8
0
100
AcDbLine
 10
67.94631122035776
 20
293.3135460926008
 30
0.0
 11
67.94631122035799
 21
308.313546092601
 31
0.0
  0
DIMENSION
  5
1EF
330
2
100
AcDbEntity
  8
09-01
100
AcDbDimension
280
     0
  2
*D4
 10
384.1026147311286
 20
363.109703876069
 30
0.0
 11
319.1026147311286
 21
367.6097038760691
 31
0.0
 71
     5
 42
130.0
 73
     0
 74
     0
 75
     0
  3
Wagner$0
100
AcDbAlignedDimension
 13
254.1026147311286
 23
377.1983335917921
 33
0.0
 14
384.1026147311286
 24
377.1983335917921
 34
0.0
100
AcDbRotatedDimension
1001
ACAD
1000
DSTYLE
1002
{
1070
    40
1040
2.0
1002
}
  0
DIMENSION
  5
1FC
330
2
100
AcDbEntity
  8
09-01
100
AcDbDimension
280
     0
  2
*D3
 10
236.446311220358
 20
353.5452186800696
 30
0.0
 11
151.446311220358
 21
358.0452186800696
 31
0.0
 71
     5
 42
170.0
 73
     0
 74
     0
 75
     0
  3
Wagner$0
100
AcDbAlignedDimension
 13
66.44631122035798
 23
377.1983335917921
 33
0.0
 14
236.446311220358
 24
377.1983335917921
 34
0.0
100
AcDbRotatedDimension
1001
ACAD
1000
DSTYLE
1002
{
1070
    40
1040
2.0
1002
}
  0
DIMENSION
  5
209
330
2
100
AcDbEntity
  8
09-01
100
AcDbDimension
280
     0
  2
*D2
 10
54.3263156327871
 20
377.1983335917921
 30
0.0
 11
49.82631563278705
 21
416.5483335917919
 31
0.0
 71
     5
 42
78.69999999999953
 73
     0
 74
     0
 75
     0
  3
Wagner$0
100
AcDbAlignedDimension
 13
65.44631122035799
 23
455.8983335917916
 33
0.0
 14
66.44631122035798
 24
377.1983335917921
 34
0.0
 50
90.0
100
AcDbRotatedDimension
1001
ACAD
1000
DSTYLE
1002
{
1070
    40
1040
2.0
1002
}
  0
LINE
  5
216
330
2
100
AcDbEntity
  8
05-01
100
AcDbLine
 10
91.44631122034843
 20
311.2189275209357
 30
0.0
 11
91.44631122034843
 21
302.1460883806658
 31
0.0
  0
LINE
  5
217
330
2
100
AcDbEntity
  8
05-01
100
AcDbLine
 10
211.4463112203484
 20
311.2189275209357
 30
0.0
 11
211.4463112203484
 21
302.1460883806658
 31
0.0
  0
ARC
  5
218
330
2
100
AcDbEntity
  8
0
100
AcDbCircle
 10
229.4936907201329
 20
300.3135460926011
 30
0.0
 40
7.572247474835585
100
AcDbArc
 50
336.6601895530033
 51
23.33981044699662
  0
LINE
  5
219
330
2
100
AcDbEntity
  8
05-01
100
AcDbLine
 10
233.5131431664879
 20
300.3135460926011
 30
0.0
 11
237.4463112203582
 21
300.3135460926011
 31
0.0
  0
ARC
  5
21A
330
2
100
AcDbEntity
  8
0
100
AcDbCircle
 10
73.39893172058328
 20
300.3135460926011
 30
0.0
 40
7.572247474835585
100
AcDbArc
 50
156.6601895530033
 51
203.3398104469966
  0
LINE
  5
21B
330
2
100
AcDbEntity
  8
05-01
100
AcDbLine
 10
69.9391298767764
 20
300.3135460926011
 30
0.0
 11
65.44631122035799
 21
300.3135460926011
 31
0.0
  0
ARC
  5
21C
330
2
100
AcDbEntity
  8
03-01
100
AcDbCircle
 10
233.446311220358
 20
181.313546092601
 30
0.0
 40
3.0
100
AcDbArc
 50
270.0
 51
0.0
  0
LINE
  5
21D
330
2
100
AcDbEntity
  8
03-01
100
AcDbLine
 10
236.446311220358
 20
293.3455969001696
 30
0.0
 11
236.446311220358
 21
181.313546092601
 31
0.0
  0
LINE
  5
21E
330
2
100
AcDbEntity
  8
0
100
AcDbLine
 10
236.446311220358
 20
293.3455969001696
 30
0.0
 11
236.446311220358
 21
308.313546092601
 31
0.0
  0
LINE
  5
21F
330
2
100
AcDbEntity
  8
0
100
AcDbLine
 10
66.44631122035821
 20
293.0455969001696
 30
0.0
 11
66.44631122035798
 21
308.313546092601
 31
0.0
  0
DIMENSION
  5
220
330
2
100
AcDbEntity
  8
0
100
AcDbDimension
280
     0
  2
*D1
 10
237.446311220358
 20
464.1910676649369
 30
0.0
 11
151.446311220358
 21
468.6910676649369
 31
0.0
 71
     5
 42
172.0
 73
     0
 74
     0
 75
     0
  3
Wagner$0
100
AcDbAlignedDimension
 13
65.44631122035799
 23
454.8983335917916
 33
0.0
 14
237.446311220358
 24
454.8983335917916
 34
0.0
100
AcDbRotatedDimension
1001
ACAD
1000
DSTYLE
1002
{
1070
    40
1040
2.0
1002
}
  0
LINE
  5
22D
330
2
100
AcDbEntity
  8
0
100
AcDbLine
 10
82.94631122035799
 20
306.013546092601
 30
0.0
 11
82.94631122035799
 21
307.6135460926009
 31
0.0
  0
LINE
  5
22E
330
2
100
AcDbEntity
  8
0
100
AcDbLine
 10
82.94631122035799
 20
306.813546092601
 30
0.0
 11
82.94631122035799
 21
308.313546092601
 31
0.0
  0
LINE
  5
22F
330
2
100
AcDbEntity
  8
0
100
AcDbLine
 10
82.94631122035799
 20
307.6135460926009
 30
0.0
 11
219.946311220358
 21
307.6135460926007
 31
0.0
  0
LINE
  5
230
330
2
100
AcDbEntity
  8
0
100
AcDbLine
 10
219.946311220358
 20
306.813546092601
 30
0.0
 11
233.9463112203584
 21
306.813546092601
 31
0.0
  0
LINE
  5
231
330
2
100
AcDbEntity
  8
0
100
AcDbLine
 10
68.94631122035798
 20
306.0135460926008
 30
0.0
 11
233.9463112203584
 21
306.0135460926008
 31
0.0
  0
LINE
  5
232
330
2
100
AcDbEntity
  8
0
100
AcDbLine
 10
68.94631122035798
 20
306.8135460926007
 30
0.0
 11
82.94631122035799
 21
306.813546092601
 31
0.0
  0
LINE
  5
233
330
2
100
AcDbEntity
  8
03-01
100
AcDbLine
 10
66.44631122035798
 20
181.313546092601
 30
0.0
 11
66.44631122035798
 21
293.0455969001696
 31
0.0
  0
ARC
  5
234
330
2
100
AcDbEntity
  8
03-01
100
AcDbCircle
 10
69.44631122035798
 20
181.313546092601
 30
0.0
 40
3.0
100
AcDbArc
 50
180.0
 51
270.0
  0
LINE
  5
235
330
2
100
AcDbEntity
  8
03-01
100
AcDbLine
 10
233.446311220358
 20
178.3135460926009
 30
0.0
 11
69.44631122035798
 21
178.3135460926009
 31
0.0
  0
LINE
  5
236
330
2
100
AcDbEntity
  8
0
100
AcDbLine
 10
67.94631122035799
 20
306.813546092601
 30
0.0
 11
82.94631122035799
 21
306.813546092601
 31
0.0
  0
LINE
  5
237
330
2
100
AcDbEntity
  8
0
100
AcDbLine
 10
66.44631122035798
 20
308.313546092601
 30
0.0
 11
82.94631122035799
 21
308.313546092601
 31
0.0
  0
LINE
  5
238
330
2
100
AcDbEntity
  8
0
100
AcDbLine
 10
384.1026147311286
 20
454.1983335917921
 30
0.0
 11
256.6026147311286
 21
454.1983335917921
 31
0.0
  0
LINE
  5
239
330
2
100
AcDbEntity
  8
0
100
AcDbLine
 10
254.1026147311286
 20
443.9983335917904
 30
0.0
 11
254.1026147311286
 21
378.6983335917921
 31
0.0
  0
LINE
  5
23A
330
2
100
AcDbEntity
  8
0
100
AcDbLine
 10
254.6026147311286
 20
452.1983335917921
 30
0.0
 11
254.6026147311286
 21
444.2983335917906
 31
0.0
  0
LINE
  5
23B
330
2
100
AcDbEntity
  8
0
100
AcDbLine
 10
384.1026147311286
 20
377.1983335917921
 30
0.0
 11
384.1026147311286
 21
454.1983335917921
 31
0.0
  0
LINE
  5
23C
330
2
100
AcDbEntity
  8
0
100
AcDbLine
 10
255.6026147311286
 20
377.1983335917921
 30
0.0
 11
384.1026147311286
 21
377.1983335917921
 31
0.0
  0
ARC
  5
23D
330
2
100
AcDbEntity
  8
0
100
AcDbCircle
 10
73.39893172058328
 20
450.698333591792
 30
0.0
 40
7.572247474835585
100
AcDbArc
 50
156.6601895530033
 51
203.3398104469966
  0
LINE
  5
23E
330
2
100
AcDbEntity
  8
05-01
100
AcDbLine
 10
235.216375814266
 20
450.6983335917916
 30
0.0
 11
237.446311220358
 21
450.6983335917916
 31
0.0
  0
ARC
  5
23F
330
2
100
AcDbEntity
  8
0
100
AcDbCircle
 10
229.4936907201327
 20
450.698333591792
 30
0.0
 40
7.572247474835585
100
AcDbArc
 50
336.6601895530033
 51
23.33981044699662
  0
LINE
  5
240
330
2
100
AcDbEntity
  8
0
100
AcDbLine
 10
65.44631122035799
 20
455.8983335917916
 30
0.0
 11
65.44631122035799
 21
454.3983335917916
 31
0.0
  0
LINE
  5
241
330
2
100
AcDbEntity
  8
0
100
AcDbLine
 10
237.446311220358
 20
454.398333591792
 30
0.0
 11
237.446311220358
 21
455.8983335917916
 31
0.0
  0
LINE
  5
242
330
2
100
AcDbEntity
  8
0
100
AcDbLine
 10
65.44631122035799
 20
455.8983335917916
 30
0.0
 11
237.446311220358
 21
455.8983335917916
 31
0.0
  0
LINE
  5
243
330
2
100
AcDbEntity
  8
0
100
AcDbLine
 10
65.44631122035799
 20
454.3983335917916
 30
0.0
 11
237.446311220358
 21
454.398333591792
 31
0.0
  0
LINE
  5
244
330
2
100
AcDbEntity
  8
0
100
AcDbLine
 10
66.44631122035798
 20
308.313546092601
 30
0.0
 11
82.94631122035799
 21
308.313546092601
 31
0.0
  0
LINE
  5
245
330
2
100
AcDbEntity
  8
0
100
AcDbLine
 10
66.44631122035798
 20
454.1983335917916
 30
0.0
 11
66.44631122035798
 21
377.1983335917921
 31
0.0
  0
LINE
  5
246
330
2
100
AcDbEntity
  8
0
100
AcDbLine
 10
236.446311220358
 20
377.1983335917921
 30
0.0
 11
236.446311220358
 21
454.1983335917916
 31
0.0
  0
LINE
  5
247
330
2
100
AcDbEntity
  8
0
100
AcDbLine
 10
66.44631122035798
 20
377.1983335917921
 30
0.0
 11
236.446311220358
 21
377.1983335917921
 31
0.0
  0
ENDSEC
  0
SECTION
  2
OBJECTS
  0
DICTIONARY
  5
B
330
0
100
AcDbDictionary
281
     1
  3
ACAD_COLOR
350
49
  3
ACAD_GROUP
350
36
  3
ACAD_LAYOUT
350
18
  3
ACAD_MATERIAL
350
D
  3
ACAD_MLEADERSTYLE
350
4C
  3
ACAD_MLINESTYLE
350
37
  3
ACAD_PLOTSETTINGS
350
38
  3
ACAD_PLOTSTYLENAME
350
A
  3
ACAD_SCALELIST
350
4A
  3
ACAD_TABLESTYLE
350
4B
  3
ACAD_VISUALSTYLE
350
2E
  3
ACDB_RECOMPOSE_DATA
350
254
  3
AcDbVariableDictionary
350
24A
  0
DICTIONARY
  5
1E
330
1D
100
AcDbDictionary
280
     1
281
     1
  3
ACAD_LAYERFILTERS
360
1F
  3
ACAD_LAYERSTATES
360
20
  3
ACLYDICTIONARY
360
21
  0
DICTIONARY
  5
7
330
6
100
AcDbDictionary
280
     1
281
     1
  3
ADSK_XREC_LAYER_RECONCILED
360
8
  0
DICTIONARY
  5
A9
330
A8
100
AcDbDictionary
280
     1
281
     1
  3
ADSK_XREC_LAYER_RECONCILED
360
AA
  0
DICTIONARY
  5
181
330
180
100
AcDbDictionary
280
     1
281
     1
  3
ADSK_XREC_LAYER_RECONCILED
360
182
  0
DICTIONARY
  5
A4
330
A3
100
AcDbDictionary
280
     1
281
     1
  3
ADSK_XREC_LAYER_RECONCILED
360
A5
  0
DICTIONARY
  5
4E
330
4D
100
AcDbDictionary
280
     1
281
     1
  3
ADSK_XREC_LAYER_RECONCILED
360
4F
  0
DICTIONARY
  5
C3
330
C2
100
AcDbDictionary
280
     1
281
     1
  3
ADSK_XREC_LAYER_RECONCILED
360
C4
  0
DICTIONARY
  5
101
330
100
100
AcDbDictionary
280
     1
281
     1
  3
ADSK_XREC_LAYER_RECONCILED
360
102
  0
DICTIONARY
  5
C9
330
C8
100
AcDbDictionary
280
     1
281
     1
  3
ADSK_XREC_LAYER_RECONCILED
360
CA
  0
DICTIONARY
  5
EB
330
EA
100
AcDbDictionary
280
     1
281
     1
  3
ADSK_XREC_LAYER_RECONCILED
360
EC
  0
DICTIONARY
  5
1D1
330
1D0
100
AcDbDictionary
280
     1
281
     1
  3
ADSK_XREC_LAYER_RECONCILED
360
1D2
  0
DICTIONARY
  5
3
330
2
100
AcDbDictionary
280
     1
281
     1
  3
ACAD_SORTENTS
360
249
  0
DICTIONARY
  5
BE
330
BD
100
AcDbDictionary
280
     1
281
     1
  3
ACAD_SORTENTS
360
248
  0
DICTIONARY
  5
49
102
{ACAD_REACTORS
330
B
102
}
330
B
100
AcDbDictionary
281
     1
  0
DICTIONARY
  5
36
102
{ACAD_REACTORS
330
B
102
}
330
B
100
AcDbDictionary
281
     1
  0
DICTIONARY
  5
18
102
{ACAD_REACTORS
330
B
102
}
330
B
100
AcDbDictionary
281
     1
  3
Layout1
350
1C
  3
Model
350
17
  0
DICTIONARY
  5
D
102
{ACAD_REACTORS
330
B
102
}
330
B
100
AcDbDictionary
281
     1
  3
ByBlock
350
41
  3
ByLayer
350
39
  3
Global
350
C
  0
DICTIONARY
  5
4C
102
{ACAD_REACTORS
330
B
102
}
330
B
100
AcDbDictionary
281
     1
  0
DICTIONARY
  5
37
102
{ACAD_REACTORS
330
B
102
}
330
B
100
AcDbDictionary
281
     1
  3
Standard
350
50
  0
DICTIONARY
  5
38
102
{ACAD_REACTORS
330
B
102
}
330
B
100
AcDbDictionary
281
     1
  0
ACDBDICTIONARYWDFLT
  5
A
102
{ACAD_REACTORS
330
B
102
}
330
B
100
AcDbDictionary
281
     1
  3
Normal
350
9
100
AcDbDictionaryWithDefault
340
9
  0
DICTIONARY
  5
4A
102
{ACAD_REACTORS
330
B
102
}
330
B
100
AcDbDictionary
281
     1
  3
A0
350
55
  3
A1
350
56
  3
A2
350
57
  3
A3
350
58
  3
A4
350
59
  3
A5
350
5A
  3
A6
350
5B
  3
A7
350
5C
  3
A8
350
5D
  3
A9
350
5E
  3
B0
350
5F
  3
B1
350
60
  3
B2
350
61
  3
B3
350
62
  3
B4
350
63
  3
B5
350
64
  3
B6
350
65
  3
B7
350
66
  3
B8
350
67
  3
B9
350
68
  3
C0
350
69
  3
C1
350
6A
  3
C2
350
6B
  3
C3
350
6C
  3
C4
350
6D
  3
C5
350
6E
  3
C6
350
6F
  3
C7
350
70
  3
C8
350
71
  3
C9
350
72
  3
D0
350
73
  3
D1
350
74
  3
D2
350
75
  0
DICTIONARY
  5
4B
102
{ACAD_REACTORS
330
B
102
}
330
B
100
AcDbDictionary
281
     1
  3
Standard
350
51
  0
DICTIONARY
  5
2E
102
{ACAD_REACTORS
330
B
102
}
330
B
100
AcDbDictionary
281
     1
  3
2dWireframe
350
2D
  3
3dWireframe
350
54
  3
Realistic
350
53
  0
XRECORD
  5
254
102
{ACAD_REACTORS
330
B
102
}
330
B
100
AcDbXrecord
280
     1
 90
        1
330
51
  0
DICTIONARY
  5
24A
102
{ACAD_REACTORS
330
B
102
}
330
B
100
AcDbDictionary
281
     1
  3
CANNOSCALE
350
24E
  3
CMLEADERSTYLE
350
24C
  3
CTABLESTYLE
350
24B
  3
LAYEREVAL
350
250
  3
LAYERNOTIFY
350
251
  3
LIGHTINGUNITS
350
24F
  3
MSLTSCALE
350
24D
  0
DICTIONARY
  5
1F
102
{ACAD_REACTORS
330
1E
102
}
330
1E
100
AcDbDictionary
281
     1
  0
DICTIONARY
  5
20
102
{ACAD_REACTORS
330
1E
102
}
330
1E
100
AcDbDictionary
281
     1
  0
DICTIONARY
  5
21
102
{ACAD_REACTORS
330
1E
102
}
330
1E
100
AcDbDictionary
281
     1
1001
ACAD
1000
<All
  0
XRECORD
  5
8
102
{ACAD_REACTORS
330
7
102
}
330
7
100
AcDbXrecord
280
     1
290
     1
  0
XRECORD
  5
AA
102
{ACAD_REACTORS
330
A9
102
}
330
A9
100
AcDbXrecord
280
     1
290
     1
  0
XRECORD
  5
182
102
{ACAD_REACTORS
330
181
102
}
330
181
100
AcDbXrecord
280
     1
290
     1
  0
XRECORD
  5
A5
102
{ACAD_REACTORS
330
A4
102
}
330
A4
100
AcDbXrecord
280
     1
290
     1
  0
XRECORD
  5
4F
102
{ACAD_REACTORS
330
4E
102
}
330
4E
100
AcDbXrecord
280
     1
290
     1
  0
XRECORD
  5
C4
102
{ACAD_REACTORS
330
C3
102
}
330
C3
100
AcDbXrecord
280
     1
290
     1
  0
XRECORD
  5
102
102
{ACAD_REACTORS
330
101
102
}
330
101
100
AcDbXrecord
280
     1
290
     1
  0
XRECORD
  5
CA
102
{ACAD_REACTORS
330
C9
102
}
330
C9
100
AcDbXrecord
280
     1
290
     1
  0
XRECORD
  5
EC
102
{ACAD_REACTORS
330
EB
102
}
330
EB
100
AcDbXrecord
280
     1
290
     1
  0
XRECORD
  5
1D2
102
{ACAD_REACTORS
330
1D1
102
}
330
1D1
100
AcDbXrecord
280
     1
290
     1
  0
SORTENTSTABLE
  5
249
102
{ACAD_REACTORS
330
3
102
}
330
3
100
AcDbSortentsTable
330
2
331
18A
  5
22E
331
23B
  5
16C
331
1C6
  5
216
331
1D6
  5
1E5
331
1C2
  5
21A
331
237
  5
17E
331
233
  5
185
331
1EC
  5
1CC
331
A2
  5
243
331
247
  5
76
331
243
  5
A2
331
1CE
  5
1EA
331
1FC
  5
1C8
331
1E8
  5
1D3
331
187
  5
231
331
1CA
  5
1EE
331
1DE
  5
1DD
331
1E4
  5
1D7
331
183
  5
235
331
1E0
  5
1DB
331
17F
  5
236
331
21C
  5
1A8
331
76
  5
247
331
1DA
  5
1E1
331
17B
  5
23A
331
218
  5
1C4
331
18B
  5
22D
331
23C
  5
15D
331
1C7
  5
209
331
19B
  5
21D
331
1C3
  5
219
331
A7
  5
242
331
238
  5
17D
331
1D7
  5
1E4
331
234
  5
184
331
1D3
  5
1E8
331
1ED
  5
1CB
331
220
  5
18C
331
244
  5
95
331
230
  5
188
331
1CF
  5
1E9
331
1E9
  5
1CF
331
240
  5
AD
331
1CB
  5
1ED
331
1DF
  5
1DC
331
1E5
  5
1D6
331
184
  5
234
331
16C
  5
23B
331
77
  5
246
331
21D
  5
19B
331
209
  5
1C7
331
1DB
  5
1E0
331
1E1
  5
1DA
331
17C
  5
239
331
22D
  5
18B
331
219
  5
1C3
331
18C
  5
220
331
23D
  5
14E
331
188
  5
230
331
1C4
  5
218
331
239
  5
17C
331
235
  5
183
331
1D4
  5
1E7
331
1EE
  5
1CA
331
245
  5
88
331
231
  5
187
331
1EA
  5
1CE
331
1A8
  5
21C
331
88
  5
245
331
241
  5
AC
331
1CC
  5
1EC
331
1E6
  5
1D5
331
185
  5
233
331
1C8
  5
1FC
331
1E2
  5
1D9
331
15D
  5
23C
331
21E
  5
18E
331
1DC
  5
1DF
331
AC
  5
241
331
BC
  5
23F
331
17D
  5
238
331
22E
  5
18A
331
21A
  5
1C2
331
1D8
  5
1E3
331
18D
  5
21F
331
141
  5
23E
331
216
  5
1C6
331
23E
  5
141
331
1B5
  5
21B
331
189
  5
22F
331
1C5
  5
217
331
95
  5
244
331
23A
  5
17B
331
1D5
  5
1E6
331
1EF
  5
1C9
331
236
  5
17F
331
246
  5
77
331
232
  5
186
331
1EB
  5
1CD
331
242
  5
A7
331
1CD
  5
1EB
331
14E
  5
23D
331
1E7
  5
1D4
331
186
  5
232
331
1C9
  5
1EF
331
1E3
  5
1D8
331
21F
  5
18D
331
1DD
  5
1DE
331
AD
  5
240
331
17E
  5
237
331
22F
  5
189
331
21B
  5
1B5
331
1D9
  5
1E2
331
18E
  5
21E
331
23F
  5
BC
331
217
  5
1C5
  0
SORTENTSTABLE
  5
248
102
{ACAD_REACTORS
330
BE
102
}
330
BE
100
AcDbSortentsTable
330
BD
  0
LAYOUT
  5
1C
102
{ACAD_REACTORS
330
18
102
}
330
18
100
AcDbPlotSettings
  1

  2

  4

  6

 40
0.0
 41
0.0
 42
0.0
 43
0.0
 44
0.0
 45
0.0
 46
0.0
 47
0.0
 48
0.0
 49
0.0
140
0.0
141
0.0
142
1.0
143
1.0
 70
   688
 72
     0
 73
     0
 74
     5
  7
CNC-Soft.ctb
 75
    16
147
1.0
 76
     0
 77
     2
 78
   300
148
0.0
149
0.0
100
AcDbLayout
  1
Layout1
 70
     1
 71
     1
 10
0.0
 20
0.0
 11
420.0
 21
297.0
 12
0.0
 22
0.0
 32
0.0
 14
1.000000000000000E+20
 24
1.000000000000000E+20
 34
1.000000000000000E+20
 15
-1.000000000000000E+20
 25
-1.000000000000000E+20
 35
-1.000000000000000E+20
146
0.0
 13
0.0
 23
0.0
 33
0.0
 16
1.0
 26
0.0
 36
0.0
 17
0.0
 27
1.0
 37
0.0
 76
     0
330
19
  0
LAYOUT
  5
17
102
{ACAD_REACTORS
330
18
102
}
330
18
100
AcDbPlotSettings
  1

  2
HP LaserJet 4 Plus
  4
A4
  6

 40
6.805083274841308
 41
5.069413185119628
 42
6.805084228515625
 43
5.027069091796875
 44
209.9733276367187
 45
296.9683227539062
 46
0.0
 47
0.0
 48
0.0
 49
0.0
140
0.0
141
0.0
142
1.0
143
1.421002372057417
 70
 11952
 72
     1
 73
     1
 74
     1
  7
CNC-Soft.ctb
 75
     0
147
0.7037285930438923
 76
     0
 77
     2
 78
   300
148
-129.9842544709245
149
-39.97721940304871
100
AcDbLayout
  1
Model
 70
     1
 71
     0
 10
0.0
 20
0.0
 11
12.0
 21
9.0
 12
0.0
 22
0.0
 32
0.0
 14
0.0
 24
0.0
 34
0.0
 15
0.0
 25
0.0
 35
0.0
146
0.0
 13
0.0
 23
0.0
 33
0.0
 16
1.0
 26
0.0
 36
0.0
 17
0.0
 27
1.0
 37
0.0
 76
     0
330
2
331
2C
  0
MATERIAL
  5
41
102
{ACAD_XDICTIONARY
360
42
102
}
102
{ACAD_REACTORS
330
D
102
}
330
D
100
AcDbMaterial
  1
ByBlock
 72
     0
 43
0.0008202099737533
 43
0.0
 43
0.0
 43
0.0
 43
0.0
 43
0.0008202099737533
 43
0.0
 43
0.0
 43
0.0
 43
0.0
 43
1.0
 43
0.0
 43
0.0
 43
0.0
 43
0.0
 43
1.0
 77
     0
 47
0.0008202099737533
 47
0.0
 47
0.0
 47
0.0
 47
0.0
 47
0.0008202099737533
 47
0.0
 47
0.0
 47
0.0
 47
0.0
 47
1.0
 47
0.0
 47
0.0
 47
0.0
 47
0.0
 47
1.0
171
     0
 49
0.0008202099737533
 49
0.0
 49
0.0
 49
0.0
 49
0.0
 49
0.0008202099737533
 49
0.0
 49
0.0
 49
0.0
 49
0.0
 49
1.0
 49
0.0
 49
0.0
 49
0.0
 49
0.0
 49
1.0
175
     0
142
0.0008202099737533
142
0.0
142
0.0
142
0.0
142
0.0
142
0.0008202099737533
142
0.0
142
0.0
142
0.0
142
0.0
142
1.0
142
0.0
142
0.0
142
0.0
142
0.0
142
1.0
179
     0
144
0.0008202099737533
144
0.0
144
0.0
144
0.0
144
0.0
144
0.0008202099737533
144
0.0
144
0.0
144
0.0
144
0.0
144
1.0
144
0.0
144
0.0
144
0.0
144
0.0
144
1.0
147
0.0008202099737533
147
0.0
147
0.0
147
0.0
147
0.0
147
0.0008202099737533
147
0.0
147
0.0
147
0.0
147
0.0
147
1.0
147
0.0
147
0.0
147
0.0
147
0.0
147
1.0
  0
MATERIAL
  5
39
102
{ACAD_XDICTIONARY
360
3A
102
}
102
{ACAD_REACTORS
330
D
102
}
330
D
100
AcDbMaterial
  1
ByLayer
 72
     0
 43
0.0008202099737533
 43
0.0
 43
0.0
 43
0.0
 43
0.0
 43
0.0008202099737533
 43
0.0
 43
0.0
 43
0.0
 43
0.0
 43
1.0
 43
0.0
 43
0.0
 43
0.0
 43
0.0
 43
1.0
 77
     0
 47
0.0008202099737533
 47
0.0
 47
0.0
 47
0.0
 47
0.0
 47
0.0008202099737533
 47
0.0
 47
0.0
 47
0.0
 47
0.0
 47
1.0
 47
0.0
 47
0.0
 47
0.0
 47
0.0
 47
1.0
171
     0
 49
0.0008202099737533
 49
0.0
 49
0.0
 49
0.0
 49
0.0
 49
0.0008202099737533
 49
0.0
 49
0.0
 49
0.0
 49
0.0
 49
1.0
 49
0.0
 49
0.0
 49
0.0
 49
0.0
 49
1.0
175
     0
142
0.0008202099737533
142
0.0
142
0.0
142
0.0
142
0.0
142
0.0008202099737533
142
0.0
142
0.0
142
0.0
142
0.0
142
1.0
142
0.0
142
0.0
142
0.0
142
0.0
142
1.0
179
     0
144
0.0008202099737533
144
0.0
144
0.0
144
0.0
144
0.0
144
0.0008202099737533
144
0.0
144
0.0
144
0.0
144
0.0
144
1.0
144
0.0
144
0.0
144
0.0
144
0.0
144
1.0
147
0.0008202099737533
147
0.0
147
0.0
147
0.0
147
0.0
147
0.0008202099737533
147
0.0
147
0.0
147
0.0
147
0.0
147
1.0
147
0.0
147
0.0
147
0.0
147
0.0
147
1.0
  0
MATERIAL
  5
C
102
{ACAD_XDICTIONARY
360
E
102
}
102
{ACAD_REACTORS
330
D
102
}
330
D
100
AcDbMaterial
  1
Global
 72
     0
 43
0.0008202099737533
 43
0.0
 43
0.0
 43
0.0
 43
0.0
 43
0.0008202099737533
 43
0.0
 43
0.0
 43
0.0
 43
0.0
 43
1.0
 43
0.0
 43
0.0
 43
0.0
 43
0.0
 43
1.0
 77
     0
 47
0.0008202099737533
 47
0.0
 47
0.0
 47
0.0
 47
0.0
 47
0.0008202099737533
 47
0.0
 47
0.0
 47
0.0
 47
0.0
 47
1.0
 47
0.0
 47
0.0
 47
0.0
 47
0.0
 47
1.0
171
     0
 49
0.0008202099737533
 49
0.0
 49
0.0
 49
0.0
 49
0.0
 49
0.0008202099737533
 49
0.0
 49
0.0
 49
0.0
 49
0.0
 49
1.0
 49
0.0
 49
0.0
 49
0.0
 49
0.0
 49
1.0
175
     0
142
0.0008202099737533
142
0.0
142
0.0
142
0.0
142
0.0
142
0.0008202099737533
142
0.0
142
0.0
142
0.0
142
0.0
142
1.0
142
0.0
142
0.0
142
0.0
142
0.0
142
1.0
179
     0
144
0.0008202099737533
144
0.0
144
0.0
144
0.0
144
0.0
144
0.0008202099737533
144
0.0
144
0.0
144
0.0
144
0.0
144
1.0
144
0.0
144
0.0
144
0.0
144
0.0
144
1.0
147
0.0008202099737533
147
0.0
147
0.0
147
0.0
147
0.0
147
0.0008202099737533
147
0.0
147
0.0
147
0.0
147
0.0
147
1.0
147
0.0
147
0.0
147
0.0
147
0.0
147
1.0
  0
MLINESTYLE
  5
50
102
{ACAD_REACTORS
330
37
102
}
330
37
100
AcDbMlineStyle
  2
STANDARD
 70
     0
  3

 62
   256
 51
90.0
 52
90.0
 71
     2
 49
0.5
 62
   256
  6
BYLAYER
 49
-0.5
 62
   256
  6
BYLAYER
  0
ACDBPLACEHOLDER
  5
9
102
{ACAD_REACTORS
330
A
102
}
330
A
  0
SCALE
  5
55
102
{ACAD_REACTORS
330
4A
102
}
330
4A
100
AcDbScale
 70
     0
300
1:1
140
1.0
141
1.0
290
     1
  0
SCALE
  5
56
102
{ACAD_REACTORS
330
4A
102
}
330
4A
100
AcDbScale
 70
     0
300
1:2
140
1.0
141
2.0
290
     0
  0
SCALE
  5
57
102
{ACAD_REACTORS
330
4A
102
}
330
4A
100
AcDbScale
 70
     0
300
1:4
140
1.0
141
4.0
290
     0
  0
SCALE
  5
58
102
{ACAD_REACTORS
330
4A
102
}
330
4A
100
AcDbScale
 70
     0
300
1:5
140
1.0
141
5.0
290
     0
  0
SCALE
  5
59
102
{ACAD_REACTORS
330
4A
102
}
330
4A
100
AcDbScale
 70
     0
300
1:8
140
1.0
141
8.0
290
     0
  0
SCALE
  5
5A
102
{ACAD_REACTORS
330
4A
102
}
330
4A
100
AcDbScale
 70
     0
300
1:10
140
1.0
141
10.0
290
     0
  0
SCALE
  5
5B
102
{ACAD_REACTORS
330
4A
102
}
330
4A
100
AcDbScale
 70
     0
300
1:16
140
1.0
141
16.0
290
     0
  0
SCALE
  5
5C
102
{ACAD_REACTORS
330
4A
102
}
330
4A
100
AcDbScale
 70
     0
300
1:20
140
1.0
141
20.0
290
     0
  0
SCALE
  5
5D
102
{ACAD_REACTORS
330
4A
102
}
330
4A
100
AcDbScale
 70
     0
300
1:30
140
1.0
141
30.0
290
     0
  0
SCALE
  5
5E
102
{ACAD_REACTORS
330
4A
102
}
330
4A
100
AcDbScale
 70
     0
300
1:40
140
1.0
141
40.0
290
     0
  0
SCALE
  5
5F
102
{ACAD_REACTORS
330
4A
102
}
330
4A
100
AcDbScale
 70
     0
300
1:50
140
1.0
141
50.0
290
     0
  0
SCALE
  5
60
102
{ACAD_REACTORS
330
4A
102
}
330
4A
100
AcDbScale
 70
     0
300
1:100
140
1.0
141
100.0
290
     0
  0
SCALE
  5
61
102
{ACAD_REACTORS
330
4A
102
}
330
4A
100
AcDbScale
 70
     0
300
2:1
140
2.0
141
1.0
290
     0
  0
SCALE
  5
62
102
{ACAD_REACTORS
330
4A
102
}
330
4A
100
AcDbScale
 70
     0
300
4:1
140
4.0
141
1.0
290
     0
  0
SCALE
  5
63
102
{ACAD_REACTORS
330
4A
102
}
330
4A
100
AcDbScale
 70
     0
300
8:1
140
8.0
141
1.0
290
     0
  0
SCALE
  5
64
102
{ACAD_REACTORS
330
4A
102
}
330
4A
100
AcDbScale
 70
     0
300
10:1
140
10.0
141
1.0
290
     0
  0
SCALE
  5
65
102
{ACAD_REACTORS
330
4A
102
}
330
4A
100
AcDbScale
 70
     0
300
100:1
140
100.0
141
1.0
290
     0
  0
SCALE
  5
66
102
{ACAD_REACTORS
330
4A
102
}
330
4A
100
AcDbScale
 70
     0
300
1/128" = 1'-0"
140
0.0078125
141
12.0
290
     0
  0
SCALE
  5
67
102
{ACAD_REACTORS
330
4A
102
}
330
4A
100
AcDbScale
 70
     0
300
1/64" = 1'-0"
140
0.015625
141
12.0
290
     0
  0
SCALE
  5
68
102
{ACAD_REACTORS
330
4A
102
}
330
4A
100
AcDbScale
 70
     0
300
1/32" = 1'-0"
140
0.03125
141
12.0
290
     0
  0
SCALE
  5
69
102
{ACAD_REACTORS
330
4A
102
}
330
4A
100
AcDbScale
 70
     0
300
1/16" = 1'-0"
140
0.0625
141
12.0
290
     0
  0
SCALE
  5
6A
102
{ACAD_REACTORS
330
4A
102
}
330
4A
100
AcDbScale
 70
     0
300
3/32" = 1'-0"
140
0.09375
141
12.0
290
     0
  0
SCALE
  5
6B
102
{ACAD_REACTORS
330
4A
102
}
330
4A
100
AcDbScale
 70
     0
300
1/8" = 1'-0"
140
0.125
141
12.0
290
     0
  0
SCALE
  5
6C
102
{ACAD_REACTORS
330
4A
102
}
330
4A
100
AcDbScale
 70
     0
300
3/16" = 1'-0"
140
0.1875
141
12.0
290
     0
  0
SCALE
  5
6D
102
{ACAD_REACTORS
330
4A
102
}
330
4A
100
AcDbScale
 70
     0
300
1/4" = 1'-0"
140
0.25
141
12.0
290
     0
  0
SCALE
  5
6E
102
{ACAD_REACTORS
330
4A
102
}
330
4A
100
AcDbScale
 70
     0
300
3/8" = 1'-0"
140
0.375
141
12.0
290
     0
  0
SCALE
  5
6F
102
{ACAD_REACTORS
330
4A
102
}
330
4A
100
AcDbScale
 70
     0
300
1/2" = 1'-0"
140
0.5
141
12.0
290
     0
  0
SCALE
  5
70
102
{ACAD_REACTORS
330
4A
102
}
330
4A
100
AcDbScale
 70
     0
300
3/4" = 1'-0"
140
0.75
141
12.0
290
     0
  0
SCALE
  5
71
102
{ACAD_REACTORS
330
4A
102
}
330
4A
100
AcDbScale
 70
     0
300
1" = 1'-0"
140
1.0
141
12.0
290
     0
  0
SCALE
  5
72
102
{ACAD_REACTORS
330
4A
102
}
330
4A
100
AcDbScale
 70
     0
300
1-1/2" = 1'-0"
140
1.5
141
12.0
290
     0
  0
SCALE
  5
73
102
{ACAD_REACTORS
330
4A
102
}
330
4A
100
AcDbScale
 70
     0
300
3" = 1'-0"
140
3.0
141
12.0
290
     0
  0
SCALE
  5
74
102
{ACAD_REACTORS
330
4A
102
}
330
4A
100
AcDbScale
 70
     0
300
6" = 1'-0"
140
6.0
141
12.0
290
     0
  0
SCALE
  5
75
102
{ACAD_REACTORS
330
4A
102
}
330
4A
100
AcDbScale
 70
     0
300
1'-0" = 1'-0"
140
12.0
141
12.0
290
     0
  0
TABLESTYLE
  5
51
102
{ACAD_XDICTIONARY
360
52
102
}
102
{ACAD_REACTORS
330
4B
102
}
330
4B
100
AcDbTableStyle
280
     0
  3
Standard
 70
     0
 71
     0
 40
1.5
 41
1.5
280
     0
281
     0
  7
Standard
140
4.5
170
     2
 62
     0
 63
     7
283
     0
 90
      512
 91
        0
  1

274
    -2
284
     1
 64
     0
275
    -2
285
     1
 65
     0
276
    -2
286
     1
 66
     0
277
    -2
287
     1
 67
     0
278
    -2
288
     1
 68
     0
279
    -2
289
     1
 69
     0
  7
Standard
140
6.0
170
     5
 62
     0
 63
     7
283
     0
 90
      512
 91
        0
  1

274
    -2
284
     1
 64
     0
275
    -2
285
     1
 65
     0
276
    -2
286
     1
 66
     0
277
    -2
287
     1
 67
     0
278
    -2
288
     1
 68
     0
279
    -2
289
     1
 69
     0
  7
Standard
140
4.5
170
     5
 62
     0
 63
     7
283
     0
 90
      512
 91
        0
  1

274
    -2
284
     1
 64
     0
275
    -2
285
     1
 65
     0
276
    -2
286
     1
 66
     0
277
    -2
287
     1
 67
     0
278
    -2
288
     1
 68
     0
279
    -2
289
     1
 69
     0
  0
VISUALSTYLE
  5
2D
102
{ACAD_REACTORS
330
2E
102
}
330
2E
100
AcDbVisualStyle
  2
2dWireframe
 70
     4
177
     2
291
     0
 71
     0
176
     1
 72
     2
176
     1
 73
     0
176
     1
 90
        0
176
     1
 40
0.6
176
     1
 41
30.0
176
     1
 63
     7
421
 16777215
176
     1
 74
     1
176
     1
 91
        4
176
     1
 64
     7
176
     1
 65
   257
176
     1
 75
     1
176
     1
175
     1
176
     1
 42
1.0
176
     1
 92
        0
176
     1
 66
   257
176
     1
 43
1.0
176
     1
 76
     1
176
     1
 77
     6
176
     1
 78
     2
176
     1
 67
     7
176
     1
 79
     5
176
     1
170
     0
176
     1
171
     0
176
     1
290
     0
176
     1
 93
        1
176
     1
 44
0.0
176
     1
173
     0
176
     1
  0
VISUALSTYLE
  5
54
102
{ACAD_REACTORS
330
2E
102
}
330
2E
100
AcDbVisualStyle
  2
3dWireframe
 70
     5
177
     2
291
     0
 71
     0
176
     1
 72
     2
176
     1
 73
     0
176
     1
 90
        0
176
     1
 40
0.6
176
     1
 41
30.0
176
     1
 63
     7
421
 16777215
176
     1
 74
     1
176
     1
 91
        4
176
     1
 64
     7
176
     1
 65
   257
176
     1
 75
     1
176
     1
175
     1
176
     1
 42
1.0
176
     1
 92
        0
176
     1
 66
   257
176
     1
 43
1.0
176
     1
 76
     1
176
     1
 77
     6
176
     1
 78
     2
176
     1
 67
     7
176
     1
 79
     5
176
     1
170
     0
176
     1
171
     0
176
     1
290
     0
176
     1
 93
        1
176
     1
 44
0.0
176
     1
173
     0
176
     1
  0
VISUALSTYLE
  5
53
102
{ACAD_REACTORS
330
2E
102
}
330
2E
100
AcDbVisualStyle
  2
Realistic
 70
     8
177
     2
291
     0
 71
     2
176
     1
 72
     2
176
     1
 73
     0
176
     1
 90
        0
176
     1
 40
0.6
176
     1
 41
30.0
176
     1
 63
     7
421
 16777215
176
     1
 74
     1
176
     1
 91
        0
176
     1
 64
     7
176
     1
 65
   257
176
     1
 75
     1
176
     1
175
     1
176
     1
 42
1.0
176
     1
 92
        8
176
     1
 66
     8
424
  7895160
176
     1
 43
1.0
176
     1
 76
     1
176
     1
 77
     6
176
     1
 78
     2
176
     1
 67
     7
176
     1
 79
     5
176
     1
170
     0
176
     1
171
     0
176
     1
290
     0
176
     1
 93
       13
176
     1
 44
0.0
176
     1
173
     0
176
     1
  0
DICTIONARYVAR
  5
24E
102
{ACAD_REACTORS
330
24A
102
}
330
24A
100
DictionaryVariables
280
     0
  1
1:1
  0
DICTIONARYVAR
  5
24C
102
{ACAD_REACTORS
330
24A
102
}
330
24A
100
DictionaryVariables
280
     0
  1
STANDARD
  0
DICTIONARYVAR
  5
24B
102
{ACAD_REACTORS
330
24A
102
}
330
24A
100
DictionaryVariables
280
     0
  1
STANDARD
  0
DICTIONARYVAR
  5
250
102
{ACAD_REACTORS
330
24A
102
}
330
24A
100
DictionaryVariables
280
     0
  1
1
  0
DICTIONARYVAR
  5
251
102
{ACAD_REACTORS
330
24A
102
}
330
24A
100
DictionaryVariables
280
     0
  1
15
  0
DICTIONARYVAR
  5
24F
102
{ACAD_REACTORS
330
24A
102
}
330
24A
100
DictionaryVariables
280
     0
  1
0
  0
DICTIONARYVAR
  5
24D
102
{ACAD_REACTORS
330
24A
102
}
330
24A
100
DictionaryVariables
280
     0
  1
0
  0
DICTIONARY
  5
42
330
41
100
AcDbDictionary
280
     1
281
     1
  3
BUMPTILE
360
43
  3
DIFFUSETILE
360
44
  3
OPACITYTILE
360
45
  3
REFLECTIONTILE
360
46
  3
REFRACTIONTILE
360
47
  3
SPECULARTILE
360
48
  0
DICTIONARY
  5
3A
330
39
100
AcDbDictionary
280
     1
281
     1
  3
BUMPTILE
360
3B
  3
DIFFUSETILE
360
3C
  3
OPACITYTILE
360
3D
  3
REFLECTIONTILE
360
3E
  3
REFRACTIONTILE
360
3F
  3
SPECULARTILE
360
40
  0
DICTIONARY
  5
E
330
C
100
AcDbDictionary
280
     1
281
     1
  3
BUMPTILE
360
F
  3
DIFFUSETILE
360
10
  3
OPACITYTILE
360
11
  3
REFLECTIONTILE
360
12
  3
REFRACTIONTILE
360
13
  3
SPECULARTILE
360
14
  0
DICTIONARY
  5
52
330
51
100
AcDbDictionary
280
     1
281
     1
  3
ACAD_ROUNDTRIP_2008_TABLESTYLE_CELLSTYLEMAP
360
252
  0
XRECORD
  5
43
102
{ACAD_REACTORS
330
42
102
}
330
42
100
AcDbXrecord
280
     1
270
     1
271
     1
  0
XRECORD
  5
44
102
{ACAD_REACTORS
330
42
102
}
330
42
100
AcDbXrecord
280
     1
270
     1
271
     1
  0
XRECORD
  5
45
102
{ACAD_REACTORS
330
42
102
}
330
42
100
AcDbXrecord
280
     1
270
     1
271
     1
  0
XRECORD
  5
46
102
{ACAD_REACTORS
330
42
102
}
330
42
100
AcDbXrecord
280
     1
270
     1
271
     1
  0
XRECORD
  5
47
102
{ACAD_REACTORS
330
42
102
}
330
42
100
AcDbXrecord
280
     1
270
     1
271
     1
  0
XRECORD
  5
48
102
{ACAD_REACTORS
330
42
102
}
330
42
100
AcDbXrecord
280
     1
270
     1
271
     1
  0
XRECORD
  5
3B
102
{ACAD_REACTORS
330
3A
102
}
330
3A
100
AcDbXrecord
280
     1
270
     1
271
     1
  0
XRECORD
  5
3C
102
{ACAD_REACTORS
330
3A
102
}
330
3A
100
AcDbXrecord
280
     1
270
     1
271
     1
  0
XRECORD
  5
3D
102
{ACAD_REACTORS
330
3A
102
}
330
3A
100
AcDbXrecord
280
     1
270
     1
271
     1
  0
XRECORD
  5
3E
102
{ACAD_REACTORS
330
3A
102
}
330
3A
100
AcDbXrecord
280
     1
270
     1
271
     1
  0
XRECORD
  5
3F
102
{ACAD_REACTORS
330
3A
102
}
330
3A
100
AcDbXrecord
280
     1
270
     1
271
     1
  0
XRECORD
  5
40
102
{ACAD_REACTORS
330
3A
102
}
330
3A
100
AcDbXrecord
280
     1
270
     1
271
     1
  0
XRECORD
  5
F
102
{ACAD_REACTORS
330
E
102
}
330
E
100
AcDbXrecord
280
     1
270
     1
271
     1
  0
XRECORD
  5
10
102
{ACAD_REACTORS
330
E
102
}
330
E
100
AcDbXrecord
280
     1
270
     1
271
     1
  0
XRECORD
  5
11
102
{ACAD_REACTORS
330
E
102
}
330
E
100
AcDbXrecord
280
     1
270
     1
271
     1
  0
XRECORD
  5
12
102
{ACAD_REACTORS
330
E
102
}
330
E
100
AcDbXrecord
280
     1
270
     1
271
     1
  0
XRECORD
  5
13
102
{ACAD_REACTORS
330
E
102
}
330
E
100
AcDbXrecord
280
     1
270
     1
271
     1
  0
XRECORD
  5
14
102
{ACAD_REACTORS
330
E
102
}
330
E
100
AcDbXrecord
280
     1
270
     1
271
     1
  0
CELLSTYLEMAP
  5
252
102
{ACAD_REACTORS
330
52
102
}
330
52
100
AcDbCellStyleMap
 90
        3
300
CELLSTYLE
  1
TABLEFORMAT_BEGIN
 90
        5
170
     1
 91
        0
 92
    32768
 62
   257
 93
        1
300
CONTENTFORMAT
  1
CONTENTFORMAT_BEGIN
 90
        0
 91
        0
 92
      512
 93
        0
300

 40
0.0
140
1.0
 94
        5
 62
     0
340
24
144
6.0
309
CONTENTFORMAT_END
171
     1
301
MARGIN
  1
CELLMARGIN_BEGIN
 40
1.5
 40
1.5
 40
1.5
 40
1.5
 40
4.5
 40
4.5
309
CELLMARGIN_END
 94
        6
 95
        1
302
GRIDFORMAT
  1
GRIDFORMAT_BEGIN
 90
        0
 91
        1
 62
     0
 92
       -2
340
0
 93
        0
 40
1.125
309
GRIDFORMAT_END
 95
        2
302
GRIDFORMAT
  1
GRIDFORMAT_BEGIN
 90
        0
 91
        1
 62
     0
 92
       -2
340
0
 93
        0
 40
1.125
309
GRIDFORMAT_END
 95
        4
302
GRIDFORMAT
  1
GRIDFORMAT_BEGIN
 90
        0
 91
        1
 62
     0
 92
       -2
340
0
 93
        0
 40
1.125
309
GRIDFORMAT_END
 95
        8
302
GRIDFORMAT
  1
GRIDFORMAT_BEGIN
 90
        0
 91
        1
 62
     0
 92
       -2
340
0
 93
        0
 40
1.125
309
GRIDFORMAT_END
 95
       16
302
GRIDFORMAT
  1
GRIDFORMAT_BEGIN
 90
        0
 91
        1
 62
     0
 92
       -2
340
0
 93
        0
 40
1.125
309
GRIDFORMAT_END
 95
       32
302
GRIDFORMAT
  1
GRIDFORMAT_BEGIN
 90
        0
 91
        1
 62
     0
 92
       -2
340
0
 93
        0
 40
1.125
309
GRIDFORMAT_END
309
TABLEFORMAT_END
  1
CELLSTYLE_BEGIN
 90
        1
 91
        1
300
_TITLE
309
CELLSTYLE_END
300
CELLSTYLE
  1
TABLEFORMAT_BEGIN
 90
        5
170
     1
 91
        0
 92
        0
 62
   257
 93
        1
300
CONTENTFORMAT
  1
CONTENTFORMAT_BEGIN
 90
        0
 91
        0
 92
      512
 93
        0
300

 40
0.0
140
1.0
 94
        5
 62
     0
340
24
144
4.5
309
CONTENTFORMAT_END
171
     1
301
MARGIN
  1
CELLMARGIN_BEGIN
 40
1.5
 40
1.5
 40
1.5
 40
1.5
 40
4.5
 40
4.5
309
CELLMARGIN_END
 94
        6
 95
        1
302
GRIDFORMAT
  1
GRIDFORMAT_BEGIN
 90
        0
 91
        1
 62
     0
 92
       -2
340
0
 93
        0
 40
1.125
309
GRIDFORMAT_END
 95
        2
302
GRIDFORMAT
  1
GRIDFORMAT_BEGIN
 90
        0
 91
        1
 62
     0
 92
       -2
340
0
 93
        0
 40
1.125
309
GRIDFORMAT_END
 95
        4
302
GRIDFORMAT
  1
GRIDFORMAT_BEGIN
 90
        0
 91
        1
 62
     0
 92
       -2
340
0
 93
        0
 40
1.125
309
GRIDFORMAT_END
 95
        8
302
GRIDFORMAT
  1
GRIDFORMAT_BEGIN
 90
        0
 91
        1
 62
     0
 92
       -2
340
0
 93
        0
 40
1.125
309
GRIDFORMAT_END
 95
       16
302
GRIDFORMAT
  1
GRIDFORMAT_BEGIN
 90
        0
 91
        1
 62
     0
 92
       -2
340
0
 93
        0
 40
1.125
309
GRIDFORMAT_END
 95
       32
302
GRIDFORMAT
  1
GRIDFORMAT_BEGIN
 90
        0
 91
        1
 62
     0
 92
       -2
340
0
 93
        0
 40
1.125
309
GRIDFORMAT_END
309
TABLEFORMAT_END
  1
CELLSTYLE_BEGIN
 90
        2
 91
        1
300
_HEADER
309
CELLSTYLE_END
300
CELLSTYLE
  1
TABLEFORMAT_BEGIN
 90
        5
170
     1
 91
        0
 92
        0
 62
   257
 93
        1
300
CONTENTFORMAT
  1
CONTENTFORMAT_BEGIN
 90
        0
 91
        0
 92
      512
 93
        0
300

 40
0.0
140
1.0
 94
        2
 62
     0
340
24
144
4.5
309
CONTENTFORMAT_END
171
     1
301
MARGIN
  1
CELLMARGIN_BEGIN
 40
1.5
 40
1.5
 40
1.5
 40
1.5
 40
4.5
 40
4.5
309
CELLMARGIN_END
 94
        6
 95
        1
302
GRIDFORMAT
  1
GRIDFORMAT_BEGIN
 90
        0
 91
        1
 62
     0
 92
       -2
340
0
 93
        0
 40
1.125
309
GRIDFORMAT_END
 95
        2
302
GRIDFORMAT
  1
GRIDFORMAT_BEGIN
 90
        0
 91
        1
 62
     0
 92
       -2
340
0
 93
        0
 40
1.125
309
GRIDFORMAT_END
 95
        4
302
GRIDFORMAT
  1
GRIDFORMAT_BEGIN
 90
        0
 91
        1
 62
     0
 92
       -2
340
0
 93
        0
 40
1.125
309
GRIDFORMAT_END
 95
        8
302
GRIDFORMAT
  1
GRIDFORMAT_BEGIN
 90
        0
 91
        1
 62
     0
 92
       -2
340
0
 93
        0
 40
1.125
309
GRIDFORMAT_END
 95
       16
302
GRIDFORMAT
  1
GRIDFORMAT_BEGIN
 90
        0
 91
        1
 62
     0
 92
       -2
340
0
 93
        0
 40
1.125
309
GRIDFORMAT_END
 95
       32
302
GRIDFORMAT
  1
GRIDFORMAT_BEGIN
 90
        0
 91
        1
 62
     0
 92
       -2
340
0
 93
        0
 40
1.125
309
GRIDFORMAT_END
309
TABLEFORMAT_END
  1
CELLSTYLE_BEGIN
 90
        3
 91
        2
300
_DATA
309
CELLSTYLE_END
  0
ENDSEC
  0
EOF
