  0
SECTION
  2
HEADER
  9
$ACADVER
  1
AC1024
  9
$ACADMAINTVER
 70
     6
  9
$DWGCODEPAGE
  3
ANSI_1252
  9
$INSBASE
 10
0.0
 20
0.0
 30
0.0
  9
$EXTMIN
 10
0.0
 20
0.0
 30
0.0
  9
$EXTMAX
 10
1050.0
 20
1485.0
 30
0.0
  9
$LIMMIN
 10
0.0
 20
0.0
  9
$LIMMAX
 10
1050.0
 20
1485.0
  9
$ORTHOMODE
 70
     1
  9
$REGENMODE
 70
     1
  9
$FILLMODE
 70
     1
  9
$QTEXTMODE
 70
     0
  9
$MIRRTEXT
 70
     1
  9
$LTSCALE
 40
20.0
  9
$ATTMODE
 70
     1
  9
$TEXTSIZE
 40
12.0
  9
$TRACEWID
 40
1.0
  9
$TEXTSTYLE
  7
STANDARD
  9
$CLAYER
  8
09-01
  9
$CELTYPE
  6
ByLayer
  9
$CECOLOR
 62
   256
  9
$CELTSCALE
 40
1.0
  9
$DISPSILH
 70
     0
  9
$DIMSCALE
 40
5.0
  9
$DIMASZ
 40
2.5
  9
$DIMEXO
 40
1.0
  9
$DIMDLI
 40
10.0
  9
$DIMRND
 40
0.0
  9
$DIMDLE
 40
0.0
  9
$DIMEXE
 40
1.0
  9
$DIMTP
 40
0.0
  9
$DIMTM
 40
0.0
  9
$DIMTXT
 40
2.5
  9
$DIMCEN
 40
0.0
  9
$DIMTSZ
 40
0.0
  9
$DIMTOL
 70
     0
  9
$DIMLIM
 70
     0
  9
$DIMTIH
 70
     0
  9
$DIMTOH
 70
     0
  9
$DIMSE1
 70
     0
  9
$DIMSE2
 70
     0
  9
$DIMTAD
 70
     1
  9
$DIMZIN
 70
     8
  9
$DIMBLK
  1

  9
$DIMASO
 70
     1
  9
$DIMSHO
 70
     0
  9
$DIMPOST
  1

  9
$DIMAPOST
  1

  9
$DIMALT
 70
     0
  9
$DIMALTD
 70
     3
  9
$DIMALTF
 40
0.03937007874016
  9
$DIMLFAC
 40
1.0
  9
$DIMTOFL
 70
     1
  9
$DIMTVP
 40
0.0
  9
$DIMTIX
 70
     0
  9
$DIMSOXD
 70
     0
  9
$DIMSAH
 70
     0
  9
$DIMBLK1
  1

  9
$DIMBLK2
  1

  9
$DIMSTYLE
  2
Wagner
  9
$DIMCLRD
 70
     4
  9
$DIMCLRE
 70
     4
  9
$DIMCLRT
 70
     1
  9
$DIMTFAC
 40
1.0
  9
$DIMGAP
 40
1.0
  9
$DIMJUST
 70
     0
  9
$DIMSD1
 70
     0
  9
$DIMSD2
 70
     0
  9
$DIMTOLJ
 70
     0
  9
$DIMTZIN
 70
     8
  9
$DIMALTZ
 70
     0
  9
$DIMALTTZ
 70
     0
  9
$DIMUPT
 70
     0
  9
$DIMDEC
 70
     8
  9
$DIMTDEC
 70
     8
  9
$DIMALTU
 70
     2
  9
$DIMALTTD
 70
     3
  9
$DIMTXSTY
  7
STANDARD
  9
$DIMAUNIT
 70
     0
  9
$DIMADEC
 70
     2
  9
$DIMALTRND
 40
0.0
  9
$DIMAZIN
 70
     2
  9
$DIMDSEP
 70
    46
  9
$DIMATFIT
 70
     3
  9
$DIMFRAC
 70
     0
  9
$DIMLDRBLK
  1

  9
$DIMLUNIT
 70
     2
  9
$DIMLWD
 70
    -2
  9
$DIMLWE
 70
    -2
  9
$DIMTMOVE
 70
     0
  9
$DIMFXL
 40
1.0
  9
$DIMFXLON
 70
     0
  9
$DIMJOGANG
 40
0.7853981633974483
  9
$DIMTFILL
 70
     0
  9
$DIMTFILLCLR
 70
     0
  9
$DIMARCSYM
 70
     0
  9
$DIMLTYPE
  6

  9
$DIMLTEX1
  6

  9
$DIMLTEX2
  6

  9
$DIMTXTDIRECTION
 70
     0
  9
$LUNITS
 70
     2
  9
$LUPREC
 70
     1
  9
$SKETCHINC
 40
1.0
  9
$FILLETRAD
 40
0.0
  9
$AUNITS
 70
     0
  9
$AUPREC
 70
     2
  9
$MENU
  1
cncmenue
  9
$ELEVATION
 40
0.0
  9
$PELEVATION
 40
0.0
  9
$THICKNESS
 40
0.0
  9
$LIMCHECK
 70
     0
  9
$CHAMFERA
 40
0.0
  9
$CHAMFERB
 40
0.0
  9
$CHAMFERC
 40
0.0
  9
$CHAMFERD
 40
0.0
  9
$SKPOLY
 70
     0
  9
$TDCREATE
 40
2450854.661488079
  9
$TDUCREATE
 40
2450854.578154746
  9
$TDUPDATE
 40
2456343.474638831
  9
$TDUUPDATE
 40
2456343.391305498
  9
$TDINDWG
 40
0.2381833681
  9
$TDUSRTIMER
 40
0.2381833681
  9
$USRTIMER
 70
     1
  9
$ANGBASE
 50
0.0
  9
$ANGDIR
 70
     0
  9
$PDMODE
 70
     0
  9
$PDSIZE
 40
0.0
  9
$PLINEWID
 40
0.0
  9
$SPLFRAME
 70
     0
  9
$SPLINETYPE
 70
     6
  9
$SPLINESEGS
 70
     8
  9
$HANDSEED
  5
439
  9
$SURFTAB1
 70
    24
  9
$SURFTAB2
 70
    24
  9
$SURFTYPE
 70
     6
  9
$SURFU
 70
     6
  9
$SURFV
 70
     6
  9
$UCSBASE
  2

  9
$UCSNAME
  2

  9
$UCSORG
 10
0.0
 20
0.0
 30
0.0
  9
$UCSXDIR
 10
1.0
 20
0.0
 30
0.0
  9
$UCSYDIR
 10
0.0
 20
1.0
 30
0.0
  9
$UCSORTHOREF
  2

  9
$UCSORTHOVIEW
 70
     0
  9
$UCSORGTOP
 10
0.0
 20
0.0
 30
0.0
  9
$UCSORGBOTTOM
 10
0.0
 20
0.0
 30
0.0
  9
$UCSORGLEFT
 10
0.0
 20
0.0
 30
0.0
  9
$UCSORGRIGHT
 10
0.0
 20
0.0
 30
0.0
  9
$UCSORGFRONT
 10
0.0
 20
0.0
 30
0.0
  9
$UCSORGBACK
 10
0.0
 20
0.0
 30
0.0
  9
$PUCSBASE
  2

  9
$PUCSNAME
  2

  9
$PUCSORG
 10
0.0
 20
0.0
 30
0.0
  9
$PUCSXDIR
 10
1.0
 20
0.0
 30
0.0
  9
$PUCSYDIR
 10
0.0
 20
1.0
 30
0.0
  9
$PUCSORTHOREF
  2

  9
$PUCSORTHOVIEW
 70
     0
  9
$PUCSORGTOP
 10
0.0
 20
0.0
 30
0.0
  9
$PUCSORGBOTTOM
 10
0.0
 20
0.0
 30
0.0
  9
$PUCSORGLEFT
 10
0.0
 20
0.0
 30
0.0
  9
$PUCSORGRIGHT
 10
0.0
 20
0.0
 30
0.0
  9
$PUCSORGFRONT
 10
0.0
 20
0.0
 30
0.0
  9
$PUCSORGBACK
 10
0.0
 20
0.0
 30
0.0
  9
$USERI1
 70
     0
  9
$USERI2
 70
     0
  9
$USERI3
 70
     0
  9
$USERI4
 70
     0
  9
$USERI5
 70
     0
  9
$USERR1
 40
0.0
  9
$USERR2
 40
0.0
  9
$USERR3
 40
0.0
  9
$USERR4
 40
0.0
  9
$USERR5
 40
0.0
  9
$WORLDVIEW
 70
     1
  9
$SHADEDGE
 70
     3
  9
$SHADEDIF
 70
    70
  9
$TILEMODE
 70
     1
  9
$MAXACTVP
 70
    16
  9
$PINSBASE
 10
0.0
 20
0.0
 30
0.0
  9
$PLIMCHECK
 70
     0
  9
$PEXTMIN
 10
1.000000000000000E+20
 20
1.000000000000000E+20
 30
1.000000000000000E+20
  9
$PEXTMAX
 10
-1.000000000000000E+20
 20
-1.000000000000000E+20
 30
-1.000000000000000E+20
  9
$PLIMMIN
 10
0.0
 20
0.0
  9
$PLIMMAX
 10
12.0
 20
9.0
  9
$UNITMODE
 70
     0
  9
$VISRETAIN
 70
     0
  9
$PLINEGEN
 70
     0
  9
$PSLTSCALE
 70
     0
  9
$TREEDEPTH
 70
  3020
  9
$CMLSTYLE
  2
Standard
  9
$CMLJUST
 70
     0
  9
$CMLSCALE
 40
1.0
  9
$PROXYGRAPHICS
 70
     1
  9
$MEASUREMENT
 70
     0
  9
$CELWEIGHT
370
    -1
  9
$ENDCAPS
280
     0
  9
$JOINSTYLE
280
     0
  9
$LWDISPLAY
290
     0
  9
$INSUNITS
 70
     0
  9
$HYPERLINKBASE
  1

  9
$STYLESHEET
  1

  9
$XEDIT
290
     1
  9
$CEPSNTYPE
380
     0
  9
$PSTYLEMODE
290
     1
  9
$FINGERPRINTGUID
  2
{D610D1BE-0208-4913-ABC3-71867A37CE1B}
  9
$VERSIONGUID
  2
{E4A7F989-DD64-4B30-9E45-90F7BE9AD703}
  9
$EXTNAMES
290
     1
  9
$PSVPSCALE
 40
0.0
  9
$OLESTARTUP
290
     0
  9
$SORTENTS
280
   127
  9
$INDEXCTL
280
     0
  9
$HIDETEXT
280
     1
  9
$XCLIPFRAME
280
     0
  9
$HALOGAP
280
     0
  9
$OBSCOLOR
 70
   257
  9
$OBSLTYPE
280
     0
  9
$INTERSECTIONDISPLAY
280
     0
  9
$INTERSECTIONCOLOR
 70
   257
  9
$DIMASSOC
280
     1
  9
$PROJECTNAME
  1

  9
$CAMERADISPLAY
290
     0
  9
$LENSLENGTH
 40
50.0
  9
$CAMERAHEIGHT
 40
0.0
  9
$STEPSPERSEC
 40
2.0
  9
$STEPSIZE
 40
6.0
  9
$3DDWFPREC
 40
2.0
  9
$PSOLWIDTH
 40
0.25
  9
$PSOLHEIGHT
 40
4.0
  9
$LOFTANG1
 40
1.570796326794896
  9
$LOFTANG2
 40
1.570796326794896
  9
$LOFTMAG1
 40
0.0
  9
$LOFTMAG2
 40
0.0
  9
$LOFTPARAM
 70
     7
  9
$LOFTNORMALS
280
     1
  9
$LATITUDE
 40
37.795
  9
$LONGITUDE
 40
-122.394
  9
$NORTHDIRECTION
 40
0.0
  9
$TIMEZONE
 70
 -8000
  9
$LIGHTGLYPHDISPLAY
280
     1
  9
$TILEMODELIGHTSYNCH
280
     1
  9
$CMATERIAL
347
3C
  9
$SOLIDHIST
280
     1
  9
$SHOWHIST
280
     1
  9
$DWFFRAME
280
     2
  9
$DGNFRAME
280
     0
  9
$REALWORLDSCALE
290
     1
  9
$INTERFERECOLOR
 62
     1
  9
$INTERFEREOBJVS
345
56
  9
$INTERFEREVPVS
346
57
  9
$CSHADOW
280
     0
  9
$SHADOWPLANELOCATION
 40
0.0
  0
ENDSEC
  0
SECTION
  2
CLASSES
  0
CLASS
  1
ACDBDICTIONARYWDFLT
  2
AcDbDictionaryWithDefault
  3
ObjectDBX Classes
 90
        0
 91
        1
280
     0
281
     0
  0
CLASS
  1
MATERIAL
  2
AcDbMaterial
  3
ObjectDBX Classes
 90
     1153
 91
        3
280
     0
281
     0
  0
CLASS
  1
VISUALSTYLE
  2
AcDbVisualStyle
  3
ObjectDBX Classes
 90
     4095
 91
        3
280
     0
281
     0
  0
CLASS
  1
TABLESTYLE
  2
AcDbTableStyle
  3
ObjectDBX Classes
 90
     4095
 91
        1
280
     0
281
     0
  0
CLASS
  1
SCALE
  2
AcDbScale
  3
ObjectDBX Classes
 90
     1153
 91
       33
280
     0
281
     0
  0
CLASS
  1
MLEADERSTYLE
  2
AcDbMLeaderStyle
  3
ACDB_MLEADERSTYLE_CLASS
 90
     4095
 91
        0
280
     0
281
     0
  0
CLASS
  1
SORTENTSTABLE
  2
AcDbSortentsTable
  3
ObjectDBX Classes
 90
        0
 91
        6
280
     0
281
     0
  0
CLASS
  1
CELLSTYLEMAP
  2
AcDbCellStyleMap
  3
ObjectDBX Classes
 90
     1152
 91
        1
280
     0
281
     0
  0
CLASS
  1
DICTIONARYVAR
  2
AcDbDictionaryVar
  3
ObjectDBX Classes
 90
        0
 91
        7
280
     0
281
     0
  0
CLASS
  1
SOLID_BACKGROUND
  2
AcDbSolidBackground
  3
SCENEOE
 90
     4095
 91
        0
280
     0
281
     0
  0
CLASS
  1
NPOCOLLECTION
  2
AcDbImpNonPersistentObjectsCollection
  3
ObjectDBX Classes
 90
     1153
 91
        0
280
     0
281
     0
  0
CLASS
  1
ACAD_TABLE
  2
AcDbTable
  3
ObjectDBX Classes
 90
     1025
 91
        0
280
     0
281
     1
  0
CLASS
  1
IMAGEDEF
  2
AcDbRasterImageDef
  3
ISM
 90
        0
 91
        0
280
     0
281
     0
  0
CLASS
  1
TABLECONTENT
  2
AcDbTableContent
  3
ObjectDBX Classes
 90
     1152
 91
        0
280
     0
281
     0
  0
CLASS
  1
TABLEGEOMETRY
  2
AcDbTableGeometry
  3
ObjectDBX Classes
 90
     1152
 91
        0
280
     0
281
     0
  0
ENDSEC
  0
SECTION
  2
TABLES
  0
TABLE
  2
VPORT
  5
2C
102
{ACAD_XDICTIONARY
360
30
102
}
330
0
100
AcDbSymbolTable
 70
     1
  0
VPORT
  5
2D
330
2C
100
AcDbSymbolTableRecord
100
AcDbViewportTableRecord
  2
*Active
 70
     0
 10
0.0
 20
0.0
 11
1.0
 21
1.0
 12
1242.502967920121
 22
757.7062471624813
 13
0.0
 23
0.0
 14
1.0
 24
1.0
 15
100.0
 25
100.0
 16
0.0
 26
0.0
 36
1.0
 17
0.0
 27
0.0
 37
0.0
 40
1680.263524633148
 41
1.937738246505718
 42
50.0
 43
0.0
 44
0.0
 50
0.0
 51
0.0
 71
     0
 72
  1000
 73
     1
 74
     0
 75
     0
 76
     0
 77
     0
 78
     0
281
     0
 65
     1
110
0.0
120
0.0
130
0.0
111
1.0
121
0.0
131
0.0
112
0.0
122
1.0
132
0.0
 79
     0
146
0.0
348
2E
 60
     3
 61
     5
292
     1
282
     1
141
0.0
142
0.0
 63
   250
421
  3355443
  0
ENDTAB
  0
TABLE
  2
LTYPE
  5
27
330
0
100
AcDbSymbolTable
 70
     4
  0
LTYPE
  5
28
330
27
100
AcDbSymbolTableRecord
100
AcDbLinetypeTableRecord
  2
ByBlock
 70
     0
  3

 72
    65
 73
     0
 40
0.0
  0
LTYPE
  5
29
330
27
100
AcDbSymbolTableRecord
100
AcDbLinetypeTableRecord
  2
ByLayer
 70
     0
  3

 72
    65
 73
     0
 40
0.0
  0
LTYPE
  5
15
330
27
100
AcDbSymbolTableRecord
100
AcDbLinetypeTableRecord
  2
CONTINUOUS
 70
     0
  3
Ausgezogene Linie
 72
    65
 73
     0
 40
0.0
  0
LTYPE
  5
32B
330
27
100
AcDbSymbolTableRecord
100
AcDbLinetypeTableRecord
  2
AUSGEZOGEN
 70
     0
  3
Ausgezogene Linie
 72
    65
 73
     0
 40
0.0
  0
LTYPE
  5
1C7
330
27
100
AcDbSymbolTableRecord
100
AcDbLinetypeTableRecord
  2
VERDECKT
 70
     0
  3
__ __ __ __ __ __ __ __ __ __ __ __ __ __ __ __
 72
    65
 73
     2
 40
0.375
 49
0.25
 74
     0
 49
-0.125
 74
     0
  0
LTYPE
  5
D1
330
27
100
AcDbSymbolTableRecord
100
AcDbLinetypeTableRecord
  2
STRICHPUNKT
 70
     0
  3
__ . __ . __ . __ . __ . __ . __ . __ . __ . __
 72
    65
 73
     4
 40
1.0
 49
0.5
 74
     0
 49
-0.25
 74
     0
 49
0.0
 74
     0
 49
-0.25
 74
     0
  0
ENDTAB
  0
TABLE
  2
LAYER
  5
1E
102
{ACAD_XDICTIONARY
360
1F
102
}
330
0
100
AcDbSymbolTable
 70
    12
  0
LAYER
  5
6
102
{ACAD_XDICTIONARY
360
7
102
}
330
1E
100
AcDbSymbolTableRecord
100
AcDbLayerTableRecord
  2
0
 70
     0
 62
     7
  6
CONTINUOUS
370
    -3
390
9
347
C
  0
LAYER
  5
322
102
{ACAD_XDICTIONARY
360
323
102
}
330
1E
100
AcDbSymbolTableRecord
100
AcDbLayerTableRecord
  2
01-99
 70
     0
 62
     2
  6
CONTINUOUS
370
    -3
390
9
347
C
  0
LAYER
  5
360
102
{ACAD_XDICTIONARY
360
361
102
}
330
1E
100
AcDbSymbolTableRecord
100
AcDbLayerTableRecord
  2
06-99
 70
     0
 62
     1
  6
AUSGEZOGEN
370
    -3
390
9
347
C
  0
LAYER
  5
328
102
{ACAD_XDICTIONARY
360
329
102
}
330
1E
100
AcDbSymbolTableRecord
100
AcDbLayerTableRecord
  2
02-99
 70
     0
 62
     1
  6
AUSGEZOGEN
370
    -3
390
9
347
C
  0
LAYER
  5
34A
102
{ACAD_XDICTIONARY
360
34B
102
}
330
1E
100
AcDbSymbolTableRecord
100
AcDbLayerTableRecord
  2
08-99
 70
     0
 62
     7
  6
CONTINUOUS
370
    -3
390
9
347
C
  0
LAYER
  5
2AE
102
{ACAD_XDICTIONARY
360
2AF
102
}
330
1E
100
AcDbSymbolTableRecord
100
AcDbLayerTableRecord
  2
01-01
 70
     0
 62
     2
  6
CONTINUOUS
370
    -3
390
9
347
C
  0
LAYER
  5
1C4
102
{ACAD_XDICTIONARY
360
1C5
102
}
330
1E
100
AcDbSymbolTableRecord
100
AcDbLayerTableRecord
  2
03-01
 70
     0
 62
     3
  6
VERDECKT
370
    -3
390
9
347
C
  0
LAYER
  5
CE
102
{ACAD_XDICTIONARY
360
CF
102
}
330
1E
100
AcDbSymbolTableRecord
100
AcDbLayerTableRecord
  2
05-01
 70
     0
 62
     1
  6
STRICHPUNKT
370
    -3
390
9
347
C
  0
LAYER
  5
50
102
{ACAD_XDICTIONARY
360
51
102
}
330
1E
100
AcDbSymbolTableRecord
100
AcDbLayerTableRecord
  2
09-01
 70
     0
 62
     7
  6
CONTINUOUS
370
    -3
390
9
347
C
  0
LAYER
  5
85
330
1E
100
AcDbSymbolTableRecord
100
AcDbLayerTableRecord
  2
DEFPOINTS
 70
     0
 62
     7
  6
CONTINUOUS
290
     0
370
    -3
390
9
347
C
  0
LAYER
  5
31A
102
{ACAD_XDICTIONARY
360
31B
102
}
330
1E
100
AcDbSymbolTableRecord
100
AcDbLayerTableRecord
  2
06-01
 70
     0
 62
     1
  6
CONTINUOUS
370
    -3
390
9
347
C
  0
LAYER
  5
2B6
102
{ACAD_XDICTIONARY
360
2B7
102
}
330
1E
100
AcDbSymbolTableRecord
100
AcDbLayerTableRecord
  2
02TNR-01
 70
     0
 62
     1
  6
CONTINUOUS
370
    -3
390
9
347
C
  0
ENDTAB
  0
TABLE
  2
STYLE
  5
24
330
0
100
AcDbSymbolTable
 70
     3
  0
STYLE
  5
25
330
24
100
AcDbSymbolTableRecord
100
AcDbTextStyleTableRecord
  2
STANDARD
 70
     0
 40
0.0
 41
1.0
 50
0.0
 71
     0
 42
12.0
  3
txt.shx
  4

  0
STYLE
  5
34D
330
24
100
AcDbSymbolTableRecord
100
AcDbTextStyleTableRecord
  2
ROMANS8
 70
     0
 40
0.0
 41
1.0
 50
0.0
 71
     0
 42
2.5
  3
ROMANS8
  4

  0
STYLE
  5
373
330
24
100
AcDbSymbolTableRecord
100
AcDbTextStyleTableRecord
  2
ROMAND8
 70
     0
 40
0.0
 41
1.0
 50
0.0
 71
     0
 42
3.5
  3
ROMAND8
  4

  0
ENDTAB
  0
TABLE
  2
VIEW
  5
2A
330
0
100
AcDbSymbolTable
 70
     0
  0
ENDTAB
  0
TABLE
  2
UCS
  5
2B
330
0
100
AcDbSymbolTable
 70
     0
  0
ENDTAB
  0
TABLE
  2
APPID
  5
31
330
0
100
AcDbSymbolTable
 70
     5
  0
APPID
  5
23
330
31
100
AcDbSymbolTableRecord
100
AcDbRegAppTableRecord
  2
ACAD
 70
     0
  0
APPID
  5
34
330
31
100
AcDbSymbolTableRecord
100
AcDbRegAppTableRecord
  2
ACAD_DSTYLE_DIMJOGGED_JOGANGLE_SYMBOL
 70
     0
  0
APPID
  5
35
330
31
100
AcDbSymbolTableRecord
100
AcDbRegAppTableRecord
  2
ACAD_DSTYLE_DIMJAG
 70
     0
  0
APPID
  5
36
330
31
100
AcDbSymbolTableRecord
100
AcDbRegAppTableRecord
  2
ACAD_DSTYLE_DIMTALN
 70
     0
  0
APPID
  5
19
330
31
100
AcDbSymbolTableRecord
100
AcDbRegAppTableRecord
  2
ACAD_PSEXT
 70
     0
  0
ENDTAB
  0
TABLE
  2
DIMSTYLE
  5
32
330
0
100
AcDbSymbolTable
 70
     3
100
AcDbDimStyleTable
 71
     2
340
33
340
37
  0
DIMSTYLE
105
37
330
32
100
AcDbSymbolTableRecord
100
AcDbDimStyleTableRecord
  2
Standard
 70
     0
340
25
  0
DIMSTYLE
105
33
330
32
100
AcDbSymbolTableRecord
100
AcDbDimStyleTableRecord
  2
Wagner
 70
     0
 41
2.5
 42
1.0
 43
10.0
 44
1.0
 73
     0
 74
     0
 77
     1
 78
     8
 79
     2
140
2.5
141
0.0
143
0.03937007874016
147
1.0
171
     3
172
     1
176
     4
177
     4
178
     1
179
     2
271
     8
272
     8
274
     3
283
     0
284
     8
340
25
1001
ACAD_DSTYLE_DIMJOGGED_JOGANGLE_SYMBOL
1070
   384
1040
0.7853981633974483
1001
ACAD_DSTYLE_DIMJAG
1070
   388
1040
1.5
1001
ACAD_DSTYLE_DIMTALN
1070
   392
1070
     0
  0
DIMSTYLE
105
89
102
{ACAD_REACTORS
330
405
330
3F8
330
3E9
330
3DC
330
3CD
330
3C0
330
3AE
330
3A1
330
30C
330
2FD
330
2EE
330
2D5
330
2A0
330
291
330
1DC
330
1CF
330
C0
330
B3
330
A6
330
97
330
8A
330
79
102
}
330
32
100
AcDbSymbolTableRecord
100
AcDbDimStyleTableRecord
  2
Wagner$0
 70
     0
 41
2.5
 42
1.0
 43
10.0
 44
1.0
 73
     0
 74
     0
 77
     1
 78
     8
 79
     2
140
2.5
141
0.0
143
0.03937007874016
147
1.0
171
     3
172
     1
174
     1
176
     4
177
     4
178
     1
179
     2
271
     8
272
     8
274
     3
279
     2
283
     0
284
     8
340
25
1001
ACAD_DSTYLE_DIMJOGGED_JOGANGLE_SYMBOL
1070
   384
1040
0.7853981633974483
1001
ACAD_DSTYLE_DIMJAG
1070
   388
1040
1.5
1001
ACAD_DSTYLE_DIMTALN
1070
   392
1070
     0
  0
ENDTAB
  0
TABLE
  2
BLOCK_RECORD
  5
1
330
0
100
AcDbSymbolTable
 70
    27
  0
BLOCK_RECORD
  5
2
102
{ACAD_XDICTIONARY
360
3
102
}
330
1
100
AcDbSymbolTableRecord
100
AcDbBlockTableRecord
  2
*Model_Space
340
17
 70
     0
280
     1
281
     0
  0
BLOCK_RECORD
  5
1A
330
1
100
AcDbSymbolTableRecord
100
AcDbBlockTableRecord
  2
*Paper_Space
340
1D
 70
     0
280
     1
281
     0
  0
BLOCK_RECORD
  5
1EC
330
1
100
AcDbSymbolTableRecord
100
AcDbBlockTableRecord
  2
Gitterkorb WP134-01-v
340
0
310
2800000020000000200000000100080000000000000400000000000000000000000000000000000000000000000080000080000000808000800000008000800080800000C0C0C000C0DCC000F0CAA6000020400000206000002080000020A0000020C0000020E00000400000004020000040400000406000004080000040A0
310
000040C0000040E00000600000006020000060400000606000006080000060A0000060C0000060E00000800000008020000080400000806000008080000080A0000080C0000080E00000A0000000A0200000A0400000A0600000A0800000A0A00000A0C00000A0E00000C0000000C0200000C0400000C0600000C0800000C0
310
A00000C0C00000C0E00000E0000000E0200000E0400000E0600000E0800000E0A00000E0C00000E0E00040000000400020004000400040006000400080004000A0004000C0004000E00040200000402020004020400040206000402080004020A0004020C0004020E000404000004040200040404000404060004040800040
310
40A0004040C0004040E00040600000406020004060400040606000406080004060A0004060C0004060E00040800000408020004080400040806000408080004080A0004080C0004080E00040A0000040A0200040A0400040A0600040A0800040A0A00040A0C00040A0E00040C0000040C0200040C0400040C0600040C08000
310
40C0A00040C0C00040C0E00040E0000040E0200040E0400040E0600040E0800040E0A00040E0C00040E0E00080000000800020008000400080006000800080008000A0008000C0008000E00080200000802020008020400080206000802080008020A0008020C0008020E00080400000804020008040400080406000804080
310
008040A0008040C0008040E00080600000806020008060400080606000806080008060A0008060C0008060E00080800000808020008080400080806000808080008080A0008080C0008080E00080A0000080A0200080A0400080A0600080A0800080A0A00080A0C00080A0E00080C0000080C0200080C0400080C0600080C0
310
800080C0A00080C0C00080C0E00080E0000080E0200080E0400080E0600080E0800080E0A00080E0C00080E0E000C0000000C0002000C0004000C0006000C0008000C000A000C000C000C000E000C0200000C0202000C0204000C0206000C0208000C020A000C020C000C020E000C0400000C0402000C0404000C0406000C0
310
408000C040A000C040C000C040E000C0600000C0602000C0604000C0606000C0608000C060A000C060C000C060E000C0800000C0802000C0804000C0806000C0808000C080A000C080C000C080E000C0A00000C0A02000C0A04000C0A06000C0A08000C0A0A000C0A0C000C0A0E000C0C00000C0C02000C0C04000C0C06000
310
C0C08000C0C0A000F0FBFF00A4A0A000808080000000FF0000FF000000FFFF00FF000000FF00FF00FFFF0000FFFFFF00000000000000000000000000000000000000000000000000000000000000000000000000000000FFFFFFFFFFFFFFFFFFFFFFFFFFFFFFFFFFFF00000000000000000000000000FFFFFFFFFFFFFFFFFF
310
FFFFFFFFFFFFFFFFFFFFFF000000000000000000000000FFFFFFFFFFFFFFFFFFFFFFFFFFFFFFFFFFFFFFFF000000000000000000000000FF00FF000000FF0000FFFF0000FF000000FF00FF000000000000000000000000FF00FF000000FF0000FFFF0000FF000000FF00FF000000000000000000000000FF00FF000000FF00
310
00FFFF0000FF000000FF00FF000000000000000000000000FFFFFFFFFFFFFFFFFFFFFFFFFFFFFFFFFFFFFFFF000000000000000000000000FF00FF000000FF0000FFFF0000FF000000FF00FF000000000000000000000000FF00FF000000FF0000FFFF0000FF000000FF00FF000000000000000000000000FFFFFFFFFFFFFF
310
FFFFFFFFFFFFFFFFFFFFFFFFFF000000000000000000000000FFFFFFFFFFFFFFFFFFFFFFFFFFFFFFFFFFFFFFFF000000000000000000000000FF00FF000000FF0000FFFF0000FF000000FF00FF000000000000000000000000FF00FF000000FF0000FFFF0000FF000000FF00FF000000000000000000000000FFFFFFFFFFFF
310
FFFFFFFFFFFFFFFFFFFFFFFFFFFF000000000000000000000000FF00FF000000FF0000FFFF0000FF000000FF00FF000000000000000000000000FF00FF000000FF0000FFFF0000FF000000FF00FF000000000000000000000000FF00FF000000FF0000FFFF0000FF000000FF00FF000000000000000000000000FFFFFFFFFF
310
FFFFFFFFFFFFFFFFFFFFFFFFFFFFFF000000000000000000000000FF00FF000000FF0000FFFF0000FF000000FF00FF000000000000000000000000FF00FF000000FF0000FFFF0000FF000000FF00FF000000000000000000000000FFFFFFFFFFFFFFFFFFFFFFFFFFFFFFFFFFFFFFFF000000000000000000000000FFFFFFFF
310
FFFFFFFFFFFFFFFFFFFFFFFFFFFFFFFF000000000000000000000000FF00FF000000FF0000FFFF0000FF000000FF00FF000000000000000000000000FF00FF000000FF0000FFFF0000FF000000FF00FF000000000000000000000000FFFFFFFFFFFFFFFFFFFFFFFFFFFFFFFFFFFFFFFF000000000000000000000000FF00FF
310
000000FF0000FFFF0000FF000000FF00FF000000000000000000000000FF00FF000000FF0000FFFF0000FF000000FF00FF000000000000000000000000FF00FF000000FF0000FFFF0000FF000000FF00FF000000000000000000000000FFFFFFFFFFFFFFFFFFFFFFFFFFFFFFFFFFFFFFFF000000000000000000000000FFFF
310
FFFFFFFFFFFFFFFFFFFFFFFFFFFFFFFFFFFF0000000000000000000000000000000000000000000000000000000000000000000000000000
102
{BLKREFS
331
1EB
102
}
 70
     4
280
     1
281
     0
  0
BLOCK_RECORD
  5
31D
102
{ACAD_XDICTIONARY
360
31E
102
}
330
1
100
AcDbSymbolTableRecord
100
AcDbBlockTableRecord
  2
DIN A4
340
0
102
{BLKREFS
331
319
102
}
 70
     4
280
     1
281
     0
  0
BLOCK_RECORD
  5
2B1
102
{ACAD_XDICTIONARY
360
2B2
102
}
330
1
100
AcDbSymbolTableRecord
100
AcDbBlockTableRecord
  2
aaaaWagner
340
0
102
{BLKREFS
331
2AD
102
}
 70
     4
280
     1
281
     0
  0
BLOCK_RECORD
  5
406
330
1
100
AcDbSymbolTableRecord
100
AcDbBlockTableRecord
  2
*D3
340
0
 70
     0
280
     1
281
     0
  0
BLOCK_RECORD
  5
3F9
330
1
100
AcDbSymbolTableRecord
100
AcDbBlockTableRecord
  2
*D4
340
0
 70
     0
280
     1
281
     0
  0
BLOCK_RECORD
  5
3EA
330
1
100
AcDbSymbolTableRecord
100
AcDbBlockTableRecord
  2
*D5
340
0
 70
     0
280
     1
281
     0
  0
BLOCK_RECORD
  5
3DD
330
1
100
AcDbSymbolTableRecord
100
AcDbBlockTableRecord
  2
*D6
340
0
 70
     0
280
     1
281
     0
  0
BLOCK_RECORD
  5
3CE
330
1
100
AcDbSymbolTableRecord
100
AcDbBlockTableRecord
  2
*D7
340
0
 70
     0
280
     1
281
     0
  0
BLOCK_RECORD
  5
3C1
330
1
100
AcDbSymbolTableRecord
100
AcDbBlockTableRecord
  2
*D8
340
0
 70
     0
280
     1
281
     0
  0
BLOCK_RECORD
  5
3AF
330
1
100
AcDbSymbolTableRecord
100
AcDbBlockTableRecord
  2
*D9
340
0
 70
     0
280
     1
281
     0
  0
BLOCK_RECORD
  5
3A2
330
1
100
AcDbSymbolTableRecord
100
AcDbBlockTableRecord
  2
*D10
340
0
 70
     0
280
     1
281
     0
  0
BLOCK_RECORD
  5
30D
330
1
100
AcDbSymbolTableRecord
100
AcDbBlockTableRecord
  2
*D11
340
0
 70
     0
280
     1
281
     0
  0
BLOCK_RECORD
  5
2FE
330
1
100
AcDbSymbolTableRecord
100
AcDbBlockTableRecord
  2
*D12
340
0
 70
     0
280
     1
281
     0
  0
BLOCK_RECORD
  5
2EF
330
1
100
AcDbSymbolTableRecord
100
AcDbBlockTableRecord
  2
*D13
340
0
 70
     0
280
     1
281
     0
  0
BLOCK_RECORD
  5
2D6
330
1
100
AcDbSymbolTableRecord
100
AcDbBlockTableRecord
  2
*D14
340
0
 70
     0
280
     1
281
     0
  0
BLOCK_RECORD
  5
2A1
330
1
100
AcDbSymbolTableRecord
100
AcDbBlockTableRecord
  2
*D15
340
0
 70
     0
280
     1
281
     0
  0
BLOCK_RECORD
  5
292
330
1
100
AcDbSymbolTableRecord
100
AcDbBlockTableRecord
  2
*D16
340
0
 70
     0
280
     1
281
     0
  0
BLOCK_RECORD
  5
123
330
1
100
AcDbSymbolTableRecord
100
AcDbBlockTableRecord
  2
Drahtkorb 023720-S
340
0
310
2800000020000000200000000100080000000000000400000000000000000000000000000000000000000000000080000080000000808000800000008000800080800000C0C0C000C0DCC000F0CAA6000020400000206000002080000020A0000020C0000020E00000400000004020000040400000406000004080000040A0
310
000040C0000040E00000600000006020000060400000606000006080000060A0000060C0000060E00000800000008020000080400000806000008080000080A0000080C0000080E00000A0000000A0200000A0400000A0600000A0800000A0A00000A0C00000A0E00000C0000000C0200000C0400000C0600000C0800000C0
310
A00000C0C00000C0E00000E0000000E0200000E0400000E0600000E0800000E0A00000E0C00000E0E00040000000400020004000400040006000400080004000A0004000C0004000E00040200000402020004020400040206000402080004020A0004020C0004020E000404000004040200040404000404060004040800040
310
40A0004040C0004040E00040600000406020004060400040606000406080004060A0004060C0004060E00040800000408020004080400040806000408080004080A0004080C0004080E00040A0000040A0200040A0400040A0600040A0800040A0A00040A0C00040A0E00040C0000040C0200040C0400040C0600040C08000
310
40C0A00040C0C00040C0E00040E0000040E0200040E0400040E0600040E0800040E0A00040E0C00040E0E00080000000800020008000400080006000800080008000A0008000C0008000E00080200000802020008020400080206000802080008020A0008020C0008020E00080400000804020008040400080406000804080
310
008040A0008040C0008040E00080600000806020008060400080606000806080008060A0008060C0008060E00080800000808020008080400080806000808080008080A0008080C0008080E00080A0000080A0200080A0400080A0600080A0800080A0A00080A0C00080A0E00080C0000080C0200080C0400080C0600080C0
310
800080C0A00080C0C00080C0E00080E0000080E0200080E0400080E0600080E0800080E0A00080E0C00080E0E000C0000000C0002000C0004000C0006000C0008000C000A000C000C000C000E000C0200000C0202000C0204000C0206000C0208000C020A000C020C000C020E000C0400000C0402000C0404000C0406000C0
310
408000C040A000C040C000C040E000C0600000C0602000C0604000C0606000C0608000C060A000C060C000C060E000C0800000C0802000C0804000C0806000C0808000C080A000C080C000C080E000C0A00000C0A02000C0A04000C0A06000C0A08000C0A0A000C0A0C000C0A0E000C0C00000C0C02000C0C04000C0C06000
310
C0C08000C0C0A000F0FBFF00A4A0A000808080000000FF0000FF000000FFFF00FF000000FF00FF00FFFF0000FFFFFF000000000000000000000000000000000000000000000000000000000000000000000000000000000000000000FFFFFFFFFFFFFFFF000000000000000000000000000000000000000000000000FFFFFF
310
FFFFFFFFFF000000000000000000000000000000000000000000000000FFFFFFFFFFFFFFFF000000000000000000000000000000000000000000000000FFFF00FFFF00FFFF000000000000000000000000000000000000000000000000FFFF00FFFF00FFFF000000000000000000000000000000000000000000000000FFFF
310
FFFFFFFFFFFF000000000000000000000000000000000000000000000000FFFFFFFFFFFFFFFF000000000000000000000000000000000000000000000000FFFF00FFFF00FFFF000000000000000000000000000000000000000000000000FFFF00FFFF00FFFF000000000000000000000000000000000000000000000000FF
310
FFFFFFFFFFFFFF000000000000000000000000000000000000000000000000FFFF00FFFF00FFFF000000000000000000000000000000000000000000000000FFFF00FFFF00FFFF000000000000000000000000000000000000000000000000FFFF00FFFF00FFFF000000000000000000000000000000000000000000000000
310
FFFFFFFFFFFFFFFF000000000000000000000000000000000000000000000000FFFF00FFFF00FFFF000000000000000000000000000000000000000000000000FFFF00FFFF00FFFF000000000000000000000000000000000000000000000000FFFF00FFFF00FFFF0000000000000000000000000000000000000000000000
310
00FFFFFFFFFFFFFFFF000000000000000000000000000000000000000000000000FFFF00FFFF00FFFF000000000000000000000000000000000000000000000000FFFF00FFFF00FFFF000000000000000000000000000000000000000000000000FFFFFFFFFFFFFFFF00000000000000000000000000000000000000000000
310
0000FFFFFFFFFFFFFFFF000000000000000000000000000000000000000000000000FFFF00FFFF00FFFF000000000000000000000000000000000000000000000000FFFF00FFFF00FFFF000000000000000000000000000000000000000000000000FFFFFFFFFFFFFFFF000000000000000000000000000000000000000000
310
000000FFFF00FFFF00FFFF000000000000000000000000000000000000000000000000FFFF00FFFF00FFFF000000000000000000000000000000000000000000000000FFFF00FFFF00FFFF000000000000000000000000000000000000000000000000FFFFFFFFFFFFFFFF0000000000000000000000000000000000000000
310
00000000FFFFFFFFFFFFFFFF0000000000000000000000000000000000000000000000000000000000000000000000000000000000000000
102
{BLKREFS
331
122
102
}
 70
     4
280
     1
281
     1
  0
BLOCK_RECORD
  5
DE
330
1
100
AcDbSymbolTableRecord
100
AcDbBlockTableRecord
  2
Drahtkorb 023720-D
340
0
310
2800000020000000200000000100080000000000000400000000000000000000000000000000000000000000000080000080000000808000800000008000800080800000C0C0C000C0DCC000F0CAA6000020400000206000002080000020A0000020C0000020E00000400000004020000040400000406000004080000040A0
310
000040C0000040E00000600000006020000060400000606000006080000060A0000060C0000060E00000800000008020000080400000806000008080000080A0000080C0000080E00000A0000000A0200000A0400000A0600000A0800000A0A00000A0C00000A0E00000C0000000C0200000C0400000C0600000C0800000C0
310
A00000C0C00000C0E00000E0000000E0200000E0400000E0600000E0800000E0A00000E0C00000E0E00040000000400020004000400040006000400080004000A0004000C0004000E00040200000402020004020400040206000402080004020A0004020C0004020E000404000004040200040404000404060004040800040
310
40A0004040C0004040E00040600000406020004060400040606000406080004060A0004060C0004060E00040800000408020004080400040806000408080004080A0004080C0004080E00040A0000040A0200040A0400040A0600040A0800040A0A00040A0C00040A0E00040C0000040C0200040C0400040C0600040C08000
310
40C0A00040C0C00040C0E00040E0000040E0200040E0400040E0600040E0800040E0A00040E0C00040E0E00080000000800020008000400080006000800080008000A0008000C0008000E00080200000802020008020400080206000802080008020A0008020C0008020E00080400000804020008040400080406000804080
310
008040A0008040C0008040E00080600000806020008060400080606000806080008060A0008060C0008060E00080800000808020008080400080806000808080008080A0008080C0008080E00080A0000080A0200080A0400080A0600080A0800080A0A00080A0C00080A0E00080C0000080C0200080C0400080C0600080C0
310
800080C0A00080C0C00080C0E00080E0000080E0200080E0400080E0600080E0800080E0A00080E0C00080E0E000C0000000C0002000C0004000C0006000C0008000C000A000C000C000C000E000C0200000C0202000C0204000C0206000C0208000C020A000C020C000C020E000C0400000C0402000C0404000C0406000C0
310
408000C040A000C040C000C040E000C0600000C0602000C0604000C0606000C0608000C060A000C060C000C060E000C0800000C0802000C0804000C0806000C0808000C080A000C080C000C080E000C0A00000C0A02000C0A04000C0A06000C0A08000C0A0A000C0A0C000C0A0E000C0C00000C0C02000C0C04000C0C06000
310
C0C08000C0C0A000F0FBFF00A4A0A000808080000000FF0000FF000000FFFF00FF000000FF00FF00FFFF0000FFFFFF0000000000000000000000000000000000000000000000000000000000000000000000000000000000000000000000000000000000000000000000000000000000000000000000000000000000000000
310
00000000000000000000000000000000000000000000000000000000000000000000000000000000000000000000000000000000000000000000000000000000000000000000000000000000000000000000000000000000000000000000000000000000000000000000000000000000000000000000000000000000000000
310
00000000000000000000000000000000000000000000000000000000000000000000000000000000000000000000000000000000000000000000000000000000000000000000000000000000000000000000000000000000000000000000000000000000000000000000000000000000000000FFFFFFFFFFFFFFFFFFFFFFFF
310
FFFFFFFFFFFFFFFFFFFFFFFFFFFFFFFFFFFF0000FFFFFFFFFFFFFFFFFFFFFFFFFFFFFFFFFFFFFFFFFFFFFFFFFFFFFFFFFFFF0000FFFF00FFFF00000000FF00000000FFFF00000000FF00000000FFFF00FFFF0000FFFF00FFFF00000000FF00000000FFFF00000000FF00000000FFFF00FFFF0000FFFF00FFFF00000000FF00
310
000000FFFF00000000FF00000000FFFF00FFFF0000FFFFFFFFFFFFFFFFFFFFFFFFFFFFFFFFFFFFFFFFFFFFFFFFFFFFFFFFFFFF0000FFFFFFFFFFFFFFFFFFFFFFFFFFFFFFFFFFFFFFFFFFFFFFFFFFFFFFFFFFFF0000FFFF00FFFF00000000FF00000000FFFF00000000FF00000000FFFF00FFFF0000FFFF00FFFF00000000FF
310
00000000FFFF00000000FF00000000FFFF00FFFF0000FFFF00FFFF00000000FF00000000FFFF00000000FF00000000FFFF00FFFF0000FFFFFFFFFFFFFFFFFFFFFFFFFFFFFFFFFFFFFFFFFFFFFFFFFFFFFFFFFFFF0000FFFFFFFFFFFFFFFFFFFFFFFFFFFFFFFFFFFFFFFFFFFFFFFFFFFFFFFFFFFF0000000000000000000000
310
00000000000000000000000000000000000000000000000000000000000000000000000000000000000000000000000000000000000000000000000000000000000000000000000000000000000000000000000000000000000000000000000000000000000000000000000000000000000000000000000000000000000000
310
00000000000000000000000000000000000000000000000000000000000000000000000000000000000000000000000000000000000000000000000000000000000000000000000000000000000000000000000000000000000000000000000000000000000000000000000000000000000000000000000000000000000000
310
0000000000000000000000000000000000000000000000000000000000000000000000000000000000000000000000000000000000000000
102
{BLKREFS
331
DD
102
}
 70
     4
280
     1
281
     1
  0
BLOCK_RECORD
  5
1DD
330
1
100
AcDbSymbolTableRecord
100
AcDbBlockTableRecord
  2
*D19
340
0
 70
     0
280
     1
281
     0
  0
BLOCK_RECORD
  5
1D0
330
1
100
AcDbSymbolTableRecord
100
AcDbBlockTableRecord
  2
*D20
340
0
 70
     0
280
     1
281
     0
  0
BLOCK_RECORD
  5
C1
330
1
100
AcDbSymbolTableRecord
100
AcDbBlockTableRecord
  2
*D21
340
0
 70
     0
280
     1
281
     0
  0
BLOCK_RECORD
  5
B4
330
1
100
AcDbSymbolTableRecord
100
AcDbBlockTableRecord
  2
*D22
340
0
 70
     0
280
     1
281
     0
  0
BLOCK_RECORD
  5
A7
330
1
100
AcDbSymbolTableRecord
100
AcDbBlockTableRecord
  2
*D23
340
0
 70
     0
280
     1
281
     0
  0
BLOCK_RECORD
  5
98
330
1
100
AcDbSymbolTableRecord
100
AcDbBlockTableRecord
  2
*D24
340
0
 70
     0
280
     1
281
     0
  0
BLOCK_RECORD
  5
8B
330
1
100
AcDbSymbolTableRecord
100
AcDbBlockTableRecord
  2
*D25
340
0
 70
     0
280
     1
281
     0
  0
BLOCK_RECORD
  5
7A
330
1
100
AcDbSymbolTableRecord
100
AcDbBlockTableRecord
  2
*D26
340
0
 70
     0
280
     1
281
     0
  0
ENDTAB
  0
ENDSEC
  0
SECTION
  2
BLOCKS
  0
BLOCK
  5
5
330
2
100
AcDbEntity
  8
0
100
AcDbBlockBegin
  2
*Model_Space
 70
     0
 10
0.0
 20
0.0
 30
0.0
  3
*Model_Space
  1

  0
ENDBLK
  5
16
330
2
100
AcDbEntity
  8
0
100
AcDbBlockEnd
  0
BLOCK
  5
1B
330
1A
100
AcDbEntity
 67
     1
  8
0
100
AcDbBlockBegin
  2
*Paper_Space
 70
     0
 10
0.0
 20
0.0
 30
0.0
  3
*Paper_Space
  1

  0
ENDBLK
  5
1C
330
1A
100
AcDbEntity
 67
     1
  8
0
100
AcDbBlockEnd
  0
BLOCK
  5
1ED
330
1EC
100
AcDbEntity
  8
0
100
AcDbBlockBegin
  2
Gitterkorb WP134-01-v
 70
     0
 10
0.0
 20
0.0
 30
0.0
  3
Gitterkorb WP134-01-v
  1

  0
LINE
  5
1EE
330
1EC
100
AcDbEntity
  8
0
100
AcDbLine
 10
-6.0
 20
325.9999999999998
 30
0.0
 11
-6.0
 21
379.9999999999999
 31
0.0
  0
LINE
  5
1EF
330
1EC
100
AcDbEntity
  8
0
100
AcDbLine
 10
250.0
 20
325.9999999999998
 30
0.0
 11
250.0
 21
379.9999999999999
 31
0.0
  0
LINE
  5
1F0
330
1EC
100
AcDbEntity
  8
0
100
AcDbLine
 10
246.0
 20
325.9999999999998
 30
0.0
 11
246.0
 21
379.9999999999999
 31
0.0
  0
LINE
  5
1F1
330
1EC
100
AcDbEntity
  8
0
100
AcDbLine
 10
223.9999999999995
 20
325.9999999999998
 30
0.0
 11
223.9999999999995
 21
379.9999999999999
 31
0.0
  0
LINE
  5
1F2
330
1EC
100
AcDbEntity
  8
0
100
AcDbLine
 10
219.9999999999995
 20
325.9999999999998
 30
0.0
 11
219.9999999999995
 21
379.9999999999999
 31
0.0
  0
LINE
  5
1F3
330
1EC
100
AcDbEntity
  8
0
100
AcDbLine
 10
174.0
 20
325.9999999999998
 30
0.0
 11
173.9999999999995
 21
379.9999999999999
 31
0.0
  0
LINE
  5
1F4
330
1EC
100
AcDbEntity
  8
0
100
AcDbLine
 10
170.0
 20
325.9999999999998
 30
0.0
 11
169.9999999999995
 21
379.9999999999999
 31
0.0
  0
LINE
  5
1F5
330
1EC
100
AcDbEntity
  8
0
100
AcDbLine
 10
69.99999999999954
 20
325.9999999999998
 30
0.0
 11
69.99999999999954
 21
379.9999999999999
 31
0.0
  0
LINE
  5
1F6
330
1EC
100
AcDbEntity
  8
0
100
AcDbLine
 10
73.99999999999955
 20
325.9999999999998
 30
0.0
 11
73.99999999999955
 21
379.9999999999999
 31
0.0
  0
LINE
  5
1F7
330
1EC
100
AcDbEntity
  8
0
100
AcDbLine
 10
119.9999999999995
 20
325.9999999999998
 30
0.0
 11
119.9999999999995
 21
379.9999999999999
 31
0.0
  0
LINE
  5
1F8
330
1EC
100
AcDbEntity
  8
0
100
AcDbLine
 10
123.9999999999995
 20
325.9999999999998
 30
0.0
 11
123.9999999999995
 21
379.9999999999999
 31
0.0
  0
LINE
  5
1F9
330
1EC
100
AcDbEntity
  8
0
100
AcDbLine
 10
23.99999999999955
 20
325.9999999999998
 30
0.0
 11
23.99999999999955
 21
379.9999999999999
 31
0.0
  0
LINE
  5
1FA
330
1EC
100
AcDbEntity
  8
0
100
AcDbLine
 10
19.99999999999954
 20
325.9999999999998
 30
0.0
 11
19.99999999999954
 21
379.9999999999999
 31
0.0
  0
LINE
  5
1FB
330
1EC
100
AcDbEntity
  8
0
100
AcDbLine
 10
-2.0
 20
325.9999999999998
 30
0.0
 11
-2.0
 21
379.9999999999999
 31
0.0
  0
LINE
  5
1FC
330
1EC
100
AcDbEntity
  8
0
100
AcDbLine
 10
-8.0
 20
25.99999999999977
 30
0.0
 11
252.0
 21
25.99999999999977
 31
0.0
  0
LINE
  5
1FD
330
1EC
100
AcDbEntity
  8
0
100
AcDbLine
 10
-8.0
 20
21.99999999999977
 30
0.0
 11
252.0
 21
21.99999999999977
 31
0.0
  0
LINE
  5
1FE
330
1EC
100
AcDbEntity
  8
0
100
AcDbLine
 10
-8.0
 20
75.99999999999977
 30
0.0
 11
252.0
 21
75.99999999999977
 31
0.0
  0
LINE
  5
1FF
330
1EC
100
AcDbEntity
  8
0
100
AcDbLine
 10
-8.0
 20
71.99999999999977
 30
0.0
 11
252.0
 21
71.99999999999977
 31
0.0
  0
LINE
  5
200
330
1EC
100
AcDbEntity
  8
0
100
AcDbLine
 10
-8.0
 20
125.9999999999998
 30
0.0
 11
252.0
 21
125.9999999999998
 31
0.0
  0
LINE
  5
201
330
1EC
100
AcDbEntity
  8
0
100
AcDbLine
 10
-8.0
 20
121.9999999999997
 30
0.0
 11
252.0
 21
121.9999999999997
 31
0.0
  0
LINE
  5
202
330
1EC
100
AcDbEntity
  8
0
100
AcDbLine
 10
-8.0
 20
175.9999999999998
 30
0.0
 11
252.0
 21
175.9999999999998
 31
0.0
  0
LINE
  5
203
330
1EC
100
AcDbEntity
  8
0
100
AcDbLine
 10
-8.0
 20
171.9999999999997
 30
0.0
 11
252.0
 21
171.9999999999997
 31
0.0
  0
LINE
  5
204
330
1EC
100
AcDbEntity
  8
0
100
AcDbLine
 10
-8.0
 20
225.9999999999998
 30
0.0
 11
252.0
 21
225.9999999999998
 31
0.0
  0
LINE
  5
205
330
1EC
100
AcDbEntity
  8
0
100
AcDbLine
 10
-8.0
 20
221.9999999999998
 30
0.0
 11
252.0
 21
221.9999999999998
 31
0.0
  0
LINE
  5
206
330
1EC
100
AcDbEntity
  8
0
100
AcDbLine
 10
-8.0
 20
275.9999999999998
 30
0.0
 11
252.0
 21
275.9999999999998
 31
0.0
  0
LINE
  5
207
330
1EC
100
AcDbEntity
  8
0
100
AcDbLine
 10
-8.0
 20
271.9999999999998
 30
0.0
 11
252.0
 21
271.9999999999998
 31
0.0
  0
LINE
  5
208
330
1EC
100
AcDbEntity
  8
0
100
AcDbLine
 10
-8.0
 20
321.9999999999998
 30
0.0
 11
252.0
 21
321.9999999999998
 31
0.0
  0
LINE
  5
209
330
1EC
100
AcDbEntity
  8
0
100
AcDbLine
 10
-8.0
 20
325.9999999999998
 30
0.0
 11
252.0
 21
325.9999999999998
 31
0.0
  0
LINE
  5
20A
330
1EC
100
AcDbEntity
  8
0
100
AcDbLine
 10
0.0
 20
3.999999999999772
 30
0.0
 11
244.0
 21
4.0
 31
0.0
  0
LINE
  5
20B
330
1EC
100
AcDbEntity
  8
0
100
AcDbLine
 10
0.0
 20
0.0
 30
0.0
 11
244.0
 21
0.0
 31
0.0
  0
LINE
  5
20C
330
1EC
100
AcDbEntity
  8
0
100
AcDbLine
 10
-2.0
 20
75.99999999999977
 30
0.0
 11
-2.0
 21
120.9999999999997
 31
0.0
  0
LINE
  5
20D
330
1EC
100
AcDbEntity
  8
0
100
AcDbLine
 10
19.99999999999954
 20
75.99999999999977
 30
0.0
 11
19.99999999999954
 21
120.9999999999997
 31
0.0
  0
LINE
  5
20E
330
1EC
100
AcDbEntity
  8
0
100
AcDbLine
 10
23.99999999999955
 20
75.99999999999977
 30
0.0
 11
23.99999999999955
 21
120.9999999999997
 31
0.0
  0
LINE
  5
20F
330
1EC
100
AcDbEntity
  8
0
100
AcDbLine
 10
73.99999999999955
 20
75.99999999999977
 30
0.0
 11
73.99999999999955
 21
120.9999999999997
 31
0.0
  0
LINE
  5
210
330
1EC
100
AcDbEntity
  8
0
100
AcDbLine
 10
69.99999999999954
 20
75.99999999999977
 30
0.0
 11
69.99999999999954
 21
120.9999999999997
 31
0.0
  0
LINE
  5
211
330
1EC
100
AcDbEntity
  8
0
100
AcDbLine
 10
-6.0
 20
75.99999999999977
 30
0.0
 11
-6.0
 21
120.9999999999997
 31
0.0
  0
LINE
  5
212
330
1EC
100
AcDbEntity
  8
0
100
AcDbLine
 10
-6.0
 20
25.99999999999977
 30
0.0
 11
-6.0
 21
70.99999999999977
 31
0.0
  0
LINE
  5
213
330
1EC
100
AcDbEntity
  8
0
100
AcDbLine
 10
23.99999999999955
 20
25.99999999999977
 30
0.0
 11
23.99999999999955
 21
70.99999999999977
 31
0.0
  0
LINE
  5
214
330
1EC
100
AcDbEntity
  8
0
100
AcDbLine
 10
19.99999999999954
 20
25.99999999999977
 30
0.0
 11
19.99999999999954
 21
70.99999999999977
 31
0.0
  0
LINE
  5
215
330
1EC
100
AcDbEntity
  8
0
100
AcDbLine
 10
-2.0
 20
25.99999999999977
 30
0.0
 11
-2.0
 21
70.99999999999977
 31
0.0
  0
ARC
  5
216
330
1EC
100
AcDbEntity
  8
0
100
AcDbCircle
 10
-8.0
 20
23.99999999999977
 30
0.0
 40
2.0
100
AcDbArc
 50
90.0
 51
270.0
  0
ARC
  5
217
330
1EC
100
AcDbEntity
  8
0
100
AcDbCircle
 10
0.0
 20
6.0
 30
0.0
 40
6.0
100
AcDbArc
 50
180.0
 51
270.0
  0
LINE
  5
218
330
1EC
100
AcDbEntity
  8
0
100
AcDbLine
 10
-6.0
 20
6.0
 30
0.0
 11
-6.0
 21
21.99999999999977
 31
0.0
  0
ARC
  5
219
330
1EC
100
AcDbEntity
  8
0
100
AcDbCircle
 10
0.0
 20
5.999999999999772
 30
0.0
 40
2.0
100
AcDbArc
 50
180.0
 51
270.0
  0
LINE
  5
21A
330
1EC
100
AcDbEntity
  8
0
100
AcDbLine
 10
-2.0
 20
5.999999999999772
 30
0.0
 11
-2.0
 21
21.99999999999977
 31
0.0
  0
LINE
  5
21B
330
1EC
100
AcDbEntity
  8
0
100
AcDbLine
 10
24.0
 20
6.0
 30
0.0
 11
24.0
 21
21.99999999999977
 31
0.0
  0
LINE
  5
21C
330
1EC
100
AcDbEntity
  8
0
100
AcDbLine
 10
20.0
 20
6.0
 30
0.0
 11
20.0
 21
21.99999999999977
 31
0.0
  0
LINE
  5
21D
330
1EC
100
AcDbEntity
  8
0
100
AcDbLine
 10
20.0
 20
4.0
 30
0.0
 11
24.0
 21
4.0
 31
0.0
  0
ARC
  5
21E
330
1EC
100
AcDbEntity
  8
0
100
AcDbCircle
 10
22.0
 20
6.0
 30
0.0
 40
2.0
100
AcDbArc
 50
180.0
 51
0.0
  0
ARC
  5
21F
330
1EC
100
AcDbEntity
  8
0
100
AcDbCircle
 10
-8.0
 20
73.99999999999977
 30
0.0
 40
2.0
100
AcDbArc
 50
90.0
 51
270.0
  0
LINE
  5
220
330
1EC
100
AcDbEntity
  8
0
100
AcDbLine
 10
69.99999999999954
 20
25.99999999999977
 30
0.0
 11
69.99999999999954
 21
70.99999999999977
 31
0.0
  0
LINE
  5
221
330
1EC
100
AcDbEntity
  8
0
100
AcDbLine
 10
73.99999999999955
 20
25.99999999999977
 30
0.0
 11
73.99999999999955
 21
70.99999999999977
 31
0.0
  0
LINE
  5
222
330
1EC
100
AcDbEntity
  8
0
100
AcDbLine
 10
74.0
 20
6.0
 30
0.0
 11
74.0
 21
21.99999999999977
 31
0.0
  0
LINE
  5
223
330
1EC
100
AcDbEntity
  8
0
100
AcDbLine
 10
70.0
 20
6.0
 30
0.0
 11
70.0
 21
21.99999999999977
 31
0.0
  0
LINE
  5
224
330
1EC
100
AcDbEntity
  8
0
100
AcDbLine
 10
70.0
 20
4.0
 30
0.0
 11
74.0
 21
4.0
 31
0.0
  0
ARC
  5
225
330
1EC
100
AcDbEntity
  8
0
100
AcDbCircle
 10
72.0
 20
6.0
 30
0.0
 40
2.0
100
AcDbArc
 50
180.0
 51
0.0
  0
LINE
  5
226
330
1EC
100
AcDbEntity
  8
0
100
AcDbLine
 10
-2.0
 20
225.9999999999998
 30
0.0
 11
-2.0
 21
270.9999999999998
 31
0.0
  0
LINE
  5
227
330
1EC
100
AcDbEntity
  8
0
100
AcDbLine
 10
19.99999999999954
 20
225.9999999999998
 30
0.0
 11
19.99999999999954
 21
270.9999999999998
 31
0.0
  0
LINE
  5
228
330
1EC
100
AcDbEntity
  8
0
100
AcDbLine
 10
23.99999999999955
 20
225.9999999999998
 30
0.0
 11
23.99999999999955
 21
270.9999999999998
 31
0.0
  0
LINE
  5
229
330
1EC
100
AcDbEntity
  8
0
100
AcDbLine
 10
-6.0
 20
225.9999999999998
 30
0.0
 11
-6.0
 21
270.9999999999998
 31
0.0
  0
LINE
  5
22A
330
1EC
100
AcDbEntity
  8
0
100
AcDbLine
 10
-2.0
 20
125.9999999999998
 30
0.0
 11
-2.0
 21
170.9999999999998
 31
0.0
  0
LINE
  5
22B
330
1EC
100
AcDbEntity
  8
0
100
AcDbLine
 10
19.99999999999954
 20
125.9999999999998
 30
0.0
 11
19.99999999999954
 21
170.9999999999998
 31
0.0
  0
LINE
  5
22C
330
1EC
100
AcDbEntity
  8
0
100
AcDbLine
 10
23.99999999999955
 20
125.9999999999998
 30
0.0
 11
23.99999999999955
 21
170.9999999999998
 31
0.0
  0
LINE
  5
22D
330
1EC
100
AcDbEntity
  8
0
100
AcDbLine
 10
-6.0
 20
125.9999999999998
 30
0.0
 11
-6.0
 21
170.9999999999998
 31
0.0
  0
ARC
  5
22E
330
1EC
100
AcDbEntity
  8
0
100
AcDbCircle
 10
-8.0
 20
123.9999999999997
 30
0.0
 40
2.0
100
AcDbArc
 50
90.0
 51
270.0
  0
LINE
  5
22F
330
1EC
100
AcDbEntity
  8
0
100
AcDbLine
 10
-2.0
 20
175.9999999999998
 30
0.0
 11
-2.0
 21
220.9999999999998
 31
0.0
  0
LINE
  5
230
330
1EC
100
AcDbEntity
  8
0
100
AcDbLine
 10
-6.0
 20
175.9999999999998
 30
0.0
 11
-6.0
 21
220.9999999999998
 31
0.0
  0
ARC
  5
231
330
1EC
100
AcDbEntity
  8
0
100
AcDbCircle
 10
-8.0
 20
173.9999999999997
 30
0.0
 40
2.0
100
AcDbArc
 50
90.0
 51
270.0
  0
ARC
  5
232
330
1EC
100
AcDbEntity
  8
0
100
AcDbCircle
 10
-8.0
 20
223.9999999999998
 30
0.0
 40
2.0
100
AcDbArc
 50
90.0
 51
270.0
  0
LINE
  5
233
330
1EC
100
AcDbEntity
  8
0
100
AcDbLine
 10
19.99999999999954
 20
175.9999999999998
 30
0.0
 11
19.99999999999954
 21
220.9999999999998
 31
0.0
  0
LINE
  5
234
330
1EC
100
AcDbEntity
  8
0
100
AcDbLine
 10
23.99999999999955
 20
175.9999999999998
 30
0.0
 11
23.99999999999955
 21
220.9999999999998
 31
0.0
  0
LINE
  5
235
330
1EC
100
AcDbEntity
  8
0
100
AcDbLine
 10
-2.0
 20
275.9999999999998
 30
0.0
 11
-2.0
 21
320.9999999999998
 31
0.0
  0
LINE
  5
236
330
1EC
100
AcDbEntity
  8
0
100
AcDbLine
 10
19.99999999999954
 20
275.9999999999998
 30
0.0
 11
19.99999999999954
 21
320.9999999999998
 31
0.0
  0
LINE
  5
237
330
1EC
100
AcDbEntity
  8
0
100
AcDbLine
 10
23.99999999999955
 20
275.9999999999998
 30
0.0
 11
23.99999999999955
 21
320.9999999999998
 31
0.0
  0
LINE
  5
238
330
1EC
100
AcDbEntity
  8
0
100
AcDbLine
 10
-6.0
 20
275.9999999999998
 30
0.0
 11
-6.0
 21
320.9999999999998
 31
0.0
  0
ARC
  5
239
330
1EC
100
AcDbEntity
  8
0
100
AcDbCircle
 10
-8.0
 20
273.9999999999998
 30
0.0
 40
2.0
100
AcDbArc
 50
90.0
 51
270.0
  0
ARC
  5
23A
330
1EC
100
AcDbEntity
  8
0
100
AcDbCircle
 10
-8.0
 20
323.9999999999998
 30
0.0
 40
2.0
100
AcDbArc
 50
90.0
 51
270.0
  0
LINE
  5
23B
330
1EC
100
AcDbEntity
  8
0
100
AcDbLine
 10
73.99999999999955
 20
225.9999999999998
 30
0.0
 11
73.99999999999955
 21
270.9999999999998
 31
0.0
  0
LINE
  5
23C
330
1EC
100
AcDbEntity
  8
0
100
AcDbLine
 10
69.99999999999954
 20
225.9999999999998
 30
0.0
 11
69.99999999999954
 21
270.9999999999998
 31
0.0
  0
LINE
  5
23D
330
1EC
100
AcDbEntity
  8
0
100
AcDbLine
 10
73.99999999999955
 20
125.9999999999998
 30
0.0
 11
73.99999999999955
 21
170.9999999999998
 31
0.0
  0
LINE
  5
23E
330
1EC
100
AcDbEntity
  8
0
100
AcDbLine
 10
69.99999999999954
 20
125.9999999999998
 30
0.0
 11
69.99999999999954
 21
170.9999999999998
 31
0.0
  0
LINE
  5
23F
330
1EC
100
AcDbEntity
  8
0
100
AcDbLine
 10
73.99999999999955
 20
175.9999999999998
 30
0.0
 11
73.99999999999955
 21
220.9999999999998
 31
0.0
  0
LINE
  5
240
330
1EC
100
AcDbEntity
  8
0
100
AcDbLine
 10
69.99999999999954
 20
175.9999999999998
 30
0.0
 11
69.99999999999954
 21
220.9999999999998
 31
0.0
  0
LINE
  5
241
330
1EC
100
AcDbEntity
  8
0
100
AcDbLine
 10
73.99999999999955
 20
275.9999999999998
 30
0.0
 11
73.99999999999955
 21
320.9999999999998
 31
0.0
  0
LINE
  5
242
330
1EC
100
AcDbEntity
  8
0
100
AcDbLine
 10
69.99999999999954
 20
275.9999999999998
 30
0.0
 11
69.99999999999954
 21
320.9999999999998
 31
0.0
  0
LINE
  5
243
330
1EC
100
AcDbEntity
  8
0
100
AcDbLine
 10
123.9999999999995
 20
75.99999999999977
 30
0.0
 11
123.9999999999995
 21
120.9999999999997
 31
0.0
  0
LINE
  5
244
330
1EC
100
AcDbEntity
  8
0
100
AcDbLine
 10
119.9999999999995
 20
75.99999999999977
 30
0.0
 11
119.9999999999995
 21
120.9999999999997
 31
0.0
  0
LINE
  5
245
330
1EC
100
AcDbEntity
  8
0
100
AcDbLine
 10
170.0
 20
75.99999999999977
 30
0.0
 11
169.9999999999995
 21
120.9999999999997
 31
0.0
  0
LINE
  5
246
330
1EC
100
AcDbEntity
  8
0
100
AcDbLine
 10
174.0
 20
75.99999999999977
 30
0.0
 11
173.9999999999995
 21
120.9999999999997
 31
0.0
  0
LINE
  5
247
330
1EC
100
AcDbEntity
  8
0
100
AcDbLine
 10
219.9999999999995
 20
75.99999999999977
 30
0.0
 11
219.9999999999995
 21
120.9999999999997
 31
0.0
  0
LINE
  5
248
330
1EC
100
AcDbEntity
  8
0
100
AcDbLine
 10
223.9999999999995
 20
75.99999999999977
 30
0.0
 11
223.9999999999995
 21
120.9999999999997
 31
0.0
  0
LINE
  5
249
330
1EC
100
AcDbEntity
  8
0
100
AcDbLine
 10
246.0
 20
75.99999999999977
 30
0.0
 11
246.0
 21
120.9999999999995
 31
0.0
  0
LINE
  5
24A
330
1EC
100
AcDbEntity
  8
0
100
AcDbLine
 10
250.0
 20
75.99999999999977
 30
0.0
 11
250.0
 21
120.9999999999995
 31
0.0
  0
LINE
  5
24B
330
1EC
100
AcDbEntity
  8
0
100
AcDbLine
 10
119.9999999999995
 20
25.99999999999977
 30
0.0
 11
119.9999999999995
 21
70.99999999999977
 31
0.0
  0
LINE
  5
24C
330
1EC
100
AcDbEntity
  8
0
100
AcDbLine
 10
123.9999999999995
 20
25.99999999999977
 30
0.0
 11
123.9999999999995
 21
70.99999999999977
 31
0.0
  0
LINE
  5
24D
330
1EC
100
AcDbEntity
  8
0
100
AcDbLine
 10
124.0
 20
6.0
 30
0.0
 11
124.0
 21
21.99999999999977
 31
0.0
  0
LINE
  5
24E
330
1EC
100
AcDbEntity
  8
0
100
AcDbLine
 10
120.0
 20
6.0
 30
0.0
 11
120.0
 21
21.99999999999977
 31
0.0
  0
LINE
  5
24F
330
1EC
100
AcDbEntity
  8
0
100
AcDbLine
 10
120.0
 20
4.0
 30
0.0
 11
124.0
 21
4.0
 31
0.0
  0
ARC
  5
250
330
1EC
100
AcDbEntity
  8
0
100
AcDbCircle
 10
122.0
 20
6.0
 30
0.0
 40
2.0
100
AcDbArc
 50
180.0
 51
0.0
  0
LINE
  5
251
330
1EC
100
AcDbEntity
  8
0
100
AcDbLine
 10
174.0
 20
25.99999999999977
 30
0.0
 11
173.9999999999995
 21
70.99999999999977
 31
0.0
  0
LINE
  5
252
330
1EC
100
AcDbEntity
  8
0
100
AcDbLine
 10
170.0
 20
25.99999999999977
 30
0.0
 11
169.9999999999995
 21
70.99999999999977
 31
0.0
  0
LINE
  5
253
330
1EC
100
AcDbEntity
  8
0
100
AcDbLine
 10
174.0
 20
6.0
 30
0.0
 11
174.0
 21
21.99999999999977
 31
0.0
  0
LINE
  5
254
330
1EC
100
AcDbEntity
  8
0
100
AcDbLine
 10
170.0
 20
6.0
 30
0.0
 11
170.0
 21
21.99999999999977
 31
0.0
  0
LINE
  5
255
330
1EC
100
AcDbEntity
  8
0
100
AcDbLine
 10
170.0
 20
4.0
 30
0.0
 11
174.0
 21
4.0
 31
0.0
  0
ARC
  5
256
330
1EC
100
AcDbEntity
  8
0
100
AcDbCircle
 10
172.0
 20
6.0
 30
0.0
 40
2.0
100
AcDbArc
 50
180.0
 51
0.0
  0
LINE
  5
257
330
1EC
100
AcDbEntity
  8
0
100
AcDbLine
 10
223.9999999999995
 20
25.99999999999977
 30
0.0
 11
223.9999999999995
 21
70.99999999999977
 31
0.0
  0
LINE
  5
258
330
1EC
100
AcDbEntity
  8
0
100
AcDbLine
 10
219.9999999999995
 20
25.99999999999977
 30
0.0
 11
219.9999999999995
 21
70.99999999999977
 31
0.0
  0
ARC
  5
259
330
1EC
100
AcDbEntity
  8
0
100
AcDbCircle
 10
222.0
 20
6.0
 30
0.0
 40
2.0
100
AcDbArc
 50
180.0
 51
0.0
  0
LINE
  5
25A
330
1EC
100
AcDbEntity
  8
0
100
AcDbLine
 10
220.0
 20
4.0
 30
0.0
 11
224.0
 21
4.0
 31
0.0
  0
LINE
  5
25B
330
1EC
100
AcDbEntity
  8
0
100
AcDbLine
 10
220.0
 20
6.0
 30
0.0
 11
219.9999999999995
 21
21.99999999999977
 31
0.0
  0
LINE
  5
25C
330
1EC
100
AcDbEntity
  8
0
100
AcDbLine
 10
224.0
 20
6.0
 30
0.0
 11
223.9999999999995
 21
21.99999999999977
 31
0.0
  0
LINE
  5
25D
330
1EC
100
AcDbEntity
  8
0
100
AcDbLine
 10
250.0
 20
25.99999999999977
 30
0.0
 11
250.0
 21
70.99999999999955
 31
0.0
  0
LINE
  5
25E
330
1EC
100
AcDbEntity
  8
0
100
AcDbLine
 10
246.0
 20
25.99999999999977
 30
0.0
 11
246.0
 21
70.99999999999955
 31
0.0
  0
ARC
  5
25F
330
1EC
100
AcDbEntity
  8
0
100
AcDbCircle
 10
252.0
 20
23.99999999999977
 30
0.0
 40
2.0
100
AcDbArc
 50
270.0
 51
90.0
  0
ARC
  5
260
330
1EC
100
AcDbEntity
  8
0
100
AcDbCircle
 10
244.0
 20
6.0
 30
0.0
 40
2.0
100
AcDbArc
 50
270.0
 51
0.0
  0
ARC
  5
261
330
1EC
100
AcDbEntity
  8
0
100
AcDbCircle
 10
244.0
 20
6.0
 30
0.0
 40
6.0
100
AcDbArc
 50
270.0
 51
0.0
  0
LINE
  5
262
330
1EC
100
AcDbEntity
  8
0
100
AcDbLine
 10
246.0
 20
6.0
 30
0.0
 11
246.0
 21
21.99999999999977
 31
0.0
  0
LINE
  5
263
330
1EC
100
AcDbEntity
  8
0
100
AcDbLine
 10
250.0
 20
6.0
 30
0.0
 11
250.0
 21
21.99999999999977
 31
0.0
  0
ARC
  5
264
330
1EC
100
AcDbEntity
  8
0
100
AcDbCircle
 10
252.0
 20
73.99999999999977
 30
0.0
 40
2.0
100
AcDbArc
 50
270.0
 51
90.0
  0
LINE
  5
265
330
1EC
100
AcDbEntity
  8
0
100
AcDbLine
 10
123.9999999999995
 20
225.9999999999998
 30
0.0
 11
123.9999999999995
 21
270.9999999999998
 31
0.0
  0
LINE
  5
266
330
1EC
100
AcDbEntity
  8
0
100
AcDbLine
 10
119.9999999999995
 20
225.9999999999998
 30
0.0
 11
119.9999999999995
 21
270.9999999999998
 31
0.0
  0
LINE
  5
267
330
1EC
100
AcDbEntity
  8
0
100
AcDbLine
 10
170.0
 20
225.9999999999998
 30
0.0
 11
169.9999999999995
 21
270.9999999999998
 31
0.0
  0
LINE
  5
268
330
1EC
100
AcDbEntity
  8
0
100
AcDbLine
 10
174.0
 20
225.9999999999998
 30
0.0
 11
173.9999999999995
 21
270.9999999999998
 31
0.0
  0
LINE
  5
269
330
1EC
100
AcDbEntity
  8
0
100
AcDbLine
 10
123.9999999999995
 20
125.9999999999998
 30
0.0
 11
123.9999999999995
 21
170.9999999999998
 31
0.0
  0
LINE
  5
26A
330
1EC
100
AcDbEntity
  8
0
100
AcDbLine
 10
119.9999999999995
 20
125.9999999999998
 30
0.0
 11
119.9999999999995
 21
170.9999999999998
 31
0.0
  0
LINE
  5
26B
330
1EC
100
AcDbEntity
  8
0
100
AcDbLine
 10
123.9999999999995
 20
175.9999999999998
 30
0.0
 11
123.9999999999995
 21
220.9999999999998
 31
0.0
  0
LINE
  5
26C
330
1EC
100
AcDbEntity
  8
0
100
AcDbLine
 10
119.9999999999995
 20
175.9999999999998
 30
0.0
 11
119.9999999999995
 21
220.9999999999998
 31
0.0
  0
LINE
  5
26D
330
1EC
100
AcDbEntity
  8
0
100
AcDbLine
 10
170.0
 20
125.9999999999998
 30
0.0
 11
169.9999999999995
 21
170.9999999999998
 31
0.0
  0
LINE
  5
26E
330
1EC
100
AcDbEntity
  8
0
100
AcDbLine
 10
174.0
 20
125.9999999999998
 30
0.0
 11
173.9999999999995
 21
170.9999999999998
 31
0.0
  0
LINE
  5
26F
330
1EC
100
AcDbEntity
  8
0
100
AcDbLine
 10
170.0
 20
175.9999999999998
 30
0.0
 11
169.9999999999995
 21
220.9999999999998
 31
0.0
  0
LINE
  5
270
330
1EC
100
AcDbEntity
  8
0
100
AcDbLine
 10
174.0
 20
175.9999999999998
 30
0.0
 11
173.9999999999995
 21
220.9999999999998
 31
0.0
  0
LINE
  5
271
330
1EC
100
AcDbEntity
  8
0
100
AcDbLine
 10
123.9999999999995
 20
275.9999999999998
 30
0.0
 11
123.9999999999995
 21
320.9999999999998
 31
0.0
  0
LINE
  5
272
330
1EC
100
AcDbEntity
  8
0
100
AcDbLine
 10
119.9999999999995
 20
275.9999999999998
 30
0.0
 11
119.9999999999995
 21
320.9999999999998
 31
0.0
  0
LINE
  5
273
330
1EC
100
AcDbEntity
  8
0
100
AcDbLine
 10
170.0
 20
275.9999999999998
 30
0.0
 11
169.9999999999995
 21
320.9999999999998
 31
0.0
  0
LINE
  5
274
330
1EC
100
AcDbEntity
  8
0
100
AcDbLine
 10
174.0
 20
275.9999999999998
 30
0.0
 11
173.9999999999995
 21
320.9999999999998
 31
0.0
  0
LINE
  5
275
330
1EC
100
AcDbEntity
  8
0
100
AcDbLine
 10
219.9999999999995
 20
225.9999999999998
 30
0.0
 11
219.9999999999995
 21
270.9999999999998
 31
0.0
  0
LINE
  5
276
330
1EC
100
AcDbEntity
  8
0
100
AcDbLine
 10
223.9999999999995
 20
225.9999999999998
 30
0.0
 11
223.9999999999995
 21
270.9999999999998
 31
0.0
  0
LINE
  5
277
330
1EC
100
AcDbEntity
  8
0
100
AcDbLine
 10
246.0
 20
225.9999999999998
 30
0.0
 11
246.0
 21
270.9999999999995
 31
0.0
  0
LINE
  5
278
330
1EC
100
AcDbEntity
  8
0
100
AcDbLine
 10
250.0
 20
225.9999999999998
 30
0.0
 11
250.0
 21
270.9999999999995
 31
0.0
  0
LINE
  5
279
330
1EC
100
AcDbEntity
  8
0
100
AcDbLine
 10
219.9999999999995
 20
125.9999999999998
 30
0.0
 11
219.9999999999995
 21
170.9999999999998
 31
0.0
  0
LINE
  5
27A
330
1EC
100
AcDbEntity
  8
0
100
AcDbLine
 10
223.9999999999995
 20
125.9999999999998
 30
0.0
 11
223.9999999999995
 21
170.9999999999998
 31
0.0
  0
LINE
  5
27B
330
1EC
100
AcDbEntity
  8
0
100
AcDbLine
 10
219.9999999999995
 20
175.9999999999998
 30
0.0
 11
219.9999999999995
 21
220.9999999999998
 31
0.0
  0
LINE
  5
27C
330
1EC
100
AcDbEntity
  8
0
100
AcDbLine
 10
223.9999999999995
 20
175.9999999999998
 30
0.0
 11
223.9999999999995
 21
220.9999999999998
 31
0.0
  0
LINE
  5
27D
330
1EC
100
AcDbEntity
  8
0
100
AcDbLine
 10
246.0
 20
125.9999999999998
 30
0.0
 11
246.0
 21
170.9999999999995
 31
0.0
  0
LINE
  5
27E
330
1EC
100
AcDbEntity
  8
0
100
AcDbLine
 10
250.0
 20
125.9999999999998
 30
0.0
 11
250.0
 21
170.9999999999995
 31
0.0
  0
ARC
  5
27F
330
1EC
100
AcDbEntity
  8
0
100
AcDbCircle
 10
252.0
 20
123.9999999999997
 30
0.0
 40
2.0
100
AcDbArc
 50
270.0
 51
90.0
  0
ARC
  5
280
330
1EC
100
AcDbEntity
  8
0
100
AcDbCircle
 10
252.0
 20
173.9999999999997
 30
0.0
 40
2.0
100
AcDbArc
 50
270.0
 51
90.0
  0
ARC
  5
281
330
1EC
100
AcDbEntity
  8
0
100
AcDbCircle
 10
252.0
 20
223.9999999999998
 30
0.0
 40
2.0
100
AcDbArc
 50
90.0
 51
270.0
  0
ARC
  5
282
330
1EC
100
AcDbEntity
  8
0
100
AcDbCircle
 10
252.0
 20
223.9999999999998
 30
0.0
 40
2.0
100
AcDbArc
 50
270.0
 51
90.0
  0
LINE
  5
283
330
1EC
100
AcDbEntity
  8
0
100
AcDbLine
 10
246.0
 20
175.9999999999998
 30
0.0
 11
246.0
 21
220.9999999999995
 31
0.0
  0
LINE
  5
284
330
1EC
100
AcDbEntity
  8
0
100
AcDbLine
 10
250.0
 20
175.9999999999998
 30
0.0
 11
250.0
 21
220.9999999999995
 31
0.0
  0
LINE
  5
285
330
1EC
100
AcDbEntity
  8
0
100
AcDbLine
 10
219.9999999999995
 20
275.9999999999998
 30
0.0
 11
219.9999999999995
 21
320.9999999999998
 31
0.0
  0
LINE
  5
286
330
1EC
100
AcDbEntity
  8
0
100
AcDbLine
 10
223.9999999999995
 20
275.9999999999998
 30
0.0
 11
223.9999999999995
 21
320.9999999999998
 31
0.0
  0
LINE
  5
287
330
1EC
100
AcDbEntity
  8
0
100
AcDbLine
 10
246.0
 20
275.9999999999998
 30
0.0
 11
246.0
 21
320.9999999999995
 31
0.0
  0
LINE
  5
288
330
1EC
100
AcDbEntity
  8
0
100
AcDbLine
 10
250.0
 20
275.9999999999998
 30
0.0
 11
250.0
 21
320.9999999999995
 31
0.0
  0
ARC
  5
289
330
1EC
100
AcDbEntity
  8
0
100
AcDbCircle
 10
252.0
 20
273.9999999999998
 30
0.0
 40
2.0
100
AcDbArc
 50
270.0
 51
90.0
  0
ARC
  5
28A
330
1EC
100
AcDbEntity
  8
0
100
AcDbCircle
 10
252.0
 20
323.9999999999998
 30
0.0
 40
2.0
100
AcDbArc
 50
270.0
 51
90.0
  0
LINE
  5
28B
330
1EC
100
AcDbEntity
  8
0
100
AcDbLine
 10
-8.0
 20
383.9999999999999
 30
0.0
 11
252.0
 21
383.9999999999999
 31
0.0
  0
LINE
  5
28C
330
1EC
100
AcDbEntity
  8
0
100
AcDbLine
 10
-8.0
 20
379.9999999999999
 30
0.0
 11
252.0
 21
379.9999999999999
 31
0.0
  0
ARC
  5
28D
330
1EC
100
AcDbEntity
  8
0
100
AcDbCircle
 10
-8.0
 20
381.9999999999999
 30
0.0
 40
2.0
100
AcDbArc
 50
90.0
 51
270.0
  0
ARC
  5
28E
330
1EC
100
AcDbEntity
  8
0
100
AcDbCircle
 10
252.0
 20
381.9999999999999
 30
0.0
 40
2.0
100
AcDbArc
 50
270.0
 51
90.0
  0
ENDBLK
  5
28F
330
1EC
100
AcDbEntity
  8
0
100
AcDbBlockEnd
  0
BLOCK
  5
320
330
31D
100
AcDbEntity
  8
0
100
AcDbBlockBegin
  2
DIN A4
 70
     2
 10
0.0
 20
0.0
 30
0.0
  3
DIN A4
  1

  0
LINE
  5
321
330
31D
100
AcDbEntity
  8
01-99
100
AcDbLine
 10
203.9999991132706
 20
290.9999997345026
 30
0.0
 11
19.99999911327086
 21
290.9999997345026
 31
0.0
  0
LINE
  5
325
330
31D
100
AcDbEntity
  8
01-99
100
AcDbLine
 10
203.9999990515532
 20
290.9999997781079
 30
0.0
 11
203.9999990515535
 21
5.999999778107849
 31
0.0
  0
LINE
  5
326
330
31D
100
AcDbEntity
  8
01-99
100
AcDbLine
 10
19.99999905155346
 20
5.999999778107735
 30
0.0
 11
19.99999905155346
 21
290.9999997781079
 31
0.0
  0
LWPOLYLINE
  5
327
330
31D
100
AcDbEntity
  8
02-99
100
AcDbPolyline
 90
        4
 70
     1
 43
0.0
 10
-0.0000009484465409
 20
-0.0000002218921509
 10
209.9999990515534
 20
-0.0000002218921509
 10
209.9999990515534
 20
296.9999997781079
 10
-0.0000009484465409
 20
296.9999997781079
  0
LINE
  5
32C
330
31D
100
AcDbEntity
  8
01-99
100
AcDbLine
 10
19.99999905155346
 20
5.999999778107735
 30
0.0
 11
203.9999990515535
 21
5.999999778107905
 31
0.0
  0
LINE
  5
32D
330
31D
100
AcDbEntity
  8
01-99
100
AcDbLine
 10
69.99999905155346
 20
11.11111088910775
 30
0.0
 11
19.99999905155346
 21
11.11111088910775
 31
0.0
  0
LINE
  5
32E
330
31D
100
AcDbEntity
  8
01-99
370
     5
100
AcDbLine
 10
69.99999905155346
 20
16.22222200010776
 30
0.0
 11
19.99999905155346
 21
16.22222200010776
 31
0.0
  0
LINE
  5
32F
330
31D
100
AcDbEntity
  8
01-99
370
     5
100
AcDbLine
 10
69.99999905155346
 20
21.33333311110778
 30
0.0
 11
19.99999905155346
 21
21.33333311110772
 31
0.0
  0
LINE
  5
330
330
31D
100
AcDbEntity
  8
01-99
370
     5
100
AcDbLine
 10
114.9999990515534
 20
26.44444422210779
 30
0.0
 11
19.99999905155346
 21
26.44444422210773
 31
0.0
  0
LINE
  5
331
330
31D
100
AcDbEntity
  8
01-99
100
AcDbLine
 10
114.9999990515534
 20
31.5555553331078
 30
0.0
 11
19.99999905155346
 21
31.55555533310775
 31
0.0
  0
LINE
  5
332
330
31D
100
AcDbEntity
  8
01-99
100
AcDbLine
 10
44.99999905155346
 20
5.999999778107735
 30
0.0
 11
44.99999905155346
 21
11.11111088910775
 31
0.0
  0
LINE
  5
333
330
31D
100
AcDbEntity
  8
01-99
100
AcDbLine
 10
27.99999905155346
 20
11.11111088910775
 30
0.0
 11
27.99999905155346
 21
36.66666644477442
 31
0.0
  0
LINE
  5
334
330
31D
100
AcDbEntity
  8
01-99
100
AcDbLine
 10
69.99999905155346
 20
5.999999778107735
 30
0.0
 11
69.99999905155346
 21
51.99999977810773
 31
0.0
  0
LINE
  5
335
330
31D
100
AcDbEntity
  8
01-99
370
    50
100
AcDbLine
 10
114.9999990515534
 20
5.999999778107735
 30
0.0
 11
114.9999990515534
 21
51.99999977810773
 31
0.0
  0
LINE
  5
336
330
31D
100
AcDbEntity
  8
01-99
100
AcDbLine
 10
144.4999990515534
 20
5.999999778107735
 30
0.0
 11
144.4999990515534
 21
16.22222200010782
 31
0.0
  0
LINE
  5
337
330
31D
100
AcDbEntity
  8
01-99
100
AcDbLine
 10
176.9999990515534
 20
5.999999778107735
 30
0.0
 11
176.9999990515534
 21
16.22222200010788
 31
0.0
  0
LINE
  5
338
330
31D
100
AcDbEntity
  8
01-99
100
AcDbLine
 10
154.9999990515534
 20
36.66666644477448
 30
0.0
 11
154.9999990515534
 21
51.99999977810785
 31
0.0
  0
LINE
  5
339
330
31D
100
AcDbEntity
  8
01-99
100
AcDbLine
 10
183.4999990515534
 20
36.66666644477448
 30
0.0
 11
183.4999990515534
 21
51.99999977810785
 31
0.0
  0
LINE
  5
33A
330
31D
100
AcDbEntity
  8
01-99
100
AcDbLine
 10
77.99999905155345
 20
21.33333311144111
 30
0.0
 11
77.99999905155345
 21
36.66666644477448
 31
0.0
  0
LINE
  5
33B
330
31D
100
AcDbEntity
  8
01-99
100
AcDbLine
 10
60.00318739098293
 20
11.11111088910775
 30
0.0
 11
60.00318739098293
 21
36.66666644477442
 31
0.0
  0
LINE
  5
33C
330
31D
100
AcDbEntity
  8
01-99
100
AcDbLine
 10
48.00318739098293
 20
11.11111088910775
 30
0.0
 11
48.00318739098293
 21
36.66666644477442
 31
0.0
  0
LINE
  5
33D
330
31D
100
AcDbEntity
  8
01-99
100
AcDbLine
 10
203.9999990515535
 20
51.99999977810785
 30
0.0
 11
19.99999905155164
 21
51.99999977810773
 31
0.0
  0
LINE
  5
33E
330
31D
100
AcDbEntity
  8
01-99
100
AcDbLine
 10
114.9999990515534
 20
21.33333311144111
 30
0.0
 11
69.99999905155346
 21
21.33333311144111
 31
0.0
  0
LINE
  5
33F
330
31D
100
AcDbEntity
  8
01-99
370
    50
100
AcDbLine
 10
114.9999990515534
 20
36.66666644477448
 30
0.0
 11
19.99999905155346
 21
36.66666644477436
 31
0.0
  0
LINE
  5
340
330
31D
100
AcDbEntity
  8
01-99
100
AcDbLine
 10
91.99999905155346
 20
21.33333311144111
 30
0.0
 11
91.99999905155346
 21
51.99999977810779
 31
0.0
  0
LINE
  5
341
330
31D
100
AcDbEntity
  8
01-99
100
AcDbLine
 10
69.99999905155346
 20
36.66666644477442
 30
0.0
 11
77.99999905155345
 21
31.55555534477446
 31
0.0
  0
LINE
  5
342
330
31D
100
AcDbEntity
  8
01-99
100
AcDbLine
 10
69.99999905155346
 20
31.55555534477446
 30
0.0
 11
77.99999905155345
 21
36.66666644477448
 31
0.0
  0
LINE
  5
343
330
31D
100
AcDbEntity
  8
01-99
100
AcDbLine
 10
203.9999990515535
 20
44.3333331114411
 30
0.0
 11
114.9999990515535
 21
44.33333311144105
 31
0.0
  0
LINE
  5
344
330
31D
100
AcDbEntity
  8
01-99
100
AcDbLine
 10
114.9999990515534
 20
16.22222200010776
 30
0.0
 11
203.9999990515535
 21
16.22222200010788
 31
0.0
  0
LINE
  5
345
330
31D
100
AcDbEntity
  8
01-99
100
AcDbLine
 10
114.9999990515534
 20
36.66666644477448
 30
0.0
 11
203.9999990515535
 21
36.66666644477454
 31
0.0
  0
LINE
  5
346
330
31D
100
AcDbEntity
  8
01-99
370
     5
100
AcDbLine
 10
91.99999905155346
 20
41.77777755610776
 30
0.0
 11
69.99999905155346
 21
41.77777755610776
 31
0.0
  0
LINE
  5
347
330
31D
100
AcDbEntity
  8
01-99
370
     5
100
AcDbLine
 10
91.99999905155346
 20
46.88888866710778
 30
0.0
 11
69.99999905155346
 21
46.88888866710771
 31
0.0
  0
LINE
  5
348
330
31D
100
AcDbEntity
  8
01-99
100
AcDbLine
 10
19.99999905155164
 20
51.99999977810773
 30
0.0
 11
19.99999905155164
 21
5.999999778107735
 31
0.0
  0
TEXT
  5
349
330
31D
100
AcDbEntity
  8
08-99
100
AcDbText
 10
116.4997002198597
 20
32.6698734859657
 30
0.0
 40
2.5
  1
Benennung/Teil:
 51
15.0
  7
ROMANS8
100
AcDbText
  0
TEXT
  5
34E
330
31D
100
AcDbEntity
  8
08-99
100
AcDbText
 10
178.5028264991208
 20
12.01760247233841
 30
0.0
 40
2.7
  1
Ident-Nr.
 51
15.0
  7
ROMANS8
100
AcDbText
  0
TEXT
  5
34F
330
31D
100
AcDbEntity
  8
08-99
100
AcDbText
 10
93.50002078472153
 20
33.05557673989017
 30
0.0
 40
2.5
  1
Name:
 51
15.0
  7
ROMANS8
100
AcDbText
  0
TEXT
  5
350
330
31D
100
AcDbEntity
  8
08-99
100
AcDbText
 10
79.50776819409838
 20
33.04841773911221
 30
0.0
 40
2.5
  1
Datum:
 50
0.102528160689452
 41
0.8933771909280748
 51
15.0
  7
ROMANS8
 72
     5
 11
90.67496520118039
 21
33.0684009455722
 31
0.0
100
AcDbText
  0
TEXT
  5
351
330
31D
100
AcDbEntity
  8
08-99
100
AcDbText
 10
29.50000713328882
 20
33.05597687708763
 30
0.0
 40
1.6
  1
Änderung:
 51
15.0
  7
ROMANS8
100
AcDbText
  0
TEXT
  5
352
330
31D
100
AcDbEntity
  8
08-99
100
AcDbText
 10
46.49993712730633
 20
9.111119077270188
 30
0.0
 40
1.0
  1
ERSETZT.DURCH:
 51
15.0
  7
ROMANS8
100
AcDbText
  0
TEXT
  5
353
330
31D
100
AcDbEntity
  8
08-99
100
AcDbText
 10
21.49935986722517
 20
9.110853981043987
 30
0.0
 40
1.0
  1
ERSETZT.FÜR:
 51
15.0
  7
ROMANS8
100
AcDbText
  0
TEXT
  5
354
330
31D
100
AcDbEntity
  8
08-99
100
AcDbText
 10
145.9909058937077
 20
12.61295664217152
 30
0.0
 40
2.112
  1
AUFTRAGS.NR.:
 51
15.0
  7
ROMANS8
100
AcDbText
  0
TEXT
  5
355
330
31D
100
AcDbEntity
  8
08-99
100
AcDbText
 10
116.5034632565658
 20
12.61092843413809
 30
0.0
 40
2.112
  1
Artikel-Nr:
 51
15.0
  7
ROMANS8
100
AcDbText
  0
TEXT
  5
356
330
31D
100
AcDbEntity
  8
08-99
100
AcDbText
 10
99.69630654663172
 20
49.92370828515004
 30
0.0
 40
1.349999999999999
  1
Format
 51
15.0
  7
ROMANS8
100
AcDbText
  0
TEXT
  5
357
330
31D
100
AcDbEntity
  8
08-99
100
AcDbText
 10
98.3043787983213
 20
44.64161857120848
 30
0.0
 40
1.822499999999999
  1
Normen
 51
15.0
  7
ROMANS8
100
AcDbText
  0
TEXT
  5
358
330
31D
100
AcDbEntity
  8
08-99
100
AcDbText
 10
21.50002865545503
 20
33.05556761366586
 30
0.0
 40
1.6
  1
Zust.
 51
15.0
  7
ROMANS8
100
AcDbText
  0
TEXT
  5
359
330
31D
100
AcDbEntity
  8
08-99
100
AcDbText
 10
49.50317975272264
 20
33.0555590296043
 30
0.0
 40
1.6
  1
Datum:
 51
15.0
  7
ROMANS8
100
AcDbText
  0
TEXT
  5
35A
330
31D
100
AcDbEntity
  8
08-99
100
AcDbText
 10
61.5032126684855
 20
33.05556383605318
 30
0.0
 40
1.6
  1
Name:
 51
15.0
  7
ROMANS8
100
AcDbText
  0
TEXT
  5
35B
330
31D
100
AcDbEntity
  8
08-99
100
AcDbText
 10
71.15455349714466
 20
28.0381393460566
 30
0.0
 40
1.6
  1
Erst.
 51
15.0
  7
ROMANS8
100
AcDbText
  0
TEXT
  5
35C
330
31D
100
AcDbEntity
  8
08-99
100
AcDbText
 10
70.51717941386414
 20
23.19745083752878
 30
0.0
 40
1.6
  1
Bearb.
 51
15.0
  7
ROMANS8
100
AcDbText
  0
TEXT
  5
35D
330
31D
100
AcDbEntity
  8
08-99
100
AcDbText
 10
115.9308039633215
 20
49.28616393748132
 30
0.0
 40
2.0
  1
Zuschnittsbreite:
 51
15.0
  7
ROMANS8
100
AcDbText
  0
TEXT
  5
35E
330
31D
100
AcDbEntity
  8
08-99
100
AcDbText
 10
115.9849938255856
 20
41.73762340622135
 30
0.0
 40
2.0
  1
Zuschnittslänge:
 51
15.0
  7
ROMANS8
100
AcDbText
  0
LWPOLYLINE
  5
35F
330
31D
100
AcDbEntity
  8
06-99
100
AcDbPolyline
 90
      133
 70
     1
 43
0.010692
 10
93.76753886355345
 20
18.87656462744115
 10
94.00904619555353
 20
19.08724692344117
 10
93.92285085555352
 20
19.22625717944106
 10
93.82426348755348
 20
19.3518062074412
 10
93.71362623555365
 20
19.46394033944119
 10
93.59129549955344
 20
19.56271303544105
 10
93.45761342355354
 20
19.64816349944112
 10
93.31292571555355
 20
19.72033806344109
 10
93.1575852115535
 20
19.77929018744112
 10
92.99193405555365
 20
19.82505907544112
 10
92.81632151955353
 20
19.85769105944121
 10
92.63109687555369
 20
19.87723959944117
 10
92.4366058315536
 20
19.88374389944113
 10
92.2756805395535
 20
19.87768153544113
 10
92.11994086755339
 20
19.85975817944108
 10
91.96971826755362
 20
19.83036230744125
 10
91.82534775555359
 20
19.7898895234411
 10
91.6871607835535
 20
19.73873543144122
 10
91.55548167555355
 20
19.67729207144111
 10
91.43065257555361
 20
19.60595148344111
 10
91.31299780755353
 20
19.52510570744107
 10
91.20284882355349
 20
19.43514678344115
 10
91.10054420355357
 20
19.33647387944114
 10
91.00640470755365
 20
19.22947190744116
 10
90.92076891555359
 20
19.11454359944116
 10
90.84396827955357
 20
18.99207386744115
 10
90.77633068755359
 20
18.86245831544119
 10
90.71819115555355
 20
18.72608898344111
 10
90.66987757155358
 20
18.5833650394411
 10
90.63172138755362
 20
18.43467139544111
 10
90.60406118355343
 20
18.28040721944109
 10
90.58721771955356
 20
18.12096098744115
 10
90.58153313955358
 20
17.95672830344114
 10
90.58714643955353
 20
17.78762363144119
 10
90.60379744755369
 20
17.62428907544114
 10
90.63118678755335
 20
17.46704183144112
 10
90.66901508355341
 20
17.31619553144105
 10
90.71698652355349
 20
17.17206380744113
 10
90.77480529555362
 20
17.03496029144116
 10
90.84217558755359
 20
16.90519505144112
 10
90.91879802355355
 20
16.78308528344109
 10
91.00437679155357
 20
16.66894105544111
 10
91.09861964355355
 20
16.56307956344113
 10
91.20122007555346
 20
16.46581087544115
 10
91.3118929675535
 20
16.37745218744106
 10
91.43033181555358
 20
16.2983135674412
 10
91.55624437155347
 20
16.22870864744118
 10
91.68933125955346
 20
16.16895462344109
 10
91.82930023155348
 20
16.11936156344114
 10
91.97584834755366
 20
16.08024309944119
 10
92.12868692355346
 20
16.0519128634412
 10
92.28750945555351
 20
16.03468448744115
 10
92.45202725955357
 20
16.02887160344119
 10
92.6160247195536
 20
16.03412493944114
 10
92.77335749955353
 20
16.04976377144118
 10
92.9238367075535
 20
16.07559564344114
 10
93.06727345155342
 20
16.11142809944118
 10
93.20348240355361
 20
16.15707224744113
 10
93.33227110755343
 20
16.21233919544113
 10
93.45345423555352
 20
16.27703648744114
 10
93.56683576755358
 20
16.35097879544116
 10
93.67223750355355
 20
16.43397366344112
 10
93.76945985955353
 20
16.52582507144115
 10
93.85832107155351
 20
16.62635481944113
 10
93.93863224755364
 20
16.73535975944111
 10
94.01020093155352
 20
16.85266169144114
 10
94.07283823155353
 20
16.97806103144114
 10
94.12635881955361
 20
17.11137245144107
 10
94.17057380355345
 20
17.25240349544111
 10
94.20528716355352
 20
17.40096527144112
 10
94.23032069955354
 20
17.55686888744117
 10
94.24547839155366
 20
17.7199254514411
 10
94.25057134755343
 20
17.88993894344111
 10
94.25057134755343
 20
17.88993894344111
 10
94.25057134755343
 20
17.94132113144115
 10
92.61646309155356
 20
17.94132113144115
 10
92.61646309155356
 20
17.65354951544111
 10
93.8857246675534
 20
17.65354951544111
 10
93.87498633555344
 20
17.49100616744113
 10
93.84765401955348
 20
17.33636064344114
 10
93.80443339155362
 20
17.19027584744117
 10
93.7460301235535
 20
17.05341824744113
 10
93.67315701555368
 20
16.92644361944116
 10
93.58652330355358
 20
16.81002555944116
 10
93.48682753155356
 20
16.70481627944116
 10
93.37478606355352
 20
16.61148937544112
 10
93.25110457155346
 20
16.53069705944114
 10
93.11648872755359
 20
16.46310936344116
 10
92.97164776755346
 20
16.40938562744111
 10
92.81729092755359
 20
16.37019231944123
 10
92.65412387955359
 20
16.34618877944109
 10
92.48285585955363
 20
16.33804147544117
 10
92.31819549555359
 20
16.34599275944111
 10
92.15990043555349
 20
16.36937616344107
 10
92.0085623035535
 20
16.40748245144112
 10
91.86476915955337
 20
16.45960595144112
 10
91.72910193555356
 20
16.52503742744113
 10
91.60215225555351
 20
16.60306764344119
 10
91.48450461555354
 20
16.69299449144114
 10
91.37675063955351
 20
16.79410517144123
 10
91.27947482355365
 20
16.90569401144114
 10
91.19326166355348
 20
17.02705533944112
 10
91.11870278355354
 20
17.15747635544113
 10
91.05638267955351
 20
17.29625495144114
 10
91.00688941155352
 20
17.44268189144111
 10
90.97081103955337
 20
17.59604437544118
 10
90.94873205955343
 20
17.75564385944125
 10
90.94124409555353
 20
17.92076754344106
 10
90.94763078355368
 20
18.08914159544116
 10
90.96653423955354
 20
18.25115390744111
 10
90.99755529555364
 20
18.4063055194411
 10
91.04029834755351
 20
18.55410103544113
 10
91.09437135555344
 20
18.69404505944112
 10
91.1593751515535
 20
18.82564575944116
 10
91.23491413155353
 20
18.94840061144117
 10
91.3205962555536
 20
19.06182134744114
 10
91.41602235555343
 20
19.16540544344121
 10
91.52080395555344
 20
19.25866106744109
 10
91.63453475955362
 20
19.34108925944116
 10
91.75682985555363
 20
19.41219818744116
 10
91.88728651155338
 20
19.47148889144114
 10
92.0255126875536
 20
19.51846597544113
 10
92.17111634355365
 20
19.55263404344112
 10
92.32369474755364
 20
19.57350126344113
 10
92.48285585955363
 20
19.58056511144116
 10
92.66056046355357
 20
19.57164798344115
 10
92.8303137835536
 20
19.54501064744113
 10
92.99177723955358
 20
19.50082061144115
 10
93.14461225155355
 20
19.43924538344112
 10
93.28848023955357
 20
19.36045959944113
 10
93.42304618755362
 20
19.26462720344119
 10
93.5479715155535
 20
19.15192283144114
 10
93.66291407955362
 20
19.0225104274412
  0
LWPOLYLINE
  5
363
330
31D
100
AcDbEntity
  8
06-99
100
AcDbPolyline
 90
       12
 70
     1
 43
0.010692
 10
90.43899452355345
 20
12.25281360344121
 10
92.32226201955359
 20
12.25281360344121
 10
92.4675983755535
 20
13.00767949544115
 10
91.56486925155354
 20
13.00767949544115
 10
91.62105214755342
 20
13.29950694344109
 10
92.41871455155353
 20
13.29950694344109
 10
92.55580024755341
 20
14.0115620674411
 10
91.75813784355341
 20
14.0115620674411
 10
91.80984435555343
 20
14.28005600744109
 10
92.68922571555345
 20
14.28005600744109
 10
92.83455137955355
 20
15.03490764344116
 10
90.97463164755357
 20
15.03490764344116
  0
LWPOLYLINE
  5
364
330
31D
100
AcDbEntity
  8
06-99
100
AcDbPolyline
 90
        4
 70
     1
 43
0.010692
 10
76.60861096755354
 20
12.88042687544112
 10
89.06586016755341
 20
12.88042687544112
 10
88.94228203155353
 20
12.25209723944113
 10
76.48503639555349
 20
12.25209723944113
  0
SOLID
  5
365
330
31D
100
AcDbEntity
  8
06-99
100
AcDbTrace
 10
76.60861096755354
 20
12.88042687544112
 30
0.0
 11
89.06586016755341
 21
12.88042687544112
 31
0.0
 12
76.48503639555349
 22
12.25209723944113
 32
0.0
 13
88.94228203155353
 23
12.25209723944113
 33
0.0
  0
LWPOLYLINE
  5
366
330
31D
100
AcDbEntity
  8
06-99
100
AcDbPolyline
 90
       10
 70
     1
 43
0.010692
 10
82.34584193955356
 20
16.02887160344119
 10
83.32218191955348
 20
19.10266835144114
 10
84.33964689555342
 20
16.02887160344119
 10
85.56779773155358
 20
19.80153311144113
 10
85.22350820355347
 20
19.80153311144113
 10
84.33964689555342
 20
16.8930311194411
 10
83.32218191955348
 20
19.94541179144107
 10
82.34584193955356
 20
16.86733824344116
 10
81.42600917955361
 20
19.80153311144113
 10
81.0765803635536
 20
19.80153311144113
  0
LWPOLYLINE
  5
367
330
31D
100
AcDbEntity
  8
06-99
100
AcDbPolyline
 90
        3
 70
     1
 43
0.010692
 10
87.32441492355361
 20
17.65868523944118
 10
87.97703321955351
 20
19.25683273544109
 10
88.60396220355346
 20
17.65868523944118
  0
LWPOLYLINE
  5
368
330
31D
100
AcDbEntity
  8
06-99
100
AcDbPolyline
 90
        7
 70
     1
 43
0.010692
 10
86.38318034355359
 20
16.1273591794411
 10
86.72319307155351
 20
16.1273591794411
 10
87.21136127955345
 20
17.37092787944112
 10
88.71186230355363
 20
17.37092787944112
 10
89.17949117955345
 20
16.1273591794411
 10
89.54433785955348
 20
16.1273591794411
 10
87.99759037155354
 20
19.94541179144107
  0
LWPOLYLINE
  5
369
330
31D
100
AcDbEntity
  8
06-99
100
AcDbPolyline
 90
        8
 70
     1
 43
0.010692
 10
98.92980397155339
 20
12.25281360344121
 10
100.0043784835534
 20
12.25281360344121
 10
100.1574059515535
 20
12.60301224344113
 10
100.9122718435535
 20
12.60301224344113
 10
100.9343436955534
 20
12.25281360344121
 10
102.0082731235534
 20
12.25281360344121
 10
101.5711485235534
 20
15.03490764344116
 10
100.4583109075535
 20
15.03490764344116
  0
LWPOLYLINE
  5
36A
330
31D
100
AcDbEntity
  8
06-99
100
AcDbPolyline
 90
       34
 70
     1
 43
0.010692
 10
96.04345580355357
 20
13.66137768344112
 10
96.0784792315534
 20
13.66137768344112
 10
96.06422323155356
 20
13.48699829144118
 10
96.06379911555348
 20
13.33510061144113
 10
96.0678977155535
 20
13.20222756344117
 10
96.09523003155358
 20
12.25281360344121
 10
96.96682761555337
 20
12.25281360344121
 10
98.31568756755338
 20
15.03490764344116
 10
97.31180499555353
 20
15.03490764344116
 10
96.85791177555348
 20
13.80923022344109
 10
96.80780906355359
 20
13.66872665144109
 10
96.7488391195534
 20
13.48671317144107
 10
96.69002599155341
 20
13.26059875544121
 10
96.66669248355345
 20
13.26059875544121
 10
96.68841862755346
 20
13.45803366344114
 10
96.69297698355354
 20
13.61569433144109
 10
96.69193629555344
 20
13.73531286344115
 10
96.6775519915534
 20
15.03490764344116
 10
95.97328420755344
 20
15.03490764344116
 10
95.45848222755353
 20
13.73531286344115
 10
95.41138040355338
 20
13.61569433144109
 10
95.35522601955358
 20
13.45803366344114
 10
95.30092135155348
 20
13.26059875544121
 10
95.27758784355341
 20
13.26059875544121
 10
95.30584323555354
 20
13.48671317144107
 10
95.31696291555352
 20
13.66872665144109
 10
95.32095815955347
 20
13.80923022344109
 10
95.33903120355342
 20
15.03490764344116
 10
94.33450354755349
 20
15.03490764344116
 10
94.61273433555357
 20
12.25281360344121
 10
95.48432835555344
 20
12.25281360344121
 10
95.87723797155353
 20
13.20222756344117
 10
95.93251204755347
 20
13.33510061144113
 10
95.99057673555353
 20
13.48699829144118
  0
LWPOLYLINE
  5
36B
330
31D
100
AcDbEntity
  8
06-99
100
AcDbPolyline
 90
       10
 70
     1
 43
0.010692
 10
100.4520667795534
 20
13.26448351544115
 10
100.5983582875534
 20
13.57965872744114
 10
100.6731096235535
 20
13.74409455944124
 10
100.7541514195535
 20
13.94571003944117
 10
100.8288279115535
 20
14.19056396744122
 10
100.8482873515535
 20
14.19056396744122
 10
100.8286639675534
 20
13.94571003944117
 10
100.8320711515534
 20
13.74409455944124
 10
100.8435044635535
 20
13.57965872744114
 10
100.8684096955536
 20
13.26448351544115
  0
LWPOLYLINE
  5
36C
330
31D
100
AcDbEntity
  8
06-99
100
AcDbPolyline
 90
       23
 70
     1
 43
0.010692
 10
103.5867045715536
 20
12.25281360344121
 10
104.5672393795533
 20
12.25281360344121
 10
104.7440351635534
 20
13.17110315144111
 10
105.0536255875536
 20
12.25281360344121
 10
106.1742362875534
 20
12.25281360344121
 10
105.6490666315535
 20
13.38511422344112
 10
105.8084273275535
 20
13.42380857144116
 10
105.9536995315534
 20
13.49881651544115
 10
106.0813477555534
 20
13.60690194344113
 10
106.1878293835534
 20
13.74481805144114
 10
106.2695982355534
 20
13.90932159944111
 10
106.3231116955534
 20
14.09716934744114
 10
106.3445990515534
 20
14.26809165944115
 10
106.3403008675534
 20
14.42330029544121
 10
106.3102278355535
 20
14.56226065544115
 10
106.2543906475533
 20
14.68443457544106
 10
106.1728071235534
 20
14.78928745544118
 10
106.0654915195534
 20
14.87627756744115
 10
105.9324509635535
 20
14.94487387544114
 10
105.7737068395533
 20
14.9945346514412
 10
105.5892627115535
 20
15.02472529544116
 10
105.3791435275534
 20
15.03490764344116
 10
104.1223416955534
 20
15.03490764344116
  0
LWPOLYLINE
  5
36D
330
31D
100
AcDbEntity
  8
06-99
100
AcDbPolyline
 90
        9
 70
     1
 43
0.010692
 10
104.9650316755535
 20
14.31896419544114
 10
105.1206822475535
 20
14.31896419544114
 10
105.2773521235535
 20
14.28538418744108
 10
105.3582192835533
 20
14.1904107154412
 10
105.3632160115535
 20
14.04270073544114
 10
105.3008638315534
 20
13.89700085144119
 10
105.1832910355534
 20
13.80578027144116
 10
105.0158115475534
 20
13.77422105144109
 10
104.8601609755535
 20
13.77422105144109
  0
LWPOLYLINE
  5
36E
330
31D
100
AcDbEntity
  8
06-99
100
AcDbPolyline
 90
       12
 70
     1
 43
0.010692
 10
100.5798005395536
 20
16.1273591794411
 10
102.3988982155535
 20
16.1273591794411
 10
102.3988982155535
 20
16.44082367144108
 10
100.9138186195535
 20
16.44082367144108
 10
100.9138186195535
 20
18.02353191944121
 10
102.3988982155535
 20
18.02353191944121
 10
102.3988982155535
 20
18.33699641144119
 10
100.9138186195535
 20
18.33699641144119
 10
100.9138186195535
 20
19.48806861944115
 10
102.3988982155535
 20
19.48806861944115
 10
102.3988982155535
 20
19.80153311144113
 10
100.5798005395536
 20
19.80153311144113
  0
LWPOLYLINE
  5
36F
330
31D
100
AcDbEntity
  8
06-99
100
AcDbPolyline
 90
        8
 70
     1
 43
0.010692
 10
95.85302415555361
 20
16.1273591794411
 10
96.18704579955352
 20
16.1273591794411
 10
96.18704579955352
 20
19.09753262744112
 10
98.76666543555348
 20
16.01858589944112
 10
98.76666543555348
 20
19.80153311144113
 10
98.43265804755356
 20
19.80153311144113
 10
98.43265804755356
 20
16.88274541544115
 10
95.85302415555361
 20
19.9556832394411
  0
LWPOLYLINE
  5
370
330
31D
100
AcDbEntity
  8
06-99
100
AcDbPolyline
 90
       19
 70
     1
 43
0.010692
 10
104.4484227475536
 20
19.50862577144107
 10
104.7824301355535
 20
19.50862577144107
 10
104.9866152595534
 20
19.50030739544115
 10
105.1604457955535
 20
19.47385895144111
 10
105.3048947155536
 20
19.42705650344106
 10
105.4209171715535
 20
19.35767255144111
 10
105.5094790075536
 20
19.26347959544108
 10
105.5715425035534
 20
19.1422501354412
 10
105.6080770675535
 20
18.99174954344107
 10
105.6200414155535
 20
18.80976101144114
 10
105.6074462395535
 20
18.63100859144111
 10
105.5693755915535
 20
18.48586112744112
 10
105.5054160475536
 20
18.37130347544121
 10
105.4151363635535
 20
18.28432761944117
 10
105.2981231155536
 20
18.22192197944116
 10
105.1539486235535
 20
18.18107141144111
 10
104.9821887715534
 20
18.15877146344121
 10
104.7824301355535
 20
18.15200699144117
 10
104.4484227475536
 20
18.15200699144117
  0
LWPOLYLINE
  5
371
330
31D
100
AcDbEntity
  8
06-99
100
AcDbPolyline
 90
       29
 70
     1
 43
0.010692
 10
106.3445990515534
 20
16.1273591794411
 10
105.0239552875534
 20
17.87965323944115
 10
105.2123732755536
 20
17.8922519794412
 10
105.3828999835535
 20
17.9294209354411
 10
105.5343984955535
 20
17.99022990344122
 10
105.6657212035535
 20
18.07375580744116
 10
105.7757276275536
 20
18.17905775144112
 10
105.8632737235534
 20
18.30521622344116
 10
105.9272225755535
 20
18.45129389144119
 10
105.9664301395535
 20
18.61636055144117
 10
105.9797523715533
 20
18.79948956344117
 10
105.9699371155536
 20
18.97455324344116
 10
105.9404806555536
 20
19.13261664344117
 10
105.8913544795536
 20
19.27374747944117
 10
105.8225407675536
 20
19.39801346744104
 10
105.7340145715535
 20
19.50548588744118
 10
105.6257509435536
 20
19.59623601944116
 10
105.4977284995535
 20
19.6703280154411
 10
105.3499222915534
 20
19.72783315544115
 10
105.1823109355534
 20
19.76882628344117
 10
104.9948730475535
 20
19.79336798744117
 10
104.7875801155535
 20
19.80153311144113
 10
104.7875801155535
 20
19.80153311144113
 10
104.1144046675535
 20
19.80153311144113
 10
104.1144046675535
 20
16.1273591794411
 10
104.4484227475536
 20
16.1273591794411
 10
104.4484227475536
 20
17.87965323944115
 10
104.6488371595535
 20
17.87965323944115
 10
105.9386380675535
 20
16.1273591794411
  0
TEXT
  5
372
330
31D
100
AcDbEntity
  8
06-99
100
AcDbText
 10
85.60835715061307
 20
9.633208763826985
 30
0.0
 40
1.4256
  1
GmbH & Co KG
 41
1.199203187251
 51
15.0
  7
ROMAND8
 72
     5
 11
106.0419571506131
 21
9.633208763826985
 31
0.0
100
AcDbText
  0
TEXT
  5
374
330
31D
100
AcDbEntity
  8
06-99
100
AcDbText
 10
85.70981390519694
 20
7.391015491403436
 30
0.0
 40
1.4256
  1
72774 Reutlingen
 50
0.5663244663116128
 41
1.087840993687879
 51
15.0
  7
ROMAND8
 72
     5
 11
105.9434139051969
 21
7.591015491403425
 31
0.0
100
AcDbText
  0
TEXT
  5
375
330
31D
100
AcDbEntity
  8
08-99
100
AcDbText
 10
73.41411725139096
 20
48.45009140855109
 30
0.0
 40
2.25
  1
Zul. Abw.
 51
15.0
  7
ROMANS8
100
AcDbText
  0
TEXT
  5
376
330
31D
100
AcDbEntity
  8
08-99
100
AcDbText
 10
163.209925371837
 20
49.28616393748132
 30
0.0
 40
2.0
  1
Mat. Art.
 51
15.0
  7
ROMANS8
100
AcDbText
  0
TEXT
  5
377
330
31D
100
AcDbEntity
  8
08-99
100
AcDbText
 10
161.9865300219262
 20
41.73764649478573
 30
0.0
 40
2.0
  1
Oberfläche:
 51
15.0
  7
ROMANS8
100
AcDbText
  0
TEXT
  5
378
330
31D
100
AcDbEntity
  8
08-99
100
AcDbText
 10
184.762536890134
 20
41.73764649478573
 30
0.0
 40
2.0
  1
Blech Dicke:
 51
15.0
  7
ROMANS8
100
AcDbText
  0
TEXT
  5
379
330
31D
100
AcDbEntity
  8
08-99
100
AcDbText
 10
187.4380270801111
 20
49.28616393748132
 30
0.0
 40
2.0
  1
Maßstab:
 51
15.0
  7
ROMANS8
100
AcDbText
  0
LINE
  5
37A
330
31D
100
AcDbEntity
  8
01-99
100
AcDbLine
 10
114.9999990515534
 20
46.88888866710778
 30
0.0
 11
91.99999905155346
 21
46.88888866710778
 31
0.0
  0
LINE
  5
37B
330
31D
100
AcDbEntity
  8
01-99
370
     5
100
AcDbLine
 10
114.9999990515534
 20
44.33333311144105
 30
0.0
 11
91.99999905155346
 21
44.33333311144105
 31
0.0
  0
LINE
  5
37C
330
31D
100
AcDbEntity
  8
01-99
370
     5
100
AcDbLine
 10
114.9999990515535
 20
40.49999977810773
 30
0.0
 11
91.9999990515534
 21
40.49999977810773
 31
0.0
  0
ATTDEF
  5
37D
330
31D
100
AcDbEntity
  8
06-99
100
AcDbText
 10
116.4954457907306
 20
26.18783847538998
 30
0.0
 40
4.5
  1

 41
0.9
  7
ROMANS8
100
AcDbAttributeDefinition
280
     0
  3
Benennung/Teil
  2
TEILE
 70
     0
280
     0
  0
ATTDEF
  5
37E
330
31D
100
AcDbEntity
  8
06-99
100
AcDbText
 10
92.99706685092088
 20
27.44168524613906
 30
0.0
 40
2.5
  1

 41
0.9
  7
ROMANS8
100
AcDbAttributeDefinition
280
     0
  3
Name
  2
NAME
 70
     0
280
     0
  0
ATTDEF
  5
37F
330
31D
100
AcDbEntity
  8
06-99
100
AcDbText
 10
79.49314550344752
 20
27.461234952219
 30
0.0
 40
2.5
  1

 50
359.9144597696142
 41
0.9542572414211148
  7
ROMANS8
 72
     5
 11
90.73973617199227
 21
27.44444424477445
 31
0.0
100
AcDbAttributeDefinition
280
     0
  3
Datum
  2
DATUM
 70
     0
280
     0
  0
ATTDEF
  5
380
330
31D
100
AcDbEntity
  8
06-99
100
AcDbText
 10
191.347385263268
 20
45.33333311144111
 30
0.0
 40
3.375
  1

  7
ROMANS8
100
AcDbAttributeDefinition
280
     0
  3
Maßstab
  2
:
 70
     0
280
     0
  0
ATTDEF
  5
381
330
31D
100
AcDbEntity
  8
06-99
100
AcDbText
 10
178.5063430187117
 20
7.492899578396475
 30
0.0
 40
2.99376
  1

  7
ROMANS8
100
AcDbAttributeDefinition
280
     0
  3
Ident-Nummer
  2
ID.NR
 70
     0
280
     0
  0
ATTDEF
  5
382
330
31D
100
AcDbEntity
  8
06-99
100
AcDbText
 10
116.4999990515534
 20
7.499999778107792
 30
0.0
 40
3.168
  1

 41
0.9
  7
ROMANS8
100
AcDbAttributeDefinition
280
     0
  3
ARTIKEL-NR,WPS
  2
ARTIKEL-NR
 70
     0
280
     0
  0
ATTDEF
  5
383
330
31D
100
AcDbEntity
  8
06-99
100
AcDbText
 10
146.0006329384335
 20
7.504396382462402
 30
0.0
 40
3.168
  1

 41
0.9
  7
ROMANS8
100
AcDbAttributeDefinition
280
     0
  3
Auftrags Nr.
  2
AUFTRAGS.NR.
 70
     0
280
     0
  0
ATTDEF
  5
384
330
31D
100
AcDbEntity
  8
06-99
100
AcDbText
 10
116.731265307264
 20
37.66666642255223
 30
0.0
 40
3.0
  1

 41
0.9
  7
ROMANS8
100
AcDbAttributeDefinition
280
     0
  3
Zuschnitts.Länge
  2
LÄNGE
 70
     0
280
     0
  0
ATTDEF
  5
385
330
31D
100
AcDbEntity
  8
06-99
100
AcDbText
 10
116.6808039633232
 20
45.34477031521925
 30
0.0
 40
3.0
  1

 41
0.9
  7
ROMANS8
100
AcDbAttributeDefinition
280
     0
  3
Zuschnitts Breite
  2
BREITE
 70
     0
280
     0
  0
ATTDEF
  5
386
330
31D
100
AcDbEntity
  8
06-99
100
AcDbText
 10
190.6090911782853
 20
37.66666644477453
 30
0.0
 40
3.09375
  1

  7
ROMANS8
100
AcDbAttributeDefinition
280
     0
  3
Blech.Dicke
  2
1.0
 70
     0
280
     0
  0
ATTDEF
  5
387
330
31D
100
AcDbEntity
  8
06-99
100
AcDbText
 10
170.6277846529561
 20
37.66666644477448
 30
0.0
 40
3.0
  1

  7
ROMANS8
 72
     1
 11
170.6277846529561
 21
37.66666644477448
 31
0.0
100
AcDbAttributeDefinition
280
     0
  3
Oberfläche
  2
IV
 70
     0
280
     0
  0
ATTDEF
  5
388
330
31D
100
AcDbEntity
  8
06-99
100
AcDbText
 10
21.49946683175199
 20
6.597456175980198
 30
0.0
 40
1.5
  1

 41
0.9
  7
ROMANS8
100
AcDbAttributeDefinition
280
     0
  3
ERSETZT.Für
  2
ERSETZT.FÜR
 70
     0
280
     0
  0
ATTDEF
  5
389
330
31D
100
AcDbEntity
  8
06-99
100
AcDbText
 10
46.49975004656176
 20
6.601809847367633
 30
0.0
 40
1.5
  1

 41
0.9
  7
ROMANS8
100
AcDbAttributeDefinition
280
     0
  3
ERSETZT.Durch
  2
ERSETZT.DURCH
 70
     0
280
     0
  0
ATTDEF
  5
38A
330
31D
100
AcDbEntity
  8
06-99
100
AcDbText
 10
92.81172376324546
 20
41.03030044530584
 30
0.0
 40
2.34
  1
DIN 6930-M
  7
ROMANS8
 72
     1
 11
103.5088666203883
 21
41.03030044530584
 31
0.0
100
AcDbAttributeDefinition
280
     0
  3
Norm / Fräsen
  2
NORM1
 70
     0
280
     0
  0
ATTDEF
  5
38B
330
31D
100
AcDbEntity
  8
06-99
100
AcDbText
 10
95.98743804895976
 20
37.19696711197253
 30
0.0
 40
2.34
  1
DIN 2768
  7
ROMANS8
 72
     1
 11
104.0102951918169
 21
37.19696711197253
 31
0.0
100
AcDbAttributeDefinition
280
     0
  3
Norm / Kanten
  2
NORM2
 70
     0
280
     0
  0
ATTDEF
  5
38C
330
31D
100
AcDbEntity
  8
06-99
100
AcDbText
 10
99.97307169799105
 20
47.66851091811576
 30
0.0
 40
1.287
  1
DIN A4
  7
ROMANS8
 72
     1
 11
103.2518574122767
 21
47.66851091811576
 31
0.0
100
AcDbAttributeDefinition
280
     0
  3
Format
  2
FORMAT
 70
     0
280
     0
  0
ATTDEF
  5
38D
330
31D
100
AcDbEntity
  8
06-99
100
AcDbText
 10
163.2747395876692
 20
45.33333311144111
 30
0.0
 40
3.375
  1
1.4301
  7
ROMANS8
100
AcDbAttributeDefinition
280
     0
  3
Mat.Art
  2
1.4301
 70
     0
280
     0
  0
ENDBLK
  5
38E
330
31D
100
AcDbEntity
  8
0
100
AcDbBlockEnd
  0
BLOCK
  5
2B4
330
2B1
100
AcDbEntity
  8
0
100
AcDbBlockBegin
  2
aaaaWagner
 70
     0
 10
0.0
 20
0.0
 30
0.0
  3
aaaaWagner
  1

  0
LWPOLYLINE
  5
2B5
330
2B1
100
AcDbEntity
  8
02TNR-01
100
AcDbPolyline
 90
      133
 70
     1
 43
0.0135
 10
2.64276749999999
 20
8.613321999999925
 10
2.947701000000051
 20
8.879334999999969
 10
2.838868499999989
 20
9.054852999999866
 10
2.714389500000038
 20
9.213374499999986
 10
2.57469600000013
 20
9.35495800000001
 10
2.420237999999926
 20
9.479670999999882
 10
2.25144750000004
 20
9.587562999999931
 10
2.068760999999994
 20
9.678692499999897
 10
1.872623999999973
 20
9.753126999999949
 10
1.663468500000135
 20
9.810915999999906
 10
1.441735500000049
 20
9.852118000000018
 10
1.20786600000008
 20
9.876800499999944
 10
0.9622965000000931
 20
9.885012999999958
 10
0.759108000000083
 20
9.8773584999999
 10
0.5624669999999697
 20
9.854727999999909
 10
0.372792000000004
 20
9.817611999999996
 10
0.1905060000001413
 20
9.766509999999925
 10
0.0160275000000638
 20
9.701921499999969
 10
-0.1502339999999549
 20
9.6243414999999
 10
-0.3078464999999824
 20
9.534264999999891
 10
-0.4564004999999725
 20
9.432186999999885
 10
-0.5954774999999018
 20
9.318602499999997
 10
-0.7246499999999969
 20
9.194015499999977
 10
-0.8435129999999162
 20
9.058911999999963
 10
-0.9516390000000001
 20
8.913800499999979
 10
-1.048609499999884
 20
8.759166999999933
 10
-1.134010499999931
 20
8.595510999999987
 10
-1.207418999999958
 20
8.42332749999997
 10
-1.268420999999875
 20
8.243120499999918
 10
-1.316597999999885
 20
8.05537599999991
 10
-1.351522499999987
 20
7.860597999999868
 10
-1.372789499999953
 20
7.659276999999974
 10
-1.379966999999965
 20
7.451912499999991
 10
-1.372879499999953
 20
7.238396500000021
 10
-1.351855499999942
 20
7.032165999999961
 10
-1.317273
 20
6.833621499999935
 10
-1.269509999999968
 20
6.643158999999855
 10
-1.208939999999984
 20
6.46117449999997
 10
-1.135936499999957
 20
6.288063999999963
 10
-1.050873000000024
 20
6.124218999999925
 10
-0.9541274999999131
 20
5.970039999999926
 10
-0.8460734999999885
 20
5.825918499999943
 10
-0.7270800000000009
 20
5.692254999999931
 10
-0.5975339999999961
 20
5.569440999999983
 10
-0.4577954999999747
 20
5.457876999999882
 10
-0.308251499999983
 20
5.357954499999948
 10
-0.1492709999999988
 20
5.270069499999976
 10
0.0187680000000228
 20
5.194622499999979
 10
0.1954964999999902
 20
5.132004999999992
 10
0.3805320000001302
 20
5.082613000000037
 10
0.5735100000000557
 20
5.046842500000025
 10
0.7740435000000617
 20
5.025089499999921
 10
0.9817679999999882
 20
5.017749999999921
 10
1.188835500000095
 20
5.024382999999943
 10
1.387488000000075
 20
5.044128999999998
 10
1.577487000000019
 20
5.076744999999959
 10
1.758594000000016
 20
5.121987999999987
 10
1.930574999999976
 20
5.179619500000001
 10
2.093186999999943
 20
5.24940099999992
 10
2.246196000000054
 20
5.331089499999961
 10
2.389354500000081
 20
5.424450999999976
 10
2.522437500000023
 20
5.529242499999895
 10
2.645193000000062
 20
5.645216499999946
 10
2.757391500000039
 20
5.772147999999901
 10
2.858794500000044
 20
5.909780499999897
 10
2.949159000000122
 20
6.057888999999931
 10
3.028246500000022
 20
6.21622149999996
 10
3.095823000000109
 20
6.384543999999891
 10
3.151650000000017
 20
6.562613499999883
 10
3.195480000000088
 20
6.750191499999914
 10
3.227088000000094
 20
6.947039499999959
 10
3.246226500000034
 20
7.152918999999883
 10
3.252657000000112
 20
7.367582499999912
 10
3.252657000000112
 20
7.367582499999912
 10
3.252657000000112
 20
7.432458999999994
 10
1.189389000000005
 20
7.432458999999994
 10
1.189389000000005
 20
7.069110999999907
 10
2.79199200000005
 20
7.069110999999907
 10
2.778433500000005
 20
6.863879499999995
 10
2.743922999999995
 20
6.668619999999918
 10
2.689351500000043
 20
6.48416949999995
 10
2.61561000000006
 20
6.311369499999955
 10
2.523598500000048
 20
6.151047999999946
 10
2.414212500000076
 20
6.004055499999935
 10
2.288334000000077
 20
5.871215499999948
 10
2.146867500000098
 20
5.753378499999939
 10
1.99070400000005
 20
5.651367999999933
 10
1.820734500000071
 20
5.566030000000012
 10
1.637854500000003
 20
5.49819699999989
 10
1.442959500000142
 20
5.448710500000004
 10
1.236940500000059
 20
5.418402999999898
 10
1.020693000000051
 20
5.408115999999949
 10
0.8127885000001242
 20
5.418155499999897
 10
0.6129210000000285
 20
5.447679999999877
 10
0.4218375000000379
 20
5.495793999999932
 10
0.2402805000000399
 20
5.561606499999925
 10
0.0689835000000585
 20
5.644221999999899
 10
-0.0913064999998596
 20
5.742744999999956
 10
-0.2398514999999861
 20
5.856288999999947
 10
-0.3759045000000469
 20
5.983954000000039
 10
-0.4987274999999727
 20
6.124848999999926
 10
-0.6075824999999213
 20
6.27808299999998
 10
-0.7017224999999599
 20
6.442755999999917
 10
-0.7804095000000189
 20
6.617981499999928
 10
-0.8429009999998697
 20
6.802863999999885
 10
-0.8884544999999661
 20
6.996503500000017
 10
-0.9163320000000112
 20
7.19801799999999
 10
-0.9257864999999583
 20
7.406507499999861
 10
-0.9177224999998543
 20
7.619100999999943
 10
-0.8938544999999749
 20
7.823661999999899
 10
-0.854686499999957
 20
8.019560499999897
 10
-0.8007179999999607
 20
8.206170999999926
 10
-0.7324439999999868
 20
8.382867999999916
 10
-0.6503685000000133
 20
8.549030499999958
 10
-0.5549909999999727
 20
8.704024000000003
 10
-0.446806499999866
 20
8.847231999999962
 10
-0.3263190000000122
 20
8.978020000000014
 10
-0.194018999999912
 20
9.095766999999909
 10
-0.0504194999998617
 20
9.199842999999987
 10
0.1039935000001151
 20
9.289626999999995
 10
0.2687114999999949
 20
9.364488999999935
 10
0.443239500000118
 20
9.423803499999962
 10
0.6270825000000287
 20
9.466944999999896
 10
0.8197320000000445
 20
9.493292499999938
 10
1.020693000000051
 20
9.50221149999993
 10
1.245067500000004
 20
9.490952499999934
 10
1.45940250000001
 20
9.457319499999925
 10
1.663270500000066
 20
9.401523999999994
 10
1.85624400000006
 20
9.323777499999891
 10
2.037895500000104
 20
9.224300499999912
 10
2.207802000000015
 20
9.10329999999999
 10
2.365536000000133
 20
8.960996499999964
 10
2.510665500000072
 20
8.797596999999939
  0
LWPOLYLINE
  5
2B8
330
2B1
100
AcDbEntity
  8
02TNR-01
100
AcDbPolyline
 90
       12
 70
     1
 43
0.0135
 10
-1.117729499999995
 20
0.25
 10
1.260133500000165
 20
0.25
 10
1.443639000000075
 20
1.203113499999972
 10
0.3038295000001199
 20
1.203113499999972
 10
0.3747675000000754
 20
1.571582499999863
 10
1.381917000000157
 20
1.571582499999863
 10
1.555004999999937
 20
2.470641999999884
 10
0.5478555000000825
 20
2.470641999999884
 10
0.6131415000000971
 20
2.809649499999864
 10
1.723471500000073
 20
2.809649499999864
 10
1.906963500000074
 20
3.762744999999995
 10
-0.4414199999999937
 20
3.762744999999995
  0
LWPOLYLINE
  5
2B9
330
2B1
100
AcDbEntity
  8
02TNR-01
100
AcDbPolyline
 90
        4
 70
     1
 43
0.0135
 10
-18.58033499999988
 20
1.042440999999939
 10
-2.851485000000025
 20
1.042440999999939
 10
-3.007518000000004
 20
0.2490954999999531
 10
-18.73636349999992
 20
0.2490954999999531
  0
SOLID
  5
2BA
330
2B1
100
AcDbEntity
  8
02TNR-01
100
AcDbTrace
 10
-18.58033499999988
 20
1.042440999999939
 30
0.0
 11
-2.851485000000025
 21
1.042440999999939
 31
0.0
 12
-18.73636349999992
 22
0.2490954999999531
 32
0.0
 13
-3.007518000000004
 23
0.2490954999999531
 33
0.0
  0
LWPOLYLINE
  5
2BB
330
2B1
100
AcDbEntity
  8
02TNR-01
100
AcDbPolyline
 90
       10
 70
     1
 43
0.0135
 10
-11.77856699999995
 20
5.017749999999921
 10
-10.54581449999989
 20
8.898806499999977
 10
-9.261136499999906
 20
5.017749999999921
 10
-7.710440999999946
 20
9.781211499999926
 10
-8.145149999999944
 20
9.781211499999926
 10
-9.261136499999906
 20
6.108860499999877
 10
-10.54581449999989
 20
9.962876499999879
 10
-11.77856699999995
 20
6.076419999999984
 10
-12.93997200000001
 20
9.781211499999926
 10
-13.38116999999988
 20
9.781211499999926
  0
LWPOLYLINE
  5
2BC
330
2B1
100
AcDbEntity
  8
02TNR-01
100
AcDbPolyline
 90
        3
 70
     1
 43
0.0135
 10
-5.492489999999861
 20
7.075595499999963
 10
-4.668476999999938
 20
9.093458499999883
 10
-3.876899999999977
 20
7.075595499999963
  0
LWPOLYLINE
  5
2BD
330
2B1
100
AcDbEntity
  8
02TNR-01
100
AcDbPolyline
 90
        7
 70
     1
 43
0.0135
 10
-6.68091749999985
 20
5.142102999999906
 10
-6.251608499999974
 20
5.142102999999906
 10
-5.63523449999991
 20
6.712265499999944
 10
-3.740662499999871
 20
6.712265499999944
 10
-3.150221999999985
 20
5.142102999999906
 10
-2.689556999999922
 20
5.142102999999906
 10
-4.642520999999987
 20
9.962876499999879
  0
LWPOLYLINE
  5
2BE
330
2B1
100
AcDbEntity
  8
02TNR-01
100
AcDbPolyline
 90
        8
 70
     1
 43
0.0135
 10
9.602989500000035
 20
0.25
 10
10.95977550000009
 20
0.25
 10
11.15299200000004
 20
0.6921699999999192
 10
12.10610550000001
 20
0.6921699999999192
 10
12.13397400000008
 20
0.25
 10
13.48994549999998
 20
0.25
 10
12.93802049999999
 20
3.762744999999995
 10
11.53292250000004
 20
3.762744999999995
  0
LWPOLYLINE
  5
2BF
330
2B1
100
AcDbEntity
  8
02TNR-01
100
AcDbPolyline
 90
       34
 70
     1
 43
0.0135
 10
5.958610500000077
 20
2.028489999999919
 10
6.002832000000012
 20
2.028489999999919
 10
5.984831999999983
 20
1.808313999999995
 10
5.984296500000141
 20
1.616523999999913
 10
5.989471500000036
 20
1.448755000000005
 10
6.023982000000046
 20
0.25
 10
7.124483999999938
 20
0.25
 10
8.827589999999986
 20
3.762744999999995
 10
7.560061500000074
 20
3.762744999999995
 10
6.986964000000057
 20
2.215172499999937
 10
6.923703000000045
 20
2.037768999999912
 10
6.849245999999993
 20
1.807953999999881
 10
6.77498700000001
 20
1.522456000000033
 10
6.745525500000098
 20
1.522456000000033
 10
6.772957500000075
 20
1.771742499999959
 10
6.778713000000038
 20
1.970808999999917
 10
6.777399000000059
 20
2.121842499999956
 10
6.759236999999984
 20
3.762744999999995
 10
5.870010000000092
 20
3.762744999999995
 10
5.220007500000065
 20
2.121842499999956
 10
5.160535500000037
 20
1.970808999999917
 10
5.089633500000104
 20
1.771742499999959
 10
5.021067000000016
 20
1.522456000000033
 10
4.991605499999991
 20
1.522456000000033
 10
5.027281500000071
 20
1.807953999999881
 10
5.041321500000094
 20
2.037768999999912
 10
5.046366000000034
 20
2.215172499999937
 10
5.069185500000003
 20
3.762744999999995
 10
3.800842500000044
 20
3.762744999999995
 10
4.152144000000021
 20
0.25
 10
5.252641499999981
 20
0.25
 10
5.748739500000056
 20
1.448755000000005
 10
5.818530000000009
 20
1.616523999999913
 10
5.891844000000105
 20
1.808313999999995
  0
LWPOLYLINE
  5
2C0
330
2B1
100
AcDbEntity
  8
02TNR-01
100
AcDbPolyline
 90
       10
 70
     1
 43
0.0135
 10
11.52503850000005
 20
1.527360999999928
 10
11.7097500000001
 20
1.925309499999912
 10
11.80413300000009
 20
2.132930500000043
 10
11.9064585000001
 20
2.387495499999999
 10
12.00074700000004
 20
2.696654500000022
 10
12.02531700000008
 20
2.696654500000022
 10
12.00054
 20
2.387495499999999
 10
12.00484200000005
 20
2.132930500000043
 10
12.0192780000001
 20
1.925309499999912
 10
12.05072400000006
 20
1.527360999999928
  0
LWPOLYLINE
  5
2C1
330
2B1
100
AcDbEntity
  8
02TNR-01
100
AcDbPolyline
 90
       23
 70
     1
 43
0.0135
 10
15.4829145000001
 20
0.25
 10
16.72096350000004
 20
0.25
 10
16.9441905000001
 20
1.409456499999919
 10
17.33508749999998
 20
0.25
 10
18.75
 20
0.25
 10
18.08690700000011
 20
1.679672499999924
 10
18.28812000000016
 20
1.72852899999998
 10
18.47154450000005
 20
1.823235999999951
 10
18.63271650000001
 20
1.959707499999922
 10
18.76716300000009
 20
2.133843999999953
 10
18.87040650000006
 20
2.341550499999925
 10
18.93797400000005
 20
2.578731999999945
 10
18.96510450000016
 20
2.794542999999976
 10
18.9596775
 20
2.99051350000002
 10
18.92170650000003
 20
3.165968499999962
 10
18.85120500000005
 20
3.320228499999871
 10
18.74819550000006
 20
3.452618499999971
 10
18.61269600000003
 20
3.562454499999944
 10
18.44471550000003
 20
3.649065999999947
 10
18.244281
 20
3.711769000000003
 10
18.0113970000001
 20
3.74988849999994
 10
17.74609500000008
 20
3.762744999999995
 10
16.15922399999999
 20
3.762744999999995
  0
LWPOLYLINE
  5
2C2
330
2B1
100
AcDbEntity
  8
02TNR-01
100
AcDbPolyline
 90
        9
 70
     1
 43
0.0135
 10
17.22322650000001
 20
2.85877599999992
 10
17.41975500000012
 20
2.85877599999992
 10
17.61757050000005
 20
2.816376999999931
 10
17.71967549999999
 20
2.696460999999999
 10
17.72598450000009
 20
2.509958499999925
 10
17.64725700000008
 20
2.32599399999998
 10
17.4988065
 20
2.210816499999964
 10
17.28734250000002
 20
2.1709689999999
 10
17.09081400000002
 20
2.1709689999999
  0
LWPOLYLINE
  5
2C3
330
2B1
100
AcDbEntity
  8
02TNR-01
100
AcDbPolyline
 90
       12
 70
     1
 43
0.0135
 10
11.24410800000009
 20
5.142102999999906
 10
13.54094850000001
 20
5.142102999999906
 10
13.54094850000001
 20
5.537891499999943
 10
11.66584800000009
 20
5.537891499999943
 10
11.66584800000009
 20
7.536260500000025
 10
13.54094850000001
 20
7.536260500000025
 10
13.54094850000001
 20
7.932049000000006
 10
11.66584800000009
 20
7.932049000000006
 10
11.66584800000009
 20
9.385422999999946
 10
13.54094850000001
 20
9.385422999999946
 10
13.54094850000001
 20
9.781211499999926
 10
11.24410800000009
 20
9.781211499999926
  0
LWPOLYLINE
  5
2C4
330
2B1
100
AcDbEntity
  8
02TNR-01
100
AcDbPolyline
 90
        8
 70
     1
 43
0.0135
 10
5.275956000000064
 20
5.142102999999906
 10
5.697700499999996
 20
5.142102999999906
 10
5.697700499999996
 20
8.892321999999921
 10
8.954796000000101
 20
5.004762999999968
 10
8.954796000000101
 20
9.781211499999926
 10
8.53306950000001
 20
9.781211499999926
 10
8.53306950000001
 20
6.095873499999925
 10
5.275956000000064
 20
9.975845499999877
  0
LWPOLYLINE
  5
2C5
330
2B1
100
AcDbEntity
  8
02TNR-01
100
AcDbPolyline
 90
       19
 70
     1
 43
0.0135
 10
16.12873200000001
 20
9.411378999999897
 10
16.55045849999999
 20
9.411378999999897
 10
16.80826800000011
 20
9.400875999999925
 10
17.02775099999996
 20
9.367481499999939
 10
17.21013600000015
 20
9.308387499999867
 10
17.35662900000011
 20
9.22078149999993
 10
17.46844950000002
 20
9.101850999999896
 10
17.5468125000001
 20
8.94878349999999
 10
17.59294199999999
 20
8.758757499999887
 10
17.60804850000011
 20
8.528973999999948
 10
17.59214550000013
 20
8.303276499999924
 10
17.54407650000007
 20
8.120009499999923
 10
17.46331950000012
 20
7.975366000000008
 10
17.34933000000001
 20
7.865547999999989
 10
17.20158600000002
 20
7.786752999999976
 10
17.01954750000004
 20
7.735173999999915
 10
16.80267900000001
 20
7.707017500000006
 10
16.55045849999999
 20
7.698476499999969
 10
16.12873200000001
 20
7.698476499999969
  0
LWPOLYLINE
  5
2C6
330
2B1
100
AcDbEntity
  8
02TNR-01
100
AcDbPolyline
 90
       29
 70
     1
 43
0.0135
 10
18.52289400000006
 20
5.142102999999906
 10
16.85541450000005
 20
7.354595499999959
 10
17.09331600000007
 20
7.370502999999985
 10
17.30862750000006
 20
7.417433499999901
 10
17.49991350000005
 20
7.494212500000003
 10
17.66572500000006
 20
7.599674499999991
 10
17.80462199999999
 20
7.732631499999911
 10
17.91516000000001
 20
7.891922499999964
 10
17.99590350000005
 20
8.076364000000012
 10
18.04540800000006
 20
8.284781500000008
 10
18.062229
 20
8.51600499999995
 10
18.04983600000014
 20
8.737044999999966
 10
18.01264350000008
 20
8.936619999999891
 10
17.95061550000002
 20
9.114815499999963
 10
17.86372950000009
 20
9.271716999999853
 10
17.75195399999995
 20
9.407414499999958
 10
17.6152575000001
 20
9.521997999999939
 10
17.45361300000002
 20
9.615548499999931
 10
17.26698900000008
 20
9.688155999999935
 10
17.05535850000001
 20
9.739914999999996
 10
16.81869449999999
 20
9.770901999999978
 10
16.55696100000011
 20
9.781211499999926
 10
16.55696100000011
 20
9.781211499999926
 10
15.70699200000001
 20
9.781211499999926
 10
15.70699200000001
 20
5.142102999999906
 10
16.12873200000001
 20
5.142102999999906
 10
16.12873200000001
 20
7.354595499999959
 10
16.3817805000001
 20
7.354595499999959
 10
18.0103170000001
 20
5.142102999999906
  0
LWPOLYLINE
  5
2C7
330
2B1
100
AcDbEntity
  8
02TNR-01
  6
VERDECKT
100
AcDbPolyline
 90
        4
 70
     1
 43
0.0
 10
-19.0
 20
0.0
 10
19.0
 20
0.0
 10
19.0
 20
10.0
 10
-19.0
 20
10.0
  0
ENDBLK
  5
2C8
330
2B1
100
AcDbEntity
  8
0
100
AcDbBlockEnd
  0
BLOCK
  5
407
330
406
100
AcDbEntity
  8
0
100
AcDbBlockBegin
  2
*D3
 70
     1
 10
0.0
 20
0.0
 30
0.0
  3
*D3
  1

  0
LINE
  5
408
330
406
100
AcDbEntity
  8
09-01
 62
     4
370
    -2
100
AcDbLine
 10
773.3862095254056
 20
1281.626716746828
 30
0.0
 11
773.3862095254056
 21
1345.060481196195
 31
0.0
  0
LINE
  5
409
330
406
100
AcDbEntity
  8
09-01
 62
     4
370
    -2
100
AcDbLine
 10
893.3862095254056
 20
1280.626716746828
 30
0.0
 11
893.3862095254056
 21
1345.060481196195
 31
0.0
  0
LINE
  5
40A
330
406
100
AcDbEntity
  8
09-01
 62
     4
370
    -2
100
AcDbLine
 10
785.8862095254056
 20
1340.060481196195
 30
0.0
 11
880.8862095254056
 21
1340.060481196195
 31
0.0
  0
SOLID
  5
40B
330
406
100
AcDbEntity
  8
09-01
 62
     4
100
AcDbTrace
 10
785.8862095254056
 20
1342.143814529528
 30
0.0
 11
785.8862095254056
 21
1337.977147862862
 31
0.0
 12
773.3862095254056
 22
1340.060481196195
 32
0.0
 13
773.3862095254056
 23
1340.060481196195
 33
0.0
  0
SOLID
  5
40C
330
406
100
AcDbEntity
  8
09-01
 62
     4
100
AcDbTrace
 10
880.8862095254056
 20
1342.143814529528
 30
0.0
 11
880.8862095254056
 21
1337.977147862862
 31
0.0
 12
893.3862095254056
 22
1340.060481196195
 32
0.0
 13
893.3862095254056
 23
1340.060481196195
 33
0.0
  0
MTEXT
  5
40D
330
406
100
AcDbEntity
  8
09-01
 62
     1
100
AcDbMText
 10
833.3862095254056
 20
1351.310481196195
 30
0.0
 40
12.5
 41
0.0
 46
0.0
 71
     5
 72
     1
  1
120
 73
     1
 44
1.0
  0
POINT
  5
40E
330
406
100
AcDbEntity
  8
DEFPOINTS
 62
     0
100
AcDbPoint
 10
773.3862095254056
 20
1276.626716746828
 30
0.0
  0
POINT
  5
40F
330
406
100
AcDbEntity
  8
DEFPOINTS
 62
     0
100
AcDbPoint
 10
893.3862095254056
 20
1275.626716746828
 30
0.0
  0
POINT
  5
410
330
406
100
AcDbEntity
  8
DEFPOINTS
 62
     0
100
AcDbPoint
 10
893.3862095254056
 20
1340.060481196195
 30
0.0
  0
ENDBLK
  5
411
330
406
100
AcDbEntity
  8
0
100
AcDbBlockEnd
  0
BLOCK
  5
3FA
330
3F9
100
AcDbEntity
  8
0
100
AcDbBlockBegin
  2
*D4
 70
     1
 10
0.0
 20
0.0
 30
0.0
  3
*D4
  1

  0
LINE
  5
3FB
330
3F9
100
AcDbEntity
  8
09-01
 62
     4
370
    -2
100
AcDbLine
 10
773.3862095254056
 20
1281.626716746828
 30
0.0
 11
773.3862095254056
 21
1317.617894308533
 31
0.0
  0
LINE
  5
3FC
330
3F9
100
AcDbEntity
  8
09-01
 62
     4
370
    -2
100
AcDbLine
 10
883.3862095254058
 20
1281.626716746828
 30
0.0
 11
883.3862095254058
 21
1317.617894308533
 31
0.0
  0
LINE
  5
3FD
330
3F9
100
AcDbEntity
  8
09-01
 62
     4
370
    -2
100
AcDbLine
 10
785.8862095254056
 20
1312.617894308533
 30
0.0
 11
870.8862095254058
 21
1312.617894308533
 31
0.0
  0
SOLID
  5
3FE
330
3F9
100
AcDbEntity
  8
09-01
 62
     4
100
AcDbTrace
 10
785.8862095254056
 20
1314.701227641866
 30
0.0
 11
785.8862095254056
 21
1310.5345609752
 31
0.0
 12
773.3862095254056
 22
1312.617894308533
 32
0.0
 13
773.3862095254056
 23
1312.617894308533
 33
0.0
  0
SOLID
  5
3FF
330
3F9
100
AcDbEntity
  8
09-01
 62
     4
100
AcDbTrace
 10
870.8862095254058
 20
1314.701227641866
 30
0.0
 11
870.8862095254058
 21
1310.5345609752
 31
0.0
 12
883.3862095254058
 22
1312.617894308533
 32
0.0
 13
883.3862095254058
 23
1312.617894308533
 33
0.0
  0
MTEXT
  5
400
330
3F9
100
AcDbEntity
  8
09-01
 62
     1
100
AcDbMText
 10
828.3862095254058
 20
1323.867894308533
 30
0.0
 40
12.5
 41
0.0
 46
0.0
 71
     5
 72
     1
  1
110
 73
     1
 44
1.0
  0
POINT
  5
401
330
3F9
100
AcDbEntity
  8
DEFPOINTS
 62
     0
100
AcDbPoint
 10
773.3862095254056
 20
1276.626716746828
 30
0.0
  0
POINT
  5
402
330
3F9
100
AcDbEntity
  8
DEFPOINTS
 62
     0
100
AcDbPoint
 10
883.3862095254058
 20
1276.626716746828
 30
0.0
  0
POINT
  5
403
330
3F9
100
AcDbEntity
  8
DEFPOINTS
 62
     0
100
AcDbPoint
 10
883.3862095254058
 20
1312.617894308533
 30
0.0
  0
ENDBLK
  5
404
330
3F9
100
AcDbEntity
  8
0
100
AcDbBlockEnd
  0
BLOCK
  5
3EB
330
3EA
100
AcDbEntity
  8
0
100
AcDbBlockBegin
  2
*D5
 70
     1
 10
0.0
 20
0.0
 30
0.0
  3
*D5
  1

  0
LINE
  5
3EC
330
3EA
100
AcDbEntity
  8
09-01
 62
     4
370
    -2
100
AcDbLine
 10
883.3862095254058
 20
1281.626716746828
 30
0.0
 11
883.3862095254058
 21
1317.617894308533
 31
0.0
  0
LINE
  5
3ED
330
3EA
100
AcDbEntity
  8
09-01
 62
     4
370
    -2
100
AcDbLine
 10
893.3862095254056
 20
1280.626716746828
 30
0.0
 11
893.3862095254056
 21
1317.617894308533
 31
0.0
  0
LINE
  5
3EE
330
3EA
100
AcDbEntity
  8
09-01
 62
     4
370
    -2
100
AcDbLine
 10
870.8862095254058
 20
1312.617894308533
 30
0.0
 11
858.3862095254058
 21
1312.617894308533
 31
0.0
  0
LINE
  5
3EF
330
3EA
100
AcDbEntity
  8
09-01
 62
     4
370
    -2
100
AcDbLine
 10
905.8862095254056
 20
1312.617894308533
 30
0.0
 11
918.3862095254056
 21
1312.617894308533
 31
0.0
  0
MTEXT
  5
3F0
330
3EA
100
AcDbEntity
  8
09-01
 62
     1
100
AcDbMText
 10
917.3798052351076
 20
1323.502329853051
 30
0.0
 40
12.5
 41
0.0
 46
0.0
 71
     5
 72
     1
  1
10
 73
     1
 44
1.0
  0
LINE
  5
3F1
330
3EA
100
AcDbEntity
  8
09-01
 62
     4
370
    -2
100
AcDbLine
 10
883.3862095254058
 20
1312.617894308533
 30
0.0
 11
893.3862095254056
 21
1312.617894308533
 31
0.0
  0
SOLID
  5
3F2
330
3EA
100
AcDbEntity
  8
09-01
 62
     4
100
AcDbTrace
 10
870.8862095254058
 20
1314.701227641866
 30
0.0
 11
870.8862095254058
 21
1310.5345609752
 31
0.0
 12
883.3862095254058
 22
1312.617894308533
 32
0.0
 13
883.3862095254058
 23
1312.617894308533
 33
0.0
  0
SOLID
  5
3F3
330
3EA
100
AcDbEntity
  8
09-01
 62
     4
100
AcDbTrace
 10
905.8862095254056
 20
1314.701227641866
 30
0.0
 11
905.8862095254056
 21
1310.5345609752
 31
0.0
 12
893.3862095254056
 22
1312.617894308533
 32
0.0
 13
893.3862095254056
 23
1312.617894308533
 33
0.0
  0
POINT
  5
3F4
330
3EA
100
AcDbEntity
  8
DEFPOINTS
 62
     0
100
AcDbPoint
 10
883.3862095254058
 20
1276.626716746828
 30
0.0
  0
POINT
  5
3F5
330
3EA
100
AcDbEntity
  8
DEFPOINTS
 62
     0
100
AcDbPoint
 10
893.3862095254056
 20
1275.626716746828
 30
0.0
  0
POINT
  5
3F6
330
3EA
100
AcDbEntity
  8
DEFPOINTS
 62
     0
100
AcDbPoint
 10
893.3862095254056
 20
1312.617894308533
 30
0.0
  0
ENDBLK
  5
3F7
330
3EA
100
AcDbEntity
  8
0
100
AcDbBlockEnd
  0
BLOCK
  5
3DE
330
3DD
100
AcDbEntity
  8
0
100
AcDbBlockBegin
  2
*D6
 70
     1
 10
0.0
 20
0.0
 30
0.0
  3
*D6
  1

  0
LINE
  5
3DF
330
3DD
100
AcDbEntity
  8
09-01
 62
     4
370
    -2
100
AcDbLine
 10
898.3862095254057
 20
679.6267167468286
 30
0.0
 11
928.8487608429637
 21
679.6267167468286
 31
0.0
  0
LINE
  5
3E0
330
3DD
100
AcDbEntity
  8
09-01
 62
     4
370
    -2
100
AcDbLine
 10
898.3862095254057
 20
1275.626716746828
 30
0.0
 11
928.8487608429637
 21
1275.626716746828
 31
0.0
  0
LINE
  5
3E1
330
3DD
100
AcDbEntity
  8
09-01
 62
     4
370
    -2
100
AcDbLine
 10
923.8487608429636
 20
692.1267167468286
 30
0.0
 11
923.8487608429638
 21
1263.126716746828
 31
0.0
  0
SOLID
  5
3E2
330
3DD
100
AcDbEntity
  8
09-01
 62
     4
100
AcDbTrace
 10
921.7654275096302
 20
692.1267167468286
 30
0.0
 11
925.932094176297
 21
692.1267167468286
 31
0.0
 12
923.8487608429636
 22
679.6267167468286
 32
0.0
 13
923.8487608429636
 23
679.6267167468286
 33
0.0
  0
SOLID
  5
3E3
330
3DD
100
AcDbEntity
  8
09-01
 62
     4
100
AcDbTrace
 10
921.7654275096304
 20
1263.126716746828
 30
0.0
 11
925.9320941762972
 21
1263.126716746828
 31
0.0
 12
923.8487608429638
 22
1275.626716746828
 32
0.0
 13
923.8487608429638
 23
1275.626716746828
 33
0.0
  0
MTEXT
  5
3E4
330
3DD
100
AcDbEntity
  8
09-01
 62
     1
100
AcDbMText
 10
912.5987608429637
 20
977.6267167468287
 30
0.0
 40
12.5
 41
0.0
 46
0.0
 71
     5
 72
     1
  1
596
 11
0.0000000000000001
 21
1.0
 31
0.0
 73
     1
 44
1.0
  0
POINT
  5
3E5
330
3DD
100
AcDbEntity
  8
DEFPOINTS
 62
     0
100
AcDbPoint
 10
893.3862095254058
 20
679.6267167468286
 30
0.0
  0
POINT
  5
3E6
330
3DD
100
AcDbEntity
  8
DEFPOINTS
 62
     0
100
AcDbPoint
 10
893.3862095254056
 20
1275.626716746828
 30
0.0
  0
POINT
  5
3E7
330
3DD
100
AcDbEntity
  8
DEFPOINTS
 62
     0
100
AcDbPoint
 10
923.8487608429638
 20
1275.626716746828
 30
0.0
  0
ENDBLK
  5
3E8
330
3DD
100
AcDbEntity
  8
0
100
AcDbBlockEnd
  0
BLOCK
  5
3CF
330
3CE
100
AcDbEntity
  8
0
100
AcDbBlockBegin
  2
*D7
 70
     1
 10
0.0
 20
0.0
 30
0.0
  3
*D7
  1

  0
LINE
  5
3D0
330
3CE
100
AcDbEntity
  8
09-01
 62
     4
370
    -2
100
AcDbLine
 10
888.3862095254057
 20
678.6267167468285
 30
0.0
 11
928.8487608429637
 21
678.6267167468285
 31
0.0
  0
LINE
  5
3D1
330
3CE
100
AcDbEntity
  8
09-01
 62
     4
370
    -2
100
AcDbLine
 10
898.3862095254057
 20
679.6267167468286
 30
0.0
 11
928.8487608429637
 21
679.6267167468286
 31
0.0
  0
LINE
  5
3D2
330
3CE
100
AcDbEntity
  8
09-01
 62
     4
370
    -2
100
AcDbLine
 10
923.8487608429638
 20
666.1267167468285
 30
0.0
 11
923.8487608429638
 21
653.6267167468285
 31
0.0
  0
LINE
  5
3D3
330
3CE
100
AcDbEntity
  8
09-01
 62
     4
370
    -2
100
AcDbLine
 10
923.8487608429638
 20
692.1267167468286
 30
0.0
 11
923.8487608429638
 21
704.6267167468286
 31
0.0
  0
MTEXT
  5
3D4
330
3CE
100
AcDbEntity
  8
09-01
 62
     1
100
AcDbMText
 10
906.3487608429637
 20
662.3613509851574
 30
0.0
 40
12.5
 41
0.0
 46
0.0
 71
     5
 72
     1
  1
1
 11
0.0000000000000001
 21
1.0
 31
0.0
 73
     1
 44
1.0
  0
LINE
  5
3D5
330
3CE
100
AcDbEntity
  8
09-01
 62
     4
370
    -2
100
AcDbLine
 10
923.8487608429638
 20
678.6267167468285
 30
0.0
 11
923.8487608429638
 21
679.6267167468286
 31
0.0
  0
SOLID
  5
3D6
330
3CE
100
AcDbEntity
  8
09-01
 62
     4
100
AcDbTrace
 10
921.7654275096304
 20
666.1267167468285
 30
0.0
 11
925.9320941762972
 21
666.1267167468285
 31
0.0
 12
923.8487608429638
 22
678.6267167468285
 32
0.0
 13
923.8487608429638
 23
678.6267167468285
 33
0.0
  0
SOLID
  5
3D7
330
3CE
100
AcDbEntity
  8
09-01
 62
     4
100
AcDbTrace
 10
921.7654275096304
 20
692.1267167468286
 30
0.0
 11
925.9320941762972
 21
692.1267167468286
 31
0.0
 12
923.8487608429638
 22
679.6267167468286
 32
0.0
 13
923.8487608429638
 23
679.6267167468286
 33
0.0
  0
POINT
  5
3D8
330
3CE
100
AcDbEntity
  8
DEFPOINTS
 62
     0
100
AcDbPoint
 10
883.3862095254058
 20
678.6267167468285
 30
0.0
  0
POINT
  5
3D9
330
3CE
100
AcDbEntity
  8
DEFPOINTS
 62
     0
100
AcDbPoint
 10
893.3862095254058
 20
679.6267167468286
 30
0.0
  0
POINT
  5
3DA
330
3CE
100
AcDbEntity
  8
DEFPOINTS
 62
     0
100
AcDbPoint
 10
923.8487608429638
 20
679.6267167468286
 30
0.0
  0
ENDBLK
  5
3DB
330
3CE
100
AcDbEntity
  8
0
100
AcDbBlockEnd
  0
BLOCK
  5
3C2
330
3C1
100
AcDbEntity
  8
0
100
AcDbBlockBegin
  2
*D8
 70
     1
 10
0.0
 20
0.0
 30
0.0
  3
*D8
  1

  0
LINE
  5
3C3
330
3C1
100
AcDbEntity
  8
09-01
 62
     4
370
    -2
100
AcDbLine
 10
269.2543162500185
 20
371.3293389685375
 30
0.0
 11
269.2543162500185
 21
343.1045618819205
 31
0.0
  0
LINE
  5
3C4
330
3C1
100
AcDbEntity
  8
09-01
 62
     4
370
    -2
100
AcDbLine
 10
565.2543162500185
 20
371.3293389685377
 30
0.0
 11
565.2543162500185
 21
343.1045618819205
 31
0.0
  0
LINE
  5
3C5
330
3C1
100
AcDbEntity
  8
09-01
 62
     4
370
    -2
100
AcDbLine
 10
281.7543162500185
 20
348.1045618819205
 30
0.0
 11
552.7543162500185
 21
348.1045618819205
 31
0.0
  0
SOLID
  5
3C6
330
3C1
100
AcDbEntity
  8
09-01
 62
     4
100
AcDbTrace
 10
281.7543162500185
 20
350.1878952152538
 30
0.0
 11
281.7543162500185
 21
346.0212285485872
 31
0.0
 12
269.2543162500185
 22
348.1045618819205
 32
0.0
 13
269.2543162500185
 23
348.1045618819205
 33
0.0
  0
SOLID
  5
3C7
330
3C1
100
AcDbEntity
  8
09-01
 62
     4
100
AcDbTrace
 10
552.7543162500185
 20
350.1878952152538
 30
0.0
 11
552.7543162500185
 21
346.0212285485872
 31
0.0
 12
565.2543162500185
 22
348.1045618819205
 32
0.0
 13
565.2543162500185
 23
348.1045618819205
 33
0.0
  0
MTEXT
  5
3C8
330
3C1
100
AcDbEntity
  8
09-01
 62
     1
100
AcDbMText
 10
417.2543162500184
 20
359.3545618819205
 30
0.0
 40
12.5
 41
0.0
 46
0.0
 71
     5
 72
     1
  1
296
 73
     1
 44
1.0
  0
POINT
  5
3C9
330
3C1
100
AcDbEntity
  8
DEFPOINTS
 62
     0
100
AcDbPoint
 10
269.2543162500185
 20
376.3293389685375
 30
0.0
  0
POINT
  5
3CA
330
3C1
100
AcDbEntity
  8
DEFPOINTS
 62
     0
100
AcDbPoint
 10
565.2543162500185
 20
376.3293389685377
 30
0.0
  0
POINT
  5
3CB
330
3C1
100
AcDbEntity
  8
DEFPOINTS
 62
     0
100
AcDbPoint
 10
565.2543162500185
 20
348.1045618819205
 30
0.0
  0
ENDBLK
  5
3CC
330
3C1
100
AcDbEntity
  8
0
100
AcDbBlockEnd
  0
BLOCK
  5
3B0
330
3AF
100
AcDbEntity
  8
0
100
AcDbBlockBegin
  2
*D9
 70
     1
 10
0.0
 20
0.0
 30
0.0
  3
*D9
  1

  0
LINE
  5
3B1
330
3AF
100
AcDbEntity
  8
09-01
 62
     4
370
    -2
100
AcDbLine
 10
290.2543162500185
 20
1259.626716746828
 30
0.0
 11
290.2543162500185
 21
1313.378190017554
 31
0.0
  0
LINE
  5
3B2
330
3AF
100
AcDbEntity
  8
09-01
 62
     4
370
    -2
100
AcDbLine
 10
544.2543162500185
 20
1259.626716746828
 30
0.0
 11
544.2543162500185
 21
1313.378190017554
 31
0.0
  0
LINE
  5
3B3
330
3AF
100
AcDbEntity
  8
09-01
 62
     4
370
    -2
100
AcDbLine
 10
302.7543162500185
 20
1308.378190017554
 30
0.0
 11
531.7543162500185
 21
1308.378190017554
 31
0.0
  0
SOLID
  5
3B4
330
3AF
100
AcDbEntity
  8
09-01
 62
     4
100
AcDbTrace
 10
302.7543162500185
 20
1310.461523350887
 30
0.0
 11
302.7543162500185
 21
1306.294856684221
 31
0.0
 12
290.2543162500185
 22
1308.378190017554
 32
0.0
 13
290.2543162500185
 23
1308.378190017554
 33
0.0
  0
SOLID
  5
3B5
330
3AF
100
AcDbEntity
  8
09-01
 62
     4
100
AcDbTrace
 10
531.7543162500185
 20
1310.461523350887
 30
0.0
 11
531.7543162500185
 21
1306.294856684221
 31
0.0
 12
544.2543162500185
 22
1308.378190017554
 32
0.0
 13
544.2543162500185
 23
1308.378190017554
 33
0.0
  0
MTEXT
  5
3B6
330
3AF
100
AcDbEntity
  8
09-01
 62
     1
100
AcDbMText
 10
417.2543162500184
 20
1319.628190017554
 30
0.0
 40
12.5
 41
0.0
 46
0.0
 71
     5
 72
     1
  1
254
 73
     1
 44
1.0
  0
POINT
  5
3B7
330
3AF
100
AcDbEntity
  8
DEFPOINTS
 62
     0
100
AcDbPoint
 10
290.2543162500185
 20
1254.626716746828
 30
0.0
  0
POINT
  5
3B8
330
3AF
100
AcDbEntity
  8
DEFPOINTS
 62
     0
100
AcDbPoint
 10
544.2543162500185
 20
1254.626716746828
 30
0.0
  0
POINT
  5
3B9
330
3AF
100
AcDbEntity
  8
DEFPOINTS
 62
     0
100
AcDbPoint
 10
544.2543162500185
 20
1308.378190017554
 30
0.0
  0
ENDBLK
  5
3BA
330
3AF
100
AcDbEntity
  8
0
100
AcDbBlockEnd
  0
BLOCK
  5
3A3
330
3A2
100
AcDbEntity
  8
0
100
AcDbBlockBegin
  2
*D10
 70
     1
 10
0.0
 20
0.0
 30
0.0
  3
*D10
  1

  0
LINE
  5
3A4
330
3A2
100
AcDbEntity
  8
09-01
 62
     4
370
    -2
100
AcDbLine
 10
571.2543162500185
 20
1276.626716746828
 30
0.0
 11
630.7277780307962
 21
1276.626716746828
 31
0.0
  0
LINE
  5
3A5
330
3A2
100
AcDbEntity
  8
09-01
 62
     4
370
    -2
100
AcDbLine
 10
571.2543162500185
 20
678.6267167468285
 30
0.0
 11
630.7277780307961
 21
678.6267167468285
 31
0.0
  0
LINE
  5
3A6
330
3A2
100
AcDbEntity
  8
09-01
 62
     4
370
    -2
100
AcDbLine
 10
625.7277780307962
 20
1264.126716746828
 30
0.0
 11
625.7277780307961
 21
691.1267167468285
 31
0.0
  0
SOLID
  5
3A7
330
3A2
100
AcDbEntity
  8
09-01
 62
     4
100
AcDbTrace
 10
623.6444446974628
 20
1264.126716746828
 30
0.0
 11
627.8111113641296
 21
1264.126716746828
 31
0.0
 12
625.7277780307962
 22
1276.626716746828
 32
0.0
 13
625.7277780307962
 23
1276.626716746828
 33
0.0
  0
SOLID
  5
3A8
330
3A2
100
AcDbEntity
  8
09-01
 62
     4
100
AcDbTrace
 10
623.6444446974627
 20
691.1267167468285
 30
0.0
 11
627.8111113641294
 21
691.1267167468285
 31
0.0
 12
625.7277780307961
 22
678.6267167468285
 32
0.0
 13
625.7277780307961
 23
678.6267167468285
 33
0.0
  0
MTEXT
  5
3A9
330
3A2
100
AcDbEntity
  8
09-01
 62
     1
100
AcDbMText
 10
614.4777780307961
 20
977.6267167468288
 30
0.0
 40
12.5
 41
0.0
 46
0.0
 71
     5
 72
     1
  1
598
 11
0.0000000000000001
 21
1.0
 31
0.0
 73
     1
 44
1.0
  0
POINT
  5
3AA
330
3A2
100
AcDbEntity
  8
DEFPOINTS
 62
     0
100
AcDbPoint
 10
566.2543162500185
 20
1276.626716746828
 30
0.0
  0
POINT
  5
3AB
330
3A2
100
AcDbEntity
  8
DEFPOINTS
 62
     0
100
AcDbPoint
 10
566.2543162500185
 20
678.6267167468285
 30
0.0
  0
POINT
  5
3AC
330
3A2
100
AcDbEntity
  8
DEFPOINTS
 62
     0
100
AcDbPoint
 10
625.7277780307961
 20
678.6267167468285
 30
0.0
  0
ENDBLK
  5
3AD
330
3A2
100
AcDbEntity
  8
0
100
AcDbBlockEnd
  0
BLOCK
  5
30E
330
30D
100
AcDbEntity
  8
0
100
AcDbBlockBegin
  2
*D11
 70
     1
 10
0.0
 20
0.0
 30
0.0
  3
*D11
  1

  0
LINE
  5
30F
330
30D
100
AcDbEntity
  8
09-01
 62
     4
370
    -2
100
AcDbLine
 10
268.2543162500185
 20
1281.626716746828
 30
0.0
 11
268.2543162500185
 21
1340.052601128258
 31
0.0
  0
LINE
  5
310
330
30D
100
AcDbEntity
  8
09-01
 62
     4
370
    -2
100
AcDbLine
 10
566.2543162500185
 20
1281.626716746828
 30
0.0
 11
566.2543162500185
 21
1340.052601128258
 31
0.0
  0
LINE
  5
311
330
30D
100
AcDbEntity
  8
09-01
 62
     4
370
    -2
100
AcDbLine
 10
280.7543162500185
 20
1335.052601128258
 30
0.0
 11
553.7543162500185
 21
1335.052601128258
 31
0.0
  0
SOLID
  5
312
330
30D
100
AcDbEntity
  8
09-01
 62
     4
100
AcDbTrace
 10
280.7543162500185
 20
1337.135934461591
 30
0.0
 11
280.7543162500185
 21
1332.969267794925
 31
0.0
 12
268.2543162500185
 22
1335.052601128258
 32
0.0
 13
268.2543162500185
 23
1335.052601128258
 33
0.0
  0
SOLID
  5
313
330
30D
100
AcDbEntity
  8
09-01
 62
     4
100
AcDbTrace
 10
553.7543162500185
 20
1337.135934461591
 30
0.0
 11
553.7543162500185
 21
1332.969267794925
 31
0.0
 12
566.2543162500185
 22
1335.052601128258
 32
0.0
 13
566.2543162500185
 23
1335.052601128258
 33
0.0
  0
MTEXT
  5
314
330
30D
100
AcDbEntity
  8
09-01
 62
     1
100
AcDbMText
 10
417.2543162500184
 20
1346.302601128258
 30
0.0
 40
12.5
 41
0.0
 46
0.0
 71
     5
 72
     1
  1
298
 73
     1
 44
1.0
  0
POINT
  5
315
330
30D
100
AcDbEntity
  8
DEFPOINTS
 62
     0
100
AcDbPoint
 10
268.2543162500185
 20
1276.626716746828
 30
0.0
  0
POINT
  5
316
330
30D
100
AcDbEntity
  8
DEFPOINTS
 62
     0
100
AcDbPoint
 10
566.2543162500185
 20
1276.626716746828
 30
0.0
  0
POINT
  5
317
330
30D
100
AcDbEntity
  8
DEFPOINTS
 62
     0
100
AcDbPoint
 10
566.2543162500185
 20
1335.052601128258
 30
0.0
  0
ENDBLK
  5
318
330
30D
100
AcDbEntity
  8
0
100
AcDbBlockEnd
  0
BLOCK
  5
2FF
330
2FE
100
AcDbEntity
  8
0
100
AcDbBlockBegin
  2
*D12
 70
     1
 10
0.0
 20
0.0
 30
0.0
  3
*D12
  1

  0
LINE
  5
300
330
2FE
100
AcDbEntity
  8
09-01
 62
     4
370
    -2
100
AcDbLine
 10
268.2543162500185
 20
1281.626716746828
 30
0.0
 11
268.2543162500185
 21
1313.378190017554
 31
0.0
  0
LINE
  5
301
330
2FE
100
AcDbEntity
  8
09-01
 62
     4
370
    -2
100
AcDbLine
 10
290.2543162500185
 20
1281.626716746828
 30
0.0
 11
290.2543162500185
 21
1313.378190017554
 31
0.0
  0
LINE
  5
302
330
2FE
100
AcDbEntity
  8
09-01
 62
     4
370
    -2
100
AcDbLine
 10
255.7543162500185
 20
1308.378190017554
 30
0.0
 11
243.2543162500185
 21
1308.378190017554
 31
0.0
  0
LINE
  5
303
330
2FE
100
AcDbEntity
  8
09-01
 62
     4
370
    -2
100
AcDbLine
 10
302.7543162500185
 20
1308.378190017554
 30
0.0
 11
315.2543162500185
 21
1308.378190017554
 31
0.0
  0
LINE
  5
304
330
2FE
100
AcDbEntity
  8
09-01
 62
     4
370
    -2
100
AcDbLine
 10
268.2543162500185
 20
1308.378190017554
 30
0.0
 11
290.2543162500185
 21
1308.378190017554
 31
0.0
  0
SOLID
  5
305
330
2FE
100
AcDbEntity
  8
09-01
 62
     4
100
AcDbTrace
 10
255.7543162500185
 20
1310.461523350887
 30
0.0
 11
255.7543162500185
 21
1306.294856684221
 31
0.0
 12
268.2543162500185
 22
1308.378190017554
 32
0.0
 13
268.2543162500185
 23
1308.378190017554
 33
0.0
  0
SOLID
  5
306
330
2FE
100
AcDbEntity
  8
09-01
 62
     4
100
AcDbTrace
 10
302.7543162500185
 20
1310.461523350887
 30
0.0
 11
302.7543162500185
 21
1306.294856684221
 31
0.0
 12
290.2543162500185
 22
1308.378190017554
 32
0.0
 13
290.2543162500185
 23
1308.378190017554
 33
0.0
  0
MTEXT
  5
307
330
2FE
100
AcDbEntity
  8
09-01
 62
     1
100
AcDbMText
 10
279.2543162500185
 20
1319.628190017554
 30
0.0
 40
12.5
 41
0.0
 46
0.0
 71
     5
 72
     1
  1
22
 73
     1
 44
1.0
  0
POINT
  5
308
330
2FE
100
AcDbEntity
  8
DEFPOINTS
 62
     0
100
AcDbPoint
 10
268.2543162500185
 20
1276.626716746828
 30
0.0
  0
POINT
  5
309
330
2FE
100
AcDbEntity
  8
DEFPOINTS
 62
     0
100
AcDbPoint
 10
290.2543162500185
 20
1276.626716746828
 30
0.0
  0
POINT
  5
30A
330
2FE
100
AcDbEntity
  8
DEFPOINTS
 62
     0
100
AcDbPoint
 10
290.2543162500185
 20
1308.378190017554
 30
0.0
  0
ENDBLK
  5
30B
330
2FE
100
AcDbEntity
  8
0
100
AcDbBlockEnd
  0
BLOCK
  5
2F0
330
2EF
100
AcDbEntity
  8
0
100
AcDbBlockBegin
  2
*D13
 70
     1
 10
0.0
 20
0.0
 30
0.0
  3
*D13
  1

  0
LINE
  5
2F1
330
2EF
100
AcDbEntity
  8
09-01
 62
     4
370
    -2
100
AcDbLine
 10
544.2543162500185
 20
1259.626716746828
 30
0.0
 11
544.2543162500185
 21
1313.378190017554
 31
0.0
  0
LINE
  5
2F2
330
2EF
100
AcDbEntity
  8
09-01
 62
     4
370
    -2
100
AcDbLine
 10
566.2543162500185
 20
1281.626716746828
 30
0.0
 11
566.2543162500185
 21
1313.378190017554
 31
0.0
  0
LINE
  5
2F3
330
2EF
100
AcDbEntity
  8
09-01
 62
     4
370
    -2
100
AcDbLine
 10
531.7543162500185
 20
1308.378190017554
 30
0.0
 11
519.2543162500185
 21
1308.378190017554
 31
0.0
  0
LINE
  5
2F4
330
2EF
100
AcDbEntity
  8
09-01
 62
     4
370
    -2
100
AcDbLine
 10
578.7543162500185
 20
1308.378190017554
 30
0.0
 11
591.2543162500185
 21
1308.378190017554
 31
0.0
  0
LINE
  5
2F5
330
2EF
100
AcDbEntity
  8
09-01
 62
     4
370
    -2
100
AcDbLine
 10
544.2543162500185
 20
1308.378190017554
 30
0.0
 11
566.2543162500185
 21
1308.378190017554
 31
0.0
  0
SOLID
  5
2F6
330
2EF
100
AcDbEntity
  8
09-01
 62
     4
100
AcDbTrace
 10
531.7543162500185
 20
1310.461523350887
 30
0.0
 11
531.7543162500185
 21
1306.294856684221
 31
0.0
 12
544.2543162500185
 22
1308.378190017554
 32
0.0
 13
544.2543162500185
 23
1308.378190017554
 33
0.0
  0
SOLID
  5
2F7
330
2EF
100
AcDbEntity
  8
09-01
 62
     4
100
AcDbTrace
 10
578.7543162500185
 20
1310.461523350887
 30
0.0
 11
578.7543162500185
 21
1306.294856684221
 31
0.0
 12
566.2543162500185
 22
1308.378190017554
 32
0.0
 13
566.2543162500185
 23
1308.378190017554
 33
0.0
  0
MTEXT
  5
2F8
330
2EF
100
AcDbEntity
  8
09-01
 62
     1
100
AcDbMText
 10
555.2543162500184
 20
1319.628190017554
 30
0.0
 40
12.5
 41
0.0
 46
0.0
 71
     5
 72
     1
  1
22
 73
     1
 44
1.0
  0
POINT
  5
2F9
330
2EF
100
AcDbEntity
  8
DEFPOINTS
 62
     0
100
AcDbPoint
 10
544.2543162500185
 20
1254.626716746828
 30
0.0
  0
POINT
  5
2FA
330
2EF
100
AcDbEntity
  8
DEFPOINTS
 62
     0
100
AcDbPoint
 10
566.2543162500185
 20
1276.626716746828
 30
0.0
  0
POINT
  5
2FB
330
2EF
100
AcDbEntity
  8
DEFPOINTS
 62
     0
100
AcDbPoint
 10
566.2543162500185
 20
1308.378190017554
 30
0.0
  0
ENDBLK
  5
2FC
330
2EF
100
AcDbEntity
  8
0
100
AcDbBlockEnd
  0
BLOCK
  5
2D7
330
2D6
100
AcDbEntity
  8
0
100
AcDbBlockBegin
  2
*D14
 70
     1
 10
0.0
 20
0.0
 30
0.0
  3
*D14
  1

  0
LINE
  5
2D8
330
2D6
100
AcDbEntity
  8
09-01
 62
     4
370
    -2
100
AcDbLine
 10
554.7543162500184
 20
977.6267167468287
 30
0.0
 11
599.3400451025855
 21
977.6267167468287
 31
0.0
  0
LINE
  5
2D9
330
2D6
100
AcDbEntity
  8
09-01
 62
     4
370
    -2
100
AcDbLine
 10
571.2543162500185
 20
678.6267167468285
 30
0.0
 11
599.3400451025853
 21
678.6267167468285
 31
0.0
  0
LINE
  5
2DA
330
2D6
100
AcDbEntity
  8
09-01
 62
     4
370
    -2
100
AcDbLine
 10
594.3400451025854
 20
965.1267167468287
 30
0.0
 11
594.3400451025853
 21
691.1267167468285
 31
0.0
  0
SOLID
  5
2DB
330
2D6
100
AcDbEntity
  8
09-01
 62
     4
100
AcDbTrace
 10
592.2567117692521
 20
965.1267167468287
 30
0.0
 11
596.4233784359188
 21
965.1267167468287
 31
0.0
 12
594.3400451025854
 22
977.6267167468287
 32
0.0
 13
594.3400451025854
 23
977.6267167468287
 33
0.0
  0
SOLID
  5
2DC
330
2D6
100
AcDbEntity
  8
09-01
 62
     4
100
AcDbTrace
 10
592.2567117692519
 20
691.1267167468285
 30
0.0
 11
596.4233784359187
 21
691.1267167468285
 31
0.0
 12
594.3400451025853
 22
678.6267167468285
 32
0.0
 13
594.3400451025853
 23
678.6267167468285
 33
0.0
  0
MTEXT
  5
2DD
330
2D6
100
AcDbEntity
  8
09-01
 62
     1
100
AcDbMText
 10
583.0900451025852
 20
828.1267167468287
 30
0.0
 40
12.5
 41
0.0
 46
0.0
 71
     5
 72
     1
  1
299
 11
0.0000000000000001
 21
1.0
 31
0.0
 73
     1
 44
1.0
  0
POINT
  5
2DE
330
2D6
100
AcDbEntity
  8
DEFPOINTS
 62
     0
100
AcDbPoint
 10
549.7543162500185
 20
977.6267167468287
 30
0.0
  0
POINT
  5
2DF
330
2D6
100
AcDbEntity
  8
DEFPOINTS
 62
     0
100
AcDbPoint
 10
566.2543162500185
 20
678.6267167468285
 30
0.0
  0
POINT
  5
2E0
330
2D6
100
AcDbEntity
  8
DEFPOINTS
 62
     0
100
AcDbPoint
 10
594.3400451025853
 20
678.6267167468285
 30
0.0
  0
ENDBLK
  5
2E1
330
2D6
100
AcDbEntity
  8
0
100
AcDbBlockEnd
  0
BLOCK
  5
2A2
330
2A1
100
AcDbEntity
  8
0
100
AcDbBlockBegin
  2
*D15
 70
     1
 10
0.0
 20
0.0
 30
0.0
  3
*D15
  1

  0
LINE
  5
2A3
330
2A1
100
AcDbEntity
  8
09-01
 62
     4
370
    -2
100
AcDbLine
 10
268.2543162500185
 20
501.3293389685375
 30
0.0
 11
268.2543162500185
 21
521.1378683486555
 31
0.0
  0
LINE
  5
2A4
330
2A1
100
AcDbEntity
  8
09-01
 62
     4
370
    -2
100
AcDbLine
 10
566.2543162500185
 20
501.3293389685377
 30
0.0
 11
566.2543162500185
 21
521.1378683486555
 31
0.0
  0
LINE
  5
2A5
330
2A1
100
AcDbEntity
  8
09-01
 62
     4
370
    -2
100
AcDbLine
 10
280.7543162500185
 20
516.1378683486555
 30
0.0
 11
553.7543162500185
 21
516.1378683486555
 31
0.0
  0
SOLID
  5
2A6
330
2A1
100
AcDbEntity
  8
09-01
 62
     4
100
AcDbTrace
 10
280.7543162500185
 20
518.2212016819888
 30
0.0
 11
280.7543162500185
 21
514.0545350153221
 31
0.0
 12
268.2543162500185
 22
516.1378683486555
 32
0.0
 13
268.2543162500185
 23
516.1378683486555
 33
0.0
  0
SOLID
  5
2A7
330
2A1
100
AcDbEntity
  8
09-01
 62
     4
100
AcDbTrace
 10
553.7543162500185
 20
518.2212016819888
 30
0.0
 11
553.7543162500185
 21
514.0545350153221
 31
0.0
 12
566.2543162500185
 22
516.1378683486555
 32
0.0
 13
566.2543162500185
 23
516.1378683486555
 33
0.0
  0
MTEXT
  5
2A8
330
2A1
100
AcDbEntity
  8
09-01
 62
     1
100
AcDbMText
 10
417.2543162500184
 20
527.3878683486555
 30
0.0
 40
12.5
 41
0.0
 46
0.0
 71
     5
 72
     1
  1
298
 73
     1
 44
1.0
  0
POINT
  5
2A9
330
2A1
100
AcDbEntity
  8
DEFPOINTS
 62
     0
100
AcDbPoint
 10
268.2543162500185
 20
496.3293389685374
 30
0.0
  0
POINT
  5
2AA
330
2A1
100
AcDbEntity
  8
DEFPOINTS
 62
     0
100
AcDbPoint
 10
566.2543162500185
 20
496.3293389685377
 30
0.0
  0
POINT
  5
2AB
330
2A1
100
AcDbEntity
  8
DEFPOINTS
 62
     0
100
AcDbPoint
 10
566.2543162500185
 20
516.1378683486555
 30
0.0
  0
ENDBLK
  5
2AC
330
2A1
100
AcDbEntity
  8
0
100
AcDbBlockEnd
  0
BLOCK
  5
293
330
292
100
AcDbEntity
  8
0
100
AcDbBlockBegin
  2
*D16
 70
     1
 10
0.0
 20
0.0
 30
0.0
  3
*D16
  1

  0
LINE
  5
294
330
292
100
AcDbEntity
  8
09-01
 62
     4
370
    -2
100
AcDbLine
 10
898.3862095254057
 20
1275.626716746828
 30
0.0
 11
928.8487608429637
 21
1275.626716746828
 31
0.0
  0
LINE
  5
295
330
292
100
AcDbEntity
  8
09-01
 62
     4
370
    -2
100
AcDbLine
 10
888.3862095254057
 20
1276.626716746828
 30
0.0
 11
928.8487608429637
 21
1276.626716746828
 31
0.0
  0
LINE
  5
296
330
292
100
AcDbEntity
  8
09-01
 62
     4
370
    -2
100
AcDbLine
 10
923.8487608429638
 20
1263.126716746828
 30
0.0
 11
923.8487608429638
 21
1250.626716746828
 31
0.0
  0
LINE
  5
297
330
292
100
AcDbEntity
  8
09-01
 62
     4
370
    -2
100
AcDbLine
 10
923.8487608429638
 20
1289.126716746828
 30
0.0
 11
923.8487608429638
 21
1301.626716746828
 31
0.0
  0
MTEXT
  5
298
330
292
100
AcDbEntity
  8
09-01
 62
     1
100
AcDbMText
 10
914.8639749378462
 20
1296.799297140969
 30
0.0
 40
12.5
 41
0.0
 46
0.0
 71
     5
 72
     1
  1
1
 11
0.0000000000000001
 21
1.0
 31
0.0
 73
     1
 44
1.0
  0
LINE
  5
299
330
292
100
AcDbEntity
  8
09-01
 62
     4
370
    -2
100
AcDbLine
 10
923.8487608429638
 20
1275.626716746828
 30
0.0
 11
923.8487608429638
 21
1276.626716746828
 31
0.0
  0
SOLID
  5
29A
330
292
100
AcDbEntity
  8
09-01
 62
     4
100
AcDbTrace
 10
921.7654275096304
 20
1263.126716746828
 30
0.0
 11
925.9320941762972
 21
1263.126716746828
 31
0.0
 12
923.8487608429638
 22
1275.626716746828
 32
0.0
 13
923.8487608429638
 23
1275.626716746828
 33
0.0
  0
SOLID
  5
29B
330
292
100
AcDbEntity
  8
09-01
 62
     4
100
AcDbTrace
 10
921.7654275096306
 20
1289.126716746828
 30
0.0
 11
925.9320941762972
 21
1289.126716746828
 31
0.0
 12
923.8487608429638
 22
1276.626716746828
 32
0.0
 13
923.8487608429638
 23
1276.626716746828
 33
0.0
  0
POINT
  5
29C
330
292
100
AcDbEntity
  8
DEFPOINTS
 62
     0
100
AcDbPoint
 10
893.3862095254056
 20
1275.626716746828
 30
0.0
  0
POINT
  5
29D
330
292
100
AcDbEntity
  8
DEFPOINTS
 62
     0
100
AcDbPoint
 10
883.3862095254058
 20
1276.626716746828
 30
0.0
  0
POINT
  5
29E
330
292
100
AcDbEntity
  8
DEFPOINTS
 62
     0
100
AcDbPoint
 10
923.8487608429638
 20
1276.626716746828
 30
0.0
  0
ENDBLK
  5
29F
330
292
100
AcDbEntity
  8
0
100
AcDbBlockEnd
  0
BLOCK
  5
124
330
123
100
AcDbEntity
  8
0
100
AcDbBlockBegin
  2
Drahtkorb 023720-S
 70
     0
 10
0.0
 20
0.0
 30
0.0
  3
Drahtkorb 023720-S
  1

  0
LINE
  5
125
330
123
100
AcDbEntity
  8
0
100
AcDbLine
 10
2.0
 20
4.0
 30
0.0
 11
41.5
 21
4.0
 31
0.0
  0
ARC
  5
126
330
123
100
AcDbEntity
  8
0
100
AcDbCircle
 10
39.5
 20
5.999999999999545
 30
0.0
 40
2.0
100
AcDbArc
 50
180.0
 51
359.999999999974
  0
ARC
  5
127
330
123
100
AcDbEntity
  8
0
100
AcDbCircle
 10
39.5
 20
6.0
 30
0.0
 40
2.0
100
AcDbArc
 50
0.0
 51
180.0
  0
LINE
  5
128
330
123
100
AcDbEntity
  8
0
100
AcDbLine
 10
49.5
 20
375.9999999999995
 30
0.0
 11
-50.0
 21
375.9999999999995
 31
0.0
  0
LINE
  5
129
330
123
100
AcDbEntity
  8
0
100
AcDbLine
 10
49.5
 20
379.9999999999995
 30
0.0
 11
-50.0
 21
379.9999999999995
 31
0.0
  0
LINE
  5
12A
330
123
100
AcDbEntity
  8
0
100
AcDbLine
 10
49.5
 20
317.9999999999996
 30
0.0
 11
-6.5
 21
317.9999999999996
 31
0.0
  0
LINE
  5
12B
330
123
100
AcDbEntity
  8
0
100
AcDbLine
 10
49.5
 20
321.9999999999995
 30
0.0
 11
-6.5
 21
321.9999999999995
 31
0.0
  0
LINE
  5
12C
330
123
100
AcDbEntity
  8
0
100
AcDbLine
 10
49.5
 20
271.9999999999995
 30
0.0
 11
-6.5
 21
271.9999999999995
 31
0.0
  0
LINE
  5
12D
330
123
100
AcDbEntity
  8
0
100
AcDbLine
 10
49.5
 20
267.9999999999996
 30
0.0
 11
-6.5
 21
267.9999999999996
 31
0.0
  0
LINE
  5
12E
330
123
100
AcDbEntity
  8
0
100
AcDbLine
 10
49.5
 20
217.9999999999996
 30
0.0
 11
-6.5
 21
217.9999999999996
 31
0.0
  0
LINE
  5
12F
330
123
100
AcDbEntity
  8
0
100
AcDbLine
 10
49.5
 20
221.9999999999995
 30
0.0
 11
-6.5
 21
221.9999999999995
 31
0.0
  0
LINE
  5
130
330
123
100
AcDbEntity
  8
0
100
AcDbLine
 10
49.5
 20
167.9999999999995
 30
0.0
 11
-6.5
 21
167.9999999999995
 31
0.0
  0
LINE
  5
131
330
123
100
AcDbEntity
  8
0
100
AcDbLine
 10
49.5
 20
171.9999999999995
 30
0.0
 11
-6.5
 21
171.9999999999995
 31
0.0
  0
LINE
  5
132
330
123
100
AcDbEntity
  8
0
100
AcDbLine
 10
49.5
 20
117.9999999999995
 30
0.0
 11
-6.5
 21
117.9999999999995
 31
0.0
  0
LINE
  5
133
330
123
100
AcDbEntity
  8
0
100
AcDbLine
 10
49.5
 20
121.9999999999995
 30
0.0
 11
-6.5
 21
121.9999999999995
 31
0.0
  0
LINE
  5
134
330
123
100
AcDbEntity
  8
0
100
AcDbLine
 10
49.5
 20
67.99999999999954
 30
0.0
 11
-6.5
 21
67.99999999999954
 31
0.0
  0
LINE
  5
135
330
123
100
AcDbEntity
  8
0
100
AcDbLine
 10
49.5
 20
71.99999999999954
 30
0.0
 11
-6.5
 21
71.99999999999954
 31
0.0
  0
LINE
  5
136
330
123
100
AcDbEntity
  8
0
100
AcDbLine
 10
49.5
 20
21.99999999999954
 30
0.0
 11
-6.5
 21
21.99999999999954
 31
0.0
  0
LINE
  5
137
330
123
100
AcDbEntity
  8
0
100
AcDbLine
 10
49.5
 20
17.99999999999954
 30
0.0
 11
-6.5
 21
17.99999999999954
 31
0.0
  0
LINE
  5
138
330
123
100
AcDbEntity
  8
0
100
AcDbLine
 10
49.5
 20
379.9999999999995
 30
0.0
 11
-6.5
 21
379.9999999999995
 31
0.0
  0
LINE
  5
139
330
123
100
AcDbEntity
  8
0
100
AcDbLine
 10
-41.5
 20
-0.0000000000004547
 30
0.0
 11
41.5
 21
0.0
 31
0.0
  0
LINE
  5
13A
330
123
100
AcDbEntity
  8
0
100
AcDbLine
 10
-37.5
 20
321.9999999999995
 30
0.0
 11
-37.5
 21
375.9999999999995
 31
0.0
  0
LINE
  5
13B
330
123
100
AcDbEntity
  8
0
100
AcDbLine
 10
-41.5
 20
321.9999999999995
 30
0.0
 11
-41.5
 21
375.9999999999995
 31
0.0
  0
LINE
  5
13C
330
123
100
AcDbEntity
  8
0
100
AcDbLine
 10
37.5
 20
321.9999999999991
 30
0.0
 11
37.5
 21
375.9999999999995
 31
0.0
  0
LINE
  5
13D
330
123
100
AcDbEntity
  8
0
100
AcDbLine
 10
-43.5
 20
321.9999999999995
 30
0.0
 11
-43.5
 21
375.9999999999991
 31
0.0
  0
LINE
  5
13E
330
123
100
AcDbEntity
  8
0
100
AcDbLine
 10
-47.5
 20
321.9999999999995
 30
0.0
 11
-47.5
 21
375.9999999999991
 31
0.0
  0
LINE
  5
13F
330
123
100
AcDbEntity
  8
0
100
AcDbLine
 10
-2.0
 20
321.9999999999995
 30
0.0
 11
-2.0
 21
375.9999999999991
 31
0.0
  0
LINE
  5
140
330
123
100
AcDbEntity
  8
0
100
AcDbLine
 10
2.0
 20
321.9999999999995
 30
0.0
 11
2.0
 21
375.9999999999991
 31
0.0
  0
LINE
  5
141
330
123
100
AcDbEntity
  8
0
100
AcDbLine
 10
-37.5
 20
72.0
 30
0.0
 11
-37.5
 21
117.9999999999995
 31
0.0
  0
LINE
  5
142
330
123
100
AcDbEntity
  8
0
100
AcDbLine
 10
-41.5
 20
72.0
 30
0.0
 11
-41.5
 21
117.9999999999995
 31
0.0
  0
LINE
  5
143
330
123
100
AcDbEntity
  8
0
100
AcDbLine
 10
37.5
 20
71.99999999999954
 30
0.0
 11
37.5
 21
117.9999999999995
 31
0.0
  0
LINE
  5
144
330
123
100
AcDbEntity
  8
0
100
AcDbLine
 10
-47.5
 20
71.99999999999954
 30
0.0
 11
-47.5
 21
117.9999999999995
 31
0.0
  0
LINE
  5
145
330
123
100
AcDbEntity
  8
0
100
AcDbLine
 10
-43.5
 20
71.99999999999954
 30
0.0
 11
-43.5
 21
117.9999999999995
 31
0.0
  0
LINE
  5
146
330
123
100
AcDbEntity
  8
0
100
AcDbLine
 10
-2.0
 20
71.99999999999954
 30
0.0
 11
-2.0
 21
117.9999999999995
 31
0.0
  0
LINE
  5
147
330
123
100
AcDbEntity
  8
0
100
AcDbLine
 10
2.0
 20
71.99999999999954
 30
0.0
 11
2.0
 21
117.9999999999995
 31
0.0
  0
ARC
  5
148
330
123
100
AcDbEntity
  8
0
100
AcDbCircle
 10
-41.5
 20
6.0
 30
0.0
 40
2.0
100
AcDbArc
 50
180.0
 51
270.0
  0
ARC
  5
149
330
123
100
AcDbEntity
  8
0
100
AcDbCircle
 10
-41.5
 20
6.0
 30
0.0
 40
6.0
100
AcDbArc
 50
180.0
 51
270.0
  0
LINE
  5
14A
330
123
100
AcDbEntity
  8
0
100
AcDbLine
 10
-48.0
 20
72.0
 30
0.0
 11
-6.5
 21
71.99999999999954
 31
0.0
  0
LINE
  5
14B
330
123
100
AcDbEntity
  8
0
100
AcDbLine
 10
-48.0
 20
67.99999999999954
 30
0.0
 11
-6.5
 21
67.99999999999954
 31
0.0
  0
LINE
  5
14C
330
123
100
AcDbEntity
  8
0
100
AcDbLine
 10
-48.0
 20
17.99999999999954
 30
0.0
 11
-6.5
 21
17.99999999999954
 31
0.0
  0
LINE
  5
14D
330
123
100
AcDbEntity
  8
0
100
AcDbLine
 10
-48.0
 20
22.0
 30
0.0
 11
-6.5
 21
21.99999999999954
 31
0.0
  0
LINE
  5
14E
330
123
100
AcDbEntity
  8
0
100
AcDbLine
 10
-43.5
 20
21.99999999999954
 30
0.0
 11
-43.5
 21
67.99999999999954
 31
0.0
  0
LINE
  5
14F
330
123
100
AcDbEntity
  8
0
100
AcDbLine
 10
-47.5
 20
21.99999999999954
 30
0.0
 11
-47.5
 21
67.99999999999954
 31
0.0
  0
ARC
  5
150
330
123
100
AcDbEntity
  8
0
100
AcDbCircle
 10
-49.5
 20
19.99999999999954
 30
0.0
 40
2.0
100
AcDbArc
 50
270.0
 51
90.0
  0
ARC
  5
151
330
123
100
AcDbEntity
  8
0
100
AcDbCircle
 10
-49.5
 20
19.99999999999954
 30
0.0
 40
2.0
100
AcDbArc
 50
90.0
 51
270.0
  0
LINE
  5
152
330
123
100
AcDbEntity
  8
0
100
AcDbLine
 10
-47.5
 20
6.0
 30
0.0
 11
-47.5
 21
17.99999999999954
 31
0.0
  0
LINE
  5
153
330
123
100
AcDbEntity
  8
0
100
AcDbLine
 10
-43.5
 20
6.0
 30
0.0
 11
-43.5
 21
17.99999999999954
 31
0.0
  0
ARC
  5
154
330
123
100
AcDbEntity
  8
0
100
AcDbCircle
 10
-49.5
 20
69.99999999999954
 30
0.0
 40
2.0
100
AcDbArc
 50
90.0
 51
270.0
  0
ARC
  5
155
330
123
100
AcDbEntity
  8
0
100
AcDbCircle
 10
-49.5
 20
69.99999999999954
 30
0.0
 40
2.0
100
AcDbArc
 50
270.0
 51
90.0
  0
ARC
  5
156
330
123
100
AcDbEntity
  8
0
100
AcDbCircle
 10
0.0
 20
5.999999999999545
 30
0.0
 40
2.0
100
AcDbArc
 50
0.0
 51
180.0
  0
ARC
  5
157
330
123
100
AcDbEntity
  8
0
100
AcDbCircle
 10
0.0
 20
5.99999999999909
 30
0.0
 40
2.0
100
AcDbArc
 50
180.0
 51
359.999999999974
  0
LINE
  5
158
330
123
100
AcDbEntity
  8
0
100
AcDbLine
 10
-41.5
 20
22.0
 30
0.0
 11
-41.5
 21
68.0
 31
0.0
  0
LINE
  5
159
330
123
100
AcDbEntity
  8
0
100
AcDbLine
 10
-37.5
 20
21.99999999999954
 30
0.0
 11
-37.5
 21
68.0
 31
0.0
  0
LINE
  5
15A
330
123
100
AcDbEntity
  8
0
100
AcDbLine
 10
-2.0
 20
21.99999999999954
 30
0.0
 11
-2.0
 21
67.99999999999954
 31
0.0
  0
LINE
  5
15B
330
123
100
AcDbEntity
  8
0
100
AcDbLine
 10
-41.5
 20
3.999999999999545
 30
0.0
 11
-6.5
 21
4.0
 31
0.0
  0
LINE
  5
15C
330
123
100
AcDbEntity
  8
0
100
AcDbLine
 10
-41.5
 20
6.0
 30
0.0
 11
-41.5
 21
17.99999999999954
 31
0.0
  0
LINE
  5
15D
330
123
100
AcDbEntity
  8
0
100
AcDbLine
 10
-37.5
 20
6.0
 30
0.0
 11
-37.5
 21
17.99999999999954
 31
0.0
  0
ARC
  5
15E
330
123
100
AcDbEntity
  8
0
100
AcDbCircle
 10
-39.5
 20
6.0
 30
0.0
 40
2.0
100
AcDbArc
 50
0.0
 51
179.9999999999739
  0
ARC
  5
15F
330
123
100
AcDbEntity
  8
0
100
AcDbCircle
 10
-39.5
 20
5.999999999999545
 30
0.0
 40
2.0
100
AcDbArc
 50
180.0
 51
0.0
  0
LINE
  5
160
330
123
100
AcDbEntity
  8
0
100
AcDbLine
 10
-1.99999999999909
 20
17.99999999999954
 30
0.0
 11
-2.0
 21
4.0
 31
0.0
  0
LINE
  5
161
330
123
100
AcDbEntity
  8
0
100
AcDbLine
 10
-6.5
 20
4.0
 30
0.0
 11
-1.99999999999909
 21
4.0
 31
0.0
  0
LINE
  5
162
330
123
100
AcDbEntity
  8
0
100
AcDbLine
 10
2.000000000000909
 20
21.99999999999954
 30
0.0
 11
2.0
 21
67.99999999999954
 31
0.0
  0
LINE
  5
163
330
123
100
AcDbEntity
  8
0
100
AcDbLine
 10
37.5
 20
21.99999999999954
 30
0.0
 11
37.5
 21
67.99999999999954
 31
0.0
  0
LINE
  5
164
330
123
100
AcDbEntity
  8
0
100
AcDbLine
 10
2.000000000000909
 20
4.0
 30
0.0
 11
2.000000000000909
 21
17.99999999999954
 31
0.0
  0
LINE
  5
165
330
123
100
AcDbEntity
  8
0
100
AcDbLine
 10
37.5
 20
6.0
 30
0.0
 11
37.5
 21
17.99999999999954
 31
0.0
  0
LINE
  5
166
330
123
100
AcDbEntity
  8
0
100
AcDbLine
 10
-48.0
 20
321.9999999999995
 30
0.0
 11
-6.5
 21
321.9999999999995
 31
0.0
  0
LINE
  5
167
330
123
100
AcDbEntity
  8
0
100
AcDbLine
 10
-48.0
 20
317.9999999999996
 30
0.0
 11
-6.5
 21
317.9999999999996
 31
0.0
  0
LINE
  5
168
330
123
100
AcDbEntity
  8
0
100
AcDbLine
 10
-48.0
 20
267.9999999999996
 30
0.0
 11
-6.5
 21
267.9999999999996
 31
0.0
  0
LINE
  5
169
330
123
100
AcDbEntity
  8
0
100
AcDbLine
 10
-48.0
 20
271.9999999999995
 30
0.0
 11
-6.5
 21
271.9999999999995
 31
0.0
  0
LINE
  5
16A
330
123
100
AcDbEntity
  8
0
100
AcDbLine
 10
-48.0
 20
221.9999999999995
 30
0.0
 11
-6.5
 21
221.9999999999995
 31
0.0
  0
LINE
  5
16B
330
123
100
AcDbEntity
  8
0
100
AcDbLine
 10
-48.0
 20
217.9999999999996
 30
0.0
 11
-6.5
 21
217.9999999999996
 31
0.0
  0
LINE
  5
16C
330
123
100
AcDbEntity
  8
0
100
AcDbLine
 10
-48.0
 20
171.9999999999995
 30
0.0
 11
-6.5
 21
171.9999999999995
 31
0.0
  0
LINE
  5
16D
330
123
100
AcDbEntity
  8
0
100
AcDbLine
 10
-48.0
 20
167.9999999999995
 30
0.0
 11
-6.5
 21
167.9999999999995
 31
0.0
  0
LINE
  5
16E
330
123
100
AcDbEntity
  8
0
100
AcDbLine
 10
-48.0
 20
122.0
 30
0.0
 11
-6.5
 21
121.9999999999995
 31
0.0
  0
LINE
  5
16F
330
123
100
AcDbEntity
  8
0
100
AcDbLine
 10
-48.0
 20
117.9999999999995
 30
0.0
 11
-6.5
 21
117.9999999999995
 31
0.0
  0
LINE
  5
170
330
123
100
AcDbEntity
  8
0
100
AcDbLine
 10
-47.5
 20
221.9999999999995
 30
0.0
 11
-47.5
 21
267.9999999999996
 31
0.0
  0
LINE
  5
171
330
123
100
AcDbEntity
  8
0
100
AcDbLine
 10
-43.5
 20
221.9999999999995
 30
0.0
 11
-43.5
 21
267.9999999999996
 31
0.0
  0
LINE
  5
172
330
123
100
AcDbEntity
  8
0
100
AcDbLine
 10
-47.5
 20
121.9999999999995
 30
0.0
 11
-47.5
 21
167.9999999999995
 31
0.0
  0
LINE
  5
173
330
123
100
AcDbEntity
  8
0
100
AcDbLine
 10
-43.5
 20
121.9999999999995
 30
0.0
 11
-43.5
 21
167.9999999999995
 31
0.0
  0
ARC
  5
174
330
123
100
AcDbEntity
  8
0
100
AcDbCircle
 10
-49.5
 20
119.9999999999995
 30
0.0
 40
2.0
100
AcDbArc
 50
90.0
 51
270.0
  0
ARC
  5
175
330
123
100
AcDbEntity
  8
0
100
AcDbCircle
 10
-49.5
 20
119.9999999999995
 30
0.0
 40
2.0
100
AcDbArc
 50
270.0
 51
90.0
  0
LINE
  5
176
330
123
100
AcDbEntity
  8
0
100
AcDbLine
 10
-47.5
 20
171.9999999999995
 30
0.0
 11
-47.5
 21
217.9999999999996
 31
0.0
  0
LINE
  5
177
330
123
100
AcDbEntity
  8
0
100
AcDbLine
 10
-43.5
 20
171.9999999999995
 30
0.0
 11
-43.5
 21
217.9999999999996
 31
0.0
  0
ARC
  5
178
330
123
100
AcDbEntity
  8
0
100
AcDbCircle
 10
-49.5
 20
169.9999999999995
 30
0.0
 40
2.0
100
AcDbArc
 50
90.0
 51
270.0
  0
ARC
  5
179
330
123
100
AcDbEntity
  8
0
100
AcDbCircle
 10
-49.5
 20
169.9999999999995
 30
0.0
 40
2.0
100
AcDbArc
 50
270.0
 51
90.0
  0
ARC
  5
17A
330
123
100
AcDbEntity
  8
0
100
AcDbCircle
 10
-49.5
 20
219.9999999999995
 30
0.0
 40
2.0
100
AcDbArc
 50
90.0
 51
270.0
  0
ARC
  5
17B
330
123
100
AcDbEntity
  8
0
100
AcDbCircle
 10
-49.5
 20
219.9999999999995
 30
0.0
 40
2.0
100
AcDbArc
 50
270.0
 51
90.0
  0
LINE
  5
17C
330
123
100
AcDbEntity
  8
0
100
AcDbLine
 10
-47.5
 20
271.9999999999995
 30
0.0
 11
-47.5
 21
317.9999999999996
 31
0.0
  0
LINE
  5
17D
330
123
100
AcDbEntity
  8
0
100
AcDbLine
 10
-43.5
 20
271.9999999999995
 30
0.0
 11
-43.5
 21
317.9999999999996
 31
0.0
  0
ARC
  5
17E
330
123
100
AcDbEntity
  8
0
100
AcDbCircle
 10
-49.5
 20
269.9999999999995
 30
0.0
 40
2.0
100
AcDbArc
 50
270.0
 51
90.0
  0
ARC
  5
17F
330
123
100
AcDbEntity
  8
0
100
AcDbCircle
 10
-49.5
 20
269.9999999999995
 30
0.0
 40
2.0
100
AcDbArc
 50
90.0
 51
270.0
  0
ARC
  5
180
330
123
100
AcDbEntity
  8
0
100
AcDbCircle
 10
-49.5
 20
319.9999999999996
 30
0.0
 40
2.0
100
AcDbArc
 50
90.0
 51
270.0
  0
ARC
  5
181
330
123
100
AcDbEntity
  8
0
100
AcDbCircle
 10
-49.5
 20
319.9999999999996
 30
0.0
 40
2.0
100
AcDbArc
 50
270.0
 51
90.0
  0
LINE
  5
182
330
123
100
AcDbEntity
  8
0
100
AcDbLine
 10
37.5
 20
221.9999999999995
 30
0.0
 11
37.5
 21
267.9999999999996
 31
0.0
  0
LINE
  5
183
330
123
100
AcDbEntity
  8
0
100
AcDbLine
 10
-37.5
 20
221.9999999999995
 30
0.0
 11
-37.5
 21
267.9999999999996
 31
0.0
  0
LINE
  5
184
330
123
100
AcDbEntity
  8
0
100
AcDbLine
 10
-41.5
 20
221.9999999999995
 30
0.0
 11
-41.5
 21
267.9999999999996
 31
0.0
  0
LINE
  5
185
330
123
100
AcDbEntity
  8
0
100
AcDbLine
 10
-2.0
 20
221.9999999999995
 30
0.0
 11
-2.0
 21
267.9999999999996
 31
0.0
  0
LINE
  5
186
330
123
100
AcDbEntity
  8
0
100
AcDbLine
 10
2.0
 20
221.9999999999995
 30
0.0
 11
2.0
 21
267.9999999999996
 31
0.0
  0
LINE
  5
187
330
123
100
AcDbEntity
  8
0
100
AcDbLine
 10
-37.5
 20
122.0
 30
0.0
 11
-37.5
 21
167.9999999999995
 31
0.0
  0
LINE
  5
188
330
123
100
AcDbEntity
  8
0
100
AcDbLine
 10
-41.5
 20
121.9999999999995
 30
0.0
 11
-41.5
 21
167.9999999999995
 31
0.0
  0
LINE
  5
189
330
123
100
AcDbEntity
  8
0
100
AcDbLine
 10
-2.0
 20
121.9999999999995
 30
0.0
 11
-2.0
 21
167.9999999999995
 31
0.0
  0
LINE
  5
18A
330
123
100
AcDbEntity
  8
0
100
AcDbLine
 10
-37.5
 20
171.9999999999995
 30
0.0
 11
-37.5
 21
217.9999999999996
 31
0.0
  0
LINE
  5
18B
330
123
100
AcDbEntity
  8
0
100
AcDbLine
 10
-41.5
 20
171.9999999999995
 30
0.0
 11
-41.5
 21
217.9999999999996
 31
0.0
  0
LINE
  5
18C
330
123
100
AcDbEntity
  8
0
100
AcDbLine
 10
-2.0
 20
171.9999999999995
 30
0.0
 11
-2.0
 21
217.9999999999996
 31
0.0
  0
LINE
  5
18D
330
123
100
AcDbEntity
  8
0
100
AcDbLine
 10
37.5
 20
121.9999999999995
 30
0.0
 11
37.5
 21
167.9999999999995
 31
0.0
  0
LINE
  5
18E
330
123
100
AcDbEntity
  8
0
100
AcDbLine
 10
2.0
 20
121.9999999999995
 30
0.0
 11
2.0
 21
167.9999999999995
 31
0.0
  0
LINE
  5
18F
330
123
100
AcDbEntity
  8
0
100
AcDbLine
 10
2.0
 20
171.9999999999995
 30
0.0
 11
2.0
 21
217.9999999999996
 31
0.0
  0
LINE
  5
190
330
123
100
AcDbEntity
  8
0
100
AcDbLine
 10
37.5
 20
171.9999999999995
 30
0.0
 11
37.5
 21
217.9999999999996
 31
0.0
  0
LINE
  5
191
330
123
100
AcDbEntity
  8
0
100
AcDbLine
 10
-37.5
 20
271.9999999999995
 30
0.0
 11
-37.5
 21
317.9999999999996
 31
0.0
  0
LINE
  5
192
330
123
100
AcDbEntity
  8
0
100
AcDbLine
 10
-41.5
 20
271.9999999999995
 30
0.0
 11
-41.5
 21
317.9999999999996
 31
0.0
  0
LINE
  5
193
330
123
100
AcDbEntity
  8
0
100
AcDbLine
 10
-2.0
 20
271.9999999999995
 30
0.0
 11
-2.0
 21
317.9999999999996
 31
0.0
  0
LINE
  5
194
330
123
100
AcDbEntity
  8
0
100
AcDbLine
 10
37.5
 20
271.9999999999995
 30
0.0
 11
37.5
 21
317.9999999999991
 31
0.0
  0
LINE
  5
195
330
123
100
AcDbEntity
  8
0
100
AcDbLine
 10
2.0
 20
271.9999999999995
 30
0.0
 11
2.0
 21
317.9999999999996
 31
0.0
  0
ARC
  5
196
330
123
100
AcDbEntity
  8
0
100
AcDbCircle
 10
-49.5
 20
377.9999999999995
 30
0.0
 40
2.0
100
AcDbArc
 50
270.0
 51
90.0
  0
ARC
  5
197
330
123
100
AcDbEntity
  8
0
100
AcDbCircle
 10
-49.5
 20
377.9999999999995
 30
0.0
 40
2.0
100
AcDbArc
 50
90.0
 51
270.0
  0
LINE
  5
198
330
123
100
AcDbEntity
  8
0
100
AcDbLine
 10
41.5
 20
321.9999999999991
 30
0.0
 11
41.5
 21
375.9999999999995
 31
0.0
  0
LINE
  5
199
330
123
100
AcDbEntity
  8
0
100
AcDbLine
 10
47.5
 20
321.9999999999995
 30
0.0
 11
47.5
 21
375.9999999999991
 31
0.0
  0
LINE
  5
19A
330
123
100
AcDbEntity
  8
0
100
AcDbLine
 10
43.5
 20
321.9999999999995
 30
0.0
 11
43.5
 21
375.9999999999991
 31
0.0
  0
LINE
  5
19B
330
123
100
AcDbEntity
  8
0
100
AcDbLine
 10
41.5
 20
71.99999999999954
 30
0.0
 11
41.5
 21
117.9999999999995
 31
0.0
  0
LINE
  5
19C
330
123
100
AcDbEntity
  8
0
100
AcDbLine
 10
43.5
 20
71.99999999999954
 30
0.0
 11
43.5
 21
117.9999999999995
 31
0.0
  0
LINE
  5
19D
330
123
100
AcDbEntity
  8
0
100
AcDbLine
 10
47.5
 20
71.99999999999954
 30
0.0
 11
47.5
 21
117.9999999999995
 31
0.0
  0
LINE
  5
19E
330
123
100
AcDbEntity
  8
0
100
AcDbLine
 10
41.5
 20
21.99999999999954
 30
0.0
 11
41.5
 21
67.99999999999954
 31
0.0
  0
LINE
  5
19F
330
123
100
AcDbEntity
  8
0
100
AcDbLine
 10
47.5
 20
21.99999999999954
 30
0.0
 11
47.5
 21
67.99999999999954
 31
0.0
  0
LINE
  5
1A0
330
123
100
AcDbEntity
  8
0
100
AcDbLine
 10
43.5
 20
21.99999999999954
 30
0.0
 11
43.5
 21
67.99999999999954
 31
0.0
  0
ARC
  5
1A1
330
123
100
AcDbEntity
  8
0
100
AcDbCircle
 10
49.5
 20
19.99999999999954
 30
0.0
 40
2.0
100
AcDbArc
 50
270.0
 51
90.0
  0
ARC
  5
1A2
330
123
100
AcDbEntity
  8
0
100
AcDbCircle
 10
49.5
 20
19.99999999999954
 30
0.0
 40
2.0
100
AcDbArc
 50
90.0
 51
270.0
  0
LINE
  5
1A3
330
123
100
AcDbEntity
  8
0
100
AcDbLine
 10
41.5
 20
6.0
 30
0.0
 11
41.5
 21
17.99999999999954
 31
0.0
  0
ARC
  5
1A4
330
123
100
AcDbEntity
  8
0
100
AcDbCircle
 10
41.5
 20
6.0
 30
0.0
 40
6.0
100
AcDbArc
 50
270.0
 51
0.0
  0
ARC
  5
1A5
330
123
100
AcDbEntity
  8
0
100
AcDbCircle
 10
41.5
 20
6.0
 30
0.0
 40
2.0
100
AcDbArc
 50
270.0
 51
0.0
  0
LINE
  5
1A6
330
123
100
AcDbEntity
  8
0
100
AcDbLine
 10
43.5
 20
6.0
 30
0.0
 11
43.5
 21
17.99999999999954
 31
0.0
  0
LINE
  5
1A7
330
123
100
AcDbEntity
  8
0
100
AcDbLine
 10
47.5
 20
6.0
 30
0.0
 11
47.5
 21
17.99999999999954
 31
0.0
  0
ARC
  5
1A8
330
123
100
AcDbEntity
  8
0
100
AcDbCircle
 10
49.5
 20
69.99999999999954
 30
0.0
 40
2.0
100
AcDbArc
 50
90.0
 51
270.0
  0
ARC
  5
1A9
330
123
100
AcDbEntity
  8
0
100
AcDbCircle
 10
49.5
 20
69.99999999999954
 30
0.0
 40
2.0
100
AcDbArc
 50
270.0
 51
90.0
  0
LINE
  5
1AA
330
123
100
AcDbEntity
  8
0
100
AcDbLine
 10
41.5
 20
221.9999999999995
 30
0.0
 11
41.5
 21
267.9999999999996
 31
0.0
  0
LINE
  5
1AB
330
123
100
AcDbEntity
  8
0
100
AcDbLine
 10
43.5
 20
221.9999999999995
 30
0.0
 11
43.5
 21
267.9999999999996
 31
0.0
  0
LINE
  5
1AC
330
123
100
AcDbEntity
  8
0
100
AcDbLine
 10
47.5
 20
221.9999999999995
 30
0.0
 11
47.5
 21
267.9999999999996
 31
0.0
  0
LINE
  5
1AD
330
123
100
AcDbEntity
  8
0
100
AcDbLine
 10
41.5
 20
121.9999999999995
 30
0.0
 11
41.5
 21
167.9999999999995
 31
0.0
  0
LINE
  5
1AE
330
123
100
AcDbEntity
  8
0
100
AcDbLine
 10
43.5
 20
121.9999999999995
 30
0.0
 11
43.5
 21
167.9999999999995
 31
0.0
  0
LINE
  5
1AF
330
123
100
AcDbEntity
  8
0
100
AcDbLine
 10
47.5
 20
121.9999999999995
 30
0.0
 11
47.5
 21
167.9999999999995
 31
0.0
  0
ARC
  5
1B0
330
123
100
AcDbEntity
  8
0
100
AcDbCircle
 10
49.5
 20
119.9999999999995
 30
0.0
 40
2.0
100
AcDbArc
 50
90.0
 51
270.0
  0
ARC
  5
1B1
330
123
100
AcDbEntity
  8
0
100
AcDbCircle
 10
49.5
 20
119.9999999999995
 30
0.0
 40
2.0
100
AcDbArc
 50
270.0
 51
90.0
  0
LINE
  5
1B2
330
123
100
AcDbEntity
  8
0
100
AcDbLine
 10
41.5
 20
171.9999999999995
 30
0.0
 11
41.5
 21
217.9999999999996
 31
0.0
  0
LINE
  5
1B3
330
123
100
AcDbEntity
  8
0
100
AcDbLine
 10
43.5
 20
171.9999999999995
 30
0.0
 11
43.5
 21
217.9999999999996
 31
0.0
  0
LINE
  5
1B4
330
123
100
AcDbEntity
  8
0
100
AcDbLine
 10
47.5
 20
171.9999999999995
 30
0.0
 11
47.5
 21
217.9999999999996
 31
0.0
  0
ARC
  5
1B5
330
123
100
AcDbEntity
  8
0
100
AcDbCircle
 10
49.5
 20
169.9999999999995
 30
0.0
 40
2.0
100
AcDbArc
 50
90.0
 51
270.0
  0
ARC
  5
1B6
330
123
100
AcDbEntity
  8
0
100
AcDbCircle
 10
49.5
 20
169.9999999999995
 30
0.0
 40
2.0
100
AcDbArc
 50
270.0
 51
90.0
  0
ARC
  5
1B7
330
123
100
AcDbEntity
  8
0
100
AcDbCircle
 10
49.5
 20
219.9999999999995
 30
0.0
 40
2.0
100
AcDbArc
 50
90.0
 51
270.0
  0
ARC
  5
1B8
330
123
100
AcDbEntity
  8
0
100
AcDbCircle
 10
49.5
 20
219.9999999999995
 30
0.0
 40
2.0
100
AcDbArc
 50
270.0
 51
90.0
  0
LINE
  5
1B9
330
123
100
AcDbEntity
  8
0
100
AcDbLine
 10
41.5
 20
271.9999999999995
 30
0.0
 11
41.5
 21
317.9999999999991
 31
0.0
  0
LINE
  5
1BA
330
123
100
AcDbEntity
  8
0
100
AcDbLine
 10
43.5
 20
271.9999999999995
 30
0.0
 11
43.5
 21
317.9999999999996
 31
0.0
  0
LINE
  5
1BB
330
123
100
AcDbEntity
  8
0
100
AcDbLine
 10
47.5
 20
271.9999999999995
 30
0.0
 11
47.5
 21
317.9999999999996
 31
0.0
  0
ARC
  5
1BC
330
123
100
AcDbEntity
  8
0
100
AcDbCircle
 10
49.5
 20
269.9999999999995
 30
0.0
 40
2.0
100
AcDbArc
 50
270.0
 51
90.0
  0
ARC
  5
1BD
330
123
100
AcDbEntity
  8
0
100
AcDbCircle
 10
49.5
 20
269.9999999999995
 30
0.0
 40
2.0
100
AcDbArc
 50
90.0
 51
270.0
  0
ARC
  5
1BE
330
123
100
AcDbEntity
  8
0
100
AcDbCircle
 10
49.5
 20
319.9999999999996
 30
0.0
 40
2.0
100
AcDbArc
 50
90.0
 51
270.0
  0
ARC
  5
1BF
330
123
100
AcDbEntity
  8
0
100
AcDbCircle
 10
49.5
 20
319.9999999999996
 30
0.0
 40
2.0
100
AcDbArc
 50
270.0
 51
90.0
  0
ARC
  5
1C0
330
123
100
AcDbEntity
  8
0
100
AcDbCircle
 10
49.5
 20
377.9999999999995
 30
0.0
 40
2.0
100
AcDbArc
 50
270.0
 51
90.0
  0
ARC
  5
1C1
330
123
100
AcDbEntity
  8
0
100
AcDbCircle
 10
49.5
 20
377.9999999999995
 30
0.0
 40
2.0
100
AcDbArc
 50
90.0
 51
270.0
  0
ENDBLK
  5
1C2
330
123
100
AcDbEntity
  8
0
100
AcDbBlockEnd
  0
BLOCK
  5
DF
330
DE
100
AcDbEntity
  8
0
100
AcDbBlockBegin
  2
Drahtkorb 023720-D
 70
     0
 10
0.0
 20
0.0
 30
0.0
  3
Drahtkorb 023720-D
  1

  0
LINE
  5
E0
330
DE
100
AcDbEntity
  8
0
100
AcDbLine
 10
-47.99999999999954
 20
41.5
 30
0.0
 11
-1.999999999999545
 21
41.5
 31
0.0
  0
LINE
  5
E1
330
DE
100
AcDbEntity
  8
0
100
AcDbLine
 10
-47.99999999999954
 20
37.5
 30
0.0
 11
-1.999999999999545
 21
37.5
 31
0.0
  0
LINE
  5
E2
330
DE
100
AcDbEntity
  8
0
100
AcDbLine
 10
-47.99999999999954
 20
-37.5
 30
0.0
 11
-1.999999999999545
 21
-37.5
 31
0.0
  0
LINE
  5
E3
330
DE
100
AcDbEntity
  8
0
100
AcDbLine
 10
-47.99999999999954
 20
-41.5
 30
0.0
 11
-1.999999999999545
 21
-41.5
 31
0.0
  0
LWPOLYLINE
  5
E4
330
DE
100
AcDbEntity
  8
0
100
AcDbPolyline
 90
        8
 70
     1
 43
0.0
 10
-123.9999999999995
 20
-51.5
 10
124.0000000000004
 20
-51.5
 42
0.4142135623730951
 10
130.0000000000004
 20
-45.49999999999999
 10
130.0000000000004
 20
45.49999999999999
 42
0.4142135623730951
 10
124.0000000000004
 20
51.5
 10
-123.9999999999995
 20
51.5
 42
0.4142135623730951
 10
-129.9999999999995
 20
45.49999999999999
 10
-129.9999999999995
 20
-45.49999999999999
 42
0.4142135623730951
  0
LINE
  5
E5
330
DE
100
AcDbEntity
  8
0
100
AcDbLine
 10
-47.99999999999954
 20
-2.0
 30
0.0
 11
-1.999999999999545
 21
-2.0
 31
0.0
  0
LINE
  5
E6
330
DE
100
AcDbEntity
  8
0
100
AcDbLine
 10
-47.99999999999954
 20
2.0
 30
0.0
 11
-1.999999999999545
 21
2.0
 31
0.0
  0
LWPOLYLINE
  5
E7
330
DE
100
AcDbEntity
  8
0
100
AcDbPolyline
 90
        8
 70
     1
 43
0.0
 10
-123.9999999999995
 20
-47.5
 10
124.0000000000004
 20
-47.5
 42
0.4142135623730951
 10
126.0000000000004
 20
-45.49999999999999
 10
126.0000000000004
 20
45.49999999999999
 42
0.4142135623730951
 10
124.0000000000004
 20
47.5
 10
-123.9999999999995
 20
47.5
 42
0.4142135623730951
 10
-125.9999999999995
 20
45.49999999999999
 10
-125.9999999999995
 20
-45.49999999999999
 42
0.4142135623730951
  0
LINE
  5
E8
330
DE
100
AcDbEntity
  8
0
100
AcDbLine
 10
-97.99999999999954
 20
41.5
 30
0.0
 11
-51.99999999999954
 21
41.5
 31
0.0
  0
LINE
  5
E9
330
DE
100
AcDbEntity
  8
0
100
AcDbLine
 10
-97.99999999999954
 20
37.5
 30
0.0
 11
-51.99999999999954
 21
37.5
 31
0.0
  0
LINE
  5
EA
330
DE
100
AcDbEntity
  8
0
100
AcDbLine
 10
-97.99999999999954
 20
-37.5
 30
0.0
 11
-51.99999999999954
 21
-37.5
 31
0.0
  0
LINE
  5
EB
330
DE
100
AcDbEntity
  8
0
100
AcDbLine
 10
-97.99999999999954
 20
-41.5
 30
0.0
 11
-51.99999999999954
 21
-41.5
 31
0.0
  0
LINE
  5
EC
330
DE
100
AcDbEntity
  8
0
100
AcDbLine
 10
-97.99999999999954
 20
-2.0
 30
0.0
 11
-51.99999999999954
 21
-2.0
 31
0.0
  0
LINE
  5
ED
330
DE
100
AcDbEntity
  8
0
100
AcDbLine
 10
-97.99999999999954
 20
2.0
 30
0.0
 11
-51.99999999999954
 21
2.0
 31
0.0
  0
LINE
  5
EE
330
DE
100
AcDbEntity
  8
0
100
AcDbLine
 10
-97.99999999999954
 20
-45.49999999999999
 30
0.0
 11
-97.99999999999954
 21
47.5
 31
0.0
  0
LINE
  5
EF
330
DE
100
AcDbEntity
  8
0
100
AcDbLine
 10
-101.9999999999995
 20
-45.49999999999999
 30
0.0
 11
-101.9999999999995
 21
47.5
 31
0.0
  0
LINE
  5
F0
330
DE
100
AcDbEntity
  8
0
100
AcDbLine
 10
-123.9999999999995
 20
-37.5
 30
0.0
 11
-101.9999999999995
 21
-37.5
 31
0.0
  0
LINE
  5
F1
330
DE
100
AcDbEntity
  8
0
100
AcDbLine
 10
-123.9999999999995
 20
-41.5
 30
0.0
 11
-101.9999999999995
 21
-41.5
 31
0.0
  0
CIRCLE
  5
F2
330
DE
100
AcDbEntity
  8
0
100
AcDbCircle
 10
-123.9999999999995
 20
-39.5
 30
0.0
 40
2.0
  0
CIRCLE
  5
F3
330
DE
100
AcDbEntity
  8
0
100
AcDbCircle
 10
-99.99999999999955
 20
-45.49999999999999
 30
0.0
 40
2.0
  0
LINE
  5
F4
330
DE
100
AcDbEntity
  8
0
100
AcDbLine
 10
-123.9999999999995
 20
-2.0
 30
0.0
 11
-101.9999999999995
 21
-2.0
 31
0.0
  0
LINE
  5
F5
330
DE
100
AcDbEntity
  8
0
100
AcDbLine
 10
-123.9999999999995
 20
2.0
 30
0.0
 11
-101.9999999999995
 21
2.0
 31
0.0
  0
CIRCLE
  5
F6
330
DE
100
AcDbEntity
  8
0
100
AcDbCircle
 10
-123.9999999999995
 20
0.0
 30
0.0
 40
2.0
  0
LINE
  5
F7
330
DE
100
AcDbEntity
  8
0
100
AcDbLine
 10
-123.9999999999995
 20
41.5
 30
0.0
 11
-101.9999999999995
 21
41.5
 31
0.0
  0
LINE
  5
F8
330
DE
100
AcDbEntity
  8
0
100
AcDbLine
 10
-123.9999999999995
 20
37.5
 30
0.0
 11
-101.9999999999995
 21
37.5
 31
0.0
  0
CIRCLE
  5
F9
330
DE
100
AcDbEntity
  8
0
100
AcDbCircle
 10
-123.9999999999995
 20
39.5
 30
0.0
 40
2.0
  0
CIRCLE
  5
FA
330
DE
100
AcDbEntity
  8
0
100
AcDbCircle
 10
-99.99999999999955
 20
45.49999999999999
 30
0.0
 40
2.0
  0
LINE
  5
FB
330
DE
100
AcDbEntity
  8
0
100
AcDbLine
 10
-51.99999999999954
 20
-45.49999999999999
 30
0.0
 11
-51.99999999999954
 21
47.5
 31
0.0
  0
LINE
  5
FC
330
DE
100
AcDbEntity
  8
0
100
AcDbLine
 10
-47.99999999999954
 20
-45.49999999999999
 30
0.0
 11
-47.99999999999954
 21
47.5
 31
0.0
  0
CIRCLE
  5
FD
330
DE
100
AcDbEntity
  8
0
100
AcDbCircle
 10
-49.99999999999954
 20
-45.49999999999999
 30
0.0
 40
2.0
  0
CIRCLE
  5
FE
330
DE
100
AcDbEntity
  8
0
100
AcDbCircle
 10
-49.99999999999954
 20
45.49999999999999
 30
0.0
 40
2.0
  0
LINE
  5
FF
330
DE
100
AcDbEntity
  8
0
100
AcDbLine
 10
52.00000000000045
 20
41.5
 30
0.0
 11
98.00000000000046
 21
41.5
 31
0.0
  0
LINE
  5
100
330
DE
100
AcDbEntity
  8
0
100
AcDbLine
 10
52.00000000000045
 20
37.5
 30
0.0
 11
98.00000000000046
 21
37.5
 31
0.0
  0
LINE
  5
101
330
DE
100
AcDbEntity
  8
0
100
AcDbLine
 10
52.00000000000045
 20
-37.5
 30
0.0
 11
98.00000000000046
 21
-37.5
 31
0.0
  0
LINE
  5
102
330
DE
100
AcDbEntity
  8
0
100
AcDbLine
 10
52.00000000000045
 20
-41.5
 30
0.0
 11
98.00000000000046
 21
-41.5
 31
0.0
  0
LINE
  5
103
330
DE
100
AcDbEntity
  8
0
100
AcDbLine
 10
52.00000000000045
 20
-2.0
 30
0.0
 11
98.00000000000046
 21
-2.0
 31
0.0
  0
LINE
  5
104
330
DE
100
AcDbEntity
  8
0
100
AcDbLine
 10
52.00000000000045
 20
2.0
 30
0.0
 11
98.00000000000046
 21
2.0
 31
0.0
  0
LINE
  5
105
330
DE
100
AcDbEntity
  8
0
100
AcDbLine
 10
48.00000000000046
 20
-45.49999999999999
 30
0.0
 11
48.00000000000046
 21
47.5
 31
0.0
  0
LINE
  5
106
330
DE
100
AcDbEntity
  8
0
100
AcDbLine
 10
52.00000000000045
 20
-45.49999999999999
 30
0.0
 11
52.00000000000045
 21
47.5
 31
0.0
  0
LINE
  5
107
330
DE
100
AcDbEntity
  8
0
100
AcDbLine
 10
-1.999999999999545
 20
-45.49999999999999
 30
0.0
 11
-1.999999999999545
 21
47.5
 31
0.0
  0
LINE
  5
108
330
DE
100
AcDbEntity
  8
0
100
AcDbLine
 10
2.000000000000454
 20
-45.49999999999999
 30
0.0
 11
2.000000000000454
 21
47.5
 31
0.0
  0
LINE
  5
109
330
DE
100
AcDbEntity
  8
0
100
AcDbLine
 10
2.000000000000454
 20
-37.5
 30
0.0
 11
48.00000000000046
 21
-37.5
 31
0.0
  0
LINE
  5
10A
330
DE
100
AcDbEntity
  8
0
100
AcDbLine
 10
2.000000000000454
 20
-41.5
 30
0.0
 11
48.00000000000046
 21
-41.5
 31
0.0
  0
LINE
  5
10B
330
DE
100
AcDbEntity
  8
0
100
AcDbLine
 10
2.000000000000454
 20
-2.0
 30
0.0
 11
48.00000000000046
 21
-2.0
 31
0.0
  0
LINE
  5
10C
330
DE
100
AcDbEntity
  8
0
100
AcDbLine
 10
2.000000000000454
 20
2.0
 30
0.0
 11
48.00000000000046
 21
2.0
 31
0.0
  0
CIRCLE
  5
10D
330
DE
100
AcDbEntity
  8
0
100
AcDbCircle
 10
0.0000000000004547
 20
-45.49999999999999
 30
0.0
 40
2.0
  0
CIRCLE
  5
10E
330
DE
100
AcDbEntity
  8
0
100
AcDbCircle
 10
50.00000000000046
 20
-45.49999999999999
 30
0.0
 40
2.0
  0
LINE
  5
10F
330
DE
100
AcDbEntity
  8
0
100
AcDbLine
 10
2.000000000000454
 20
41.5
 30
0.0
 11
48.00000000000046
 21
41.5
 31
0.0
  0
LINE
  5
110
330
DE
100
AcDbEntity
  8
0
100
AcDbLine
 10
2.000000000000454
 20
37.5
 30
0.0
 11
48.00000000000046
 21
37.5
 31
0.0
  0
CIRCLE
  5
111
330
DE
100
AcDbEntity
  8
0
100
AcDbCircle
 10
0.0000000000004547
 20
45.49999999999999
 30
0.0
 40
2.0
  0
CIRCLE
  5
112
330
DE
100
AcDbEntity
  8
0
100
AcDbCircle
 10
50.00000000000046
 20
45.49999999999999
 30
0.0
 40
2.0
  0
LINE
  5
113
330
DE
100
AcDbEntity
  8
0
100
AcDbLine
 10
98.00000000000046
 20
-45.49999999999999
 30
0.0
 11
98.00000000000046
 21
47.5
 31
0.0
  0
LINE
  5
114
330
DE
100
AcDbEntity
  8
0
100
AcDbLine
 10
102.0000000000004
 20
-45.49999999999999
 30
0.0
 11
102.0000000000004
 21
47.5
 31
0.0
  0
LINE
  5
115
330
DE
100
AcDbEntity
  8
0
100
AcDbLine
 10
124.0000000000004
 20
-37.5
 30
0.0
 11
102.0000000000004
 21
-37.5
 31
0.0
  0
LINE
  5
116
330
DE
100
AcDbEntity
  8
0
100
AcDbLine
 10
124.0000000000004
 20
-41.5
 30
0.0
 11
102.0000000000004
 21
-41.5
 31
0.0
  0
LINE
  5
117
330
DE
100
AcDbEntity
  8
0
100
AcDbLine
 10
102.0000000000004
 20
2.0
 30
0.0
 11
124.0000000000004
 21
2.0
 31
0.0
  0
LINE
  5
118
330
DE
100
AcDbEntity
  8
0
100
AcDbLine
 10
102.0000000000004
 20
-2.0
 30
0.0
 11
124.0000000000004
 21
-2.0
 31
0.0
  0
CIRCLE
  5
119
330
DE
100
AcDbEntity
  8
0
100
AcDbCircle
 10
100.0000000000004
 20
-45.49999999999999
 30
0.0
 40
2.0
  0
CIRCLE
  5
11A
330
DE
100
AcDbEntity
  8
0
100
AcDbCircle
 10
124.0000000000004
 20
-39.5
 30
0.0
 40
2.0
  0
CIRCLE
  5
11B
330
DE
100
AcDbEntity
  8
0
100
AcDbCircle
 10
124.0000000000004
 20
0.0
 30
0.0
 40
2.0
  0
CIRCLE
  5
11C
330
DE
100
AcDbEntity
  8
0
100
AcDbCircle
 10
124.0000000000004
 20
0.0
 30
0.0
 40
2.0
  0
LINE
  5
11D
330
DE
100
AcDbEntity
  8
0
100
AcDbLine
 10
124.0000000000004
 20
41.5
 30
0.0
 11
102.0000000000004
 21
41.5
 31
0.0
  0
LINE
  5
11E
330
DE
100
AcDbEntity
  8
0
100
AcDbLine
 10
124.0000000000004
 20
37.5
 30
0.0
 11
102.0000000000004
 21
37.5
 31
0.0
  0
CIRCLE
  5
11F
330
DE
100
AcDbEntity
  8
0
100
AcDbCircle
 10
100.0000000000004
 20
45.49999999999999
 30
0.0
 40
2.0
  0
CIRCLE
  5
120
330
DE
100
AcDbEntity
  8
0
100
AcDbCircle
 10
124.0000000000004
 20
39.5
 30
0.0
 40
2.0
  0
ENDBLK
  5
121
330
DE
100
AcDbEntity
  8
0
100
AcDbBlockEnd
  0
BLOCK
  5
1DE
330
1DD
100
AcDbEntity
  8
0
100
AcDbBlockBegin
  2
*D19
 70
     1
 10
0.0
 20
0.0
 30
0.0
  3
*D19
  1

  0
LINE
  5
1DF
330
1DD
100
AcDbEntity
  8
09-01
 62
     4
370
    -2
100
AcDbLine
 10
263.2543162500184
 20
1276.626716746828
 30
0.0
 11
231.4759537395812
 21
1276.626716746828
 31
0.0
  0
LINE
  5
1E0
330
1DD
100
AcDbEntity
  8
09-01
 62
     4
370
    -2
100
AcDbLine
 10
285.2543162500185
 20
1254.626716746828
 30
0.0
 11
231.4759537395812
 21
1254.626716746828
 31
0.0
  0
LINE
  5
1E1
330
1DD
100
AcDbEntity
  8
09-01
 62
     4
370
    -2
100
AcDbLine
 10
236.4759537395812
 20
1289.126716746828
 30
0.0
 11
236.4759537395812
 21
1301.626716746828
 31
0.0
  0
LINE
  5
1E2
330
1DD
100
AcDbEntity
  8
09-01
 62
     4
370
    -2
100
AcDbLine
 10
236.4759537395812
 20
1242.126716746828
 30
0.0
 11
236.4759537395812
 21
1229.626716746828
 31
0.0
  0
LINE
  5
1E3
330
1DD
100
AcDbEntity
  8
09-01
 62
     4
370
    -2
100
AcDbLine
 10
236.4759537395812
 20
1276.626716746828
 30
0.0
 11
236.4759537395812
 21
1254.626716746828
 31
0.0
  0
SOLID
  5
1E4
330
1DD
100
AcDbEntity
  8
09-01
 62
     4
100
AcDbTrace
 10
234.3926204062479
 20
1289.126716746828
 30
0.0
 11
238.5592870729146
 21
1289.126716746828
 31
0.0
 12
236.4759537395812
 22
1276.626716746828
 32
0.0
 13
236.4759537395812
 23
1276.626716746828
 33
0.0
  0
SOLID
  5
1E5
330
1DD
100
AcDbEntity
  8
09-01
 62
     4
100
AcDbTrace
 10
234.3926204062479
 20
1242.126716746828
 30
0.0
 11
238.5592870729146
 21
1242.126716746828
 31
0.0
 12
236.4759537395812
 22
1254.626716746828
 32
0.0
 13
236.4759537395812
 23
1254.626716746828
 33
0.0
  0
MTEXT
  5
1E6
330
1DD
100
AcDbEntity
  8
09-01
 62
     1
100
AcDbMText
 10
225.225953739581
 20
1265.626716746828
 30
0.0
 40
12.5
 41
0.0
 46
0.0
 71
     5
 72
     1
  1
22
 11
0.0000000000000001
 21
1.0
 31
0.0
 73
     1
 44
1.0
  0
POINT
  5
1E7
330
1DD
100
AcDbEntity
  8
DEFPOINTS
 62
     0
100
AcDbPoint
 10
268.2543162500185
 20
1276.626716746828
 30
0.0
  0
POINT
  5
1E8
330
1DD
100
AcDbEntity
  8
DEFPOINTS
 62
     0
100
AcDbPoint
 10
290.2543162500185
 20
1254.626716746828
 30
0.0
  0
POINT
  5
1E9
330
1DD
100
AcDbEntity
  8
DEFPOINTS
 62
     0
100
AcDbPoint
 10
236.4759537395812
 20
1254.626716746828
 30
0.0
  0
ENDBLK
  5
1EA
330
1DD
100
AcDbEntity
  8
0
100
AcDbBlockEnd
  0
BLOCK
  5
1D1
330
1D0
100
AcDbEntity
  8
0
100
AcDbBlockBegin
  2
*D20
 70
     1
 10
0.0
 20
0.0
 30
0.0
  3
*D20
  1

  0
LINE
  5
1D2
330
1D0
100
AcDbEntity
  8
09-01
 62
     4
370
    -2
100
AcDbLine
 10
285.2543162500185
 20
1254.626716746828
 30
0.0
 11
231.4759537395812
 21
1254.626716746828
 31
0.0
  0
LINE
  5
1D3
330
1D0
100
AcDbEntity
  8
09-01
 62
     4
370
    -2
100
AcDbLine
 10
285.2543162500185
 20
1131.626716746828
 30
0.0
 11
231.4759537395812
 21
1131.626716746828
 31
0.0
  0
LINE
  5
1D4
330
1D0
100
AcDbEntity
  8
09-01
 62
     4
370
    -2
100
AcDbLine
 10
236.4759537395812
 20
1242.126716746828
 30
0.0
 11
236.4759537395812
 21
1144.126716746828
 31
0.0
  0
SOLID
  5
1D5
330
1D0
100
AcDbEntity
  8
09-01
 62
     4
100
AcDbTrace
 10
234.3926204062479
 20
1242.126716746828
 30
0.0
 11
238.5592870729146
 21
1242.126716746828
 31
0.0
 12
236.4759537395812
 22
1254.626716746828
 32
0.0
 13
236.4759537395812
 23
1254.626716746828
 33
0.0
  0
SOLID
  5
1D6
330
1D0
100
AcDbEntity
  8
09-01
 62
     4
100
AcDbTrace
 10
234.3926204062478
 20
1144.126716746828
 30
0.0
 11
238.5592870729145
 21
1144.126716746828
 31
0.0
 12
236.4759537395812
 22
1131.626716746828
 32
0.0
 13
236.4759537395812
 23
1131.626716746828
 33
0.0
  0
MTEXT
  5
1D7
330
1D0
100
AcDbEntity
  8
09-01
 62
     1
100
AcDbMText
 10
225.225953739581
 20
1193.126716746828
 30
0.0
 40
12.5
 41
0.0
 46
0.0
 71
     5
 72
     1
  1
123
 11
0.0000000000000001
 21
1.0
 31
0.0
 73
     1
 44
1.0
  0
POINT
  5
1D8
330
1D0
100
AcDbEntity
  8
DEFPOINTS
 62
     0
100
AcDbPoint
 10
290.2543162500185
 20
1254.626716746828
 30
0.0
  0
POINT
  5
1D9
330
1D0
100
AcDbEntity
  8
DEFPOINTS
 62
     0
100
AcDbPoint
 10
290.2543162500185
 20
1131.626716746828
 30
0.0
  0
POINT
  5
1DA
330
1D0
100
AcDbEntity
  8
DEFPOINTS
 62
     0
100
AcDbPoint
 10
236.4759537395812
 20
1131.626716746828
 30
0.0
  0
ENDBLK
  5
1DB
330
1D0
100
AcDbEntity
  8
0
100
AcDbBlockEnd
  0
BLOCK
  5
C2
330
C1
100
AcDbEntity
  8
0
100
AcDbBlockBegin
  2
*D21
 70
     1
 10
0.0
 20
0.0
 30
0.0
  3
*D21
  1

  0
LINE
  5
C3
330
C1
100
AcDbEntity
  8
09-01
 62
     4
370
    -2
100
AcDbLine
 10
768.3862095254056
 20
1276.626716746828
 30
0.0
 11
741.2282578148151
 21
1276.626716746828
 31
0.0
  0
LINE
  5
C4
330
C1
100
AcDbEntity
  8
09-01
 62
     4
370
    -2
100
AcDbLine
 10
793.2862095254056
 20
1206.626716746828
 30
0.0
 11
741.2282578148151
 21
1206.626716746828
 31
0.0
  0
LINE
  5
C5
330
C1
100
AcDbEntity
  8
09-01
 62
     4
370
    -2
100
AcDbLine
 10
746.2282578148151
 20
1264.126716746828
 30
0.0
 11
746.2282578148151
 21
1219.126716746828
 31
0.0
  0
SOLID
  5
C6
330
C1
100
AcDbEntity
  8
09-01
 62
     4
100
AcDbTrace
 10
744.1449244814817
 20
1264.126716746828
 30
0.0
 11
748.3115911481485
 21
1264.126716746828
 31
0.0
 12
746.2282578148151
 22
1276.626716746828
 32
0.0
 13
746.2282578148151
 23
1276.626716746828
 33
0.0
  0
SOLID
  5
C7
330
C1
100
AcDbEntity
  8
09-01
 62
     4
100
AcDbTrace
 10
744.1449244814817
 20
1219.126716746828
 30
0.0
 11
748.3115911481485
 21
1219.126716746828
 31
0.0
 12
746.2282578148151
 22
1206.626716746828
 32
0.0
 13
746.2282578148151
 23
1206.626716746828
 33
0.0
  0
MTEXT
  5
C8
330
C1
100
AcDbEntity
  8
09-01
 62
     1
100
AcDbMText
 10
734.978257814815
 20
1241.626716746828
 30
0.0
 40
12.5
 41
0.0
 46
0.0
 71
     5
 72
     1
  1
70
 11
0.0000000000000001
 21
1.0
 31
0.0
 73
     1
 44
1.0
  0
POINT
  5
C9
330
C1
100
AcDbEntity
  8
DEFPOINTS
 62
     0
100
AcDbPoint
 10
773.3862095254056
 20
1276.626716746828
 30
0.0
  0
POINT
  5
CA
330
C1
100
AcDbEntity
  8
DEFPOINTS
 62
     0
100
AcDbPoint
 10
798.2862095254056
 20
1206.626716746828
 30
0.0
  0
POINT
  5
CB
330
C1
100
AcDbEntity
  8
DEFPOINTS
 62
     0
100
AcDbPoint
 10
746.2282578148151
 20
1206.626716746828
 30
0.0
  0
ENDBLK
  5
CC
330
C1
100
AcDbEntity
  8
0
100
AcDbBlockEnd
  0
BLOCK
  5
B5
330
B4
100
AcDbEntity
  8
0
100
AcDbBlockBegin
  2
*D22
 70
     1
 10
0.0
 20
0.0
 30
0.0
  3
*D22
  1

  0
LINE
  5
B6
330
B4
100
AcDbEntity
  8
09-01
 62
     4
370
    -2
100
AcDbLine
 10
793.2862095254056
 20
1206.626716746828
 30
0.0
 11
741.2282578148151
 21
1206.626716746828
 31
0.0
  0
LINE
  5
B7
330
B4
100
AcDbEntity
  8
09-01
 62
     4
370
    -2
100
AcDbLine
 10
793.2862095254056
 20
756.6267167468281
 30
0.0
 11
741.228257814815
 21
756.6267167468282
 31
0.0
  0
LINE
  5
B8
330
B4
100
AcDbEntity
  8
09-01
 62
     4
370
    -2
100
AcDbLine
 10
746.2282578148151
 20
1194.126716746828
 30
0.0
 11
746.2282578148151
 21
769.1267167468282
 31
0.0
  0
SOLID
  5
B9
330
B4
100
AcDbEntity
  8
09-01
 62
     4
100
AcDbTrace
 10
744.1449244814817
 20
1194.126716746828
 30
0.0
 11
748.3115911481485
 21
1194.126716746828
 31
0.0
 12
746.2282578148151
 22
1206.626716746828
 32
0.0
 13
746.2282578148151
 23
1206.626716746828
 33
0.0
  0
SOLID
  5
BA
330
B4
100
AcDbEntity
  8
09-01
 62
     4
100
AcDbTrace
 10
744.1449244814817
 20
769.1267167468282
 30
0.0
 11
748.3115911481485
 21
769.1267167468282
 31
0.0
 12
746.228257814815
 22
756.6267167468282
 32
0.0
 13
746.228257814815
 23
756.6267167468282
 33
0.0
  0
MTEXT
  5
BB
330
B4
100
AcDbEntity
  8
09-01
 62
     1
100
AcDbMText
 10
734.978257814815
 20
981.6267167468284
 30
0.0
 40
12.5
 41
0.0
 46
0.0
 71
     5
 72
     1
  1
450
 11
0.0000000000000001
 21
1.0
 31
0.0
 73
     1
 44
1.0
  0
POINT
  5
BC
330
B4
100
AcDbEntity
  8
DEFPOINTS
 62
     0
100
AcDbPoint
 10
798.2862095254056
 20
1206.626716746828
 30
0.0
  0
POINT
  5
BD
330
B4
100
AcDbEntity
  8
DEFPOINTS
 62
     0
100
AcDbPoint
 10
798.2862095254056
 20
756.6267167468281
 30
0.0
  0
POINT
  5
BE
330
B4
100
AcDbEntity
  8
DEFPOINTS
 62
     0
100
AcDbPoint
 10
746.228257814815
 20
756.6267167468282
 30
0.0
  0
ENDBLK
  5
BF
330
B4
100
AcDbEntity
  8
0
100
AcDbBlockEnd
  0
BLOCK
  5
A8
330
A7
100
AcDbEntity
  8
0
100
AcDbBlockBegin
  2
*D23
 70
     1
 10
0.0
 20
0.0
 30
0.0
  3
*D23
  1

  0
LINE
  5
A9
330
A7
100
AcDbEntity
  8
09-01
 62
     4
370
    -2
100
AcDbLine
 10
793.2862095254056
 20
756.6267167468281
 30
0.0
 11
741.228257814815
 21
756.6267167468282
 31
0.0
  0
LINE
  5
AA
330
A7
100
AcDbEntity
  8
09-01
 62
     4
370
    -2
100
AcDbLine
 10
768.3862095254059
 20
678.6267167468285
 30
0.0
 11
741.228257814815
 21
678.6267167468287
 31
0.0
  0
LINE
  5
AB
330
A7
100
AcDbEntity
  8
09-01
 62
     4
370
    -2
100
AcDbLine
 10
746.228257814815
 20
744.1267167468282
 30
0.0
 11
746.228257814815
 21
691.1267167468287
 31
0.0
  0
SOLID
  5
AC
330
A7
100
AcDbEntity
  8
09-01
 62
     4
100
AcDbTrace
 10
744.1449244814816
 20
744.1267167468282
 30
0.0
 11
748.3115911481483
 21
744.1267167468282
 31
0.0
 12
746.228257814815
 22
756.6267167468282
 32
0.0
 13
746.228257814815
 23
756.6267167468282
 33
0.0
  0
SOLID
  5
AD
330
A7
100
AcDbEntity
  8
09-01
 62
     4
100
AcDbTrace
 10
744.1449244814816
 20
691.1267167468287
 30
0.0
 11
748.3115911481483
 21
691.1267167468287
 31
0.0
 12
746.228257814815
 22
678.6267167468287
 32
0.0
 13
746.228257814815
 23
678.6267167468287
 33
0.0
  0
MTEXT
  5
AE
330
A7
100
AcDbEntity
  8
09-01
 62
     1
100
AcDbMText
 10
734.9782578148149
 20
717.6267167468286
 30
0.0
 40
12.5
 41
0.0
 46
0.0
 71
     5
 72
     1
  1
78
 11
0.0000000000000001
 21
1.0
 31
0.0
 73
     1
 44
1.0
  0
POINT
  5
AF
330
A7
100
AcDbEntity
  8
DEFPOINTS
 62
     0
100
AcDbPoint
 10
798.2862095254056
 20
756.6267167468281
 30
0.0
  0
POINT
  5
B0
330
A7
100
AcDbEntity
  8
DEFPOINTS
 62
     0
100
AcDbPoint
 10
773.3862095254059
 20
678.6267167468285
 30
0.0
  0
POINT
  5
B1
330
A7
100
AcDbEntity
  8
DEFPOINTS
 62
     0
100
AcDbPoint
 10
746.228257814815
 20
678.6267167468287
 30
0.0
  0
ENDBLK
  5
B2
330
A7
100
AcDbEntity
  8
0
100
AcDbBlockEnd
  0
BLOCK
  5
99
330
98
100
AcDbEntity
  8
0
100
AcDbBlockBegin
  2
*D24
 70
     1
 10
0.0
 20
0.0
 30
0.0
  3
*D24
  1

  0
LINE
  5
9A
330
98
100
AcDbEntity
  8
09-01
 62
     4
370
    -2
100
AcDbLine
 10
773.3862095254056
 20
1211.626716746828
 30
0.0
 11
773.3862095254056
 21
1234.400933206576
 31
0.0
  0
LINE
  5
9B
330
98
100
AcDbEntity
  8
09-01
 62
     4
370
    -2
100
AcDbLine
 10
803.3862095254056
 20
1216.726716746828
 30
0.0
 11
803.3862095254056
 21
1234.400933206576
 31
0.0
  0
LINE
  5
9C
330
98
100
AcDbEntity
  8
09-01
 62
     4
370
    -2
100
AcDbLine
 10
760.8862095254056
 20
1229.400933206576
 30
0.0
 11
748.3862095254056
 21
1229.400933206576
 31
0.0
  0
LINE
  5
9D
330
98
100
AcDbEntity
  8
09-01
 62
     4
370
    -2
100
AcDbLine
 10
815.8862095254056
 20
1229.400933206576
 30
0.0
 11
828.3862095254056
 21
1229.400933206576
 31
0.0
  0
LINE
  5
9E
330
98
100
AcDbEntity
  8
09-01
 62
     4
370
    -2
100
AcDbLine
 10
773.3862095254056
 20
1229.400933206576
 30
0.0
 11
803.3862095254056
 21
1229.400933206576
 31
0.0
  0
SOLID
  5
9F
330
98
100
AcDbEntity
  8
09-01
 62
     4
100
AcDbTrace
 10
760.8862095254056
 20
1231.484266539909
 30
0.0
 11
760.8862095254056
 21
1227.317599873243
 31
0.0
 12
773.3862095254056
 22
1229.400933206576
 32
0.0
 13
773.3862095254056
 23
1229.400933206576
 33
0.0
  0
SOLID
  5
A0
330
98
100
AcDbEntity
  8
09-01
 62
     4
100
AcDbTrace
 10
815.8862095254056
 20
1231.484266539909
 30
0.0
 11
815.8862095254056
 21
1227.317599873243
 31
0.0
 12
803.3862095254056
 22
1229.400933206576
 32
0.0
 13
803.3862095254056
 23
1229.400933206576
 33
0.0
  0
MTEXT
  5
A1
330
98
100
AcDbEntity
  8
09-01
 62
     1
100
AcDbMText
 10
788.3862095254055
 20
1240.650933206576
 30
0.0
 40
12.5
 41
0.0
 46
0.0
 71
     5
 72
     1
  1
30
 73
     1
 44
1.0
  0
POINT
  5
A2
330
98
100
AcDbEntity
  8
DEFPOINTS
 62
     0
100
AcDbPoint
 10
773.3862095254056
 20
1206.626716746828
 30
0.0
  0
POINT
  5
A3
330
98
100
AcDbEntity
  8
DEFPOINTS
 62
     0
100
AcDbPoint
 10
803.3862095254056
 20
1211.726716746828
 30
0.0
  0
POINT
  5
A4
330
98
100
AcDbEntity
  8
DEFPOINTS
 62
     0
100
AcDbPoint
 10
803.3862095254056
 20
1229.400933206576
 30
0.0
  0
ENDBLK
  5
A5
330
98
100
AcDbEntity
  8
0
100
AcDbBlockEnd
  0
BLOCK
  5
8C
330
8B
100
AcDbEntity
  8
0
100
AcDbBlockBegin
  2
*D25
 70
     1
 10
0.0
 20
0.0
 30
0.0
  3
*D25
  1

  0
LINE
  5
8D
330
8B
100
AcDbEntity
  8
09-01
 62
     4
370
    -2
100
AcDbLine
 10
803.3862095254056
 20
1216.726716746828
 30
0.0
 11
803.3862095254056
 21
1234.400933206576
 31
0.0
  0
LINE
  5
8E
330
8B
100
AcDbEntity
  8
09-01
 62
     4
370
    -2
100
AcDbLine
 10
853.3862095254056
 20
1216.726716746828
 30
0.0
 11
853.3862095254056
 21
1234.400933206576
 31
0.0
  0
LINE
  5
8F
330
8B
100
AcDbEntity
  8
09-01
 62
     4
370
    -2
100
AcDbLine
 10
815.8862095254056
 20
1229.400933206576
 30
0.0
 11
840.8862095254056
 21
1229.400933206576
 31
0.0
  0
SOLID
  5
90
330
8B
100
AcDbEntity
  8
09-01
 62
     4
100
AcDbTrace
 10
815.8862095254056
 20
1231.484266539909
 30
0.0
 11
815.8862095254056
 21
1227.317599873243
 31
0.0
 12
803.3862095254056
 22
1229.400933206576
 32
0.0
 13
803.3862095254056
 23
1229.400933206576
 33
0.0
  0
SOLID
  5
91
330
8B
100
AcDbEntity
  8
09-01
 62
     4
100
AcDbTrace
 10
840.8862095254056
 20
1231.484266539909
 30
0.0
 11
840.8862095254056
 21
1227.317599873243
 31
0.0
 12
853.3862095254056
 22
1229.400933206576
 32
0.0
 13
853.3862095254056
 23
1229.400933206576
 33
0.0
  0
MTEXT
  5
92
330
8B
100
AcDbEntity
  8
09-01
 62
     1
100
AcDbMText
 10
828.3862095254056
 20
1240.650933206576
 30
0.0
 40
12.5
 41
0.0
 46
0.0
 71
     5
 72
     1
  1
50
 73
     1
 44
1.0
  0
POINT
  5
93
330
8B
100
AcDbEntity
  8
DEFPOINTS
 62
     0
100
AcDbPoint
 10
803.3862095254056
 20
1211.726716746828
 30
0.0
  0
POINT
  5
94
330
8B
100
AcDbEntity
  8
DEFPOINTS
 62
     0
100
AcDbPoint
 10
853.3862095254056
 20
1211.726716746828
 30
0.0
  0
POINT
  5
95
330
8B
100
AcDbEntity
  8
DEFPOINTS
 62
     0
100
AcDbPoint
 10
853.3862095254056
 20
1229.400933206576
 30
0.0
  0
ENDBLK
  5
96
330
8B
100
AcDbEntity
  8
0
100
AcDbBlockEnd
  0
BLOCK
  5
7B
330
7A
100
AcDbEntity
  8
0
100
AcDbBlockBegin
  2
*D26
 70
     1
 10
0.0
 20
0.0
 30
0.0
  3
*D26
  1

  0
LINE
  5
7C
330
7A
100
AcDbEntity
  8
09-01
 62
     4
370
    -2
100
AcDbLine
 10
800.8862095254055
 20
1201.626716746828
 30
0.0
 11
800.8862095254055
 21
1172.163057025049
 31
0.0
  0
LINE
  5
7D
330
7A
100
AcDbEntity
  8
09-01
 62
     4
370
    -2
100
AcDbLine
 10
805.8862095254054
 20
1201.626716746828
 30
0.0
 11
805.8862095254054
 21
1172.163057025049
 31
0.0
  0
LINE
  5
7E
330
7A
100
AcDbEntity
  8
09-01
 62
     4
370
    -2
100
AcDbLine
 10
788.3862095254055
 20
1177.163057025049
 30
0.0
 11
775.8862095254055
 21
1177.163057025049
 31
0.0
  0
LINE
  5
7F
330
7A
100
AcDbEntity
  8
09-01
 62
     4
370
    -2
100
AcDbLine
 10
818.3862095254054
 20
1177.163057025049
 30
0.0
 11
830.8862095254054
 21
1177.163057025049
 31
0.0
  0
MTEXT
  5
80
330
7A
100
AcDbEntity
  8
09-01
 62
     1
100
AcDbMText
 10
824.9098597096818
 20
1188.078657604019
 30
0.0
 40
12.5
 41
0.0
 46
0.0
 71
     5
 72
     1
  1
5
 73
     1
 44
1.0
  0
LINE
  5
81
330
7A
100
AcDbEntity
  8
09-01
 62
     4
370
    -2
100
AcDbLine
 10
800.8862095254055
 20
1177.163057025049
 30
0.0
 11
805.8862095254054
 21
1177.163057025049
 31
0.0
  0
SOLID
  5
82
330
7A
100
AcDbEntity
  8
09-01
 62
     4
100
AcDbTrace
 10
788.3862095254055
 20
1179.246390358382
 30
0.0
 11
788.3862095254055
 21
1175.079723691716
 31
0.0
 12
800.8862095254055
 22
1177.163057025049
 32
0.0
 13
800.8862095254055
 23
1177.163057025049
 33
0.0
  0
SOLID
  5
83
330
7A
100
AcDbEntity
  8
09-01
 62
     4
100
AcDbTrace
 10
818.3862095254054
 20
1179.246390358382
 30
0.0
 11
818.3862095254054
 21
1175.079723691716
 31
0.0
 12
805.8862095254054
 22
1177.163057025049
 32
0.0
 13
805.8862095254054
 23
1177.163057025049
 33
0.0
  0
POINT
  5
84
330
7A
100
AcDbEntity
  8
DEFPOINTS
 62
     0
100
AcDbPoint
 10
800.8862095254055
 20
1206.626716746828
 30
0.0
  0
POINT
  5
86
330
7A
100
AcDbEntity
  8
DEFPOINTS
 62
     0
100
AcDbPoint
 10
805.8862095254054
 20
1206.626716746828
 30
0.0
  0
POINT
  5
87
330
7A
100
AcDbEntity
  8
DEFPOINTS
 62
     0
100
AcDbPoint
 10
805.8862095254054
 20
1177.163057025049
 30
0.0
  0
ENDBLK
  5
88
330
7A
100
AcDbEntity
  8
0
100
AcDbBlockEnd
  0
ENDSEC
  0
SECTION
  2
ENTITIES
  0
DIMENSION
  5
79
330
2
100
AcDbEntity
  8
09-01
100
AcDbDimension
280
     0
  2
*D26
 10
805.8862095254054
 20
1177.163057025049
 30
0.0
 11
824.9098597096818
 21
1188.078657604019
 31
0.0
 70
   128
 71
     5
 42
5.0
 73
     0
 74
     0
 75
     0
  3
Wagner$0
100
AcDbAlignedDimension
 13
800.8862095254055
 23
1206.626716746828
 33
0.0
 14
805.8862095254054
 24
1206.626716746828
 34
0.0
100
AcDbRotatedDimension
1001
ACAD
1000
DSTYLE
1002
{
1070
    40
1040
5.0
1002
}
  0
DIMENSION
  5
8A
330
2
100
AcDbEntity
  8
09-01
100
AcDbDimension
280
     0
  2
*D25
 10
853.3862095254056
 20
1229.400933206576
 30
0.0
 11
828.3862095254056
 21
1240.650933206576
 31
0.0
 71
     5
 42
50.0
 73
     0
 74
     0
 75
     0
  3
Wagner$0
100
AcDbAlignedDimension
 13
803.3862095254056
 23
1211.726716746828
 33
0.0
 14
853.3862095254056
 24
1211.726716746828
 34
0.0
100
AcDbRotatedDimension
1001
ACAD
1000
DSTYLE
1002
{
1070
    40
1040
5.0
1002
}
  0
DIMENSION
  5
97
330
2
100
AcDbEntity
  8
09-01
100
AcDbDimension
280
     0
  2
*D24
 10
803.3862095254056
 20
1229.400933206576
 30
0.0
 11
788.3862095254055
 21
1240.650933206576
 31
0.0
 71
     5
 42
29.99999999999989
 73
     0
 74
     0
 75
     0
  3
Wagner$0
100
AcDbAlignedDimension
 13
773.3862095254056
 23
1206.626716746828
 33
0.0
 14
803.3862095254056
 24
1211.726716746828
 34
0.0
100
AcDbRotatedDimension
1001
ACAD
1000
DSTYLE
1002
{
1070
    40
1040
5.0
1002
}
  0
DIMENSION
  5
A6
330
2
100
AcDbEntity
  8
09-01
100
AcDbDimension
280
     0
  2
*D23
 10
746.228257814815
 20
678.6267167468287
 30
0.0
 11
734.9782578148149
 21
717.6267167468286
 31
0.0
 71
     5
 42
77.99999999999954
 73
     0
 74
     0
 75
     0
  3
Wagner$0
100
AcDbAlignedDimension
 13
798.2862095254056
 23
756.6267167468281
 33
0.0
 14
773.3862095254059
 24
678.6267167468285
 34
0.0
 50
90.0
100
AcDbRotatedDimension
1001
ACAD
1000
DSTYLE
1002
{
1070
    40
1040
5.0
1002
}
  0
DIMENSION
  5
B3
330
2
100
AcDbEntity
  8
09-01
100
AcDbDimension
280
     0
  2
*D22
 10
746.228257814815
 20
756.6267167468282
 30
0.0
 11
734.978257814815
 21
981.6267167468284
 31
0.0
 71
     5
 42
450.0
 73
     0
 74
     0
 75
     0
  3
Wagner$0
100
AcDbAlignedDimension
 13
798.2862095254056
 23
1206.626716746828
 33
0.0
 14
798.2862095254056
 24
756.6267167468281
 34
0.0
 50
90.0
100
AcDbRotatedDimension
1001
ACAD
1000
DSTYLE
1002
{
1070
    40
1040
5.0
1002
}
  0
DIMENSION
  5
C0
330
2
100
AcDbEntity
  8
09-01
100
AcDbDimension
280
     0
  2
*D21
 10
746.2282578148151
 20
1206.626716746828
 30
0.0
 11
734.978257814815
 21
1241.626716746828
 31
0.0
 71
     5
 42
70.0
 73
     0
 74
     0
 75
     0
  3
Wagner$0
100
AcDbAlignedDimension
 13
773.3862095254056
 23
1276.626716746828
 33
0.0
 14
798.2862095254056
 24
1206.626716746828
 34
0.0
 50
90.0
100
AcDbRotatedDimension
1001
ACAD
1000
DSTYLE
1002
{
1070
    40
1040
5.0
1002
}
  0
LINE
  5
CD
330
2
100
AcDbEntity
  8
05-01
100
AcDbLine
 10
858.9862095254055
 20
1206.626716746828
 30
0.0
 11
848.2862095254056
 21
1206.626716746828
 31
0.0
  0
LINE
  5
D2
330
2
100
AcDbEntity
  8
05-01
100
AcDbLine
 10
853.3862095254056
 20
1201.526716746828
 30
0.0
 11
853.3862095254056
 21
1211.726716746828
 31
0.0
  0
LINE
  5
D3
330
2
100
AcDbEntity
  8
05-01
100
AcDbLine
 10
808.9862095254055
 20
1206.626716746828
 30
0.0
 11
798.2862095254056
 21
1206.626716746828
 31
0.0
  0
LINE
  5
D4
330
2
100
AcDbEntity
  8
05-01
100
AcDbLine
 10
803.3862095254056
 20
1201.526716746828
 30
0.0
 11
803.3862095254056
 21
1211.726716746828
 31
0.0
  0
LINE
  5
D5
330
2
100
AcDbEntity
  8
05-01
100
AcDbLine
 10
858.9862095254055
 20
756.6267167468281
 30
0.0
 11
848.2862095254056
 21
756.6267167468281
 31
0.0
  0
LINE
  5
D6
330
2
100
AcDbEntity
  8
05-01
100
AcDbLine
 10
853.3862095254056
 20
751.526716746828
 30
0.0
 11
853.3862095254056
 21
761.7267167468281
 31
0.0
  0
LINE
  5
D7
330
2
100
AcDbEntity
  8
05-01
100
AcDbLine
 10
808.9862095254055
 20
756.6267167468281
 30
0.0
 11
798.2862095254056
 21
756.6267167468281
 31
0.0
  0
LINE
  5
D8
330
2
100
AcDbEntity
  8
05-01
100
AcDbLine
 10
803.3862095254056
 20
751.526716746828
 30
0.0
 11
803.3862095254056
 21
761.7267167468281
 31
0.0
  0
CIRCLE
  5
D9
330
2
100
AcDbEntity
  8
0
100
AcDbCircle
 10
803.3862095254056
 20
1206.626716746828
 30
0.0
 40
2.5
  0
CIRCLE
  5
DA
330
2
100
AcDbEntity
  8
0
100
AcDbCircle
 10
853.3862095254056
 20
1206.626716746828
 30
0.0
 40
2.5
  0
CIRCLE
  5
DB
330
2
100
AcDbEntity
  8
0
100
AcDbCircle
 10
803.3862095254056
 20
756.6267167468281
 30
0.0
 40
2.5
  0
CIRCLE
  5
DC
330
2
100
AcDbEntity
  8
0
100
AcDbCircle
 10
853.3862095254056
 20
756.6267167468281
 30
0.0
 40
2.5
  0
INSERT
  5
DD
330
2
100
AcDbEntity
  8
05-01
100
AcDbBlockReference
  2
Drahtkorb 023720-D
 10
417.3276041280623
 20
441.4573028081327
 30
0.0
  0
INSERT
  5
122
330
2
100
AcDbEntity
  8
05-01
100
AcDbBlockReference
  2
Drahtkorb 023720-S
 10
828.7862095254059
 20
693.6267167468286
 30
0.0
  0
LINE
  5
1C3
330
2
100
AcDbEntity
  8
03-01
100
AcDbLine
 10
891.5862095254064
 20
1122.088596962178
 30
0.0
 11
873.5192912882029
 21
1111.6576568545
 31
0.0
  0
LINE
  5
1C8
330
2
100
AcDbEntity
  8
03-01
100
AcDbLine
 10
873.5192912881993
 20
1090.395776639149
 30
0.0
 11
873.5192912882029
 21
1111.657656854499
 31
0.0
  0
LINE
  5
1C9
330
2
100
AcDbEntity
  8
03-01
100
AcDbLine
 10
891.5192912882028
 20
1090.395776639149
 30
0.0
 11
873.5192912882029
 21
1090.395776639149
 31
0.0
  0
LINE
  5
1CA
330
2
100
AcDbEntity
  8
03-01
100
AcDbLine
 10
893.3862095254056
 20
1135.388332512576
 30
0.0
 11
891.3862095254057
 21
1131.388332512576
 31
0.0
  0
LINE
  5
1CB
330
2
100
AcDbEntity
  8
03-01
100
AcDbLine
 10
891.3862095254057
 20
1131.388332512576
 30
0.0
 11
891.3862095254057
 21
1121.964365649028
 31
0.0
  0
ARC
  5
1CC
330
2
100
AcDbEntity
  8
03-01
100
AcDbCircle
 10
872.300136898821
 20
1136.549352165742
 30
0.0
 40
1.000000000000178
100
AcDbArc
 50
55.00000000001903
 51
234.9999999999868
  0
LINE
  5
1CD
330
2
100
AcDbEntity
  8
03-01
100
AcDbLine
 10
878.6077776451952
 20
1133.353469155574
 30
0.0
 11
872.8737133351723
 21
1137.368504210031
 31
0.0
  0
LINE
  5
1CE
330
2
100
AcDbEntity
  8
03-01
100
AcDbLine
 10
891.3862095254057
 20
1121.964365649028
 30
0.0
 11
871.7265604624703
 21
1135.730200121453
 31
0.0
  0
DIMENSION
  5
1CF
330
2
100
AcDbEntity
  8
09-01
100
AcDbDimension
280
     0
  2
*D20
 10
236.4759537395812
 20
1131.626716746828
 30
0.0
 11
225.225953739581
 21
1193.126716746828
 31
0.0
 71
     5
 42
123.0
 73
     0
 74
     0
 75
     0
  3
Wagner$0
100
AcDbAlignedDimension
 13
290.2543162500185
 23
1254.626716746828
 33
0.0
 14
290.2543162500185
 24
1131.626716746828
 34
0.0
 50
90.0
100
AcDbRotatedDimension
1001
ACAD
1000
DSTYLE
1002
{
1070
    40
1040
5.0
1002
}
  0
DIMENSION
  5
1DC
330
2
100
AcDbEntity
  8
09-01
100
AcDbDimension
280
     0
  2
*D19
 10
236.4759537395812
 20
1254.626716746828
 30
0.0
 11
225.225953739581
 21
1265.626716746828
 31
0.0
 71
     5
 42
22.00000000000045
 73
     0
 74
     0
 75
     0
  3
Wagner$0
100
AcDbAlignedDimension
 13
268.2543162500185
 23
1276.626716746828
 33
0.0
 14
290.2543162500185
 24
1254.626716746828
 34
0.0
 50
90.0
100
AcDbRotatedDimension
1001
ACAD
1000
DSTYLE
1002
{
1070
    40
1040
5.0
1002
}
  0
INSERT
  5
1EB
330
2
100
AcDbEntity
  8
05-01
100
AcDbBlockReference
  2
Gitterkorb WP134-01-v
 10
295.2543162500183
 20
693.6267167468286
 30
0.0
  0
LINE
  5
290
330
2
100
AcDbEntity
  8
03-01
100
AcDbLine
 10
774.9862095254057
 20
693.6267167468286
 30
0.0
 11
882.5862095254057
 21
693.6267167468286
 31
0.0
  0
DIMENSION
  5
291
330
2
100
AcDbEntity
  8
09-01
100
AcDbDimension
280
     0
  2
*D16
 10
923.8487608429638
 20
1276.626716746828
 30
0.0
 11
914.8639749378462
 21
1296.799297140969
 31
0.0
 70
   128
 71
     5
 73
     0
 74
     0
 75
     0
  3
Wagner$0
100
AcDbAlignedDimension
 13
893.3862095254056
 23
1275.626716746828
 33
0.0
 14
883.3862095254058
 24
1276.626716746828
 34
0.0
 50
90.0
100
AcDbRotatedDimension
1001
ACAD
1000
DSTYLE
1002
{
1070
    40
1040
5.0
1002
}
  0
DIMENSION
  5
2A0
330
2
100
AcDbEntity
  8
09-01
100
AcDbDimension
280
     0
  2
*D15
 10
566.2543162500185
 20
516.1378683486555
 30
0.0
 11
417.2543162500184
 21
527.3878683486555
 31
0.0
 71
     5
 42
298.0
 73
     0
 74
     0
 75
     0
  3
Wagner$0
100
AcDbAlignedDimension
 13
268.2543162500185
 23
496.3293389685374
 33
0.0
 14
566.2543162500185
 24
496.3293389685377
 34
0.0
100
AcDbRotatedDimension
1001
ACAD
1000
DSTYLE
1002
{
1070
    40
1040
5.0
1002
}
  0
INSERT
  5
2AD
330
2
100
AcDbEntity
  8
01-01
100
AcDbBlockReference
  2
aaaaWagner
 10
417.2543162500184
 20
1218.626716746828
 30
0.0
  0
LINE
  5
2C9
330
2
100
AcDbEntity
  8
0
100
AcDbLine
 10
530.7543162500185
 20
376.3293389685377
 30
0.0
 11
530.7543162500185
 21
374.5293389685378
 31
0.0
  0
LINE
  5
2CA
330
2
100
AcDbEntity
  8
0
100
AcDbLine
 10
547.7543162500185
 20
374.5293389685378
 30
0.0
 11
547.7543162500185
 21
376.3293389685377
 31
0.0
  0
LINE
  5
2CB
330
2
100
AcDbEntity
  8
0
100
AcDbLine
 10
530.7543162500185
 20
374.5293389685378
 30
0.0
 11
547.7543162500185
 21
374.5293389685378
 31
0.0
  0
LINE
  5
2CC
330
2
100
AcDbEntity
  8
0
100
AcDbLine
 10
532.0043162500184
 20
373.0293389685378
 30
0.0
 11
530.7543162500185
 21
374.5293389685378
 31
0.0
  0
LINE
  5
2CD
330
2
100
AcDbEntity
  8
0
100
AcDbLine
 10
546.5043162500185
 20
373.0293389685378
 30
0.0
 11
547.7543162500185
 21
374.5293389685378
 31
0.0
  0
LINE
  5
2CE
330
2
100
AcDbEntity
  8
0
100
AcDbLine
 10
546.5043162500185
 20
373.0293389685378
 30
0.0
 11
532.0043162500184
 21
373.0293389685378
 31
0.0
  0
LINE
  5
2CF
330
2
100
AcDbEntity
  8
0
100
AcDbLine
 10
893.3862095254058
 20
969.1270695049448
 30
0.0
 11
895.1862095254057
 21
969.1270695049448
 31
0.0
  0
LINE
  5
2D0
330
2
100
AcDbEntity
  8
0
100
AcDbLine
 10
895.1862095254057
 20
986.1270695049448
 30
0.0
 11
893.3862095254058
 21
986.1270695049448
 31
0.0
  0
LINE
  5
2D1
330
2
100
AcDbEntity
  8
0
100
AcDbLine
 10
895.1862095254057
 20
969.1270695049448
 30
0.0
 11
895.1862095254057
 21
986.1270695049448
 31
0.0
  0
LINE
  5
2D2
330
2
100
AcDbEntity
  8
0
100
AcDbLine
 10
896.6862095254057
 20
970.3770695049447
 30
0.0
 11
895.1862095254057
 21
969.1270695049448
 31
0.0
  0
LINE
  5
2D3
330
2
100
AcDbEntity
  8
0
100
AcDbLine
 10
896.6862095254057
 20
984.8770695049447
 30
0.0
 11
895.1862095254057
 21
986.1270695049448
 31
0.0
  0
LINE
  5
2D4
330
2
100
AcDbEntity
  8
0
100
AcDbLine
 10
896.6862095254057
 20
984.8770695049447
 30
0.0
 11
896.6862095254057
 21
970.3770695049447
 31
0.0
  0
DIMENSION
  5
2D5
330
2
100
AcDbEntity
  8
09-01
100
AcDbDimension
280
     0
  2
*D14
 10
594.3400451025853
 20
678.6267167468285
 30
0.0
 11
583.0900451025852
 21
828.1267167468287
 31
0.0
 71
     5
 42
299.0
 73
     0
 74
     0
 75
     0
  3
Wagner$0
100
AcDbAlignedDimension
 13
549.7543162500185
 23
977.6267167468287
 33
0.0
 14
566.2543162500185
 24
678.6267167468285
 34
0.0
 50
90.0
100
AcDbRotatedDimension
1001
ACAD
1000
DSTYLE
1002
{
1070
    40
1040
5.0
1002
}
  0
LINE
  5
2E2
330
2
100
AcDbEntity
  8
05-01
100
AcDbLine
 10
528.7543162500185
 20
977.6267167468287
 30
0.0
 11
549.7543162500185
 21
977.6267167468287
 31
0.0
  0
LINE
  5
2E3
330
2
100
AcDbEntity
  8
05-01
100
AcDbLine
 10
539.2543162500185
 20
988.1267167468285
 30
0.0
 11
539.2543162500185
 21
967.1267167468286
 31
0.0
  0
CIRCLE
  5
2E4
330
2
100
AcDbEntity
  8
0
100
AcDbCircle
 10
539.2543162500185
 20
977.6267167468287
 30
0.0
 40
8.5
  0
LINE
  5
2E5
330
2
100
AcDbEntity
  8
0
100
AcDbLine
 10
536.0588880879744
 20
978.8767167468286
 30
0.0
 11
536.0588880879744
 21
976.3767167468285
 31
0.0
  0
LINE
  5
2E6
330
2
100
AcDbEntity
  8
0
100
AcDbLine
 10
544.0543162500184
 20
978.8767167468286
 30
0.0
 11
544.0543162500184
 21
976.3767167468285
 31
0.0
  0
LWPOLYLINE
  5
2E7
330
2
100
AcDbEntity
  8
0
100
AcDbPolyline
 90
        2
 70
     0
 43
0.0
 10
542.2529247239043
 20
978.8767167468286
 10
544.0543162500184
 20
978.8767167468286
  0
LWPOLYLINE
  5
2E8
330
2
100
AcDbEntity
  8
0
100
AcDbPolyline
 90
        2
 70
     0
 43
0.0
 10
536.0588880879744
 20
978.8767167468286
 10
537.9227977049822
 20
978.8767167468286
  0
LWPOLYLINE
  5
2E9
330
2
100
AcDbEntity
  8
0
100
AcDbPolyline
 90
        2
 70
     0
 43
0.0
 10
542.2529247239043
 20
976.3767167468285
 10
544.0543162500184
 20
976.3767167468285
  0
LWPOLYLINE
  5
2EA
330
2
100
AcDbEntity
  8
0
100
AcDbPolyline
 90
        2
 70
     0
 43
0.0
 10
536.0588880879744
 20
976.3767167468285
 10
537.9227977049822
 20
976.3767167468285
  0
ARC
  5
2EB
330
2
100
AcDbEntity
  8
0
100
AcDbCircle
 10
540.0878612144432
 20
977.6267167468287
 30
0.0
 40
2.5
100
AcDbArc
 50
210.0000000000005
 51
329.9999999999995
  0
ARC
  5
2EC
330
2
100
AcDbEntity
  8
0
100
AcDbCircle
 10
540.0878612144432
 20
977.6267167468287
 30
0.0
 40
2.5
100
AcDbArc
 50
30.00000000000055
 51
149.9999999999994
  0
CIRCLE
  5
2ED
330
2
100
AcDbEntity
  8
0
100
AcDbCircle
 10
539.2543162500185
 20
977.6267167468287
 30
0.0
 40
7.25
  0
DIMENSION
  5
2EE
330
2
100
AcDbEntity
  8
09-01
100
AcDbDimension
280
     0
  2
*D13
 10
566.2543162500185
 20
1308.378190017554
 30
0.0
 11
555.2543162500184
 21
1319.628190017554
 31
0.0
 71
     5
 42
22.0
 73
     0
 74
     0
 75
     0
  3
Wagner$0
100
AcDbAlignedDimension
 13
544.2543162500185
 23
1254.626716746828
 33
0.0
 14
566.2543162500185
 24
1276.626716746828
 34
0.0
100
AcDbRotatedDimension
1001
ACAD
1000
DSTYLE
1002
{
1070
    40
1040
5.0
1002
}
  0
DIMENSION
  5
2FD
330
2
100
AcDbEntity
  8
09-01
100
AcDbDimension
280
     0
  2
*D12
 10
290.2543162500185
 20
1308.378190017554
 30
0.0
 11
279.2543162500185
 21
1319.628190017554
 31
0.0
 71
     5
 42
22.00000000000006
 73
     0
 74
     0
 75
     0
  3
Wagner$0
100
AcDbAlignedDimension
 13
268.2543162500185
 23
1276.626716746828
 33
0.0
 14
290.2543162500185
 24
1276.626716746828
 34
0.0
100
AcDbRotatedDimension
1001
ACAD
1000
DSTYLE
1002
{
1070
    40
1040
5.0
1002
}
  0
DIMENSION
  5
30C
330
2
100
AcDbEntity
  8
09-01
100
AcDbDimension
280
     0
  2
*D11
 10
566.2543162500185
 20
1335.052601128258
 30
0.0
 11
417.2543162500184
 21
1346.302601128258
 31
0.0
 71
     5
 42
298.0
 73
     0
 74
     0
 75
     0
  3
Wagner$0
100
AcDbAlignedDimension
 13
268.2543162500185
 23
1276.626716746828
 33
0.0
 14
566.2543162500185
 24
1276.626716746828
 34
0.0
100
AcDbRotatedDimension
1001
ACAD
1000
DSTYLE
1002
{
1070
    40
1040
5.0
1002
}
  0
INSERT
  5
319
330
2
100
AcDbEntity
  8
06-01
100
AcDbBlockReference
 66
     1
  2
DIN A4
 10
0.0000047422327043
 20
0.0000011094607544
 30
0.0
 41
5.0
 42
5.0
 43
5.0
  0
ATTRIB
  5
38F
330
319
100
AcDbEntity
  8
06-99
100
AcDbText
 10
582.4772336958858
 20
130.9391934864106
 30
0.0
 40
22.5
  1
Abfallbehälter WP 134
 41
0.9
  7
ROMANS8
100
AcDbAttribute
280
     0
  2
TEILE
 70
     0
280
     0
  0
ATTRIB
  5
390
330
319
100
AcDbEntity
  8
06-99
100
AcDbText
 10
464.985338996837
 20
137.208427340156
 30
0.0
 40
12.5
  1
Pfrepper
 41
0.9
  7
ROMANS8
100
AcDbAttribute
280
     0
  2
NAME
 70
     0
280
     0
  0
ATTRIB
  5
391
330
319
100
AcDbEntity
  8
06-99
100
AcDbText
 10
397.4657322594703
 20
137.3061758705557
 30
0.0
 40
12.5
  1
22.01.2013
 50
359.914459769614
 41
0.5691052222933157
  7
ROMANS8
 72
     5
 11
453.698685602194
 21
137.2222223333328
 31
0.0
100
AcDbAttribute
280
     0
  2
DATUM
 70
     0
280
     0
  0
ATTRIB
  5
392
330
319
100
AcDbEntity
  8
06-99
100
AcDbText
 10
956.7369310585727
 20
226.6666666666663
 30
0.0
 40
16.875
  1
1:5
  7
ROMANS8
100
AcDbAttribute
280
     0
  2
:
 70
     0
280
     0
  0
ATTRIB
  5
393
330
319
100
AcDbEntity
  8
06-99
100
AcDbText
 10
892.5317198357916
 20
37.46449900144308
 30
0.0
 40
14.9688
  1
727548
  7
ROMANS8
100
AcDbAttribute
280
     0
  2
ID.NR
 70
     0
280
     0
  0
ATTRIB
  5
394
330
319
100
AcDbEntity
  8
06-99
100
AcDbText
 10
582.5
 20
37.49999999999977
 30
0.0
 40
15.84
  1

 41
0.9000000000000001
  7
ROMANS8
100
AcDbAttribute
280
     0
  2
ARTIKEL-NR
 70
     0
280
     0
  0
ATTRIB
  5
395
330
319
100
AcDbEntity
  8
06-99
100
AcDbText
 10
730.0031694344006
 20
37.52198302177272
 30
0.0
 40
15.84
  1

 41
0.9000000000000001
  7
ROMANS8
100
AcDbAttribute
280
     0
  2
AUFTRAGS.NR.
 70
     0
280
     0
  0
ATTRIB
  5
396
330
319
100
AcDbEntity
  8
06-99
100
AcDbText
 10
583.6563312785528
 20
188.3333332222218
 30
0.0
 40
15.0
  1

 41
0.9
  7
ROMANS8
100
AcDbAttribute
280
     0
  2
LÄNGE
 70
     0
280
     0
  0
ATTRIB
  5
397
330
319
100
AcDbEntity
  8
06-99
100
AcDbText
 10
583.4040245588489
 20
226.723852685557
 30
0.0
 40
15.0
  1

 41
0.9
  7
ROMANS8
100
AcDbAttribute
280
     0
  2
BREITE
 70
     0
280
     0
  0
ATTRIB
  5
398
330
319
100
AcDbEntity
  8
06-99
100
AcDbText
 10
953.0454606336594
 20
188.3333333333334
 30
0.0
 40
15.46875
  1

  7
ROMANS8
100
AcDbAttribute
280
     0
  2
1.0
 70
     0
280
     0
  0
ATTRIB
  5
399
330
319
100
AcDbEntity
  8
06-99
100
AcDbText
 10
853.1389280070134
 20
188.333333333333
 30
0.0
 40
15.0
  1

  7
ROMANS8
 72
     1
 11
853.1389280070134
 21
188.333333333333
 31
0.0
100
AcDbAttribute
280
     0
  2
IV
 70
     0
280
     0
  0
ATTRIB
  5
39A
330
319
100
AcDbEntity
  8
06-99
100
AcDbText
 10
107.4973389009926
 20
32.98728198936169
 30
0.0
 40
7.5
  1

 41
0.9
  7
ROMANS8
100
AcDbAttribute
280
     0
  2
ERSETZT.FÜR
 70
     0
280
     0
  0
ATTRIB
  5
39B
330
319
100
AcDbEntity
  8
06-99
100
AcDbText
 10
232.4987549750415
 20
33.00905034629887
 30
0.0
 40
7.5
  1

 41
0.9
  7
ROMANS8
100
AcDbAttribute
280
     0
  2
ERSETZT.DURCH
 70
     0
280
     0
  0
ATTRIB
  5
39C
330
319
100
AcDbEntity
  8
06-99
100
AcDbText
 10
517.5443378441741
 20
205.1515033359899
 30
0.0
 40
11.7
  1

  7
ROMANS8
 72
     1
 11
517.5443378441741
 21
205.1515033359899
 31
0.0
100
AcDbAttribute
280
     0
  2
NORM1
 70
     0
280
     0
  0
ATTRIB
  5
39D
330
319
100
AcDbEntity
  8
06-99
100
AcDbText
 10
479.9371949870316
 20
185.9848366693234
 30
0.0
 40
11.7
  1
DIN 2768
  7
ROMANS8
 72
     1
 11
520.0514807013173
 21
185.9848366693234
 31
0.0
100
AcDbAttribute
280
     0
  2
NORM2
 70
     0
280
     0
  0
ATTRIB
  5
39E
330
319
100
AcDbEntity
  8
06-99
100
AcDbText
 10
499.8653632321881
 20
238.3425557000396
 30
0.0
 40
6.435
  1
DIN A4
  7
ROMANS8
 72
     1
 11
516.2592918036166
 21
238.3425557000396
 31
0.0
100
AcDbAttribute
280
     0
  2
FORMAT
 70
     0
280
     0
  0
ATTRIB
  5
39F
330
319
100
AcDbEntity
  8
06-99
100
AcDbText
 10
816.373702680579
 20
226.6666666666663
 30
0.0
 40
16.875
  1
1.4301
  7
ROMANS8
100
AcDbAttribute
280
     0
  2
1.4301
 70
     0
280
     0
  0
SEQEND
  5
3A0
330
319
100
AcDbEntity
  8
06-01
  0
DIMENSION
  5
3A1
330
2
100
AcDbEntity
  8
09-01
100
AcDbDimension
280
     0
  2
*D10
 10
625.7277780307961
 20
678.6267167468285
 30
0.0
 11
614.4777780307961
 21
977.6267167468288
 31
0.0
 71
     5
 42
598.0000000000001
 73
     0
 74
     0
 75
     0
  3
Wagner$0
100
AcDbAlignedDimension
 13
566.2543162500185
 23
1276.626716746828
 33
0.0
 14
566.2543162500185
 24
678.6267167468285
 34
0.0
 50
90.0
100
AcDbRotatedDimension
1001
ACAD
1000
DSTYLE
1002
{
1070
    40
1040
5.0
1002
}
  0
DIMENSION
  5
3AE
330
2
100
AcDbEntity
  8
09-01
100
AcDbDimension
280
     0
  2
*D9
 10
544.2543162500185
 20
1308.378190017554
 30
0.0
 11
417.2543162500184
 21
1319.628190017554
 31
0.0
 71
     5
 42
254.0
 73
     0
 74
     0
 75
     0
  3
Wagner$0
100
AcDbAlignedDimension
 13
290.2543162500185
 23
1254.626716746828
 33
0.0
 14
544.2543162500185
 24
1254.626716746828
 34
0.0
100
AcDbRotatedDimension
1001
ACAD
1000
DSTYLE
1002
{
1070
    40
1040
5.0
1002
}
  0
LINE
  5
3BB
330
2
100
AcDbEntity
  8
0
100
AcDbLine
 10
544.2543162500185
 20
1254.626716746828
 30
0.0
 11
544.2543162500185
 21
1131.626716746828
 31
0.0
  0
LINE
  5
3BC
330
2
100
AcDbEntity
  8
0
100
AcDbLine
 10
290.2543162500185
 20
1254.626716746828
 30
0.0
 11
290.2543162500185
 21
1131.626716746828
 31
0.0
  0
LINE
  5
3BD
330
2
100
AcDbEntity
  8
0
100
AcDbLine
 10
566.2543162500185
 20
496.3293389685377
 30
0.0
 11
566.2543162500185
 21
386.3293389685377
 31
0.0
  0
LINE
  5
3BE
330
2
100
AcDbEntity
  8
0
100
AcDbLine
 10
290.2543162500185
 20
1131.626716746828
 30
0.0
 11
544.2543162500185
 21
1131.626716746828
 31
0.0
  0
LINE
  5
3BF
330
2
100
AcDbEntity
  8
0
100
AcDbLine
 10
290.2543162500185
 20
1254.626716746828
 30
0.0
 11
544.2543162500185
 21
1254.626716746828
 31
0.0
  0
DIMENSION
  5
3C0
330
2
100
AcDbEntity
  8
09-01
100
AcDbDimension
280
     0
  2
*D8
 10
565.2543162500185
 20
348.1045618819205
 30
0.0
 11
417.2543162500184
 21
359.3545618819205
 31
0.0
 71
     5
 42
296.0
 73
     0
 74
     0
 75
     0
  3
Wagner$0
100
AcDbAlignedDimension
 13
269.2543162500185
 23
376.3293389685375
 33
0.0
 14
565.2543162500185
 24
376.3293389685377
 34
0.0
100
AcDbRotatedDimension
1001
ACAD
1000
DSTYLE
1002
{
1070
    40
1040
5.0
1002
}
  0
DIMENSION
  5
3CD
330
2
100
AcDbEntity
  8
09-01
100
AcDbDimension
280
     0
  2
*D7
 10
923.8487608429638
 20
679.6267167468286
 30
0.0
 11
906.3487608429637
 21
662.3613509851574
 31
0.0
 70
   128
 71
     5
 73
     0
 74
     0
 75
     0
  3
Wagner$0
100
AcDbAlignedDimension
 13
883.3862095254058
 23
678.6267167468285
 33
0.0
 14
893.3862095254058
 24
679.6267167468286
 34
0.0
 50
90.0
100
AcDbRotatedDimension
1001
ACAD
1000
DSTYLE
1002
{
1070
    40
1040
5.0
1002
}
  0
DIMENSION
  5
3DC
330
2
100
AcDbEntity
  8
09-01
100
AcDbDimension
280
     0
  2
*D6
 10
923.8487608429638
 20
1275.626716746828
 30
0.0
 11
912.5987608429637
 21
977.6267167468287
 31
0.0
 71
     5
 42
595.9999999999995
 73
     0
 74
     0
 75
     0
  3
Wagner$0
100
AcDbAlignedDimension
 13
893.3862095254058
 23
679.6267167468286
 33
0.0
 14
893.3862095254056
 24
1275.626716746828
 34
0.0
 50
90.0
100
AcDbRotatedDimension
1001
ACAD
1000
DSTYLE
1002
{
1070
    40
1040
5.0
1002
}
  0
DIMENSION
  5
3E9
330
2
100
AcDbEntity
  8
09-01
100
AcDbDimension
280
     0
  2
*D5
 10
893.3862095254056
 20
1312.617894308533
 30
0.0
 11
917.3798052351076
 21
1323.502329853051
 31
0.0
 70
   128
 71
     5
 42
9.999999999999886
 73
     0
 74
     0
 75
     0
  3
Wagner$0
100
AcDbAlignedDimension
 13
883.3862095254058
 23
1276.626716746828
 33
0.0
 14
893.3862095254056
 24
1275.626716746828
 34
0.0
100
AcDbRotatedDimension
1001
ACAD
1000
DSTYLE
1002
{
1070
    40
1040
5.0
1002
}
  0
DIMENSION
  5
3F8
330
2
100
AcDbEntity
  8
09-01
100
AcDbDimension
280
     0
  2
*D4
 10
883.3862095254058
 20
1312.617894308533
 30
0.0
 11
828.3862095254058
 21
1323.867894308533
 31
0.0
 71
     5
 42
110.0000000000001
 73
     0
 74
     0
 75
     0
  3
Wagner$0
100
AcDbAlignedDimension
 13
773.3862095254056
 23
1276.626716746828
 33
0.0
 14
883.3862095254058
 24
1276.626716746828
 34
0.0
100
AcDbRotatedDimension
1001
ACAD
1000
DSTYLE
1002
{
1070
    40
1040
5.0
1002
}
  0
DIMENSION
  5
405
330
2
100
AcDbEntity
  8
09-01
100
AcDbDimension
280
     0
  2
*D3
 10
893.3862095254056
 20
1340.060481196195
 30
0.0
 11
833.3862095254056
 21
1351.310481196195
 31
0.0
 71
     5
 42
120.0
 73
     0
 74
     0
 75
     0
  3
Wagner$0
100
AcDbAlignedDimension
 13
773.3862095254056
 23
1276.626716746828
 33
0.0
 14
893.3862095254056
 24
1275.626716746828
 34
0.0
100
AcDbRotatedDimension
1001
ACAD
1000
DSTYLE
1002
{
1070
    40
1040
5.0
1002
}
  0
LINE
  5
412
330
2
100
AcDbEntity
  8
0
100
AcDbLine
 10
268.2543162500185
 20
678.6267167468285
 30
0.0
 11
566.2543162500185
 21
678.6267167468285
 31
0.0
  0
LINE
  5
413
330
2
100
AcDbEntity
  8
0
100
AcDbLine
 10
268.2543162500185
 20
678.6267167468285
 30
0.0
 11
566.2543162500185
 21
678.6267167468285
 31
0.0
  0
LINE
  5
414
330
2
100
AcDbEntity
  8
03-01
100
AcDbLine
 10
269.054316250018
 20
693.6267167468286
 30
0.0
 11
565.4543162500186
 21
693.6267167468286
 31
0.0
  0
LINE
  5
415
330
2
100
AcDbEntity
  8
0
100
AcDbLine
 10
268.2543162500185
 20
496.3293389685374
 30
0.0
 11
566.2543162500185
 21
496.3293389685377
 31
0.0
  0
LINE
  5
416
330
2
100
AcDbEntity
  8
0
100
AcDbLine
 10
773.3862095254056
 20
1276.626716746828
 30
0.0
 11
773.3862095254059
 21
678.6267167468285
 31
0.0
  0
LINE
  5
417
330
2
100
AcDbEntity
  8
0
100
AcDbLine
 10
883.3862095254058
 20
679.6267167468286
 30
0.0
 11
893.3862095254058
 21
679.6267167468286
 31
0.0
  0
LINE
  5
418
330
2
100
AcDbEntity
  8
0
100
AcDbLine
 10
883.3862095254058
 20
1275.626716746828
 30
0.0
 11
893.3862095254056
 21
1275.626716746828
 31
0.0
  0
LINE
  5
419
330
2
100
AcDbEntity
  8
0
100
AcDbLine
 10
565.2543162500185
 20
386.3293389685377
 30
0.0
 11
565.2543162500185
 21
376.3293389685377
 31
0.0
  0
LINE
  5
41A
330
2
100
AcDbEntity
  8
0
100
AcDbLine
 10
269.2543162500184
 20
386.3293389685375
 30
0.0
 11
269.2543162500184
 21
376.3293389685375
 31
0.0
  0
LINE
  5
41B
330
2
100
AcDbEntity
  8
0
100
AcDbLine
 10
565.2543162500185
 20
1275.626716746828
 30
0.0
 11
565.2543162500185
 21
679.6267167468281
 31
0.0
  0
LINE
  5
41C
330
2
100
AcDbEntity
  8
0
100
AcDbLine
 10
269.2727566117173
 20
1275.626716746828
 30
0.0
 11
565.2543162500185
 21
1275.626716746828
 31
0.0
  0
LINE
  5
41D
330
2
100
AcDbEntity
  8
0
100
AcDbLine
 10
269.2727566117173
 20
1275.608276385129
 30
0.0
 11
269.2727566117173
 21
679.6267167468286
 31
0.0
  0
LINE
  5
41E
330
2
100
AcDbEntity
  8
0
100
AcDbLine
 10
269.2727566117173
 20
679.6267167468286
 30
0.0
 11
565.2543162500185
 21
679.6267167468281
 31
0.0
  0
LINE
  5
41F
330
2
100
AcDbEntity
  8
0
100
AcDbLine
 10
893.3862095254058
 20
936.8886037293192
 30
0.0
 11
893.3862095254058
 21
679.6267167468286
 31
0.0
  0
LINE
  5
420
330
2
100
AcDbEntity
  8
0
100
AcDbLine
 10
269.2543162500184
 20
376.3293389685375
 30
0.0
 11
565.2543162500185
 21
376.3293389685377
 31
0.0
  0
LINE
  5
421
330
2
100
AcDbEntity
  8
0
100
AcDbLine
 10
268.2543162500185
 20
386.3293389685375
 30
0.0
 11
566.2543162500185
 21
386.3293389685377
 31
0.0
  0
LINE
  5
422
330
2
100
AcDbEntity
  8
0
100
AcDbLine
 10
268.2543162500185
 20
496.3293389685374
 30
0.0
 11
268.2543162500185
 21
386.3293389685375
 31
0.0
  0
LINE
  5
423
330
2
100
AcDbEntity
  8
0
100
AcDbLine
 10
268.2543162500185
 20
678.6267167468285
 30
0.0
 11
566.2543162500185
 21
678.6267167468285
 31
0.0
  0
LINE
  5
424
330
2
100
AcDbEntity
  8
0
100
AcDbLine
 10
268.2543162500185
 20
1276.626716746828
 30
0.0
 11
566.2543162500185
 21
1276.626716746828
 31
0.0
  0
LINE
  5
425
330
2
100
AcDbEntity
  8
0
100
AcDbLine
 10
566.2543162500185
 20
1276.626716746828
 30
0.0
 11
566.2543162500185
 21
678.6267167468285
 31
0.0
  0
LINE
  5
426
330
2
100
AcDbEntity
  8
0
100
AcDbLine
 10
893.3862095254056
 20
1275.626716746828
 30
0.0
 11
893.3862095254058
 21
936.8886037293192
 31
0.0
  0
LINE
  5
427
330
2
100
AcDbEntity
  8
0
100
AcDbLine
 10
773.3862095254059
 20
678.6267167468285
 30
0.0
 11
883.3862095254058
 21
678.6267167468285
 31
0.0
  0
LINE
  5
428
330
2
100
AcDbEntity
  8
0
100
AcDbLine
 10
883.3862095254058
 20
1276.626716746828
 30
0.0
 11
883.3862095254056
 21
678.6267167468285
 31
0.0
  0
LINE
  5
429
330
2
100
AcDbEntity
  8
0
100
AcDbLine
 10
773.3862095254056
 20
1276.626716746828
 30
0.0
 11
883.3862095254058
 21
1276.626716746828
 31
0.0
  0
LINE
  5
42A
330
2
100
AcDbEntity
  8
0
100
AcDbLine
 10
268.2543162500185
 20
1276.626716746828
 30
0.0
 11
268.2543162500185
 21
678.6267167468285
 31
0.0
  0
ENDSEC
  0
SECTION
  2
OBJECTS
  0
DICTIONARY
  5
B
330
0
100
AcDbDictionary
281
     1
  3
ACAD_COLOR
350
4C
  3
ACAD_GROUP
350
39
  3
ACAD_LAYOUT
350
18
  3
ACAD_MATERIAL
350
D
  3
ACAD_MLEADERSTYLE
350
4F
  3
ACAD_MLINESTYLE
350
3A
  3
ACAD_PLOTSETTINGS
350
3B
  3
ACAD_PLOTSTYLENAME
350
A
  3
ACAD_SCALELIST
350
4D
  3
ACAD_TABLESTYLE
350
4E
  3
ACAD_VISUALSTYLE
350
2F
  3
ACDB_RECOMPOSE_DATA
350
438
  3
AcDbVariableDictionary
350
42E
  0
DICTIONARY
  5
30
330
2C
100
AcDbDictionary
280
     1
281
     1
  0
DICTIONARY
  5
1F
330
1E
100
AcDbDictionary
280
     1
281
     1
  3
ACAD_LAYERFILTERS
360
20
  3
ACAD_LAYERSTATES
360
21
  3
ACLYDICTIONARY
360
22
  0
DICTIONARY
  5
7
330
6
100
AcDbDictionary
280
     1
281
     1
  3
ADSK_XREC_LAYER_RECONCILED
360
8
  0
DICTIONARY
  5
323
330
322
100
AcDbDictionary
280
     1
281
     1
  3
ADSK_XREC_LAYER_RECONCILED
360
324
  0
DICTIONARY
  5
361
330
360
100
AcDbDictionary
280
     1
281
     1
  3
ADSK_XREC_LAYER_RECONCILED
360
362
  0
DICTIONARY
  5
329
330
328
100
AcDbDictionary
280
     1
281
     1
  3
ADSK_XREC_LAYER_RECONCILED
360
32A
  0
DICTIONARY
  5
34B
330
34A
100
AcDbDictionary
280
     1
281
     1
  3
ADSK_XREC_LAYER_RECONCILED
360
34C
  0
DICTIONARY
  5
2AF
330
2AE
100
AcDbDictionary
280
     1
281
     1
  3
ADSK_XREC_LAYER_RECONCILED
360
2B0
  0
DICTIONARY
  5
1C5
330
1C4
100
AcDbDictionary
280
     1
281
     1
  3
ADSK_XREC_LAYER_RECONCILED
360
1C6
  0
DICTIONARY
  5
CF
330
CE
100
AcDbDictionary
280
     1
281
     1
  3
ADSK_XREC_LAYER_RECONCILED
360
D0
  0
DICTIONARY
  5
51
330
50
100
AcDbDictionary
280
     1
281
     1
  3
ADSK_XREC_LAYER_RECONCILED
360
52
  0
DICTIONARY
  5
31B
330
31A
100
AcDbDictionary
280
     1
281
     1
  3
ADSK_XREC_LAYER_RECONCILED
360
31C
  0
DICTIONARY
  5
2B7
330
2B6
100
AcDbDictionary
280
     1
281
     1
  0
DICTIONARY
  5
3
330
2
100
AcDbDictionary
280
     1
281
     1
  3
ACAD_SORTENTS
360
42D
  0
DICTIONARY
  5
31E
330
31D
100
AcDbDictionary
280
     1
281
     1
  3
ACAD_SORTENTS
360
42C
  0
DICTIONARY
  5
2B2
330
2B1
100
AcDbDictionary
280
     1
281
     1
  3
ACAD_SORTENTS
360
42B
  0
DICTIONARY
  5
4C
102
{ACAD_REACTORS
330
B
102
}
330
B
100
AcDbDictionary
281
     1
  0
DICTIONARY
  5
39
102
{ACAD_REACTORS
330
B
102
}
330
B
100
AcDbDictionary
281
     1
  0
DICTIONARY
  5
18
102
{ACAD_REACTORS
330
B
102
}
330
B
100
AcDbDictionary
281
     1
  3
Layout1
350
1D
  3
Model
350
17
  0
DICTIONARY
  5
D
102
{ACAD_REACTORS
330
B
102
}
330
B
100
AcDbDictionary
281
     1
  3
ByBlock
350
44
  3
ByLayer
350
3C
  3
Global
350
C
  0
DICTIONARY
  5
4F
102
{ACAD_REACTORS
330
B
102
}
330
B
100
AcDbDictionary
281
     1
  0
DICTIONARY
  5
3A
102
{ACAD_REACTORS
330
B
102
}
330
B
100
AcDbDictionary
281
     1
  3
Standard
350
53
  0
DICTIONARY
  5
3B
102
{ACAD_REACTORS
330
B
102
}
330
B
100
AcDbDictionary
281
     1
  0
ACDBDICTIONARYWDFLT
  5
A
102
{ACAD_REACTORS
330
B
102
}
330
B
100
AcDbDictionary
281
     1
  3
Normal
350
9
100
AcDbDictionaryWithDefault
340
9
  0
DICTIONARY
  5
4D
102
{ACAD_REACTORS
330
B
102
}
330
B
100
AcDbDictionary
281
     1
  3
A0
350
58
  3
A1
350
59
  3
A2
350
5A
  3
A3
350
5B
  3
A4
350
5C
  3
A5
350
5D
  3
A6
350
5E
  3
A7
350
5F
  3
A8
350
60
  3
A9
350
61
  3
B0
350
62
  3
B1
350
63
  3
B2
350
64
  3
B3
350
65
  3
B4
350
66
  3
B5
350
67
  3
B6
350
68
  3
B7
350
69
  3
B8
350
6A
  3
B9
350
6B
  3
C0
350
6C
  3
C1
350
6D
  3
C2
350
6E
  3
C3
350
6F
  3
C4
350
70
  3
C5
350
71
  3
C6
350
72
  3
C7
350
73
  3
C8
350
74
  3
C9
350
75
  3
D0
350
76
  3
D1
350
77
  3
D2
350
78
  0
DICTIONARY
  5
4E
102
{ACAD_REACTORS
330
B
102
}
330
B
100
AcDbDictionary
281
     1
  3
Standard
350
54
  0
DICTIONARY
  5
2F
102
{ACAD_REACTORS
330
B
102
}
330
B
100
AcDbDictionary
281
     1
  3
2dWireframe
350
2E
  3
3dWireframe
350
57
  3
Realistic
350
56
  0
XRECORD
  5
438
102
{ACAD_REACTORS
330
B
102
}
330
B
100
AcDbXrecord
280
     1
 90
        1
330
54
  0
DICTIONARY
  5
42E
102
{ACAD_REACTORS
330
B
102
}
330
B
100
AcDbDictionary
281
     1
  3
CANNOSCALE
350
432
  3
CMLEADERSTYLE
350
430
  3
CTABLESTYLE
350
42F
  3
LAYEREVAL
350
434
  3
LAYERNOTIFY
350
435
  3
LIGHTINGUNITS
350
433
  3
MSLTSCALE
350
431
  0
DICTIONARY
  5
20
102
{ACAD_REACTORS
330
1F
102
}
330
1F
100
AcDbDictionary
281
     1
  0
DICTIONARY
  5
21
102
{ACAD_REACTORS
330
1F
102
}
330
1F
100
AcDbDictionary
281
     1
  0
DICTIONARY
  5
22
102
{ACAD_REACTORS
330
1F
102
}
330
1F
100
AcDbDictionary
281
     1
1001
ACAD
1000
<All
  0
XRECORD
  5
8
102
{ACAD_REACTORS
330
7
102
}
330
7
100
AcDbXrecord
280
     1
290
     1
  0
XRECORD
  5
324
102
{ACAD_REACTORS
330
323
102
}
330
323
100
AcDbXrecord
280
     1
290
     1
  0
XRECORD
  5
362
102
{ACAD_REACTORS
330
361
102
}
330
361
100
AcDbXrecord
280
     1
290
     1
  0
XRECORD
  5
32A
102
{ACAD_REACTORS
330
329
102
}
330
329
100
AcDbXrecord
280
     1
290
     1
  0
XRECORD
  5
34C
102
{ACAD_REACTORS
330
34B
102
}
330
34B
100
AcDbXrecord
280
     1
290
     1
  0
XRECORD
  5
2B0
102
{ACAD_REACTORS
330
2AF
102
}
330
2AF
100
AcDbXrecord
280
     1
290
     1
  0
XRECORD
  5
1C6
102
{ACAD_REACTORS
330
1C5
102
}
330
1C5
100
AcDbXrecord
280
     1
290
     1
  0
XRECORD
  5
D0
102
{ACAD_REACTORS
330
CF
102
}
330
CF
100
AcDbXrecord
280
     1
290
     1
  0
XRECORD
  5
52
102
{ACAD_REACTORS
330
51
102
}
330
51
100
AcDbXrecord
280
     1
290
     1
  0
XRECORD
  5
31C
102
{ACAD_REACTORS
330
31B
102
}
330
31B
100
AcDbXrecord
280
     1
290
     1
  0
SORTENTSTABLE
  5
42D
102
{ACAD_REACTORS
330
3
102
}
330
3
100
AcDbSortentsTable
330
2
331
3F8
  5
1CD
331
1CF
  5
3DC
331
2D3
  5
2EA
331
319
  5
2CC
331
2E6
  5
2E3
331
41E
  5
D7
331
3BF
  5
290
331
2CD
  5
30C
331
D7
  5
41E
331
30C
  5
2CD
331
2AD
  5
3BC
331
2EC
  5
2D1
331
424
  5
CD
331
97
  5
428
331
2A0
  5
3BD
331
1C8
  5
415
331
DD
  5
418
331
417
  5
122
331
8A
  5
429
331
42A
  5
79
331
1CE
  5
3E9
331
2D2
  5
2EB
331
2E5
  5
2E4
331
41D
  5
D8
331
3BE
  5
291
331
2CC
  5
319
331
122
  5
417
331
D6
  5
41F
331
2EB
  5
2D2
331
423
  5
D2
331
DC
  5
419
331
416
  5
1C3
331
429
  5
8A
331
1CD
  5
3F8
331
2D1
  5
2EC
331
2E4
  5
2E5
331
41C
  5
D9
331
3E9
  5
1CE
331
3BD
  5
2A0
331
2CB
  5
3A1
331
D5
  5
420
331
3DC
  5
1CF
331
2EA
  5
2D3
331
422
  5
D3
331
2FD
  5
2CE
331
DB
  5
41A
331
291
  5
3BE
331
415
  5
1C8
331
2D0
  5
2ED
331
428
  5
97
331
1CC
  5
405
331
2E3
  5
2E6
331
3BC
  5
2AD
331
41B
  5
DA
331
1EB
  5
3C0
331
2CA
  5
3AE
331
D4
  5
421
331
2E9
  5
2D4
331
421
  5
D4
331
DA
  5
41B
331
290
  5
3BF
331
414
  5
1C9
331
427
  5
A6
331
CD
  5
424
331
1CB
  5
412
331
2E2
  5
2E7
331
3BB
  5
2C9
331
41A
  5
DB
331
C0
  5
425
331
2C9
  5
3BB
331
D3
  5
422
331
2D5
  5
2E8
331
2E8
  5
2D5
331
B3
  5
426
331
3AE
  5
2CA
331
420
  5
D5
331
2CF
  5
2EE
331
3CD
  5
1DC
331
A6
  5
427
331
3A1
  5
2CB
331
D9
  5
41C
331
2EE
  5
2CF
331
413
  5
1CA
331
3C0
  5
1EB
331
426
  5
B3
331
1CA
  5
413
331
79
  5
42A
331
419
  5
DC
331
D2
  5
423
331
2D4
  5
2E9
331
2E7
  5
2E2
331
41F
  5
D6
331
1C3
  5
416
331
2CE
  5
2FD
331
D8
  5
41D
331
2ED
  5
2D0
331
412
  5
1CB
331
425
  5
C0
331
1C9
  5
414
331
405
  5
1CC
331
1DC
  5
3CD
331
418
  5
DD
  0
SORTENTSTABLE
  5
42C
102
{ACAD_REACTORS
330
31E
102
}
330
31E
100
AcDbSortentsTable
330
31D
  0
SORTENTSTABLE
  5
42B
102
{ACAD_REACTORS
330
2B2
102
}
330
2B2
100
AcDbSortentsTable
330
2B1
  0
LAYOUT
  5
1D
102
{ACAD_REACTORS
330
18
102
}
330
18
100
AcDbPlotSettings
  1

  2
HP LaserJet 4 Plus
  4

  6

 40
0.0
 41
0.0
 42
0.0
 43
0.0
 44
0.0
 45
0.0
 46
0.0
 47
0.0
 48
0.0
 49
0.0
140
0.0
141
0.0
142
1.0
143
1.0
 70
   688
 72
     0
 73
     0
 74
     5
  7
CNC-Soft.ctb
 75
    16
147
1.0
 76
     0
 77
     2
 78
   300
148
0.0
149
0.0
100
AcDbLayout
  1
Layout1
 70
     0
 71
     1
 10
0.0
 20
0.0
 11
12.0
 21
9.0
 12
0.0
 22
0.0
 32
0.0
 14
1.000000000000000E+20
 24
1.000000000000000E+20
 34
1.000000000000000E+20
 15
-1.000000000000000E+20
 25
-1.000000000000000E+20
 35
-1.000000000000000E+20
146
0.0
 13
0.0
 23
0.0
 33
0.0
 16
1.0
 26
0.0
 36
0.0
 17
0.0
 27
1.0
 37
0.0
 76
     0
330
1A
  0
LAYOUT
  5
17
102
{ACAD_REACTORS
330
18
102
}
330
18
100
AcDbPlotSettings
  1

  2
none_device
  4
Letter_(8.50_x_11.00_Inches)
  6

 40
6.349999904632568
 41
6.349999904632568
 42
6.350006103515625
 43
6.350006103515625
 44
215.8999938964844
 45
279.3999938964844
 46
0.0
 47
0.0
 48
0.0
 49
0.0
140
0.0
141
0.0
142
1.0
143
289.9327271506848
 70
 11952
 72
     0
 73
     1
 74
     0
  7
CNC-Soft.ctb
 75
     0
147
0.0034490759626466
 76
     0
 77
     2
 78
   300
148
24401.63813079199
149
569.5043340000819
100
AcDbLayout
  1
Model
 70
     1
 71
     0
 10
0.0
 20
0.0
 11
12.0
 21
9.0
 12
0.0
 22
0.0
 32
0.0
 14
0.0
 24
0.0
 34
0.0
 15
0.0
 25
0.0
 35
0.0
146
0.0
 13
0.0
 23
0.0
 33
0.0
 16
1.0
 26
0.0
 36
0.0
 17
0.0
 27
1.0
 37
0.0
 76
     0
330
2
331
2D
1001
ACAD_PSEXT
1000
Kein
1000
Kein
1000
Nicht anwendbar
1000
Das Layout wird erst geplottet, wenn ein neuer Plotter-Konfigurationsname ausgewählt wird.
1070
     0
  0
MATERIAL
  5
44
102
{ACAD_XDICTIONARY
360
45
102
}
102
{ACAD_REACTORS
330
D
102
}
330
D
100
AcDbMaterial
  1
ByBlock
 72
     0
 43
0.0208333333333333
 43
0.0
 43
0.0
 43
0.0
 43
0.0
 43
0.0208333333333333
 43
0.0
 43
0.0
 43
0.0
 43
0.0
 43
1.0
 43
0.0
 43
0.0
 43
0.0
 43
0.0
 43
1.0
 77
     0
 47
0.0208333333333333
 47
0.0
 47
0.0
 47
0.0
 47
0.0
 47
0.0208333333333333
 47
0.0
 47
0.0
 47
0.0
 47
0.0
 47
1.0
 47
0.0
 47
0.0
 47
0.0
 47
0.0
 47
1.0
171
     0
 49
0.0208333333333333
 49
0.0
 49
0.0
 49
0.0
 49
0.0
 49
0.0208333333333333
 49
0.0
 49
0.0
 49
0.0
 49
0.0
 49
1.0
 49
0.0
 49
0.0
 49
0.0
 49
0.0
 49
1.0
175
     0
142
0.0208333333333333
142
0.0
142
0.0
142
0.0
142
0.0
142
0.0208333333333333
142
0.0
142
0.0
142
0.0
142
0.0
142
1.0
142
0.0
142
0.0
142
0.0
142
0.0
142
1.0
179
     0
144
0.0208333333333333
144
0.0
144
0.0
144
0.0
144
0.0
144
0.0208333333333333
144
0.0
144
0.0
144
0.0
144
0.0
144
1.0
144
0.0
144
0.0
144
0.0
144
0.0
144
1.0
147
0.0208333333333333
147
0.0
147
0.0
147
0.0
147
0.0
147
0.0208333333333333
147
0.0
147
0.0
147
0.0
147
0.0
147
1.0
147
0.0
147
0.0
147
0.0
147
0.0
147
1.0
  0
MATERIAL
  5
3C
102
{ACAD_XDICTIONARY
360
3D
102
}
102
{ACAD_REACTORS
330
D
102
}
330
D
100
AcDbMaterial
  1
ByLayer
 72
     0
 43
0.0208333333333333
 43
0.0
 43
0.0
 43
0.0
 43
0.0
 43
0.0208333333333333
 43
0.0
 43
0.0
 43
0.0
 43
0.0
 43
1.0
 43
0.0
 43
0.0
 43
0.0
 43
0.0
 43
1.0
 77
     0
 47
0.0208333333333333
 47
0.0
 47
0.0
 47
0.0
 47
0.0
 47
0.0208333333333333
 47
0.0
 47
0.0
 47
0.0
 47
0.0
 47
1.0
 47
0.0
 47
0.0
 47
0.0
 47
0.0
 47
1.0
171
     0
 49
0.0208333333333333
 49
0.0
 49
0.0
 49
0.0
 49
0.0
 49
0.0208333333333333
 49
0.0
 49
0.0
 49
0.0
 49
0.0
 49
1.0
 49
0.0
 49
0.0
 49
0.0
 49
0.0
 49
1.0
175
     0
142
0.0208333333333333
142
0.0
142
0.0
142
0.0
142
0.0
142
0.0208333333333333
142
0.0
142
0.0
142
0.0
142
0.0
142
1.0
142
0.0
142
0.0
142
0.0
142
0.0
142
1.0
179
     0
144
0.0208333333333333
144
0.0
144
0.0
144
0.0
144
0.0
144
0.0208333333333333
144
0.0
144
0.0
144
0.0
144
0.0
144
1.0
144
0.0
144
0.0
144
0.0
144
0.0
144
1.0
147
0.0208333333333333
147
0.0
147
0.0
147
0.0
147
0.0
147
0.0208333333333333
147
0.0
147
0.0
147
0.0
147
0.0
147
1.0
147
0.0
147
0.0
147
0.0
147
0.0
147
1.0
  0
MATERIAL
  5
C
102
{ACAD_XDICTIONARY
360
E
102
}
102
{ACAD_REACTORS
330
D
102
}
330
D
100
AcDbMaterial
  1
Global
 72
     0
 43
0.0208333333333333
 43
0.0
 43
0.0
 43
0.0
 43
0.0
 43
0.0208333333333333
 43
0.0
 43
0.0
 43
0.0
 43
0.0
 43
1.0
 43
0.0
 43
0.0
 43
0.0
 43
0.0
 43
1.0
 77
     0
 47
0.0208333333333333
 47
0.0
 47
0.0
 47
0.0
 47
0.0
 47
0.0208333333333333
 47
0.0
 47
0.0
 47
0.0
 47
0.0
 47
1.0
 47
0.0
 47
0.0
 47
0.0
 47
0.0
 47
1.0
171
     0
 49
0.0208333333333333
 49
0.0
 49
0.0
 49
0.0
 49
0.0
 49
0.0208333333333333
 49
0.0
 49
0.0
 49
0.0
 49
0.0
 49
1.0
 49
0.0
 49
0.0
 49
0.0
 49
0.0
 49
1.0
175
     0
142
0.0208333333333333
142
0.0
142
0.0
142
0.0
142
0.0
142
0.0208333333333333
142
0.0
142
0.0
142
0.0
142
0.0
142
1.0
142
0.0
142
0.0
142
0.0
142
0.0
142
1.0
179
     0
144
0.0208333333333333
144
0.0
144
0.0
144
0.0
144
0.0
144
0.0208333333333333
144
0.0
144
0.0
144
0.0
144
0.0
144
1.0
144
0.0
144
0.0
144
0.0
144
0.0
144
1.0
147
0.0208333333333333
147
0.0
147
0.0
147
0.0
147
0.0
147
0.0208333333333333
147
0.0
147
0.0
147
0.0
147
0.0
147
1.0
147
0.0
147
0.0
147
0.0
147
0.0
147
1.0
  0
MLINESTYLE
  5
53
102
{ACAD_REACTORS
330
3A
102
}
330
3A
100
AcDbMlineStyle
  2
STANDARD
 70
     0
  3

 62
   256
 51
90.0
 52
90.0
 71
     2
 49
0.5
 62
   256
  6
BYLAYER
 49
-0.5
 62
   256
  6
BYLAYER
  0
ACDBPLACEHOLDER
  5
9
102
{ACAD_REACTORS
330
A
102
}
330
A
  0
SCALE
  5
58
102
{ACAD_REACTORS
330
4D
102
}
330
4D
100
AcDbScale
 70
     0
300
1:1
140
1.0
141
1.0
290
     1
  0
SCALE
  5
59
102
{ACAD_REACTORS
330
4D
102
}
330
4D
100
AcDbScale
 70
     0
300
1:2
140
1.0
141
2.0
290
     0
  0
SCALE
  5
5A
102
{ACAD_REACTORS
330
4D
102
}
330
4D
100
AcDbScale
 70
     0
300
1:4
140
1.0
141
4.0
290
     0
  0
SCALE
  5
5B
102
{ACAD_REACTORS
330
4D
102
}
330
4D
100
AcDbScale
 70
     0
300
1:5
140
1.0
141
5.0
290
     0
  0
SCALE
  5
5C
102
{ACAD_REACTORS
330
4D
102
}
330
4D
100
AcDbScale
 70
     0
300
1:8
140
1.0
141
8.0
290
     0
  0
SCALE
  5
5D
102
{ACAD_REACTORS
330
4D
102
}
330
4D
100
AcDbScale
 70
     0
300
1:10
140
1.0
141
10.0
290
     0
  0
SCALE
  5
5E
102
{ACAD_REACTORS
330
4D
102
}
330
4D
100
AcDbScale
 70
     0
300
1:16
140
1.0
141
16.0
290
     0
  0
SCALE
  5
5F
102
{ACAD_REACTORS
330
4D
102
}
330
4D
100
AcDbScale
 70
     0
300
1:20
140
1.0
141
20.0
290
     0
  0
SCALE
  5
60
102
{ACAD_REACTORS
330
4D
102
}
330
4D
100
AcDbScale
 70
     0
300
1:30
140
1.0
141
30.0
290
     0
  0
SCALE
  5
61
102
{ACAD_REACTORS
330
4D
102
}
330
4D
100
AcDbScale
 70
     0
300
1:40
140
1.0
141
40.0
290
     0
  0
SCALE
  5
62
102
{ACAD_REACTORS
330
4D
102
}
330
4D
100
AcDbScale
 70
     0
300
1:50
140
1.0
141
50.0
290
     0
  0
SCALE
  5
63
102
{ACAD_REACTORS
330
4D
102
}
330
4D
100
AcDbScale
 70
     0
300
1:100
140
1.0
141
100.0
290
     0
  0
SCALE
  5
64
102
{ACAD_REACTORS
330
4D
102
}
330
4D
100
AcDbScale
 70
     0
300
2:1
140
2.0
141
1.0
290
     0
  0
SCALE
  5
65
102
{ACAD_REACTORS
330
4D
102
}
330
4D
100
AcDbScale
 70
     0
300
4:1
140
4.0
141
1.0
290
     0
  0
SCALE
  5
66
102
{ACAD_REACTORS
330
4D
102
}
330
4D
100
AcDbScale
 70
     0
300
8:1
140
8.0
141
1.0
290
     0
  0
SCALE
  5
67
102
{ACAD_REACTORS
330
4D
102
}
330
4D
100
AcDbScale
 70
     0
300
10:1
140
10.0
141
1.0
290
     0
  0
SCALE
  5
68
102
{ACAD_REACTORS
330
4D
102
}
330
4D
100
AcDbScale
 70
     0
300
100:1
140
100.0
141
1.0
290
     0
  0
SCALE
  5
69
102
{ACAD_REACTORS
330
4D
102
}
330
4D
100
AcDbScale
 70
     0
300
1/128" = 1'-0"
140
0.0078125
141
12.0
290
     0
  0
SCALE
  5
6A
102
{ACAD_REACTORS
330
4D
102
}
330
4D
100
AcDbScale
 70
     0
300
1/64" = 1'-0"
140
0.015625
141
12.0
290
     0
  0
SCALE
  5
6B
102
{ACAD_REACTORS
330
4D
102
}
330
4D
100
AcDbScale
 70
     0
300
1/32" = 1'-0"
140
0.03125
141
12.0
290
     0
  0
SCALE
  5
6C
102
{ACAD_REACTORS
330
4D
102
}
330
4D
100
AcDbScale
 70
     0
300
1/16" = 1'-0"
140
0.0625
141
12.0
290
     0
  0
SCALE
  5
6D
102
{ACAD_REACTORS
330
4D
102
}
330
4D
100
AcDbScale
 70
     0
300
3/32" = 1'-0"
140
0.09375
141
12.0
290
     0
  0
SCALE
  5
6E
102
{ACAD_REACTORS
330
4D
102
}
330
4D
100
AcDbScale
 70
     0
300
1/8" = 1'-0"
140
0.125
141
12.0
290
     0
  0
SCALE
  5
6F
102
{ACAD_REACTORS
330
4D
102
}
330
4D
100
AcDbScale
 70
     0
300
3/16" = 1'-0"
140
0.1875
141
12.0
290
     0
  0
SCALE
  5
70
102
{ACAD_REACTORS
330
4D
102
}
330
4D
100
AcDbScale
 70
     0
300
1/4" = 1'-0"
140
0.25
141
12.0
290
     0
  0
SCALE
  5
71
102
{ACAD_REACTORS
330
4D
102
}
330
4D
100
AcDbScale
 70
     0
300
3/8" = 1'-0"
140
0.375
141
12.0
290
     0
  0
SCALE
  5
72
102
{ACAD_REACTORS
330
4D
102
}
330
4D
100
AcDbScale
 70
     0
300
1/2" = 1'-0"
140
0.5
141
12.0
290
     0
  0
SCALE
  5
73
102
{ACAD_REACTORS
330
4D
102
}
330
4D
100
AcDbScale
 70
     0
300
3/4" = 1'-0"
140
0.75
141
12.0
290
     0
  0
SCALE
  5
74
102
{ACAD_REACTORS
330
4D
102
}
330
4D
100
AcDbScale
 70
     0
300
1" = 1'-0"
140
1.0
141
12.0
290
     0
  0
SCALE
  5
75
102
{ACAD_REACTORS
330
4D
102
}
330
4D
100
AcDbScale
 70
     0
300
1-1/2" = 1'-0"
140
1.5
141
12.0
290
     0
  0
SCALE
  5
76
102
{ACAD_REACTORS
330
4D
102
}
330
4D
100
AcDbScale
 70
     0
300
3" = 1'-0"
140
3.0
141
12.0
290
     0
  0
SCALE
  5
77
102
{ACAD_REACTORS
330
4D
102
}
330
4D
100
AcDbScale
 70
     0
300
6" = 1'-0"
140
6.0
141
12.0
290
     0
  0
SCALE
  5
78
102
{ACAD_REACTORS
330
4D
102
}
330
4D
100
AcDbScale
 70
     0
300
1'-0" = 1'-0"
140
12.0
141
12.0
290
     0
  0
TABLESTYLE
  5
54
102
{ACAD_XDICTIONARY
360
55
102
}
102
{ACAD_REACTORS
330
4E
102
}
330
4E
100
AcDbTableStyle
280
     0
  3
Standard
 70
     0
 71
     0
 40
0.06
 41
0.06
280
     0
281
     0
  7
STANDARD
140
0.18
170
     2
 62
     0
 63
     7
283
     0
 90
      512
 91
        0
  1

274
    -2
284
     1
 64
     0
275
    -2
285
     1
 65
     0
276
    -2
286
     1
 66
     0
277
    -2
287
     1
 67
     0
278
    -2
288
     1
 68
     0
279
    -2
289
     1
 69
     0
  7
STANDARD
140
0.25
170
     5
 62
     0
 63
     7
283
     0
 90
      512
 91
        0
  1

274
    -2
284
     1
 64
     0
275
    -2
285
     1
 65
     0
276
    -2
286
     1
 66
     0
277
    -2
287
     1
 67
     0
278
    -2
288
     1
 68
     0
279
    -2
289
     1
 69
     0
  7
STANDARD
140
0.18
170
     5
 62
     0
 63
     7
283
     0
 90
      512
 91
        0
  1

274
    -2
284
     1
 64
     0
275
    -2
285
     1
 65
     0
276
    -2
286
     1
 66
     0
277
    -2
287
     1
 67
     0
278
    -2
288
     1
 68
     0
279
    -2
289
     1
 69
     0
  0
VISUALSTYLE
  5
2E
102
{ACAD_REACTORS
330
2F
102
}
330
2F
100
AcDbVisualStyle
  2
2dWireframe
 70
     4
177
     2
291
     0
 71
     0
176
     1
 72
     2
176
     1
 73
     0
176
     1
 90
        0
176
     1
 40
0.6
176
     1
 41
30.0
176
     1
 63
     7
176
     1
 74
     1
176
     1
 91
        4
176
     1
 64
     7
176
     1
 65
   257
176
     1
 75
     1
176
     1
175
     1
176
     1
 42
1.0
176
     1
 92
        0
176
     1
 66
   257
176
     1
 43
1.0
176
     1
 76
     1
176
     1
 77
     6
176
     1
 78
     2
176
     1
 67
     7
176
     1
 79
     5
176
     1
170
     0
176
     1
171
     0
176
     1
290
     0
176
     1
 93
        1
176
     1
 44
0.0
176
     1
173
     0
176
     1
  0
VISUALSTYLE
  5
57
102
{ACAD_REACTORS
330
2F
102
}
330
2F
100
AcDbVisualStyle
  2
3dWireframe
 70
     5
177
     2
291
     0
 71
     0
176
     1
 72
     2
176
     1
 73
     0
176
     1
 90
        0
176
     1
 40
0.6
176
     1
 41
30.0
176
     1
 63
     7
176
     1
 74
     1
176
     1
 91
        4
176
     1
 64
     7
176
     1
 65
   257
176
     1
 75
     1
176
     1
175
     1
176
     1
 42
1.0
176
     1
 92
        0
176
     1
 66
   257
176
     1
 43
1.0
176
     1
 76
     1
176
     1
 77
     6
176
     1
 78
     2
176
     1
 67
     7
176
     1
 79
     5
176
     1
170
     0
176
     1
171
     0
176
     1
290
     0
176
     1
 93
        1
176
     1
 44
0.0
176
     1
173
     0
176
     1
  0
VISUALSTYLE
  5
56
102
{ACAD_REACTORS
330
2F
102
}
330
2F
100
AcDbVisualStyle
  2
Realistic
 70
     8
177
     2
291
     0
 71
     2
176
     1
 72
     2
176
     1
 73
     0
176
     1
 90
        0
176
     1
 40
0.6
176
     1
 41
30.0
176
     1
 63
     7
176
     1
 74
     1
176
     1
 91
        0
176
     1
 64
     7
176
     1
 65
   257
176
     1
 75
     1
176
     1
175
     1
176
     1
 42
1.0
176
     1
 92
        8
176
     1
 66
     8
176
     1
 43
1.0
176
     1
 76
     1
176
     1
 77
     6
176
     1
 78
     2
176
     1
 67
     7
176
     1
 79
     5
176
     1
170
     0
176
     1
171
     0
176
     1
290
     0
176
     1
 93
       13
176
     1
 44
0.0
176
     1
173
     0
176
     1
  0
DICTIONARYVAR
  5
432
102
{ACAD_REACTORS
330
42E
102
}
330
42E
100
DictionaryVariables
280
     0
  1
1:1
  0
DICTIONARYVAR
  5
430
102
{ACAD_REACTORS
330
42E
102
}
330
42E
100
DictionaryVariables
280
     0
  1
STANDARD
  0
DICTIONARYVAR
  5
42F
102
{ACAD_REACTORS
330
42E
102
}
330
42E
100
DictionaryVariables
280
     0
  1
STANDARD
  0
DICTIONARYVAR
  5
434
102
{ACAD_REACTORS
330
42E
102
}
330
42E
100
DictionaryVariables
280
     0
  1
1
  0
DICTIONARYVAR
  5
435
102
{ACAD_REACTORS
330
42E
102
}
330
42E
100
DictionaryVariables
280
     0
  1
15
  0
DICTIONARYVAR
  5
433
102
{ACAD_REACTORS
330
42E
102
}
330
42E
100
DictionaryVariables
280
     0
  1
0
  0
DICTIONARYVAR
  5
431
102
{ACAD_REACTORS
330
42E
102
}
330
42E
100
DictionaryVariables
280
     0
  1
0
  0
DICTIONARY
  5
45
330
44
100
AcDbDictionary
280
     1
281
     1
  3
BUMPTILE
360
46
  3
DIFFUSETILE
360
47
  3
OPACITYTILE
360
48
  3
REFLECTIONTILE
360
49
  3
REFRACTIONTILE
360
4A
  3
SPECULARTILE
360
4B
  0
DICTIONARY
  5
3D
330
3C
100
AcDbDictionary
280
     1
281
     1
  3
BUMPTILE
360
3E
  3
DIFFUSETILE
360
3F
  3
OPACITYTILE
360
40
  3
REFLECTIONTILE
360
41
  3
REFRACTIONTILE
360
42
  3
SPECULARTILE
360
43
  0
DICTIONARY
  5
E
330
C
100
AcDbDictionary
280
     1
281
     1
  3
BUMPTILE
360
F
  3
DIFFUSETILE
360
10
  3
OPACITYTILE
360
11
  3
REFLECTIONTILE
360
12
  3
REFRACTIONTILE
360
13
  3
SPECULARTILE
360
14
  0
DICTIONARY
  5
55
330
54
100
AcDbDictionary
280
     1
281
     1
  3
ACAD_ROUNDTRIP_2008_TABLESTYLE_CELLSTYLEMAP
360
436
  0
XRECORD
  5
46
102
{ACAD_REACTORS
330
45
102
}
330
45
100
AcDbXrecord
280
     1
270
     1
271
     1
  0
XRECORD
  5
47
102
{ACAD_REACTORS
330
45
102
}
330
45
100
AcDbXrecord
280
     1
270
     1
271
     1
  0
XRECORD
  5
48
102
{ACAD_REACTORS
330
45
102
}
330
45
100
AcDbXrecord
280
     1
270
     1
271
     1
  0
XRECORD
  5
49
102
{ACAD_REACTORS
330
45
102
}
330
45
100
AcDbXrecord
280
     1
270
     1
271
     1
  0
XRECORD
  5
4A
102
{ACAD_REACTORS
330
45
102
}
330
45
100
AcDbXrecord
280
     1
270
     1
271
     1
  0
XRECORD
  5
4B
102
{ACAD_REACTORS
330
45
102
}
330
45
100
AcDbXrecord
280
     1
270
     1
271
     1
  0
XRECORD
  5
3E
102
{ACAD_REACTORS
330
3D
102
}
330
3D
100
AcDbXrecord
280
     1
270
     1
271
     1
  0
XRECORD
  5
3F
102
{ACAD_REACTORS
330
3D
102
}
330
3D
100
AcDbXrecord
280
     1
270
     1
271
     1
  0
XRECORD
  5
40
102
{ACAD_REACTORS
330
3D
102
}
330
3D
100
AcDbXrecord
280
     1
270
     1
271
     1
  0
XRECORD
  5
41
102
{ACAD_REACTORS
330
3D
102
}
330
3D
100
AcDbXrecord
280
     1
270
     1
271
     1
  0
XRECORD
  5
42
102
{ACAD_REACTORS
330
3D
102
}
330
3D
100
AcDbXrecord
280
     1
270
     1
271
     1
  0
XRECORD
  5
43
102
{ACAD_REACTORS
330
3D
102
}
330
3D
100
AcDbXrecord
280
     1
270
     1
271
     1
  0
XRECORD
  5
F
102
{ACAD_REACTORS
330
E
102
}
330
E
100
AcDbXrecord
280
     1
270
     1
271
     1
  0
XRECORD
  5
10
102
{ACAD_REACTORS
330
E
102
}
330
E
100
AcDbXrecord
280
     1
270
     1
271
     1
  0
XRECORD
  5
11
102
{ACAD_REACTORS
330
E
102
}
330
E
100
AcDbXrecord
280
     1
270
     1
271
     1
  0
XRECORD
  5
12
102
{ACAD_REACTORS
330
E
102
}
330
E
100
AcDbXrecord
280
     1
270
     1
271
     1
  0
XRECORD
  5
13
102
{ACAD_REACTORS
330
E
102
}
330
E
100
AcDbXrecord
280
     1
270
     1
271
     1
  0
XRECORD
  5
14
102
{ACAD_REACTORS
330
E
102
}
330
E
100
AcDbXrecord
280
     1
270
     1
271
     1
  0
CELLSTYLEMAP
  5
436
102
{ACAD_REACTORS
330
55
102
}
330
55
100
AcDbCellStyleMap
 90
        3
300
CELLSTYLE
  1
TABLEFORMAT_BEGIN
 90
        5
170
     1
 91
        0
 92
    32768
 62
   257
 93
        1
300
CONTENTFORMAT
  1
CONTENTFORMAT_BEGIN
 90
        0
 91
        0
 92
      512
 93
        0
300

 40
0.0
140
1.0
 94
        5
 62
     0
340
25
144
0.25
309
CONTENTFORMAT_END
171
     0
 94
        0
309
TABLEFORMAT_END
  1
CELLSTYLE_BEGIN
 90
        1
 91
        1
300
_TITLE
309
CELLSTYLE_END
300
CELLSTYLE
  1
TABLEFORMAT_BEGIN
 90
        5
170
     1
 91
        0
 92
        0
 62
   257
 93
        1
300
CONTENTFORMAT
  1
CONTENTFORMAT_BEGIN
 90
        0
 91
        0
 92
      512
 93
        0
300

 40
0.0
140
1.0
 94
        5
 62
     0
340
25
144
0.18
309
CONTENTFORMAT_END
171
     0
 94
        0
309
TABLEFORMAT_END
  1
CELLSTYLE_BEGIN
 90
        2
 91
        1
300
_HEADER
309
CELLSTYLE_END
300
CELLSTYLE
  1
TABLEFORMAT_BEGIN
 90
        5
170
     1
 91
        0
 92
        0
 62
   257
 93
        1
300
CONTENTFORMAT
  1
CONTENTFORMAT_BEGIN
 90
        0
 91
        0
 92
      512
 93
        0
300

 40
0.0
140
1.0
 94
        2
 62
     0
340
25
144
0.18
309
CONTENTFORMAT_END
171
     0
 94
        0
309
TABLEFORMAT_END
  1
CELLSTYLE_BEGIN
 90
        3
 91
        2
300
_DATA
309
CELLSTYLE_END
  0
ENDSEC
  0
EOF
