  0
SECTION
  2
HEADER
  9
$ACADVER
  1
AC1024
  9
$ACADMAINTVER
 70
     6
  9
$DWGCODEPAGE
  3
ANSI_1252
  9
$INSBASE
 10
0.0
 20
0.0
 30
0.0
  9
$EXTMIN
 10
-0.0000004604480637
 20
0.0000015227592485
 30
0.0
  9
$EXTMAX
 10
839.9999995394683
 20
594.0000015227001
 30
0.0
  9
$LIMMIN
 10
-0.0000004604480637
 20
0.0000015227592485
  9
$LIMMAX
 10
839.9999995394683
 20
594.0000015227001
  9
$ORTHOMODE
 70
     1
  9
$REGENMODE
 70
     1
  9
$FILLMODE
 70
     1
  9
$QTEXTMODE
 70
     0
  9
$MIRRTEXT
 70
     1
  9
$LTSCALE
 40
15.0
  9
$ATTMODE
 70
     1
  9
$TEXTSIZE
 40
15.0
  9
$TRACEWID
 40
1.0
  9
$TEXTSTYLE
  7
Bemaßung
  9
$CLAYER
  8
09-01
  9
$CELTYPE
  6
BYLAYER
  9
$CECOLOR
 62
   256
  9
$CELTSCALE
 40
1.0
  9
$DISPSILH
 70
     0
  9
$DIMSCALE
 40
2.0
  9
$DIMASZ
 40
2.5
  9
$DIMEXO
 40
1.0
  9
$DIMDLI
 40
10.0
  9
$DIMRND
 40
0.0
  9
$DIMDLE
 40
0.0
  9
$DIMEXE
 40
1.0
  9
$DIMTP
 40
0.0
  9
$DIMTM
 40
0.0
  9
$DIMTXT
 40
2.5
  9
$DIMCEN
 40
0.0
  9
$DIMTSZ
 40
0.0
  9
$DIMTOL
 70
     0
  9
$DIMLIM
 70
     0
  9
$DIMTIH
 70
     0
  9
$DIMTOH
 70
     0
  9
$DIMSE1
 70
     0
  9
$DIMSE2
 70
     0
  9
$DIMTAD
 70
     1
  9
$DIMZIN
 70
     8
  9
$DIMBLK
  1

  9
$DIMASO
 70
     1
  9
$DIMSHO
 70
     0
  9
$DIMPOST
  1

  9
$DIMAPOST
  1

  9
$DIMALT
 70
     0
  9
$DIMALTD
 70
     3
  9
$DIMALTF
 40
0.03937007874016
  9
$DIMLFAC
 40
1.0
  9
$DIMTOFL
 70
     1
  9
$DIMTVP
 40
0.0
  9
$DIMTIX
 70
     0
  9
$DIMSOXD
 70
     0
  9
$DIMSAH
 70
     0
  9
$DIMBLK1
  1

  9
$DIMBLK2
  1

  9
$DIMSTYLE
  2
Wagner
  9
$DIMCLRD
 70
     4
  9
$DIMCLRE
 70
     4
  9
$DIMCLRT
 70
     1
  9
$DIMTFAC
 40
1.0
  9
$DIMGAP
 40
1.0
  9
$DIMJUST
 70
     0
  9
$DIMSD1
 70
     0
  9
$DIMSD2
 70
     0
  9
$DIMTOLJ
 70
     0
  9
$DIMTZIN
 70
     8
  9
$DIMALTZ
 70
     0
  9
$DIMALTTZ
 70
     0
  9
$DIMUPT
 70
     0
  9
$DIMDEC
 70
     8
  9
$DIMTDEC
 70
     8
  9
$DIMALTU
 70
     2
  9
$DIMALTTD
 70
     3
  9
$DIMTXSTY
  7
STANDARD
  9
$DIMAUNIT
 70
     0
  9
$DIMADEC
 70
     2
  9
$DIMALTRND
 40
0.0
  9
$DIMAZIN
 70
     2
  9
$DIMDSEP
 70
    46
  9
$DIMATFIT
 70
     3
  9
$DIMFRAC
 70
     0
  9
$DIMLDRBLK
  1

  9
$DIMLUNIT
 70
     2
  9
$DIMLWD
 70
    -2
  9
$DIMLWE
 70
    -2
  9
$DIMTMOVE
 70
     0
  9
$DIMFXL
 40
1.0
  9
$DIMFXLON
 70
     0
  9
$DIMJOGANG
 40
0.7853981633974483
  9
$DIMTFILL
 70
     0
  9
$DIMTFILLCLR
 70
     0
  9
$DIMARCSYM
 70
     0
  9
$DIMLTYPE
  6

  9
$DIMLTEX1
  6

  9
$DIMLTEX2
  6

  9
$DIMTXTDIRECTION
 70
     0
  9
$LUNITS
 70
     2
  9
$LUPREC
 70
     2
  9
$SKETCHINC
 40
1.0
  9
$FILLETRAD
 40
0.0
  9
$AUNITS
 70
     0
  9
$AUPREC
 70
     2
  9
$MENU
  1
.
  9
$ELEVATION
 40
0.0
  9
$PELEVATION
 40
0.0
  9
$THICKNESS
 40
0.0
  9
$LIMCHECK
 70
     1
  9
$CHAMFERA
 40
0.0
  9
$CHAMFERB
 40
0.0
  9
$CHAMFERC
 40
20.0
  9
$CHAMFERD
 40
0.0
  9
$SKPOLY
 70
     0
  9
$TDCREATE
 40
2451887.420583530
  9
$TDUCREATE
 40
2451887.337250197
  9
$TDUPDATE
 40
2456342.730673032
  9
$TDUUPDATE
 40
2456342.647339699
  9
$TDINDWG
 40
0.1052820139
  9
$TDUSRTIMER
 40
0.1052818981
  9
$USRTIMER
 70
     1
  9
$ANGBASE
 50
0.0
  9
$ANGDIR
 70
     0
  9
$PDMODE
 70
     0
  9
$PDSIZE
 40
0.0
  9
$PLINEWID
 40
0.0
  9
$SPLFRAME
 70
     0
  9
$SPLINETYPE
 70
     6
  9
$SPLINESEGS
 70
     8
  9
$HANDSEED
  5
3D4
  9
$SURFTAB1
 70
    24
  9
$SURFTAB2
 70
    24
  9
$SURFTYPE
 70
     6
  9
$SURFU
 70
     6
  9
$SURFV
 70
     6
  9
$UCSBASE
  2

  9
$UCSNAME
  2

  9
$UCSORG
 10
0.0
 20
0.0
 30
0.0
  9
$UCSXDIR
 10
1.0
 20
0.0
 30
0.0
  9
$UCSYDIR
 10
0.0
 20
1.0
 30
0.0
  9
$UCSORTHOREF
  2

  9
$UCSORTHOVIEW
 70
     0
  9
$UCSORGTOP
 10
0.0
 20
0.0
 30
0.0
  9
$UCSORGBOTTOM
 10
0.0
 20
0.0
 30
0.0
  9
$UCSORGLEFT
 10
0.0
 20
0.0
 30
0.0
  9
$UCSORGRIGHT
 10
0.0
 20
0.0
 30
0.0
  9
$UCSORGFRONT
 10
0.0
 20
0.0
 30
0.0
  9
$UCSORGBACK
 10
0.0
 20
0.0
 30
0.0
  9
$PUCSBASE
  2

  9
$PUCSNAME
  2

  9
$PUCSORG
 10
0.0
 20
0.0
 30
0.0
  9
$PUCSXDIR
 10
1.0
 20
0.0
 30
0.0
  9
$PUCSYDIR
 10
0.0
 20
1.0
 30
0.0
  9
$PUCSORTHOREF
  2

  9
$PUCSORTHOVIEW
 70
     0
  9
$PUCSORGTOP
 10
0.0
 20
0.0
 30
0.0
  9
$PUCSORGBOTTOM
 10
0.0
 20
0.0
 30
0.0
  9
$PUCSORGLEFT
 10
0.0
 20
0.0
 30
0.0
  9
$PUCSORGRIGHT
 10
0.0
 20
0.0
 30
0.0
  9
$PUCSORGFRONT
 10
0.0
 20
0.0
 30
0.0
  9
$PUCSORGBACK
 10
0.0
 20
0.0
 30
0.0
  9
$USERI1
 70
     0
  9
$USERI2
 70
     0
  9
$USERI3
 70
     0
  9
$USERI4
 70
     0
  9
$USERI5
 70
     0
  9
$USERR1
 40
0.0
  9
$USERR2
 40
0.0
  9
$USERR3
 40
0.0
  9
$USERR4
 40
0.0
  9
$USERR5
 40
0.0
  9
$WORLDVIEW
 70
     1
  9
$SHADEDGE
 70
     3
  9
$SHADEDIF
 70
    70
  9
$TILEMODE
 70
     1
  9
$MAXACTVP
 70
    48
  9
$PINSBASE
 10
0.0
 20
0.0
 30
0.0
  9
$PLIMCHECK
 70
     0
  9
$PEXTMIN
 10
1.000000000000000E+20
 20
1.000000000000000E+20
 30
1.000000000000000E+20
  9
$PEXTMAX
 10
-1.000000000000000E+20
 20
-1.000000000000000E+20
 30
-1.000000000000000E+20
  9
$PLIMMIN
 10
0.0
 20
0.0
  9
$PLIMMAX
 10
420.0
 20
297.0
  9
$UNITMODE
 70
     0
  9
$VISRETAIN
 70
     0
  9
$PLINEGEN
 70
     0
  9
$PSLTSCALE
 70
     0
  9
$TREEDEPTH
 70
  3020
  9
$CMLSTYLE
  2
STANDARD
  9
$CMLJUST
 70
     0
  9
$CMLSCALE
 40
20.0
  9
$PROXYGRAPHICS
 70
     1
  9
$MEASUREMENT
 70
     1
  9
$CELWEIGHT
370
    -1
  9
$ENDCAPS
280
     0
  9
$JOINSTYLE
280
     0
  9
$LWDISPLAY
290
     0
  9
$INSUNITS
 70
     4
  9
$HYPERLINKBASE
  1

  9
$STYLESHEET
  1

  9
$XEDIT
290
     1
  9
$CEPSNTYPE
380
     0
  9
$PSTYLEMODE
290
     1
  9
$FINGERPRINTGUID
  2
{D9454F4E-5195-4FA1-BA09-66B5D88CD50F}
  9
$VERSIONGUID
  2
{606E553E-3483-4C12-BC5A-1510335C8F14}
  9
$EXTNAMES
290
     1
  9
$PSVPSCALE
 40
0.0
  9
$OLESTARTUP
290
     0
  9
$SORTENTS
280
   127
  9
$INDEXCTL
280
     0
  9
$HIDETEXT
280
     1
  9
$XCLIPFRAME
280
     0
  9
$HALOGAP
280
     0
  9
$OBSCOLOR
 70
   257
  9
$OBSLTYPE
280
     0
  9
$INTERSECTIONDISPLAY
280
     0
  9
$INTERSECTIONCOLOR
 70
   257
  9
$DIMASSOC
280
     1
  9
$PROJECTNAME
  1

  9
$CAMERADISPLAY
290
     0
  9
$LENSLENGTH
 40
50.0
  9
$CAMERAHEIGHT
 40
0.0
  9
$STEPSPERSEC
 40
2.0
  9
$STEPSIZE
 40
6.0
  9
$3DDWFPREC
 40
2.0
  9
$PSOLWIDTH
 40
0.25
  9
$PSOLHEIGHT
 40
4.0
  9
$LOFTANG1
 40
1.570796326794896
  9
$LOFTANG2
 40
1.570796326794896
  9
$LOFTMAG1
 40
0.0
  9
$LOFTMAG2
 40
0.0
  9
$LOFTPARAM
 70
     7
  9
$LOFTNORMALS
280
     1
  9
$LATITUDE
 40
37.795
  9
$LONGITUDE
 40
-122.394
  9
$NORTHDIRECTION
 40
0.0
  9
$TIMEZONE
 70
 -8000
  9
$LIGHTGLYPHDISPLAY
280
     1
  9
$TILEMODELIGHTSYNCH
280
     1
  9
$CMATERIAL
347
39
  9
$SOLIDHIST
280
     1
  9
$SHOWHIST
280
     1
  9
$DWFFRAME
280
     2
  9
$DGNFRAME
280
     0
  9
$REALWORLDSCALE
290
     1
  9
$INTERFERECOLOR
 62
     1
  9
$INTERFEREOBJVS
345
54
  9
$INTERFEREVPVS
346
55
  9
$CSHADOW
280
     0
  9
$SHADOWPLANELOCATION
 40
0.0
  0
ENDSEC
  0
SECTION
  2
CLASSES
  0
CLASS
  1
ACDBDICTIONARYWDFLT
  2
AcDbDictionaryWithDefault
  3
ObjectDBX Classes
 90
        0
 91
        1
280
     0
281
     0
  0
CLASS
  1
DICTIONARYVAR
  2
AcDbDictionaryVar
  3
ObjectDBX Classes
 90
        0
 91
        6
280
     0
281
     0
  0
CLASS
  1
MATERIAL
  2
AcDbMaterial
  3
ObjectDBX Classes
 90
     1153
 91
        3
280
     0
281
     0
  0
CLASS
  1
VISUALSTYLE
  2
AcDbVisualStyle
  3
ObjectDBX Classes
 90
     4095
 91
        3
280
     0
281
     0
  0
CLASS
  1
TABLESTYLE
  2
AcDbTableStyle
  3
ObjectDBX Classes
 90
     4095
 91
        1
280
     0
281
     0
  0
CLASS
  1
SCALE
  2
AcDbScale
  3
ObjectDBX Classes
 90
     1153
 91
       33
280
     0
281
     0
  0
CLASS
  1
MLEADERSTYLE
  2
AcDbMLeaderStyle
  3
ACDB_MLEADERSTYLE_CLASS
 90
     4095
 91
        0
280
     0
281
     0
  0
CLASS
  1
CELLSTYLEMAP
  2
AcDbCellStyleMap
  3
ObjectDBX Classes
 90
     1152
 91
        1
280
     0
281
     0
  0
CLASS
  1
SORTENTSTABLE
  2
AcDbSortentsTable
  3
ObjectDBX Classes
 90
        0
 91
        4
280
     0
281
     0
  0
CLASS
  1
SOLID_BACKGROUND
  2
AcDbSolidBackground
  3
SCENEOE
 90
     4095
 91
        0
280
     0
281
     0
  0
CLASS
  1
NPOCOLLECTION
  2
AcDbImpNonPersistentObjectsCollection
  3
ObjectDBX Classes
 90
     1153
 91
        0
280
     0
281
     0
  0
ENDSEC
  0
SECTION
  2
TABLES
  0
TABLE
  2
VPORT
  5
28
102
{ACAD_XDICTIONARY
360
2C
102
}
330
0
100
AcDbSymbolTable
 70
     1
  0
VPORT
  5
29
330
28
100
AcDbSymbolTableRecord
100
AcDbViewportTableRecord
  2
*Active
 70
     0
 10
0.0
 20
0.0
 11
1.0
 21
1.0
 12
573.2130554799105
 22
270.8784065857111
 13
0.0
 23
0.0
 14
1.0
 24
1.0
 15
100.0
 25
100.0
 16
0.0
 26
0.0
 36
1.0
 17
0.0
 27
0.0
 37
0.0
 40
717.762114319428
 41
1.937738246505718
 42
50.0
 43
0.0
 44
0.0
 50
0.0
 51
0.0
 71
     0
 72
  1000
 73
     1
 74
     0
 75
     0
 76
     0
 77
     0
 78
     0
281
     0
 65
     1
110
0.0
120
0.0
130
0.0
111
1.0
121
0.0
131
0.0
112
0.0
122
1.0
132
0.0
 79
     0
146
0.0
348
2A
 60
     3
 61
     5
292
     1
282
     1
141
0.0
142
0.0
 63
   250
421
  3355443
  0
ENDTAB
  0
TABLE
  2
LTYPE
  5
23
330
0
100
AcDbSymbolTable
 70
     4
  0
LTYPE
  5
24
330
23
100
AcDbSymbolTableRecord
100
AcDbLinetypeTableRecord
  2
BYBLOCK
 70
     0
  3

 72
    65
 73
     0
 40
0.0
  0
LTYPE
  5
25
330
23
100
AcDbSymbolTableRecord
100
AcDbLinetypeTableRecord
  2
BYLAYER
 70
     0
  3

 72
    65
 73
     0
 40
0.0
  0
LTYPE
  5
15
330
23
100
AcDbSymbolTableRecord
100
AcDbLinetypeTableRecord
  2
CONTINUOUS
 70
     0
  3
Solid line
 72
    65
 73
     0
 40
0.0
  0
LTYPE
  5
2A3
330
23
100
AcDbSymbolTableRecord
100
AcDbLinetypeTableRecord
  2
STRICHPUNKT
 70
     0
  3
Strichpunkt __ . __ . __ . __ . __ . __ . __ . 
 72
    65
 73
     4
 40
1.0
 49
0.5
 74
     0
 49
-0.25
 74
     0
 49
0.0
 74
     0
 49
-0.25
 74
     0
  0
LTYPE
  5
362
330
23
100
AcDbSymbolTableRecord
100
AcDbLinetypeTableRecord
  2
VERDECKT
 70
     0
  3
Verdeckt __ __ __ __ __ __ __ __ __ __ __ __ __
 72
    65
 73
     2
 40
0.375
 49
0.25
 74
     0
 49
-0.125
 74
     0
  0
LTYPE
  5
CC
330
23
100
AcDbSymbolTableRecord
100
AcDbLinetypeTableRecord
  2
AUSGEZOGEN
 70
     0
  3
Ausgezogene Linie
 72
    65
 73
     0
 40
0.0
  0
ENDTAB
  0
TABLE
  2
LAYER
  5
1D
102
{ACAD_XDICTIONARY
360
1E
102
}
330
0
100
AcDbSymbolTable
 70
    11
  0
LAYER
  5
6
102
{ACAD_XDICTIONARY
360
7
102
}
330
1D
100
AcDbSymbolTableRecord
100
AcDbLayerTableRecord
  2
0
 70
     0
 62
     7
  6
CONTINUOUS
370
    -3
390
9
347
C
  0
LAYER
  5
2A0
102
{ACAD_XDICTIONARY
360
2A1
102
}
330
1D
100
AcDbSymbolTableRecord
100
AcDbLayerTableRecord
  2
05-01
 70
     0
 62
     1
  6
STRICHPUNKT
370
    -3
390
9
347
C
  0
LAYER
  5
2FD
102
{ACAD_XDICTIONARY
360
2FE
102
}
330
1D
100
AcDbSymbolTableRecord
100
AcDbLayerTableRecord
  2
01-01
 70
     0
 62
     2
  6
CONTINUOUS
370
    -3
390
9
347
C
  0
LAYER
  5
8E
102
{ACAD_XDICTIONARY
360
8F
102
}
330
1D
100
AcDbSymbolTableRecord
100
AcDbLayerTableRecord
  2
02-01
 70
     0
 62
     1
  6
CONTINUOUS
370
    -3
390
9
347
C
  0
LAYER
  5
35F
102
{ACAD_XDICTIONARY
360
360
102
}
330
1D
100
AcDbSymbolTableRecord
100
AcDbLayerTableRecord
  2
03-01
 70
     0
 62
     3
  6
VERDECKT
370
    -3
390
9
347
C
  0
LAYER
  5
4D
102
{ACAD_XDICTIONARY
360
4E
102
}
330
1D
100
AcDbSymbolTableRecord
100
AcDbLayerTableRecord
  2
09-01
 70
     0
 62
     7
  6
CONTINUOUS
370
    -3
390
9
347
C
  0
LAYER
  5
89
102
{ACAD_XDICTIONARY
360
8A
102
}
330
1D
100
AcDbSymbolTableRecord
100
AcDbLayerTableRecord
  2
01-99
 70
     0
 62
     2
  6
CONTINUOUS
370
    -3
390
9
347
C
  0
LAYER
  5
C9
102
{ACAD_XDICTIONARY
360
CA
102
}
330
1D
100
AcDbSymbolTableRecord
100
AcDbLayerTableRecord
  2
06-99
 70
     0
 62
     1
  6
AUSGEZOGEN
370
    -3
390
9
347
C
  0
LAYER
  5
B3
102
{ACAD_XDICTIONARY
360
B4
102
}
330
1D
100
AcDbSymbolTableRecord
100
AcDbLayerTableRecord
  2
08-99
 70
     0
 62
     7
  6
CONTINUOUS
370
    -3
390
9
347
C
  0
LAYER
  5
7F
330
1D
100
AcDbSymbolTableRecord
100
AcDbLayerTableRecord
  2
DEFPOINTS
 70
     0
 62
     7
  6
CONTINUOUS
290
     0
370
    -3
390
9
347
C
  0
LAYER
  5
38D
102
{ACAD_XDICTIONARY
360
38E
102
}
330
1D
100
AcDbSymbolTableRecord
100
AcDbLayerTableRecord
  2
EBENE_1
 70
     0
 62
     7
  6
CONTINUOUS
370
    -3
390
9
347
C
  0
ENDTAB
  0
TABLE
  2
STYLE
  5
20
330
0
100
AcDbSymbolTable
 70
     5
  0
STYLE
  5
21
330
20
100
AcDbSymbolTableRecord
100
AcDbTextStyleTableRecord
  2
STANDARD
 70
     0
 40
0.0
 41
1.0
 50
0.0
 71
     0
 42
3.5
  3
romans.shx
  4

  0
STYLE
  5
50
330
20
100
AcDbSymbolTableRecord
100
AcDbTextStyleTableRecord
  2
Bemaßung
 70
     0
 40
0.0
 41
1.0
 50
0.0
 71
     0
 42
15.0
  3
arial.ttf
  4

1001
ACAD
1000
Arial
1071
       34
  0
STYLE
  5
B6
330
20
100
AcDbSymbolTableRecord
100
AcDbTextStyleTableRecord
  2
ROMANS8
 70
     0
 40
0.0
 41
1.0
 50
0.0
 71
     0
 42
2.5
  3
ROMANS8
  4

  0
STYLE
  5
3C6
330
20
100
AcDbSymbolTableRecord
100
AcDbTextStyleTableRecord
  2
ROMANS
 70
     0
 40
0.0
 41
1.0
 50
0.0
 71
     0
 42
5.0
  3
ROMANS.SHX
  4

  0
STYLE
  5
20E
330
20
100
AcDbSymbolTableRecord
100
AcDbTextStyleTableRecord
  2
ROMAND8
 70
     0
 40
0.0
 41
1.0
 50
0.0
 71
     0
 42
3.5
  3
ROMAND8
  4

  0
ENDTAB
  0
TABLE
  2
VIEW
  5
26
330
0
100
AcDbSymbolTable
 70
     0
  0
ENDTAB
  0
TABLE
  2
UCS
  5
27
330
0
100
AcDbSymbolTable
 70
     0
  0
ENDTAB
  0
TABLE
  2
APPID
  5
2D
330
0
100
AcDbSymbolTable
 70
     5
  0
APPID
  5
2E
330
2D
100
AcDbSymbolTableRecord
100
AcDbRegAppTableRecord
  2
ACAD
 70
     0
  0
APPID
  5
31
330
2D
100
AcDbSymbolTableRecord
100
AcDbRegAppTableRecord
  2
ACAD_DSTYLE_DIMJOGGED_JOGANGLE_SYMBOL
 70
     0
  0
APPID
  5
32
330
2D
100
AcDbSymbolTableRecord
100
AcDbRegAppTableRecord
  2
ACAD_DSTYLE_DIMJAG
 70
     0
  0
APPID
  5
33
330
2D
100
AcDbSymbolTableRecord
100
AcDbRegAppTableRecord
  2
ACAD_DSTYLE_DIMTALN
 70
     0
  0
APPID
  5
82
330
2D
100
AcDbSymbolTableRecord
100
AcDbRegAppTableRecord
  2
ACAD_DSTYLE_DIMRADIAL_EXTENSION
 70
     0
  0
ENDTAB
  0
TABLE
  2
DIMSTYLE
  5
2F
330
0
100
AcDbSymbolTable
 70
     3
100
AcDbDimStyleTable
 71
     2
340
30
340
34
  0
DIMSTYLE
105
34
330
2F
100
AcDbSymbolTableRecord
100
AcDbDimStyleTableRecord
  2
STANDARD
 70
     0
340
21
  0
DIMSTYLE
105
30
102
{ACAD_REACTORS
330
77
102
}
330
2F
100
AcDbSymbolTableRecord
100
AcDbDimStyleTableRecord
  2
Wagner
 70
     0
 41
2.5
 42
1.0
 43
10.0
 44
1.0
 73
     0
 74
     0
 77
     1
 78
     8
 79
     2
140
2.5
141
0.0
143
0.03937007874016
147
1.0
171
     3
172
     1
176
     4
177
     4
178
     1
179
     2
271
     8
272
     8
274
     3
283
     0
284
     8
340
21
1001
ACAD_DSTYLE_DIMJOGGED_JOGANGLE_SYMBOL
1070
   384
1040
0.7853981633974483
1001
ACAD_DSTYLE_DIMJAG
1070
   388
1040
1.5
1001
ACAD_DSTYLE_DIMTALN
1070
   392
1070
     0
  0
DIMSTYLE
105
24D
102
{ACAD_REACTORS
330
2ED
330
2E0
330
2D1
330
3B0
330
3A0
330
37C
330
364
330
34E
330
33F
330
332
330
31C
330
30F
330
302
330
2C4
330
2A7
330
292
330
283
330
276
330
26A
330
25D
330
24E
330
23E
102
}
330
2F
100
AcDbSymbolTableRecord
100
AcDbDimStyleTableRecord
  2
Wagner$0
 70
     0
 41
2.5
 42
1.0
 43
10.0
 44
1.0
 73
     0
 74
     0
 77
     1
 78
     8
 79
     2
140
2.5
141
0.0
143
0.03937007874016
147
1.0
171
     3
172
     1
174
     1
176
     4
177
     4
178
     1
179
     2
271
     8
272
     8
274
     3
279
     2
283
     0
284
     8
340
21
1001
ACAD_DSTYLE_DIMJOGGED_JOGANGLE_SYMBOL
1070
   384
1040
0.7853981633974483
1001
ACAD_DSTYLE_DIMJAG
1070
   388
1040
1.5
1001
ACAD_DSTYLE_DIMTALN
1070
   392
1070
     0
  0
ENDTAB
  0
TABLE
  2
BLOCK_RECORD
  5
1
330
0
100
AcDbSymbolTable
 70
    24
  0
BLOCK_RECORD
  5
2
102
{ACAD_XDICTIONARY
360
3
102
}
330
1
100
AcDbSymbolTableRecord
100
AcDbBlockTableRecord
  2
*MODEL_SPACE
340
17
 70
     0
280
     1
281
     0
  0
BLOCK_RECORD
  5
19
330
1
100
AcDbSymbolTableRecord
100
AcDbBlockTableRecord
  2
*PAPER_SPACE
340
1C
 70
     0
280
     1
281
     0
  0
BLOCK_RECORD
  5
3B1
330
1
100
AcDbSymbolTableRecord
100
AcDbBlockTableRecord
  2
*D0
340
0
 70
     0
280
     1
281
     0
  0
BLOCK_RECORD
  5
3A1
330
1
100
AcDbSymbolTableRecord
100
AcDbBlockTableRecord
  2
*D1
340
0
 70
     0
280
     1
281
     0
  0
BLOCK_RECORD
  5
37D
330
1
100
AcDbSymbolTableRecord
100
AcDbBlockTableRecord
  2
*D2
340
0
 70
     0
280
     1
281
     0
  0
BLOCK_RECORD
  5
365
330
1
100
AcDbSymbolTableRecord
100
AcDbBlockTableRecord
  2
*D3
340
0
 70
     0
280
     1
281
     0
  0
BLOCK_RECORD
  5
34F
330
1
100
AcDbSymbolTableRecord
100
AcDbBlockTableRecord
  2
*D4
340
0
 70
     0
280
     1
281
     0
  0
BLOCK_RECORD
  5
340
330
1
100
AcDbSymbolTableRecord
100
AcDbBlockTableRecord
  2
*D5
340
0
 70
     0
280
     1
281
     0
  0
BLOCK_RECORD
  5
333
330
1
100
AcDbSymbolTableRecord
100
AcDbBlockTableRecord
  2
*D6
340
0
 70
     0
280
     1
281
     0
  0
BLOCK_RECORD
  5
31D
330
1
100
AcDbSymbolTableRecord
100
AcDbBlockTableRecord
  2
*D7
340
0
 70
     0
280
     1
281
     0
  0
BLOCK_RECORD
  5
310
330
1
100
AcDbSymbolTableRecord
100
AcDbBlockTableRecord
  2
*D8
340
0
 70
     0
280
     1
281
     0
  0
BLOCK_RECORD
  5
303
330
1
100
AcDbSymbolTableRecord
100
AcDbBlockTableRecord
  2
*D9
340
0
 70
     0
280
     1
281
     0
  0
BLOCK_RECORD
  5
2EE
330
1
100
AcDbSymbolTableRecord
100
AcDbBlockTableRecord
  2
*D10
340
0
 70
     0
280
     1
281
     0
  0
BLOCK_RECORD
  5
2E1
330
1
100
AcDbSymbolTableRecord
100
AcDbBlockTableRecord
  2
*D11
340
0
 70
     0
280
     1
281
     0
  0
BLOCK_RECORD
  5
2D2
330
1
100
AcDbSymbolTableRecord
100
AcDbBlockTableRecord
  2
*D12
340
0
 70
     0
280
     1
281
     0
  0
BLOCK_RECORD
  5
2C5
330
1
100
AcDbSymbolTableRecord
100
AcDbBlockTableRecord
  2
*D13
340
0
 70
     0
280
     1
281
     0
  0
BLOCK_RECORD
  5
2A8
330
1
100
AcDbSymbolTableRecord
100
AcDbBlockTableRecord
  2
*D14
340
0
 70
     0
280
     1
281
     0
  0
BLOCK_RECORD
  5
293
330
1
100
AcDbSymbolTableRecord
100
AcDbBlockTableRecord
  2
*D15
340
0
 70
     0
280
     1
281
     0
  0
BLOCK_RECORD
  5
284
330
1
100
AcDbSymbolTableRecord
100
AcDbBlockTableRecord
  2
*D16
340
0
 70
     0
280
     1
281
     0
  0
BLOCK_RECORD
  5
277
330
1
100
AcDbSymbolTableRecord
100
AcDbBlockTableRecord
  2
*D17
340
0
 70
     0
280
     1
281
     0
  0
BLOCK_RECORD
  5
26B
330
1
100
AcDbSymbolTableRecord
100
AcDbBlockTableRecord
  2
*D18
340
0
 70
     0
280
     1
281
     0
  0
BLOCK_RECORD
  5
25E
330
1
100
AcDbSymbolTableRecord
100
AcDbBlockTableRecord
  2
*D19
340
0
 70
     0
280
     1
281
     0
  0
BLOCK_RECORD
  5
24F
330
1
100
AcDbSymbolTableRecord
100
AcDbBlockTableRecord
  2
*D20
340
0
 70
     0
280
     1
281
     0
  0
BLOCK_RECORD
  5
23F
330
1
100
AcDbSymbolTableRecord
100
AcDbBlockTableRecord
  2
*D21
340
0
 70
     0
280
     1
281
     0
  0
BLOCK_RECORD
  5
84
102
{ACAD_XDICTIONARY
360
85
102
}
330
1
100
AcDbSymbolTableRecord
100
AcDbBlockTableRecord
  2
DIN A3
340
0
102
{BLKREFS
331
83
102
}
 70
     4
280
     1
281
     0
  0
BLOCK_RECORD
  5
78
330
1
100
AcDbSymbolTableRecord
100
AcDbBlockTableRecord
  2
*D23
340
0
 70
     0
280
     1
281
     0
  0
ENDTAB
  0
ENDSEC
  0
SECTION
  2
BLOCKS
  0
BLOCK
  5
5
330
2
100
AcDbEntity
  8
0
100
AcDbBlockBegin
  2
*MODEL_SPACE
 70
     0
 10
0.0
 20
0.0
 30
0.0
  3
*MODEL_SPACE
  1

  0
ENDBLK
  5
16
330
2
100
AcDbEntity
  8
0
100
AcDbBlockEnd
  0
BLOCK
  5
1A
330
19
100
AcDbEntity
 67
     1
  8
0
100
AcDbBlockBegin
  2
*PAPER_SPACE
 70
     0
 10
0.0
 20
0.0
 30
0.0
  3
*PAPER_SPACE
  1

  0
ENDBLK
  5
1B
330
19
100
AcDbEntity
 67
     1
  8
0
100
AcDbBlockEnd
  0
BLOCK
  5
3B2
330
3B1
100
AcDbEntity
  8
0
100
AcDbBlockBegin
  2
*D0
 70
     1
 10
0.0
 20
0.0
 30
0.0
  3
*D0
  1

  0
LINE
  5
3B3
330
3B1
100
AcDbEntity
  8
09-01
 62
     4
370
    -2
100
AcDbLine
 10
75.17173304380162
 20
478.0060213263511
 30
0.0
 11
60.89369640324035
 21
478.0060213263511
 31
0.0
  0
LINE
  5
3B4
330
3B1
100
AcDbEntity
  8
09-01
 62
     4
370
    -2
100
AcDbLine
 10
75.37173304380155
 20
331.8060213263515
 30
0.0
 11
60.89369640324031
 21
331.8060213263515
 31
0.0
  0
LINE
  5
3B5
330
3B1
100
AcDbEntity
  8
09-01
 62
     4
370
    -2
100
AcDbLine
 10
62.89369640324035
 20
473.0060213263511
 30
0.0
 11
62.89369640324032
 21
336.8060213263515
 31
0.0
  0
SOLID
  5
3B6
330
3B1
100
AcDbEntity
  8
09-01
 62
     4
100
AcDbTrace
 10
62.06036306990701
 20
473.0060213263511
 30
0.0
 11
63.72702973657368
 21
473.0060213263511
 31
0.0
 12
62.89369640324035
 22
478.0060213263511
 32
0.0
 13
62.89369640324035
 23
478.0060213263511
 33
0.0
  0
SOLID
  5
3B7
330
3B1
100
AcDbEntity
  8
09-01
 62
     4
100
AcDbTrace
 10
62.06036306990698
 20
336.8060213263515
 30
0.0
 11
63.72702973657365
 21
336.8060213263515
 31
0.0
 12
62.89369640324031
 22
331.8060213263515
 32
0.0
 13
62.89369640324031
 23
331.8060213263515
 33
0.0
  0
MTEXT
  5
3B8
330
3B1
100
AcDbEntity
  8
09-01
 62
     1
100
AcDbMText
 10
58.39369640324026
 20
404.9060213263513
 30
0.0
 40
5.0
 41
0.0
 46
0.0
 71
     5
 72
     1
  1
Tür 146
 11
0.0000000000000001
 21
1.0
 31
0.0
 73
     1
 44
1.0
  0
POINT
  5
3B9
330
3B1
100
AcDbEntity
  8
DEFPOINTS
 62
     0
100
AcDbPoint
 10
77.17173304380162
 20
478.0060213263511
 30
0.0
  0
POINT
  5
3BA
330
3B1
100
AcDbEntity
  8
DEFPOINTS
 62
     0
100
AcDbPoint
 10
77.37173304380156
 20
331.8060213263515
 30
0.0
  0
POINT
  5
3BB
330
3B1
100
AcDbEntity
  8
DEFPOINTS
 62
     0
100
AcDbPoint
 10
62.89369640324031
 20
331.8060213263515
 30
0.0
  0
ENDBLK
  5
3BC
330
3B1
100
AcDbEntity
  8
0
100
AcDbBlockEnd
  0
BLOCK
  5
3A2
330
3A1
100
AcDbEntity
  8
0
100
AcDbBlockBegin
  2
*D1
 70
     1
 10
0.0
 20
0.0
 30
0.0
  3
*D1
  1

  0
LINE
  5
3A3
330
3A1
100
AcDbEntity
  8
09-01
 62
     4
370
    -2
100
AcDbLine
 10
76.37173304380155
 20
328.8060213263514
 30
0.0
 11
76.37173304380155
 21
314.4335053069909
 31
0.0
  0
LINE
  5
3A4
330
3A1
100
AcDbEntity
  8
09-01
 62
     4
370
    -2
100
AcDbLine
 10
374.3717330438016
 20
328.8060213263511
 30
0.0
 11
374.3717330438016
 21
314.4335053069909
 31
0.0
  0
LINE
  5
3A5
330
3A1
100
AcDbEntity
  8
09-01
 62
     4
370
    -2
100
AcDbLine
 10
81.37173304380155
 20
316.4335053069909
 30
0.0
 11
369.3717330438015
 21
316.4335053069909
 31
0.0
  0
SOLID
  5
3A6
330
3A1
100
AcDbEntity
  8
09-01
 62
     4
100
AcDbTrace
 10
81.37173304380155
 20
317.2668386403243
 30
0.0
 11
81.37173304380155
 21
315.6001719736576
 31
0.0
 12
76.37173304380155
 22
316.4335053069909
 32
0.0
 13
76.37173304380155
 23
316.4335053069909
 33
0.0
  0
SOLID
  5
3A7
330
3A1
100
AcDbEntity
  8
09-01
 62
     4
100
AcDbTrace
 10
369.3717330438015
 20
317.2668386403243
 30
0.0
 11
369.3717330438015
 21
315.6001719736576
 31
0.0
 12
374.3717330438016
 22
316.4335053069909
 32
0.0
 13
374.3717330438016
 23
316.4335053069909
 33
0.0
  0
MTEXT
  5
3A8
330
3A1
100
AcDbEntity
  8
09-01
 62
     1
100
AcDbMText
 10
225.3717330438016
 20
320.9335053069909
 30
0.0
 40
5.0
 41
0.0
 46
0.0
 71
     5
 72
     1
  1
298
 73
     1
 44
1.0
  0
POINT
  5
3A9
330
3A1
100
AcDbEntity
  8
DEFPOINTS
 62
     0
100
AcDbPoint
 10
76.37173304380155
 20
330.8060213263514
 30
0.0
  0
POINT
  5
3AA
330
3A1
100
AcDbEntity
  8
DEFPOINTS
 62
     0
100
AcDbPoint
 10
374.3717330438016
 20
330.8060213263511
 30
0.0
  0
POINT
  5
3AB
330
3A1
100
AcDbEntity
  8
DEFPOINTS
 62
     0
100
AcDbPoint
 10
374.3717330438016
 20
316.4335053069909
 30
0.0
  0
ENDBLK
  5
3AC
330
3A1
100
AcDbEntity
  8
0
100
AcDbBlockEnd
  0
BLOCK
  5
37E
330
37D
100
AcDbEntity
  8
0
100
AcDbBlockBegin
  2
*D2
 70
     1
 10
0.0
 20
0.0
 30
0.0
  3
*D2
  1

  0
LINE
  5
37F
330
37D
100
AcDbEntity
  8
09-01
 62
     4
370
    -2
100
AcDbLine
 10
77.37173304380167
 20
479.8060213263514
 30
0.0
 11
77.37173304380167
 21
493.6772221851504
 31
0.0
  0
LINE
  5
380
330
37D
100
AcDbEntity
  8
09-01
 62
     4
370
    -2
100
AcDbLine
 10
373.3717330438017
 20
479.806021326351
 30
0.0
 11
373.3717330438017
 21
493.6772221851504
 31
0.0
  0
LINE
  5
381
330
37D
100
AcDbEntity
  8
09-01
 62
     4
370
    -2
100
AcDbLine
 10
82.37173304380167
 20
491.6772221851504
 30
0.0
 11
368.3717330438017
 21
491.6772221851504
 31
0.0
  0
MTEXT
  5
382
330
37D
100
AcDbEntity
  8
09-01
 62
     1
100
AcDbMText
 10
228.8857181297435
 20
497.6162292075052
 30
0.0
 40
5.0
 41
0.0
 46
0.0
 71
     5
 72
     1
  1
Tür 296
 73
     1
 44
1.0
  0
SOLID
  5
383
330
37D
100
AcDbEntity
  8
09-01
 62
     4
100
AcDbTrace
 10
82.37173304380167
 20
492.5105555184837
 30
0.0
 11
82.37173304380167
 21
490.8438888518171
 31
0.0
 12
77.37173304380167
 22
491.6772221851504
 32
0.0
 13
77.37173304380167
 23
491.6772221851504
 33
0.0
  0
SOLID
  5
384
330
37D
100
AcDbEntity
  8
09-01
 62
     4
100
AcDbTrace
 10
368.3717330438017
 20
492.5105555184837
 30
0.0
 11
368.3717330438017
 21
490.8438888518171
 31
0.0
 12
373.3717330438017
 22
491.6772221851504
 32
0.0
 13
373.3717330438017
 23
491.6772221851504
 33
0.0
  0
POINT
  5
385
330
37D
100
AcDbEntity
  8
DEFPOINTS
 62
     0
100
AcDbPoint
 10
77.37173304380167
 20
477.8060213263514
 30
0.0
  0
POINT
  5
386
330
37D
100
AcDbEntity
  8
DEFPOINTS
 62
     0
100
AcDbPoint
 10
373.3717330438017
 20
477.8060213263509
 30
0.0
  0
POINT
  5
387
330
37D
100
AcDbEntity
  8
DEFPOINTS
 62
     0
100
AcDbPoint
 10
373.3717330438017
 20
491.6772221851504
 30
0.0
  0
ENDBLK
  5
388
330
37D
100
AcDbEntity
  8
0
100
AcDbBlockEnd
  0
BLOCK
  5
366
330
365
100
AcDbEntity
  8
0
100
AcDbBlockBegin
  2
*D3
 70
     1
 10
0.0
 20
0.0
 30
0.0
  3
*D3
  1

  0
LINE
  5
367
330
365
100
AcDbEntity
  8
09-01
 62
     4
370
    -2
100
AcDbLine
 10
502.1214275940877
 20
478.8060213263511
 30
0.0
 11
488.9326847519687
 21
478.8060213263511
 31
0.0
  0
LINE
  5
368
330
365
100
AcDbEntity
  8
09-01
 62
     4
370
    -2
100
AcDbLine
 10
502.1214275940877
 20
330.8060213263511
 30
0.0
 11
488.9326847519687
 21
330.8060213263511
 31
0.0
  0
LINE
  5
369
330
365
100
AcDbEntity
  8
09-01
 62
     4
370
    -2
100
AcDbLine
 10
490.9326847519688
 20
473.8060213263511
 30
0.0
 11
490.9326847519687
 21
335.8060213263511
 31
0.0
  0
SOLID
  5
36A
330
365
100
AcDbEntity
  8
09-01
 62
     4
100
AcDbTrace
 10
490.0993514186354
 20
473.8060213263511
 30
0.0
 11
491.7660180853021
 21
473.8060213263511
 31
0.0
 12
490.9326847519688
 22
478.8060213263511
 32
0.0
 13
490.9326847519688
 23
478.8060213263511
 33
0.0
  0
SOLID
  5
36B
330
365
100
AcDbEntity
  8
09-01
 62
     4
100
AcDbTrace
 10
490.0993514186354
 20
335.8060213263511
 30
0.0
 11
491.766018085302
 21
335.8060213263511
 31
0.0
 12
490.9326847519687
 22
330.8060213263511
 32
0.0
 13
490.9326847519687
 23
330.8060213263511
 33
0.0
  0
MTEXT
  5
36C
330
365
100
AcDbEntity
  8
09-01
 62
     1
100
AcDbMText
 10
486.4326847519686
 20
404.8060213263512
 30
0.0
 40
5.0
 41
0.0
 46
0.0
 71
     5
 72
     1
  1
148
 11
0.0000000000000001
 21
1.0
 31
0.0
 73
     1
 44
1.0
  0
POINT
  5
36D
330
365
100
AcDbEntity
  8
DEFPOINTS
 62
     0
100
AcDbPoint
 10
504.1214275940878
 20
478.8060213263511
 30
0.0
  0
POINT
  5
36E
330
365
100
AcDbEntity
  8
DEFPOINTS
 62
     0
100
AcDbPoint
 10
504.1214275940878
 20
330.8060213263511
 30
0.0
  0
POINT
  5
36F
330
365
100
AcDbEntity
  8
DEFPOINTS
 62
     0
100
AcDbPoint
 10
490.9326847519687
 20
330.8060213263511
 30
0.0
  0
ENDBLK
  5
370
330
365
100
AcDbEntity
  8
0
100
AcDbBlockEnd
  0
BLOCK
  5
350
330
34F
100
AcDbEntity
  8
0
100
AcDbBlockBegin
  2
*D4
 70
     1
 10
0.0
 20
0.0
 30
0.0
  3
*D4
  1

  0
LINE
  5
351
330
34F
100
AcDbEntity
  8
09-01
 62
     4
370
    -2
100
AcDbLine
 10
658.1214275940878
 20
480.8060213263511
 30
0.0
 11
658.1214275940878
 21
497.4973188593039
 31
0.0
  0
LINE
  5
352
330
34F
100
AcDbEntity
  8
09-01
 62
     4
370
    -2
100
AcDbLine
 10
504.1214275940878
 20
480.8060213263511
 30
0.0
 11
504.1214275940878
 21
497.4973188593039
 31
0.0
  0
LINE
  5
353
330
34F
100
AcDbEntity
  8
09-01
 62
     4
370
    -2
100
AcDbLine
 10
653.1214275940877
 20
495.4973188593039
 30
0.0
 11
509.1214275940878
 21
495.4973188593039
 31
0.0
  0
SOLID
  5
354
330
34F
100
AcDbEntity
  8
09-01
 62
     4
100
AcDbTrace
 10
653.1214275940877
 20
496.3306521926372
 30
0.0
 11
653.1214275940877
 21
494.6639855259706
 31
0.0
 12
658.1214275940878
 22
495.4973188593039
 32
0.0
 13
658.1214275940878
 23
495.4973188593039
 33
0.0
  0
SOLID
  5
355
330
34F
100
AcDbEntity
  8
09-01
 62
     4
100
AcDbTrace
 10
509.1214275940878
 20
496.3306521926372
 30
0.0
 11
509.1214275940878
 21
494.6639855259706
 31
0.0
 12
504.1214275940878
 22
495.4973188593039
 32
0.0
 13
504.1214275940878
 23
495.4973188593039
 33
0.0
  0
MTEXT
  5
356
330
34F
100
AcDbEntity
  8
09-01
 62
     1
100
AcDbMText
 10
581.1214275940877
 20
499.9973188593039
 30
0.0
 40
5.0
 41
0.0
 46
0.0
 71
     5
 72
     1
  1
154
 73
     1
 44
1.0
  0
POINT
  5
357
330
34F
100
AcDbEntity
  8
DEFPOINTS
 62
     0
100
AcDbPoint
 10
658.1214275940878
 20
478.8060213263511
 30
0.0
  0
POINT
  5
358
330
34F
100
AcDbEntity
  8
DEFPOINTS
 62
     0
100
AcDbPoint
 10
504.1214275940878
 20
478.8060213263511
 30
0.0
  0
POINT
  5
359
330
34F
100
AcDbEntity
  8
DEFPOINTS
 62
     0
100
AcDbPoint
 10
504.1214275940878
 20
495.4973188593039
 30
0.0
  0
ENDBLK
  5
35A
330
34F
100
AcDbEntity
  8
0
100
AcDbBlockEnd
  0
BLOCK
  5
341
330
340
100
AcDbEntity
  8
0
100
AcDbBlockBegin
  2
*D5
 70
     1
 10
0.0
 20
0.0
 30
0.0
  3
*D5
  1

  0
LINE
  5
342
330
340
100
AcDbEntity
  8
09-01
 62
     4
370
    -2
100
AcDbLine
 10
668.1214275940877
 20
478.3060213263511
 30
0.0
 11
668.1214275940877
 21
497.4973188593039
 31
0.0
  0
LINE
  5
343
330
340
100
AcDbEntity
  8
09-01
 62
     4
370
    -2
100
AcDbLine
 10
658.1214275940878
 20
478.3060213263511
 30
0.0
 11
658.1214275940878
 21
497.4973188593039
 31
0.0
  0
LINE
  5
344
330
340
100
AcDbEntity
  8
09-01
 62
     4
370
    -2
100
AcDbLine
 10
673.1214275940877
 20
495.4973188593039
 30
0.0
 11
678.1214275940877
 21
495.4973188593039
 31
0.0
  0
LINE
  5
345
330
340
100
AcDbEntity
  8
09-01
 62
     4
370
    -2
100
AcDbLine
 10
653.1214275940877
 20
495.4973188593039
 30
0.0
 11
648.1214275940877
 21
495.4973188593039
 31
0.0
  0
MTEXT
  5
346
330
340
100
AcDbEntity
  8
09-01
 62
     1
100
AcDbMText
 10
679.4086364333652
 20
502.6862172149056
 30
0.0
 40
5.0
 41
0.0
 46
0.0
 71
     5
 72
     1
  1
10
 73
     1
 44
1.0
  0
LINE
  5
347
330
340
100
AcDbEntity
  8
09-01
 62
     4
370
    -2
100
AcDbLine
 10
668.1214275940877
 20
495.4973188593039
 30
0.0
 11
658.1214275940878
 21
495.4973188593039
 31
0.0
  0
SOLID
  5
348
330
340
100
AcDbEntity
  8
09-01
 62
     4
100
AcDbTrace
 10
673.1214275940877
 20
496.3306521926372
 30
0.0
 11
673.1214275940877
 21
494.6639855259706
 31
0.0
 12
668.1214275940877
 22
495.4973188593039
 32
0.0
 13
668.1214275940877
 23
495.4973188593039
 33
0.0
  0
SOLID
  5
349
330
340
100
AcDbEntity
  8
09-01
 62
     4
100
AcDbTrace
 10
653.1214275940877
 20
496.3306521926372
 30
0.0
 11
653.1214275940877
 21
494.6639855259706
 31
0.0
 12
658.1214275940878
 22
495.4973188593039
 32
0.0
 13
658.1214275940878
 23
495.4973188593039
 33
0.0
  0
POINT
  5
34A
330
340
100
AcDbEntity
  8
DEFPOINTS
 62
     0
100
AcDbPoint
 10
668.1214275940877
 20
476.3060213263511
 30
0.0
  0
POINT
  5
34B
330
340
100
AcDbEntity
  8
DEFPOINTS
 62
     0
100
AcDbPoint
 10
658.1214275940878
 20
476.3060213263511
 30
0.0
  0
POINT
  5
34C
330
340
100
AcDbEntity
  8
DEFPOINTS
 62
     0
100
AcDbPoint
 10
658.1214275940878
 20
495.4973188593039
 30
0.0
  0
ENDBLK
  5
34D
330
340
100
AcDbEntity
  8
0
100
AcDbBlockEnd
  0
BLOCK
  5
334
330
333
100
AcDbEntity
  8
0
100
AcDbBlockBegin
  2
*D6
 70
     1
 10
0.0
 20
0.0
 30
0.0
  3
*D6
  1

  0
LINE
  5
335
330
333
100
AcDbEntity
  8
09-01
 62
     4
370
    -2
100
AcDbLine
 10
504.1214275940878
 20
483.3060213263511
 30
0.0
 11
504.1214275940878
 21
507.174308877157
 31
0.0
  0
LINE
  5
336
330
333
100
AcDbEntity
  8
09-01
 62
     4
370
    -2
100
AcDbLine
 10
668.1214275940877
 20
480.8060213263511
 30
0.0
 11
668.1214275940877
 21
507.174308877157
 31
0.0
  0
LINE
  5
337
330
333
100
AcDbEntity
  8
09-01
 62
     4
370
    -2
100
AcDbLine
 10
509.1214275940878
 20
505.174308877157
 30
0.0
 11
663.1214275940878
 21
505.174308877157
 31
0.0
  0
SOLID
  5
338
330
333
100
AcDbEntity
  8
09-01
 62
     4
100
AcDbTrace
 10
509.1214275940878
 20
506.0076422104903
 30
0.0
 11
509.1214275940878
 21
504.3409755438237
 31
0.0
 12
504.1214275940878
 22
505.174308877157
 32
0.0
 13
504.1214275940878
 23
505.174308877157
 33
0.0
  0
SOLID
  5
339
330
333
100
AcDbEntity
  8
09-01
 62
     4
100
AcDbTrace
 10
663.1214275940878
 20
506.0076422104903
 30
0.0
 11
663.1214275940878
 21
504.3409755438237
 31
0.0
 12
668.1214275940877
 22
505.174308877157
 32
0.0
 13
668.1214275940877
 23
505.174308877157
 33
0.0
  0
MTEXT
  5
33A
330
333
100
AcDbEntity
  8
09-01
 62
     1
100
AcDbMText
 10
586.1214275940877
 20
509.674308877157
 30
0.0
 40
5.0
 41
0.0
 46
0.0
 71
     5
 72
     1
  1
164
 73
     1
 44
1.0
  0
POINT
  5
33B
330
333
100
AcDbEntity
  8
DEFPOINTS
 62
     0
100
AcDbPoint
 10
504.1214275940878
 20
481.306021326351
 30
0.0
  0
POINT
  5
33C
330
333
100
AcDbEntity
  8
DEFPOINTS
 62
     0
100
AcDbPoint
 10
668.1214275940877
 20
478.8060213263511
 30
0.0
  0
POINT
  5
33D
330
333
100
AcDbEntity
  8
DEFPOINTS
 62
     0
100
AcDbPoint
 10
668.1214275940877
 20
505.174308877157
 30
0.0
  0
ENDBLK
  5
33E
330
333
100
AcDbEntity
  8
0
100
AcDbBlockEnd
  0
BLOCK
  5
31E
330
31D
100
AcDbEntity
  8
0
100
AcDbBlockBegin
  2
*D7
 70
     1
 10
0.0
 20
0.0
 30
0.0
  3
*D7
  1

  0
LINE
  5
31F
330
31D
100
AcDbEntity
  8
09-01
 62
     4
370
    -2
100
AcDbLine
 10
261.8260862229345
 20
421.4060213263511
 30
0.0
 11
254.8260862229345
 21
421.4060213263511
 31
0.0
  0
LINE
  5
320
330
31D
100
AcDbEntity
  8
09-01
 62
     4
370
    -2
100
AcDbLine
 10
261.8260862229345
 20
369.4060213263512
 30
0.0
 11
254.8260862229345
 21
369.4060213263512
 31
0.0
  0
LINE
  5
321
330
31D
100
AcDbEntity
  8
09-01
 62
     4
370
    -2
100
AcDbLine
 10
256.8260862229345
 20
416.4060213263511
 30
0.0
 11
256.8260862229345
 21
374.4060213263511
 31
0.0
  0
SOLID
  5
322
330
31D
100
AcDbEntity
  8
09-01
 62
     4
100
AcDbTrace
 10
255.9927528896011
 20
416.4060213263511
 30
0.0
 11
257.6594195562678
 21
416.4060213263511
 31
0.0
 12
256.8260862229345
 22
421.4060213263511
 32
0.0
 13
256.8260862229345
 23
421.4060213263511
 33
0.0
  0
SOLID
  5
323
330
31D
100
AcDbEntity
  8
09-01
 62
     4
100
AcDbTrace
 10
255.9927528896011
 20
374.4060213263511
 30
0.0
 11
257.6594195562678
 21
374.4060213263511
 31
0.0
 12
256.8260862229345
 22
369.4060213263512
 32
0.0
 13
256.8260862229345
 23
369.4060213263512
 33
0.0
  0
MTEXT
  5
324
330
31D
100
AcDbEntity
  8
09-01
 62
     1
100
AcDbMText
 10
252.3260862229344
 20
395.4060213263512
 30
0.0
 40
5.0
 41
0.0
 46
0.0
 71
     5
 72
     1
  1
52
 11
0.0000000000000001
 21
1.0
 31
0.0
 73
     1
 44
1.0
  0
POINT
  5
325
330
31D
100
AcDbEntity
  8
DEFPOINTS
 62
     0
100
AcDbPoint
 10
263.8260862229345
 20
421.4060213263511
 30
0.0
  0
POINT
  5
326
330
31D
100
AcDbEntity
  8
DEFPOINTS
 62
     0
100
AcDbPoint
 10
263.8260862229345
 20
369.4060213263512
 30
0.0
  0
POINT
  5
327
330
31D
100
AcDbEntity
  8
DEFPOINTS
 62
     0
100
AcDbPoint
 10
256.8260862229345
 20
369.4060213263512
 30
0.0
  0
ENDBLK
  5
328
330
31D
100
AcDbEntity
  8
0
100
AcDbBlockEnd
  0
BLOCK
  5
311
330
310
100
AcDbEntity
  8
0
100
AcDbBlockBegin
  2
*D8
 70
     1
 10
0.0
 20
0.0
 30
0.0
  3
*D8
  1

  0
LINE
  5
312
330
310
100
AcDbEntity
  8
09-01
 62
     4
370
    -2
100
AcDbLine
 10
101.3717330438016
 20
387.7240002777012
 30
0.0
 11
101.3717330438016
 21
390.7240002777012
 31
0.0
  0
LINE
  5
313
330
310
100
AcDbEntity
  8
09-01
 62
     4
370
    -2
100
AcDbLine
 10
349.3717330438017
 20
387.7240002777012
 30
0.0
 11
349.3717330438017
 21
390.7240002777012
 31
0.0
  0
LINE
  5
314
330
310
100
AcDbEntity
  8
09-01
 62
     4
370
    -2
100
AcDbLine
 10
106.3717330438016
 20
388.7240002777012
 30
0.0
 11
344.3717330438017
 21
388.7240002777012
 31
0.0
  0
SOLID
  5
315
330
310
100
AcDbEntity
  8
09-01
 62
     4
100
AcDbTrace
 10
106.3717330438016
 20
389.5573336110345
 30
0.0
 11
106.3717330438016
 21
387.8906669443679
 31
0.0
 12
101.3717330438016
 22
388.7240002777012
 32
0.0
 13
101.3717330438016
 23
388.7240002777012
 33
0.0
  0
SOLID
  5
316
330
310
100
AcDbEntity
  8
09-01
 62
     4
100
AcDbTrace
 10
344.3717330438017
 20
389.5573336110345
 30
0.0
 11
344.3717330438017
 21
387.8906669443679
 31
0.0
 12
349.3717330438017
 22
388.7240002777012
 32
0.0
 13
349.3717330438017
 23
388.7240002777012
 33
0.0
  0
MTEXT
  5
317
330
310
100
AcDbEntity
  8
09-01
 62
     1
100
AcDbMText
 10
225.3717330438017
 20
393.2240002777012
 30
0.0
 40
5.0
 41
0.0
 46
0.0
 71
     5
 72
     1
  1
248
 73
     1
 44
1.0
  0
POINT
  5
318
330
310
100
AcDbEntity
  8
DEFPOINTS
 62
     0
100
AcDbPoint
 10
101.3717330438016
 20
385.7240002777012
 30
0.0
  0
POINT
  5
319
330
310
100
AcDbEntity
  8
DEFPOINTS
 62
     0
100
AcDbPoint
 10
349.3717330438017
 20
385.7240002777012
 30
0.0
  0
POINT
  5
31A
330
310
100
AcDbEntity
  8
DEFPOINTS
 62
     0
100
AcDbPoint
 10
349.3717330438017
 20
388.7240002777012
 30
0.0
  0
ENDBLK
  5
31B
330
310
100
AcDbEntity
  8
0
100
AcDbBlockEnd
  0
BLOCK
  5
304
330
303
100
AcDbEntity
  8
0
100
AcDbBlockBegin
  2
*D9
 70
     1
 10
0.0
 20
0.0
 30
0.0
  3
*D9
  1

  0
LINE
  5
305
330
303
100
AcDbEntity
  8
09-01
 62
     4
370
    -2
100
AcDbLine
 10
255.8260862229345
 20
369.4060213263512
 30
0.0
 11
254.8260862229345
 21
369.4060213263512
 31
0.0
  0
LINE
  5
306
330
303
100
AcDbEntity
  8
09-01
 62
     4
370
    -2
100
AcDbLine
 10
255.8260862229345
 20
330.8060213263511
 30
0.0
 11
254.8260862229345
 21
330.8060213263511
 31
0.0
  0
LINE
  5
307
330
303
100
AcDbEntity
  8
09-01
 62
     4
370
    -2
100
AcDbLine
 10
256.8260862229345
 20
364.4060213263511
 30
0.0
 11
256.8260862229345
 21
335.8060213263511
 31
0.0
  0
SOLID
  5
308
330
303
100
AcDbEntity
  8
09-01
 62
     4
100
AcDbTrace
 10
255.9927528896011
 20
364.4060213263511
 30
0.0
 11
257.6594195562678
 21
364.4060213263511
 31
0.0
 12
256.8260862229345
 22
369.4060213263512
 32
0.0
 13
256.8260862229345
 23
369.4060213263512
 33
0.0
  0
SOLID
  5
309
330
303
100
AcDbEntity
  8
09-01
 62
     4
100
AcDbTrace
 10
255.9927528896011
 20
335.8060213263511
 30
0.0
 11
257.6594195562678
 21
335.8060213263511
 31
0.0
 12
256.8260862229345
 22
330.8060213263511
 32
0.0
 13
256.8260862229345
 23
330.8060213263511
 33
0.0
  0
MTEXT
  5
30A
330
303
100
AcDbEntity
  8
09-01
 62
     1
100
AcDbMText
 10
252.3260862229344
 20
350.1060213263512
 30
0.0
 40
5.0
 41
0.0
 46
0.0
 71
     5
 72
     1
  1
40
 11
0.0000000000000001
 21
1.0
 31
0.0
 73
     1
 44
1.0
  0
POINT
  5
30B
330
303
100
AcDbEntity
  8
DEFPOINTS
 62
     0
100
AcDbPoint
 10
257.8260862229345
 20
369.4060213263512
 30
0.0
  0
POINT
  5
30C
330
303
100
AcDbEntity
  8
DEFPOINTS
 62
     0
100
AcDbPoint
 10
257.8260862229345
 20
330.8060213263511
 30
0.0
  0
POINT
  5
30D
330
303
100
AcDbEntity
  8
DEFPOINTS
 62
     0
100
AcDbPoint
 10
256.8260862229345
 20
330.8060213263511
 30
0.0
  0
ENDBLK
  5
30E
330
303
100
AcDbEntity
  8
0
100
AcDbBlockEnd
  0
BLOCK
  5
2EF
330
2EE
100
AcDbEntity
  8
0
100
AcDbBlockBegin
  2
*D10
 70
     1
 10
0.0
 20
0.0
 30
0.0
  3
*D10
  1

  0
LINE
  5
2F0
330
2EE
100
AcDbEntity
  8
09-01
 62
     4
370
    -2
100
AcDbLine
 10
658.1214275940878
 20
476.8060213263511
 30
0.0
 11
658.1214275940878
 21
413.6732127421931
 31
0.0
  0
LINE
  5
2F1
330
2EE
100
AcDbEntity
  8
09-01
 62
     4
370
    -2
100
AcDbLine
 10
647.1214275940877
 20
408.3060213263511
 30
0.0
 11
647.1214275940877
 21
417.6732127421932
 31
0.0
  0
LINE
  5
2F2
330
2EE
100
AcDbEntity
  8
09-01
 62
     4
370
    -2
100
AcDbLine
 10
663.1214275940878
 20
415.6732127421931
 30
0.0
 11
668.1214275940877
 21
415.6732127421931
 31
0.0
  0
LINE
  5
2F3
330
2EE
100
AcDbEntity
  8
09-01
 62
     4
370
    -2
100
AcDbLine
 10
642.1214275940878
 20
415.6732127421931
 30
0.0
 11
637.1214275940878
 21
415.6732127421931
 31
0.0
  0
LINE
  5
2F4
330
2EE
100
AcDbEntity
  8
09-01
 62
     4
370
    -2
100
AcDbLine
 10
658.1214275940878
 20
415.6732127421931
 30
0.0
 11
647.1214275940877
 21
415.6732127421931
 31
0.0
  0
SOLID
  5
2F5
330
2EE
100
AcDbEntity
  8
09-01
 62
     4
100
AcDbTrace
 10
663.1214275940878
 20
416.5065460755265
 30
0.0
 11
663.1214275940878
 21
414.8398794088598
 31
0.0
 12
658.1214275940878
 22
415.6732127421931
 32
0.0
 13
658.1214275940878
 23
415.6732127421931
 33
0.0
  0
SOLID
  5
2F6
330
2EE
100
AcDbEntity
  8
09-01
 62
     4
100
AcDbTrace
 10
642.1214275940878
 20
416.5065460755265
 30
0.0
 11
642.1214275940878
 21
414.8398794088598
 31
0.0
 12
647.1214275940877
 22
415.6732127421931
 32
0.0
 13
647.1214275940877
 23
415.6732127421931
 33
0.0
  0
MTEXT
  5
2F7
330
2EE
100
AcDbEntity
  8
09-01
 62
     1
100
AcDbMText
 10
652.6214275940877
 20
420.1732127421932
 30
0.0
 40
5.0
 41
0.0
 46
0.0
 71
     5
 72
     1
  1
11
 73
     1
 44
1.0
  0
POINT
  5
2F8
330
2EE
100
AcDbEntity
  8
DEFPOINTS
 62
     0
100
AcDbPoint
 10
658.1214275940878
 20
478.8060213263511
 30
0.0
  0
POINT
  5
2F9
330
2EE
100
AcDbEntity
  8
DEFPOINTS
 62
     0
100
AcDbPoint
 10
647.1214275940877
 20
406.306021326351
 30
0.0
  0
POINT
  5
2FA
330
2EE
100
AcDbEntity
  8
DEFPOINTS
 62
     0
100
AcDbPoint
 10
647.1214275940877
 20
415.6732127421931
 30
0.0
  0
ENDBLK
  5
2FB
330
2EE
100
AcDbEntity
  8
0
100
AcDbBlockEnd
  0
BLOCK
  5
2E2
330
2E1
100
AcDbEntity
  8
0
100
AcDbBlockBegin
  2
*D11
 70
     1
 10
0.0
 20
0.0
 30
0.0
  3
*D11
  1

  0
LINE
  5
2E3
330
2E1
100
AcDbEntity
  8
09-01
 62
     4
370
    -2
100
AcDbLine
 10
656.1214275940877
 20
478.8060213263511
 30
0.0
 11
627.6929331365811
 21
478.8060213263512
 31
0.0
  0
LINE
  5
2E4
330
2E1
100
AcDbEntity
  8
09-01
 62
     4
370
    -2
100
AcDbLine
 10
639.5214275940877
 20
400.8060213263512
 30
0.0
 11
627.6929331365811
 21
400.8060213263512
 31
0.0
  0
LINE
  5
2E5
330
2E1
100
AcDbEntity
  8
09-01
 62
     4
370
    -2
100
AcDbLine
 10
629.6929331365811
 20
473.8060213263511
 30
0.0
 11
629.6929331365811
 21
405.8060213263511
 31
0.0
  0
SOLID
  5
2E6
330
2E1
100
AcDbEntity
  8
09-01
 62
     4
100
AcDbTrace
 10
628.8595998032477
 20
473.8060213263511
 30
0.0
 11
630.5262664699145
 21
473.8060213263511
 31
0.0
 12
629.6929331365811
 22
478.8060213263512
 32
0.0
 13
629.6929331365811
 23
478.8060213263512
 33
0.0
  0
SOLID
  5
2E7
330
2E1
100
AcDbEntity
  8
09-01
 62
     4
100
AcDbTrace
 10
628.8595998032477
 20
405.8060213263511
 30
0.0
 11
630.5262664699145
 21
405.8060213263511
 31
0.0
 12
629.6929331365811
 22
400.8060213263512
 32
0.0
 13
629.6929331365811
 23
400.8060213263512
 33
0.0
  0
MTEXT
  5
2E8
330
2E1
100
AcDbEntity
  8
09-01
 62
     1
100
AcDbMText
 10
625.1929331365809
 20
439.8060213263512
 30
0.0
 40
5.0
 41
0.0
 46
0.0
 71
     5
 72
     1
  1
78
 11
0.0000000000000001
 21
1.0
 31
0.0
 73
     1
 44
1.0
  0
POINT
  5
2E9
330
2E1
100
AcDbEntity
  8
DEFPOINTS
 62
     0
100
AcDbPoint
 10
658.1214275940878
 20
478.8060213263511
 30
0.0
  0
POINT
  5
2EA
330
2E1
100
AcDbEntity
  8
DEFPOINTS
 62
     0
100
AcDbPoint
 10
641.5214275940877
 20
400.8060213263511
 30
0.0
  0
POINT
  5
2EB
330
2E1
100
AcDbEntity
  8
DEFPOINTS
 62
     0
100
AcDbPoint
 10
629.6929331365811
 20
400.8060213263512
 30
0.0
  0
ENDBLK
  5
2EC
330
2E1
100
AcDbEntity
  8
0
100
AcDbBlockEnd
  0
BLOCK
  5
2D3
330
2D2
100
AcDbEntity
  8
0
100
AcDbBlockBegin
  2
*D12
 70
     1
 10
0.0
 20
0.0
 30
0.0
  3
*D12
  1

  0
LINE
  5
2D4
330
2D2
100
AcDbEntity
  8
09-01
 62
     4
370
    -2
100
AcDbLine
 10
644.6214275940877
 20
398.8060213263511
 30
0.0
 11
644.6214275940877
 21
384.2416021907344
 31
0.0
  0
LINE
  5
2D5
330
2D2
100
AcDbEntity
  8
09-01
 62
     4
370
    -2
100
AcDbLine
 10
649.6214275940878
 20
398.8060213263511
 30
0.0
 11
649.6214275940878
 21
384.2416021907344
 31
0.0
  0
LINE
  5
2D6
330
2D2
100
AcDbEntity
  8
09-01
 62
     4
370
    -2
100
AcDbLine
 10
639.6214275940877
 20
386.2416021907344
 30
0.0
 11
634.6214275940877
 21
386.2416021907344
 31
0.0
  0
LINE
  5
2D7
330
2D2
100
AcDbEntity
  8
09-01
 62
     4
370
    -2
100
AcDbLine
 10
654.6214275940878
 20
386.2416021907344
 30
0.0
 11
659.6214275940877
 21
386.2416021907344
 31
0.0
  0
MTEXT
  5
2D8
330
2D2
100
AcDbEntity
  8
09-01
 62
     1
100
AcDbMText
 10
637.140566010248
 20
390.0936994797256
 30
0.0
 40
5.0
 41
0.0
 46
0.0
 71
     5
 72
     1
  1
5
 73
     1
 44
1.0
  0
LINE
  5
2D9
330
2D2
100
AcDbEntity
  8
09-01
 62
     4
370
    -2
100
AcDbLine
 10
644.6214275940877
 20
386.2416021907344
 30
0.0
 11
649.6214275940878
 21
386.2416021907344
 31
0.0
  0
SOLID
  5
2DA
330
2D2
100
AcDbEntity
  8
09-01
 62
     4
100
AcDbTrace
 10
639.6214275940877
 20
387.0749355240677
 30
0.0
 11
639.6214275940877
 21
385.4082688574011
 31
0.0
 12
644.6214275940877
 22
386.2416021907344
 32
0.0
 13
644.6214275940877
 23
386.2416021907344
 33
0.0
  0
SOLID
  5
2DB
330
2D2
100
AcDbEntity
  8
09-01
 62
     4
100
AcDbTrace
 10
654.6214275940878
 20
387.0749355240677
 30
0.0
 11
654.6214275940878
 21
385.4082688574011
 31
0.0
 12
649.6214275940878
 22
386.2416021907344
 32
0.0
 13
649.6214275940878
 23
386.2416021907344
 33
0.0
  0
POINT
  5
2DC
330
2D2
100
AcDbEntity
  8
DEFPOINTS
 62
     0
100
AcDbPoint
 10
644.6214275940877
 20
400.8060213263511
 30
0.0
  0
POINT
  5
2DD
330
2D2
100
AcDbEntity
  8
DEFPOINTS
 62
     0
100
AcDbPoint
 10
649.6214275940878
 20
400.8060213263511
 30
0.0
  0
POINT
  5
2DE
330
2D2
100
AcDbEntity
  8
DEFPOINTS
 62
     0
100
AcDbPoint
 10
649.6214275940878
 20
386.2416021907344
 30
0.0
  0
ENDBLK
  5
2DF
330
2D2
100
AcDbEntity
  8
0
100
AcDbBlockEnd
  0
BLOCK
  5
2C6
330
2C5
100
AcDbEntity
  8
0
100
AcDbBlockBegin
  2
*D13
 70
     1
 10
0.0
 20
0.0
 30
0.0
  3
*D13
  1

  0
LINE
  5
2C7
330
2C5
100
AcDbEntity
  8
09-01
 62
     4
370
    -2
100
AcDbLine
 10
639.5214275940877
 20
400.8060213263512
 30
0.0
 11
627.6929331365811
 21
400.8060213263512
 31
0.0
  0
LINE
  5
2C8
330
2C5
100
AcDbEntity
  8
09-01
 62
     4
370
    -2
100
AcDbLine
 10
656.1214275940877
 20
330.8060213263511
 30
0.0
 11
627.6929331365811
 21
330.8060213263512
 31
0.0
  0
LINE
  5
2C9
330
2C5
100
AcDbEntity
  8
09-01
 62
     4
370
    -2
100
AcDbLine
 10
629.6929331365811
 20
395.8060213263512
 30
0.0
 11
629.6929331365811
 21
335.8060213263512
 31
0.0
  0
SOLID
  5
2CA
330
2C5
100
AcDbEntity
  8
09-01
 62
     4
100
AcDbTrace
 10
628.8595998032477
 20
395.8060213263512
 30
0.0
 11
630.5262664699145
 21
395.8060213263512
 31
0.0
 12
629.6929331365811
 22
400.8060213263512
 32
0.0
 13
629.6929331365811
 23
400.8060213263512
 33
0.0
  0
SOLID
  5
2CB
330
2C5
100
AcDbEntity
  8
09-01
 62
     4
100
AcDbTrace
 10
628.8595998032477
 20
335.8060213263512
 30
0.0
 11
630.5262664699145
 21
335.8060213263512
 31
0.0
 12
629.6929331365811
 22
330.8060213263512
 32
0.0
 13
629.6929331365811
 23
330.8060213263512
 33
0.0
  0
MTEXT
  5
2CC
330
2C5
100
AcDbEntity
  8
09-01
 62
     1
100
AcDbMText
 10
625.1929331365809
 20
365.8060213263512
 30
0.0
 40
5.0
 41
0.0
 46
0.0
 71
     5
 72
     1
  1
70
 11
0.0000000000000001
 21
1.0
 31
0.0
 73
     1
 44
1.0
  0
POINT
  5
2CD
330
2C5
100
AcDbEntity
  8
DEFPOINTS
 62
     0
100
AcDbPoint
 10
641.5214275940877
 20
400.8060213263511
 30
0.0
  0
POINT
  5
2CE
330
2C5
100
AcDbEntity
  8
DEFPOINTS
 62
     0
100
AcDbPoint
 10
658.1214275940878
 20
330.8060213263511
 30
0.0
  0
POINT
  5
2CF
330
2C5
100
AcDbEntity
  8
DEFPOINTS
 62
     0
100
AcDbPoint
 10
629.6929331365811
 20
330.8060213263512
 30
0.0
  0
ENDBLK
  5
2D0
330
2C5
100
AcDbEntity
  8
0
100
AcDbBlockEnd
  0
BLOCK
  5
2A9
330
2A8
100
AcDbEntity
  8
0
100
AcDbBlockBegin
  2
*D14
 70
     1
 10
0.0
 20
0.0
 30
0.0
  3
*D14
  1

  0
LINE
  5
2AA
330
2A8
100
AcDbEntity
  8
09-01
 62
     4
370
    -2
100
AcDbLine
 10
140.4717330438016
 20
103.3656024000108
 30
0.0
 11
150.5504122495188
 21
103.3656024000108
 31
0.0
  0
LINE
  5
2AB
330
2A8
100
AcDbEntity
  8
09-01
 62
     4
370
    -2
100
AcDbLine
 10
162.6461666462708
 20
92.36560240001086
 30
0.0
 11
146.5504122495188
 21
92.36560240001088
 31
0.0
  0
LINE
  5
2AC
330
2A8
100
AcDbEntity
  8
09-01
 62
     4
370
    -2
100
AcDbLine
 10
148.5504122495188
 20
108.3656024000108
 30
0.0
 11
148.5504122495188
 21
113.3656024000108
 31
0.0
  0
LINE
  5
2AD
330
2A8
100
AcDbEntity
  8
09-01
 62
     4
370
    -2
100
AcDbLine
 10
148.5504122495188
 20
87.36560240001088
 30
0.0
 11
148.5504122495188
 21
82.36560240001088
 31
0.0
  0
MTEXT
  5
2AE
330
2A8
100
AcDbEntity
  8
09-01
 62
     1
100
AcDbMText
 10
144.0871966713733
 20
87.51984376374265
 30
0.0
 40
5.0
 41
0.0
 46
0.0
 71
     5
 72
     1
  1
11
 11
0.0000000000000001
 21
1.0
 31
0.0
 73
     1
 44
1.0
  0
LINE
  5
2AF
330
2A8
100
AcDbEntity
  8
09-01
 62
     4
370
    -2
100
AcDbLine
 10
148.5504122495188
 20
103.3656024000108
 30
0.0
 11
148.5504122495188
 21
92.36560240001088
 31
0.0
  0
SOLID
  5
2B0
330
2A8
100
AcDbEntity
  8
09-01
 62
     4
100
AcDbTrace
 10
147.7170789161854
 20
108.3656024000108
 30
0.0
 11
149.3837455828521
 21
108.3656024000108
 31
0.0
 12
148.5504122495188
 22
103.3656024000108
 32
0.0
 13
148.5504122495188
 23
103.3656024000108
 33
0.0
  0
SOLID
  5
2B1
330
2A8
100
AcDbEntity
  8
09-01
 62
     4
100
AcDbTrace
 10
147.7170789161854
 20
87.36560240001088
 30
0.0
 11
149.3837455828521
 21
87.36560240001088
 31
0.0
 12
148.5504122495188
 22
92.36560240001088
 32
0.0
 13
148.5504122495188
 23
92.36560240001088
 33
0.0
  0
POINT
  5
2B2
330
2A8
100
AcDbEntity
  8
DEFPOINTS
 62
     0
100
AcDbPoint
 10
138.4717330438016
 20
103.3656024000108
 30
0.0
  0
POINT
  5
2B3
330
2A8
100
AcDbEntity
  8
DEFPOINTS
 62
     0
100
AcDbPoint
 10
164.6461666462708
 20
92.36560240001086
 30
0.0
  0
POINT
  5
2B4
330
2A8
100
AcDbEntity
  8
DEFPOINTS
 62
     0
100
AcDbPoint
 10
148.5504122495188
 20
92.36560240001088
 30
0.0
  0
ENDBLK
  5
2B5
330
2A8
100
AcDbEntity
  8
0
100
AcDbBlockEnd
  0
BLOCK
  5
294
330
293
100
AcDbEntity
  8
0
100
AcDbBlockBegin
  2
*D15
 70
     1
 10
0.0
 20
0.0
 30
0.0
  3
*D15
  1

  0
LINE
  5
295
330
293
100
AcDbEntity
  8
09-01
 62
     4
370
    -2
100
AcDbLine
 10
134.9717330438016
 20
108.8656024000108
 30
0.0
 11
134.9717330438016
 21
123.833321383571
 31
0.0
  0
LINE
  5
296
330
293
100
AcDbEntity
  8
09-01
 62
     4
370
    -2
100
AcDbLine
 10
315.7717330438016
 20
108.8656024000108
 30
0.0
 11
315.7717330438016
 21
123.833321383571
 31
0.0
  0
LINE
  5
297
330
293
100
AcDbEntity
  8
09-01
 62
     4
370
    -2
100
AcDbLine
 10
139.9717330438015
 20
121.833321383571
 30
0.0
 11
310.7717330438017
 21
121.833321383571
 31
0.0
  0
SOLID
  5
298
330
293
100
AcDbEntity
  8
09-01
 62
     4
100
AcDbTrace
 10
139.9717330438015
 20
122.6666547169044
 30
0.0
 11
139.9717330438015
 21
120.9999880502377
 31
0.0
 12
134.9717330438016
 22
121.833321383571
 32
0.0
 13
134.9717330438016
 23
121.833321383571
 33
0.0
  0
SOLID
  5
299
330
293
100
AcDbEntity
  8
09-01
 62
     4
100
AcDbTrace
 10
310.7717330438017
 20
122.6666547169044
 30
0.0
 11
310.7717330438017
 21
120.9999880502377
 31
0.0
 12
315.7717330438016
 22
121.833321383571
 32
0.0
 13
315.7717330438016
 23
121.833321383571
 33
0.0
  0
MTEXT
  5
29A
330
293
100
AcDbEntity
  8
09-01
 62
     1
100
AcDbMText
 10
225.3717330438016
 20
126.333321383571
 30
0.0
 40
5.0
 41
0.0
 46
0.0
 71
     5
 72
     1
  1
180.8
 73
     1
 44
1.0
  0
POINT
  5
29B
330
293
100
AcDbEntity
  8
DEFPOINTS
 62
     0
100
AcDbPoint
 10
134.9717330438016
 20
106.8656024000108
 30
0.0
  0
POINT
  5
29C
330
293
100
AcDbEntity
  8
DEFPOINTS
 62
     0
100
AcDbPoint
 10
315.7717330438016
 20
106.8656024000108
 30
0.0
  0
POINT
  5
29D
330
293
100
AcDbEntity
  8
DEFPOINTS
 62
     0
100
AcDbPoint
 10
315.7717330438016
 20
121.833321383571
 30
0.0
  0
ENDBLK
  5
29E
330
293
100
AcDbEntity
  8
0
100
AcDbBlockEnd
  0
BLOCK
  5
285
330
284
100
AcDbEntity
  8
0
100
AcDbBlockBegin
  2
*D16
 70
     1
 10
0.0
 20
0.0
 30
0.0
  3
*D16
  1

  0
LINE
  5
286
330
284
100
AcDbEntity
  8
09-01
 62
     4
370
    -2
100
AcDbLine
 10
317.7717330438016
 20
105.8656024000108
 30
0.0
 11
341.028264732388
 21
105.8656024000108
 31
0.0
  0
LINE
  5
287
330
284
100
AcDbEntity
  8
09-01
 62
     4
370
    -2
100
AcDbLine
 10
317.7717330438016
 20
100.8656024000108
 30
0.0
 11
341.028264732388
 21
100.8656024000108
 31
0.0
  0
LINE
  5
288
330
284
100
AcDbEntity
  8
09-01
 62
     4
370
    -2
100
AcDbLine
 10
339.028264732388
 20
110.8656024000108
 30
0.0
 11
339.028264732388
 21
115.8656024000108
 31
0.0
  0
LINE
  5
289
330
284
100
AcDbEntity
  8
09-01
 62
     4
370
    -2
100
AcDbLine
 10
339.028264732388
 20
95.86560240001086
 30
0.0
 11
339.028264732388
 21
90.86560240001086
 31
0.0
  0
MTEXT
  5
28A
330
284
100
AcDbEntity
  8
09-01
 62
     1
100
AcDbMText
 10
334.7668859338129
 20
112.0188766377419
 30
0.0
 40
5.0
 41
0.0
 46
0.0
 71
     5
 72
     1
  1
5
 11
0.0000000000000001
 21
1.0
 31
0.0
 73
     1
 44
1.0
  0
LINE
  5
28B
330
284
100
AcDbEntity
  8
09-01
 62
     4
370
    -2
100
AcDbLine
 10
339.028264732388
 20
105.8656024000108
 30
0.0
 11
339.028264732388
 21
100.8656024000108
 31
0.0
  0
SOLID
  5
28C
330
284
100
AcDbEntity
  8
09-01
 62
     4
100
AcDbTrace
 10
338.1949313990547
 20
110.8656024000108
 30
0.0
 11
339.8615980657214
 21
110.8656024000108
 31
0.0
 12
339.028264732388
 22
105.8656024000108
 32
0.0
 13
339.028264732388
 23
105.8656024000108
 33
0.0
  0
SOLID
  5
28D
330
284
100
AcDbEntity
  8
09-01
 62
     4
100
AcDbTrace
 10
338.1949313990547
 20
95.86560240001086
 30
0.0
 11
339.8615980657214
 21
95.86560240001086
 31
0.0
 12
339.028264732388
 22
100.8656024000108
 32
0.0
 13
339.028264732388
 23
100.8656024000108
 33
0.0
  0
POINT
  5
28E
330
284
100
AcDbEntity
  8
DEFPOINTS
 62
     0
100
AcDbPoint
 10
315.7717330438016
 20
105.8656024000108
 30
0.0
  0
POINT
  5
28F
330
284
100
AcDbEntity
  8
DEFPOINTS
 62
     0
100
AcDbPoint
 10
315.7717330438016
 20
100.8656024000108
 30
0.0
  0
POINT
  5
290
330
284
100
AcDbEntity
  8
DEFPOINTS
 62
     0
100
AcDbPoint
 10
339.028264732388
 20
100.8656024000108
 30
0.0
  0
ENDBLK
  5
291
330
284
100
AcDbEntity
  8
0
100
AcDbBlockEnd
  0
BLOCK
  5
278
330
277
100
AcDbEntity
  8
0
100
AcDbBlockBegin
  2
*D17
 70
     1
 10
0.0
 20
0.0
 30
0.0
  3
*D17
  1

  0
LINE
  5
279
330
277
100
AcDbEntity
  8
09-01
 62
     4
370
    -2
100
AcDbLine
 10
134.9717330438016
 20
108.8656024000108
 30
0.0
 11
134.9717330438016
 21
123.833321383571
 31
0.0
  0
LINE
  5
27A
330
277
100
AcDbEntity
  8
09-01
 62
     4
370
    -2
100
AcDbLine
 10
76.3717330438015
 20
94.3656024000108
 30
0.0
 11
76.3717330438015
 21
123.833321383571
 31
0.0
  0
LINE
  5
27B
330
277
100
AcDbEntity
  8
09-01
 62
     4
370
    -2
100
AcDbLine
 10
129.9717330438016
 20
121.833321383571
 30
0.0
 11
81.3717330438015
 21
121.833321383571
 31
0.0
  0
SOLID
  5
27C
330
277
100
AcDbEntity
  8
09-01
 62
     4
100
AcDbTrace
 10
129.9717330438016
 20
122.6666547169044
 30
0.0
 11
129.9717330438016
 21
120.9999880502377
 31
0.0
 12
134.9717330438016
 22
121.833321383571
 32
0.0
 13
134.9717330438016
 23
121.833321383571
 33
0.0
  0
SOLID
  5
27D
330
277
100
AcDbEntity
  8
09-01
 62
     4
100
AcDbTrace
 10
81.3717330438015
 20
122.6666547169044
 30
0.0
 11
81.3717330438015
 21
120.9999880502377
 31
0.0
 12
76.3717330438015
 22
121.833321383571
 32
0.0
 13
76.3717330438015
 23
121.833321383571
 33
0.0
  0
MTEXT
  5
27E
330
277
100
AcDbEntity
  8
09-01
 62
     1
100
AcDbMText
 10
105.6717330438015
 20
126.333321383571
 30
0.0
 40
5.0
 41
0.0
 46
0.0
 71
     5
 72
     1
  1
58.6
 73
     1
 44
1.0
  0
POINT
  5
27F
330
277
100
AcDbEntity
  8
DEFPOINTS
 62
     0
100
AcDbPoint
 10
134.9717330438016
 20
106.8656024000108
 30
0.0
  0
POINT
  5
280
330
277
100
AcDbEntity
  8
DEFPOINTS
 62
     0
100
AcDbPoint
 10
76.3717330438015
 20
92.36560240001081
 30
0.0
  0
POINT
  5
281
330
277
100
AcDbEntity
  8
DEFPOINTS
 62
     0
100
AcDbPoint
 10
76.3717330438015
 20
121.833321383571
 30
0.0
  0
ENDBLK
  5
282
330
277
100
AcDbEntity
  8
0
100
AcDbBlockEnd
  0
BLOCK
  5
26C
330
26B
100
AcDbEntity
  8
0
100
AcDbBlockBegin
  2
*D18
 70
     1
 10
0.0
 20
0.0
 30
0.0
  3
*D18
  1

  0
LINE
  5
26D
330
26B
100
AcDbEntity
  8
09-01
 62
     4
370
    -2
100
AcDbLine
 10
374.3717330438014
 20
94.36560240001091
 30
0.0
 11
374.3717330438014
 21
123.833321383571
 31
0.0
  0
LINE
  5
26E
330
26B
100
AcDbEntity
  8
09-01
 62
     4
370
    -2
100
AcDbLine
 10
320.7717330438017
 20
121.833321383571
 30
0.0
 11
369.3717330438015
 21
121.833321383571
 31
0.0
  0
SOLID
  5
26F
330
26B
100
AcDbEntity
  8
09-01
 62
     4
100
AcDbTrace
 10
320.7717330438017
 20
122.6666547169044
 30
0.0
 11
320.7717330438017
 21
120.9999880502377
 31
0.0
 12
315.7717330438016
 22
121.833321383571
 32
0.0
 13
315.7717330438016
 23
121.833321383571
 33
0.0
  0
SOLID
  5
270
330
26B
100
AcDbEntity
  8
09-01
 62
     4
100
AcDbTrace
 10
369.3717330438015
 20
122.6666547169044
 30
0.0
 11
369.3717330438015
 21
120.9999880502377
 31
0.0
 12
374.3717330438014
 22
121.833321383571
 32
0.0
 13
374.3717330438014
 23
121.833321383571
 33
0.0
  0
MTEXT
  5
271
330
26B
100
AcDbEntity
  8
09-01
 62
     1
100
AcDbMText
 10
345.0717330438016
 20
126.333321383571
 30
0.0
 40
5.0
 41
0.0
 46
0.0
 71
     5
 72
     1
  1
58.6
 73
     1
 44
1.0
  0
POINT
  5
272
330
26B
100
AcDbEntity
  8
DEFPOINTS
 62
     0
100
AcDbPoint
 10
315.7717330438016
 20
121.833321383571
 30
0.0
  0
POINT
  5
273
330
26B
100
AcDbEntity
  8
DEFPOINTS
 62
     0
100
AcDbPoint
 10
374.3717330438014
 20
92.36560240001091
 30
0.0
  0
POINT
  5
274
330
26B
100
AcDbEntity
  8
DEFPOINTS
 62
     0
100
AcDbPoint
 10
374.3717330438014
 20
121.833321383571
 30
0.0
  0
ENDBLK
  5
275
330
26B
100
AcDbEntity
  8
0
100
AcDbBlockEnd
  0
BLOCK
  5
25F
330
25E
100
AcDbEntity
  8
0
100
AcDbBlockBegin
  2
*D19
 70
     1
 10
0.0
 20
0.0
 30
0.0
  3
*D19
  1

  0
LINE
  5
260
330
25E
100
AcDbEntity
  8
09-01
 62
     4
370
    -2
100
AcDbLine
 10
77.37173304380139
 20
80.36560240001092
 30
0.0
 11
77.37173304380139
 21
61.91693381382288
 31
0.0
  0
LINE
  5
261
330
25E
100
AcDbEntity
  8
09-01
 62
     4
370
    -2
100
AcDbLine
 10
373.3717330438013
 20
80.36560240001085
 30
0.0
 11
373.3717330438013
 21
61.91693381382288
 31
0.0
  0
LINE
  5
262
330
25E
100
AcDbEntity
  8
09-01
 62
     4
370
    -2
100
AcDbLine
 10
82.37173304380139
 20
63.91693381382288
 30
0.0
 11
368.3717330438013
 21
63.91693381382288
 31
0.0
  0
SOLID
  5
263
330
25E
100
AcDbEntity
  8
09-01
 62
     4
100
AcDbTrace
 10
82.37173304380139
 20
64.75026714715621
 30
0.0
 11
82.37173304380139
 21
63.08360048048954
 31
0.0
 12
77.37173304380139
 22
63.91693381382288
 32
0.0
 13
77.37173304380139
 23
63.91693381382288
 33
0.0
  0
SOLID
  5
264
330
25E
100
AcDbEntity
  8
09-01
 62
     4
100
AcDbTrace
 10
368.3717330438013
 20
64.75026714715621
 30
0.0
 11
368.3717330438013
 21
63.08360048048954
 31
0.0
 12
373.3717330438013
 22
63.91693381382288
 32
0.0
 13
373.3717330438013
 23
63.91693381382288
 33
0.0
  0
MTEXT
  5
265
330
25E
100
AcDbEntity
  8
09-01
 62
     1
100
AcDbMText
 10
225.3717330438014
 20
68.41693381382288
 30
0.0
 40
5.0
 41
0.0
 46
0.0
 71
     5
 72
     1
  1
296
 73
     1
 44
1.0
  0
POINT
  5
266
330
25E
100
AcDbEntity
  8
DEFPOINTS
 62
     0
100
AcDbPoint
 10
77.37173304380139
 20
82.36560240001091
 30
0.0
  0
POINT
  5
267
330
25E
100
AcDbEntity
  8
DEFPOINTS
 62
     0
100
AcDbPoint
 10
373.3717330438013
 20
82.36560240001086
 30
0.0
  0
POINT
  5
268
330
25E
100
AcDbEntity
  8
DEFPOINTS
 62
     0
100
AcDbPoint
 10
373.3717330438013
 20
63.91693381382288
 30
0.0
  0
ENDBLK
  5
269
330
25E
100
AcDbEntity
  8
0
100
AcDbBlockEnd
  0
BLOCK
  5
250
330
24F
100
AcDbEntity
  8
0
100
AcDbBlockBegin
  2
*D20
 70
     1
 10
0.0
 20
0.0
 30
0.0
  3
*D20
  1

  0
LINE
  5
251
330
24F
100
AcDbEntity
  8
09-01
 62
     4
370
    -2
100
AcDbLine
 10
76.3717330438015
 20
92.36560240001081
 30
0.0
 11
76.3717330438015
 21
61.91693381382288
 31
0.0
  0
LINE
  5
252
330
24F
100
AcDbEntity
  8
09-01
 62
     4
370
    -2
100
AcDbLine
 10
77.37173304380141
 20
80.36560240001092
 30
0.0
 11
77.37173304380141
 21
61.91693381382288
 31
0.0
  0
LINE
  5
253
330
24F
100
AcDbEntity
  8
09-01
 62
     4
370
    -2
100
AcDbLine
 10
71.3717330438015
 20
63.91693381382288
 30
0.0
 11
66.3717330438015
 21
63.91693381382288
 31
0.0
  0
LINE
  5
254
330
24F
100
AcDbEntity
  8
09-01
 62
     4
370
    -2
100
AcDbLine
 10
82.3717330438014
 20
63.91693381382288
 30
0.0
 11
87.3717330438014
 21
63.91693381382288
 31
0.0
  0
MTEXT
  5
255
330
24F
100
AcDbEntity
  8
09-01
 62
     1
100
AcDbMText
 10
69.26029204428414
 20
68.26242402743742
 30
0.0
 40
5.0
 41
0.0
 46
0.0
 71
     5
 72
     1
  1
1
 73
     1
 44
1.0
  0
LINE
  5
256
330
24F
100
AcDbEntity
  8
09-01
 62
     4
370
    -2
100
AcDbLine
 10
76.3717330438015
 20
63.91693381382288
 30
0.0
 11
77.37173304380141
 21
63.91693381382288
 31
0.0
  0
SOLID
  5
257
330
24F
100
AcDbEntity
  8
09-01
 62
     4
100
AcDbTrace
 10
71.3717330438015
 20
64.75026714715621
 30
0.0
 11
71.3717330438015
 21
63.08360048048954
 31
0.0
 12
76.3717330438015
 22
63.91693381382288
 32
0.0
 13
76.3717330438015
 23
63.91693381382288
 33
0.0
  0
SOLID
  5
258
330
24F
100
AcDbEntity
  8
09-01
 62
     4
100
AcDbTrace
 10
82.3717330438014
 20
64.75026714715621
 30
0.0
 11
82.3717330438014
 21
63.08360048048954
 31
0.0
 12
77.37173304380141
 22
63.91693381382288
 32
0.0
 13
77.37173304380141
 23
63.91693381382288
 33
0.0
  0
POINT
  5
259
330
24F
100
AcDbEntity
  8
DEFPOINTS
 62
     0
100
AcDbPoint
 10
76.3717330438015
 20
94.3656024000108
 30
0.0
  0
POINT
  5
25A
330
24F
100
AcDbEntity
  8
DEFPOINTS
 62
     0
100
AcDbPoint
 10
77.37173304380141
 20
82.36560240001091
 30
0.0
  0
POINT
  5
25B
330
24F
100
AcDbEntity
  8
DEFPOINTS
 62
     0
100
AcDbPoint
 10
77.37173304380141
 20
63.91693381382288
 30
0.0
  0
ENDBLK
  5
25C
330
24F
100
AcDbEntity
  8
0
100
AcDbBlockEnd
  0
BLOCK
  5
240
330
23F
100
AcDbEntity
  8
0
100
AcDbBlockBegin
  2
*D21
 70
     1
 10
0.0
 20
0.0
 30
0.0
  3
*D21
  1

  0
LINE
  5
241
330
23F
100
AcDbEntity
  8
09-01
 62
     4
370
    -2
100
AcDbLine
 10
373.3717330438013
 20
81.16560240001081
 30
0.0
 11
373.3717330438013
 21
61.91693381382288
 31
0.0
  0
LINE
  5
242
330
23F
100
AcDbEntity
  8
09-01
 62
     4
370
    -2
100
AcDbLine
 10
374.3717330438014
 20
90.36560240001092
 30
0.0
 11
374.3717330438014
 21
61.91693381382288
 31
0.0
  0
LINE
  5
243
330
23F
100
AcDbEntity
  8
09-01
 62
     4
370
    -2
100
AcDbLine
 10
368.3717330438013
 20
63.91693381382288
 30
0.0
 11
363.3717330438013
 21
63.91693381382288
 31
0.0
  0
LINE
  5
244
330
23F
100
AcDbEntity
  8
09-01
 62
     4
370
    -2
100
AcDbLine
 10
379.3717330438014
 20
63.91693381382288
 30
0.0
 11
384.3717330438014
 21
63.91693381382288
 31
0.0
  0
MTEXT
  5
245
330
23F
100
AcDbEntity
  8
09-01
 62
     1
100
AcDbMText
 10
382.7148062689539
 20
68.26242402743742
 30
0.0
 40
5.0
 41
0.0
 46
0.0
 71
     5
 72
     1
  1
1
 73
     1
 44
1.0
  0
LINE
  5
246
330
23F
100
AcDbEntity
  8
09-01
 62
     4
370
    -2
100
AcDbLine
 10
373.3717330438013
 20
63.91693381382288
 30
0.0
 11
374.3717330438014
 21
63.91693381382288
 31
0.0
  0
SOLID
  5
247
330
23F
100
AcDbEntity
  8
09-01
 62
     4
100
AcDbTrace
 10
368.3717330438013
 20
64.75026714715621
 30
0.0
 11
368.3717330438013
 21
63.08360048048954
 31
0.0
 12
373.3717330438013
 22
63.91693381382288
 32
0.0
 13
373.3717330438013
 23
63.91693381382288
 33
0.0
  0
SOLID
  5
248
330
23F
100
AcDbEntity
  8
09-01
 62
     4
100
AcDbTrace
 10
379.3717330438014
 20
64.75026714715621
 30
0.0
 11
379.3717330438014
 21
63.08360048048954
 31
0.0
 12
374.3717330438014
 22
63.91693381382288
 32
0.0
 13
374.3717330438014
 23
63.91693381382288
 33
0.0
  0
POINT
  5
249
330
23F
100
AcDbEntity
  8
DEFPOINTS
 62
     0
100
AcDbPoint
 10
373.3717330438013
 20
83.16560240001081
 30
0.0
  0
POINT
  5
24A
330
23F
100
AcDbEntity
  8
DEFPOINTS
 62
     0
100
AcDbPoint
 10
374.3717330438014
 20
92.36560240001091
 30
0.0
  0
POINT
  5
24B
330
23F
100
AcDbEntity
  8
DEFPOINTS
 62
     0
100
AcDbPoint
 10
374.3717330438014
 20
63.91693381382288
 30
0.0
  0
ENDBLK
  5
24C
330
23F
100
AcDbEntity
  8
0
100
AcDbBlockEnd
  0
BLOCK
  5
87
330
84
100
AcDbEntity
  8
0
100
AcDbBlockBegin
  2
DIN A3
 70
     2
 10
0.0
 20
0.0
 30
0.0
  3
DIN A3
  1

  0
LINE
  5
88
330
84
100
AcDbEntity
  8
01-99
100
AcDbLine
 10
412.9999997697348
 20
290.0000007613509
 30
0.0
 11
6.999999769775513
 21
290.0000007613508
 31
0.0
  0
LINE
  5
8C
330
84
100
AcDbEntity
  8
01-99
100
AcDbLine
 10
6.999999769775286
 20
7.000000761378942
 30
0.0
 11
6.999999769775513
 21
290.0000007613508
 31
0.0
  0
LINE
  5
8D
330
84
100
AcDbEntity
  8
02-01
100
AcDbLine
 10
419.9999997697341
 20
297.0000007613501
 30
0.0
 11
-0.0000002302240318
 21
297.0000007613501
 31
0.0
  0
LINE
  5
91
330
84
100
AcDbEntity
  8
02-01
100
AcDbLine
 10
-0.0000002302240318
 20
297.0000007613501
 30
0.0
 11
-0.0000002302240318
 21
0.0000007613796242
 31
0.0
  0
LINE
  5
92
330
84
100
AcDbEntity
  8
02-01
100
AcDbLine
 10
-0.0000002302240318
 20
0.0000007613796242
 30
0.0
 11
419.9999997697341
 21
0.0000007613796242
 31
0.0
  0
LINE
  5
93
330
84
100
AcDbEntity
  8
02-01
100
AcDbLine
 10
419.9999997697341
 20
0.0000007613796242
 30
0.0
 11
419.9999997697341
 21
297.0000007613501
 31
0.0
  0
LINE
  5
94
330
84
100
AcDbEntity
  8
01-99
100
AcDbLine
 10
412.9999997697348
 20
290.0000007613509
 30
0.0
 11
412.9999997697348
 21
7.000000761379055
 31
0.0
  0
LINE
  5
95
330
84
100
AcDbEntity
  8
01-99
100
AcDbLine
 10
412.9999997697348
 20
7.000000761379055
 30
0.0
 11
6.999999769775286
 21
7.000000761378942
 31
0.0
  0
LINE
  5
96
330
84
100
AcDbEntity
  8
01-99
100
AcDbLine
 10
412.9999997697348
 20
53.00000076137905
 30
0.0
 11
228.999999769733
 21
53.00000076137894
 31
0.0
  0
LINE
  5
97
330
84
100
AcDbEntity
  8
01-99
100
AcDbLine
 10
228.999999769733
 20
53.00000076137894
 30
0.0
 11
228.999999769733
 21
7.000000761378942
 31
0.0
  0
LINE
  5
98
330
84
100
AcDbEntity
  8
01-99
100
AcDbLine
 10
278.9999997697348
 20
12.11111187237895
 30
0.0
 11
228.9999997697348
 21
12.11111187237895
 31
0.0
  0
LINE
  5
99
330
84
100
AcDbEntity
  8
01-99
100
AcDbLine
 10
278.9999997697348
 20
17.22222298337897
 30
0.0
 11
228.9999997697348
 21
17.22222298337897
 31
0.0
  0
LINE
  5
9A
330
84
100
AcDbEntity
  8
01-99
100
AcDbLine
 10
278.9999997697348
 20
22.33333409437898
 30
0.0
 11
228.9999997697348
 21
22.33333409437893
 31
0.0
  0
LINE
  5
9B
330
84
100
AcDbEntity
  8
01-99
100
AcDbLine
 10
323.9999997697348
 20
27.444445205379
 30
0.0
 11
228.9999997697348
 21
27.44444520537894
 31
0.0
  0
LINE
  5
9C
330
84
100
AcDbEntity
  8
01-99
100
AcDbLine
 10
323.9999997697348
 20
32.55555631637901
 30
0.0
 11
228.9999997697348
 21
32.55555631637895
 31
0.0
  0
LINE
  5
9D
330
84
100
AcDbEntity
  8
01-99
100
AcDbLine
 10
253.9999997697348
 20
7.000000761378942
 30
0.0
 11
253.9999997697348
 21
12.11111187237895
 31
0.0
  0
LINE
  5
9E
330
84
100
AcDbEntity
  8
01-99
100
AcDbLine
 10
236.9999997697348
 20
12.11111187237895
 30
0.0
 11
236.9999997697348
 21
37.66666742804563
 31
0.0
  0
LINE
  5
9F
330
84
100
AcDbEntity
  8
01-99
100
AcDbLine
 10
278.9999997697348
 20
7.000000761378942
 30
0.0
 11
278.9999997697348
 21
53.00000076137894
 31
0.0
  0
LINE
  5
A0
330
84
100
AcDbEntity
  8
01-99
100
AcDbLine
 10
323.9999997697348
 20
7.000000761378942
 30
0.0
 11
323.9999997697348
 21
53.00000076137894
 31
0.0
  0
LINE
  5
A1
330
84
100
AcDbEntity
  8
01-99
100
AcDbLine
 10
353.4999997697348
 20
7.000000761378942
 30
0.0
 11
353.4999997697348
 21
17.22222298337903
 31
0.0
  0
LINE
  5
A2
330
84
100
AcDbEntity
  8
01-99
100
AcDbLine
 10
385.9999997697348
 20
7.000000761378942
 30
0.0
 11
385.9999997697348
 21
17.22222298337908
 31
0.0
  0
LINE
  5
A3
330
84
100
AcDbEntity
  8
01-99
100
AcDbLine
 10
357.4999997697348
 20
37.66666742804569
 30
0.0
 11
357.4999997697348
 21
53.00000076137905
 31
0.0
  0
LINE
  5
A4
330
84
100
AcDbEntity
  8
01-99
100
AcDbLine
 10
390.9999997697348
 20
37.66666742804569
 30
0.0
 11
390.9999997697348
 21
53.00000076137905
 31
0.0
  0
LINE
  5
A5
330
84
100
AcDbEntity
  8
01-99
100
AcDbLine
 10
286.9999997697348
 20
22.33333409471232
 30
0.0
 11
286.9999997697348
 21
37.66666742804569
 31
0.0
  0
LINE
  5
A6
330
84
100
AcDbEntity
  8
01-99
100
AcDbLine
 10
269.0031881091643
 20
12.11111187237895
 30
0.0
 11
269.0031881091643
 21
37.66666742804563
 31
0.0
  0
LINE
  5
A7
330
84
100
AcDbEntity
  8
01-99
100
AcDbLine
 10
257.0031881091643
 20
12.11111187237895
 30
0.0
 11
257.0031881091643
 21
37.66666742804563
 31
0.0
  0
LINE
  5
A8
330
84
100
AcDbEntity
  8
01-99
100
AcDbLine
 10
323.9999997697348
 20
22.33333409471232
 30
0.0
 11
278.9999997697348
 21
22.33333409471232
 31
0.0
  0
LINE
  5
A9
330
84
100
AcDbEntity
  8
01-99
100
AcDbLine
 10
323.9999997697348
 20
37.66666742804569
 30
0.0
 11
228.9999997697348
 21
37.66666742804557
 31
0.0
  0
LINE
  5
AA
330
84
100
AcDbEntity
  8
01-99
100
AcDbLine
 10
300.9999997697348
 20
22.33333409471232
 30
0.0
 11
300.9999997697348
 21
53.000000761379
 31
0.0
  0
LINE
  5
AB
330
84
100
AcDbEntity
  8
01-99
100
AcDbLine
 10
278.9999997697348
 20
37.66666742804563
 30
0.0
 11
286.9999997697348
 21
32.55555632804567
 31
0.0
  0
LINE
  5
AC
330
84
100
AcDbEntity
  8
01-99
100
AcDbLine
 10
278.9999997697348
 20
32.55555632804567
 30
0.0
 11
286.9999997697348
 21
37.66666742804569
 31
0.0
  0
LINE
  5
AD
330
84
100
AcDbEntity
  8
01-99
100
AcDbLine
 10
412.9999997697348
 20
45.33333409471231
 30
0.0
 11
323.9999997697349
 21
45.33333409471225
 31
0.0
  0
LINE
  5
AE
330
84
100
AcDbEntity
  8
01-99
100
AcDbLine
 10
323.9999997697348
 20
17.22222298337897
 30
0.0
 11
412.9999997697348
 21
17.22222298337908
 31
0.0
  0
LINE
  5
AF
330
84
100
AcDbEntity
  8
01-99
100
AcDbLine
 10
323.9999997697348
 20
37.66666742804569
 30
0.0
 11
412.9999997697348
 21
37.66666742804574
 31
0.0
  0
LINE
  5
B0
330
84
100
AcDbEntity
  8
01-99
100
AcDbLine
 10
300.9999997697348
 20
42.77777853937897
 30
0.0
 11
278.9999997697348
 21
42.77777853937897
 31
0.0
  0
LINE
  5
B1
330
84
100
AcDbEntity
  8
01-99
100
AcDbLine
 10
300.9999997697348
 20
47.88888965037898
 30
0.0
 11
278.9999997697348
 21
47.88888965037893
 31
0.0
  0
TEXT
  5
B2
330
84
100
AcDbEntity
  8
08-99
100
AcDbText
 10
325.4997009380411
 20
33.6698744692369
 30
0.0
 40
2.5
  1
Benennung/Teil:
 51
15.0
  7
ROMANS8
100
AcDbText
  0
TEXT
  5
B7
330
84
100
AcDbEntity
  8
08-99
100
AcDbText
 10
387.5028272173022
 20
13.01760345560962
 30
0.0
 40
2.7
  1
Ident-Nr.
 51
15.0
  7
ROMANS8
100
AcDbText
  0
TEXT
  5
B8
330
84
100
AcDbEntity
  8
08-99
100
AcDbText
 10
302.5000215029029
 20
34.05557772316138
 30
0.0
 40
2.5
  1
Name:
 51
15.0
  7
ROMANS8
100
AcDbText
  0
TEXT
  5
B9
330
84
100
AcDbEntity
  8
08-99
100
AcDbText
 10
288.5077689122797
 20
34.04841872238342
 30
0.0
 40
2.5
  1
Datum:
 50
0.102528160689452
 41
0.8933771909280748
 51
15.0
  7
ROMANS8
 72
     5
 11
299.6749659193617
 21
34.0684019288434
 31
0.0
100
AcDbText
  0
TEXT
  5
BA
330
84
100
AcDbEntity
  8
08-99
100
AcDbText
 10
238.5000078514702
 20
34.05597786035884
 30
0.0
 40
1.6
  1
Änderung:
 51
15.0
  7
ROMANS8
100
AcDbText
  0
TEXT
  5
BB
330
84
100
AcDbEntity
  8
08-99
100
AcDbText
 10
255.4999378454877
 20
10.11112006054139
 30
0.0
 40
1.0
  1
ERSETZT.DURCH:
 51
15.0
  7
ROMANS8
100
AcDbText
  0
TEXT
  5
BC
330
84
100
AcDbEntity
  8
08-99
100
AcDbText
 10
230.4993605854065
 20
10.11085496431519
 30
0.0
 40
1.0
  1
ERSETZT.FÜR:
 51
15.0
  7
ROMANS8
100
AcDbText
  0
TEXT
  5
BD
330
84
100
AcDbEntity
  8
08-99
100
AcDbText
 10
354.990906611889
 20
13.61295762544273
 30
0.0
 40
2.112
  1
AUFTRAGS.NR.:
 51
15.0
  7
ROMANS8
100
AcDbText
  0
TEXT
  5
BE
330
84
100
AcDbEntity
  8
08-99
100
AcDbText
 10
325.5034639747472
 20
13.61092941740929
 30
0.0
 40
2.112
  1
Sonder-Nr:
 51
15.0
  7
ROMANS8
100
AcDbText
  0
TEXT
  5
BF
330
84
100
AcDbEntity
  8
08-99
100
AcDbText
 10
308.6963072648131
 20
50.92370926842125
 30
0.0
 40
1.349999999999999
  1
Format
 51
15.0
  7
ROMANS8
100
AcDbText
  0
TEXT
  5
C0
330
84
100
AcDbEntity
  8
08-99
100
AcDbText
 10
307.3043795165026
 20
45.64161955447966
 30
0.0
 40
1.822499999999999
  1
Normen
 51
15.0
  7
ROMANS8
100
AcDbText
  0
TEXT
  5
C1
330
84
100
AcDbEntity
  8
08-99
100
AcDbText
 10
230.5000293736364
 20
34.05556859693707
 30
0.0
 40
1.6
  1
Zust.
 51
15.0
  7
ROMANS8
100
AcDbText
  0
TEXT
  5
C2
330
84
100
AcDbEntity
  8
08-99
100
AcDbText
 10
258.503180470904
 20
34.0555600128755
 30
0.0
 40
1.6
  1
Datum:
 51
15.0
  7
ROMANS8
100
AcDbText
  0
TEXT
  5
C3
330
84
100
AcDbEntity
  8
08-99
100
AcDbText
 10
270.5032133866668
 20
34.05556481932439
 30
0.0
 40
1.6
  1
Name:
 51
15.0
  7
ROMANS8
100
AcDbText
  0
TEXT
  5
C4
330
84
100
AcDbEntity
  8
08-99
100
AcDbText
 10
280.154554215326
 20
29.0381403293278
 30
0.0
 40
1.6
  1
Erst.
 51
15.0
  7
ROMANS8
100
AcDbText
  0
TEXT
  5
C5
330
84
100
AcDbEntity
  8
08-99
100
AcDbText
 10
279.5171801320455
 20
24.19745182079998
 30
0.0
 40
1.6
  1
Bearb.
 51
15.0
  7
ROMANS8
100
AcDbText
  0
TEXT
  5
C6
330
84
100
AcDbEntity
  8
08-99
100
AcDbText
 10
358.4308046815029
 20
42.61949825408587
 30
0.0
 40
2.0
  1
Zuschnittsbreite:
 51
15.0
  7
ROMANS8
100
AcDbText
  0
TEXT
  5
C7
330
84
100
AcDbEntity
  8
08-99
100
AcDbText
 10
324.984994543767
 20
42.73762438949257
 30
0.0
 40
2.0
  1
Zuschnittslänge:
 51
15.0
  7
ROMANS8
100
AcDbText
  0
LINE
  5
C8
330
84
100
AcDbEntity
  8
06-99
100
AcDbLine
 10
302.7675395817348
 20
19.87656561071236
 30
0.0
 11
303.0090469137349
 21
20.08724790671238
 31
0.0
  0
LINE
  5
CD
330
84
100
AcDbEntity
  8
06-99
100
AcDbLine
 10
303.0090469137349
 20
20.08724790671238
 30
0.0
 11
302.9228515737349
 21
20.22625816271227
 31
0.0
  0
LINE
  5
CE
330
84
100
AcDbEntity
  8
06-99
100
AcDbLine
 10
302.9228515737349
 20
20.22625816271227
 30
0.0
 11
302.8242642057348
 21
20.35180719071241
 31
0.0
  0
LINE
  5
CF
330
84
100
AcDbEntity
  8
06-99
100
AcDbLine
 10
302.8242642057348
 20
20.35180719071241
 30
0.0
 11
302.713626953735
 21
20.4639413227124
 31
0.0
  0
LINE
  5
D0
330
84
100
AcDbEntity
  8
06-99
100
AcDbLine
 10
302.713626953735
 20
20.4639413227124
 30
0.0
 11
302.5912962177348
 21
20.56271401871226
 31
0.0
  0
LINE
  5
D1
330
84
100
AcDbEntity
  8
06-99
100
AcDbLine
 10
302.5912962177348
 20
20.56271401871226
 30
0.0
 11
302.4576141417349
 21
20.64816448271233
 31
0.0
  0
LINE
  5
D2
330
84
100
AcDbEntity
  8
06-99
100
AcDbLine
 10
302.4576141417349
 20
20.64816448271233
 30
0.0
 11
302.3129264337349
 21
20.7203390467123
 31
0.0
  0
LINE
  5
D3
330
84
100
AcDbEntity
  8
06-99
100
AcDbLine
 10
302.3129264337349
 20
20.7203390467123
 30
0.0
 11
302.1575859297349
 21
20.77929117071233
 31
0.0
  0
LINE
  5
D4
330
84
100
AcDbEntity
  8
06-99
100
AcDbLine
 10
302.1575859297349
 20
20.77929117071233
 30
0.0
 11
301.991934773735
 21
20.82506005871232
 31
0.0
  0
LINE
  5
D5
330
84
100
AcDbEntity
  8
06-99
100
AcDbLine
 10
301.991934773735
 20
20.82506005871232
 30
0.0
 11
301.8163222377349
 21
20.85769204271242
 31
0.0
  0
LINE
  5
D6
330
84
100
AcDbEntity
  8
06-99
100
AcDbLine
 10
301.8163222377349
 20
20.85769204271242
 30
0.0
 11
301.631097593735
 21
20.87724058271238
 31
0.0
  0
LINE
  5
D7
330
84
100
AcDbEntity
  8
06-99
100
AcDbLine
 10
301.631097593735
 20
20.87724058271238
 30
0.0
 11
301.436606549735
 21
20.88374488271234
 31
0.0
  0
LINE
  5
D8
330
84
100
AcDbEntity
  8
06-99
100
AcDbLine
 10
301.436606549735
 20
20.88374488271234
 30
0.0
 11
301.2756812577348
 21
20.87768251871233
 31
0.0
  0
LINE
  5
D9
330
84
100
AcDbEntity
  8
06-99
100
AcDbLine
 10
301.2756812577348
 20
20.87768251871233
 30
0.0
 11
301.1199415857348
 21
20.85975916271229
 31
0.0
  0
LINE
  5
DA
330
84
100
AcDbEntity
  8
06-99
100
AcDbLine
 10
301.1199415857348
 20
20.85975916271229
 30
0.0
 11
300.969718985735
 21
20.83036329071246
 31
0.0
  0
LINE
  5
DB
330
84
100
AcDbEntity
  8
06-99
100
AcDbLine
 10
300.969718985735
 20
20.83036329071246
 30
0.0
 11
300.825348473735
 21
20.78989050671231
 31
0.0
  0
LINE
  5
DC
330
84
100
AcDbEntity
  8
06-99
100
AcDbLine
 10
300.825348473735
 20
20.78989050671231
 30
0.0
 11
300.6871615017349
 21
20.73873641471243
 31
0.0
  0
LINE
  5
DD
330
84
100
AcDbEntity
  8
06-99
100
AcDbLine
 10
300.6871615017349
 20
20.73873641471243
 30
0.0
 11
300.5554823937349
 21
20.67729305471232
 31
0.0
  0
LINE
  5
DE
330
84
100
AcDbEntity
  8
06-99
100
AcDbLine
 10
300.5554823937349
 20
20.67729305471232
 30
0.0
 11
300.4306532937349
 21
20.60595246671232
 31
0.0
  0
LINE
  5
DF
330
84
100
AcDbEntity
  8
06-99
100
AcDbLine
 10
300.4306532937349
 20
20.60595246671232
 30
0.0
 11
300.3129985257349
 21
20.52510669071228
 31
0.0
  0
LINE
  5
E0
330
84
100
AcDbEntity
  8
06-99
100
AcDbLine
 10
300.3129985257349
 20
20.52510669071228
 30
0.0
 11
300.2028495417349
 21
20.43514776671236
 31
0.0
  0
LINE
  5
E1
330
84
100
AcDbEntity
  8
06-99
100
AcDbLine
 10
300.2028495417349
 20
20.43514776671236
 30
0.0
 11
300.1005449217349
 21
20.33647486271235
 31
0.0
  0
LINE
  5
E2
330
84
100
AcDbEntity
  8
06-99
100
AcDbLine
 10
300.1005449217349
 20
20.33647486271235
 30
0.0
 11
300.006405425735
 21
20.22947289071237
 31
0.0
  0
LINE
  5
E3
330
84
100
AcDbEntity
  8
06-99
100
AcDbLine
 10
300.006405425735
 20
20.22947289071237
 30
0.0
 11
299.920769633735
 21
20.11454458271237
 31
0.0
  0
LINE
  5
E4
330
84
100
AcDbEntity
  8
06-99
100
AcDbLine
 10
299.920769633735
 20
20.11454458271237
 30
0.0
 11
299.8439689977349
 21
19.99207485071235
 31
0.0
  0
LINE
  5
E5
330
84
100
AcDbEntity
  8
06-99
100
AcDbLine
 10
299.8439689977349
 20
19.99207485071235
 30
0.0
 11
299.7763314057349
 21
19.86245929871239
 31
0.0
  0
LINE
  5
E6
330
84
100
AcDbEntity
  8
06-99
100
AcDbLine
 10
299.7763314057349
 20
19.86245929871239
 30
0.0
 11
299.7181918737349
 21
19.72608996671232
 31
0.0
  0
LINE
  5
E7
330
84
100
AcDbEntity
  8
06-99
100
AcDbLine
 10
299.7181918737349
 20
19.72608996671232
 30
0.0
 11
299.6698782897349
 21
19.58336602271231
 31
0.0
  0
LINE
  5
E8
330
84
100
AcDbEntity
  8
06-99
100
AcDbLine
 10
299.6698782897349
 20
19.58336602271231
 30
0.0
 11
299.631722105735
 21
19.43467237871232
 31
0.0
  0
LINE
  5
E9
330
84
100
AcDbEntity
  8
06-99
100
AcDbLine
 10
299.631722105735
 20
19.43467237871232
 30
0.0
 11
299.6040619017348
 21
19.28040820271229
 31
0.0
  0
LINE
  5
EA
330
84
100
AcDbEntity
  8
06-99
100
AcDbLine
 10
299.6040619017348
 20
19.28040820271229
 30
0.0
 11
299.5872184377349
 21
19.12096197071235
 31
0.0
  0
LINE
  5
EB
330
84
100
AcDbEntity
  8
06-99
100
AcDbLine
 10
299.5872184377349
 20
19.12096197071235
 30
0.0
 11
299.5815338577349
 21
18.95672928671234
 31
0.0
  0
LINE
  5
EC
330
84
100
AcDbEntity
  8
06-99
100
AcDbLine
 10
299.5815338577349
 20
18.95672928671234
 30
0.0
 11
299.5871471577349
 21
18.7876246147124
 31
0.0
  0
LINE
  5
ED
330
84
100
AcDbEntity
  8
06-99
100
AcDbLine
 10
299.5871471577349
 20
18.7876246147124
 30
0.0
 11
299.603798165735
 21
18.62429005871234
 31
0.0
  0
LINE
  5
EE
330
84
100
AcDbEntity
  8
06-99
100
AcDbLine
 10
299.603798165735
 20
18.62429005871234
 30
0.0
 11
299.6311875057347
 21
18.46704281471233
 31
0.0
  0
LINE
  5
EF
330
84
100
AcDbEntity
  8
06-99
100
AcDbLine
 10
299.6311875057347
 20
18.46704281471233
 30
0.0
 11
299.6690158017348
 21
18.31619651471226
 31
0.0
  0
LINE
  5
F0
330
84
100
AcDbEntity
  8
06-99
100
AcDbLine
 10
299.6690158017348
 20
18.31619651471226
 30
0.0
 11
299.7169872417348
 21
18.17206479071234
 31
0.0
  0
LINE
  5
F1
330
84
100
AcDbEntity
  8
06-99
100
AcDbLine
 10
299.7169872417348
 20
18.17206479071234
 30
0.0
 11
299.774806013735
 21
18.03496127471237
 31
0.0
  0
LINE
  5
F2
330
84
100
AcDbEntity
  8
06-99
100
AcDbLine
 10
299.774806013735
 20
18.03496127471237
 30
0.0
 11
299.8421763057349
 21
17.90519603471233
 31
0.0
  0
LINE
  5
F3
330
84
100
AcDbEntity
  8
06-99
100
AcDbLine
 10
299.8421763057349
 20
17.90519603471233
 30
0.0
 11
299.9187987417349
 21
17.7830862667123
 31
0.0
  0
LINE
  5
F4
330
84
100
AcDbEntity
  8
06-99
100
AcDbLine
 10
299.9187987417349
 20
17.7830862667123
 30
0.0
 11
300.0043775097349
 21
17.66894203871231
 31
0.0
  0
LINE
  5
F5
330
84
100
AcDbEntity
  8
06-99
100
AcDbLine
 10
300.0043775097349
 20
17.66894203871231
 30
0.0
 11
300.0986203617349
 21
17.56308054671234
 31
0.0
  0
LINE
  5
F6
330
84
100
AcDbEntity
  8
06-99
100
AcDbLine
 10
300.0986203617349
 20
17.56308054671234
 30
0.0
 11
300.2012207937348
 21
17.46581185871235
 31
0.0
  0
LINE
  5
F7
330
84
100
AcDbEntity
  8
06-99
100
AcDbLine
 10
300.2012207937348
 20
17.46581185871235
 30
0.0
 11
300.3118936857348
 21
17.37745317071227
 31
0.0
  0
LINE
  5
F8
330
84
100
AcDbEntity
  8
06-99
100
AcDbLine
 10
300.3118936857348
 20
17.37745317071227
 30
0.0
 11
300.430332533735
 21
17.2983145507124
 31
0.0
  0
LINE
  5
F9
330
84
100
AcDbEntity
  8
06-99
100
AcDbLine
 10
300.430332533735
 20
17.2983145507124
 30
0.0
 11
300.5562450897348
 21
17.22870963071239
 31
0.0
  0
LINE
  5
FA
330
84
100
AcDbEntity
  8
06-99
100
AcDbLine
 10
300.5562450897348
 20
17.22870963071239
 30
0.0
 11
300.6893319777348
 21
17.1689556067123
 31
0.0
  0
LINE
  5
FB
330
84
100
AcDbEntity
  8
06-99
100
AcDbLine
 10
300.6893319777348
 20
17.1689556067123
 30
0.0
 11
300.8293009497348
 21
17.11936254671235
 31
0.0
  0
LINE
  5
FC
330
84
100
AcDbEntity
  8
06-99
100
AcDbLine
 10
300.8293009497348
 20
17.11936254671235
 30
0.0
 11
300.975849065735
 21
17.0802440827124
 31
0.0
  0
LINE
  5
FD
330
84
100
AcDbEntity
  8
06-99
100
AcDbLine
 10
300.975849065735
 20
17.0802440827124
 30
0.0
 11
301.1286876417348
 21
17.05191384671241
 31
0.0
  0
LINE
  5
FE
330
84
100
AcDbEntity
  8
06-99
100
AcDbLine
 10
301.1286876417348
 20
17.05191384671241
 30
0.0
 11
301.2875101737348
 21
17.03468547071236
 31
0.0
  0
LINE
  5
FF
330
84
100
AcDbEntity
  8
06-99
100
AcDbLine
 10
301.2875101737348
 20
17.03468547071236
 30
0.0
 11
301.4520279777349
 21
17.02887258671239
 31
0.0
  0
LINE
  5
100
330
84
100
AcDbEntity
  8
06-99
100
AcDbLine
 10
301.4520279777349
 20
17.02887258671239
 30
0.0
 11
301.616025437735
 21
17.03412592271235
 31
0.0
  0
LINE
  5
101
330
84
100
AcDbEntity
  8
06-99
100
AcDbLine
 10
301.616025437735
 20
17.03412592271235
 30
0.0
 11
301.7733582177349
 21
17.04976475471238
 31
0.0
  0
LINE
  5
102
330
84
100
AcDbEntity
  8
06-99
100
AcDbLine
 10
301.7733582177349
 20
17.04976475471238
 30
0.0
 11
301.9238374257349
 21
17.07559662671235
 31
0.0
  0
LINE
  5
103
330
84
100
AcDbEntity
  8
06-99
100
AcDbLine
 10
301.9238374257349
 20
17.07559662671235
 30
0.0
 11
302.0672741697348
 21
17.11142908271239
 31
0.0
  0
LINE
  5
104
330
84
100
AcDbEntity
  8
06-99
100
AcDbLine
 10
302.0672741697348
 20
17.11142908271239
 30
0.0
 11
302.203483121735
 21
17.15707323071234
 31
0.0
  0
LINE
  5
105
330
84
100
AcDbEntity
  8
06-99
100
AcDbLine
 10
302.203483121735
 20
17.15707323071234
 30
0.0
 11
302.3322718257348
 21
17.21234017871234
 31
0.0
  0
LINE
  5
106
330
84
100
AcDbEntity
  8
06-99
100
AcDbLine
 10
302.3322718257348
 20
17.21234017871234
 30
0.0
 11
302.4534549537349
 21
17.27703747071234
 31
0.0
  0
LINE
  5
107
330
84
100
AcDbEntity
  8
06-99
100
AcDbLine
 10
302.4534549537349
 20
17.27703747071234
 30
0.0
 11
302.5668364857349
 21
17.35097977871237
 31
0.0
  0
LINE
  5
108
330
84
100
AcDbEntity
  8
06-99
100
AcDbLine
 10
302.5668364857349
 20
17.35097977871237
 30
0.0
 11
302.6722382217349
 21
17.43397464671233
 31
0.0
  0
LINE
  5
109
330
84
100
AcDbEntity
  8
06-99
100
AcDbLine
 10
302.6722382217349
 20
17.43397464671233
 30
0.0
 11
302.7694605777349
 21
17.52582605471235
 31
0.0
  0
LINE
  5
10A
330
84
100
AcDbEntity
  8
06-99
100
AcDbLine
 10
302.7694605777349
 20
17.52582605471235
 30
0.0
 11
302.8583217897349
 21
17.62635580271234
 31
0.0
  0
LINE
  5
10B
330
84
100
AcDbEntity
  8
06-99
100
AcDbLine
 10
302.8583217897349
 20
17.62635580271234
 30
0.0
 11
302.938632965735
 21
17.73536074271232
 31
0.0
  0
LINE
  5
10C
330
84
100
AcDbEntity
  8
06-99
100
AcDbLine
 10
302.938632965735
 20
17.73536074271232
 30
0.0
 11
303.0102016497349
 21
17.85266267471235
 31
0.0
  0
LINE
  5
10D
330
84
100
AcDbEntity
  8
06-99
100
AcDbLine
 10
303.0102016497349
 20
17.85266267471235
 30
0.0
 11
303.0728389497349
 21
17.97806201471235
 31
0.0
  0
LINE
  5
10E
330
84
100
AcDbEntity
  8
06-99
100
AcDbLine
 10
303.0728389497349
 20
17.97806201471235
 30
0.0
 11
303.126359537735
 21
18.11137343471228
 31
0.0
  0
LINE
  5
10F
330
84
100
AcDbEntity
  8
06-99
100
AcDbLine
 10
303.126359537735
 20
18.11137343471228
 30
0.0
 11
303.1705745217348
 21
18.25240447871232
 31
0.0
  0
LINE
  5
110
330
84
100
AcDbEntity
  8
06-99
100
AcDbLine
 10
303.1705745217348
 20
18.25240447871232
 30
0.0
 11
303.2052878817349
 21
18.40096625471233
 31
0.0
  0
LINE
  5
111
330
84
100
AcDbEntity
  8
06-99
100
AcDbLine
 10
303.2052878817349
 20
18.40096625471233
 30
0.0
 11
303.2303214177349
 21
18.55686987071237
 31
0.0
  0
LINE
  5
112
330
84
100
AcDbEntity
  8
06-99
100
AcDbLine
 10
303.2303214177349
 20
18.55686987071237
 30
0.0
 11
303.245479109735
 21
18.7199264347123
 31
0.0
  0
LINE
  5
113
330
84
100
AcDbEntity
  8
06-99
100
AcDbLine
 10
303.245479109735
 20
18.7199264347123
 30
0.0
 11
303.2505720657348
 21
18.88993992671231
 31
0.0
  0
LINE
  5
114
330
84
100
AcDbEntity
  8
06-99
100
AcDbLine
 10
303.2505720657348
 20
18.88993992671231
 30
0.0
 11
303.2505720657348
 21
18.88993992671231
 31
0.0
  0
LINE
  5
115
330
84
100
AcDbEntity
  8
06-99
100
AcDbLine
 10
303.2505720657348
 20
18.88993992671231
 30
0.0
 11
303.2505720657348
 21
18.94132211471236
 31
0.0
  0
LINE
  5
116
330
84
100
AcDbEntity
  8
06-99
100
AcDbLine
 10
303.2505720657348
 20
18.94132211471236
 30
0.0
 11
301.6164638097349
 21
18.94132211471236
 31
0.0
  0
LINE
  5
117
330
84
100
AcDbEntity
  8
06-99
100
AcDbLine
 10
301.6164638097349
 20
18.94132211471236
 30
0.0
 11
301.6164638097349
 21
18.65355049871232
 31
0.0
  0
LINE
  5
118
330
84
100
AcDbEntity
  8
06-99
100
AcDbLine
 10
301.6164638097349
 20
18.65355049871232
 30
0.0
 11
302.8857253857347
 21
18.65355049871232
 31
0.0
  0
LINE
  5
119
330
84
100
AcDbEntity
  8
06-99
100
AcDbLine
 10
302.8857253857347
 20
18.65355049871232
 30
0.0
 11
302.8749870537348
 21
18.49100715071233
 31
0.0
  0
LINE
  5
11A
330
84
100
AcDbEntity
  8
06-99
100
AcDbLine
 10
302.8749870537348
 20
18.49100715071233
 30
0.0
 11
302.8476547377348
 21
18.33636162671234
 31
0.0
  0
LINE
  5
11B
330
84
100
AcDbEntity
  8
06-99
100
AcDbLine
 10
302.8476547377348
 20
18.33636162671234
 30
0.0
 11
302.804434109735
 21
18.19027683071238
 31
0.0
  0
LINE
  5
11C
330
84
100
AcDbEntity
  8
06-99
100
AcDbLine
 10
302.804434109735
 20
18.19027683071238
 30
0.0
 11
302.7460308417349
 21
18.05341923071233
 31
0.0
  0
LINE
  5
11D
330
84
100
AcDbEntity
  8
06-99
100
AcDbLine
 10
302.7460308417349
 20
18.05341923071233
 30
0.0
 11
302.673157733735
 21
17.92644460271236
 31
0.0
  0
LINE
  5
11E
330
84
100
AcDbEntity
  8
06-99
100
AcDbLine
 10
302.673157733735
 20
17.92644460271236
 30
0.0
 11
302.586524021735
 21
17.81002654271236
 31
0.0
  0
LINE
  5
11F
330
84
100
AcDbEntity
  8
06-99
100
AcDbLine
 10
302.586524021735
 20
17.81002654271236
 30
0.0
 11
302.4868282497349
 21
17.70481726271237
 31
0.0
  0
LINE
  5
120
330
84
100
AcDbEntity
  8
06-99
100
AcDbLine
 10
302.4868282497349
 20
17.70481726271237
 30
0.0
 11
302.3747867817349
 21
17.61149035871233
 31
0.0
  0
LINE
  5
121
330
84
100
AcDbEntity
  8
06-99
100
AcDbLine
 10
302.3747867817349
 20
17.61149035871233
 30
0.0
 11
302.2511052897348
 21
17.53069804271234
 31
0.0
  0
LINE
  5
122
330
84
100
AcDbEntity
  8
06-99
100
AcDbLine
 10
302.2511052897348
 20
17.53069804271234
 30
0.0
 11
302.116489445735
 21
17.46311034671237
 31
0.0
  0
LINE
  5
123
330
84
100
AcDbEntity
  8
06-99
100
AcDbLine
 10
302.116489445735
 20
17.46311034671237
 30
0.0
 11
301.9716484857348
 21
17.40938661071232
 31
0.0
  0
LINE
  5
124
330
84
100
AcDbEntity
  8
06-99
100
AcDbLine
 10
301.9716484857348
 20
17.40938661071232
 30
0.0
 11
301.8172916457349
 21
17.37019330271244
 31
0.0
  0
LINE
  5
125
330
84
100
AcDbEntity
  8
06-99
100
AcDbLine
 10
301.8172916457349
 20
17.37019330271244
 30
0.0
 11
301.654124597735
 21
17.3461897627123
 31
0.0
  0
LINE
  5
126
330
84
100
AcDbEntity
  8
06-99
100
AcDbLine
 10
301.654124597735
 20
17.3461897627123
 30
0.0
 11
301.482856577735
 21
17.33804245871238
 31
0.0
  0
LINE
  5
127
330
84
100
AcDbEntity
  8
06-99
100
AcDbLine
 10
301.482856577735
 20
17.33804245871238
 30
0.0
 11
301.318196213735
 21
17.34599374271232
 31
0.0
  0
LINE
  5
128
330
84
100
AcDbEntity
  8
06-99
100
AcDbLine
 10
301.318196213735
 20
17.34599374271232
 30
0.0
 11
301.1599011537348
 21
17.36937714671228
 31
0.0
  0
LINE
  5
129
330
84
100
AcDbEntity
  8
06-99
100
AcDbLine
 10
301.1599011537348
 20
17.36937714671228
 30
0.0
 11
301.0085630217349
 21
17.40748343471233
 31
0.0
  0
LINE
  5
12A
330
84
100
AcDbEntity
  8
06-99
100
AcDbLine
 10
301.0085630217349
 20
17.40748343471233
 30
0.0
 11
300.8647698777347
 21
17.45960693471232
 31
0.0
  0
LINE
  5
12B
330
84
100
AcDbEntity
  8
06-99
100
AcDbLine
 10
300.8647698777347
 20
17.45960693471232
 30
0.0
 11
300.7291026537349
 21
17.52503841071234
 31
0.0
  0
LINE
  5
12C
330
84
100
AcDbEntity
  8
06-99
100
AcDbLine
 10
300.7291026537349
 20
17.52503841071234
 30
0.0
 11
300.6021529737349
 21
17.6030686267124
 31
0.0
  0
LINE
  5
12D
330
84
100
AcDbEntity
  8
06-99
100
AcDbLine
 10
300.6021529737349
 20
17.6030686267124
 30
0.0
 11
300.4845053337349
 21
17.69299547471234
 31
0.0
  0
LINE
  5
12E
330
84
100
AcDbEntity
  8
06-99
100
AcDbLine
 10
300.4845053337349
 20
17.69299547471234
 30
0.0
 11
300.3767513577348
 21
17.79410615471244
 31
0.0
  0
LINE
  5
12F
330
84
100
AcDbEntity
  8
06-99
100
AcDbLine
 10
300.3767513577348
 20
17.79410615471244
 30
0.0
 11
300.279475541735
 21
17.90569499471235
 31
0.0
  0
LINE
  5
130
330
84
100
AcDbEntity
  8
06-99
100
AcDbLine
 10
300.279475541735
 20
17.90569499471235
 30
0.0
 11
300.1932623817348
 21
18.02705632271232
 31
0.0
  0
LINE
  5
131
330
84
100
AcDbEntity
  8
06-99
100
AcDbLine
 10
300.1932623817348
 20
18.02705632271232
 30
0.0
 11
300.1187035017349
 21
18.15747733871234
 31
0.0
  0
LINE
  5
132
330
84
100
AcDbEntity
  8
06-99
100
AcDbLine
 10
300.1187035017349
 20
18.15747733871234
 30
0.0
 11
300.0563833977349
 21
18.29625593471235
 31
0.0
  0
LINE
  5
133
330
84
100
AcDbEntity
  8
06-99
100
AcDbLine
 10
300.0563833977349
 20
18.29625593471235
 30
0.0
 11
300.0068901297349
 21
18.44268287471232
 31
0.0
  0
LINE
  5
134
330
84
100
AcDbEntity
  8
06-99
100
AcDbLine
 10
300.0068901297349
 20
18.44268287471232
 30
0.0
 11
299.9708117577347
 21
18.59604535871239
 31
0.0
  0
LINE
  5
135
330
84
100
AcDbEntity
  8
06-99
100
AcDbLine
 10
299.9708117577347
 20
18.59604535871239
 30
0.0
 11
299.9487327777348
 21
18.75564484271246
 31
0.0
  0
LINE
  5
136
330
84
100
AcDbEntity
  8
06-99
100
AcDbLine
 10
299.9487327777348
 20
18.75564484271246
 30
0.0
 11
299.9412448137349
 21
18.92076852671226
 31
0.0
  0
LINE
  5
137
330
84
100
AcDbEntity
  8
06-99
100
AcDbLine
 10
299.9412448137349
 20
18.92076852671226
 30
0.0
 11
299.947631501735
 21
19.08914257871237
 31
0.0
  0
LINE
  5
138
330
84
100
AcDbEntity
  8
06-99
100
AcDbLine
 10
299.947631501735
 20
19.08914257871237
 30
0.0
 11
299.9665349577349
 21
19.25115489071231
 31
0.0
  0
LINE
  5
139
330
84
100
AcDbEntity
  8
06-99
100
AcDbLine
 10
299.9665349577349
 20
19.25115489071231
 30
0.0
 11
299.997556013735
 21
19.40630650271231
 31
0.0
  0
LINE
  5
13A
330
84
100
AcDbEntity
  8
06-99
100
AcDbLine
 10
299.997556013735
 20
19.40630650271231
 30
0.0
 11
300.0402990657349
 21
19.55410201871234
 31
0.0
  0
LINE
  5
13B
330
84
100
AcDbEntity
  8
06-99
100
AcDbLine
 10
300.0402990657349
 20
19.55410201871234
 30
0.0
 11
300.0943720737348
 21
19.69404604271233
 31
0.0
  0
LINE
  5
13C
330
84
100
AcDbEntity
  8
06-99
100
AcDbLine
 10
300.0943720737348
 20
19.69404604271233
 30
0.0
 11
300.1593758697349
 21
19.82564674271236
 31
0.0
  0
LINE
  5
13D
330
84
100
AcDbEntity
  8
06-99
100
AcDbLine
 10
300.1593758697349
 20
19.82564674271236
 30
0.0
 11
300.2349148497349
 21
19.94840159471238
 31
0.0
  0
LINE
  5
13E
330
84
100
AcDbEntity
  8
06-99
100
AcDbLine
 10
300.2349148497349
 20
19.94840159471238
 30
0.0
 11
300.3205969737349
 21
20.06182233071235
 31
0.0
  0
LINE
  5
13F
330
84
100
AcDbEntity
  8
06-99
100
AcDbLine
 10
300.3205969737349
 20
20.06182233071235
 30
0.0
 11
300.4160230737348
 21
20.16540642671242
 31
0.0
  0
LINE
  5
140
330
84
100
AcDbEntity
  8
06-99
100
AcDbLine
 10
300.4160230737348
 20
20.16540642671242
 30
0.0
 11
300.5208046737348
 21
20.2586620507123
 31
0.0
  0
LINE
  5
141
330
84
100
AcDbEntity
  8
06-99
100
AcDbLine
 10
300.5208046737348
 20
20.2586620507123
 30
0.0
 11
300.634535477735
 21
20.34109024271237
 31
0.0
  0
LINE
  5
142
330
84
100
AcDbEntity
  8
06-99
100
AcDbLine
 10
300.634535477735
 20
20.34109024271237
 30
0.0
 11
300.756830573735
 21
20.41219917071237
 31
0.0
  0
LINE
  5
143
330
84
100
AcDbEntity
  8
06-99
100
AcDbLine
 10
300.756830573735
 20
20.41219917071237
 30
0.0
 11
300.8872872297347
 21
20.47148987471235
 31
0.0
  0
LINE
  5
144
330
84
100
AcDbEntity
  8
06-99
100
AcDbLine
 10
300.8872872297347
 20
20.47148987471235
 30
0.0
 11
301.025513405735
 21
20.51846695871234
 31
0.0
  0
LINE
  5
145
330
84
100
AcDbEntity
  8
06-99
100
AcDbLine
 10
301.025513405735
 20
20.51846695871234
 30
0.0
 11
301.171117061735
 21
20.55263502671232
 31
0.0
  0
LINE
  5
146
330
84
100
AcDbEntity
  8
06-99
100
AcDbLine
 10
301.171117061735
 20
20.55263502671232
 30
0.0
 11
301.323695465735
 21
20.57350224671234
 31
0.0
  0
LINE
  5
147
330
84
100
AcDbEntity
  8
06-99
100
AcDbLine
 10
301.323695465735
 20
20.57350224671234
 30
0.0
 11
301.482856577735
 21
20.58056609471237
 31
0.0
  0
LINE
  5
148
330
84
100
AcDbEntity
  8
06-99
100
AcDbLine
 10
301.482856577735
 20
20.58056609471237
 30
0.0
 11
301.6605611817349
 21
20.57164896671236
 31
0.0
  0
LINE
  5
149
330
84
100
AcDbEntity
  8
06-99
100
AcDbLine
 10
301.6605611817349
 20
20.57164896671236
 30
0.0
 11
301.830314501735
 21
20.54501163071234
 31
0.0
  0
LINE
  5
14A
330
84
100
AcDbEntity
  8
06-99
100
AcDbLine
 10
301.830314501735
 20
20.54501163071234
 30
0.0
 11
301.9917779577349
 21
20.50082159471236
 31
0.0
  0
LINE
  5
14B
330
84
100
AcDbEntity
  8
06-99
100
AcDbLine
 10
301.9917779577349
 20
20.50082159471236
 30
0.0
 11
302.1446129697349
 21
20.43924636671233
 31
0.0
  0
LINE
  5
14C
330
84
100
AcDbEntity
  8
06-99
100
AcDbLine
 10
302.1446129697349
 20
20.43924636671233
 30
0.0
 11
302.2884809577349
 21
20.36046058271233
 31
0.0
  0
LINE
  5
14D
330
84
100
AcDbEntity
  8
06-99
100
AcDbLine
 10
302.2884809577349
 20
20.36046058271233
 30
0.0
 11
302.423046905735
 21
20.2646281867124
 31
0.0
  0
LINE
  5
14E
330
84
100
AcDbEntity
  8
06-99
100
AcDbLine
 10
302.423046905735
 20
20.2646281867124
 30
0.0
 11
302.5479722337349
 21
20.15192381471235
 31
0.0
  0
LINE
  5
14F
330
84
100
AcDbEntity
  8
06-99
100
AcDbLine
 10
302.5479722337349
 20
20.15192381471235
 30
0.0
 11
302.662914797735
 21
20.02251141071241
 31
0.0
  0
LINE
  5
150
330
84
100
AcDbEntity
  8
06-99
100
AcDbLine
 10
302.662914797735
 20
20.02251141071241
 30
0.0
 11
302.7675395817348
 21
19.87656561071236
 31
0.0
  0
LINE
  5
151
330
84
100
AcDbEntity
  8
06-99
100
AcDbLine
 10
299.4389952417348
 20
13.25281458671242
 30
0.0
 11
301.3222627377349
 21
13.25281458671242
 31
0.0
  0
LINE
  5
152
330
84
100
AcDbEntity
  8
06-99
100
AcDbLine
 10
301.3222627377349
 20
13.25281458671242
 30
0.0
 11
301.4675990937349
 21
14.00768047871236
 31
0.0
  0
LINE
  5
153
330
84
100
AcDbEntity
  8
06-99
100
AcDbLine
 10
301.4675990937349
 20
14.00768047871236
 30
0.0
 11
300.5648699697349
 21
14.00768047871236
 31
0.0
  0
LINE
  5
154
330
84
100
AcDbEntity
  8
06-99
100
AcDbLine
 10
300.5648699697349
 20
14.00768047871236
 30
0.0
 11
300.6210528657348
 21
14.29950792671229
 31
0.0
  0
LINE
  5
155
330
84
100
AcDbEntity
  8
06-99
100
AcDbLine
 10
300.6210528657348
 20
14.29950792671229
 30
0.0
 11
301.4187152697349
 21
14.29950792671229
 31
0.0
  0
LINE
  5
156
330
84
100
AcDbEntity
  8
06-99
100
AcDbLine
 10
301.4187152697349
 20
14.29950792671229
 30
0.0
 11
301.5558009657348
 21
15.01156305071231
 31
0.0
  0
LINE
  5
157
330
84
100
AcDbEntity
  8
06-99
100
AcDbLine
 10
301.5558009657348
 20
15.01156305071231
 30
0.0
 11
300.7581385617348
 21
15.01156305071231
 31
0.0
  0
LINE
  5
158
330
84
100
AcDbEntity
  8
06-99
100
AcDbLine
 10
300.7581385617348
 20
15.01156305071231
 30
0.0
 11
300.8098450737348
 21
15.28005699071229
 31
0.0
  0
LINE
  5
159
330
84
100
AcDbEntity
  8
06-99
100
AcDbLine
 10
300.8098450737348
 20
15.28005699071229
 30
0.0
 11
301.6892264337348
 21
15.28005699071229
 31
0.0
  0
LINE
  5
15A
330
84
100
AcDbEntity
  8
06-99
100
AcDbLine
 10
301.6892264337348
 20
15.28005699071229
 30
0.0
 11
301.8345520977349
 21
16.03490862671236
 31
0.0
  0
LINE
  5
15B
330
84
100
AcDbEntity
  8
06-99
100
AcDbLine
 10
301.8345520977349
 20
16.03490862671236
 30
0.0
 11
299.9746323657349
 21
16.03490862671236
 31
0.0
  0
LINE
  5
15C
330
84
100
AcDbEntity
  8
06-99
100
AcDbLine
 10
299.9746323657349
 20
16.03490862671236
 30
0.0
 11
299.4389952417348
 21
13.25281458671242
 31
0.0
  0
LINE
  5
15D
330
84
100
AcDbEntity
  8
06-99
100
AcDbLine
 10
285.6086116857349
 20
13.88042785871232
 30
0.0
 11
298.0658608857348
 21
13.88042785871232
 31
0.0
  0
LINE
  5
15E
330
84
100
AcDbEntity
  8
06-99
100
AcDbLine
 10
298.0658608857348
 20
13.88042785871232
 30
0.0
 11
297.9422827497349
 21
13.25209822271233
 31
0.0
  0
LINE
  5
15F
330
84
100
AcDbEntity
  8
06-99
100
AcDbLine
 10
297.9422827497349
 20
13.25209822271233
 30
0.0
 11
285.4850371137349
 21
13.25209822271233
 31
0.0
  0
LINE
  5
160
330
84
100
AcDbEntity
  8
06-99
100
AcDbLine
 10
285.4850371137349
 20
13.25209822271233
 30
0.0
 11
285.6086116857349
 21
13.88042785871232
 31
0.0
  0
LINE
  5
161
330
84
100
AcDbEntity
  8
06-99
100
AcDbLine
 10
291.3458426577349
 20
17.02887258671239
 30
0.0
 11
292.3221826377348
 21
20.10266933471235
 31
0.0
  0
LINE
  5
162
330
84
100
AcDbEntity
  8
06-99
100
AcDbLine
 10
292.3221826377348
 20
20.10266933471235
 30
0.0
 11
293.3396476137348
 21
17.02887258671239
 31
0.0
  0
LINE
  5
163
330
84
100
AcDbEntity
  8
06-99
100
AcDbLine
 10
293.3396476137348
 20
17.02887258671239
 30
0.0
 11
294.5677984497349
 21
20.80153409471234
 31
0.0
  0
LINE
  5
164
330
84
100
AcDbEntity
  8
06-99
100
AcDbLine
 10
294.5677984497349
 20
20.80153409471234
 30
0.0
 11
294.2235089217348
 21
20.80153409471234
 31
0.0
  0
LINE
  5
165
330
84
100
AcDbEntity
  8
06-99
100
AcDbLine
 10
294.2235089217348
 20
20.80153409471234
 30
0.0
 11
293.3396476137348
 21
17.89303210271231
 31
0.0
  0
LINE
  5
166
330
84
100
AcDbEntity
  8
06-99
100
AcDbLine
 10
293.3396476137348
 20
17.89303210271231
 30
0.0
 11
292.3221826377348
 21
20.94541277471228
 31
0.0
  0
LINE
  5
167
330
84
100
AcDbEntity
  8
06-99
100
AcDbLine
 10
292.3221826377348
 20
20.94541277471228
 30
0.0
 11
291.3458426577349
 21
17.86733922671237
 31
0.0
  0
LINE
  5
168
330
84
100
AcDbEntity
  8
06-99
100
AcDbLine
 10
291.3458426577349
 20
17.86733922671237
 30
0.0
 11
290.426009897735
 21
20.80153409471234
 31
0.0
  0
LINE
  5
169
330
84
100
AcDbEntity
  8
06-99
100
AcDbLine
 10
290.426009897735
 20
20.80153409471234
 30
0.0
 11
290.0765810817349
 21
20.80153409471234
 31
0.0
  0
LINE
  5
16A
330
84
100
AcDbEntity
  8
06-99
100
AcDbLine
 10
290.0765810817349
 20
20.80153409471234
 30
0.0
 11
291.3458426577349
 21
17.02887258671239
 31
0.0
  0
LINE
  5
16B
330
84
100
AcDbEntity
  8
06-99
100
AcDbLine
 10
296.324415641735
 20
18.65868622271239
 30
0.0
 11
296.9770339377348
 21
20.2568337187123
 31
0.0
  0
LINE
  5
16C
330
84
100
AcDbEntity
  8
06-99
100
AcDbLine
 10
296.9770339377348
 20
20.2568337187123
 30
0.0
 11
297.6039629217348
 21
18.65868622271239
 31
0.0
  0
LINE
  5
16D
330
84
100
AcDbEntity
  8
06-99
100
AcDbLine
 10
297.6039629217348
 20
18.65868622271239
 30
0.0
 11
296.324415641735
 21
18.65868622271239
 31
0.0
  0
LINE
  5
16E
330
84
100
AcDbEntity
  8
06-99
100
AcDbLine
 10
295.3831810617349
 20
17.12736016271231
 30
0.0
 11
295.7231937897349
 21
17.12736016271231
 31
0.0
  0
LINE
  5
16F
330
84
100
AcDbEntity
  8
06-99
100
AcDbLine
 10
295.7231937897349
 20
17.12736016271231
 30
0.0
 11
296.2113619977348
 21
18.37092886271233
 31
0.0
  0
LINE
  5
170
330
84
100
AcDbEntity
  8
06-99
100
AcDbLine
 10
296.2113619977348
 20
18.37092886271233
 30
0.0
 11
297.711863021735
 21
18.37092886271233
 31
0.0
  0
LINE
  5
171
330
84
100
AcDbEntity
  8
06-99
100
AcDbLine
 10
297.711863021735
 20
18.37092886271233
 30
0.0
 11
298.1794918977348
 21
17.12736016271231
 31
0.0
  0
LINE
  5
172
330
84
100
AcDbEntity
  8
06-99
100
AcDbLine
 10
298.1794918977348
 20
17.12736016271231
 30
0.0
 11
298.5443385777348
 21
17.12736016271231
 31
0.0
  0
LINE
  5
173
330
84
100
AcDbEntity
  8
06-99
100
AcDbLine
 10
298.5443385777348
 20
17.12736016271231
 30
0.0
 11
296.9975910897349
 21
20.94541277471228
 31
0.0
  0
LINE
  5
174
330
84
100
AcDbEntity
  8
06-99
100
AcDbLine
 10
296.9975910897349
 20
20.94541277471228
 30
0.0
 11
295.3831810617349
 21
17.12736016271231
 31
0.0
  0
LINE
  5
175
330
84
100
AcDbEntity
  8
06-99
100
AcDbLine
 10
307.9298046897347
 20
13.25281458671242
 30
0.0
 11
309.0043792017348
 21
13.25281458671242
 31
0.0
  0
LINE
  5
176
330
84
100
AcDbEntity
  8
06-99
100
AcDbLine
 10
309.0043792017348
 20
13.25281458671242
 30
0.0
 11
309.1574066697349
 21
13.60301322671233
 31
0.0
  0
LINE
  5
177
330
84
100
AcDbEntity
  8
06-99
100
AcDbLine
 10
309.1574066697349
 20
13.60301322671233
 30
0.0
 11
309.9122725617349
 21
13.60301322671233
 31
0.0
  0
LINE
  5
178
330
84
100
AcDbEntity
  8
06-99
100
AcDbLine
 10
309.9122725617349
 20
13.60301322671233
 30
0.0
 11
309.9343444137348
 21
13.25281458671242
 31
0.0
  0
LINE
  5
179
330
84
100
AcDbEntity
  8
06-99
100
AcDbLine
 10
309.9343444137348
 20
13.25281458671242
 30
0.0
 11
311.0082738417347
 21
13.25281458671242
 31
0.0
  0
LINE
  5
17A
330
84
100
AcDbEntity
  8
06-99
100
AcDbLine
 10
311.0082738417347
 20
13.25281458671242
 30
0.0
 11
310.5711492417348
 21
16.03490862671236
 31
0.0
  0
LINE
  5
17B
330
84
100
AcDbEntity
  8
06-99
100
AcDbLine
 10
310.5711492417348
 20
16.03490862671236
 30
0.0
 11
309.4583116257348
 21
16.03490862671236
 31
0.0
  0
LINE
  5
17C
330
84
100
AcDbEntity
  8
06-99
100
AcDbLine
 10
309.4583116257348
 20
16.03490862671236
 30
0.0
 11
307.9298046897347
 21
13.25281458671242
 31
0.0
  0
LINE
  5
17D
330
84
100
AcDbEntity
  8
06-99
100
AcDbLine
 10
305.0434565217349
 20
14.66137866671232
 30
0.0
 11
305.0784799497348
 21
14.66137866671232
 31
0.0
  0
LINE
  5
17E
330
84
100
AcDbEntity
  8
06-99
100
AcDbLine
 10
305.0784799497348
 20
14.66137866671232
 30
0.0
 11
305.0642239497349
 21
14.48699927471239
 31
0.0
  0
LINE
  5
17F
330
84
100
AcDbEntity
  8
06-99
100
AcDbLine
 10
305.0642239497349
 20
14.48699927471239
 30
0.0
 11
305.0637998337348
 21
14.33510159471234
 31
0.0
  0
LINE
  5
180
330
84
100
AcDbEntity
  8
06-99
100
AcDbLine
 10
305.0637998337348
 20
14.33510159471234
 30
0.0
 11
305.0678984337348
 21
14.20222854671237
 31
0.0
  0
LINE
  5
181
330
84
100
AcDbEntity
  8
06-99
100
AcDbLine
 10
305.0678984337348
 20
14.20222854671237
 30
0.0
 11
305.0952307497349
 21
13.25281458671242
 31
0.0
  0
LINE
  5
182
330
84
100
AcDbEntity
  8
06-99
100
AcDbLine
 10
305.0952307497349
 20
13.25281458671242
 30
0.0
 11
305.9668283337347
 21
13.25281458671242
 31
0.0
  0
LINE
  5
183
330
84
100
AcDbEntity
  8
06-99
100
AcDbLine
 10
305.9668283337347
 20
13.25281458671242
 30
0.0
 11
307.3156882857347
 21
16.03490862671236
 31
0.0
  0
LINE
  5
184
330
84
100
AcDbEntity
  8
06-99
100
AcDbLine
 10
307.3156882857347
 20
16.03490862671236
 30
0.0
 11
306.3118057137349
 21
16.03490862671236
 31
0.0
  0
LINE
  5
185
330
84
100
AcDbEntity
  8
06-99
100
AcDbLine
 10
306.3118057137349
 20
16.03490862671236
 30
0.0
 11
305.8579124937348
 21
14.8092312067123
 31
0.0
  0
LINE
  5
186
330
84
100
AcDbEntity
  8
06-99
100
AcDbLine
 10
305.8579124937348
 20
14.8092312067123
 30
0.0
 11
305.8078097817349
 21
14.66872763471229
 31
0.0
  0
LINE
  5
187
330
84
100
AcDbEntity
  8
06-99
100
AcDbLine
 10
305.8078097817349
 20
14.66872763471229
 30
0.0
 11
305.7488398377348
 21
14.48671415471227
 31
0.0
  0
LINE
  5
188
330
84
100
AcDbEntity
  8
06-99
100
AcDbLine
 10
305.7488398377348
 20
14.48671415471227
 30
0.0
 11
305.6900267097347
 21
14.26059973871241
 31
0.0
  0
LINE
  5
189
330
84
100
AcDbEntity
  8
06-99
100
AcDbLine
 10
305.6900267097347
 20
14.26059973871241
 30
0.0
 11
305.6666932017348
 21
14.26059973871241
 31
0.0
  0
LINE
  5
18A
330
84
100
AcDbEntity
  8
06-99
100
AcDbLine
 10
305.6666932017348
 20
14.26059973871241
 30
0.0
 11
305.6884193457348
 21
14.45803464671235
 31
0.0
  0
LINE
  5
18B
330
84
100
AcDbEntity
  8
06-99
100
AcDbLine
 10
305.6884193457348
 20
14.45803464671235
 30
0.0
 11
305.6929777017349
 21
14.6156953147123
 31
0.0
  0
LINE
  5
18C
330
84
100
AcDbEntity
  8
06-99
100
AcDbLine
 10
305.6929777017349
 20
14.6156953147123
 30
0.0
 11
305.6919370137348
 21
14.73531384671236
 31
0.0
  0
LINE
  5
18D
330
84
100
AcDbEntity
  8
06-99
100
AcDbLine
 10
305.6919370137348
 20
14.73531384671236
 30
0.0
 11
305.6775527097348
 21
16.03490862671236
 31
0.0
  0
LINE
  5
18E
330
84
100
AcDbEntity
  8
06-99
100
AcDbLine
 10
305.6775527097348
 20
16.03490862671236
 30
0.0
 11
304.9732849257348
 21
16.03490862671236
 31
0.0
  0
LINE
  5
18F
330
84
100
AcDbEntity
  8
06-99
100
AcDbLine
 10
304.9732849257348
 20
16.03490862671236
 30
0.0
 11
304.4584829457349
 21
14.73531384671236
 31
0.0
  0
LINE
  5
190
330
84
100
AcDbEntity
  8
06-99
100
AcDbLine
 10
304.4584829457349
 20
14.73531384671236
 30
0.0
 11
304.4113811217347
 21
14.6156953147123
 31
0.0
  0
LINE
  5
191
330
84
100
AcDbEntity
  8
06-99
100
AcDbLine
 10
304.4113811217347
 20
14.6156953147123
 30
0.0
 11
304.355226737735
 21
14.45803464671235
 31
0.0
  0
LINE
  5
192
330
84
100
AcDbEntity
  8
06-99
100
AcDbLine
 10
304.355226737735
 20
14.45803464671235
 30
0.0
 11
304.3009220697348
 21
14.26059973871241
 31
0.0
  0
LINE
  5
193
330
84
100
AcDbEntity
  8
06-99
100
AcDbLine
 10
304.3009220697348
 20
14.26059973871241
 30
0.0
 11
304.2775885617348
 21
14.26059973871241
 31
0.0
  0
LINE
  5
194
330
84
100
AcDbEntity
  8
06-99
100
AcDbLine
 10
304.2775885617348
 20
14.26059973871241
 30
0.0
 11
304.3058439537349
 21
14.48671415471227
 31
0.0
  0
LINE
  5
195
330
84
100
AcDbEntity
  8
06-99
100
AcDbLine
 10
304.3058439537349
 20
14.48671415471227
 30
0.0
 11
304.3169636337349
 21
14.66872763471229
 31
0.0
  0
LINE
  5
196
330
84
100
AcDbEntity
  8
06-99
100
AcDbLine
 10
304.3169636337349
 20
14.66872763471229
 30
0.0
 11
304.3209588777348
 21
14.8092312067123
 31
0.0
  0
LINE
  5
197
330
84
100
AcDbEntity
  8
06-99
100
AcDbLine
 10
304.3209588777348
 20
14.8092312067123
 30
0.0
 11
304.3390319217348
 21
16.03490862671236
 31
0.0
  0
LINE
  5
198
330
84
100
AcDbEntity
  8
06-99
100
AcDbLine
 10
304.3390319217348
 20
16.03490862671236
 30
0.0
 11
303.3345042657348
 21
16.03490862671236
 31
0.0
  0
LINE
  5
199
330
84
100
AcDbEntity
  8
06-99
100
AcDbLine
 10
303.3345042657348
 20
16.03490862671236
 30
0.0
 11
303.6127350537349
 21
13.25281458671242
 31
0.0
  0
LINE
  5
19A
330
84
100
AcDbEntity
  8
06-99
100
AcDbLine
 10
303.6127350537349
 20
13.25281458671242
 30
0.0
 11
304.4843290737348
 21
13.25281458671242
 31
0.0
  0
LINE
  5
19B
330
84
100
AcDbEntity
  8
06-99
100
AcDbLine
 10
304.4843290737348
 20
13.25281458671242
 30
0.0
 11
304.8772386897349
 21
14.20222854671237
 31
0.0
  0
LINE
  5
19C
330
84
100
AcDbEntity
  8
06-99
100
AcDbLine
 10
304.8772386897349
 20
14.20222854671237
 30
0.0
 11
304.9325127657348
 21
14.33510159471234
 31
0.0
  0
LINE
  5
19D
330
84
100
AcDbEntity
  8
06-99
100
AcDbLine
 10
304.9325127657348
 20
14.33510159471234
 30
0.0
 11
304.9905774537349
 21
14.48699927471239
 31
0.0
  0
LINE
  5
19E
330
84
100
AcDbEntity
  8
06-99
100
AcDbLine
 10
304.9905774537349
 20
14.48699927471239
 30
0.0
 11
305.0434565217349
 21
14.66137866671232
 31
0.0
  0
LINE
  5
19F
330
84
100
AcDbEntity
  8
06-99
100
AcDbLine
 10
309.4520674977348
 20
14.26448449871236
 30
0.0
 11
309.5983590057348
 21
14.57965971071235
 31
0.0
  0
LINE
  5
1A0
330
84
100
AcDbEntity
  8
06-99
100
AcDbLine
 10
309.5983590057348
 20
14.57965971071235
 30
0.0
 11
309.6731103417349
 21
14.74409554271244
 31
0.0
  0
LINE
  5
1A1
330
84
100
AcDbEntity
  8
06-99
100
AcDbLine
 10
309.6731103417349
 20
14.74409554271244
 30
0.0
 11
309.7541521377349
 21
14.94571102271237
 31
0.0
  0
LINE
  5
1A2
330
84
100
AcDbEntity
  8
06-99
100
AcDbLine
 10
309.7541521377349
 20
14.94571102271237
 30
0.0
 11
309.8288286297349
 21
15.19056495071243
 31
0.0
  0
LINE
  5
1A3
330
84
100
AcDbEntity
  8
06-99
100
AcDbLine
 10
309.8288286297349
 20
15.19056495071243
 30
0.0
 11
309.8482880697349
 21
15.19056495071243
 31
0.0
  0
LINE
  5
1A4
330
84
100
AcDbEntity
  8
06-99
100
AcDbLine
 10
309.8482880697349
 20
15.19056495071243
 30
0.0
 11
309.8286646857348
 21
14.94571102271237
 31
0.0
  0
LINE
  5
1A5
330
84
100
AcDbEntity
  8
06-99
100
AcDbLine
 10
309.8286646857348
 20
14.94571102271237
 30
0.0
 11
309.8320718697348
 21
14.74409554271244
 31
0.0
  0
LINE
  5
1A6
330
84
100
AcDbEntity
  8
06-99
100
AcDbLine
 10
309.8320718697348
 20
14.74409554271244
 30
0.0
 11
309.8435051817348
 21
14.57965971071235
 31
0.0
  0
LINE
  5
1A7
330
84
100
AcDbEntity
  8
06-99
100
AcDbLine
 10
309.8435051817348
 20
14.57965971071235
 30
0.0
 11
309.868410413735
 21
14.26448449871236
 31
0.0
  0
LINE
  5
1A8
330
84
100
AcDbEntity
  8
06-99
100
AcDbLine
 10
309.868410413735
 20
14.26448449871236
 30
0.0
 11
309.4520674977348
 21
14.26448449871236
 31
0.0
  0
LINE
  5
1A9
330
84
100
AcDbEntity
  8
06-99
100
AcDbLine
 10
312.586705289735
 20
13.25281458671242
 30
0.0
 11
313.5672400977347
 21
13.25281458671242
 31
0.0
  0
LINE
  5
1AA
330
84
100
AcDbEntity
  8
06-99
100
AcDbLine
 10
313.5672400977347
 20
13.25281458671242
 30
0.0
 11
313.7440358817348
 21
14.17110413471232
 31
0.0
  0
LINE
  5
1AB
330
84
100
AcDbEntity
  8
06-99
100
AcDbLine
 10
313.7440358817348
 20
14.17110413471232
 30
0.0
 11
314.053626305735
 21
13.25281458671242
 31
0.0
  0
LINE
  5
1AC
330
84
100
AcDbEntity
  8
06-99
100
AcDbLine
 10
314.053626305735
 20
13.25281458671242
 30
0.0
 11
315.1742370057348
 21
13.25281458671242
 31
0.0
  0
LINE
  5
1AD
330
84
100
AcDbEntity
  8
06-99
100
AcDbLine
 10
315.1742370057348
 20
13.25281458671242
 30
0.0
 11
314.6490673497349
 21
14.38511520671233
 31
0.0
  0
LINE
  5
1AE
330
84
100
AcDbEntity
  8
06-99
100
AcDbLine
 10
314.6490673497349
 20
14.38511520671233
 30
0.0
 11
314.8084280457349
 21
14.42380955471236
 31
0.0
  0
LINE
  5
1AF
330
84
100
AcDbEntity
  8
06-99
100
AcDbLine
 10
314.8084280457349
 20
14.42380955471236
 30
0.0
 11
314.9537002497348
 21
14.49881749871235
 31
0.0
  0
LINE
  5
1B0
330
84
100
AcDbEntity
  8
06-99
100
AcDbLine
 10
314.9537002497348
 20
14.49881749871235
 30
0.0
 11
315.0813484737348
 21
14.60690292671233
 31
0.0
  0
LINE
  5
1B1
330
84
100
AcDbEntity
  8
06-99
100
AcDbLine
 10
315.0813484737348
 20
14.60690292671233
 30
0.0
 11
315.1878301017348
 21
14.74481903471235
 31
0.0
  0
LINE
  5
1B2
330
84
100
AcDbEntity
  8
06-99
100
AcDbLine
 10
315.1878301017348
 20
14.74481903471235
 30
0.0
 11
315.2695989537348
 21
14.90932258271232
 31
0.0
  0
LINE
  5
1B3
330
84
100
AcDbEntity
  8
06-99
100
AcDbLine
 10
315.2695989537348
 20
14.90932258271232
 30
0.0
 11
315.3231124137347
 21
15.09717033071234
 31
0.0
  0
LINE
  5
1B4
330
84
100
AcDbEntity
  8
06-99
100
AcDbLine
 10
315.3231124137347
 20
15.09717033071234
 30
0.0
 11
315.3445997697348
 21
15.26809264271236
 31
0.0
  0
LINE
  5
1B5
330
84
100
AcDbEntity
  8
06-99
100
AcDbLine
 10
315.3445997697348
 20
15.26809264271236
 30
0.0
 11
315.3403015857348
 21
15.42330127871241
 31
0.0
  0
LINE
  5
1B6
330
84
100
AcDbEntity
  8
06-99
100
AcDbLine
 10
315.3403015857348
 20
15.42330127871241
 30
0.0
 11
315.3102285537349
 21
15.56226163871236
 31
0.0
  0
LINE
  5
1B7
330
84
100
AcDbEntity
  8
06-99
100
AcDbLine
 10
315.3102285537349
 20
15.56226163871236
 30
0.0
 11
315.2543913657347
 21
15.68443555871226
 31
0.0
  0
LINE
  5
1B8
330
84
100
AcDbEntity
  8
06-99
100
AcDbLine
 10
315.2543913657347
 20
15.68443555871226
 30
0.0
 11
315.1728078417348
 21
15.78928843871239
 31
0.0
  0
LINE
  5
1B9
330
84
100
AcDbEntity
  8
06-99
100
AcDbLine
 10
315.1728078417348
 20
15.78928843871239
 30
0.0
 11
315.0654922377348
 21
15.87627855071235
 31
0.0
  0
LINE
  5
1BA
330
84
100
AcDbEntity
  8
06-99
100
AcDbLine
 10
315.0654922377348
 20
15.87627855071235
 30
0.0
 11
314.9324516817348
 21
15.94487485871235
 31
0.0
  0
LINE
  5
1BB
330
84
100
AcDbEntity
  8
06-99
100
AcDbLine
 10
314.9324516817348
 20
15.94487485871235
 30
0.0
 11
314.7737075577347
 21
15.9945356347124
 31
0.0
  0
LINE
  5
1BC
330
84
100
AcDbEntity
  8
06-99
100
AcDbLine
 10
314.7737075577347
 20
15.9945356347124
 30
0.0
 11
314.5892634297348
 21
16.02472627871236
 31
0.0
  0
LINE
  5
1BD
330
84
100
AcDbEntity
  8
06-99
100
AcDbLine
 10
314.5892634297348
 20
16.02472627871236
 30
0.0
 11
314.3791442457348
 21
16.03490862671236
 31
0.0
  0
LINE
  5
1BE
330
84
100
AcDbEntity
  8
06-99
100
AcDbLine
 10
314.3791442457348
 20
16.03490862671236
 30
0.0
 11
313.1223424137348
 21
16.03490862671236
 31
0.0
  0
LINE
  5
1BF
330
84
100
AcDbEntity
  8
06-99
100
AcDbLine
 10
313.1223424137348
 20
16.03490862671236
 30
0.0
 11
312.586705289735
 21
13.25281458671242
 31
0.0
  0
LINE
  5
1C0
330
84
100
AcDbEntity
  8
06-99
100
AcDbLine
 10
313.9650323937349
 20
15.31896517871234
 30
0.0
 11
314.1206829657349
 21
15.31896517871234
 31
0.0
  0
LINE
  5
1C1
330
84
100
AcDbEntity
  8
06-99
100
AcDbLine
 10
314.1206829657349
 20
15.31896517871234
 30
0.0
 11
314.2773528417349
 21
15.28538517071229
 31
0.0
  0
LINE
  5
1C2
330
84
100
AcDbEntity
  8
06-99
100
AcDbLine
 10
314.2773528417349
 20
15.28538517071229
 30
0.0
 11
314.3582200017347
 21
15.19041169871241
 31
0.0
  0
LINE
  5
1C3
330
84
100
AcDbEntity
  8
06-99
100
AcDbLine
 10
314.3582200017347
 20
15.19041169871241
 30
0.0
 11
314.3632167297349
 21
15.04270171871235
 31
0.0
  0
LINE
  5
1C4
330
84
100
AcDbEntity
  8
06-99
100
AcDbLine
 10
314.3632167297349
 20
15.04270171871235
 30
0.0
 11
314.3008645497348
 21
14.8970018347124
 31
0.0
  0
LINE
  5
1C5
330
84
100
AcDbEntity
  8
06-99
100
AcDbLine
 10
314.3008645497348
 20
14.8970018347124
 30
0.0
 11
314.1832917537348
 21
14.80578125471237
 31
0.0
  0
LINE
  5
1C6
330
84
100
AcDbEntity
  8
06-99
100
AcDbLine
 10
314.1832917537348
 20
14.80578125471237
 30
0.0
 11
314.0158122657348
 21
14.77422203471229
 31
0.0
  0
LINE
  5
1C7
330
84
100
AcDbEntity
  8
06-99
100
AcDbLine
 10
314.0158122657348
 20
14.77422203471229
 30
0.0
 11
313.8601616937349
 21
14.77422203471229
 31
0.0
  0
LINE
  5
1C8
330
84
100
AcDbEntity
  8
06-99
100
AcDbLine
 10
313.8601616937349
 20
14.77422203471229
 30
0.0
 11
313.9650323937349
 21
15.31896517871234
 31
0.0
  0
LINE
  5
1C9
330
84
100
AcDbEntity
  8
06-99
100
AcDbLine
 10
309.579801257735
 20
17.12736016271231
 30
0.0
 11
311.3988989337349
 21
17.12736016271231
 31
0.0
  0
LINE
  5
1CA
330
84
100
AcDbEntity
  8
06-99
100
AcDbLine
 10
311.3988989337349
 20
17.12736016271231
 30
0.0
 11
311.3988989337349
 21
17.44082465471229
 31
0.0
  0
LINE
  5
1CB
330
84
100
AcDbEntity
  8
06-99
100
AcDbLine
 10
311.3988989337349
 20
17.44082465471229
 30
0.0
 11
309.913819337735
 21
17.44082465471229
 31
0.0
  0
LINE
  5
1CC
330
84
100
AcDbEntity
  8
06-99
100
AcDbLine
 10
309.913819337735
 20
17.44082465471229
 30
0.0
 11
309.913819337735
 21
19.02353290271242
 31
0.0
  0
LINE
  5
1CD
330
84
100
AcDbEntity
  8
06-99
100
AcDbLine
 10
309.913819337735
 20
19.02353290271242
 30
0.0
 11
311.3988989337349
 21
19.02353290271242
 31
0.0
  0
LINE
  5
1CE
330
84
100
AcDbEntity
  8
06-99
100
AcDbLine
 10
311.3988989337349
 20
19.02353290271242
 30
0.0
 11
311.3988989337349
 21
19.3369973947124
 31
0.0
  0
LINE
  5
1CF
330
84
100
AcDbEntity
  8
06-99
100
AcDbLine
 10
311.3988989337349
 20
19.3369973947124
 30
0.0
 11
309.913819337735
 21
19.3369973947124
 31
0.0
  0
LINE
  5
1D0
330
84
100
AcDbEntity
  8
06-99
100
AcDbLine
 10
309.913819337735
 20
19.3369973947124
 30
0.0
 11
309.913819337735
 21
20.48806960271236
 31
0.0
  0
LINE
  5
1D1
330
84
100
AcDbEntity
  8
06-99
100
AcDbLine
 10
309.913819337735
 20
20.48806960271236
 30
0.0
 11
311.3988989337349
 21
20.48806960271236
 31
0.0
  0
LINE
  5
1D2
330
84
100
AcDbEntity
  8
06-99
100
AcDbLine
 10
311.3988989337349
 20
20.48806960271236
 30
0.0
 11
311.3988989337349
 21
20.80153409471234
 31
0.0
  0
LINE
  5
1D3
330
84
100
AcDbEntity
  8
06-99
100
AcDbLine
 10
311.3988989337349
 20
20.80153409471234
 30
0.0
 11
309.579801257735
 21
20.80153409471234
 31
0.0
  0
LINE
  5
1D4
330
84
100
AcDbEntity
  8
06-99
100
AcDbLine
 10
309.579801257735
 20
20.80153409471234
 30
0.0
 11
309.579801257735
 21
17.12736016271231
 31
0.0
  0
LINE
  5
1D5
330
84
100
AcDbEntity
  8
06-99
100
AcDbLine
 10
304.853024873735
 20
17.12736016271231
 30
0.0
 11
305.1870465177349
 21
17.12736016271231
 31
0.0
  0
LINE
  5
1D6
330
84
100
AcDbEntity
  8
06-99
100
AcDbLine
 10
305.1870465177349
 20
17.12736016271231
 30
0.0
 11
305.1870465177349
 21
20.09753361071233
 31
0.0
  0
LINE
  5
1D7
330
84
100
AcDbEntity
  8
06-99
100
AcDbLine
 10
305.1870465177349
 20
20.09753361071233
 30
0.0
 11
307.7666661537348
 21
17.01858688271232
 31
0.0
  0
LINE
  5
1D8
330
84
100
AcDbEntity
  8
06-99
100
AcDbLine
 10
307.7666661537348
 20
17.01858688271232
 30
0.0
 11
307.7666661537348
 21
20.80153409471234
 31
0.0
  0
LINE
  5
1D9
330
84
100
AcDbEntity
  8
06-99
100
AcDbLine
 10
307.7666661537348
 20
20.80153409471234
 30
0.0
 11
307.4326587657349
 21
20.80153409471234
 31
0.0
  0
LINE
  5
1DA
330
84
100
AcDbEntity
  8
06-99
100
AcDbLine
 10
307.4326587657349
 20
20.80153409471234
 30
0.0
 11
307.4326587657349
 21
17.88274639871235
 31
0.0
  0
LINE
  5
1DB
330
84
100
AcDbEntity
  8
06-99
100
AcDbLine
 10
307.4326587657349
 20
17.88274639871235
 30
0.0
 11
304.853024873735
 21
20.95568422271231
 31
0.0
  0
LINE
  5
1DC
330
84
100
AcDbEntity
  8
06-99
100
AcDbLine
 10
304.853024873735
 20
20.95568422271231
 30
0.0
 11
304.853024873735
 21
17.12736016271231
 31
0.0
  0
LINE
  5
1DD
330
84
100
AcDbEntity
  8
06-99
100
AcDbLine
 10
313.448423465735
 20
20.50862675471228
 30
0.0
 11
313.7824308537349
 21
20.50862675471228
 31
0.0
  0
LINE
  5
1DE
330
84
100
AcDbEntity
  8
06-99
100
AcDbLine
 10
313.7824308537349
 20
20.50862675471228
 30
0.0
 11
313.9866159777348
 21
20.50030837871236
 31
0.0
  0
LINE
  5
1DF
330
84
100
AcDbEntity
  8
06-99
100
AcDbLine
 10
313.9866159777348
 20
20.50030837871236
 30
0.0
 11
314.1604465137349
 21
20.47385993471232
 31
0.0
  0
LINE
  5
1E0
330
84
100
AcDbEntity
  8
06-99
100
AcDbLine
 10
314.1604465137349
 20
20.47385993471232
 30
0.0
 11
314.3048954337349
 21
20.42705748671227
 31
0.0
  0
LINE
  5
1E1
330
84
100
AcDbEntity
  8
06-99
100
AcDbLine
 10
314.3048954337349
 20
20.42705748671227
 30
0.0
 11
314.4209178897349
 21
20.35767353471232
 31
0.0
  0
LINE
  5
1E2
330
84
100
AcDbEntity
  8
06-99
100
AcDbLine
 10
314.4209178897349
 20
20.35767353471232
 30
0.0
 11
314.509479725735
 21
20.26348057871229
 31
0.0
  0
LINE
  5
1E3
330
84
100
AcDbEntity
  8
06-99
100
AcDbLine
 10
314.509479725735
 20
20.26348057871229
 30
0.0
 11
314.5715432217348
 21
20.14225111871241
 31
0.0
  0
LINE
  5
1E4
330
84
100
AcDbEntity
  8
06-99
100
AcDbLine
 10
314.5715432217348
 20
20.14225111871241
 30
0.0
 11
314.6080777857349
 21
19.99175052671228
 31
0.0
  0
LINE
  5
1E5
330
84
100
AcDbEntity
  8
06-99
100
AcDbLine
 10
314.6080777857349
 20
19.99175052671228
 30
0.0
 11
314.6200421337348
 21
19.80976199471234
 31
0.0
  0
LINE
  5
1E6
330
84
100
AcDbEntity
  8
06-99
100
AcDbLine
 10
314.6200421337348
 20
19.80976199471234
 30
0.0
 11
314.6074469577349
 21
19.63100957471232
 31
0.0
  0
LINE
  5
1E7
330
84
100
AcDbEntity
  8
06-99
100
AcDbLine
 10
314.6074469577349
 20
19.63100957471232
 30
0.0
 11
314.5693763097349
 21
19.48586211071233
 31
0.0
  0
LINE
  5
1E8
330
84
100
AcDbEntity
  8
06-99
100
AcDbLine
 10
314.5693763097349
 20
19.48586211071233
 30
0.0
 11
314.5054167657349
 21
19.37130445871241
 31
0.0
  0
LINE
  5
1E9
330
84
100
AcDbEntity
  8
06-99
100
AcDbLine
 10
314.5054167657349
 20
19.37130445871241
 30
0.0
 11
314.4151370817349
 21
19.28432860271238
 31
0.0
  0
LINE
  5
1EA
330
84
100
AcDbEntity
  8
06-99
100
AcDbLine
 10
314.4151370817349
 20
19.28432860271238
 30
0.0
 11
314.298123833735
 21
19.22192296271237
 31
0.0
  0
LINE
  5
1EB
330
84
100
AcDbEntity
  8
06-99
100
AcDbLine
 10
314.298123833735
 20
19.22192296271237
 30
0.0
 11
314.1539493417349
 21
19.18107239471232
 31
0.0
  0
LINE
  5
1EC
330
84
100
AcDbEntity
  8
06-99
100
AcDbLine
 10
314.1539493417349
 20
19.18107239471232
 30
0.0
 11
313.9821894897348
 21
19.15877244671242
 31
0.0
  0
LINE
  5
1ED
330
84
100
AcDbEntity
  8
06-99
100
AcDbLine
 10
313.9821894897348
 20
19.15877244671242
 30
0.0
 11
313.7824308537349
 21
19.15200797471237
 31
0.0
  0
LINE
  5
1EE
330
84
100
AcDbEntity
  8
06-99
100
AcDbLine
 10
313.7824308537349
 20
19.15200797471237
 30
0.0
 11
313.448423465735
 21
19.15200797471237
 31
0.0
  0
LINE
  5
1EF
330
84
100
AcDbEntity
  8
06-99
100
AcDbLine
 10
313.448423465735
 20
19.15200797471237
 30
0.0
 11
313.448423465735
 21
20.50862675471228
 31
0.0
  0
LINE
  5
1F0
330
84
100
AcDbEntity
  8
06-99
100
AcDbLine
 10
315.3445997697348
 20
17.12736016271231
 30
0.0
 11
314.0239560057348
 21
18.87965422271236
 31
0.0
  0
LINE
  5
1F1
330
84
100
AcDbEntity
  8
06-99
100
AcDbLine
 10
314.0239560057348
 20
18.87965422271236
 30
0.0
 11
314.212373993735
 21
18.8922529627124
 31
0.0
  0
LINE
  5
1F2
330
84
100
AcDbEntity
  8
06-99
100
AcDbLine
 10
314.212373993735
 20
18.8922529627124
 30
0.0
 11
314.3829007017349
 21
18.92942191871231
 31
0.0
  0
LINE
  5
1F3
330
84
100
AcDbEntity
  8
06-99
100
AcDbLine
 10
314.3829007017349
 20
18.92942191871231
 30
0.0
 11
314.5343992137349
 21
18.99023088671242
 31
0.0
  0
LINE
  5
1F4
330
84
100
AcDbEntity
  8
06-99
100
AcDbLine
 10
314.5343992137349
 20
18.99023088671242
 30
0.0
 11
314.6657219217349
 21
19.07375679071236
 31
0.0
  0
LINE
  5
1F5
330
84
100
AcDbEntity
  8
06-99
100
AcDbLine
 10
314.6657219217349
 20
19.07375679071236
 30
0.0
 11
314.7757283457349
 21
19.17905873471233
 31
0.0
  0
LINE
  5
1F6
330
84
100
AcDbEntity
  8
06-99
100
AcDbLine
 10
314.7757283457349
 20
19.17905873471233
 30
0.0
 11
314.8632744417348
 21
19.30521720671237
 31
0.0
  0
LINE
  5
1F7
330
84
100
AcDbEntity
  8
06-99
100
AcDbLine
 10
314.8632744417348
 20
19.30521720671237
 30
0.0
 11
314.9272232937349
 21
19.4512948747124
 31
0.0
  0
LINE
  5
1F8
330
84
100
AcDbEntity
  8
06-99
100
AcDbLine
 10
314.9272232937349
 20
19.4512948747124
 30
0.0
 11
314.9664308577349
 21
19.61636153471238
 31
0.0
  0
LINE
  5
1F9
330
84
100
AcDbEntity
  8
06-99
100
AcDbLine
 10
314.9664308577349
 20
19.61636153471238
 30
0.0
 11
314.9797530897347
 21
19.79949054671237
 31
0.0
  0
LINE
  5
1FA
330
84
100
AcDbEntity
  8
06-99
100
AcDbLine
 10
314.9797530897347
 20
19.79949054671237
 30
0.0
 11
314.969937833735
 21
19.97455422671237
 31
0.0
  0
LINE
  5
1FB
330
84
100
AcDbEntity
  8
06-99
100
AcDbLine
 10
314.969937833735
 20
19.97455422671237
 30
0.0
 11
314.940481373735
 21
20.13261762671238
 31
0.0
  0
LINE
  5
1FC
330
84
100
AcDbEntity
  8
06-99
100
AcDbLine
 10
314.940481373735
 20
20.13261762671238
 30
0.0
 11
314.8913551977349
 21
20.27374846271237
 31
0.0
  0
LINE
  5
1FD
330
84
100
AcDbEntity
  8
06-99
100
AcDbLine
 10
314.8913551977349
 20
20.27374846271237
 30
0.0
 11
314.822541485735
 21
20.39801445071225
 31
0.0
  0
LINE
  5
1FE
330
84
100
AcDbEntity
  8
06-99
100
AcDbLine
 10
314.822541485735
 20
20.39801445071225
 30
0.0
 11
314.7340152897349
 21
20.50548687071239
 31
0.0
  0
LINE
  5
1FF
330
84
100
AcDbEntity
  8
06-99
100
AcDbLine
 10
314.7340152897349
 20
20.50548687071239
 30
0.0
 11
314.625751661735
 21
20.59623700271237
 31
0.0
  0
LINE
  5
200
330
84
100
AcDbEntity
  8
06-99
100
AcDbLine
 10
314.625751661735
 20
20.59623700271237
 30
0.0
 11
314.4977292177349
 21
20.67032899871231
 31
0.0
  0
LINE
  5
201
330
84
100
AcDbEntity
  8
06-99
100
AcDbLine
 10
314.4977292177349
 20
20.67032899871231
 30
0.0
 11
314.3499230097348
 21
20.72783413871235
 31
0.0
  0
LINE
  5
202
330
84
100
AcDbEntity
  8
06-99
100
AcDbLine
 10
314.3499230097348
 20
20.72783413871235
 30
0.0
 11
314.1823116537348
 21
20.76882726671238
 31
0.0
  0
LINE
  5
203
330
84
100
AcDbEntity
  8
06-99
100
AcDbLine
 10
314.1823116537348
 20
20.76882726671238
 30
0.0
 11
313.9948737657348
 21
20.79336897071238
 31
0.0
  0
LINE
  5
204
330
84
100
AcDbEntity
  8
06-99
100
AcDbLine
 10
313.9948737657348
 20
20.79336897071238
 30
0.0
 11
313.7875808337349
 21
20.80153409471234
 31
0.0
  0
LINE
  5
205
330
84
100
AcDbEntity
  8
06-99
100
AcDbLine
 10
313.7875808337349
 20
20.80153409471234
 30
0.0
 11
313.7875808337349
 21
20.80153409471234
 31
0.0
  0
LINE
  5
206
330
84
100
AcDbEntity
  8
06-99
100
AcDbLine
 10
313.7875808337349
 20
20.80153409471234
 30
0.0
 11
313.1144053857349
 21
20.80153409471234
 31
0.0
  0
LINE
  5
207
330
84
100
AcDbEntity
  8
06-99
100
AcDbLine
 10
313.1144053857349
 20
20.80153409471234
 30
0.0
 11
313.1144053857349
 21
17.12736016271231
 31
0.0
  0
LINE
  5
208
330
84
100
AcDbEntity
  8
06-99
100
AcDbLine
 10
313.1144053857349
 20
17.12736016271231
 30
0.0
 11
313.448423465735
 21
17.12736016271231
 31
0.0
  0
LINE
  5
209
330
84
100
AcDbEntity
  8
06-99
100
AcDbLine
 10
313.448423465735
 20
17.12736016271231
 30
0.0
 11
313.448423465735
 21
18.87965422271236
 31
0.0
  0
LINE
  5
20A
330
84
100
AcDbEntity
  8
06-99
100
AcDbLine
 10
313.448423465735
 20
18.87965422271236
 30
0.0
 11
313.6488378777349
 21
18.87965422271236
 31
0.0
  0
LINE
  5
20B
330
84
100
AcDbEntity
  8
06-99
100
AcDbLine
 10
313.6488378777349
 20
18.87965422271236
 30
0.0
 11
314.9386387857348
 21
17.12736016271231
 31
0.0
  0
LINE
  5
20C
330
84
100
AcDbEntity
  8
06-99
100
AcDbLine
 10
314.9386387857348
 20
17.12736016271231
 30
0.0
 11
315.3445997697348
 21
17.12736016271231
 31
0.0
  0
TEXT
  5
20D
330
84
100
AcDbEntity
  8
06-99
100
AcDbText
 10
294.6083578687944
 20
10.63320974709819
 30
0.0
 40
1.4256
  1
GmbH & Co KG
 41
1.199203187251
 51
15.0
  7
ROMAND8
 72
     5
 11
315.0419578687945
 21
10.63320974709819
 31
0.0
100
AcDbText
  0
TEXT
  5
20F
330
84
100
AcDbEntity
  8
06-99
100
AcDbText
 10
294.7098146233783
 20
8.391016474674643
 30
0.0
 40
1.4256
  1
72774 Reutlingen
 50
0.5663244663116128
 41
1.087840993687879
 51
15.0
  7
ROMAND8
 72
     5
 11
314.9434146233783
 21
8.591016474674631
 31
0.0
100
AcDbText
  0
TEXT
  5
210
330
84
100
AcDbEntity
  8
08-99
100
AcDbText
 10
282.4141179695723
 20
49.4500923918223
 30
0.0
 40
2.25
  1
Zul. Abw.
 51
15.0
  7
ROMANS8
100
AcDbText
  0
TEXT
  5
211
330
84
100
AcDbEntity
  8
08-99
100
AcDbText
 10
332.2099260900184
 20
50.28616492075241
 30
0.0
 40
2.0
  1
Mat. Art.
 51
15.0
  7
ROMANS8
100
AcDbText
  0
TEXT
  5
212
330
84
100
AcDbEntity
  8
08-99
100
AcDbText
 10
364.4865307401076
 20
50.40431414472369
 30
0.0
 40
2.0
  1
Oberfläche:
 51
15.0
  7
ROMANS8
100
AcDbText
  0
TEXT
  5
213
330
84
100
AcDbEntity
  8
08-99
100
AcDbText
 10
393.7625376083154
 20
42.73764747805694
 30
0.0
 40
2.0
  1
Blech Dicke:
 51
15.0
  7
ROMANS8
100
AcDbText
  0
TEXT
  5
214
330
84
100
AcDbEntity
  8
08-99
100
AcDbText
 10
396.4380277982925
 20
50.28616492075252
 30
0.0
 40
2.0
  1
Maßstab:
 51
15.0
  7
ROMANS8
100
AcDbText
  0
LINE
  5
215
330
84
100
AcDbEntity
  8
01-99
100
AcDbLine
 10
323.9999997697348
 20
47.88888965037898
 30
0.0
 11
300.9999997697348
 21
47.88888965037898
 31
0.0
  0
LINE
  5
216
330
84
100
AcDbEntity
  8
01-99
100
AcDbLine
 10
323.9999997697348
 20
45.33333409471225
 30
0.0
 11
300.9999997697348
 21
45.33333409471225
 31
0.0
  0
LINE
  5
217
330
84
100
AcDbEntity
  8
01-99
100
AcDbLine
 10
323.9999997697349
 20
41.50000076137894
 30
0.0
 11
300.9999997697347
 21
41.50000076137897
 31
0.0
  0
ATTDEF
  5
218
330
84
100
AcDbEntity
  8
06-99
100
AcDbText
 10
325.495446508912
 20
27.18783945866119
 30
0.0
 40
4.5
  1

 41
0.9
  7
ROMANS8
100
AcDbAttributeDefinition
280
     0
  3
Benennung/Teil
  2
TEILE
 70
     0
280
     0
  0
ATTDEF
  5
219
330
84
100
AcDbEntity
  8
06-99
100
AcDbText
 10
325.495446508912
 20
19.89177436492207
 30
0.0
 40
4.5
  1

 41
0.9
  7
ROMANS8
100
AcDbAttributeDefinition
280
     0
  3
Benennung/Teil2
  2
TEILE2
 70
     0
280
     0
  0
ATTDEF
  5
21A
330
84
100
AcDbEntity
  8
06-99
100
AcDbText
 10
400.3473859814493
 20
46.33333409471231
 30
0.0
 40
3.375
  1

  7
ROMANS8
100
AcDbAttributeDefinition
280
     0
  3
Maßstab
  2
:
 70
     0
280
     0
  0
ATTDEF
  5
21B
330
84
100
AcDbEntity
  8
06-99
100
AcDbText
 10
301.9970675691022
 20
28.44168622941026
 30
0.0
 40
2.5
  1

 41
0.9
  7
ROMANS8
100
AcDbAttributeDefinition
280
     0
  3
Name
  2
NAME
 70
     0
280
     0
  0
ATTDEF
  5
21C
330
84
100
AcDbEntity
  8
06-99
100
AcDbText
 10
288.4931462216289
 20
28.46123593549021
 30
0.0
 40
2.5
  1

 50
359.9144597696142
 41
0.9542572414211148
  7
ROMANS8
 72
     5
 11
299.7397368901736
 21
28.44444522804565
 31
0.0
100
AcDbAttributeDefinition
280
     0
  3
Datum
  2
DATUM
 70
     0
280
     0
  0
ATTDEF
  5
21D
330
84
100
AcDbEntity
  8
06-99
100
AcDbText
 10
387.5063437368931
 20
8.492900561667681
 30
0.0
 40
2.99376
  1

  7
ROMANS8
100
AcDbAttributeDefinition
280
     0
  3
Ident-Nummer
  2
ID.NR
 70
     0
280
     0
  0
ATTDEF
  5
21E
330
84
100
AcDbEntity
  8
06-99
100
AcDbText
 10
325.7312660254454
 20
38.66666740582343
 30
0.0
 40
3.0
  1

 41
0.9
  7
ROMANS8
100
AcDbAttributeDefinition
280
     0
  3
Zuschnitts.Länge
  2
LÄNGE
 70
     0
280
     0
  0
ATTDEF
  5
21F
330
84
100
AcDbEntity
  8
06-99
100
AcDbText
 10
359.1808046815046
 20
38.6781046318238
 30
0.0
 40
3.0
  1

 41
0.9
  7
ROMANS8
100
AcDbAttributeDefinition
280
     0
  3
Zuschnitts Breite
  2
BREITE
 70
     0
280
     0
  0
ATTDEF
  5
220
330
84
100
AcDbEntity
  8
06-99
100
AcDbText
 10
399.6090918964667
 20
38.66666742804574
 30
0.0
 40
3.09375
  1

  7
ROMANS8
100
AcDbAttributeDefinition
280
     0
  3
Blech.Dicke
  2
1.0
 70
     0
280
     0
  0
ATTDEF
  5
221
330
84
100
AcDbEntity
  8
06-99
100
AcDbText
 10
373.1277853711375
 20
46.33333409471243
 30
0.0
 40
3.0
  1

  7
ROMANS8
 72
     1
 11
373.1277853711375
 21
46.33333409471243
 31
0.0
100
AcDbAttributeDefinition
280
     0
  3
Oberfläche
  2
IV
 70
     0
280
     0
  0
ATTDEF
  5
222
330
84
100
AcDbEntity
  8
06-99
100
AcDbText
 10
332.2747403058506
 20
46.33333409471219
 30
0.0
 40
3.375
  1
1.4301
  7
ROMANS8
100
AcDbAttributeDefinition
280
     0
  3
Mat.Art
  2
1.4301
 70
     0
280
     0
  0
ATTDEF
  5
223
330
84
100
AcDbEntity
  8
06-99
100
AcDbText
 10
355.0006336566149
 20
8.504397365733609
 30
0.0
 40
3.168
  1

 41
0.9
  7
ROMANS8
100
AcDbAttributeDefinition
280
     0
  3
Auftrags Nr.
  2
AUFTRAGS.NR.
 70
     0
280
     0
  0
ATTDEF
  5
224
330
84
100
AcDbEntity
  8
06-99
100
AcDbText
 10
325.4999997697348
 20
8.500000761378998
 30
0.0
 40
3.168
  1

 41
0.9
  7
ROMANS8
100
AcDbAttributeDefinition
280
     0
  3
Sonder-NR,WPS
  2
SONDER-NR
 70
     0
280
     0
  0
ATTDEF
  5
225
330
84
100
AcDbEntity
  8
06-99
100
AcDbText
 10
255.4997507647431
 20
7.601810830638839
 30
0.0
 40
1.5
  1

 41
0.9
  7
ROMANS8
100
AcDbAttributeDefinition
280
     0
  3
ERSETZT.Durch
  2
ERSETZT.DURCH
 70
     0
280
     0
  0
ATTDEF
  5
226
330
84
100
AcDbEntity
  8
06-99
100
AcDbText
 10
230.4994675499334
 20
7.597457159251405
 30
0.0
 40
1.5
  1

 41
0.9
  7
ROMANS8
100
AcDbAttributeDefinition
280
     0
  3
ERSETZT.Für
  2
ERSETZT.FÜR
 70
     0
280
     0
  0
ATTDEF
  5
227
330
84
100
AcDbEntity
  8
06-99
100
AcDbText
 10
309.0037152733153
 20
48.66851190138698
 30
0.0
 40
1.287
  1
DIN A3
  7
ROMANS8
 72
     1
 11
312.2518581304581
 21
48.66851190138698
 31
0.0
100
AcDbAttributeDefinition
280
     0
  3
Format
  2
FORMAT
 70
     0
280
     0
  0
ATTDEF
  5
228
330
84
100
AcDbEntity
  8
06-99
100
AcDbText
 10
304.9914283411633
 20
38.39666742804565
 30
0.0
 40
2.34
  1
DIN 2768
  7
ROMANS8
 72
     1
 11
313.0142854840205
 21
38.39666742804565
 31
0.0
100
AcDbAttributeDefinition
280
     0
  3
Norm / Kanten
  2
NORM2
 70
     0
280
     0
  0
ATTDEF
  5
229
330
84
100
AcDbEntity
  8
06-99
100
AcDbText
 10
301.8157140554491
 20
42.23000076137895
 30
0.0
 40
2.34
  1
DIN 6930-M
  7
ROMANS8
 72
     1
 11
312.5128569125919
 21
42.23000076137895
 31
0.0
100
AcDbAttributeDefinition
280
     0
  3
Norm / Fräsen
  2
NORM1
 70
     0
280
     0
  0
ENDBLK
  5
22A
330
84
100
AcDbEntity
  8
0
100
AcDbBlockEnd
  0
BLOCK
  5
79
330
78
100
AcDbEntity
  8
0
100
AcDbBlockBegin
  2
*D23
 70
     1
 10
0.0
 20
0.0
 30
0.0
  3
*D23
  1

  0
LINE
  5
7A
330
78
100
AcDbEntity
  8
09-01
 62
     4
370
    -2
100
AcDbLine
 10
88.5137107365592
 20
436.2319042197044
 30
0.0
 11
99.98833786927102
 21
423.5598839506979
 31
0.0
  0
MTEXT
  5
7B
330
78
100
AcDbEntity
  8
09-01
 62
     1
100
AcDbMText
 10
95.90865101866365
 20
434.7695245257696
 30
0.0
 40
5.0
 41
0.0
 46
0.0
 71
     5
 72
     1
  1
R6
 11
0.6712177431391329
 21
-0.7412602385769853
 31
0.0
 73
     1
 44
1.0
  0
LINE
  5
7C
330
78
100
AcDbEntity
  8
09-01
 62
     4
370
    -2
100
AcDbLine
 10
107.3717330438016
 20
415.4060213263509
 30
0.0
 11
103.3444265849667
 21
419.8535827578129
 31
0.0
  0
SOLID
  5
7D
330
78
100
AcDbEntity
  8
09-01
 62
     4
100
AcDbTrace
 10
100.6060547347517
 20
424.1192320699804
 30
0.0
 11
99.37062100379021
 21
423.0005358314152
 31
0.0
 12
103.3444265849667
 22
419.8535827578129
 32
0.0
 13
103.3444265849667
 23
419.8535827578129
 33
0.0
  0
POINT
  5
7E
330
78
100
AcDbEntity
  8
DEFPOINTS
 62
     0
100
AcDbPoint
 10
103.3444265849667
 20
419.8535827578129
 30
0.0
  0
POINT
  5
80
330
78
100
AcDbEntity
  8
DEFPOINTS
 62
     0
100
AcDbPoint
 10
107.3717330438016
 20
415.4060213263509
 30
0.0
  0
ENDBLK
  5
81
330
78
100
AcDbEntity
  8
0
100
AcDbBlockEnd
  0
ENDSEC
  0
SECTION
  2
ENTITIES
  0
DIMENSION
  5
77
330
2
100
AcDbEntity
  8
09-01
100
AcDbDimension
280
     0
  2
*D23
 10
107.3717330438016
 20
415.4060213263509
 30
0.0
 11
92.57297994506723
 21
431.7490446816435
 31
0.0
 70
     4
 71
     5
 42
6.000000000000113
 73
     0
 74
     0
 75
     0
  3
Wagner
100
AcDbRadialDimension
 15
103.3444265849667
 25
419.8535827578129
 35
0.0
 40
0.0
1001
ACAD
1000
DSTYLE
1002
{
1070
    40
1040
2.0
1070
   288
1070
     1
1002
}
1001
ACAD_DSTYLE_DIMRADIAL_EXTENSION
1070
   387
1070
     1
1070
   388
1040
1.570796326794896
1070
   390
1040
3.141592653589793
  0
INSERT
  5
83
330
2
100
AcDbEntity
  8
09-01
100
AcDbBlockReference
 66
     1
  2
DIN A3
 10
0.0
 20
0.0
 30
0.0
 41
2.0
 42
2.0
 43
2.0
  0
ATTRIB
  5
22B
330
83
100
AcDbEntity
  8
06-99
100
AcDbText
 10
650.9908930178239
 20
54.37567891732237
 30
0.0
 40
9.0
  1
Handtuchspender WP 166
 41
0.9
  7
ROMANS8
100
AcDbAttribute
280
     0
  2
TEILE
 70
     0
280
     0
  0
ATTRIB
  5
22C
330
83
100
AcDbEntity
  8
06-99
100
AcDbText
 10
650.9908930178239
 20
39.78354872984414
 30
0.0
 40
9.0
  1

 41
0.9
  7
ROMANS8
100
AcDbAttribute
280
     0
  2
TEILE2
 70
     0
280
     0
  0
ATTRIB
  5
22D
330
83
100
AcDbEntity
  8
06-99
100
AcDbText
 10
800.6947719628987
 20
92.66666818942463
 30
0.0
 40
6.75
  1
1:2
  7
ROMANS8
100
AcDbAttribute
280
     0
  2
:
 70
     0
280
     0
  0
ATTRIB
  5
22E
330
83
100
AcDbEntity
  8
06-99
100
AcDbText
 10
603.9941351382045
 20
56.88337245882053
 30
0.0
 40
5.0
  1
Pfrepper
 41
0.9
  7
ROMANS8
100
AcDbAttribute
280
     0
  2
NAME
 70
     0
280
     0
  0
ATTRIB
  5
22F
330
83
100
AcDbEntity
  8
06-99
100
AcDbText
 10
576.9862924432577
 20
56.92247187098042
 30
0.0
 40
5.0
  1
01.12.2009
 50
359.9144597696142
 41
0.5725543448526689
  7
ROMANS8
 72
     5
 11
599.4794737803472
 21
56.8888904560913
 31
0.0
100
AcDbAttribute
280
     0
  2
DATUM
 70
     0
280
     0
  0
ATTRIB
  5
230
330
83
100
AcDbEntity
  8
06-99
100
AcDbText
 10
775.0126874737861
 20
16.98580112333536
 30
0.0
 40
5.98752
  1
764200
  7
ROMANS8
100
AcDbAttribute
280
     0
  2
ID.NR
 70
     0
280
     0
  0
ATTRIB
  5
231
330
83
100
AcDbEntity
  8
06-99
100
AcDbText
 10
651.4625320508907
 20
77.33333481164686
 30
0.0
 40
6.0
  1

 41
0.9
  7
ROMANS8
100
AcDbAttribute
280
     0
  2
LÄNGE
 70
     0
280
     0
  0
ATTRIB
  5
232
330
83
100
AcDbEntity
  8
06-99
100
AcDbText
 10
718.3616093630091
 20
77.35620926364759
 30
0.0
 40
6.0
  1

 41
0.9
  7
ROMANS8
100
AcDbAttribute
280
     0
  2
BREITE
 70
     0
280
     0
  0
ATTRIB
  5
233
330
83
100
AcDbEntity
  8
06-99
100
AcDbText
 10
799.2181837929333
 20
77.33333485609148
 30
0.0
 40
6.187500000000001
  1

  7
ROMANS8
100
AcDbAttribute
280
     0
  2
1.0
 70
     0
280
     0
  0
ATTRIB
  5
234
330
83
100
AcDbEntity
  8
06-99
100
AcDbText
 10
746.255570742275
 20
92.66666818942486
 30
0.0
 40
6.0
  1

  7
ROMANS8
 72
     1
 11
746.255570742275
 21
92.66666818942486
 31
0.0
100
AcDbAttribute
280
     0
  2
IV
 70
     0
280
     0
  0
ATTRIB
  5
235
330
83
100
AcDbEntity
  8
06-99
100
AcDbText
 10
664.5494806117012
 20
92.66666818942439
 30
0.0
 40
6.75
  1
1.4301
  7
ROMANS8
100
AcDbAttribute
280
     0
  2
1.4301
 70
     0
280
     0
  0
ATTRIB
  5
236
330
83
100
AcDbEntity
  8
06-99
100
AcDbText
 10
710.0012673132298
 20
17.00879473146722
 30
0.0
 40
6.336
  1

 41
0.9000000000000001
  7
ROMANS8
100
AcDbAttribute
280
     0
  2
AUFTRAGS.NR.
 70
     0
280
     0
  0
ATTRIB
  5
237
330
83
100
AcDbEntity
  8
06-99
100
AcDbText
 10
650.9999995394696
 20
17.000001522758
 30
0.0
 40
6.336
  1

 41
0.9000000000000001
  7
ROMANS8
100
AcDbAttribute
280
     0
  2
SONDER-NR
 70
     0
280
     0
  0
ATTRIB
  5
238
330
83
100
AcDbEntity
  8
06-99
100
AcDbText
 10
510.9995015294862
 20
15.20362166127768
 30
0.0
 40
3.0
  1

 41
0.9
  7
ROMANS8
100
AcDbAttribute
280
     0
  2
ERSETZT.DURCH
 70
     0
280
     0
  0
ATTRIB
  5
239
330
83
100
AcDbEntity
  8
06-99
100
AcDbText
 10
460.9989350998667
 20
15.19491431850281
 30
0.0
 40
3.0
  1

 41
0.9
  7
ROMANS8
100
AcDbAttribute
280
     0
  2
ERSETZT.FÜR
 70
     0
280
     0
  0
ATTRIB
  5
23A
330
83
100
AcDbEntity
  8
06-99
100
AcDbText
 10
618.0074305466305
 20
97.33702380277396
 30
0.0
 40
2.574
  1
DIN A3
  7
ROMANS8
 72
     1
 11
624.5037162609162
 21
97.33702380277396
 31
0.0
100
AcDbAttribute
280
     0
  2
FORMAT
 70
     0
280
     0
  0
ATTRIB
  5
23B
330
83
100
AcDbEntity
  8
06-99
100
AcDbText
 10
609.9828566823267
 20
76.79333485609129
 30
0.0
 40
4.68
  1
DIN 2768
  7
ROMANS8
 72
     1
 11
626.028570968041
 21
76.79333485609129
 31
0.0
100
AcDbAttribute
280
     0
  2
NORM2
 70
     0
280
     0
  0
ATTRIB
  5
23C
330
83
100
AcDbEntity
  8
06-99
100
AcDbText
 10
603.6314281108981
 20
84.46000152275791
 30
0.0
 40
4.68
  1
DIN 6930-M
  7
ROMANS8
 72
     1
 11
625.0257138251838
 21
84.46000152275791
 31
0.0
100
AcDbAttribute
280
     0
  2
NORM1
 70
     0
280
     0
  0
SEQEND
  5
23D
330
83
100
AcDbEntity
  8
09-01
  0
DIMENSION
  5
23E
330
2
100
AcDbEntity
  8
09-01
100
AcDbDimension
280
     0
  2
*D21
 10
374.3717330438014
 20
63.91693381382288
 30
0.0
 11
382.7148062689539
 21
68.26242402743742
 31
0.0
 70
   128
 71
     5
 42
1.000000000000113
 73
     0
 74
     0
 75
     0
  3
Wagner$0
100
AcDbAlignedDimension
 13
373.3717330438013
 23
83.16560240001081
 33
0.0
 14
374.3717330438014
 24
92.36560240001091
 34
0.0
100
AcDbRotatedDimension
1001
ACAD
1000
DSTYLE
1002
{
1070
    40
1040
2.0
1002
}
  0
DIMENSION
  5
24E
330
2
100
AcDbEntity
  8
09-01
100
AcDbDimension
280
     0
  2
*D20
 10
77.37173304380141
 20
63.91693381382288
 30
0.0
 11
69.26029204428414
 21
68.26242402743742
 31
0.0
 70
   128
 71
     5
 42
0.9999999999999147
 73
     0
 74
     0
 75
     0
  3
Wagner$0
100
AcDbAlignedDimension
 13
76.3717330438015
 23
94.3656024000108
 33
0.0
 14
77.37173304380141
 24
82.36560240001091
 34
0.0
100
AcDbRotatedDimension
1001
ACAD
1000
DSTYLE
1002
{
1070
    40
1040
2.0
1002
}
  0
DIMENSION
  5
25D
330
2
100
AcDbEntity
  8
09-01
100
AcDbDimension
280
     0
  2
*D19
 10
373.3717330438013
 20
63.91693381382288
 30
0.0
 11
225.3717330438014
 21
68.41693381382288
 31
0.0
 71
     5
 42
295.9999999999999
 73
     0
 74
     0
 75
     0
  3
Wagner$0
100
AcDbAlignedDimension
 13
77.37173304380139
 23
82.36560240001091
 33
0.0
 14
373.3717330438013
 24
82.36560240001086
 34
0.0
100
AcDbRotatedDimension
1001
ACAD
1000
DSTYLE
1002
{
1070
    40
1040
2.0
1002
}
  0
DIMENSION
  5
26A
330
2
100
AcDbEntity
  8
09-01
100
AcDbDimension
280
     0
  2
*D18
 10
374.3717330438014
 20
121.833321383571
 30
0.0
 11
345.0717330438016
 21
126.333321383571
 31
0.0
 71
     5
 42
58.59999999999979
 73
     0
 74
     0
 75
     0
  3
Wagner$0
100
AcDbAlignedDimension
 13
315.7717330438016
 23
121.833321383571
 33
0.0
 14
374.3717330438014
 24
92.36560240001091
 34
0.0
100
AcDbRotatedDimension
1001
ACAD
1000
DSTYLE
1002
{
1070
    40
1040
2.0
1002
}
  0
DIMENSION
  5
276
330
2
100
AcDbEntity
  8
09-01
100
AcDbDimension
280
     0
  2
*D17
 10
76.3717330438015
 20
121.833321383571
 30
0.0
 11
105.6717330438015
 21
126.333321383571
 31
0.0
 71
     5
 42
58.60000000000008
 73
     0
 74
     0
 75
     0
  3
Wagner$0
100
AcDbAlignedDimension
 13
134.9717330438016
 23
106.8656024000108
 33
0.0
 14
76.3717330438015
 24
92.36560240001081
 34
0.0
100
AcDbRotatedDimension
1001
ACAD
1000
DSTYLE
1002
{
1070
    40
1040
2.0
1002
}
  0
DIMENSION
  5
283
330
2
100
AcDbEntity
  8
09-01
100
AcDbDimension
280
     0
  2
*D16
 10
339.028264732388
 20
100.8656024000108
 30
0.0
 11
334.7668859338129
 21
112.0188766377419
 31
0.0
 70
   128
 71
     5
 42
5.0
 73
     0
 74
     0
 75
     0
  3
Wagner$0
100
AcDbAlignedDimension
 13
315.7717330438016
 23
105.8656024000108
 33
0.0
 14
315.7717330438016
 24
100.8656024000108
 34
0.0
 50
90.0
100
AcDbRotatedDimension
1001
ACAD
1000
DSTYLE
1002
{
1070
    40
1040
2.0
1002
}
  0
DIMENSION
  5
292
330
2
100
AcDbEntity
  8
09-01
100
AcDbDimension
280
     0
  2
*D15
 10
315.7717330438016
 20
121.833321383571
 30
0.0
 11
225.3717330438016
 21
126.333321383571
 31
0.0
 71
     5
 42
180.8
 73
     0
 74
     0
 75
     0
  3
Wagner$0
100
AcDbAlignedDimension
 13
134.9717330438016
 23
106.8656024000108
 33
0.0
 14
315.7717330438016
 24
106.8656024000108
 34
0.0
100
AcDbRotatedDimension
1001
ACAD
1000
DSTYLE
1002
{
1070
    40
1040
2.0
1002
}
  0
LINE
  5
29F
330
2
100
AcDbEntity
  8
05-01
100
AcDbLine
 10
315.7717330438016
 20
106.8656024000108
 30
0.0
 11
315.7717330438016
 21
99.86560240001086
 31
0.0
  0
LINE
  5
2A4
330
2
100
AcDbEntity
  8
05-01
100
AcDbLine
 10
319.2717330438016
 20
103.3656024000108
 30
0.0
 11
312.2717330438017
 21
103.3656024000108
 31
0.0
  0
CIRCLE
  5
2A5
330
2
100
AcDbEntity
  8
0
100
AcDbCircle
 10
315.7717330438016
 20
103.3656024000108
 30
0.0
 40
2.5
  0
LINE
  5
2A6
330
2
100
AcDbEntity
  8
0
100
AcDbLine
 10
76.37173304380152
 20
92.36560240001081
 30
0.0
 11
76.37173304380152
 21
246.3656024000108
 31
0.0
  0
DIMENSION
  5
2A7
330
2
100
AcDbEntity
  8
09-01
100
AcDbDimension
280
     0
  2
*D14
 10
148.5504122495188
 20
92.36560240001088
 30
0.0
 11
144.0871966713733
 21
87.51984376374265
 31
0.0
 70
   128
 71
     5
 42
10.99999999999998
 73
     0
 74
     0
 75
     0
  3
Wagner$0
100
AcDbAlignedDimension
 13
138.4717330438016
 23
103.3656024000108
 33
0.0
 14
164.6461666462708
 24
92.36560240001086
 34
0.0
 50
270.0
100
AcDbRotatedDimension
1001
ACAD
1000
DSTYLE
1002
{
1070
    40
1040
2.0
1002
}
  0
LINE
  5
2B6
330
2
100
AcDbEntity
  8
05-01
100
AcDbLine
 10
134.9717330438016
 20
106.8656024000108
 30
0.0
 11
134.9717330438016
 21
99.86560240001086
 31
0.0
  0
LINE
  5
2B7
330
2
100
AcDbEntity
  8
05-01
100
AcDbLine
 10
131.4717330438015
 20
103.3656024000108
 30
0.0
 11
138.4717330438016
 21
103.3656024000108
 31
0.0
  0
CIRCLE
  5
2B8
330
2
100
AcDbEntity
  8
0
100
AcDbCircle
 10
134.9717330438016
 20
103.3656024000108
 30
0.0
 40
2.5
  0
LINE
  5
2B9
330
2
100
AcDbEntity
  8
0
100
AcDbLine
 10
374.3717330438014
 20
246.3656024000108
 30
0.0
 11
76.37173304380152
 21
246.3656024000108
 31
0.0
  0
LINE
  5
2BA
330
2
100
AcDbEntity
  8
0
100
AcDbLine
 10
76.37173304380152
 20
92.36560240001086
 30
0.0
 11
76.37173304380152
 21
246.3656024000108
 31
0.0
  0
LINE
  5
2BB
330
2
100
AcDbEntity
  8
0
100
AcDbLine
 10
374.3717330438014
 20
92.36560240001091
 30
0.0
 11
374.3717330438014
 21
246.3656024000108
 31
0.0
  0
LINE
  5
2BC
330
2
100
AcDbEntity
  8
0
100
AcDbLine
 10
101.3717330438016
 20
82.36560240001097
 30
0.0
 11
101.3717330438014
 21
79.36560240001108
 31
0.0
  0
LINE
  5
2BD
330
2
100
AcDbEntity
  8
0
100
AcDbLine
 10
374.3717330438014
 20
92.36560240001091
 30
0.0
 11
76.37173304380152
 21
92.36560240001081
 31
0.0
  0
LINE
  5
2BE
330
2
100
AcDbEntity
  8
0
100
AcDbLine
 10
373.3717330438013
 20
83.16560240001081
 30
0.0
 11
373.3717330438013
 21
82.36560240001086
 31
0.0
  0
LINE
  5
2BF
330
2
100
AcDbEntity
  8
0
100
AcDbLine
 10
373.3717330438013
 20
92.36560240001086
 30
0.0
 11
373.3717330438013
 21
83.16560240001081
 31
0.0
  0
LINE
  5
2C0
330
2
100
AcDbEntity
  8
0
100
AcDbLine
 10
373.3717330438013
 20
82.36560240001086
 30
0.0
 11
77.37173304380141
 21
82.36560240001091
 31
0.0
  0
LINE
  5
2C1
330
2
100
AcDbEntity
  8
0
100
AcDbLine
 10
349.3717330438019
 20
82.36560240001086
 30
0.0
 11
349.3717330438017
 21
79.36560240001108
 31
0.0
  0
LINE
  5
2C2
330
2
100
AcDbEntity
  8
0
100
AcDbLine
 10
349.3717330438017
 20
79.36560240001108
 30
0.0
 11
101.3717330438014
 21
79.36560240001108
 31
0.0
  0
LINE
  5
2C3
330
2
100
AcDbEntity
  8
0
100
AcDbLine
 10
77.3717330438014
 20
92.36560240001086
 30
0.0
 11
77.37173304380141
 21
82.36560240001091
 31
0.0
  0
DIMENSION
  5
2C4
330
2
100
AcDbEntity
  8
09-01
100
AcDbDimension
280
     0
  2
*D13
 10
629.6929331365811
 20
330.8060213263512
 30
0.0
 11
625.1929331365809
 21
365.8060213263512
 31
0.0
 71
     5
 42
70.0
 73
     0
 74
     0
 75
     0
  3
Wagner$0
100
AcDbAlignedDimension
 13
641.5214275940877
 23
400.8060213263511
 33
0.0
 14
658.1214275940878
 24
330.8060213263511
 34
0.0
 50
90.0
100
AcDbRotatedDimension
1001
ACAD
1000
DSTYLE
1002
{
1070
    40
1040
2.0
1002
}
  0
DIMENSION
  5
2D1
330
2
100
AcDbEntity
  8
09-01
100
AcDbDimension
280
     0
  2
*D12
 10
649.6214275940878
 20
386.2416021907344
 30
0.0
 11
637.140566010248
 21
390.0936994797256
 31
0.0
 70
   128
 71
     5
 42
5.0
 73
     0
 74
     0
 75
     0
  3
Wagner$0
100
AcDbAlignedDimension
 13
644.6214275940877
 23
400.8060213263511
 33
0.0
 14
649.6214275940878
 24
400.8060213263511
 34
0.0
100
AcDbRotatedDimension
1001
ACAD
1000
DSTYLE
1002
{
1070
    40
1040
2.0
1002
}
  0
DIMENSION
  5
2E0
330
2
100
AcDbEntity
  8
09-01
100
AcDbDimension
280
     0
  2
*D11
 10
629.6929331365811
 20
400.8060213263512
 30
0.0
 11
625.1929331365809
 21
439.8060213263512
 31
0.0
 71
     5
 42
78.0
 73
     0
 74
     0
 75
     0
  3
Wagner$0
100
AcDbAlignedDimension
 13
658.1214275940878
 23
478.8060213263511
 33
0.0
 14
641.5214275940877
 24
400.8060213263511
 34
0.0
 50
90.0
100
AcDbRotatedDimension
1001
ACAD
1000
DSTYLE
1002
{
1070
    40
1040
2.0
1002
}
  0
DIMENSION
  5
2ED
330
2
100
AcDbEntity
  8
09-01
100
AcDbDimension
280
     0
  2
*D10
 10
647.1214275940877
 20
415.6732127421931
 30
0.0
 11
652.6214275940877
 21
420.1732127421932
 31
0.0
 71
     5
 42
11.0
 73
     0
 74
     0
 75
     0
  3
Wagner$0
100
AcDbAlignedDimension
 13
658.1214275940878
 23
478.8060213263511
 33
0.0
 14
647.1214275940877
 24
406.306021326351
 34
0.0
100
AcDbRotatedDimension
1001
ACAD
1000
DSTYLE
1002
{
1070
    40
1040
2.0
1002
}
  0
CIRCLE
  5
2FC
330
2
100
AcDbEntity
  8
01-01
100
AcDbCircle
 10
647.1214275940877
 20
400.8060213263511
 30
0.0
 40
2.5
  0
LINE
  5
300
330
2
100
AcDbEntity
  8
05-01
100
AcDbLine
 10
652.5214275940877
 20
400.8060213263511
 30
0.0
 11
641.5214275940877
 21
400.8060213263511
 31
0.0
  0
LINE
  5
301
330
2
100
AcDbEntity
  8
05-01
100
AcDbLine
 10
647.1214275940877
 20
406.306021326351
 30
0.0
 11
647.1214275940877
 21
395.3060213263512
 31
0.0
  0
DIMENSION
  5
302
330
2
100
AcDbEntity
  8
09-01
100
AcDbDimension
280
     0
  2
*D9
 10
256.8260862229345
 20
330.8060213263511
 30
0.0
 11
252.3260862229344
 21
350.1060213263512
 31
0.0
  1
40
 71
     5
 42
38.60000000000002
 73
     0
 74
     0
 75
     0
  3
Wagner$0
100
AcDbAlignedDimension
 13
257.8260862229345
 23
369.4060213263512
 33
0.0
 14
257.8260862229345
 24
330.8060213263511
 34
0.0
 50
90.0
100
AcDbRotatedDimension
1001
ACAD
1000
DSTYLE
1002
{
1070
    40
1040
2.0
1002
}
  0
DIMENSION
  5
30F
330
2
100
AcDbEntity
  8
09-01
100
AcDbDimension
280
     0
  2
*D8
 10
349.3717330438017
 20
388.7240002777012
 30
0.0
 11
225.3717330438017
 21
393.2240002777012
 31
0.0
 71
     5
 42
248.0
 73
     0
 74
     0
 75
     0
  3
Wagner$0
100
AcDbAlignedDimension
 13
101.3717330438016
 23
385.7240002777012
 33
0.0
 14
349.3717330438017
 24
385.7240002777012
 34
0.0
100
AcDbRotatedDimension
1001
ACAD
1000
DSTYLE
1002
{
1070
    40
1040
2.0
1002
}
  0
DIMENSION
  5
31C
330
2
100
AcDbEntity
  8
09-01
100
AcDbDimension
280
     0
  2
*D7
 10
256.8260862229345
 20
369.4060213263512
 30
0.0
 11
252.3260862229344
 21
395.4060213263512
 31
0.0
 71
     5
 42
52.0
 73
     0
 74
     0
 75
     0
  3
Wagner$0
100
AcDbAlignedDimension
 13
263.8260862229345
 23
421.4060213263511
 33
0.0
 14
263.8260862229345
 24
369.4060213263512
 34
0.0
 50
90.0
100
AcDbRotatedDimension
1001
ACAD
1000
DSTYLE
1002
{
1070
    40
1040
2.0
1002
}
  0
LINE
  5
329
330
2
100
AcDbEntity
  8
0
100
AcDbLine
 10
658.1214275940878
 20
477.8060213263511
 30
0.0
 11
668.1214275940877
 21
477.8060213263511
 31
0.0
  0
LINE
  5
32A
330
2
100
AcDbEntity
  8
0
100
AcDbLine
 10
673.0618905121723
 20
458.8768314999006
 30
0.0
 11
672.5618905121723
 21
459.3768314999006
 31
0.0
  0
LINE
  5
32B
330
2
100
AcDbEntity
  8
0
100
AcDbLine
 10
672.5618905121723
 20
459.3768314999006
 30
0.0
 11
668.1211117228029
 21
459.3768314999006
 31
0.0
  0
LINE
  5
32C
330
2
100
AcDbEntity
  8
0
100
AcDbLine
 10
672.5618905121723
 20
442.376831499901
 30
0.0
 11
673.0618905121723
 21
442.876831499901
 31
0.0
  0
LINE
  5
32D
330
2
100
AcDbEntity
  8
0
100
AcDbLine
 10
672.5618905121723
 20
442.376831499901
 30
0.0
 11
668.1217382460527
 21
442.3768314999008
 31
0.0
  0
LINE
  5
32E
330
2
100
AcDbEntity
  8
0
100
AcDbLine
 10
668.1214275940877
 20
421.4060213263513
 30
0.0
 11
671.1214275940875
 21
421.4060213263511
 31
0.0
  0
LINE
  5
32F
330
2
100
AcDbEntity
  8
0
100
AcDbLine
 10
668.1214275940877
 20
477.8060213263511
 30
0.0
 11
668.1214275940877
 21
331.8060213263513
 31
0.0
  0
LINE
  5
330
330
2
100
AcDbEntity
  8
0
100
AcDbLine
 10
673.0618905121723
 20
442.876831499901
 30
0.0
 11
673.0618905121723
 21
458.8768314999006
 31
0.0
  0
LINE
  5
331
330
2
100
AcDbEntity
  8
0
100
AcDbLine
 10
672.5618905121723
 20
442.376831499901
 30
0.0
 11
672.5618905121723
 21
459.3768314999006
 31
0.0
  0
DIMENSION
  5
332
330
2
100
AcDbEntity
  8
09-01
100
AcDbDimension
280
     0
  2
*D6
 10
668.1214275940877
 20
505.174308877157
 30
0.0
 11
586.1214275940877
 21
509.674308877157
 31
0.0
 71
     5
 42
164.0
 73
     0
 74
     0
 75
     0
  3
Wagner$0
100
AcDbAlignedDimension
 13
504.1214275940878
 23
481.306021326351
 33
0.0
 14
668.1214275940877
 24
478.8060213263511
 34
0.0
100
AcDbRotatedDimension
1001
ACAD
1000
DSTYLE
1002
{
1070
    40
1040
2.0
1002
}
  0
DIMENSION
  5
33F
330
2
100
AcDbEntity
  8
09-01
100
AcDbDimension
280
     0
  2
*D5
 10
658.1214275940878
 20
495.4973188593039
 30
0.0
 11
679.4086364333652
 21
502.6862172149056
 31
0.0
 70
   128
 71
     5
 42
10.0
 73
     0
 74
     0
 75
     0
  3
Wagner$0
100
AcDbAlignedDimension
 13
668.1214275940877
 23
476.3060213263511
 33
0.0
 14
658.1214275940878
 24
476.3060213263511
 34
0.0
100
AcDbRotatedDimension
1001
ACAD
1000
DSTYLE
1002
{
1070
    40
1040
2.0
1002
}
  0
DIMENSION
  5
34E
330
2
100
AcDbEntity
  8
09-01
100
AcDbDimension
280
     0
  2
*D4
 10
504.1214275940878
 20
495.4973188593039
 30
0.0
 11
581.1214275940877
 21
499.9973188593039
 31
0.0
 71
     5
 42
154.0
 73
     0
 74
     0
 75
     0
  3
Wagner$0
100
AcDbAlignedDimension
 13
658.1214275940878
 23
478.8060213263511
 33
0.0
 14
504.1214275940878
 24
478.8060213263511
 34
0.0
100
AcDbRotatedDimension
1001
ACAD
1000
DSTYLE
1002
{
1070
    40
1040
2.0
1002
}
  0
LINE
  5
35B
330
2
100
AcDbEntity
  8
0
100
AcDbLine
 10
658.1214275940878
 20
478.8060213263511
 30
0.0
 11
504.1214275940878
 21
478.8060213263511
 31
0.0
  0
LINE
  5
35C
330
2
100
AcDbEntity
  8
0
100
AcDbLine
 10
668.1214275940877
 20
369.4060213263514
 30
0.0
 11
671.1214275940875
 21
369.4060213263512
 31
0.0
  0
LINE
  5
35D
330
2
100
AcDbEntity
  8
0
100
AcDbLine
 10
668.1214275940877
 20
331.8060213263513
 30
0.0
 11
658.1214275940876
 21
331.8060213263511
 31
0.0
  0
LINE
  5
35E
330
2
100
AcDbEntity
  8
03-01
100
AcDbLine
 10
667.1214275940875
 20
345.8060213263511
 30
0.0
 11
504.1214275940878
 21
345.8060213263511
 31
0.0
  0
LINE
  5
363
330
2
100
AcDbEntity
  8
0
100
AcDbLine
 10
658.1214275940878
 20
330.8060213263511
 30
0.0
 11
504.1214275940878
 21
330.8060213263511
 31
0.0
  0
DIMENSION
  5
364
330
2
100
AcDbEntity
  8
09-01
100
AcDbDimension
280
     0
  2
*D3
 10
490.9326847519687
 20
330.8060213263511
 30
0.0
 11
486.4326847519686
 21
404.8060213263512
 31
0.0
 71
     5
 42
148.0
 73
     0
 74
     0
 75
     0
  3
Wagner$0
100
AcDbAlignedDimension
 13
504.1214275940878
 23
478.8060213263511
 33
0.0
 14
504.1214275940878
 24
330.8060213263511
 34
0.0
 50
90.0
100
AcDbRotatedDimension
1001
ACAD
1000
DSTYLE
1002
{
1070
    40
1040
2.0
1002
}
  0
LINE
  5
371
330
2
100
AcDbEntity
  8
0
100
AcDbLine
 10
504.1214275940878
 20
478.8060213263511
 30
0.0
 11
504.1214275940878
 21
330.8060213263511
 31
0.0
  0
LINE
  5
372
330
2
100
AcDbEntity
  8
0
100
AcDbLine
 10
671.1214275940875
 20
421.4060213263511
 30
0.0
 11
671.1214275940875
 21
369.4060213263512
 31
0.0
  0
LINE
  5
373
330
2
100
AcDbEntity
  8
0
100
AcDbLine
 10
658.1214275940878
 20
478.8060213263511
 30
0.0
 11
658.1214275940878
 21
330.8060213263511
 31
0.0
  0
LINE
  5
374
330
2
100
AcDbEntity
  8
03-01
100
AcDbLine
 10
359.3717330438017
 20
463.8060213263513
 30
0.0
 11
374.3717330438018
 21
478.8060213263511
 31
0.0
  0
LINE
  5
375
330
2
100
AcDbEntity
  8
0
100
AcDbLine
 10
224.3717330438013
 20
453.8060213263507
 30
0.0
 11
226.3717330438013
 21
453.8060213263507
 31
0.0
  0
LINE
  5
376
330
2
100
AcDbEntity
  8
0
100
AcDbLine
 10
226.3717330438016
 20
445.8060213263507
 30
0.0
 11
224.3717330438016
 21
445.8060213263507
 31
0.0
  0
CIRCLE
  5
377
330
2
100
AcDbEntity
  8
0
100
AcDbCircle
 10
225.3717330438016
 20
449.8060213263507
 30
0.0
 40
8.0
  0
CIRCLE
  5
378
330
2
100
AcDbEntity
  8
0
100
AcDbCircle
 10
225.3717330438016
 20
449.8060213263507
 30
0.0
 40
8.5
  0
LINE
  5
379
330
2
100
AcDbEntity
  8
0
100
AcDbLine
 10
226.3717330438013
 20
453.8060213263507
 30
0.0
 11
226.3717330438016
 21
445.8060213263507
 31
0.0
  0
LINE
  5
37A
330
2
100
AcDbEntity
  8
0
100
AcDbLine
 10
224.3717330438016
 20
445.8060213263507
 30
0.0
 11
224.3717330438013
 21
453.8060213263507
 31
0.0
  0
LINE
  5
37B
330
2
100
AcDbEntity
  8
03-01
100
AcDbLine
 10
76.37173304380167
 20
478.8060213263511
 30
0.0
 11
91.37173304380167
 21
463.8060213263513
 31
0.0
  0
DIMENSION
  5
37C
330
2
100
AcDbEntity
  8
09-01
100
AcDbDimension
280
     0
  2
*D2
 10
373.3717330438017
 20
491.6772221851504
 30
0.0
 11
228.8857181297435
 21
497.6162292075052
 31
0.0
 70
   128
  1
Tür 296
 71
     5
 42
296.0
 73
     0
 74
     0
 75
     0
  3
Wagner$0
100
AcDbAlignedDimension
 13
77.37173304380167
 23
477.8060213263514
 33
0.0
 14
373.3717330438017
 24
477.8060213263509
 34
0.0
100
AcDbRotatedDimension
1001
ACAD
1000
DSTYLE
1002
{
1070
    40
1040
2.0
1002
}
  0
LINE
  5
389
330
2
100
AcDbEntity
  8
0
100
AcDbLine
 10
374.3717330438018
 20
478.8060213263511
 30
0.0
 11
76.37173304380167
 21
478.8060213263511
 31
0.0
  0
LINE
  5
38A
330
2
100
AcDbEntity
  8
0
100
AcDbLine
 10
373.3717330438017
 20
477.8060213263511
 30
0.0
 11
77.37173304380167
 21
477.8060213263514
 31
0.0
  0
LINE
  5
38B
330
2
100
AcDbEntity
  8
03-01
100
AcDbLine
 10
359.3717330438017
 20
463.8060213263513
 30
0.0
 11
91.37173304380167
 21
463.8060213263513
 31
0.0
  0
LWPOLYLINE
  5
38C
330
2
100
AcDbEntity
  8
EBENE_1
  6
Continuous
 62
     1
100
AcDbPolyline
 90
        9
 70
     1
 43
0.0135
 10
240.5761915438017
 20
342.7701748263511
 10
240.7727200438018
 20
342.7701748263511
 10
240.9705355438017
 20
342.7277758263512
 10
241.0726405438017
 20
342.6078598263512
 10
241.0789495438018
 20
342.4213573263511
 10
241.0002220438018
 20
342.2373928263512
 10
240.8517715438017
 20
342.1222153263512
 10
240.6403075438018
 20
342.0823678263511
 10
240.4437790438017
 20
342.0823678263511
  0
LWPOLYLINE
  5
390
330
2
100
AcDbEntity
  8
EBENE_1
  6
Continuous
 62
     1
100
AcDbPolyline
 90
       19
 70
     1
 43
0.0135
 10
239.4816970438017
 20
349.3227778263511
 10
239.9034235438017
 20
349.3227778263511
 10
240.1612330438017
 20
349.3122748263512
 10
240.3807160438017
 20
349.2788803263512
 10
240.5631010438018
 20
349.2197863263511
 10
240.7095940438018
 20
349.1321803263511
 10
240.8214145438017
 20
349.0132498263511
 10
240.8997775438018
 20
348.8601823263512
 10
240.9459070438017
 20
348.6701563263511
 10
240.9610135438017
 20
348.4403728263512
 10
240.9451105438018
 20
348.2146753263511
 10
240.8970415438017
 20
348.0314083263511
 10
240.8162845438018
 20
347.8867648263512
 10
240.7022950438017
 20
347.7769468263512
 10
240.5545510438017
 20
347.6981518263512
 10
240.3725125438017
 20
347.6465728263511
 10
240.1556440438017
 20
347.6184163263512
 10
239.9034235438017
 20
347.6098753263512
 10
239.4816970438017
 20
347.6098753263512
  0
LWPOLYLINE
  5
391
330
2
100
AcDbEntity
  8
EBENE_1
  6
Continuous
 62
     1
100
AcDbPolyline
 90
       29
 70
     1
 43
0.0135
 10
241.8758590438017
 20
345.0535018263511
 10
240.2083795438017
 20
347.2659943263512
 10
240.4462810438018
 20
347.2819018263512
 10
240.6615925438017
 20
347.3288323263511
 10
240.8528785438017
 20
347.4056113263512
 10
241.0186900438017
 20
347.5110733263512
 10
241.1575870438017
 20
347.6440303263511
 10
241.2681250438017
 20
347.8033213263512
 10
241.3488685438017
 20
347.9877628263512
 10
241.3983730438017
 20
348.1961803263512
 10
241.4151940438017
 20
348.4274038263512
 10
241.4028010438018
 20
348.6484438263512
 10
241.3656085438018
 20
348.8480188263511
 10
241.3035805438017
 20
349.0262143263512
 10
241.2166945438017
 20
349.1831158263511
 10
241.1049190438017
 20
349.3188133263512
 10
240.9682225438018
 20
349.4333968263512
 10
240.8065780438017
 20
349.5269473263511
 10
240.6199540438017
 20
349.5995548263512
 10
240.4083235438017
 20
349.6513138263512
 10
240.1716595438017
 20
349.6823008263512
 10
239.9099260438017
 20
349.6926103263512
 10
239.9099260438017
 20
349.6926103263512
 10
239.0599570438017
 20
349.6926103263512
 10
239.0599570438017
 20
345.0535018263511
 10
239.4816970438017
 20
345.0535018263511
 10
239.4816970438017
 20
347.2659943263512
 10
239.7347455438018
 20
347.2659943263512
 10
241.3632820438017
 20
345.0535018263511
  0
LWPOLYLINE
  5
392
330
2
100
AcDbEntity
  8
EBENE_1
  6
Continuous
 62
     1
100
AcDbPolyline
 90
       23
 70
     1
 43
0.0135
 10
238.8358795438018
 20
340.1613988263512
 10
240.0739285438017
 20
340.1613988263512
 10
240.2971555438018
 20
341.3208553263511
 10
240.6880525438017
 20
340.1613988263512
 10
242.1029650438017
 20
340.1613988263512
 10
241.4398720438017
 20
341.5910713263512
 10
241.6410850438018
 20
341.6399278263512
 10
241.8245095438017
 20
341.7346348263512
 10
241.9856815438017
 20
341.8711063263511
 10
242.1201280438018
 20
342.0452428263512
 10
242.2233715438017
 20
342.2529493263511
 10
242.2909390438017
 20
342.4901308263512
 10
242.3180695438018
 20
342.7059418263512
 10
242.3126425438017
 20
342.9019123263512
 10
242.2746715438017
 20
343.0773673263512
 10
242.2041700438017
 20
343.2316273263511
 10
242.1011605438017
 20
343.3640173263512
 10
241.9656610438017
 20
343.4738533263512
 10
241.7976805438017
 20
343.5604648263512
 10
241.5972460438017
 20
343.6231678263512
 10
241.3643620438017
 20
343.6612873263511
 10
241.0990600438017
 20
343.6741438263512
 10
239.5121890438017
 20
343.6741438263512
  0
LWPOLYLINE
  5
393
330
2
100
AcDbEntity
  8
EBENE_1
  6
Continuous
 62
     1
100
AcDbPolyline
 90
       12
 70
     1
 43
0.0135
 10
234.5970730438018
 20
345.0535018263511
 10
236.8939135438017
 20
345.0535018263511
 10
236.8939135438017
 20
345.4492903263512
 10
235.0188130438017
 20
345.4492903263512
 10
235.0188130438017
 20
347.4476593263513
 10
236.8939135438017
 20
347.4476593263513
 10
236.8939135438017
 20
347.8434478263512
 10
235.0188130438017
 20
347.8434478263512
 10
235.0188130438017
 20
349.2968218263512
 10
236.8939135438017
 20
349.2968218263512
 10
236.8939135438017
 20
349.6926103263512
 10
234.5970730438018
 20
349.6926103263512
  0
LWPOLYLINE
  5
394
330
2
100
AcDbEntity
  8
EBENE_1
  6
Continuous
 62
     1
100
AcDbPolyline
 90
        8
 70
     1
 43
0.0135
 10
232.9559545438017
 20
340.1613988263512
 10
234.3127405438017
 20
340.1613988263512
 10
234.5059570438017
 20
340.6035688263511
 10
235.4590705438017
 20
340.6035688263511
 10
235.4869390438017
 20
340.1613988263512
 10
236.8429105438017
 20
340.1613988263512
 10
236.2909855438017
 20
343.6741438263512
 10
234.8858875438017
 20
343.6741438263512
  0
LWPOLYLINE
  5
395
330
2
100
AcDbEntity
  8
EBENE_1
  6
Continuous
 62
     1
100
AcDbPolyline
 90
       10
 70
     1
 43
0.0135
 10
234.8780035438017
 20
341.4387598263512
 10
235.0627150438018
 20
341.8367083263512
 10
235.1570980438018
 20
342.0443293263513
 10
235.2594235438017
 20
342.2988943263512
 10
235.3537120438017
 20
342.6080533263512
 10
235.3782820438017
 20
342.6080533263512
 10
235.3535050438017
 20
342.2988943263512
 10
235.3578070438018
 20
342.0443293263513
 10
235.3722430438017
 20
341.8367083263512
 10
235.4036890438018
 20
341.4387598263512
  0
LWPOLYLINE
  5
396
330
2
100
AcDbEntity
  8
EBENE_1
  6
Continuous
 62
     1
100
AcDbPolyline
 90
        8
 70
     1
 43
0.0135
 10
228.6289210438018
 20
345.0535018263511
 10
229.0506655438017
 20
345.0535018263511
 10
229.0506655438017
 20
348.8037208263512
 10
232.3077610438018
 20
344.9161618263512
 10
232.3077610438018
 20
349.6926103263512
 10
231.8860345438017
 20
349.6926103263512
 10
231.8860345438017
 20
346.0072723263512
 10
228.6289210438018
 20
349.8872443263511
  0
LWPOLYLINE
  5
397
330
2
100
AcDbEntity
  8
EBENE_1
  6
Continuous
 62
     1
100
AcDbPolyline
 90
       34
 70
     1
 43
0.0135
 10
229.3115755438018
 20
341.9398888263511
 10
229.3557970438016
 20
341.9398888263511
 10
229.3377970438017
 20
341.7197128263512
 10
229.3372615438018
 20
341.5279228263511
 10
229.3424365438017
 20
341.3601538263512
 10
229.3769470438017
 20
340.1613988263512
 10
230.4774490438017
 20
340.1613988263512
 10
232.1805550438017
 20
343.6741438263512
 10
230.9130265438017
 20
343.6741438263512
 10
230.3399290438018
 20
342.1265713263512
 10
230.2766680438018
 20
341.9491678263511
 10
230.2022110438017
 20
341.7193528263511
 10
230.1279520438017
 20
341.4338548263513
 10
230.0984905438018
 20
341.4338548263513
 10
230.1259225438017
 20
341.6831413263512
 10
230.1316780438018
 20
341.8822078263511
 10
230.1303640438018
 20
342.0332413263512
 10
230.1122020438017
 20
343.6741438263512
 10
229.2229750438018
 20
343.6741438263512
 10
228.5729725438017
 20
342.0332413263512
 10
228.5135005438017
 20
341.8822078263511
 10
228.4425985438018
 20
341.6831413263512
 10
228.3740320438017
 20
341.4338548263513
 10
228.3445705438017
 20
341.4338548263513
 10
228.3802465438018
 20
341.7193528263511
 10
228.3942865438017
 20
341.9491678263511
 10
228.3993310438017
 20
342.1265713263512
 10
228.4221505438017
 20
343.6741438263512
 10
227.1538075438017
 20
343.6741438263512
 10
227.5051090438017
 20
340.1613988263512
 10
228.6056065438017
 20
340.1613988263512
 10
229.1017045438017
 20
341.3601538263512
 10
229.1714950438017
 20
341.5279228263511
 10
229.2448090438018
 20
341.7197128263512
  0
LWPOLYLINE
  5
398
330
2
100
AcDbEntity
  8
EBENE_1
  6
Continuous
 62
     1
100
AcDbPolyline
 90
      133
 70
     1
 43
0.0135
 10
225.9957325438017
 20
348.5247208263511
 10
226.3006660438017
 20
348.7907338263512
 10
226.1918335438017
 20
348.9662518263511
 10
226.0673545438017
 20
349.1247733263512
 10
225.9276610438018
 20
349.2663568263512
 10
225.7732030438017
 20
349.3910698263511
 10
225.6044125438017
 20
349.4989618263511
 10
225.4217260438017
 20
349.5900913263511
 10
225.2255890438017
 20
349.6645258263512
 10
225.0164335438018
 20
349.7223148263511
 10
224.7947005438017
 20
349.7635168263512
 10
224.5608310438018
 20
349.7881993263512
 10
224.3152615438017
 20
349.7964118263512
 10
224.1120730438017
 20
349.7887573263511
 10
223.9154320438017
 20
349.7661268263511
 10
223.7257570438017
 20
349.7290108263512
 10
223.5434710438018
 20
349.6779088263512
 10
223.3689925438017
 20
349.6133203263512
 10
223.2027310438017
 20
349.5357403263511
 10
223.0451185438017
 20
349.4456638263511
 10
222.8965645438017
 20
349.3435858263511
 10
222.7574875438017
 20
349.2300013263512
 10
222.6283150438017
 20
349.1054143263512
 10
222.5094520438018
 20
348.9703108263512
 10
222.4013260438017
 20
348.8251993263512
 10
222.3043555438017
 20
348.6705658263511
 10
222.2189545438017
 20
348.5069098263512
 10
222.1455460438018
 20
348.3347263263512
 10
222.0845440438018
 20
348.1545193263511
 10
222.0363670438018
 20
347.9667748263511
 10
222.0014425438017
 20
347.7719968263511
 10
221.9801755438016
 20
347.5706758263512
 10
221.9729980438017
 20
347.3633113263512
 10
221.9800855438017
 20
347.1497953263512
 10
222.0011095438017
 20
346.9435648263512
 10
222.0356920438017
 20
346.7450203263512
 10
222.0834550438017
 20
346.5545578263511
 10
222.1440250438017
 20
346.3725733263512
 10
222.2170285438017
 20
346.1994628263512
 10
222.3020920438017
 20
346.0356178263511
 10
222.3988375438017
 20
345.8814388263511
 10
222.5068915438017
 20
345.7373173263512
 10
222.6258850438017
 20
345.6036538263512
 10
222.7554310438017
 20
345.4808398263512
 10
222.8951695438017
 20
345.3692758263511
 10
223.0447135438017
 20
345.2693533263512
 10
223.2036940438017
 20
345.1814683263512
 10
223.3717330438017
 20
345.1060213263512
 10
223.5484615438017
 20
345.0434038263512
 10
223.7334970438018
 20
344.9940118263512
 10
223.9264750438017
 20
344.9582413263513
 10
224.1270085438017
 20
344.9364883263511
 10
224.3347330438016
 20
344.9291488263511
 10
224.5418005438017
 20
344.9357818263512
 10
224.7404530438018
 20
344.9555278263512
 10
224.9304520438017
 20
344.9881438263512
 10
225.1115590438017
 20
345.0333868263512
 10
225.2835400438017
 20
345.0910183263512
 10
225.4461520438017
 20
345.1607998263511
 10
225.5991610438018
 20
345.2424883263512
 10
225.7423195438017
 20
345.3358498263512
 10
225.8754025438017
 20
345.4406413263511
 10
225.9981580438017
 20
345.5566153263512
 10
226.1103565438017
 20
345.6835468263511
 10
226.2117595438017
 20
345.8211793263511
 10
226.3021240438018
 20
345.9692878263512
 10
226.3812115438017
 20
346.1276203263512
 10
226.4487880438017
 20
346.2959428263511
 10
226.5046150438017
 20
346.4740123263511
 10
226.5484450438017
 20
346.6615903263511
 10
226.5800530438017
 20
346.8584383263512
 10
226.5991915438017
 20
347.0643178263511
 10
226.6056220438017
 20
347.2789813263511
 10
226.6056220438017
 20
347.2789813263511
 10
226.6056220438017
 20
347.3438578263512
 10
224.5423540438017
 20
347.3438578263512
 10
224.5423540438017
 20
346.9805098263511
 10
226.1449570438017
 20
346.9805098263511
 10
226.1313985438016
 20
346.7752783263512
 10
226.0968880438017
 20
346.5800188263511
 10
226.0423165438017
 20
346.3955683263512
 10
225.9685750438017
 20
346.2227683263512
 10
225.8765635438018
 20
346.0624468263512
 10
225.7671775438018
 20
345.9154543263512
 10
225.6412990438018
 20
345.7826143263512
 10
225.4998325438017
 20
345.6647773263512
 10
225.3436690438017
 20
345.5627668263511
 10
225.1736995438017
 20
345.4774288263512
 10
224.9908195438017
 20
345.4095958263511
 10
224.7959245438018
 20
345.3601093263512
 10
224.5899055438018
 20
345.3298018263511
 10
224.3736580438017
 20
345.3195148263512
 10
224.1657535438018
 20
345.3295543263511
 10
223.9658860438017
 20
345.3590788263511
 10
223.7748025438017
 20
345.4071928263512
 10
223.5932455438017
 20
345.4730053263511
 10
223.4219485438018
 20
345.5556208263511
 10
223.2616585438018
 20
345.6541438263512
 10
223.1131135438017
 20
345.7676878263512
 10
222.9770605438016
 20
345.8953528263513
 10
222.8542375438017
 20
346.0362478263511
 10
222.7453825438017
 20
346.1894818263512
 10
222.6512425438018
 20
346.3541548263511
 10
222.5725555438017
 20
346.5293803263512
 10
222.5100640438018
 20
346.7142628263511
 10
222.4645105438017
 20
346.9079023263512
 10
222.4366330438017
 20
347.1094168263512
 10
222.4271785438017
 20
347.3179063263511
 10
222.4352425438018
 20
347.5304998263512
 10
222.4591105438017
 20
347.7350608263511
 10
222.4982785438017
 20
347.9309593263511
 10
222.5522470438017
 20
348.1175698263511
 10
222.6205210438017
 20
348.2942668263512
 10
222.7025965438017
 20
348.4604293263512
 10
222.7979740438017
 20
348.6154228263512
 10
222.9061585438017
 20
348.7586308263512
 10
223.0266460438017
 20
348.8894188263512
 10
223.1589460438017
 20
349.0071658263511
 10
223.3025455438018
 20
349.1112418263512
 10
223.4569585438018
 20
349.2010258263512
 10
223.6216765438017
 20
349.2758878263511
 10
223.7962045438018
 20
349.3352023263512
 10
223.9800475438017
 20
349.3783438263511
 10
224.1726970438017
 20
349.4046913263511
 10
224.3736580438017
 20
349.4136103263512
 10
224.5980325438017
 20
349.4023513263512
 10
224.8123675438017
 20
349.3687183263511
 10
225.0162355438018
 20
349.3129228263512
 10
225.2092090438017
 20
349.2351763263511
 10
225.3908605438017
 20
349.1356993263512
 10
225.5607670438017
 20
349.0146988263512
 10
225.7185010438018
 20
348.8723953263512
 10
225.8636305438018
 20
348.7089958263512
  0
LWPOLYLINE
  5
399
330
2
100
AcDbEntity
  8
EBENE_1
  6
Continuous
 62
     1
100
AcDbPolyline
 90
       12
 70
     1
 43
0.0135
 10
222.2352355438017
 20
340.1613988263512
 10
224.6130985438018
 20
340.1613988263512
 10
224.7966040438017
 20
341.1145123263512
 10
223.6567945438018
 20
341.1145123263512
 10
223.7277325438017
 20
341.4829813263511
 10
224.7348820438018
 20
341.4829813263511
 10
224.9079700438016
 20
342.3820408263511
 10
223.9008205438017
 20
342.3820408263511
 10
223.9661065438018
 20
342.7210483263511
 10
225.0764365438017
 20
342.7210483263511
 10
225.2599285438017
 20
343.6741438263512
 10
222.9115450438017
 20
343.6741438263512
  0
LWPOLYLINE
  5
39A
330
2
100
AcDbEntity
  8
EBENE_1
  6
Continuous
 62
     1
100
AcDbPolyline
 90
        3
 70
     1
 43
0.0135
 10
217.8604750438017
 20
346.9869943263512
 10
218.6844880438017
 20
349.0048573263511
 10
219.4760650438017
 20
346.9869943263512
  0
SOLID
  5
39B
330
2
100
AcDbEntity
  8
EBENE_1
 62
     1
100
AcDbTrace
 10
217.8604750438017
 20
346.9869943263512
 30
0.0
 11
218.6844880438017
 21
349.0048573263511
 31
0.0
 12
217.8604750438017
 22
346.9869943263512
 32
0.0
 13
219.4760650438017
 23
346.9869943263512
 33
0.0
  0
LWPOLYLINE
  5
39C
330
2
100
AcDbEntity
  8
EBENE_1
  6
Continuous
 62
     1
100
AcDbPolyline
 90
       10
 70
     1
 43
0.0135
 10
211.5743980438018
 20
344.9291488263511
 10
212.8071505438017
 20
348.8102053263512
 10
214.0918285438017
 20
344.9291488263511
 10
215.6425240438017
 20
349.6926103263512
 10
215.2078150438017
 20
349.6926103263512
 10
214.0918285438017
 20
346.0202593263511
 10
212.8071505438017
 20
349.8742753263511
 10
211.5743980438018
 20
345.9878188263512
 10
210.4129930438017
 20
349.6926103263512
 10
209.9717950438018
 20
349.6926103263512
  0
LWPOLYLINE
  5
39D
330
2
100
AcDbEntity
  8
EBENE_1
  6
Continuous
 62
     1
100
AcDbPolyline
 90
        7
 70
     1
 43
0.0135
 10
216.6720475438018
 20
345.0535018263511
 10
217.1013565438017
 20
345.0535018263511
 10
217.7177305438017
 20
346.6236643263512
 10
219.6123025438018
 20
346.6236643263512
 10
220.2027430438017
 20
345.0535018263511
 10
220.6634080438017
 20
345.0535018263511
 10
218.7104440438016
 20
349.8742753263511
  0
LWPOLYLINE
  5
39E
330
2
100
AcDbEntity
  8
EBENE_1
  6
Continuous
 62
     1
100
AcDbPolyline
 90
        4
 70
     1
 43
0.0135
 10
204.7726300438017
 20
340.9538398263511
 10
220.5014800438017
 20
340.9538398263511
 10
220.3454470438017
 20
340.1604943263512
 10
204.6166015438017
 20
340.1604943263512
  0
SOLID
  5
39F
330
2
100
AcDbEntity
  8
EBENE_1
 62
     1
100
AcDbTrace
 10
204.7726300438017
 20
340.9538398263511
 30
0.0
 11
220.5014800438017
 21
340.9538398263511
 31
0.0
 12
204.6166015438017
 22
340.1604943263512
 32
0.0
 13
220.3454470438017
 23
340.1604943263512
 33
0.0
  0
DIMENSION
  5
3A0
330
2
100
AcDbEntity
  8
09-01
100
AcDbDimension
280
     0
  2
*D1
 10
374.3717330438016
 20
316.4335053069909
 30
0.0
 11
225.3717330438016
 21
320.9335053069909
 31
0.0
 71
     5
 42
298.0
 73
     0
 74
     0
 75
     0
  3
Wagner$0
100
AcDbAlignedDimension
 13
76.37173304380155
 23
330.8060213263514
 33
0.0
 14
374.3717330438016
 24
330.8060213263511
 34
0.0
100
AcDbRotatedDimension
1001
ACAD
1000
DSTYLE
1002
{
1070
    40
1040
2.0
1002
}
  0
LINE
  5
3AD
330
2
100
AcDbEntity
  8
0
100
AcDbLine
 10
374.3717330438016
 20
330.8060213263511
 30
0.0
 11
76.37173304380155
 21
330.8060213263511
 31
0.0
  0
LINE
  5
3AE
330
2
100
AcDbEntity
  8
0
100
AcDbLine
 10
373.3717330438015
 20
331.8060213263513
 30
0.0
 11
77.37173304380156
 21
331.8060213263515
 31
0.0
  0
LINE
  5
3AF
330
2
100
AcDbEntity
  8
03-01
100
AcDbLine
 10
373.5717330438016
 20
345.8060213263512
 30
0.0
 11
77.17173304380162
 21
345.8060213263511
 31
0.0
  0
DIMENSION
  5
3B0
330
2
100
AcDbEntity
  8
09-01
100
AcDbDimension
280
     0
  2
*D0
 10
62.89369640324031
 20
331.8060213263515
 30
0.0
 11
58.39369640324026
 21
404.9060213263513
 31
0.0
  1
Tür 146
 71
     5
 42
146.1999999999997
 73
     0
 74
     0
 75
     0
  3
Wagner$0
100
AcDbAlignedDimension
 13
77.17173304380162
 23
478.0060213263511
 33
0.0
 14
77.37173304380156
 24
331.8060213263515
 34
0.0
 50
90.0
100
AcDbRotatedDimension
1001
ACAD
1000
DSTYLE
1002
{
1070
    40
1040
2.0
1002
}
  0
LINE
  5
3BD
330
2
100
AcDbEntity
  8
0
100
AcDbLine
 10
374.3717330438018
 20
478.8060213263511
 30
0.0
 11
374.3717330438016
 21
330.8060213263511
 31
0.0
  0
LINE
  5
3BE
330
2
100
AcDbEntity
  8
03-01
100
AcDbLine
 10
359.3717330438017
 20
463.8060213263513
 30
0.0
 11
359.3717330438017
 21
331.6060213263513
 31
0.0
  0
LINE
  5
3BF
330
2
100
AcDbEntity
  8
0
100
AcDbLine
 10
373.3717330438017
 20
477.8060213263511
 30
0.0
 11
373.3717330438015
 21
331.8060213263513
 31
0.0
  0
LINE
  5
3C0
330
2
100
AcDbEntity
  8
0
100
AcDbLine
 10
76.37173304380167
 20
478.8060213263511
 30
0.0
 11
76.37173304380155
 21
330.8060213263511
 31
0.0
  0
LINE
  5
3C1
330
2
100
AcDbEntity
  8
03-01
100
AcDbLine
 10
91.37173304380167
 20
463.8060213263513
 30
0.0
 11
91.37173304380144
 21
331.6060213263511
 31
0.0
  0
LINE
  5
3C2
330
2
100
AcDbEntity
  8
0
100
AcDbLine
 10
77.37173304380167
 20
477.8060213263514
 30
0.0
 11
77.37173304380156
 21
331.8060213263515
 31
0.0
  0
LWPOLYLINE
  5
3C3
330
2
100
AcDbEntity
  8
0
100
AcDbPolyline
 90
        8
 70
     1
 43
0.0
 10
107.3717330438016
 20
369.4060213263512
 10
343.3717330438017
 20
369.4060213263512
 42
0.4142135623730951
 10
349.3717330438017
 20
375.4060213263512
 10
349.3717330438017
 20
415.4060213263511
 42
0.4142135623730951
 10
343.3717330438017
 20
421.4060213263511
 10
107.3717330438016
 20
421.4060213263511
 42
0.4142135623730951
 10
101.3717330438016
 20
415.4060213263511
 10
101.3717330438016
 20
375.4060213263512
 42
0.4142135623730951
  0
LWPOLYLINE
  5
3C4
330
2
100
AcDbEntity
  8
0
100
AcDbPolyline
 90
        9
 70
     0
 43
0.0
 10
107.3717330438016
 20
370.4060213263511
 10
343.3717330438017
 20
370.4060213263511
 42
0.4142135623730951
 10
348.3717330438017
 20
375.4060213263512
 10
348.3717330438017
 20
415.4060213263511
 42
0.4142135623730951
 10
343.3717330438017
 20
420.4060213263511
 10
107.3717330438016
 20
420.4060213263511
 42
0.4142135623730951
 10
102.3717330438016
 20
415.4060213263511
 10
102.3717330438016
 20
375.4060213263512
 42
0.4142135623730951
 10
107.3717330438016
 20
370.4060213263511
 42
0.4142135623730951
  0
TEXT
  5
3C5
330
2
100
AcDbEntity
  8
02-01
100
AcDbText
 10
708.0189285404028
 20
112.648872886012
 30
0.0
 40
8.5
  1
300 x 150 mm
  7
ROMANS
100
AcDbText
  0
TEXT
  5
3C7
330
2
100
AcDbEntity
  8
02-01
100
AcDbText
 10
708.0189285404028
 20
126.4107776479168
 30
0.0
 40
8.5
  1
Ausschnittsmaß:
  7
ROMANS
100
AcDbText
  0
ENDSEC
  0
SECTION
  2
OBJECTS
  0
DICTIONARY
  5
B
330
0
100
AcDbDictionary
281
     1
  3
ACAD_COLOR
350
49
  3
ACAD_GROUP
350
36
  3
ACAD_LAYOUT
350
18
  3
ACAD_MATERIAL
350
D
  3
ACAD_MLEADERSTYLE
350
4C
  3
ACAD_MLINESTYLE
350
37
  3
ACAD_PLOTSETTINGS
350
38
  3
ACAD_PLOTSTYLENAME
350
A
  3
ACAD_SCALELIST
350
4A
  3
ACAD_TABLESTYLE
350
4B
  3
ACAD_VISUALSTYLE
350
2B
  3
ACDB_RECOMPOSE_DATA
350
3D3
  3
AcDbVariableDictionary
350
3CA
  0
DICTIONARY
  5
2C
330
28
100
AcDbDictionary
280
     1
281
     1
  0
DICTIONARY
  5
1E
330
1D
100
AcDbDictionary
280
     1
281
     1
  3
ACAD_LAYERSTATES
360
1F
  0
DICTIONARY
  5
7
330
6
100
AcDbDictionary
280
     1
281
     1
  3
ADSK_XREC_LAYER_RECONCILED
360
8
  0
DICTIONARY
  5
2A1
330
2A0
100
AcDbDictionary
280
     1
281
     1
  3
ADSK_XREC_LAYER_RECONCILED
360
2A2
  0
DICTIONARY
  5
2FE
330
2FD
100
AcDbDictionary
280
     1
281
     1
  3
ADSK_XREC_LAYER_RECONCILED
360
2FF
  0
DICTIONARY
  5
8F
330
8E
100
AcDbDictionary
280
     1
281
     1
  3
ADSK_XREC_LAYER_RECONCILED
360
90
  0
DICTIONARY
  5
360
330
35F
100
AcDbDictionary
280
     1
281
     1
  3
ADSK_XREC_LAYER_RECONCILED
360
361
  0
DICTIONARY
  5
4E
330
4D
100
AcDbDictionary
280
     1
281
     1
  3
ADSK_XREC_LAYER_RECONCILED
360
4F
  0
DICTIONARY
  5
8A
330
89
100
AcDbDictionary
280
     1
281
     1
  3
ADSK_XREC_LAYER_RECONCILED
360
8B
  0
DICTIONARY
  5
CA
330
C9
100
AcDbDictionary
280
     1
281
     1
  3
ADSK_XREC_LAYER_RECONCILED
360
CB
  0
DICTIONARY
  5
B4
330
B3
100
AcDbDictionary
280
     1
281
     1
  3
ADSK_XREC_LAYER_RECONCILED
360
B5
  0
DICTIONARY
  5
38E
330
38D
100
AcDbDictionary
280
     1
281
     1
  3
ADSK_XREC_LAYER_RECONCILED
360
38F
  0
DICTIONARY
  5
3
330
2
100
AcDbDictionary
280
     1
281
     1
  3
ACAD_SORTENTS
360
3C9
  0
DICTIONARY
  5
85
330
84
100
AcDbDictionary
280
     1
281
     1
  3
ACAD_SORTENTS
360
3C8
  0
DICTIONARY
  5
49
102
{ACAD_REACTORS
330
B
102
}
330
B
100
AcDbDictionary
281
     1
  0
DICTIONARY
  5
36
102
{ACAD_REACTORS
330
B
102
}
330
B
100
AcDbDictionary
281
     1
  0
DICTIONARY
  5
18
102
{ACAD_REACTORS
330
B
102
}
330
B
100
AcDbDictionary
281
     1
  3
Layout1
350
1C
  3
Model
350
17
  0
DICTIONARY
  5
D
102
{ACAD_REACTORS
330
B
102
}
330
B
100
AcDbDictionary
281
     1
  3
ByBlock
350
41
  3
ByLayer
350
39
  3
Global
350
C
  0
DICTIONARY
  5
4C
102
{ACAD_REACTORS
330
B
102
}
330
B
100
AcDbDictionary
281
     1
  0
DICTIONARY
  5
37
102
{ACAD_REACTORS
330
B
102
}
330
B
100
AcDbDictionary
281
     1
  3
STANDARD
350
51
  0
DICTIONARY
  5
38
102
{ACAD_REACTORS
330
B
102
}
330
B
100
AcDbDictionary
281
     1
  0
ACDBDICTIONARYWDFLT
  5
A
102
{ACAD_REACTORS
330
B
102
}
330
B
100
AcDbDictionary
281
     1
  3
Normal
350
9
100
AcDbDictionaryWithDefault
340
9
  0
DICTIONARY
  5
4A
102
{ACAD_REACTORS
330
B
102
}
330
B
100
AcDbDictionary
281
     1
  3
A0
350
56
  3
A1
350
57
  3
A2
350
58
  3
A3
350
59
  3
A4
350
5A
  3
A5
350
5B
  3
A6
350
5C
  3
A7
350
5D
  3
A8
350
5E
  3
A9
350
5F
  3
B0
350
60
  3
B1
350
61
  3
B2
350
62
  3
B3
350
63
  3
B4
350
64
  3
B5
350
65
  3
B6
350
66
  3
B7
350
67
  3
B8
350
68
  3
B9
350
69
  3
C0
350
6A
  3
C1
350
6B
  3
C2
350
6C
  3
C3
350
6D
  3
C4
350
6E
  3
C5
350
6F
  3
C6
350
70
  3
C7
350
71
  3
C8
350
72
  3
C9
350
73
  3
D0
350
74
  3
D1
350
75
  3
D2
350
76
  0
DICTIONARY
  5
4B
102
{ACAD_REACTORS
330
B
102
}
330
B
100
AcDbDictionary
281
     1
  3
Standard
350
52
  0
DICTIONARY
  5
2B
102
{ACAD_REACTORS
330
B
102
}
330
B
100
AcDbDictionary
281
     1
  3
2dWireframe
350
2A
  3
3dWireframe
350
55
  3
Realistic
350
54
  0
XRECORD
  5
3D3
102
{ACAD_REACTORS
330
B
102
}
330
B
100
AcDbXrecord
280
     1
 90
        1
330
52
  0
DICTIONARY
  5
3CA
102
{ACAD_REACTORS
330
B
102
}
330
B
100
AcDbDictionary
281
     1
  3
CANNOSCALE
350
3CD
  3
CMLEADERSTYLE
350
3CC
  3
CTABLESTYLE
350
3CB
  3
LAYEREVAL
350
3CF
  3
LAYERNOTIFY
350
3D0
  3
LIGHTINGUNITS
350
3CE
  0
DICTIONARY
  5
1F
102
{ACAD_REACTORS
330
1E
102
}
330
1E
100
AcDbDictionary
281
     1
  0
XRECORD
  5
8
102
{ACAD_REACTORS
330
7
102
}
330
7
100
AcDbXrecord
280
     1
290
     1
  0
XRECORD
  5
2A2
102
{ACAD_REACTORS
330
2A1
102
}
330
2A1
100
AcDbXrecord
280
     1
290
     1
  0
XRECORD
  5
2FF
102
{ACAD_REACTORS
330
2FE
102
}
330
2FE
100
AcDbXrecord
280
     1
290
     1
  0
XRECORD
  5
90
102
{ACAD_REACTORS
330
8F
102
}
330
8F
100
AcDbXrecord
280
     1
290
     1
  0
XRECORD
  5
361
102
{ACAD_REACTORS
330
360
102
}
330
360
100
AcDbXrecord
280
     1
290
     1
  0
XRECORD
  5
4F
102
{ACAD_REACTORS
330
4E
102
}
330
4E
100
AcDbXrecord
280
     1
290
     1
  0
XRECORD
  5
8B
102
{ACAD_REACTORS
330
8A
102
}
330
8A
100
AcDbXrecord
280
     1
290
     1
  0
XRECORD
  5
CB
102
{ACAD_REACTORS
330
CA
102
}
330
CA
100
AcDbXrecord
280
     1
290
     1
  0
XRECORD
  5
B5
102
{ACAD_REACTORS
330
B4
102
}
330
B4
100
AcDbXrecord
280
     1
290
     1
  0
XRECORD
  5
38F
102
{ACAD_REACTORS
330
38E
102
}
330
38E
100
AcDbXrecord
280
     1
290
     1
  0
SORTENTSTABLE
  5
3C9
102
{ACAD_REACTORS
330
3
102
}
330
3
100
AcDbSortentsTable
330
2
331
3C7
  5
77
331
32D
  5
375
331
39B
  5
2BB
331
3AE
  5
2A6
331
37B
  5
30F
331
2ED
  5
38C
331
2C1
  5
395
331
35B
  5
35D
331
300
  5
38A
331
24E
  5
3C3
331
34E
  5
35E
331
2E0
  5
390
331
3C0
  5
276
331
394
  5
2C2
331
83
  5
3C5
331
77
  5
3C7
331
2A7
  5
3AD
331
374
  5
32E
331
2BA
  5
39C
331
39A
  5
2BC
331
32C
  5
376
331
33F
  5
363
331
3AD
  5
2A7
331
37A
  5
31C
331
2C0
  5
396
331
3A0
  5
2B6
331
332
  5
364
331
393
  5
2C3
331
2A6
  5
3AE
331
373
  5
32F
331
2B9
  5
39D
331
3C5
  5
83
331
32B
  5
377
331
399
  5
2BD
331
379
  5
329
331
3BF
  5
283
331
2BF
  5
397
331
38C
  5
2ED
331
39F
  5
2B7
331
29F
  5
3BD
331
331
  5
371
331
392
  5
2C4
331
292
  5
3BE
331
2A5
  5
3AF
331
372
  5
330
331
2D1
  5
391
331
2B8
  5
39E
331
3C4
  5
23E
331
32A
  5
378
331
398
  5
2BE
331
378
  5
32A
331
3BE
  5
292
331
2BE
  5
398
331
38B
  5
2FC
331
39E
  5
2B8
331
330
  5
372
331
391
  5
2D1
331
2C4
  5
392
331
35E
  5
34E
331
2A4
  5
3B0
331
23E
  5
3C4
331
371
  5
331
331
2B7
  5
39F
331
3C3
  5
24E
331
397
  5
2BF
331
364
  5
332
331
329
  5
379
331
377
  5
32B
331
31C
  5
37A
331
3BD
  5
29F
331
2BD
  5
399
331
38A
  5
300
331
32F
  5
373
331
2FC
  5
38B
331
39D
  5
2B9
331
26A
  5
3C1
331
3B0
  5
2A4
331
30F
  5
37B
331
390
  5
2E0
331
2C3
  5
393
331
35D
  5
35B
331
25D
  5
3C2
331
302
  5
37C
331
2B6
  5
3A0
331
283
  5
3BF
331
3C2
  5
25D
331
396
  5
2C0
331
363
  5
33F
331
376
  5
32C
331
276
  5
3C0
331
2BC
  5
39A
331
389
  5
301
331
32E
  5
374
331
39C
  5
2BA
331
3AF
  5
2A5
331
37C
  5
302
331
2C2
  5
394
331
301
  5
389
331
3C1
  5
26A
331
395
  5
2C1
331
375
  5
32D
331
2BB
  5
39B
  0
SORTENTSTABLE
  5
3C8
102
{ACAD_REACTORS
330
85
102
}
330
85
100
AcDbSortentsTable
330
84
  0
LAYOUT
  5
1C
102
{ACAD_REACTORS
330
18
102
}
330
18
100
AcDbPlotSettings
  1

  2
HP LaserJet 4 Plus
  4

  6

 40
0.0
 41
0.0
 42
0.0
 43
0.0
 44
0.0
 45
0.0
 46
0.0
 47
0.0
 48
0.0
 49
0.0
140
0.0
141
0.0
142
1.0
143
1.0
 70
   688
 72
     0
 73
     0
 74
     5
  7
CNC-Soft.ctb
 75
    16
147
1.0
 76
     0
 77
     2
 78
   300
148
0.0
149
0.0
100
AcDbLayout
  1
Layout1
 70
     0
 71
     1
 10
0.0
 20
0.0
 11
420.0
 21
297.0
 12
0.0
 22
0.0
 32
0.0
 14
1.000000000000000E+20
 24
1.000000000000000E+20
 34
1.000000000000000E+20
 15
-1.000000000000000E+20
 25
-1.000000000000000E+20
 35
-1.000000000000000E+20
146
0.0
 13
0.0
 23
0.0
 33
0.0
 16
1.0
 26
0.0
 36
0.0
 17
0.0
 27
1.0
 37
0.0
 76
     0
330
19
  0
LAYOUT
  5
17
102
{ACAD_REACTORS
330
18
102
}
330
18
100
AcDbPlotSettings
  1

  2
HP LaserJet 4 Plus.pc3
  4
A4
  6

 40
6.805083274841308
 41
5.069413185119628
 42
6.805084228515625
 43
5.027069091796875
 44
209.9733276367187
 45
296.9683227539062
 46
0.0
 47
0.0
 48
0.0
 49
0.0
140
0.0
141
0.0
142
1.0
143
2.494897667132101
 70
 11952
 72
     1
 73
     1
 74
     1
  7
CNC-Soft.ctb
 75
     0
147
0.4008180428295904
 76
     0
 77
     2
 78
   300
148
0.0453158374352825
149
0.032041501216554
100
AcDbLayout
  1
Model
 70
     1
 71
     0
 10
0.0
 20
0.0
 11
12.0
 21
9.0
 12
0.0
 22
0.0
 32
0.0
 14
0.0
 24
0.0
 34
0.0
 15
0.0
 25
0.0
 35
0.0
146
0.0
 13
0.0
 23
0.0
 33
0.0
 16
1.0
 26
0.0
 36
0.0
 17
0.0
 27
1.0
 37
0.0
 76
     0
330
2
331
29
  0
MATERIAL
  5
41
102
{ACAD_XDICTIONARY
360
42
102
}
102
{ACAD_REACTORS
330
D
102
}
330
D
100
AcDbMaterial
  1
ByBlock
 72
     0
 43
0.0208333333333333
 43
0.0
 43
0.0
 43
0.0
 43
0.0
 43
0.0208333333333333
 43
0.0
 43
0.0
 43
0.0
 43
0.0
 43
1.0
 43
0.0
 43
0.0
 43
0.0
 43
0.0
 43
1.0
 77
     0
 47
0.0208333333333333
 47
0.0
 47
0.0
 47
0.0
 47
0.0
 47
0.0208333333333333
 47
0.0
 47
0.0
 47
0.0
 47
0.0
 47
1.0
 47
0.0
 47
0.0
 47
0.0
 47
0.0
 47
1.0
171
     0
 49
0.0208333333333333
 49
0.0
 49
0.0
 49
0.0
 49
0.0
 49
0.0208333333333333
 49
0.0
 49
0.0
 49
0.0
 49
0.0
 49
1.0
 49
0.0
 49
0.0
 49
0.0
 49
0.0
 49
1.0
175
     0
142
0.0208333333333333
142
0.0
142
0.0
142
0.0
142
0.0
142
0.0208333333333333
142
0.0
142
0.0
142
0.0
142
0.0
142
1.0
142
0.0
142
0.0
142
0.0
142
0.0
142
1.0
179
     0
144
0.0208333333333333
144
0.0
144
0.0
144
0.0
144
0.0
144
0.0208333333333333
144
0.0
144
0.0
144
0.0
144
0.0
144
1.0
144
0.0
144
0.0
144
0.0
144
0.0
144
1.0
147
0.0208333333333333
147
0.0
147
0.0
147
0.0
147
0.0
147
0.0208333333333333
147
0.0
147
0.0
147
0.0
147
0.0
147
1.0
147
0.0
147
0.0
147
0.0
147
0.0
147
1.0
  0
MATERIAL
  5
39
102
{ACAD_XDICTIONARY
360
3A
102
}
102
{ACAD_REACTORS
330
D
102
}
330
D
100
AcDbMaterial
  1
ByLayer
 72
     0
 43
0.0208333333333333
 43
0.0
 43
0.0
 43
0.0
 43
0.0
 43
0.0208333333333333
 43
0.0
 43
0.0
 43
0.0
 43
0.0
 43
1.0
 43
0.0
 43
0.0
 43
0.0
 43
0.0
 43
1.0
 77
     0
 47
0.0208333333333333
 47
0.0
 47
0.0
 47
0.0
 47
0.0
 47
0.0208333333333333
 47
0.0
 47
0.0
 47
0.0
 47
0.0
 47
1.0
 47
0.0
 47
0.0
 47
0.0
 47
0.0
 47
1.0
171
     0
 49
0.0208333333333333
 49
0.0
 49
0.0
 49
0.0
 49
0.0
 49
0.0208333333333333
 49
0.0
 49
0.0
 49
0.0
 49
0.0
 49
1.0
 49
0.0
 49
0.0
 49
0.0
 49
0.0
 49
1.0
175
     0
142
0.0208333333333333
142
0.0
142
0.0
142
0.0
142
0.0
142
0.0208333333333333
142
0.0
142
0.0
142
0.0
142
0.0
142
1.0
142
0.0
142
0.0
142
0.0
142
0.0
142
1.0
179
     0
144
0.0208333333333333
144
0.0
144
0.0
144
0.0
144
0.0
144
0.0208333333333333
144
0.0
144
0.0
144
0.0
144
0.0
144
1.0
144
0.0
144
0.0
144
0.0
144
0.0
144
1.0
147
0.0208333333333333
147
0.0
147
0.0
147
0.0
147
0.0
147
0.0208333333333333
147
0.0
147
0.0
147
0.0
147
0.0
147
1.0
147
0.0
147
0.0
147
0.0
147
0.0
147
1.0
  0
MATERIAL
  5
C
102
{ACAD_XDICTIONARY
360
E
102
}
102
{ACAD_REACTORS
330
D
102
}
330
D
100
AcDbMaterial
  1
Global
 72
     0
 43
0.0208333333333333
 43
0.0
 43
0.0
 43
0.0
 43
0.0
 43
0.0208333333333333
 43
0.0
 43
0.0
 43
0.0
 43
0.0
 43
1.0
 43
0.0
 43
0.0
 43
0.0
 43
0.0
 43
1.0
 77
     0
 47
0.0208333333333333
 47
0.0
 47
0.0
 47
0.0
 47
0.0
 47
0.0208333333333333
 47
0.0
 47
0.0
 47
0.0
 47
0.0
 47
1.0
 47
0.0
 47
0.0
 47
0.0
 47
0.0
 47
1.0
171
     0
 49
0.0208333333333333
 49
0.0
 49
0.0
 49
0.0
 49
0.0
 49
0.0208333333333333
 49
0.0
 49
0.0
 49
0.0
 49
0.0
 49
1.0
 49
0.0
 49
0.0
 49
0.0
 49
0.0
 49
1.0
175
     0
142
0.0208333333333333
142
0.0
142
0.0
142
0.0
142
0.0
142
0.0208333333333333
142
0.0
142
0.0
142
0.0
142
0.0
142
1.0
142
0.0
142
0.0
142
0.0
142
0.0
142
1.0
179
     0
144
0.0208333333333333
144
0.0
144
0.0
144
0.0
144
0.0
144
0.0208333333333333
144
0.0
144
0.0
144
0.0
144
0.0
144
1.0
144
0.0
144
0.0
144
0.0
144
0.0
144
1.0
147
0.0208333333333333
147
0.0
147
0.0
147
0.0
147
0.0
147
0.0208333333333333
147
0.0
147
0.0
147
0.0
147
0.0
147
1.0
147
0.0
147
0.0
147
0.0
147
0.0
147
1.0
  0
MLINESTYLE
  5
51
102
{ACAD_REACTORS
330
37
102
}
330
37
100
AcDbMlineStyle
  2
STANDARD
 70
     0
  3

 62
   256
 51
90.0
 52
90.0
 71
     2
 49
0.5
 62
   256
  6
BYLAYER
 49
-0.5
 62
   256
  6
BYLAYER
  0
ACDBPLACEHOLDER
  5
9
102
{ACAD_REACTORS
330
A
102
}
330
A
  0
SCALE
  5
56
102
{ACAD_REACTORS
330
4A
102
}
330
4A
100
AcDbScale
 70
     0
300
1:1
140
1.0
141
1.0
290
     1
  0
SCALE
  5
57
102
{ACAD_REACTORS
330
4A
102
}
330
4A
100
AcDbScale
 70
     0
300
1:2
140
1.0
141
2.0
290
     0
  0
SCALE
  5
58
102
{ACAD_REACTORS
330
4A
102
}
330
4A
100
AcDbScale
 70
     0
300
1:4
140
1.0
141
4.0
290
     0
  0
SCALE
  5
59
102
{ACAD_REACTORS
330
4A
102
}
330
4A
100
AcDbScale
 70
     0
300
1:5
140
1.0
141
5.0
290
     0
  0
SCALE
  5
5A
102
{ACAD_REACTORS
330
4A
102
}
330
4A
100
AcDbScale
 70
     0
300
1:8
140
1.0
141
8.0
290
     0
  0
SCALE
  5
5B
102
{ACAD_REACTORS
330
4A
102
}
330
4A
100
AcDbScale
 70
     0
300
1:10
140
1.0
141
10.0
290
     0
  0
SCALE
  5
5C
102
{ACAD_REACTORS
330
4A
102
}
330
4A
100
AcDbScale
 70
     0
300
1:16
140
1.0
141
16.0
290
     0
  0
SCALE
  5
5D
102
{ACAD_REACTORS
330
4A
102
}
330
4A
100
AcDbScale
 70
     0
300
1:20
140
1.0
141
20.0
290
     0
  0
SCALE
  5
5E
102
{ACAD_REACTORS
330
4A
102
}
330
4A
100
AcDbScale
 70
     0
300
1:30
140
1.0
141
30.0
290
     0
  0
SCALE
  5
5F
102
{ACAD_REACTORS
330
4A
102
}
330
4A
100
AcDbScale
 70
     0
300
1:40
140
1.0
141
40.0
290
     0
  0
SCALE
  5
60
102
{ACAD_REACTORS
330
4A
102
}
330
4A
100
AcDbScale
 70
     0
300
1:50
140
1.0
141
50.0
290
     0
  0
SCALE
  5
61
102
{ACAD_REACTORS
330
4A
102
}
330
4A
100
AcDbScale
 70
     0
300
1:100
140
1.0
141
100.0
290
     0
  0
SCALE
  5
62
102
{ACAD_REACTORS
330
4A
102
}
330
4A
100
AcDbScale
 70
     0
300
2:1
140
2.0
141
1.0
290
     0
  0
SCALE
  5
63
102
{ACAD_REACTORS
330
4A
102
}
330
4A
100
AcDbScale
 70
     0
300
4:1
140
4.0
141
1.0
290
     0
  0
SCALE
  5
64
102
{ACAD_REACTORS
330
4A
102
}
330
4A
100
AcDbScale
 70
     0
300
8:1
140
8.0
141
1.0
290
     0
  0
SCALE
  5
65
102
{ACAD_REACTORS
330
4A
102
}
330
4A
100
AcDbScale
 70
     0
300
10:1
140
10.0
141
1.0
290
     0
  0
SCALE
  5
66
102
{ACAD_REACTORS
330
4A
102
}
330
4A
100
AcDbScale
 70
     0
300
100:1
140
100.0
141
1.0
290
     0
  0
SCALE
  5
67
102
{ACAD_REACTORS
330
4A
102
}
330
4A
100
AcDbScale
 70
     0
300
1/128" = 1'-0"
140
0.0078125
141
12.0
290
     0
  0
SCALE
  5
68
102
{ACAD_REACTORS
330
4A
102
}
330
4A
100
AcDbScale
 70
     0
300
1/64" = 1'-0"
140
0.015625
141
12.0
290
     0
  0
SCALE
  5
69
102
{ACAD_REACTORS
330
4A
102
}
330
4A
100
AcDbScale
 70
     0
300
1/32" = 1'-0"
140
0.03125
141
12.0
290
     0
  0
SCALE
  5
6A
102
{ACAD_REACTORS
330
4A
102
}
330
4A
100
AcDbScale
 70
     0
300
1/16" = 1'-0"
140
0.0625
141
12.0
290
     0
  0
SCALE
  5
6B
102
{ACAD_REACTORS
330
4A
102
}
330
4A
100
AcDbScale
 70
     0
300
3/32" = 1'-0"
140
0.09375
141
12.0
290
     0
  0
SCALE
  5
6C
102
{ACAD_REACTORS
330
4A
102
}
330
4A
100
AcDbScale
 70
     0
300
1/8" = 1'-0"
140
0.125
141
12.0
290
     0
  0
SCALE
  5
6D
102
{ACAD_REACTORS
330
4A
102
}
330
4A
100
AcDbScale
 70
     0
300
3/16" = 1'-0"
140
0.1875
141
12.0
290
     0
  0
SCALE
  5
6E
102
{ACAD_REACTORS
330
4A
102
}
330
4A
100
AcDbScale
 70
     0
300
1/4" = 1'-0"
140
0.25
141
12.0
290
     0
  0
SCALE
  5
6F
102
{ACAD_REACTORS
330
4A
102
}
330
4A
100
AcDbScale
 70
     0
300
3/8" = 1'-0"
140
0.375
141
12.0
290
     0
  0
SCALE
  5
70
102
{ACAD_REACTORS
330
4A
102
}
330
4A
100
AcDbScale
 70
     0
300
1/2" = 1'-0"
140
0.5
141
12.0
290
     0
  0
SCALE
  5
71
102
{ACAD_REACTORS
330
4A
102
}
330
4A
100
AcDbScale
 70
     0
300
3/4" = 1'-0"
140
0.75
141
12.0
290
     0
  0
SCALE
  5
72
102
{ACAD_REACTORS
330
4A
102
}
330
4A
100
AcDbScale
 70
     0
300
1" = 1'-0"
140
1.0
141
12.0
290
     0
  0
SCALE
  5
73
102
{ACAD_REACTORS
330
4A
102
}
330
4A
100
AcDbScale
 70
     0
300
1-1/2" = 1'-0"
140
1.5
141
12.0
290
     0
  0
SCALE
  5
74
102
{ACAD_REACTORS
330
4A
102
}
330
4A
100
AcDbScale
 70
     0
300
3" = 1'-0"
140
3.0
141
12.0
290
     0
  0
SCALE
  5
75
102
{ACAD_REACTORS
330
4A
102
}
330
4A
100
AcDbScale
 70
     0
300
6" = 1'-0"
140
6.0
141
12.0
290
     0
  0
SCALE
  5
76
102
{ACAD_REACTORS
330
4A
102
}
330
4A
100
AcDbScale
 70
     0
300
1'-0" = 1'-0"
140
12.0
141
12.0
290
     0
  0
TABLESTYLE
  5
52
102
{ACAD_XDICTIONARY
360
53
102
}
102
{ACAD_REACTORS
330
4B
102
}
330
4B
100
AcDbTableStyle
280
     0
  3
Standard
 70
     0
 71
     0
 40
1.5
 41
1.5
280
     0
281
     0
  7
STANDARD
140
4.5
170
     2
 62
     0
 63
     7
283
     0
 90
      512
 91
        0
  1

274
    -2
284
     1
 64
     0
275
    -2
285
     1
 65
     0
276
    -2
286
     1
 66
     0
277
    -2
287
     1
 67
     0
278
    -2
288
     1
 68
     0
279
    -2
289
     1
 69
     0
  7
STANDARD
140
6.0
170
     5
 62
     0
 63
     7
283
     0
 90
      512
 91
        0
  1

274
    -2
284
     1
 64
     0
275
    -2
285
     1
 65
     0
276
    -2
286
     1
 66
     0
277
    -2
287
     1
 67
     0
278
    -2
288
     1
 68
     0
279
    -2
289
     1
 69
     0
  7
STANDARD
140
4.5
170
     5
 62
     0
 63
     7
283
     0
 90
      512
 91
        0
  1

274
    -2
284
     1
 64
     0
275
    -2
285
     1
 65
     0
276
    -2
286
     1
 66
     0
277
    -2
287
     1
 67
     0
278
    -2
288
     1
 68
     0
279
    -2
289
     1
 69
     0
  0
VISUALSTYLE
  5
2A
102
{ACAD_REACTORS
330
2B
102
}
330
2B
100
AcDbVisualStyle
  2
2dWireframe
 70
     4
177
     2
291
     0
 71
     0
176
     1
 72
     2
176
     1
 73
     0
176
     1
 90
        0
176
     1
 40
0.6
176
     1
 41
30.0
176
     1
 63
     7
176
     1
 74
     1
176
     1
 91
        4
176
     1
 64
     7
176
     1
 65
   257
176
     1
 75
     1
176
     1
175
     1
176
     1
 42
1.0
176
     1
 92
        0
176
     1
 66
   257
176
     1
 43
1.0
176
     1
 76
     1
176
     1
 77
     6
176
     1
 78
     2
176
     1
 67
     7
176
     1
 79
     5
176
     1
170
     0
176
     1
171
     0
176
     1
290
     0
176
     1
 93
        1
176
     1
 44
0.0
176
     1
173
     0
176
     1
  0
VISUALSTYLE
  5
55
102
{ACAD_REACTORS
330
2B
102
}
330
2B
100
AcDbVisualStyle
  2
3dWireframe
 70
     5
177
     2
291
     0
 71
     0
176
     1
 72
     2
176
     1
 73
     0
176
     1
 90
        0
176
     1
 40
0.6
176
     1
 41
30.0
176
     1
 63
     7
176
     1
 74
     1
176
     1
 91
        4
176
     1
 64
     7
176
     1
 65
   257
176
     1
 75
     1
176
     1
175
     1
176
     1
 42
1.0
176
     1
 92
        0
176
     1
 66
   257
176
     1
 43
1.0
176
     1
 76
     1
176
     1
 77
     6
176
     1
 78
     2
176
     1
 67
     7
176
     1
 79
     5
176
     1
170
     0
176
     1
171
     0
176
     1
290
     0
176
     1
 93
        1
176
     1
 44
0.0
176
     1
173
     0
176
     1
  0
VISUALSTYLE
  5
54
102
{ACAD_REACTORS
330
2B
102
}
330
2B
100
AcDbVisualStyle
  2
Realistic
 70
     8
177
     2
291
     0
 71
     2
176
     1
 72
     2
176
     1
 73
     0
176
     1
 90
        0
176
     1
 40
0.6
176
     1
 41
30.0
176
     1
 63
     7
176
     1
 74
     1
176
     1
 91
        0
176
     1
 64
     7
176
     1
 65
   257
176
     1
 75
     1
176
     1
175
     1
176
     1
 42
1.0
176
     1
 92
        8
176
     1
 66
     8
176
     1
 43
1.0
176
     1
 76
     1
176
     1
 77
     6
176
     1
 78
     2
176
     1
 67
     7
176
     1
 79
     5
176
     1
170
     0
176
     1
171
     0
176
     1
290
     0
176
     1
 93
       13
176
     1
 44
0.0
176
     1
173
     0
176
     1
  0
DICTIONARYVAR
  5
3CD
102
{ACAD_REACTORS
330
3CA
102
}
330
3CA
100
DictionaryVariables
280
     0
  1
1:1
  0
DICTIONARYVAR
  5
3CC
102
{ACAD_REACTORS
330
3CA
102
}
330
3CA
100
DictionaryVariables
280
     0
  1
STANDARD
  0
DICTIONARYVAR
  5
3CB
102
{ACAD_REACTORS
330
3CA
102
}
330
3CA
100
DictionaryVariables
280
     0
  1
STANDARD
  0
DICTIONARYVAR
  5
3CF
102
{ACAD_REACTORS
330
3CA
102
}
330
3CA
100
DictionaryVariables
280
     0
  1
1
  0
DICTIONARYVAR
  5
3D0
102
{ACAD_REACTORS
330
3CA
102
}
330
3CA
100
DictionaryVariables
280
     0
  1
15
  0
DICTIONARYVAR
  5
3CE
102
{ACAD_REACTORS
330
3CA
102
}
330
3CA
100
DictionaryVariables
280
     0
  1
0
  0
DICTIONARY
  5
42
330
41
100
AcDbDictionary
280
     1
281
     1
  3
BUMPTILE
360
43
  3
DIFFUSETILE
360
44
  3
OPACITYTILE
360
45
  3
REFLECTIONTILE
360
46
  3
REFRACTIONTILE
360
47
  3
SPECULARTILE
360
48
  0
DICTIONARY
  5
3A
330
39
100
AcDbDictionary
280
     1
281
     1
  3
BUMPTILE
360
3B
  3
DIFFUSETILE
360
3C
  3
OPACITYTILE
360
3D
  3
REFLECTIONTILE
360
3E
  3
REFRACTIONTILE
360
3F
  3
SPECULARTILE
360
40
  0
DICTIONARY
  5
E
330
C
100
AcDbDictionary
280
     1
281
     1
  3
BUMPTILE
360
F
  3
DIFFUSETILE
360
10
  3
OPACITYTILE
360
11
  3
REFLECTIONTILE
360
12
  3
REFRACTIONTILE
360
13
  3
SPECULARTILE
360
14
  0
DICTIONARY
  5
53
330
52
100
AcDbDictionary
280
     1
281
     1
  3
ACAD_ROUNDTRIP_2008_TABLESTYLE_CELLSTYLEMAP
360
3D1
  0
XRECORD
  5
43
102
{ACAD_REACTORS
330
42
102
}
330
42
100
AcDbXrecord
280
     1
270
     1
271
     1
  0
XRECORD
  5
44
102
{ACAD_REACTORS
330
42
102
}
330
42
100
AcDbXrecord
280
     1
270
     1
271
     1
  0
XRECORD
  5
45
102
{ACAD_REACTORS
330
42
102
}
330
42
100
AcDbXrecord
280
     1
270
     1
271
     1
  0
XRECORD
  5
46
102
{ACAD_REACTORS
330
42
102
}
330
42
100
AcDbXrecord
280
     1
270
     1
271
     1
  0
XRECORD
  5
47
102
{ACAD_REACTORS
330
42
102
}
330
42
100
AcDbXrecord
280
     1
270
     1
271
     1
  0
XRECORD
  5
48
102
{ACAD_REACTORS
330
42
102
}
330
42
100
AcDbXrecord
280
     1
270
     1
271
     1
  0
XRECORD
  5
3B
102
{ACAD_REACTORS
330
3A
102
}
330
3A
100
AcDbXrecord
280
     1
270
     1
271
     1
  0
XRECORD
  5
3C
102
{ACAD_REACTORS
330
3A
102
}
330
3A
100
AcDbXrecord
280
     1
270
     1
271
     1
  0
XRECORD
  5
3D
102
{ACAD_REACTORS
330
3A
102
}
330
3A
100
AcDbXrecord
280
     1
270
     1
271
     1
  0
XRECORD
  5
3E
102
{ACAD_REACTORS
330
3A
102
}
330
3A
100
AcDbXrecord
280
     1
270
     1
271
     1
  0
XRECORD
  5
3F
102
{ACAD_REACTORS
330
3A
102
}
330
3A
100
AcDbXrecord
280
     1
270
     1
271
     1
  0
XRECORD
  5
40
102
{ACAD_REACTORS
330
3A
102
}
330
3A
100
AcDbXrecord
280
     1
270
     1
271
     1
  0
XRECORD
  5
F
102
{ACAD_REACTORS
330
E
102
}
330
E
100
AcDbXrecord
280
     1
270
     1
271
     1
  0
XRECORD
  5
10
102
{ACAD_REACTORS
330
E
102
}
330
E
100
AcDbXrecord
280
     1
270
     1
271
     1
  0
XRECORD
  5
11
102
{ACAD_REACTORS
330
E
102
}
330
E
100
AcDbXrecord
280
     1
270
     1
271
     1
  0
XRECORD
  5
12
102
{ACAD_REACTORS
330
E
102
}
330
E
100
AcDbXrecord
280
     1
270
     1
271
     1
  0
XRECORD
  5
13
102
{ACAD_REACTORS
330
E
102
}
330
E
100
AcDbXrecord
280
     1
270
     1
271
     1
  0
XRECORD
  5
14
102
{ACAD_REACTORS
330
E
102
}
330
E
100
AcDbXrecord
280
     1
270
     1
271
     1
  0
CELLSTYLEMAP
  5
3D1
102
{ACAD_REACTORS
330
53
102
}
330
53
100
AcDbCellStyleMap
 90
        3
300
CELLSTYLE
  1
TABLEFORMAT_BEGIN
 90
        5
170
     1
 91
        0
 92
    32768
 62
   257
 93
        1
300
CONTENTFORMAT
  1
CONTENTFORMAT_BEGIN
 90
        0
 91
        0
 92
      512
 93
        0
300

 40
0.0
140
1.0
 94
        5
 62
     0
340
21
144
6.0
309
CONTENTFORMAT_END
171
     1
301
MARGIN
  1
CELLMARGIN_BEGIN
 40
1.5
 40
1.5
 40
1.5
 40
1.5
 40
4.5
 40
4.5
309
CELLMARGIN_END
 94
        6
 95
        1
302
GRIDFORMAT
  1
GRIDFORMAT_BEGIN
 90
        0
 91
        1
 62
     0
 92
       -2
340
0
 93
        0
 40
1.125
309
GRIDFORMAT_END
 95
        2
302
GRIDFORMAT
  1
GRIDFORMAT_BEGIN
 90
        0
 91
        1
 62
     0
 92
       -2
340
0
 93
        0
 40
1.125
309
GRIDFORMAT_END
 95
        4
302
GRIDFORMAT
  1
GRIDFORMAT_BEGIN
 90
        0
 91
        1
 62
     0
 92
       -2
340
0
 93
        0
 40
1.125
309
GRIDFORMAT_END
 95
        8
302
GRIDFORMAT
  1
GRIDFORMAT_BEGIN
 90
        0
 91
        1
 62
     0
 92
       -2
340
0
 93
        0
 40
1.125
309
GRIDFORMAT_END
 95
       16
302
GRIDFORMAT
  1
GRIDFORMAT_BEGIN
 90
        0
 91
        1
 62
     0
 92
       -2
340
0
 93
        0
 40
1.125
309
GRIDFORMAT_END
 95
       32
302
GRIDFORMAT
  1
GRIDFORMAT_BEGIN
 90
        0
 91
        1
 62
     0
 92
       -2
340
0
 93
        0
 40
1.125
309
GRIDFORMAT_END
309
TABLEFORMAT_END
  1
CELLSTYLE_BEGIN
 90
        1
 91
        1
300
_TITLE
309
CELLSTYLE_END
300
CELLSTYLE
  1
TABLEFORMAT_BEGIN
 90
        5
170
     1
 91
        0
 92
        0
 62
   257
 93
        1
300
CONTENTFORMAT
  1
CONTENTFORMAT_BEGIN
 90
        0
 91
        0
 92
      512
 93
        0
300

 40
0.0
140
1.0
 94
        5
 62
     0
340
21
144
4.5
309
CONTENTFORMAT_END
171
     1
301
MARGIN
  1
CELLMARGIN_BEGIN
 40
1.5
 40
1.5
 40
1.5
 40
1.5
 40
4.5
 40
4.5
309
CELLMARGIN_END
 94
        6
 95
        1
302
GRIDFORMAT
  1
GRIDFORMAT_BEGIN
 90
        0
 91
        1
 62
     0
 92
       -2
340
0
 93
        0
 40
1.125
309
GRIDFORMAT_END
 95
        2
302
GRIDFORMAT
  1
GRIDFORMAT_BEGIN
 90
        0
 91
        1
 62
     0
 92
       -2
340
0
 93
        0
 40
1.125
309
GRIDFORMAT_END
 95
        4
302
GRIDFORMAT
  1
GRIDFORMAT_BEGIN
 90
        0
 91
        1
 62
     0
 92
       -2
340
0
 93
        0
 40
1.125
309
GRIDFORMAT_END
 95
        8
302
GRIDFORMAT
  1
GRIDFORMAT_BEGIN
 90
        0
 91
        1
 62
     0
 92
       -2
340
0
 93
        0
 40
1.125
309
GRIDFORMAT_END
 95
       16
302
GRIDFORMAT
  1
GRIDFORMAT_BEGIN
 90
        0
 91
        1
 62
     0
 92
       -2
340
0
 93
        0
 40
1.125
309
GRIDFORMAT_END
 95
       32
302
GRIDFORMAT
  1
GRIDFORMAT_BEGIN
 90
        0
 91
        1
 62
     0
 92
       -2
340
0
 93
        0
 40
1.125
309
GRIDFORMAT_END
309
TABLEFORMAT_END
  1
CELLSTYLE_BEGIN
 90
        2
 91
        1
300
_HEADER
309
CELLSTYLE_END
300
CELLSTYLE
  1
TABLEFORMAT_BEGIN
 90
        5
170
     1
 91
        0
 92
        0
 62
   257
 93
        1
300
CONTENTFORMAT
  1
CONTENTFORMAT_BEGIN
 90
        0
 91
        0
 92
      512
 93
        0
300

 40
0.0
140
1.0
 94
        2
 62
     0
340
21
144
4.5
309
CONTENTFORMAT_END
171
     1
301
MARGIN
  1
CELLMARGIN_BEGIN
 40
1.5
 40
1.5
 40
1.5
 40
1.5
 40
4.5
 40
4.5
309
CELLMARGIN_END
 94
        6
 95
        1
302
GRIDFORMAT
  1
GRIDFORMAT_BEGIN
 90
        0
 91
        1
 62
     0
 92
       -2
340
0
 93
        0
 40
1.125
309
GRIDFORMAT_END
 95
        2
302
GRIDFORMAT
  1
GRIDFORMAT_BEGIN
 90
        0
 91
        1
 62
     0
 92
       -2
340
0
 93
        0
 40
1.125
309
GRIDFORMAT_END
 95
        4
302
GRIDFORMAT
  1
GRIDFORMAT_BEGIN
 90
        0
 91
        1
 62
     0
 92
       -2
340
0
 93
        0
 40
1.125
309
GRIDFORMAT_END
 95
        8
302
GRIDFORMAT
  1
GRIDFORMAT_BEGIN
 90
        0
 91
        1
 62
     0
 92
       -2
340
0
 93
        0
 40
1.125
309
GRIDFORMAT_END
 95
       16
302
GRIDFORMAT
  1
GRIDFORMAT_BEGIN
 90
        0
 91
        1
 62
     0
 92
       -2
340
0
 93
        0
 40
1.125
309
GRIDFORMAT_END
 95
       32
302
GRIDFORMAT
  1
GRIDFORMAT_BEGIN
 90
        0
 91
        1
 62
     0
 92
       -2
340
0
 93
        0
 40
1.125
309
GRIDFORMAT_END
309
TABLEFORMAT_END
  1
CELLSTYLE_BEGIN
 90
        3
 91
        2
300
_DATA
309
CELLSTYLE_END
  0
ENDSEC
  0
EOF
