  0
SECTION
  2
HEADER
  9
$ACADVER
  1
AC1024
  9
$ACADMAINTVER
 70
     6
  9
$DWGCODEPAGE
  3
ANSI_1252
  9
$INSBASE
 10
0.0
 20
0.0
 30
0.0
  9
$EXTMIN
 10
-0.0000004604480637
 20
0.0000015227592485
 30
0.0
  9
$EXTMAX
 10
839.9999995394683
 20
594.0000015227001
 30
12.65320325994776
  9
$LIMMIN
 10
0.0
 20
0.0
  9
$LIMMAX
 10
839.9999999999163
 20
593.9999999999408
  9
$ORTHOMODE
 70
     1
  9
$REGENMODE
 70
     1
  9
$FILLMODE
 70
     1
  9
$QTEXTMODE
 70
     0
  9
$MIRRTEXT
 70
     0
  9
$LTSCALE
 40
15.0
  9
$ATTMODE
 70
     1
  9
$TEXTSIZE
 40
30.0
  9
$TRACEWID
 40
1.0
  9
$TEXTSTYLE
  7
STANDARD
  9
$CLAYER
  8
09-01
  9
$CELTYPE
  6
BYLAYER
  9
$CECOLOR
 62
   256
  9
$CELTSCALE
 40
1.0
  9
$DISPSILH
 70
     0
  9
$DIMSCALE
 40
2.0
  9
$DIMASZ
 40
2.5
  9
$DIMEXO
 40
1.0
  9
$DIMDLI
 40
10.0
  9
$DIMRND
 40
0.0
  9
$DIMDLE
 40
0.0
  9
$DIMEXE
 40
1.0
  9
$DIMTP
 40
0.0
  9
$DIMTM
 40
0.0
  9
$DIMTXT
 40
2.5
  9
$DIMCEN
 40
0.0
  9
$DIMTSZ
 40
0.0
  9
$DIMTOL
 70
     0
  9
$DIMLIM
 70
     0
  9
$DIMTIH
 70
     0
  9
$DIMTOH
 70
     0
  9
$DIMSE1
 70
     0
  9
$DIMSE2
 70
     0
  9
$DIMTAD
 70
     1
  9
$DIMZIN
 70
     8
  9
$DIMBLK
  1

  9
$DIMASO
 70
     1
  9
$DIMSHO
 70
     0
  9
$DIMPOST
  1

  9
$DIMAPOST
  1

  9
$DIMALT
 70
     0
  9
$DIMALTD
 70
     3
  9
$DIMALTF
 40
0.03937007874016
  9
$DIMLFAC
 40
1.0
  9
$DIMTOFL
 70
     1
  9
$DIMTVP
 40
0.0
  9
$DIMTIX
 70
     0
  9
$DIMSOXD
 70
     0
  9
$DIMSAH
 70
     0
  9
$DIMBLK1
  1

  9
$DIMBLK2
  1

  9
$DIMSTYLE
  2
Wagner
  9
$DIMCLRD
 70
     4
  9
$DIMCLRE
 70
     4
  9
$DIMCLRT
 70
     1
  9
$DIMTFAC
 40
1.0
  9
$DIMGAP
 40
1.0
  9
$DIMJUST
 70
     0
  9
$DIMSD1
 70
     0
  9
$DIMSD2
 70
     0
  9
$DIMTOLJ
 70
     0
  9
$DIMTZIN
 70
     8
  9
$DIMALTZ
 70
     0
  9
$DIMALTTZ
 70
     0
  9
$DIMUPT
 70
     0
  9
$DIMDEC
 70
     2
  9
$DIMTDEC
 70
     2
  9
$DIMALTU
 70
     2
  9
$DIMALTTD
 70
     3
  9
$DIMTXSTY
  7
STANDARD
  9
$DIMAUNIT
 70
     0
  9
$DIMADEC
 70
     2
  9
$DIMALTRND
 40
0.0
  9
$DIMAZIN
 70
     2
  9
$DIMDSEP
 70
    46
  9
$DIMATFIT
 70
     3
  9
$DIMFRAC
 70
     0
  9
$DIMLDRBLK
  1

  9
$DIMLUNIT
 70
     2
  9
$DIMLWD
 70
    -2
  9
$DIMLWE
 70
    -2
  9
$DIMTMOVE
 70
     0
  9
$DIMFXL
 40
1.0
  9
$DIMFXLON
 70
     0
  9
$DIMJOGANG
 40
0.7853981633974483
  9
$DIMTFILL
 70
     0
  9
$DIMTFILLCLR
 70
     0
  9
$DIMARCSYM
 70
     0
  9
$DIMLTYPE
  6

  9
$DIMLTEX1
  6

  9
$DIMLTEX2
  6

  9
$DIMTXTDIRECTION
 70
     0
  9
$LUNITS
 70
     2
  9
$LUPREC
 70
     1
  9
$SKETCHINC
 40
1.0
  9
$FILLETRAD
 40
0.0
  9
$AUNITS
 70
     0
  9
$AUPREC
 70
     2
  9
$MENU
  1
.
  9
$ELEVATION
 40
0.0
  9
$PELEVATION
 40
0.0
  9
$THICKNESS
 40
0.0
  9
$LIMCHECK
 70
     1
  9
$CHAMFERA
 40
0.0
  9
$CHAMFERB
 40
0.0
  9
$CHAMFERC
 40
20.0
  9
$CHAMFERD
 40
0.0
  9
$SKPOLY
 70
     0
  9
$TDCREATE
 40
2451814.317239803
  9
$TDUCREATE
 40
2451814.233906470
  9
$TDUPDATE
 40
2456092.392149792
  9
$TDUUPDATE
 40
2456092.308816459
  9
$TDINDWG
 40
0.5009407176
  9
$TDUSRTIMER
 40
0.5009370023
  9
$USRTIMER
 70
     1
  9
$ANGBASE
 50
0.0
  9
$ANGDIR
 70
     0
  9
$PDMODE
 70
     0
  9
$PDSIZE
 40
0.0
  9
$PLINEWID
 40
0.0
  9
$SPLFRAME
 70
     0
  9
$SPLINETYPE
 70
     6
  9
$SPLINESEGS
 70
     8
  9
$HANDSEED
  5
399
  9
$SURFTAB1
 70
    24
  9
$SURFTAB2
 70
    24
  9
$SURFTYPE
 70
     6
  9
$SURFU
 70
     6
  9
$SURFV
 70
     6
  9
$UCSBASE
  2

  9
$UCSNAME
  2

  9
$UCSORG
 10
0.0
 20
0.0
 30
0.0
  9
$UCSXDIR
 10
1.0
 20
0.0
 30
0.0
  9
$UCSYDIR
 10
0.0
 20
1.0
 30
0.0
  9
$UCSORTHOREF
  2

  9
$UCSORTHOVIEW
 70
     0
  9
$UCSORGTOP
 10
0.0
 20
0.0
 30
0.0
  9
$UCSORGBOTTOM
 10
0.0
 20
0.0
 30
0.0
  9
$UCSORGLEFT
 10
0.0
 20
0.0
 30
0.0
  9
$UCSORGRIGHT
 10
0.0
 20
0.0
 30
0.0
  9
$UCSORGFRONT
 10
0.0
 20
0.0
 30
0.0
  9
$UCSORGBACK
 10
0.0
 20
0.0
 30
0.0
  9
$PUCSBASE
  2

  9
$PUCSNAME
  2

  9
$PUCSORG
 10
0.0
 20
0.0
 30
0.0
  9
$PUCSXDIR
 10
1.0
 20
0.0
 30
0.0
  9
$PUCSYDIR
 10
0.0
 20
1.0
 30
0.0
  9
$PUCSORTHOREF
  2

  9
$PUCSORTHOVIEW
 70
     0
  9
$PUCSORGTOP
 10
0.0
 20
0.0
 30
0.0
  9
$PUCSORGBOTTOM
 10
0.0
 20
0.0
 30
0.0
  9
$PUCSORGLEFT
 10
0.0
 20
0.0
 30
0.0
  9
$PUCSORGRIGHT
 10
0.0
 20
0.0
 30
0.0
  9
$PUCSORGFRONT
 10
0.0
 20
0.0
 30
0.0
  9
$PUCSORGBACK
 10
0.0
 20
0.0
 30
0.0
  9
$USERI1
 70
     0
  9
$USERI2
 70
     0
  9
$USERI3
 70
     0
  9
$USERI4
 70
     0
  9
$USERI5
 70
     0
  9
$USERR1
 40
0.0
  9
$USERR2
 40
0.0
  9
$USERR3
 40
0.0
  9
$USERR4
 40
0.0
  9
$USERR5
 40
0.0
  9
$WORLDVIEW
 70
     1
  9
$SHADEDGE
 70
     3
  9
$SHADEDIF
 70
    70
  9
$TILEMODE
 70
     1
  9
$MAXACTVP
 70
    48
  9
$PINSBASE
 10
0.0
 20
0.0
 30
0.0
  9
$PLIMCHECK
 70
     0
  9
$PEXTMIN
 10
1.000000000000000E+20
 20
1.000000000000000E+20
 30
1.000000000000000E+20
  9
$PEXTMAX
 10
-1.000000000000000E+20
 20
-1.000000000000000E+20
 30
-1.000000000000000E+20
  9
$PLIMMIN
 10
0.0
 20
0.0
  9
$PLIMMAX
 10
420.0
 20
297.0
  9
$UNITMODE
 70
     0
  9
$VISRETAIN
 70
     0
  9
$PLINEGEN
 70
     0
  9
$PSLTSCALE
 70
     0
  9
$TREEDEPTH
 70
  3020
  9
$CMLSTYLE
  2
STANDARD
  9
$CMLJUST
 70
     0
  9
$CMLSCALE
 40
20.0
  9
$PROXYGRAPHICS
 70
     1
  9
$MEASUREMENT
 70
     1
  9
$CELWEIGHT
370
    -1
  9
$ENDCAPS
280
     0
  9
$JOINSTYLE
280
     0
  9
$LWDISPLAY
290
     0
  9
$INSUNITS
 70
     0
  9
$HYPERLINKBASE
  1

  9
$STYLESHEET
  1

  9
$XEDIT
290
     1
  9
$CEPSNTYPE
380
     0
  9
$PSTYLEMODE
290
     1
  9
$FINGERPRINTGUID
  2
{590A813D-A367-40E3-A9D3-E5D1A751AA88}
  9
$VERSIONGUID
  2
{9A062DE1-23BA-4D6C-A328-C0A41BCA62A8}
  9
$EXTNAMES
290
     1
  9
$PSVPSCALE
 40
0.0
  9
$OLESTARTUP
290
     0
  9
$SORTENTS
280
   127
  9
$INDEXCTL
280
     0
  9
$HIDETEXT
280
     1
  9
$XCLIPFRAME
280
     0
  9
$HALOGAP
280
     0
  9
$OBSCOLOR
 70
   257
  9
$OBSLTYPE
280
     0
  9
$INTERSECTIONDISPLAY
280
     0
  9
$INTERSECTIONCOLOR
 70
   257
  9
$DIMASSOC
280
     1
  9
$PROJECTNAME
  1

  9
$CAMERADISPLAY
290
     0
  9
$LENSLENGTH
 40
50.0
  9
$CAMERAHEIGHT
 40
0.0
  9
$STEPSPERSEC
 40
2.0
  9
$STEPSIZE
 40
6.0
  9
$3DDWFPREC
 40
2.0
  9
$PSOLWIDTH
 40
0.25
  9
$PSOLHEIGHT
 40
4.0
  9
$LOFTANG1
 40
1.570796326794896
  9
$LOFTANG2
 40
1.570796326794896
  9
$LOFTMAG1
 40
0.0
  9
$LOFTMAG2
 40
0.0
  9
$LOFTPARAM
 70
     7
  9
$LOFTNORMALS
280
     1
  9
$LATITUDE
 40
37.795
  9
$LONGITUDE
 40
-122.394
  9
$NORTHDIRECTION
 40
0.0
  9
$TIMEZONE
 70
 -8000
  9
$LIGHTGLYPHDISPLAY
280
     1
  9
$TILEMODELIGHTSYNCH
280
     1
  9
$CMATERIAL
347
3E
  9
$SOLIDHIST
280
     1
  9
$SHOWHIST
280
     1
  9
$DWFFRAME
280
     2
  9
$DGNFRAME
280
     0
  9
$REALWORLDSCALE
290
     1
  9
$INTERFERECOLOR
 62
     1
  9
$INTERFEREOBJVS
345
58
  9
$INTERFEREVPVS
346
59
  9
$CSHADOW
280
     0
  9
$SHADOWPLANELOCATION
 40
0.0
  0
ENDSEC
  0
SECTION
  2
CLASSES
  0
CLASS
  1
ACDBDICTIONARYWDFLT
  2
AcDbDictionaryWithDefault
  3
ObjectDBX Classes
 90
        0
 91
        1
280
     0
281
     0
  0
CLASS
  1
DICTIONARYVAR
  2
AcDbDictionaryVar
  3
ObjectDBX Classes
 90
        0
 91
        7
280
     0
281
     0
  0
CLASS
  1
MATERIAL
  2
AcDbMaterial
  3
ObjectDBX Classes
 90
     1153
 91
        3
280
     0
281
     0
  0
CLASS
  1
VISUALSTYLE
  2
AcDbVisualStyle
  3
ObjectDBX Classes
 90
     4095
 91
        3
280
     0
281
     0
  0
CLASS
  1
TABLESTYLE
  2
AcDbTableStyle
  3
ObjectDBX Classes
 90
     4095
 91
        1
280
     0
281
     0
  0
CLASS
  1
SCALE
  2
AcDbScale
  3
ObjectDBX Classes
 90
     1153
 91
       33
280
     0
281
     0
  0
CLASS
  1
MLEADERSTYLE
  2
AcDbMLeaderStyle
  3
ACDB_MLEADERSTYLE_CLASS
 90
     4095
 91
        0
280
     0
281
     0
  0
CLASS
  1
SORTENTSTABLE
  2
AcDbSortentsTable
  3
ObjectDBX Classes
 90
        0
 91
        4
280
     0
281
     0
  0
CLASS
  1
CELLSTYLEMAP
  2
AcDbCellStyleMap
  3
ObjectDBX Classes
 90
     1152
 91
        1
280
     0
281
     0
  0
CLASS
  1
SOLID_BACKGROUND
  2
AcDbSolidBackground
  3
SCENEOE
 90
     4095
 91
        0
280
     0
281
     0
  0
CLASS
  1
NPOCOLLECTION
  2
AcDbImpNonPersistentObjectsCollection
  3
ObjectDBX Classes
 90
     1153
 91
        0
280
     0
281
     0
  0
ENDSEC
  0
SECTION
  2
TABLES
  0
TABLE
  2
VPORT
  5
2E
102
{ACAD_XDICTIONARY
360
32
102
}
330
0
100
AcDbSymbolTable
 70
     1
  0
VPORT
  5
2F
330
2E
100
AcDbSymbolTableRecord
100
AcDbViewportTableRecord
  2
*Active
 70
     0
 10
0.0
 20
0.0
 11
1.0
 21
1.0
 12
238.0289507744779
 22
253.7163191032549
 13
0.0
 23
0.0
 14
1.0
 24
1.0
 15
100.0
 25
100.0
 16
0.0
 26
0.0
 36
1.0
 17
0.0
 27
0.0
 37
0.0
 40
1015.751502280961
 41
1.937738246505718
 42
50.0
 43
0.0
 44
0.0
 50
0.0
 51
0.0
 71
     0
 72
  1000
 73
     1
 74
     0
 75
     0
 76
     0
 77
     0
 78
     0
281
     0
 65
     1
110
0.0
120
0.0
130
0.0
111
1.0
121
0.0
131
0.0
112
0.0
122
1.0
132
0.0
 79
     0
146
0.0
348
30
 60
     3
 61
     5
292
     1
282
     1
141
0.0
142
0.0
 63
   250
421
  3355443
  0
ENDTAB
  0
TABLE
  2
LTYPE
  5
29
330
0
100
AcDbSymbolTable
 70
     4
  0
LTYPE
  5
2A
330
29
100
AcDbSymbolTableRecord
100
AcDbLinetypeTableRecord
  2
BYBLOCK
 70
     0
  3

 72
    65
 73
     0
 40
0.0
  0
LTYPE
  5
2B
330
29
100
AcDbSymbolTableRecord
100
AcDbLinetypeTableRecord
  2
BYLAYER
 70
     0
  3

 72
    65
 73
     0
 40
0.0
  0
LTYPE
  5
15
330
29
100
AcDbSymbolTableRecord
100
AcDbLinetypeTableRecord
  2
CONTINUOUS
 70
     0
  3
Solid line
 72
    65
 73
     0
 40
0.0
  0
LTYPE
  5
25D
330
29
100
AcDbSymbolTableRecord
100
AcDbLinetypeTableRecord
  2
STRICHPUNKT
 70
     0
  3
Strichpunkt __ . __ . __ . __ . __ . __ . __ . 
 72
    65
 73
     4
 40
1.0
 49
0.5
 74
     0
 49
-0.25
 74
     0
 49
0.0
 74
     0
 49
-0.25
 74
     0
  0
LTYPE
  5
258
330
29
100
AcDbSymbolTableRecord
100
AcDbLinetypeTableRecord
  2
VERDECKT
 70
     0
  3
Verdeckt __ __ __ __ __ __ __ __ __ __ __ __ __
 72
    65
 73
     2
 40
0.375
 49
0.25
 74
     0
 49
-0.125
 74
     0
  0
LTYPE
  5
C4
330
29
100
AcDbSymbolTableRecord
100
AcDbLinetypeTableRecord
  2
AUSGEZOGEN
 70
     0
  3
Ausgezogene Linie
 72
    65
 73
     0
 40
0.0
  0
ENDTAB
  0
TABLE
  2
LAYER
  5
20
102
{ACAD_XDICTIONARY
360
21
102
}
330
0
100
AcDbSymbolTable
 70
    11
  0
LAYER
  5
6
102
{ACAD_XDICTIONARY
360
7
102
}
330
20
100
AcDbSymbolTableRecord
100
AcDbLayerTableRecord
  2
0
 70
     0
 62
     7
  6
CONTINUOUS
370
    -3
390
9
347
C
  0
LAYER
  5
25A
102
{ACAD_XDICTIONARY
360
25B
102
}
330
20
100
AcDbSymbolTableRecord
100
AcDbLayerTableRecord
  2
05-01
 70
     0
 62
     1
  6
STRICHPUNKT
370
    -3
390
9
347
C
  0
LAYER
  5
336
102
{ACAD_XDICTIONARY
360
337
102
}
330
20
100
AcDbSymbolTableRecord
100
AcDbLayerTableRecord
  2
01-01
 70
     0
 62
     2
  6
CONTINUOUS
370
    -3
390
9
347
C
  0
LAYER
  5
86
102
{ACAD_XDICTIONARY
360
87
102
}
330
20
100
AcDbSymbolTableRecord
100
AcDbLayerTableRecord
  2
02-01
 70
     0
 62
     1
  6
CONTINUOUS
370
    -3
390
9
347
C
  0
LAYER
  5
255
102
{ACAD_XDICTIONARY
360
256
102
}
330
20
100
AcDbSymbolTableRecord
100
AcDbLayerTableRecord
  2
03-01
 70
     0
 62
     3
  6
VERDECKT
370
    -3
390
9
347
C
  0
LAYER
  5
52
102
{ACAD_XDICTIONARY
360
53
102
}
330
20
100
AcDbSymbolTableRecord
100
AcDbLayerTableRecord
  2
09-01
 70
     0
 62
     7
  6
CONTINUOUS
370
    -3
390
9
347
C
  0
LAYER
  5
81
102
{ACAD_XDICTIONARY
360
82
102
}
330
20
100
AcDbSymbolTableRecord
100
AcDbLayerTableRecord
  2
01-99
 70
     0
 62
     2
  6
CONTINUOUS
370
    -3
390
9
347
C
  0
LAYER
  5
C1
102
{ACAD_XDICTIONARY
360
C2
102
}
330
20
100
AcDbSymbolTableRecord
100
AcDbLayerTableRecord
  2
06-99
 70
     0
 62
     1
  6
AUSGEZOGEN
370
    -3
390
9
347
C
  0
LAYER
  5
AB
102
{ACAD_XDICTIONARY
360
AC
102
}
330
20
100
AcDbSymbolTableRecord
100
AcDbLayerTableRecord
  2
08-99
 70
     0
 62
     7
  6
CONTINUOUS
370
    -3
390
9
347
C
  0
LAYER
  5
34E
102
{ACAD_XDICTIONARY
360
34F
102
}
330
20
100
AcDbSymbolTableRecord
100
AcDbLayerTableRecord
  2
EBENE_1
 70
     0
 62
     7
  6
CONTINUOUS
370
    -3
390
9
347
C
  0
LAYER
  5
242
330
20
100
AcDbSymbolTableRecord
100
AcDbLayerTableRecord
  2
DEFPOINTS
 70
     0
 62
     7
  6
CONTINUOUS
290
     0
370
    -3
390
9
347
C
  0
ENDTAB
  0
TABLE
  2
STYLE
  5
26
330
0
100
AcDbSymbolTable
 70
     3
  0
STYLE
  5
27
330
26
100
AcDbSymbolTableRecord
100
AcDbTextStyleTableRecord
  2
STANDARD
 70
     0
 40
0.0
 41
1.0
 50
0.0
 71
     0
 42
30.0
  3
arial.ttf
  4

1001
ACAD
1000
Arial
1071
       34
  0
STYLE
  5
AE
330
26
100
AcDbSymbolTableRecord
100
AcDbTextStyleTableRecord
  2
ROMANS8
 70
     0
 40
0.0
 41
1.0
 50
0.0
 71
     0
 42
2.5
  3
ROMANS8
  4

  0
STYLE
  5
206
330
26
100
AcDbSymbolTableRecord
100
AcDbTextStyleTableRecord
  2
ROMAND8
 70
     0
 40
0.0
 41
1.0
 50
0.0
 71
     0
 42
3.5
  3
ROMAND8
  4

  0
ENDTAB
  0
TABLE
  2
VIEW
  5
2C
330
0
100
AcDbSymbolTable
 70
     0
  0
ENDTAB
  0
TABLE
  2
UCS
  5
2D
330
0
100
AcDbSymbolTable
 70
     0
  0
ENDTAB
  0
TABLE
  2
APPID
  5
33
330
0
100
AcDbSymbolTable
 70
     5
  0
APPID
  5
25
330
33
100
AcDbSymbolTableRecord
100
AcDbRegAppTableRecord
  2
ACAD
 70
     0
  0
APPID
  5
36
330
33
100
AcDbSymbolTableRecord
100
AcDbRegAppTableRecord
  2
ACAD_DSTYLE_DIMJOGGED_JOGANGLE_SYMBOL
 70
     0
  0
APPID
  5
1B
330
33
100
AcDbSymbolTableRecord
100
AcDbRegAppTableRecord
  2
ACAD_PSEXT
 70
     0
  0
APPID
  5
37
330
33
100
AcDbSymbolTableRecord
100
AcDbRegAppTableRecord
  2
ACAD_DSTYLE_DIMJAG
 70
     0
  0
APPID
  5
38
330
33
100
AcDbSymbolTableRecord
100
AcDbRegAppTableRecord
  2
ACAD_DSTYLE_DIMTALN
 70
     0
  0
ENDTAB
  0
TABLE
  2
DIMSTYLE
  5
34
330
0
100
AcDbSymbolTable
 70
     3
100
AcDbDimStyleTable
 71
     2
340
35
340
39
  0
DIMSTYLE
105
39
330
34
100
AcDbSymbolTableRecord
100
AcDbDimStyleTableRecord
  2
STANDARD
 70
     0
340
27
  0
DIMSTYLE
105
35
330
34
100
AcDbSymbolTableRecord
100
AcDbDimStyleTableRecord
  2
Wagner
 70
     0
 41
2.5
 42
1.0
 43
10.0
 44
1.0
 73
     0
 74
     0
 77
     1
 78
     8
 79
     2
140
2.5
141
0.0
143
0.03937007874016
147
1.0
171
     3
172
     1
176
     4
177
     4
178
     1
179
     2
271
     8
272
     8
274
     3
283
     0
284
     8
340
27
1001
ACAD_DSTYLE_DIMJOGGED_JOGANGLE_SYMBOL
1070
   384
1040
0.7853981633974483
1001
ACAD_DSTYLE_DIMJAG
1070
   388
1040
1.5
1001
ACAD_DSTYLE_DIMTALN
1070
   392
1070
     0
  0
DIMSTYLE
105
246
102
{ACAD_REACTORS
330
37F
330
370
330
320
330
313
330
2D6
330
2C9
330
2BA
330
2AC
330
29F
330
292
330
285
330
278
330
26B
330
25E
330
247
330
236
102
}
330
34
100
AcDbSymbolTableRecord
100
AcDbDimStyleTableRecord
  2
Wagner$0
 70
     0
 41
2.5
 42
1.0
 43
10.0
 44
1.0
 73
     0
 74
     0
 77
     1
 78
     8
 79
     2
140
2.5
141
0.0
143
0.03937007874016
147
1.0
171
     3
172
     1
174
     1
176
     4
177
     4
178
     1
179
     2
271
     8
272
     8
274
     3
279
     2
283
     0
284
     8
340
27
1001
ACAD_DSTYLE_DIMJOGGED_JOGANGLE_SYMBOL
1070
   384
1040
0.7853981633974483
1001
ACAD_DSTYLE_DIMJAG
1070
   388
1040
1.5
1001
ACAD_DSTYLE_DIMTALN
1070
   392
1070
     0
  0
ENDTAB
  0
TABLE
  2
BLOCK_RECORD
  5
1
330
0
100
AcDbSymbolTable
 70
    17
  0
BLOCK_RECORD
  5
2
102
{ACAD_XDICTIONARY
360
3
102
}
330
1
100
AcDbSymbolTableRecord
100
AcDbBlockTableRecord
  2
*MODEL_SPACE
340
17
 70
     0
280
     1
281
     0
  0
BLOCK_RECORD
  5
1C
330
1
100
AcDbSymbolTableRecord
100
AcDbBlockTableRecord
  2
*PAPER_SPACE
340
1F
 70
     0
280
     1
281
     0
  0
BLOCK_RECORD
  5
380
330
1
100
AcDbSymbolTableRecord
100
AcDbBlockTableRecord
  2
*D0
340
0
 70
     0
280
     1
281
     0
  0
BLOCK_RECORD
  5
371
330
1
100
AcDbSymbolTableRecord
100
AcDbBlockTableRecord
  2
*D1
340
0
 70
     0
280
     1
281
     0
  0
BLOCK_RECORD
  5
321
330
1
100
AcDbSymbolTableRecord
100
AcDbBlockTableRecord
  2
*D2
340
0
 70
     0
280
     1
281
     0
  0
BLOCK_RECORD
  5
314
330
1
100
AcDbSymbolTableRecord
100
AcDbBlockTableRecord
  2
*D3
340
0
 70
     0
280
     1
281
     0
  0
BLOCK_RECORD
  5
2D7
330
1
100
AcDbSymbolTableRecord
100
AcDbBlockTableRecord
  2
*D4
340
0
 70
     0
280
     1
281
     0
  0
BLOCK_RECORD
  5
2CA
330
1
100
AcDbSymbolTableRecord
100
AcDbBlockTableRecord
  2
*D5
340
0
 70
     0
280
     1
281
     0
  0
BLOCK_RECORD
  5
2BB
330
1
100
AcDbSymbolTableRecord
100
AcDbBlockTableRecord
  2
*D6
340
0
 70
     0
280
     1
281
     0
  0
BLOCK_RECORD
  5
2AD
330
1
100
AcDbSymbolTableRecord
100
AcDbBlockTableRecord
  2
*D7
340
0
 70
     0
280
     1
281
     0
  0
BLOCK_RECORD
  5
2A0
330
1
100
AcDbSymbolTableRecord
100
AcDbBlockTableRecord
  2
*D8
340
0
 70
     0
280
     1
281
     0
  0
BLOCK_RECORD
  5
293
330
1
100
AcDbSymbolTableRecord
100
AcDbBlockTableRecord
  2
*D9
340
0
 70
     0
280
     1
281
     0
  0
BLOCK_RECORD
  5
286
330
1
100
AcDbSymbolTableRecord
100
AcDbBlockTableRecord
  2
*D10
340
0
 70
     0
280
     1
281
     0
  0
BLOCK_RECORD
  5
279
330
1
100
AcDbSymbolTableRecord
100
AcDbBlockTableRecord
  2
*D11
340
0
 70
     0
280
     1
281
     0
  0
BLOCK_RECORD
  5
26C
330
1
100
AcDbSymbolTableRecord
100
AcDbBlockTableRecord
  2
*D12
340
0
 70
     0
280
     1
281
     0
  0
BLOCK_RECORD
  5
25F
330
1
100
AcDbSymbolTableRecord
100
AcDbBlockTableRecord
  2
*D13
340
0
 70
     0
280
     1
281
     0
  0
BLOCK_RECORD
  5
248
330
1
100
AcDbSymbolTableRecord
100
AcDbBlockTableRecord
  2
*D14
340
0
 70
     0
280
     1
281
     0
  0
BLOCK_RECORD
  5
237
330
1
100
AcDbSymbolTableRecord
100
AcDbBlockTableRecord
  2
*D15
340
0
 70
     0
280
     1
281
     0
  0
BLOCK_RECORD
  5
7C
102
{ACAD_XDICTIONARY
360
7D
102
}
330
1
100
AcDbSymbolTableRecord
100
AcDbBlockTableRecord
  2
DIN A3
340
0
102
{BLKREFS
331
7B
102
}
 70
     4
280
     1
281
     0
  0
ENDTAB
  0
ENDSEC
  0
SECTION
  2
BLOCKS
  0
BLOCK
  5
5
330
2
100
AcDbEntity
  8
0
100
AcDbBlockBegin
  2
*MODEL_SPACE
 70
     0
 10
0.0
 20
0.0
 30
0.0
  3
*MODEL_SPACE
  1

  0
ENDBLK
  5
16
330
2
100
AcDbEntity
  8
0
100
AcDbBlockEnd
  0
BLOCK
  5
1D
330
1C
100
AcDbEntity
 67
     1
  8
0
100
AcDbBlockBegin
  2
*PAPER_SPACE
 70
     0
 10
0.0
 20
0.0
 30
0.0
  3
*PAPER_SPACE
  1

  0
ENDBLK
  5
1E
330
1C
100
AcDbEntity
 67
     1
  8
0
100
AcDbBlockEnd
  0
BLOCK
  5
381
330
380
100
AcDbEntity
  8
0
100
AcDbBlockBegin
  2
*D0
 70
     1
 10
0.0
 20
0.0
 30
0.0
  3
*D0
  1

  0
LINE
  5
382
330
380
100
AcDbEntity
  8
09-01
 62
     4
370
    -2
100
AcDbLine
 10
494.4606557608011
 20
477.4615294042921
 30
0.0
 11
494.4606557608011
 21
488.4862386705842
 31
0.0
  0
LINE
  5
383
330
380
100
AcDbEntity
  8
09-01
 62
     4
370
    -2
100
AcDbLine
 10
742.4606557608009
 20
477.4615294042921
 30
0.0
 11
742.4606557608009
 21
488.4862386705842
 31
0.0
  0
LINE
  5
384
330
380
100
AcDbEntity
  8
09-01
 62
     4
370
    -2
100
AcDbLine
 10
500.7106557608011
 20
485.9862386705843
 30
0.0
 11
736.2106557608009
 21
485.9862386705843
 31
0.0
  0
SOLID
  5
385
330
380
100
AcDbEntity
  8
09-01
 62
     4
100
AcDbTrace
 10
500.7106557608011
 20
487.0279053372509
 30
0.0
 11
500.7106557608011
 21
484.9445720039176
 31
0.0
 12
494.4606557608011
 22
485.9862386705843
 32
0.0
 13
494.4606557608011
 23
485.9862386705843
 33
0.0
  0
SOLID
  5
386
330
380
100
AcDbEntity
  8
09-01
 62
     4
100
AcDbTrace
 10
736.2106557608009
 20
487.0279053372509
 30
0.0
 11
736.2106557608009
 21
484.9445720039176
 31
0.0
 12
742.4606557608009
 22
485.9862386705843
 32
0.0
 13
742.4606557608009
 23
485.9862386705843
 33
0.0
  0
MTEXT
  5
387
330
380
100
AcDbEntity
  8
09-01
 62
     1
100
AcDbMText
 10
618.460655760801
 20
491.6773198438447
 30
0.0
 40
6.25
 41
0.0
 46
0.0
 71
     5
 72
     1
  1
248
 73
     1
 44
1.0
  0
POINT
  5
388
330
380
100
AcDbEntity
  8
DEFPOINTS
 62
     0
100
AcDbPoint
 10
494.4606557608011
 20
474.9615294042921
 30
0.0
  0
POINT
  5
389
330
380
100
AcDbEntity
  8
DEFPOINTS
 62
     0
100
AcDbPoint
 10
742.4606557608009
 20
474.9615294042921
 30
0.0
  0
POINT
  5
38A
330
380
100
AcDbEntity
  8
DEFPOINTS
 62
     0
100
AcDbPoint
 10
742.4606557608009
 20
485.9862386705843
 30
0.0
  0
ENDBLK
  5
38B
330
380
100
AcDbEntity
  8
0
100
AcDbBlockEnd
  0
BLOCK
  5
372
330
371
100
AcDbEntity
  8
0
100
AcDbBlockBegin
  2
*D1
 70
     1
 10
0.0
 20
0.0
 30
0.0
  3
*D1
  1

  0
LINE
  5
373
330
371
100
AcDbEntity
  8
09-01
 62
     4
370
    -2
100
AcDbLine
 10
469.4606557608012
 20
388.4568501735956
 30
0.0
 11
469.4606557608012
 21
372.3267519753462
 31
0.0
  0
LINE
  5
374
330
371
100
AcDbEntity
  8
09-01
 62
     4
370
    -2
100
AcDbLine
 10
767.4606557608012
 20
388.4568501735956
 30
0.0
 11
767.4606557608012
 21
372.3267519753462
 31
0.0
  0
LINE
  5
375
330
371
100
AcDbEntity
  8
09-01
 62
     4
370
    -2
100
AcDbLine
 10
475.7106557608012
 20
374.8267519753462
 30
0.0
 11
761.2106557608012
 21
374.8267519753462
 31
0.0
  0
SOLID
  5
376
330
371
100
AcDbEntity
  8
09-01
 62
     4
100
AcDbTrace
 10
475.7106557608012
 20
375.8684186420129
 30
0.0
 11
475.7106557608012
 21
373.7850853086795
 31
0.0
 12
469.4606557608012
 22
374.8267519753462
 32
0.0
 13
469.4606557608012
 23
374.8267519753462
 33
0.0
  0
SOLID
  5
377
330
371
100
AcDbEntity
  8
09-01
 62
     4
100
AcDbTrace
 10
761.2106557608012
 20
375.8684186420129
 30
0.0
 11
761.2106557608012
 21
373.7850853086795
 31
0.0
 12
767.4606557608012
 22
374.8267519753462
 32
0.0
 13
767.4606557608012
 23
374.8267519753462
 33
0.0
  0
MTEXT
  5
378
330
371
100
AcDbEntity
  8
09-01
 62
     1
100
AcDbMText
 10
618.4606557608012
 20
380.5178331486068
 30
0.0
 40
6.25
 41
0.0
 46
0.0
 71
     5
 72
     1
  1
298
 73
     1
 44
1.0
  0
POINT
  5
379
330
371
100
AcDbEntity
  8
DEFPOINTS
 62
     0
100
AcDbPoint
 10
469.4606557608012
 20
390.9568501735956
 30
0.0
  0
POINT
  5
37A
330
371
100
AcDbEntity
  8
DEFPOINTS
 62
     0
100
AcDbPoint
 10
767.4606557608012
 20
390.9568501735956
 30
0.0
  0
POINT
  5
37B
330
371
100
AcDbEntity
  8
DEFPOINTS
 62
     0
100
AcDbPoint
 10
767.4606557608012
 20
374.8267519753462
 30
0.0
  0
ENDBLK
  5
37C
330
371
100
AcDbEntity
  8
0
100
AcDbBlockEnd
  0
BLOCK
  5
322
330
321
100
AcDbEntity
  8
0
100
AcDbBlockBegin
  2
*D2
 70
     1
 10
0.0
 20
0.0
 30
0.0
  3
*D2
  1

  0
LINE
  5
323
330
321
100
AcDbEntity
  8
09-01
 62
     4
370
    -2
100
AcDbLine
 10
494.4606557608011
 20
483.4862386705842
 30
0.0
 11
494.4606557608011
 21
483.2467132959091
 31
0.0
  0
LINE
  5
324
330
321
100
AcDbEntity
  8
09-01
 62
     4
370
    -2
100
AcDbLine
 10
469.4606557608012
 20
483.4862386705842
 30
0.0
 11
469.4606557608012
 21
483.2467132959091
 31
0.0
  0
LINE
  5
325
330
321
100
AcDbEntity
  8
09-01
 62
     4
370
    -2
100
AcDbLine
 10
488.2106557608011
 20
485.7467132959091
 30
0.0
 11
475.7106557608012
 21
485.7467132959091
 31
0.0
  0
SOLID
  5
326
330
321
100
AcDbEntity
  8
09-01
 62
     4
100
AcDbTrace
 10
488.2106557608011
 20
486.7883799625757
 30
0.0
 11
488.2106557608011
 21
484.7050466292424
 31
0.0
 12
494.4606557608011
 22
485.7467132959091
 32
0.0
 13
494.4606557608011
 23
485.7467132959091
 33
0.0
  0
SOLID
  5
327
330
321
100
AcDbEntity
  8
09-01
 62
     4
100
AcDbTrace
 10
475.7106557608012
 20
486.7883799625757
 30
0.0
 11
475.7106557608012
 21
484.7050466292424
 31
0.0
 12
469.4606557608012
 22
485.7467132959091
 32
0.0
 13
469.4606557608012
 23
485.7467132959091
 33
0.0
  0
MTEXT
  5
328
330
321
100
AcDbEntity
  8
09-01
 62
     1
100
AcDbMText
 10
481.9606557608012
 20
491.4377944691696
 30
0.0
 40
6.25
 41
0.0
 46
0.0
 71
     5
 72
     1
  1
25
 73
     1
 44
1.0
  0
POINT
  5
329
330
321
100
AcDbEntity
  8
DEFPOINTS
 62
     0
100
AcDbPoint
 10
494.4606557608011
 20
485.9862386705843
 30
0.0
  0
POINT
  5
32A
330
321
100
AcDbEntity
  8
DEFPOINTS
 62
     0
100
AcDbPoint
 10
469.4606557608012
 20
485.9862386705843
 30
0.0
  0
POINT
  5
32B
330
321
100
AcDbEntity
  8
DEFPOINTS
 62
     0
100
AcDbPoint
 10
469.4606557608012
 20
485.7467132959091
 30
0.0
  0
ENDBLK
  5
32C
330
321
100
AcDbEntity
  8
0
100
AcDbBlockEnd
  0
BLOCK
  5
315
330
314
100
AcDbEntity
  8
0
100
AcDbBlockBegin
  2
*D3
 70
     1
 10
0.0
 20
0.0
 30
0.0
  3
*D3
  1

  0
LINE
  5
316
330
314
100
AcDbEntity
  8
09-01
 62
     4
370
    -2
100
AcDbLine
 10
742.4606557608009
 20
483.4862386705842
 30
0.0
 11
742.4606557608009
 21
483.2467132959091
 31
0.0
  0
LINE
  5
317
330
314
100
AcDbEntity
  8
09-01
 62
     4
370
    -2
100
AcDbLine
 10
767.4606557608012
 20
483.4862386705842
 30
0.0
 11
767.4606557608012
 21
483.2467132959091
 31
0.0
  0
LINE
  5
318
330
314
100
AcDbEntity
  8
09-01
 62
     4
370
    -2
100
AcDbLine
 10
748.7106557608009
 20
485.7467132959091
 30
0.0
 11
761.2106557608012
 21
485.7467132959091
 31
0.0
  0
SOLID
  5
319
330
314
100
AcDbEntity
  8
09-01
 62
     4
100
AcDbTrace
 10
748.7106557608009
 20
486.7883799625757
 30
0.0
 11
748.7106557608009
 21
484.7050466292424
 31
0.0
 12
742.4606557608009
 22
485.7467132959091
 32
0.0
 13
742.4606557608009
 23
485.7467132959091
 33
0.0
  0
SOLID
  5
31A
330
314
100
AcDbEntity
  8
09-01
 62
     4
100
AcDbTrace
 10
761.2106557608012
 20
486.7883799625757
 30
0.0
 11
761.2106557608012
 21
484.7050466292424
 31
0.0
 12
767.4606557608012
 22
485.7467132959091
 32
0.0
 13
767.4606557608012
 23
485.7467132959091
 33
0.0
  0
MTEXT
  5
31B
330
314
100
AcDbEntity
  8
09-01
 62
     1
100
AcDbMText
 10
754.960655760801
 20
491.4377944691696
 30
0.0
 40
6.25
 41
0.0
 46
0.0
 71
     5
 72
     1
  1
25
 73
     1
 44
1.0
  0
POINT
  5
31C
330
314
100
AcDbEntity
  8
DEFPOINTS
 62
     0
100
AcDbPoint
 10
742.4606557608009
 20
485.9862386705843
 30
0.0
  0
POINT
  5
31D
330
314
100
AcDbEntity
  8
DEFPOINTS
 62
     0
100
AcDbPoint
 10
767.4606557608012
 20
485.9862386705843
 30
0.0
  0
POINT
  5
31E
330
314
100
AcDbEntity
  8
DEFPOINTS
 62
     0
100
AcDbPoint
 10
767.4606557608012
 20
485.7467132959091
 30
0.0
  0
ENDBLK
  5
31F
330
314
100
AcDbEntity
  8
0
100
AcDbBlockEnd
  0
BLOCK
  5
2D8
330
2D7
100
AcDbEntity
  8
0
100
AcDbBlockBegin
  2
*D4
 70
     1
 10
0.0
 20
0.0
 30
0.0
  3
*D4
  1

  0
LINE
  5
2D9
330
2D7
100
AcDbEntity
  8
09-01
 62
     4
370
    -2
100
AcDbLine
 10
56.83336417925784
 20
349.9399564036273
 30
0.0
 11
56.83336417925784
 21
362.3607419411046
 31
0.0
  0
LINE
  5
2DA
330
2D7
100
AcDbEntity
  8
09-01
 62
     4
370
    -2
100
AcDbLine
 10
366.8333641792579
 20
350.9399564036273
 30
0.0
 11
366.8333641792579
 21
362.3607419411046
 31
0.0
  0
LINE
  5
2DB
330
2D7
100
AcDbEntity
  8
09-01
 62
     4
370
    -2
100
AcDbLine
 10
63.08336417925784
 20
359.8607419411046
 30
0.0
 11
360.5833641792579
 21
359.8607419411046
 31
0.0
  0
SOLID
  5
2DC
330
2D7
100
AcDbEntity
  8
09-01
 62
     4
100
AcDbTrace
 10
63.08336417925784
 20
360.9024086077713
 30
0.0
 11
63.08336417925784
 21
358.8190752744379
 31
0.0
 12
56.83336417925784
 22
359.8607419411046
 32
0.0
 13
56.83336417925784
 23
359.8607419411046
 33
0.0
  0
SOLID
  5
2DD
330
2D7
100
AcDbEntity
  8
09-01
 62
     4
100
AcDbTrace
 10
360.5833641792579
 20
360.9024086077713
 30
0.0
 11
360.5833641792579
 21
358.8190752744379
 31
0.0
 12
366.8333641792579
 22
359.8607419411046
 32
0.0
 13
366.8333641792579
 23
359.8607419411046
 33
0.0
  0
MTEXT
  5
2DE
330
2D7
100
AcDbEntity
  8
09-01
 62
     1
100
AcDbMText
 10
211.8333641792578
 20
365.5539547651155
 30
0.0
 40
6.25
 41
0.0
 46
0.0
 71
     5
 72
     1
  1
310
 73
     1
 44
1.0
  0
POINT
  5
2DF
330
2D7
100
AcDbEntity
  8
DEFPOINTS
 62
     0
100
AcDbPoint
 10
56.83336417925784
 20
347.4399564036273
 30
0.0
  0
POINT
  5
2E0
330
2D7
100
AcDbEntity
  8
DEFPOINTS
 62
     0
100
AcDbPoint
 10
366.8333641792579
 20
348.4399564036273
 30
0.0
  0
POINT
  5
2E1
330
2D7
100
AcDbEntity
  8
DEFPOINTS
 62
     0
100
AcDbPoint
 10
366.8333641792579
 20
359.8607419411046
 30
0.0
  0
ENDBLK
  5
2E2
330
2D7
100
AcDbEntity
  8
0
100
AcDbBlockEnd
  0
BLOCK
  5
2CB
330
2CA
100
AcDbEntity
  8
0
100
AcDbBlockBegin
  2
*D5
 70
     1
 10
0.0
 20
0.0
 30
0.0
  3
*D5
  1

  0
LINE
  5
2CC
330
2CA
100
AcDbEntity
  8
09-01
 62
     4
370
    -2
100
AcDbLine
 10
369.3333641792579
 20
348.4399564036273
 30
0.0
 11
385.8941837963653
 21
348.4399564036273
 31
0.0
  0
LINE
  5
2CD
330
2CA
100
AcDbEntity
  8
09-01
 62
     4
370
    -2
100
AcDbLine
 10
369.3333641792579
 20
50.43995640362731
 30
0.0
 11
385.8941837963652
 21
50.43995640362731
 31
0.0
  0
LINE
  5
2CE
330
2CA
100
AcDbEntity
  8
09-01
 62
     4
370
    -2
100
AcDbLine
 10
383.3941837963653
 20
342.1899564036273
 30
0.0
 11
383.3941837963652
 21
56.68995640362731
 31
0.0
  0
SOLID
  5
2CF
330
2CA
100
AcDbEntity
  8
09-01
 62
     4
100
AcDbTrace
 10
382.3525171296986
 20
342.1899564036273
 30
0.0
 11
384.4358504630319
 21
342.1899564036273
 31
0.0
 12
383.3941837963653
 22
348.4399564036273
 32
0.0
 13
383.3941837963653
 23
348.4399564036273
 33
0.0
  0
SOLID
  5
2D0
330
2CA
100
AcDbEntity
  8
09-01
 62
     4
100
AcDbTrace
 10
382.3525171296985
 20
56.68995640362731
 30
0.0
 11
384.4358504630319
 21
56.68995640362731
 31
0.0
 12
383.3941837963652
 22
50.43995640362731
 32
0.0
 13
383.3941837963652
 23
50.43995640362731
 33
0.0
  0
MTEXT
  5
2D1
330
2CA
100
AcDbEntity
  8
09-01
 62
     1
100
AcDbMText
 10
377.7031026231047
 20
199.4399564036273
 30
0.0
 40
6.25
 41
0.0
 46
0.0
 71
     5
 72
     1
  1
298
 11
0.0000000000000001
 21
1.0
 31
0.0
 73
     1
 44
1.0
  0
POINT
  5
2D2
330
2CA
100
AcDbEntity
  8
DEFPOINTS
 62
     0
100
AcDbPoint
 10
366.8333641792579
 20
348.4399564036273
 30
0.0
  0
POINT
  5
2D3
330
2CA
100
AcDbEntity
  8
DEFPOINTS
 62
     0
100
AcDbPoint
 10
366.8333641792579
 20
50.43995640362732
 30
0.0
  0
POINT
  5
2D4
330
2CA
100
AcDbEntity
  8
DEFPOINTS
 62
     0
100
AcDbPoint
 10
383.3941837963652
 20
50.43995640362731
 30
0.0
  0
ENDBLK
  5
2D5
330
2CA
100
AcDbEntity
  8
0
100
AcDbBlockEnd
  0
BLOCK
  5
2BC
330
2BB
100
AcDbEntity
  8
0
100
AcDbBlockBegin
  2
*D6
 70
     1
 10
0.0
 20
0.0
 30
0.0
  3
*D6
  1

  0
LINE
  5
2BD
330
2BB
100
AcDbEntity
  8
09-01
 62
     4
370
    -2
100
AcDbLine
 10
66.83336417925784
 20
48.93995640362732
 30
0.0
 11
66.83336417925784
 21
33.59144670284241
 31
0.0
  0
LINE
  5
2BE
330
2BB
100
AcDbEntity
  8
09-01
 62
     4
370
    -2
100
AcDbLine
 10
56.83336417925784
 20
48.93995640362732
 30
0.0
 11
56.83336417925784
 21
33.59144670284241
 31
0.0
  0
LINE
  5
2BF
330
2BB
100
AcDbEntity
  8
09-01
 62
     4
370
    -2
100
AcDbLine
 10
73.08336417925784
 20
36.09144670284241
 30
0.0
 11
79.33336417925784
 21
36.09144670284241
 31
0.0
  0
LINE
  5
2C0
330
2BB
100
AcDbEntity
  8
09-01
 62
     4
370
    -2
100
AcDbLine
 10
50.58336417925784
 20
36.09144670284241
 30
0.0
 11
44.33336417925784
 21
36.09144670284241
 31
0.0
  0
LINE
  5
2C1
330
2BB
100
AcDbEntity
  8
09-01
 62
     4
370
    -2
100
AcDbLine
 10
66.83336417925784
 20
36.09144670284241
 30
0.0
 11
56.83336417925784
 21
36.09144670284241
 31
0.0
  0
SOLID
  5
2C2
330
2BB
100
AcDbEntity
  8
09-01
 62
     4
100
AcDbTrace
 10
73.08336417925784
 20
37.13311336950907
 30
0.0
 11
73.08336417925784
 21
35.04978003617574
 31
0.0
 12
66.83336417925784
 22
36.09144670284241
 32
0.0
 13
66.83336417925784
 23
36.09144670284241
 33
0.0
  0
SOLID
  5
2C3
330
2BB
100
AcDbEntity
  8
09-01
 62
     4
100
AcDbTrace
 10
50.58336417925784
 20
37.13311336950907
 30
0.0
 11
50.58336417925784
 21
35.04978003617574
 31
0.0
 12
56.83336417925784
 22
36.09144670284241
 32
0.0
 13
56.83336417925784
 23
36.09144670284241
 33
0.0
  0
MTEXT
  5
2C4
330
2BB
100
AcDbEntity
  8
09-01
 62
     1
100
AcDbMText
 10
61.83336417925784
 20
41.78252787610297
 30
0.0
 40
6.25
 41
0.0
 46
0.0
 71
     5
 72
     1
  1
10
 73
     1
 44
1.0
  0
POINT
  5
2C5
330
2BB
100
AcDbEntity
  8
DEFPOINTS
 62
     0
100
AcDbPoint
 10
66.83336417925784
 20
51.43995640362732
 30
0.0
  0
POINT
  5
2C6
330
2BB
100
AcDbEntity
  8
DEFPOINTS
 62
     0
100
AcDbPoint
 10
56.83336417925784
 20
51.43995640362732
 30
0.0
  0
POINT
  5
2C7
330
2BB
100
AcDbEntity
  8
DEFPOINTS
 62
     0
100
AcDbPoint
 10
56.83336417925784
 20
36.09144670284241
 30
0.0
  0
ENDBLK
  5
2C8
330
2BB
100
AcDbEntity
  8
0
100
AcDbBlockEnd
  0
BLOCK
  5
2AE
330
2AD
100
AcDbEntity
  8
0
100
AcDbBlockBegin
  2
*D7
 70
     1
 10
0.0
 20
0.0
 30
0.0
  3
*D7
  1

  0
LINE
  5
2AF
330
2AD
100
AcDbEntity
  8
09-01
 62
     4
370
    -2
100
AcDbLine
 10
56.83336417925784
 20
540.4461461404455
 30
0.0
 11
56.83336417925784
 21
568.1422245667631
 31
0.0
  0
LINE
  5
2B0
330
2AD
100
AcDbEntity
  8
09-01
 62
     4
370
    -2
100
AcDbLine
 10
366.8333641792579
 20
541.4461461404455
 30
0.0
 11
366.8333641792579
 21
568.1422245667631
 31
0.0
  0
LINE
  5
2B1
330
2AD
100
AcDbEntity
  8
09-01
 62
     4
370
    -2
100
AcDbLine
 10
63.08336417925784
 20
565.6422245667632
 30
0.0
 11
360.5833641792579
 21
565.6422245667632
 31
0.0
  0
SOLID
  5
2B2
330
2AD
100
AcDbEntity
  8
09-01
 62
     4
100
AcDbTrace
 10
63.08336417925784
 20
566.6838912334298
 30
0.0
 11
63.08336417925784
 21
564.6005579000965
 31
0.0
 12
56.83336417925784
 22
565.6422245667632
 32
0.0
 13
56.83336417925784
 23
565.6422245667632
 33
0.0
  0
SOLID
  5
2B3
330
2AD
100
AcDbEntity
  8
09-01
 62
     4
100
AcDbTrace
 10
360.5833641792579
 20
566.6838912334298
 30
0.0
 11
360.5833641792579
 21
564.6005579000965
 31
0.0
 12
366.8333641792579
 22
565.6422245667632
 32
0.0
 13
366.8333641792579
 23
565.6422245667632
 33
0.0
  0
MTEXT
  5
2B4
330
2AD
100
AcDbEntity
  8
09-01
 62
     1
100
AcDbMText
 10
211.8333641792578
 20
571.3354373907741
 30
0.0
 40
6.25
 41
0.0
 46
0.0
 71
     5
 72
     1
  1
310
 73
     1
 44
1.0
  0
POINT
  5
2B5
330
2AD
100
AcDbEntity
  8
DEFPOINTS
 62
     0
100
AcDbPoint
 10
56.83336417925784
 20
537.9461461404455
 30
0.0
  0
POINT
  5
2B6
330
2AD
100
AcDbEntity
  8
DEFPOINTS
 62
     0
100
AcDbPoint
 10
366.8333641792579
 20
538.9461461404455
 30
0.0
  0
POINT
  5
2B7
330
2AD
100
AcDbEntity
  8
DEFPOINTS
 62
     0
100
AcDbPoint
 10
366.8333641792579
 20
565.6422245667632
 30
0.0
  0
ENDBLK
  5
2B8
330
2AD
100
AcDbEntity
  8
0
100
AcDbBlockEnd
  0
BLOCK
  5
2A1
330
2A0
100
AcDbEntity
  8
0
100
AcDbBlockBegin
  2
*D8
 70
     1
 10
0.0
 20
0.0
 30
0.0
  3
*D8
  1

  0
LINE
  5
2A2
330
2A0
100
AcDbEntity
  8
09-01
 62
     4
370
    -2
100
AcDbLine
 10
369.3333641792579
 20
538.9461461404455
 30
0.0
 11
407.2932551906151
 21
538.9461461404455
 31
0.0
  0
LINE
  5
2A3
330
2A0
100
AcDbEntity
  8
09-01
 62
     4
370
    -2
100
AcDbLine
 10
369.3333641792579
 20
390.9461461404455
 30
0.0
 11
407.2932551906151
 21
390.9461461404455
 31
0.0
  0
LINE
  5
2A4
330
2A0
100
AcDbEntity
  8
09-01
 62
     4
370
    -2
100
AcDbLine
 10
404.7932551906151
 20
532.6961461404455
 30
0.0
 11
404.7932551906151
 21
397.1961461404455
 31
0.0
  0
SOLID
  5
2A5
330
2A0
100
AcDbEntity
  8
09-01
 62
     4
100
AcDbTrace
 10
403.7515885239484
 20
532.6961461404455
 30
0.0
 11
405.8349218572818
 21
532.6961461404455
 31
0.0
 12
404.7932551906151
 22
538.9461461404455
 32
0.0
 13
404.7932551906151
 23
538.9461461404455
 33
0.0
  0
SOLID
  5
2A6
330
2A0
100
AcDbEntity
  8
09-01
 62
     4
100
AcDbTrace
 10
403.7515885239484
 20
397.1961461404455
 30
0.0
 11
405.8349218572818
 21
397.1961461404455
 31
0.0
 12
404.7932551906151
 22
390.9461461404455
 32
0.0
 13
404.7932551906151
 23
390.9461461404455
 33
0.0
  0
MTEXT
  5
2A7
330
2A0
100
AcDbEntity
  8
09-01
 62
     1
100
AcDbMText
 10
399.1021740173545
 20
464.9461461404456
 30
0.0
 40
6.25
 41
0.0
 46
0.0
 71
     5
 72
     1
  1
148
 11
0.0000000000000001
 21
1.0
 31
0.0
 73
     1
 44
1.0
  0
POINT
  5
2A8
330
2A0
100
AcDbEntity
  8
DEFPOINTS
 62
     0
100
AcDbPoint
 10
366.8333641792579
 20
538.9461461404455
 30
0.0
  0
POINT
  5
2A9
330
2A0
100
AcDbEntity
  8
DEFPOINTS
 62
     0
100
AcDbPoint
 10
366.8333641792579
 20
390.9461461404455
 30
0.0
  0
POINT
  5
2AA
330
2A0
100
AcDbEntity
  8
DEFPOINTS
 62
     0
100
AcDbPoint
 10
404.7932551906151
 20
390.9461461404455
 30
0.0
  0
ENDBLK
  5
2AB
330
2A0
100
AcDbEntity
  8
0
100
AcDbBlockEnd
  0
BLOCK
  5
294
330
293
100
AcDbEntity
  8
0
100
AcDbBlockBegin
  2
*D9
 70
     1
 10
0.0
 20
0.0
 30
0.0
  3
*D9
  1

  0
LINE
  5
295
330
293
100
AcDbEntity
  8
09-01
 62
     4
370
    -2
100
AcDbLine
 10
66.83336417925784
 20
541.4461461404455
 30
0.0
 11
66.83336417925784
 21
554.1422245667631
 31
0.0
  0
LINE
  5
296
330
293
100
AcDbEntity
  8
09-01
 62
     4
370
    -2
100
AcDbLine
 10
366.8333641792579
 20
541.4461461404455
 30
0.0
 11
366.8333641792579
 21
554.1422245667631
 31
0.0
  0
LINE
  5
297
330
293
100
AcDbEntity
  8
09-01
 62
     4
370
    -2
100
AcDbLine
 10
73.08336417925784
 20
551.6422245667631
 30
0.0
 11
360.5833641792579
 21
551.6422245667631
 31
0.0
  0
SOLID
  5
298
330
293
100
AcDbEntity
  8
09-01
 62
     4
100
AcDbTrace
 10
73.08336417925784
 20
552.6838912334297
 30
0.0
 11
73.08336417925784
 21
550.6005579000965
 31
0.0
 12
66.83336417925784
 22
551.6422245667631
 32
0.0
 13
66.83336417925784
 23
551.6422245667631
 33
0.0
  0
SOLID
  5
299
330
293
100
AcDbEntity
  8
09-01
 62
     4
100
AcDbTrace
 10
360.5833641792579
 20
552.6838912334297
 30
0.0
 11
360.5833641792579
 21
550.6005579000965
 31
0.0
 12
366.8333641792579
 22
551.6422245667631
 32
0.0
 13
366.8333641792579
 23
551.6422245667631
 33
0.0
  0
MTEXT
  5
29A
330
293
100
AcDbEntity
  8
09-01
 62
     1
100
AcDbMText
 10
216.8333641792578
 20
557.3354373907741
 30
0.0
 40
6.25
 41
0.0
 46
0.0
 71
     5
 72
     1
  1
300
 73
     1
 44
1.0
  0
POINT
  5
29B
330
293
100
AcDbEntity
  8
DEFPOINTS
 62
     0
100
AcDbPoint
 10
66.83336417925784
 20
538.9461461404455
 30
0.0
  0
POINT
  5
29C
330
293
100
AcDbEntity
  8
DEFPOINTS
 62
     0
100
AcDbPoint
 10
366.8333641792579
 20
538.9461461404455
 30
0.0
  0
POINT
  5
29D
330
293
100
AcDbEntity
  8
DEFPOINTS
 62
     0
100
AcDbPoint
 10
366.8333641792579
 20
551.6422245667631
 30
0.0
  0
ENDBLK
  5
29E
330
293
100
AcDbEntity
  8
0
100
AcDbBlockEnd
  0
BLOCK
  5
287
330
286
100
AcDbEntity
  8
0
100
AcDbBlockBegin
  2
*D10
 70
     1
 10
0.0
 20
0.0
 30
0.0
  3
*D10
  1

  0
LINE
  5
288
330
286
100
AcDbEntity
  8
09-01
 62
     4
370
    -2
100
AcDbLine
 10
54.33336417925784
 20
347.4399564036273
 30
0.0
 11
38.75011463285778
 21
347.4399564036273
 31
0.0
  0
LINE
  5
289
330
286
100
AcDbEntity
  8
09-01
 62
     4
370
    -2
100
AcDbLine
 10
54.33336417925784
 20
51.43882770476977
 30
0.0
 11
38.75011463285772
 21
51.43882770476978
 31
0.0
  0
LINE
  5
28A
330
286
100
AcDbEntity
  8
09-01
 62
     4
370
    -2
100
AcDbLine
 10
41.25011463285778
 20
341.1899564036273
 30
0.0
 11
41.25011463285772
 21
57.68882770476978
 31
0.0
  0
SOLID
  5
28B
330
286
100
AcDbEntity
  8
09-01
 62
     4
100
AcDbTrace
 10
40.20844796619111
 20
341.1899564036273
 30
0.0
 11
42.29178129952444
 21
341.1899564036273
 31
0.0
 12
41.25011463285778
 22
347.4399564036273
 32
0.0
 13
41.25011463285778
 23
347.4399564036273
 33
0.0
  0
SOLID
  5
28C
330
286
100
AcDbEntity
  8
09-01
 62
     4
100
AcDbTrace
 10
40.20844796619105
 20
57.68882770476978
 30
0.0
 11
42.29178129952438
 21
57.68882770476978
 31
0.0
 12
41.25011463285772
 22
51.43882770476978
 32
0.0
 13
41.25011463285772
 23
51.43882770476978
 33
0.0
  0
MTEXT
  5
28D
330
286
100
AcDbEntity
  8
09-01
 62
     1
100
AcDbMText
 10
35.55903345959715
 20
199.4393920541985
 30
0.0
 40
6.25
 41
0.0
 46
0.0
 71
     5
 72
     1
  1
296
 11
0.0000000000000001
 21
1.0
 31
0.0
 73
     1
 44
1.0
  0
POINT
  5
28E
330
286
100
AcDbEntity
  8
DEFPOINTS
 62
     0
100
AcDbPoint
 10
56.83336417925784
 20
347.4399564036273
 30
0.0
  0
POINT
  5
28F
330
286
100
AcDbEntity
  8
DEFPOINTS
 62
     0
100
AcDbPoint
 10
56.83336417925784
 20
51.43882770476977
 30
0.0
  0
POINT
  5
290
330
286
100
AcDbEntity
  8
DEFPOINTS
 62
     0
100
AcDbPoint
 10
41.25011463285772
 20
51.43882770476978
 30
0.0
  0
ENDBLK
  5
291
330
286
100
AcDbEntity
  8
0
100
AcDbBlockEnd
  0
BLOCK
  5
27A
330
279
100
AcDbEntity
  8
0
100
AcDbBlockBegin
  2
*D11
 70
     1
 10
0.0
 20
0.0
 30
0.0
  3
*D11
  1

  0
LINE
  5
27B
330
279
100
AcDbEntity
  8
09-01
 62
     4
370
    -2
100
AcDbLine
 10
64.33336417925784
 20
538.9461461404455
 30
0.0
 11
44.01937650508581
 21
538.9461461404455
 31
0.0
  0
LINE
  5
27C
330
279
100
AcDbEntity
  8
09-01
 62
     4
370
    -2
100
AcDbLine
 10
51.53336417925766
 20
480.9461461404455
 30
0.0
 11
44.0193765050858
 21
480.9461461404455
 31
0.0
  0
LINE
  5
27D
330
279
100
AcDbEntity
  8
09-01
 62
     4
370
    -2
100
AcDbLine
 10
46.51937650508581
 20
532.6961461404455
 30
0.0
 11
46.5193765050858
 21
487.1961461404455
 31
0.0
  0
SOLID
  5
27E
330
279
100
AcDbEntity
  8
09-01
 62
     4
100
AcDbTrace
 10
45.47770983841915
 20
532.6961461404455
 30
0.0
 11
47.56104317175248
 21
532.6961461404455
 31
0.0
 12
46.51937650508581
 22
538.9461461404455
 32
0.0
 13
46.51937650508581
 23
538.9461461404455
 33
0.0
  0
SOLID
  5
27F
330
279
100
AcDbEntity
  8
09-01
 62
     4
100
AcDbTrace
 10
45.47770983841913
 20
487.1961461404455
 30
0.0
 11
47.56104317175246
 21
487.1961461404455
 31
0.0
 12
46.5193765050858
 22
480.9461461404455
 32
0.0
 13
46.5193765050858
 23
480.9461461404455
 33
0.0
  0
MTEXT
  5
280
330
279
100
AcDbEntity
  8
09-01
 62
     1
100
AcDbMText
 10
40.82829533182515
 20
509.9461461404455
 30
0.0
 40
6.25
 41
0.0
 46
0.0
 71
     5
 72
     1
  1
58
 11
0.0000000000000001
 21
1.0
 31
0.0
 73
     1
 44
1.0
  0
POINT
  5
281
330
279
100
AcDbEntity
  8
DEFPOINTS
 62
     0
100
AcDbPoint
 10
66.83336417925784
 20
538.9461461404455
 30
0.0
  0
POINT
  5
282
330
279
100
AcDbEntity
  8
DEFPOINTS
 62
     0
100
AcDbPoint
 10
54.03336417925766
 20
480.9461461404455
 30
0.0
  0
POINT
  5
283
330
279
100
AcDbEntity
  8
DEFPOINTS
 62
     0
100
AcDbPoint
 10
46.5193765050858
 20
480.9461461404455
 30
0.0
  0
ENDBLK
  5
284
330
279
100
AcDbEntity
  8
0
100
AcDbBlockEnd
  0
BLOCK
  5
26D
330
26C
100
AcDbEntity
  8
0
100
AcDbBlockBegin
  2
*D12
 70
     1
 10
0.0
 20
0.0
 30
0.0
  3
*D12
  1

  0
LINE
  5
26E
330
26C
100
AcDbEntity
  8
09-01
 62
     4
370
    -2
100
AcDbLine
 10
51.53336417925766
 20
480.9461461404455
 30
0.0
 11
44.0193765050858
 21
480.9461461404455
 31
0.0
  0
LINE
  5
26F
330
26C
100
AcDbEntity
  8
09-01
 62
     4
370
    -2
100
AcDbLine
 10
51.53336417925766
 20
428.9461461404455
 30
0.0
 11
44.01937650508578
 21
428.9461461404455
 31
0.0
  0
LINE
  5
270
330
26C
100
AcDbEntity
  8
09-01
 62
     4
370
    -2
100
AcDbLine
 10
46.5193765050858
 20
474.6961461404455
 30
0.0
 11
46.51937650508579
 21
435.1961461404455
 31
0.0
  0
SOLID
  5
271
330
26C
100
AcDbEntity
  8
09-01
 62
     4
100
AcDbTrace
 10
45.47770983841913
 20
474.6961461404455
 30
0.0
 11
47.56104317175246
 21
474.6961461404455
 31
0.0
 12
46.5193765050858
 22
480.9461461404455
 32
0.0
 13
46.5193765050858
 23
480.9461461404455
 33
0.0
  0
SOLID
  5
272
330
26C
100
AcDbEntity
  8
09-01
 62
     4
100
AcDbTrace
 10
45.47770983841913
 20
435.1961461404455
 30
0.0
 11
47.56104317175245
 21
435.1961461404455
 31
0.0
 12
46.51937650508578
 22
428.9461461404455
 32
0.0
 13
46.51937650508578
 23
428.9461461404455
 33
0.0
  0
MTEXT
  5
273
330
26C
100
AcDbEntity
  8
09-01
 62
     1
100
AcDbMText
 10
40.82829533182515
 20
454.9461461404455
 30
0.0
 40
6.25
 41
0.0
 46
0.0
 71
     5
 72
     1
  1
52
 11
0.0000000000000001
 21
1.0
 31
0.0
 73
     1
 44
1.0
  0
POINT
  5
274
330
26C
100
AcDbEntity
  8
DEFPOINTS
 62
     0
100
AcDbPoint
 10
54.03336417925766
 20
480.9461461404455
 30
0.0
  0
POINT
  5
275
330
26C
100
AcDbEntity
  8
DEFPOINTS
 62
     0
100
AcDbPoint
 10
54.03336417925766
 20
428.9461461404455
 30
0.0
  0
POINT
  5
276
330
26C
100
AcDbEntity
  8
DEFPOINTS
 62
     0
100
AcDbPoint
 10
46.51937650508578
 20
428.9461461404455
 30
0.0
  0
ENDBLK
  5
277
330
26C
100
AcDbEntity
  8
0
100
AcDbBlockEnd
  0
BLOCK
  5
260
330
25F
100
AcDbEntity
  8
0
100
AcDbBlockBegin
  2
*D13
 70
     1
 10
0.0
 20
0.0
 30
0.0
  3
*D13
  1

  0
LINE
  5
261
330
25F
100
AcDbEntity
  8
09-01
 62
     4
370
    -2
100
AcDbLine
 10
51.53336417925766
 20
428.9461461404455
 30
0.0
 11
44.01937650508577
 21
428.9461461404455
 31
0.0
  0
LINE
  5
262
330
25F
100
AcDbEntity
  8
09-01
 62
     4
370
    -2
100
AcDbLine
 10
64.33336417925784
 20
390.9461461404455
 30
0.0
 11
44.01937650508577
 21
390.9461461404455
 31
0.0
  0
LINE
  5
263
330
25F
100
AcDbEntity
  8
09-01
 62
     4
370
    -2
100
AcDbLine
 10
46.51937650508577
 20
422.6961461404455
 30
0.0
 11
46.51937650508577
 21
397.1961461404455
 31
0.0
  0
SOLID
  5
264
330
25F
100
AcDbEntity
  8
09-01
 62
     4
100
AcDbTrace
 10
45.47770983841911
 20
422.6961461404455
 30
0.0
 11
47.56104317175244
 21
422.6961461404455
 31
0.0
 12
46.51937650508577
 22
428.9461461404455
 32
0.0
 13
46.51937650508577
 23
428.9461461404455
 33
0.0
  0
SOLID
  5
265
330
25F
100
AcDbEntity
  8
09-01
 62
     4
100
AcDbTrace
 10
45.4777098384191
 20
397.1961461404455
 30
0.0
 11
47.56104317175243
 21
397.1961461404455
 31
0.0
 12
46.51937650508577
 22
390.9461461404455
 32
0.0
 13
46.51937650508577
 23
390.9461461404455
 33
0.0
  0
MTEXT
  5
266
330
25F
100
AcDbEntity
  8
09-01
 62
     1
100
AcDbMText
 10
40.8261636810748
 20
409.9461461404455
 30
0.0
 40
6.25
 41
0.0
 46
0.0
 71
     5
 72
     1
  1
38
 11
0.0000000000000001
 21
1.0
 31
0.0
 73
     1
 44
1.0
  0
POINT
  5
267
330
25F
100
AcDbEntity
  8
DEFPOINTS
 62
     0
100
AcDbPoint
 10
54.03336417925766
 20
428.9461461404455
 30
0.0
  0
POINT
  5
268
330
25F
100
AcDbEntity
  8
DEFPOINTS
 62
     0
100
AcDbPoint
 10
66.83336417925784
 20
390.9461461404455
 30
0.0
  0
POINT
  5
269
330
25F
100
AcDbEntity
  8
DEFPOINTS
 62
     0
100
AcDbPoint
 10
46.51937650508577
 20
390.9461461404455
 30
0.0
  0
ENDBLK
  5
26A
330
25F
100
AcDbEntity
  8
0
100
AcDbBlockEnd
  0
BLOCK
  5
249
330
248
100
AcDbEntity
  8
0
100
AcDbBlockBegin
  2
*D14
 70
     1
 10
0.0
 20
0.0
 30
0.0
  3
*D14
  1

  0
LINE
  5
24A
330
248
100
AcDbEntity
  8
09-01
 62
     4
370
    -2
100
AcDbLine
 10
64.33336417925784
 20
538.9461461404455
 30
0.0
 11
32.28490862294622
 21
538.9461461404455
 31
0.0
  0
LINE
  5
24B
330
248
100
AcDbEntity
  8
09-01
 62
     4
370
    -2
100
AcDbLine
 10
64.33336417925784
 20
390.9461461404455
 30
0.0
 11
32.28490862294619
 21
390.9461461404455
 31
0.0
  0
LINE
  5
24C
330
248
100
AcDbEntity
  8
09-01
 62
     4
370
    -2
100
AcDbLine
 10
34.78490862294622
 20
532.6961461404455
 30
0.0
 11
34.78490862294619
 21
397.1961461404455
 31
0.0
  0
SOLID
  5
24D
330
248
100
AcDbEntity
  8
09-01
 62
     4
100
AcDbTrace
 10
33.74324195627956
 20
532.6961461404455
 30
0.0
 11
35.82657528961288
 21
532.6961461404455
 31
0.0
 12
34.78490862294622
 22
538.9461461404455
 32
0.0
 13
34.78490862294622
 23
538.9461461404455
 33
0.0
  0
SOLID
  5
24E
330
248
100
AcDbEntity
  8
09-01
 62
     4
100
AcDbTrace
 10
33.74324195627952
 20
397.1961461404455
 30
0.0
 11
35.82657528961285
 21
397.1961461404455
 31
0.0
 12
34.78490862294619
 22
390.9461461404455
 32
0.0
 13
34.78490862294619
 23
390.9461461404455
 33
0.0
  0
MTEXT
  5
24F
330
248
100
AcDbEntity
  8
09-01
 62
     1
100
AcDbMText
 10
29.09382744968556
 20
464.9461461404455
 30
0.0
 40
6.25
 41
0.0
 46
0.0
 71
     5
 72
     1
  1
148
 11
0.0000000000000001
 21
1.0
 31
0.0
 73
     1
 44
1.0
  0
POINT
  5
250
330
248
100
AcDbEntity
  8
DEFPOINTS
 62
     0
100
AcDbPoint
 10
66.83336417925784
 20
538.9461461404455
 30
0.0
  0
POINT
  5
251
330
248
100
AcDbEntity
  8
DEFPOINTS
 62
     0
100
AcDbPoint
 10
66.83336417925784
 20
390.9461461404455
 30
0.0
  0
POINT
  5
252
330
248
100
AcDbEntity
  8
DEFPOINTS
 62
     0
100
AcDbPoint
 10
34.78490862294619
 20
390.9461461404455
 30
0.0
  0
ENDBLK
  5
253
330
248
100
AcDbEntity
  8
0
100
AcDbBlockEnd
  0
BLOCK
  5
238
330
237
100
AcDbEntity
  8
0
100
AcDbBlockBegin
  2
*D15
 70
     1
 10
0.0
 20
0.0
 30
0.0
  3
*D15
  1

  0
LINE
  5
239
330
237
100
AcDbEntity
  8
09-01
 62
     4
370
    -2
100
AcDbLine
 10
54.03336417925766
 20
426.9461461404455
 30
0.0
 11
54.03336417925766
 21
414.4326775619744
 31
0.0
  0
LINE
  5
23A
330
237
100
AcDbEntity
  8
09-01
 62
     4
370
    -2
100
AcDbLine
 10
56.83351526089291
 20
426.9461461404455
 30
0.0
 11
56.83351526089291
 21
414.4326775619744
 31
0.0
  0
LINE
  5
23B
330
237
100
AcDbEntity
  8
09-01
 62
     4
370
    -2
100
AcDbLine
 10
49.03336417925766
 20
416.4326775619745
 30
0.0
 11
44.03336417925766
 21
416.4326775619745
 31
0.0
  0
LINE
  5
23C
330
237
100
AcDbEntity
  8
09-01
 62
     4
370
    -2
100
AcDbLine
 10
61.83351526089291
 20
416.4326775619745
 30
0.0
 11
66.83351526089291
 21
416.4326775619745
 31
0.0
  0
MTEXT
  5
23D
330
237
100
AcDbEntity
  8
09-01
 62
     1
100
AcDbMText
 10
73.59635229992273
 20
420.9331558325131
 30
0.0
 40
5.0
 41
0.0
 46
0.0
 71
     5
 72
     1
  1
2.8
 73
     1
 44
1.0
  0
LINE
  5
23E
330
237
100
AcDbEntity
  8
09-01
 62
     4
370
    -2
100
AcDbLine
 10
54.03336417925766
 20
416.4326775619745
 30
0.0
 11
56.83351526089291
 21
416.4326775619745
 31
0.0
  0
SOLID
  5
23F
330
237
100
AcDbEntity
  8
09-01
 62
     4
100
AcDbTrace
 10
49.03336417925766
 20
417.2660108953078
 30
0.0
 11
49.03336417925766
 21
415.5993442286412
 31
0.0
 12
54.03336417925766
 22
416.4326775619745
 32
0.0
 13
54.03336417925766
 23
416.4326775619745
 33
0.0
  0
SOLID
  5
240
330
237
100
AcDbEntity
  8
09-01
 62
     4
100
AcDbTrace
 10
61.83351526089291
 20
417.2660108953078
 30
0.0
 11
61.83351526089291
 21
415.5993442286412
 31
0.0
 12
56.83351526089291
 22
416.4326775619745
 32
0.0
 13
56.83351526089291
 23
416.4326775619745
 33
0.0
  0
POINT
  5
241
330
237
100
AcDbEntity
  8
DEFPOINTS
 62
     0
100
AcDbPoint
 10
54.03336417925766
 20
428.9461461404455
 30
0.0
  0
POINT
  5
243
330
237
100
AcDbEntity
  8
DEFPOINTS
 62
     0
100
AcDbPoint
 10
56.83351526089291
 20
428.9461461404455
 30
0.0
  0
POINT
  5
244
330
237
100
AcDbEntity
  8
DEFPOINTS
 62
     0
100
AcDbPoint
 10
56.83351526089291
 20
416.4326775619745
 30
0.0
  0
ENDBLK
  5
245
330
237
100
AcDbEntity
  8
0
100
AcDbBlockEnd
  0
BLOCK
  5
7F
330
7C
100
AcDbEntity
  8
0
100
AcDbBlockBegin
  2
DIN A3
 70
     2
 10
0.0
 20
0.0
 30
0.0
  3
DIN A3
  1

  0
LINE
  5
80
330
7C
100
AcDbEntity
  8
01-99
100
AcDbLine
 10
412.9999997697348
 20
290.0000007613509
 30
0.0
 11
6.999999769775513
 21
290.0000007613508
 31
0.0
  0
LINE
  5
84
330
7C
100
AcDbEntity
  8
01-99
100
AcDbLine
 10
6.999999769775286
 20
7.000000761378942
 30
0.0
 11
6.999999769775513
 21
290.0000007613508
 31
0.0
  0
LINE
  5
85
330
7C
100
AcDbEntity
  8
02-01
100
AcDbLine
 10
419.9999997697341
 20
297.0000007613501
 30
0.0
 11
-0.0000002302240318
 21
297.0000007613501
 31
0.0
  0
LINE
  5
89
330
7C
100
AcDbEntity
  8
02-01
100
AcDbLine
 10
-0.0000002302240318
 20
297.0000007613501
 30
0.0
 11
-0.0000002302240318
 21
0.0000007613796242
 31
0.0
  0
LINE
  5
8A
330
7C
100
AcDbEntity
  8
02-01
100
AcDbLine
 10
-0.0000002302240318
 20
0.0000007613796242
 30
0.0
 11
419.9999997697341
 21
0.0000007613796242
 31
0.0
  0
LINE
  5
8B
330
7C
100
AcDbEntity
  8
02-01
100
AcDbLine
 10
419.9999997697341
 20
0.0000007613796242
 30
0.0
 11
419.9999997697341
 21
297.0000007613501
 31
0.0
  0
LINE
  5
8C
330
7C
100
AcDbEntity
  8
01-99
100
AcDbLine
 10
412.9999997697348
 20
290.0000007613509
 30
0.0
 11
412.9999997697348
 21
7.000000761379055
 31
0.0
  0
LINE
  5
8D
330
7C
100
AcDbEntity
  8
01-99
100
AcDbLine
 10
412.9999997697348
 20
7.000000761379055
 30
0.0
 11
6.999999769775286
 21
7.000000761378942
 31
0.0
  0
LINE
  5
8E
330
7C
100
AcDbEntity
  8
01-99
100
AcDbLine
 10
412.9999997697348
 20
53.00000076137905
 30
0.0
 11
228.999999769733
 21
53.00000076137894
 31
0.0
  0
LINE
  5
8F
330
7C
100
AcDbEntity
  8
01-99
100
AcDbLine
 10
228.999999769733
 20
53.00000076137894
 30
0.0
 11
228.999999769733
 21
7.000000761378942
 31
0.0
  0
LINE
  5
90
330
7C
100
AcDbEntity
  8
01-99
100
AcDbLine
 10
278.9999997697348
 20
12.11111187237895
 30
0.0
 11
228.9999997697348
 21
12.11111187237895
 31
0.0
  0
LINE
  5
91
330
7C
100
AcDbEntity
  8
01-99
100
AcDbLine
 10
278.9999997697348
 20
17.22222298337897
 30
0.0
 11
228.9999997697348
 21
17.22222298337897
 31
0.0
  0
LINE
  5
92
330
7C
100
AcDbEntity
  8
01-99
100
AcDbLine
 10
278.9999997697348
 20
22.33333409437898
 30
0.0
 11
228.9999997697348
 21
22.33333409437893
 31
0.0
  0
LINE
  5
93
330
7C
100
AcDbEntity
  8
01-99
100
AcDbLine
 10
323.9999997697348
 20
27.444445205379
 30
0.0
 11
228.9999997697348
 21
27.44444520537894
 31
0.0
  0
LINE
  5
94
330
7C
100
AcDbEntity
  8
01-99
100
AcDbLine
 10
323.9999997697348
 20
32.55555631637901
 30
0.0
 11
228.9999997697348
 21
32.55555631637895
 31
0.0
  0
LINE
  5
95
330
7C
100
AcDbEntity
  8
01-99
100
AcDbLine
 10
253.9999997697348
 20
7.000000761378942
 30
0.0
 11
253.9999997697348
 21
12.11111187237895
 31
0.0
  0
LINE
  5
96
330
7C
100
AcDbEntity
  8
01-99
100
AcDbLine
 10
236.9999997697348
 20
12.11111187237895
 30
0.0
 11
236.9999997697348
 21
37.66666742804563
 31
0.0
  0
LINE
  5
97
330
7C
100
AcDbEntity
  8
01-99
100
AcDbLine
 10
278.9999997697348
 20
7.000000761378942
 30
0.0
 11
278.9999997697348
 21
53.00000076137894
 31
0.0
  0
LINE
  5
98
330
7C
100
AcDbEntity
  8
01-99
100
AcDbLine
 10
323.9999997697348
 20
7.000000761378942
 30
0.0
 11
323.9999997697348
 21
53.00000076137894
 31
0.0
  0
LINE
  5
99
330
7C
100
AcDbEntity
  8
01-99
100
AcDbLine
 10
353.4999997697348
 20
7.000000761378942
 30
0.0
 11
353.4999997697348
 21
17.22222298337903
 31
0.0
  0
LINE
  5
9A
330
7C
100
AcDbEntity
  8
01-99
100
AcDbLine
 10
385.9999997697348
 20
7.000000761378942
 30
0.0
 11
385.9999997697348
 21
17.22222298337908
 31
0.0
  0
LINE
  5
9B
330
7C
100
AcDbEntity
  8
01-99
100
AcDbLine
 10
357.4999997697348
 20
37.66666742804569
 30
0.0
 11
357.4999997697348
 21
53.00000076137905
 31
0.0
  0
LINE
  5
9C
330
7C
100
AcDbEntity
  8
01-99
100
AcDbLine
 10
390.9999997697348
 20
37.66666742804569
 30
0.0
 11
390.9999997697348
 21
53.00000076137905
 31
0.0
  0
LINE
  5
9D
330
7C
100
AcDbEntity
  8
01-99
100
AcDbLine
 10
286.9999997697348
 20
22.33333409471232
 30
0.0
 11
286.9999997697348
 21
37.66666742804569
 31
0.0
  0
LINE
  5
9E
330
7C
100
AcDbEntity
  8
01-99
100
AcDbLine
 10
269.0031881091643
 20
12.11111187237895
 30
0.0
 11
269.0031881091643
 21
37.66666742804563
 31
0.0
  0
LINE
  5
9F
330
7C
100
AcDbEntity
  8
01-99
100
AcDbLine
 10
257.0031881091643
 20
12.11111187237895
 30
0.0
 11
257.0031881091643
 21
37.66666742804563
 31
0.0
  0
LINE
  5
A0
330
7C
100
AcDbEntity
  8
01-99
100
AcDbLine
 10
323.9999997697348
 20
22.33333409471232
 30
0.0
 11
278.9999997697348
 21
22.33333409471232
 31
0.0
  0
LINE
  5
A1
330
7C
100
AcDbEntity
  8
01-99
100
AcDbLine
 10
323.9999997697348
 20
37.66666742804569
 30
0.0
 11
228.9999997697348
 21
37.66666742804557
 31
0.0
  0
LINE
  5
A2
330
7C
100
AcDbEntity
  8
01-99
100
AcDbLine
 10
300.9999997697348
 20
22.33333409471232
 30
0.0
 11
300.9999997697348
 21
53.000000761379
 31
0.0
  0
LINE
  5
A3
330
7C
100
AcDbEntity
  8
01-99
100
AcDbLine
 10
278.9999997697348
 20
37.66666742804563
 30
0.0
 11
286.9999997697348
 21
32.55555632804567
 31
0.0
  0
LINE
  5
A4
330
7C
100
AcDbEntity
  8
01-99
100
AcDbLine
 10
278.9999997697348
 20
32.55555632804567
 30
0.0
 11
286.9999997697348
 21
37.66666742804569
 31
0.0
  0
LINE
  5
A5
330
7C
100
AcDbEntity
  8
01-99
100
AcDbLine
 10
412.9999997697348
 20
45.33333409471231
 30
0.0
 11
323.9999997697349
 21
45.33333409471225
 31
0.0
  0
LINE
  5
A6
330
7C
100
AcDbEntity
  8
01-99
100
AcDbLine
 10
323.9999997697348
 20
17.22222298337897
 30
0.0
 11
412.9999997697348
 21
17.22222298337908
 31
0.0
  0
LINE
  5
A7
330
7C
100
AcDbEntity
  8
01-99
100
AcDbLine
 10
323.9999997697348
 20
37.66666742804569
 30
0.0
 11
412.9999997697348
 21
37.66666742804574
 31
0.0
  0
LINE
  5
A8
330
7C
100
AcDbEntity
  8
01-99
100
AcDbLine
 10
300.9999997697348
 20
42.77777853937897
 30
0.0
 11
278.9999997697348
 21
42.77777853937897
 31
0.0
  0
LINE
  5
A9
330
7C
100
AcDbEntity
  8
01-99
100
AcDbLine
 10
300.9999997697348
 20
47.88888965037898
 30
0.0
 11
278.9999997697348
 21
47.88888965037893
 31
0.0
  0
TEXT
  5
AA
330
7C
100
AcDbEntity
  8
08-99
100
AcDbText
 10
325.4997009380411
 20
33.6698744692369
 30
0.0
 40
2.5
  1
Benennung/Teil:
 51
15.0
  7
ROMANS8
100
AcDbText
  0
TEXT
  5
AF
330
7C
100
AcDbEntity
  8
08-99
100
AcDbText
 10
387.5028272173022
 20
13.01760345560962
 30
0.0
 40
2.7
  1
Ident-Nr.
 51
15.0
  7
ROMANS8
100
AcDbText
  0
TEXT
  5
B0
330
7C
100
AcDbEntity
  8
08-99
100
AcDbText
 10
302.5000215029029
 20
34.05557772316138
 30
0.0
 40
2.5
  1
Name:
 51
15.0
  7
ROMANS8
100
AcDbText
  0
TEXT
  5
B1
330
7C
100
AcDbEntity
  8
08-99
100
AcDbText
 10
288.5077689122797
 20
34.04841872238342
 30
0.0
 40
2.5
  1
Datum:
 50
0.102528160689452
 41
0.8933771909280748
 51
15.0
  7
ROMANS8
 72
     5
 11
299.6749659193617
 21
34.0684019288434
 31
0.0
100
AcDbText
  0
TEXT
  5
B2
330
7C
100
AcDbEntity
  8
08-99
100
AcDbText
 10
238.5000078514702
 20
34.05597786035884
 30
0.0
 40
1.6
  1
Änderung:
 51
15.0
  7
ROMANS8
100
AcDbText
  0
TEXT
  5
B3
330
7C
100
AcDbEntity
  8
08-99
100
AcDbText
 10
255.4999378454877
 20
10.11112006054139
 30
0.0
 40
1.0
  1
ERSETZT.DURCH:
 51
15.0
  7
ROMANS8
100
AcDbText
  0
TEXT
  5
B4
330
7C
100
AcDbEntity
  8
08-99
100
AcDbText
 10
230.4993605854065
 20
10.11085496431519
 30
0.0
 40
1.0
  1
ERSETZT.FÜR:
 51
15.0
  7
ROMANS8
100
AcDbText
  0
TEXT
  5
B5
330
7C
100
AcDbEntity
  8
08-99
100
AcDbText
 10
354.990906611889
 20
13.61295762544273
 30
0.0
 40
2.112
  1
AUFTRAGS.NR.:
 51
15.0
  7
ROMANS8
100
AcDbText
  0
TEXT
  5
B6
330
7C
100
AcDbEntity
  8
08-99
100
AcDbText
 10
325.5034639747472
 20
13.61092941740929
 30
0.0
 40
2.112
  1
Sonder-Nr:
 51
15.0
  7
ROMANS8
100
AcDbText
  0
TEXT
  5
B7
330
7C
100
AcDbEntity
  8
08-99
100
AcDbText
 10
308.6963072648131
 20
50.92370926842125
 30
0.0
 40
1.349999999999999
  1
Format
 51
15.0
  7
ROMANS8
100
AcDbText
  0
TEXT
  5
B8
330
7C
100
AcDbEntity
  8
08-99
100
AcDbText
 10
307.3043795165026
 20
45.64161955447966
 30
0.0
 40
1.822499999999999
  1
Normen
 51
15.0
  7
ROMANS8
100
AcDbText
  0
TEXT
  5
B9
330
7C
100
AcDbEntity
  8
08-99
100
AcDbText
 10
230.5000293736364
 20
34.05556859693707
 30
0.0
 40
1.6
  1
Zust.
 51
15.0
  7
ROMANS8
100
AcDbText
  0
TEXT
  5
BA
330
7C
100
AcDbEntity
  8
08-99
100
AcDbText
 10
258.503180470904
 20
34.0555600128755
 30
0.0
 40
1.6
  1
Datum:
 51
15.0
  7
ROMANS8
100
AcDbText
  0
TEXT
  5
BB
330
7C
100
AcDbEntity
  8
08-99
100
AcDbText
 10
270.5032133866668
 20
34.05556481932439
 30
0.0
 40
1.6
  1
Name:
 51
15.0
  7
ROMANS8
100
AcDbText
  0
TEXT
  5
BC
330
7C
100
AcDbEntity
  8
08-99
100
AcDbText
 10
280.154554215326
 20
29.0381403293278
 30
0.0
 40
1.6
  1
Erst.
 51
15.0
  7
ROMANS8
100
AcDbText
  0
TEXT
  5
BD
330
7C
100
AcDbEntity
  8
08-99
100
AcDbText
 10
279.5171801320455
 20
24.19745182079998
 30
0.0
 40
1.6
  1
Bearb.
 51
15.0
  7
ROMANS8
100
AcDbText
  0
TEXT
  5
BE
330
7C
100
AcDbEntity
  8
08-99
100
AcDbText
 10
358.4308046815029
 20
42.61949825408587
 30
0.0
 40
2.0
  1
Zuschnittsbreite:
 51
15.0
  7
ROMANS8
100
AcDbText
  0
TEXT
  5
BF
330
7C
100
AcDbEntity
  8
08-99
100
AcDbText
 10
324.984994543767
 20
42.73762438949257
 30
0.0
 40
2.0
  1
Zuschnittslänge:
 51
15.0
  7
ROMANS8
100
AcDbText
  0
LINE
  5
C0
330
7C
100
AcDbEntity
  8
06-99
100
AcDbLine
 10
302.7675395817348
 20
19.87656561071236
 30
0.0
 11
303.0090469137349
 21
20.08724790671238
 31
0.0
  0
LINE
  5
C5
330
7C
100
AcDbEntity
  8
06-99
100
AcDbLine
 10
303.0090469137349
 20
20.08724790671238
 30
0.0
 11
302.9228515737349
 21
20.22625816271227
 31
0.0
  0
LINE
  5
C6
330
7C
100
AcDbEntity
  8
06-99
100
AcDbLine
 10
302.9228515737349
 20
20.22625816271227
 30
0.0
 11
302.8242642057348
 21
20.35180719071241
 31
0.0
  0
LINE
  5
C7
330
7C
100
AcDbEntity
  8
06-99
100
AcDbLine
 10
302.8242642057348
 20
20.35180719071241
 30
0.0
 11
302.713626953735
 21
20.4639413227124
 31
0.0
  0
LINE
  5
C8
330
7C
100
AcDbEntity
  8
06-99
100
AcDbLine
 10
302.713626953735
 20
20.4639413227124
 30
0.0
 11
302.5912962177348
 21
20.56271401871226
 31
0.0
  0
LINE
  5
C9
330
7C
100
AcDbEntity
  8
06-99
100
AcDbLine
 10
302.5912962177348
 20
20.56271401871226
 30
0.0
 11
302.4576141417349
 21
20.64816448271233
 31
0.0
  0
LINE
  5
CA
330
7C
100
AcDbEntity
  8
06-99
100
AcDbLine
 10
302.4576141417349
 20
20.64816448271233
 30
0.0
 11
302.3129264337349
 21
20.7203390467123
 31
0.0
  0
LINE
  5
CB
330
7C
100
AcDbEntity
  8
06-99
100
AcDbLine
 10
302.3129264337349
 20
20.7203390467123
 30
0.0
 11
302.1575859297349
 21
20.77929117071233
 31
0.0
  0
LINE
  5
CC
330
7C
100
AcDbEntity
  8
06-99
100
AcDbLine
 10
302.1575859297349
 20
20.77929117071233
 30
0.0
 11
301.991934773735
 21
20.82506005871232
 31
0.0
  0
LINE
  5
CD
330
7C
100
AcDbEntity
  8
06-99
100
AcDbLine
 10
301.991934773735
 20
20.82506005871232
 30
0.0
 11
301.8163222377349
 21
20.85769204271242
 31
0.0
  0
LINE
  5
CE
330
7C
100
AcDbEntity
  8
06-99
100
AcDbLine
 10
301.8163222377349
 20
20.85769204271242
 30
0.0
 11
301.631097593735
 21
20.87724058271238
 31
0.0
  0
LINE
  5
CF
330
7C
100
AcDbEntity
  8
06-99
100
AcDbLine
 10
301.631097593735
 20
20.87724058271238
 30
0.0
 11
301.436606549735
 21
20.88374488271234
 31
0.0
  0
LINE
  5
D0
330
7C
100
AcDbEntity
  8
06-99
100
AcDbLine
 10
301.436606549735
 20
20.88374488271234
 30
0.0
 11
301.2756812577348
 21
20.87768251871233
 31
0.0
  0
LINE
  5
D1
330
7C
100
AcDbEntity
  8
06-99
100
AcDbLine
 10
301.2756812577348
 20
20.87768251871233
 30
0.0
 11
301.1199415857348
 21
20.85975916271229
 31
0.0
  0
LINE
  5
D2
330
7C
100
AcDbEntity
  8
06-99
100
AcDbLine
 10
301.1199415857348
 20
20.85975916271229
 30
0.0
 11
300.969718985735
 21
20.83036329071246
 31
0.0
  0
LINE
  5
D3
330
7C
100
AcDbEntity
  8
06-99
100
AcDbLine
 10
300.969718985735
 20
20.83036329071246
 30
0.0
 11
300.825348473735
 21
20.78989050671231
 31
0.0
  0
LINE
  5
D4
330
7C
100
AcDbEntity
  8
06-99
100
AcDbLine
 10
300.825348473735
 20
20.78989050671231
 30
0.0
 11
300.6871615017349
 21
20.73873641471243
 31
0.0
  0
LINE
  5
D5
330
7C
100
AcDbEntity
  8
06-99
100
AcDbLine
 10
300.6871615017349
 20
20.73873641471243
 30
0.0
 11
300.5554823937349
 21
20.67729305471232
 31
0.0
  0
LINE
  5
D6
330
7C
100
AcDbEntity
  8
06-99
100
AcDbLine
 10
300.5554823937349
 20
20.67729305471232
 30
0.0
 11
300.4306532937349
 21
20.60595246671232
 31
0.0
  0
LINE
  5
D7
330
7C
100
AcDbEntity
  8
06-99
100
AcDbLine
 10
300.4306532937349
 20
20.60595246671232
 30
0.0
 11
300.3129985257349
 21
20.52510669071228
 31
0.0
  0
LINE
  5
D8
330
7C
100
AcDbEntity
  8
06-99
100
AcDbLine
 10
300.3129985257349
 20
20.52510669071228
 30
0.0
 11
300.2028495417349
 21
20.43514776671236
 31
0.0
  0
LINE
  5
D9
330
7C
100
AcDbEntity
  8
06-99
100
AcDbLine
 10
300.2028495417349
 20
20.43514776671236
 30
0.0
 11
300.1005449217349
 21
20.33647486271235
 31
0.0
  0
LINE
  5
DA
330
7C
100
AcDbEntity
  8
06-99
100
AcDbLine
 10
300.1005449217349
 20
20.33647486271235
 30
0.0
 11
300.006405425735
 21
20.22947289071237
 31
0.0
  0
LINE
  5
DB
330
7C
100
AcDbEntity
  8
06-99
100
AcDbLine
 10
300.006405425735
 20
20.22947289071237
 30
0.0
 11
299.920769633735
 21
20.11454458271237
 31
0.0
  0
LINE
  5
DC
330
7C
100
AcDbEntity
  8
06-99
100
AcDbLine
 10
299.920769633735
 20
20.11454458271237
 30
0.0
 11
299.8439689977349
 21
19.99207485071235
 31
0.0
  0
LINE
  5
DD
330
7C
100
AcDbEntity
  8
06-99
100
AcDbLine
 10
299.8439689977349
 20
19.99207485071235
 30
0.0
 11
299.7763314057349
 21
19.86245929871239
 31
0.0
  0
LINE
  5
DE
330
7C
100
AcDbEntity
  8
06-99
100
AcDbLine
 10
299.7763314057349
 20
19.86245929871239
 30
0.0
 11
299.7181918737349
 21
19.72608996671232
 31
0.0
  0
LINE
  5
DF
330
7C
100
AcDbEntity
  8
06-99
100
AcDbLine
 10
299.7181918737349
 20
19.72608996671232
 30
0.0
 11
299.6698782897349
 21
19.58336602271231
 31
0.0
  0
LINE
  5
E0
330
7C
100
AcDbEntity
  8
06-99
100
AcDbLine
 10
299.6698782897349
 20
19.58336602271231
 30
0.0
 11
299.631722105735
 21
19.43467237871232
 31
0.0
  0
LINE
  5
E1
330
7C
100
AcDbEntity
  8
06-99
100
AcDbLine
 10
299.631722105735
 20
19.43467237871232
 30
0.0
 11
299.6040619017348
 21
19.28040820271229
 31
0.0
  0
LINE
  5
E2
330
7C
100
AcDbEntity
  8
06-99
100
AcDbLine
 10
299.6040619017348
 20
19.28040820271229
 30
0.0
 11
299.5872184377349
 21
19.12096197071235
 31
0.0
  0
LINE
  5
E3
330
7C
100
AcDbEntity
  8
06-99
100
AcDbLine
 10
299.5872184377349
 20
19.12096197071235
 30
0.0
 11
299.5815338577349
 21
18.95672928671234
 31
0.0
  0
LINE
  5
E4
330
7C
100
AcDbEntity
  8
06-99
100
AcDbLine
 10
299.5815338577349
 20
18.95672928671234
 30
0.0
 11
299.5871471577349
 21
18.7876246147124
 31
0.0
  0
LINE
  5
E5
330
7C
100
AcDbEntity
  8
06-99
100
AcDbLine
 10
299.5871471577349
 20
18.7876246147124
 30
0.0
 11
299.603798165735
 21
18.62429005871234
 31
0.0
  0
LINE
  5
E6
330
7C
100
AcDbEntity
  8
06-99
100
AcDbLine
 10
299.603798165735
 20
18.62429005871234
 30
0.0
 11
299.6311875057347
 21
18.46704281471233
 31
0.0
  0
LINE
  5
E7
330
7C
100
AcDbEntity
  8
06-99
100
AcDbLine
 10
299.6311875057347
 20
18.46704281471233
 30
0.0
 11
299.6690158017348
 21
18.31619651471226
 31
0.0
  0
LINE
  5
E8
330
7C
100
AcDbEntity
  8
06-99
100
AcDbLine
 10
299.6690158017348
 20
18.31619651471226
 30
0.0
 11
299.7169872417348
 21
18.17206479071234
 31
0.0
  0
LINE
  5
E9
330
7C
100
AcDbEntity
  8
06-99
100
AcDbLine
 10
299.7169872417348
 20
18.17206479071234
 30
0.0
 11
299.774806013735
 21
18.03496127471237
 31
0.0
  0
LINE
  5
EA
330
7C
100
AcDbEntity
  8
06-99
100
AcDbLine
 10
299.774806013735
 20
18.03496127471237
 30
0.0
 11
299.8421763057349
 21
17.90519603471233
 31
0.0
  0
LINE
  5
EB
330
7C
100
AcDbEntity
  8
06-99
100
AcDbLine
 10
299.8421763057349
 20
17.90519603471233
 30
0.0
 11
299.9187987417349
 21
17.7830862667123
 31
0.0
  0
LINE
  5
EC
330
7C
100
AcDbEntity
  8
06-99
100
AcDbLine
 10
299.9187987417349
 20
17.7830862667123
 30
0.0
 11
300.0043775097349
 21
17.66894203871231
 31
0.0
  0
LINE
  5
ED
330
7C
100
AcDbEntity
  8
06-99
100
AcDbLine
 10
300.0043775097349
 20
17.66894203871231
 30
0.0
 11
300.0986203617349
 21
17.56308054671234
 31
0.0
  0
LINE
  5
EE
330
7C
100
AcDbEntity
  8
06-99
100
AcDbLine
 10
300.0986203617349
 20
17.56308054671234
 30
0.0
 11
300.2012207937348
 21
17.46581185871235
 31
0.0
  0
LINE
  5
EF
330
7C
100
AcDbEntity
  8
06-99
100
AcDbLine
 10
300.2012207937348
 20
17.46581185871235
 30
0.0
 11
300.3118936857348
 21
17.37745317071227
 31
0.0
  0
LINE
  5
F0
330
7C
100
AcDbEntity
  8
06-99
100
AcDbLine
 10
300.3118936857348
 20
17.37745317071227
 30
0.0
 11
300.430332533735
 21
17.2983145507124
 31
0.0
  0
LINE
  5
F1
330
7C
100
AcDbEntity
  8
06-99
100
AcDbLine
 10
300.430332533735
 20
17.2983145507124
 30
0.0
 11
300.5562450897348
 21
17.22870963071239
 31
0.0
  0
LINE
  5
F2
330
7C
100
AcDbEntity
  8
06-99
100
AcDbLine
 10
300.5562450897348
 20
17.22870963071239
 30
0.0
 11
300.6893319777348
 21
17.1689556067123
 31
0.0
  0
LINE
  5
F3
330
7C
100
AcDbEntity
  8
06-99
100
AcDbLine
 10
300.6893319777348
 20
17.1689556067123
 30
0.0
 11
300.8293009497348
 21
17.11936254671235
 31
0.0
  0
LINE
  5
F4
330
7C
100
AcDbEntity
  8
06-99
100
AcDbLine
 10
300.8293009497348
 20
17.11936254671235
 30
0.0
 11
300.975849065735
 21
17.0802440827124
 31
0.0
  0
LINE
  5
F5
330
7C
100
AcDbEntity
  8
06-99
100
AcDbLine
 10
300.975849065735
 20
17.0802440827124
 30
0.0
 11
301.1286876417348
 21
17.05191384671241
 31
0.0
  0
LINE
  5
F6
330
7C
100
AcDbEntity
  8
06-99
100
AcDbLine
 10
301.1286876417348
 20
17.05191384671241
 30
0.0
 11
301.2875101737348
 21
17.03468547071236
 31
0.0
  0
LINE
  5
F7
330
7C
100
AcDbEntity
  8
06-99
100
AcDbLine
 10
301.2875101737348
 20
17.03468547071236
 30
0.0
 11
301.4520279777349
 21
17.02887258671239
 31
0.0
  0
LINE
  5
F8
330
7C
100
AcDbEntity
  8
06-99
100
AcDbLine
 10
301.4520279777349
 20
17.02887258671239
 30
0.0
 11
301.616025437735
 21
17.03412592271235
 31
0.0
  0
LINE
  5
F9
330
7C
100
AcDbEntity
  8
06-99
100
AcDbLine
 10
301.616025437735
 20
17.03412592271235
 30
0.0
 11
301.7733582177349
 21
17.04976475471238
 31
0.0
  0
LINE
  5
FA
330
7C
100
AcDbEntity
  8
06-99
100
AcDbLine
 10
301.7733582177349
 20
17.04976475471238
 30
0.0
 11
301.9238374257349
 21
17.07559662671235
 31
0.0
  0
LINE
  5
FB
330
7C
100
AcDbEntity
  8
06-99
100
AcDbLine
 10
301.9238374257349
 20
17.07559662671235
 30
0.0
 11
302.0672741697348
 21
17.11142908271239
 31
0.0
  0
LINE
  5
FC
330
7C
100
AcDbEntity
  8
06-99
100
AcDbLine
 10
302.0672741697348
 20
17.11142908271239
 30
0.0
 11
302.203483121735
 21
17.15707323071234
 31
0.0
  0
LINE
  5
FD
330
7C
100
AcDbEntity
  8
06-99
100
AcDbLine
 10
302.203483121735
 20
17.15707323071234
 30
0.0
 11
302.3322718257348
 21
17.21234017871234
 31
0.0
  0
LINE
  5
FE
330
7C
100
AcDbEntity
  8
06-99
100
AcDbLine
 10
302.3322718257348
 20
17.21234017871234
 30
0.0
 11
302.4534549537349
 21
17.27703747071234
 31
0.0
  0
LINE
  5
FF
330
7C
100
AcDbEntity
  8
06-99
100
AcDbLine
 10
302.4534549537349
 20
17.27703747071234
 30
0.0
 11
302.5668364857349
 21
17.35097977871237
 31
0.0
  0
LINE
  5
100
330
7C
100
AcDbEntity
  8
06-99
100
AcDbLine
 10
302.5668364857349
 20
17.35097977871237
 30
0.0
 11
302.6722382217349
 21
17.43397464671233
 31
0.0
  0
LINE
  5
101
330
7C
100
AcDbEntity
  8
06-99
100
AcDbLine
 10
302.6722382217349
 20
17.43397464671233
 30
0.0
 11
302.7694605777349
 21
17.52582605471235
 31
0.0
  0
LINE
  5
102
330
7C
100
AcDbEntity
  8
06-99
100
AcDbLine
 10
302.7694605777349
 20
17.52582605471235
 30
0.0
 11
302.8583217897349
 21
17.62635580271234
 31
0.0
  0
LINE
  5
103
330
7C
100
AcDbEntity
  8
06-99
100
AcDbLine
 10
302.8583217897349
 20
17.62635580271234
 30
0.0
 11
302.938632965735
 21
17.73536074271232
 31
0.0
  0
LINE
  5
104
330
7C
100
AcDbEntity
  8
06-99
100
AcDbLine
 10
302.938632965735
 20
17.73536074271232
 30
0.0
 11
303.0102016497349
 21
17.85266267471235
 31
0.0
  0
LINE
  5
105
330
7C
100
AcDbEntity
  8
06-99
100
AcDbLine
 10
303.0102016497349
 20
17.85266267471235
 30
0.0
 11
303.0728389497349
 21
17.97806201471235
 31
0.0
  0
LINE
  5
106
330
7C
100
AcDbEntity
  8
06-99
100
AcDbLine
 10
303.0728389497349
 20
17.97806201471235
 30
0.0
 11
303.126359537735
 21
18.11137343471228
 31
0.0
  0
LINE
  5
107
330
7C
100
AcDbEntity
  8
06-99
100
AcDbLine
 10
303.126359537735
 20
18.11137343471228
 30
0.0
 11
303.1705745217348
 21
18.25240447871232
 31
0.0
  0
LINE
  5
108
330
7C
100
AcDbEntity
  8
06-99
100
AcDbLine
 10
303.1705745217348
 20
18.25240447871232
 30
0.0
 11
303.2052878817349
 21
18.40096625471233
 31
0.0
  0
LINE
  5
109
330
7C
100
AcDbEntity
  8
06-99
100
AcDbLine
 10
303.2052878817349
 20
18.40096625471233
 30
0.0
 11
303.2303214177349
 21
18.55686987071237
 31
0.0
  0
LINE
  5
10A
330
7C
100
AcDbEntity
  8
06-99
100
AcDbLine
 10
303.2303214177349
 20
18.55686987071237
 30
0.0
 11
303.245479109735
 21
18.7199264347123
 31
0.0
  0
LINE
  5
10B
330
7C
100
AcDbEntity
  8
06-99
100
AcDbLine
 10
303.245479109735
 20
18.7199264347123
 30
0.0
 11
303.2505720657348
 21
18.88993992671231
 31
0.0
  0
LINE
  5
10C
330
7C
100
AcDbEntity
  8
06-99
100
AcDbLine
 10
303.2505720657348
 20
18.88993992671231
 30
0.0
 11
303.2505720657348
 21
18.88993992671231
 31
0.0
  0
LINE
  5
10D
330
7C
100
AcDbEntity
  8
06-99
100
AcDbLine
 10
303.2505720657348
 20
18.88993992671231
 30
0.0
 11
303.2505720657348
 21
18.94132211471236
 31
0.0
  0
LINE
  5
10E
330
7C
100
AcDbEntity
  8
06-99
100
AcDbLine
 10
303.2505720657348
 20
18.94132211471236
 30
0.0
 11
301.6164638097349
 21
18.94132211471236
 31
0.0
  0
LINE
  5
10F
330
7C
100
AcDbEntity
  8
06-99
100
AcDbLine
 10
301.6164638097349
 20
18.94132211471236
 30
0.0
 11
301.6164638097349
 21
18.65355049871232
 31
0.0
  0
LINE
  5
110
330
7C
100
AcDbEntity
  8
06-99
100
AcDbLine
 10
301.6164638097349
 20
18.65355049871232
 30
0.0
 11
302.8857253857347
 21
18.65355049871232
 31
0.0
  0
LINE
  5
111
330
7C
100
AcDbEntity
  8
06-99
100
AcDbLine
 10
302.8857253857347
 20
18.65355049871232
 30
0.0
 11
302.8749870537348
 21
18.49100715071233
 31
0.0
  0
LINE
  5
112
330
7C
100
AcDbEntity
  8
06-99
100
AcDbLine
 10
302.8749870537348
 20
18.49100715071233
 30
0.0
 11
302.8476547377348
 21
18.33636162671234
 31
0.0
  0
LINE
  5
113
330
7C
100
AcDbEntity
  8
06-99
100
AcDbLine
 10
302.8476547377348
 20
18.33636162671234
 30
0.0
 11
302.804434109735
 21
18.19027683071238
 31
0.0
  0
LINE
  5
114
330
7C
100
AcDbEntity
  8
06-99
100
AcDbLine
 10
302.804434109735
 20
18.19027683071238
 30
0.0
 11
302.7460308417349
 21
18.05341923071233
 31
0.0
  0
LINE
  5
115
330
7C
100
AcDbEntity
  8
06-99
100
AcDbLine
 10
302.7460308417349
 20
18.05341923071233
 30
0.0
 11
302.673157733735
 21
17.92644460271236
 31
0.0
  0
LINE
  5
116
330
7C
100
AcDbEntity
  8
06-99
100
AcDbLine
 10
302.673157733735
 20
17.92644460271236
 30
0.0
 11
302.586524021735
 21
17.81002654271236
 31
0.0
  0
LINE
  5
117
330
7C
100
AcDbEntity
  8
06-99
100
AcDbLine
 10
302.586524021735
 20
17.81002654271236
 30
0.0
 11
302.4868282497349
 21
17.70481726271237
 31
0.0
  0
LINE
  5
118
330
7C
100
AcDbEntity
  8
06-99
100
AcDbLine
 10
302.4868282497349
 20
17.70481726271237
 30
0.0
 11
302.3747867817349
 21
17.61149035871233
 31
0.0
  0
LINE
  5
119
330
7C
100
AcDbEntity
  8
06-99
100
AcDbLine
 10
302.3747867817349
 20
17.61149035871233
 30
0.0
 11
302.2511052897348
 21
17.53069804271234
 31
0.0
  0
LINE
  5
11A
330
7C
100
AcDbEntity
  8
06-99
100
AcDbLine
 10
302.2511052897348
 20
17.53069804271234
 30
0.0
 11
302.116489445735
 21
17.46311034671237
 31
0.0
  0
LINE
  5
11B
330
7C
100
AcDbEntity
  8
06-99
100
AcDbLine
 10
302.116489445735
 20
17.46311034671237
 30
0.0
 11
301.9716484857348
 21
17.40938661071232
 31
0.0
  0
LINE
  5
11C
330
7C
100
AcDbEntity
  8
06-99
100
AcDbLine
 10
301.9716484857348
 20
17.40938661071232
 30
0.0
 11
301.8172916457349
 21
17.37019330271244
 31
0.0
  0
LINE
  5
11D
330
7C
100
AcDbEntity
  8
06-99
100
AcDbLine
 10
301.8172916457349
 20
17.37019330271244
 30
0.0
 11
301.654124597735
 21
17.3461897627123
 31
0.0
  0
LINE
  5
11E
330
7C
100
AcDbEntity
  8
06-99
100
AcDbLine
 10
301.654124597735
 20
17.3461897627123
 30
0.0
 11
301.482856577735
 21
17.33804245871238
 31
0.0
  0
LINE
  5
11F
330
7C
100
AcDbEntity
  8
06-99
100
AcDbLine
 10
301.482856577735
 20
17.33804245871238
 30
0.0
 11
301.318196213735
 21
17.34599374271232
 31
0.0
  0
LINE
  5
120
330
7C
100
AcDbEntity
  8
06-99
100
AcDbLine
 10
301.318196213735
 20
17.34599374271232
 30
0.0
 11
301.1599011537348
 21
17.36937714671228
 31
0.0
  0
LINE
  5
121
330
7C
100
AcDbEntity
  8
06-99
100
AcDbLine
 10
301.1599011537348
 20
17.36937714671228
 30
0.0
 11
301.0085630217349
 21
17.40748343471233
 31
0.0
  0
LINE
  5
122
330
7C
100
AcDbEntity
  8
06-99
100
AcDbLine
 10
301.0085630217349
 20
17.40748343471233
 30
0.0
 11
300.8647698777347
 21
17.45960693471232
 31
0.0
  0
LINE
  5
123
330
7C
100
AcDbEntity
  8
06-99
100
AcDbLine
 10
300.8647698777347
 20
17.45960693471232
 30
0.0
 11
300.7291026537349
 21
17.52503841071234
 31
0.0
  0
LINE
  5
124
330
7C
100
AcDbEntity
  8
06-99
100
AcDbLine
 10
300.7291026537349
 20
17.52503841071234
 30
0.0
 11
300.6021529737349
 21
17.6030686267124
 31
0.0
  0
LINE
  5
125
330
7C
100
AcDbEntity
  8
06-99
100
AcDbLine
 10
300.6021529737349
 20
17.6030686267124
 30
0.0
 11
300.4845053337349
 21
17.69299547471234
 31
0.0
  0
LINE
  5
126
330
7C
100
AcDbEntity
  8
06-99
100
AcDbLine
 10
300.4845053337349
 20
17.69299547471234
 30
0.0
 11
300.3767513577348
 21
17.79410615471244
 31
0.0
  0
LINE
  5
127
330
7C
100
AcDbEntity
  8
06-99
100
AcDbLine
 10
300.3767513577348
 20
17.79410615471244
 30
0.0
 11
300.279475541735
 21
17.90569499471235
 31
0.0
  0
LINE
  5
128
330
7C
100
AcDbEntity
  8
06-99
100
AcDbLine
 10
300.279475541735
 20
17.90569499471235
 30
0.0
 11
300.1932623817348
 21
18.02705632271232
 31
0.0
  0
LINE
  5
129
330
7C
100
AcDbEntity
  8
06-99
100
AcDbLine
 10
300.1932623817348
 20
18.02705632271232
 30
0.0
 11
300.1187035017349
 21
18.15747733871234
 31
0.0
  0
LINE
  5
12A
330
7C
100
AcDbEntity
  8
06-99
100
AcDbLine
 10
300.1187035017349
 20
18.15747733871234
 30
0.0
 11
300.0563833977349
 21
18.29625593471235
 31
0.0
  0
LINE
  5
12B
330
7C
100
AcDbEntity
  8
06-99
100
AcDbLine
 10
300.0563833977349
 20
18.29625593471235
 30
0.0
 11
300.0068901297349
 21
18.44268287471232
 31
0.0
  0
LINE
  5
12C
330
7C
100
AcDbEntity
  8
06-99
100
AcDbLine
 10
300.0068901297349
 20
18.44268287471232
 30
0.0
 11
299.9708117577347
 21
18.59604535871239
 31
0.0
  0
LINE
  5
12D
330
7C
100
AcDbEntity
  8
06-99
100
AcDbLine
 10
299.9708117577347
 20
18.59604535871239
 30
0.0
 11
299.9487327777348
 21
18.75564484271246
 31
0.0
  0
LINE
  5
12E
330
7C
100
AcDbEntity
  8
06-99
100
AcDbLine
 10
299.9487327777348
 20
18.75564484271246
 30
0.0
 11
299.9412448137349
 21
18.92076852671226
 31
0.0
  0
LINE
  5
12F
330
7C
100
AcDbEntity
  8
06-99
100
AcDbLine
 10
299.9412448137349
 20
18.92076852671226
 30
0.0
 11
299.947631501735
 21
19.08914257871237
 31
0.0
  0
LINE
  5
130
330
7C
100
AcDbEntity
  8
06-99
100
AcDbLine
 10
299.947631501735
 20
19.08914257871237
 30
0.0
 11
299.9665349577349
 21
19.25115489071231
 31
0.0
  0
LINE
  5
131
330
7C
100
AcDbEntity
  8
06-99
100
AcDbLine
 10
299.9665349577349
 20
19.25115489071231
 30
0.0
 11
299.997556013735
 21
19.40630650271231
 31
0.0
  0
LINE
  5
132
330
7C
100
AcDbEntity
  8
06-99
100
AcDbLine
 10
299.997556013735
 20
19.40630650271231
 30
0.0
 11
300.0402990657349
 21
19.55410201871234
 31
0.0
  0
LINE
  5
133
330
7C
100
AcDbEntity
  8
06-99
100
AcDbLine
 10
300.0402990657349
 20
19.55410201871234
 30
0.0
 11
300.0943720737348
 21
19.69404604271233
 31
0.0
  0
LINE
  5
134
330
7C
100
AcDbEntity
  8
06-99
100
AcDbLine
 10
300.0943720737348
 20
19.69404604271233
 30
0.0
 11
300.1593758697349
 21
19.82564674271236
 31
0.0
  0
LINE
  5
135
330
7C
100
AcDbEntity
  8
06-99
100
AcDbLine
 10
300.1593758697349
 20
19.82564674271236
 30
0.0
 11
300.2349148497349
 21
19.94840159471238
 31
0.0
  0
LINE
  5
136
330
7C
100
AcDbEntity
  8
06-99
100
AcDbLine
 10
300.2349148497349
 20
19.94840159471238
 30
0.0
 11
300.3205969737349
 21
20.06182233071235
 31
0.0
  0
LINE
  5
137
330
7C
100
AcDbEntity
  8
06-99
100
AcDbLine
 10
300.3205969737349
 20
20.06182233071235
 30
0.0
 11
300.4160230737348
 21
20.16540642671242
 31
0.0
  0
LINE
  5
138
330
7C
100
AcDbEntity
  8
06-99
100
AcDbLine
 10
300.4160230737348
 20
20.16540642671242
 30
0.0
 11
300.5208046737348
 21
20.2586620507123
 31
0.0
  0
LINE
  5
139
330
7C
100
AcDbEntity
  8
06-99
100
AcDbLine
 10
300.5208046737348
 20
20.2586620507123
 30
0.0
 11
300.634535477735
 21
20.34109024271237
 31
0.0
  0
LINE
  5
13A
330
7C
100
AcDbEntity
  8
06-99
100
AcDbLine
 10
300.634535477735
 20
20.34109024271237
 30
0.0
 11
300.756830573735
 21
20.41219917071237
 31
0.0
  0
LINE
  5
13B
330
7C
100
AcDbEntity
  8
06-99
100
AcDbLine
 10
300.756830573735
 20
20.41219917071237
 30
0.0
 11
300.8872872297347
 21
20.47148987471235
 31
0.0
  0
LINE
  5
13C
330
7C
100
AcDbEntity
  8
06-99
100
AcDbLine
 10
300.8872872297347
 20
20.47148987471235
 30
0.0
 11
301.025513405735
 21
20.51846695871234
 31
0.0
  0
LINE
  5
13D
330
7C
100
AcDbEntity
  8
06-99
100
AcDbLine
 10
301.025513405735
 20
20.51846695871234
 30
0.0
 11
301.171117061735
 21
20.55263502671232
 31
0.0
  0
LINE
  5
13E
330
7C
100
AcDbEntity
  8
06-99
100
AcDbLine
 10
301.171117061735
 20
20.55263502671232
 30
0.0
 11
301.323695465735
 21
20.57350224671234
 31
0.0
  0
LINE
  5
13F
330
7C
100
AcDbEntity
  8
06-99
100
AcDbLine
 10
301.323695465735
 20
20.57350224671234
 30
0.0
 11
301.482856577735
 21
20.58056609471237
 31
0.0
  0
LINE
  5
140
330
7C
100
AcDbEntity
  8
06-99
100
AcDbLine
 10
301.482856577735
 20
20.58056609471237
 30
0.0
 11
301.6605611817349
 21
20.57164896671236
 31
0.0
  0
LINE
  5
141
330
7C
100
AcDbEntity
  8
06-99
100
AcDbLine
 10
301.6605611817349
 20
20.57164896671236
 30
0.0
 11
301.830314501735
 21
20.54501163071234
 31
0.0
  0
LINE
  5
142
330
7C
100
AcDbEntity
  8
06-99
100
AcDbLine
 10
301.830314501735
 20
20.54501163071234
 30
0.0
 11
301.9917779577349
 21
20.50082159471236
 31
0.0
  0
LINE
  5
143
330
7C
100
AcDbEntity
  8
06-99
100
AcDbLine
 10
301.9917779577349
 20
20.50082159471236
 30
0.0
 11
302.1446129697349
 21
20.43924636671233
 31
0.0
  0
LINE
  5
144
330
7C
100
AcDbEntity
  8
06-99
100
AcDbLine
 10
302.1446129697349
 20
20.43924636671233
 30
0.0
 11
302.2884809577349
 21
20.36046058271233
 31
0.0
  0
LINE
  5
145
330
7C
100
AcDbEntity
  8
06-99
100
AcDbLine
 10
302.2884809577349
 20
20.36046058271233
 30
0.0
 11
302.423046905735
 21
20.2646281867124
 31
0.0
  0
LINE
  5
146
330
7C
100
AcDbEntity
  8
06-99
100
AcDbLine
 10
302.423046905735
 20
20.2646281867124
 30
0.0
 11
302.5479722337349
 21
20.15192381471235
 31
0.0
  0
LINE
  5
147
330
7C
100
AcDbEntity
  8
06-99
100
AcDbLine
 10
302.5479722337349
 20
20.15192381471235
 30
0.0
 11
302.662914797735
 21
20.02251141071241
 31
0.0
  0
LINE
  5
148
330
7C
100
AcDbEntity
  8
06-99
100
AcDbLine
 10
302.662914797735
 20
20.02251141071241
 30
0.0
 11
302.7675395817348
 21
19.87656561071236
 31
0.0
  0
LINE
  5
149
330
7C
100
AcDbEntity
  8
06-99
100
AcDbLine
 10
299.4389952417348
 20
13.25281458671242
 30
0.0
 11
301.3222627377349
 21
13.25281458671242
 31
0.0
  0
LINE
  5
14A
330
7C
100
AcDbEntity
  8
06-99
100
AcDbLine
 10
301.3222627377349
 20
13.25281458671242
 30
0.0
 11
301.4675990937349
 21
14.00768047871236
 31
0.0
  0
LINE
  5
14B
330
7C
100
AcDbEntity
  8
06-99
100
AcDbLine
 10
301.4675990937349
 20
14.00768047871236
 30
0.0
 11
300.5648699697349
 21
14.00768047871236
 31
0.0
  0
LINE
  5
14C
330
7C
100
AcDbEntity
  8
06-99
100
AcDbLine
 10
300.5648699697349
 20
14.00768047871236
 30
0.0
 11
300.6210528657348
 21
14.29950792671229
 31
0.0
  0
LINE
  5
14D
330
7C
100
AcDbEntity
  8
06-99
100
AcDbLine
 10
300.6210528657348
 20
14.29950792671229
 30
0.0
 11
301.4187152697349
 21
14.29950792671229
 31
0.0
  0
LINE
  5
14E
330
7C
100
AcDbEntity
  8
06-99
100
AcDbLine
 10
301.4187152697349
 20
14.29950792671229
 30
0.0
 11
301.5558009657348
 21
15.01156305071231
 31
0.0
  0
LINE
  5
14F
330
7C
100
AcDbEntity
  8
06-99
100
AcDbLine
 10
301.5558009657348
 20
15.01156305071231
 30
0.0
 11
300.7581385617348
 21
15.01156305071231
 31
0.0
  0
LINE
  5
150
330
7C
100
AcDbEntity
  8
06-99
100
AcDbLine
 10
300.7581385617348
 20
15.01156305071231
 30
0.0
 11
300.8098450737348
 21
15.28005699071229
 31
0.0
  0
LINE
  5
151
330
7C
100
AcDbEntity
  8
06-99
100
AcDbLine
 10
300.8098450737348
 20
15.28005699071229
 30
0.0
 11
301.6892264337348
 21
15.28005699071229
 31
0.0
  0
LINE
  5
152
330
7C
100
AcDbEntity
  8
06-99
100
AcDbLine
 10
301.6892264337348
 20
15.28005699071229
 30
0.0
 11
301.8345520977349
 21
16.03490862671236
 31
0.0
  0
LINE
  5
153
330
7C
100
AcDbEntity
  8
06-99
100
AcDbLine
 10
301.8345520977349
 20
16.03490862671236
 30
0.0
 11
299.9746323657349
 21
16.03490862671236
 31
0.0
  0
LINE
  5
154
330
7C
100
AcDbEntity
  8
06-99
100
AcDbLine
 10
299.9746323657349
 20
16.03490862671236
 30
0.0
 11
299.4389952417348
 21
13.25281458671242
 31
0.0
  0
LINE
  5
155
330
7C
100
AcDbEntity
  8
06-99
100
AcDbLine
 10
285.6086116857349
 20
13.88042785871232
 30
0.0
 11
298.0658608857348
 21
13.88042785871232
 31
0.0
  0
LINE
  5
156
330
7C
100
AcDbEntity
  8
06-99
100
AcDbLine
 10
298.0658608857348
 20
13.88042785871232
 30
0.0
 11
297.9422827497349
 21
13.25209822271233
 31
0.0
  0
LINE
  5
157
330
7C
100
AcDbEntity
  8
06-99
100
AcDbLine
 10
297.9422827497349
 20
13.25209822271233
 30
0.0
 11
285.4850371137349
 21
13.25209822271233
 31
0.0
  0
LINE
  5
158
330
7C
100
AcDbEntity
  8
06-99
100
AcDbLine
 10
285.4850371137349
 20
13.25209822271233
 30
0.0
 11
285.6086116857349
 21
13.88042785871232
 31
0.0
  0
LINE
  5
159
330
7C
100
AcDbEntity
  8
06-99
100
AcDbLine
 10
291.3458426577349
 20
17.02887258671239
 30
0.0
 11
292.3221826377348
 21
20.10266933471235
 31
0.0
  0
LINE
  5
15A
330
7C
100
AcDbEntity
  8
06-99
100
AcDbLine
 10
292.3221826377348
 20
20.10266933471235
 30
0.0
 11
293.3396476137348
 21
17.02887258671239
 31
0.0
  0
LINE
  5
15B
330
7C
100
AcDbEntity
  8
06-99
100
AcDbLine
 10
293.3396476137348
 20
17.02887258671239
 30
0.0
 11
294.5677984497349
 21
20.80153409471234
 31
0.0
  0
LINE
  5
15C
330
7C
100
AcDbEntity
  8
06-99
100
AcDbLine
 10
294.5677984497349
 20
20.80153409471234
 30
0.0
 11
294.2235089217348
 21
20.80153409471234
 31
0.0
  0
LINE
  5
15D
330
7C
100
AcDbEntity
  8
06-99
100
AcDbLine
 10
294.2235089217348
 20
20.80153409471234
 30
0.0
 11
293.3396476137348
 21
17.89303210271231
 31
0.0
  0
LINE
  5
15E
330
7C
100
AcDbEntity
  8
06-99
100
AcDbLine
 10
293.3396476137348
 20
17.89303210271231
 30
0.0
 11
292.3221826377348
 21
20.94541277471228
 31
0.0
  0
LINE
  5
15F
330
7C
100
AcDbEntity
  8
06-99
100
AcDbLine
 10
292.3221826377348
 20
20.94541277471228
 30
0.0
 11
291.3458426577349
 21
17.86733922671237
 31
0.0
  0
LINE
  5
160
330
7C
100
AcDbEntity
  8
06-99
100
AcDbLine
 10
291.3458426577349
 20
17.86733922671237
 30
0.0
 11
290.426009897735
 21
20.80153409471234
 31
0.0
  0
LINE
  5
161
330
7C
100
AcDbEntity
  8
06-99
100
AcDbLine
 10
290.426009897735
 20
20.80153409471234
 30
0.0
 11
290.0765810817349
 21
20.80153409471234
 31
0.0
  0
LINE
  5
162
330
7C
100
AcDbEntity
  8
06-99
100
AcDbLine
 10
290.0765810817349
 20
20.80153409471234
 30
0.0
 11
291.3458426577349
 21
17.02887258671239
 31
0.0
  0
LINE
  5
163
330
7C
100
AcDbEntity
  8
06-99
100
AcDbLine
 10
296.324415641735
 20
18.65868622271239
 30
0.0
 11
296.9770339377348
 21
20.2568337187123
 31
0.0
  0
LINE
  5
164
330
7C
100
AcDbEntity
  8
06-99
100
AcDbLine
 10
296.9770339377348
 20
20.2568337187123
 30
0.0
 11
297.6039629217348
 21
18.65868622271239
 31
0.0
  0
LINE
  5
165
330
7C
100
AcDbEntity
  8
06-99
100
AcDbLine
 10
297.6039629217348
 20
18.65868622271239
 30
0.0
 11
296.324415641735
 21
18.65868622271239
 31
0.0
  0
LINE
  5
166
330
7C
100
AcDbEntity
  8
06-99
100
AcDbLine
 10
295.3831810617349
 20
17.12736016271231
 30
0.0
 11
295.7231937897349
 21
17.12736016271231
 31
0.0
  0
LINE
  5
167
330
7C
100
AcDbEntity
  8
06-99
100
AcDbLine
 10
295.7231937897349
 20
17.12736016271231
 30
0.0
 11
296.2113619977348
 21
18.37092886271233
 31
0.0
  0
LINE
  5
168
330
7C
100
AcDbEntity
  8
06-99
100
AcDbLine
 10
296.2113619977348
 20
18.37092886271233
 30
0.0
 11
297.711863021735
 21
18.37092886271233
 31
0.0
  0
LINE
  5
169
330
7C
100
AcDbEntity
  8
06-99
100
AcDbLine
 10
297.711863021735
 20
18.37092886271233
 30
0.0
 11
298.1794918977348
 21
17.12736016271231
 31
0.0
  0
LINE
  5
16A
330
7C
100
AcDbEntity
  8
06-99
100
AcDbLine
 10
298.1794918977348
 20
17.12736016271231
 30
0.0
 11
298.5443385777348
 21
17.12736016271231
 31
0.0
  0
LINE
  5
16B
330
7C
100
AcDbEntity
  8
06-99
100
AcDbLine
 10
298.5443385777348
 20
17.12736016271231
 30
0.0
 11
296.9975910897349
 21
20.94541277471228
 31
0.0
  0
LINE
  5
16C
330
7C
100
AcDbEntity
  8
06-99
100
AcDbLine
 10
296.9975910897349
 20
20.94541277471228
 30
0.0
 11
295.3831810617349
 21
17.12736016271231
 31
0.0
  0
LINE
  5
16D
330
7C
100
AcDbEntity
  8
06-99
100
AcDbLine
 10
307.9298046897347
 20
13.25281458671242
 30
0.0
 11
309.0043792017348
 21
13.25281458671242
 31
0.0
  0
LINE
  5
16E
330
7C
100
AcDbEntity
  8
06-99
100
AcDbLine
 10
309.0043792017348
 20
13.25281458671242
 30
0.0
 11
309.1574066697349
 21
13.60301322671233
 31
0.0
  0
LINE
  5
16F
330
7C
100
AcDbEntity
  8
06-99
100
AcDbLine
 10
309.1574066697349
 20
13.60301322671233
 30
0.0
 11
309.9122725617349
 21
13.60301322671233
 31
0.0
  0
LINE
  5
170
330
7C
100
AcDbEntity
  8
06-99
100
AcDbLine
 10
309.9122725617349
 20
13.60301322671233
 30
0.0
 11
309.9343444137348
 21
13.25281458671242
 31
0.0
  0
LINE
  5
171
330
7C
100
AcDbEntity
  8
06-99
100
AcDbLine
 10
309.9343444137348
 20
13.25281458671242
 30
0.0
 11
311.0082738417347
 21
13.25281458671242
 31
0.0
  0
LINE
  5
172
330
7C
100
AcDbEntity
  8
06-99
100
AcDbLine
 10
311.0082738417347
 20
13.25281458671242
 30
0.0
 11
310.5711492417348
 21
16.03490862671236
 31
0.0
  0
LINE
  5
173
330
7C
100
AcDbEntity
  8
06-99
100
AcDbLine
 10
310.5711492417348
 20
16.03490862671236
 30
0.0
 11
309.4583116257348
 21
16.03490862671236
 31
0.0
  0
LINE
  5
174
330
7C
100
AcDbEntity
  8
06-99
100
AcDbLine
 10
309.4583116257348
 20
16.03490862671236
 30
0.0
 11
307.9298046897347
 21
13.25281458671242
 31
0.0
  0
LINE
  5
175
330
7C
100
AcDbEntity
  8
06-99
100
AcDbLine
 10
305.0434565217349
 20
14.66137866671232
 30
0.0
 11
305.0784799497348
 21
14.66137866671232
 31
0.0
  0
LINE
  5
176
330
7C
100
AcDbEntity
  8
06-99
100
AcDbLine
 10
305.0784799497348
 20
14.66137866671232
 30
0.0
 11
305.0642239497349
 21
14.48699927471239
 31
0.0
  0
LINE
  5
177
330
7C
100
AcDbEntity
  8
06-99
100
AcDbLine
 10
305.0642239497349
 20
14.48699927471239
 30
0.0
 11
305.0637998337348
 21
14.33510159471234
 31
0.0
  0
LINE
  5
178
330
7C
100
AcDbEntity
  8
06-99
100
AcDbLine
 10
305.0637998337348
 20
14.33510159471234
 30
0.0
 11
305.0678984337348
 21
14.20222854671237
 31
0.0
  0
LINE
  5
179
330
7C
100
AcDbEntity
  8
06-99
100
AcDbLine
 10
305.0678984337348
 20
14.20222854671237
 30
0.0
 11
305.0952307497349
 21
13.25281458671242
 31
0.0
  0
LINE
  5
17A
330
7C
100
AcDbEntity
  8
06-99
100
AcDbLine
 10
305.0952307497349
 20
13.25281458671242
 30
0.0
 11
305.9668283337347
 21
13.25281458671242
 31
0.0
  0
LINE
  5
17B
330
7C
100
AcDbEntity
  8
06-99
100
AcDbLine
 10
305.9668283337347
 20
13.25281458671242
 30
0.0
 11
307.3156882857347
 21
16.03490862671236
 31
0.0
  0
LINE
  5
17C
330
7C
100
AcDbEntity
  8
06-99
100
AcDbLine
 10
307.3156882857347
 20
16.03490862671236
 30
0.0
 11
306.3118057137349
 21
16.03490862671236
 31
0.0
  0
LINE
  5
17D
330
7C
100
AcDbEntity
  8
06-99
100
AcDbLine
 10
306.3118057137349
 20
16.03490862671236
 30
0.0
 11
305.8579124937348
 21
14.8092312067123
 31
0.0
  0
LINE
  5
17E
330
7C
100
AcDbEntity
  8
06-99
100
AcDbLine
 10
305.8579124937348
 20
14.8092312067123
 30
0.0
 11
305.8078097817349
 21
14.66872763471229
 31
0.0
  0
LINE
  5
17F
330
7C
100
AcDbEntity
  8
06-99
100
AcDbLine
 10
305.8078097817349
 20
14.66872763471229
 30
0.0
 11
305.7488398377348
 21
14.48671415471227
 31
0.0
  0
LINE
  5
180
330
7C
100
AcDbEntity
  8
06-99
100
AcDbLine
 10
305.7488398377348
 20
14.48671415471227
 30
0.0
 11
305.6900267097347
 21
14.26059973871241
 31
0.0
  0
LINE
  5
181
330
7C
100
AcDbEntity
  8
06-99
100
AcDbLine
 10
305.6900267097347
 20
14.26059973871241
 30
0.0
 11
305.6666932017348
 21
14.26059973871241
 31
0.0
  0
LINE
  5
182
330
7C
100
AcDbEntity
  8
06-99
100
AcDbLine
 10
305.6666932017348
 20
14.26059973871241
 30
0.0
 11
305.6884193457348
 21
14.45803464671235
 31
0.0
  0
LINE
  5
183
330
7C
100
AcDbEntity
  8
06-99
100
AcDbLine
 10
305.6884193457348
 20
14.45803464671235
 30
0.0
 11
305.6929777017349
 21
14.6156953147123
 31
0.0
  0
LINE
  5
184
330
7C
100
AcDbEntity
  8
06-99
100
AcDbLine
 10
305.6929777017349
 20
14.6156953147123
 30
0.0
 11
305.6919370137348
 21
14.73531384671236
 31
0.0
  0
LINE
  5
185
330
7C
100
AcDbEntity
  8
06-99
100
AcDbLine
 10
305.6919370137348
 20
14.73531384671236
 30
0.0
 11
305.6775527097348
 21
16.03490862671236
 31
0.0
  0
LINE
  5
186
330
7C
100
AcDbEntity
  8
06-99
100
AcDbLine
 10
305.6775527097348
 20
16.03490862671236
 30
0.0
 11
304.9732849257348
 21
16.03490862671236
 31
0.0
  0
LINE
  5
187
330
7C
100
AcDbEntity
  8
06-99
100
AcDbLine
 10
304.9732849257348
 20
16.03490862671236
 30
0.0
 11
304.4584829457349
 21
14.73531384671236
 31
0.0
  0
LINE
  5
188
330
7C
100
AcDbEntity
  8
06-99
100
AcDbLine
 10
304.4584829457349
 20
14.73531384671236
 30
0.0
 11
304.4113811217347
 21
14.6156953147123
 31
0.0
  0
LINE
  5
189
330
7C
100
AcDbEntity
  8
06-99
100
AcDbLine
 10
304.4113811217347
 20
14.6156953147123
 30
0.0
 11
304.355226737735
 21
14.45803464671235
 31
0.0
  0
LINE
  5
18A
330
7C
100
AcDbEntity
  8
06-99
100
AcDbLine
 10
304.355226737735
 20
14.45803464671235
 30
0.0
 11
304.3009220697348
 21
14.26059973871241
 31
0.0
  0
LINE
  5
18B
330
7C
100
AcDbEntity
  8
06-99
100
AcDbLine
 10
304.3009220697348
 20
14.26059973871241
 30
0.0
 11
304.2775885617348
 21
14.26059973871241
 31
0.0
  0
LINE
  5
18C
330
7C
100
AcDbEntity
  8
06-99
100
AcDbLine
 10
304.2775885617348
 20
14.26059973871241
 30
0.0
 11
304.3058439537349
 21
14.48671415471227
 31
0.0
  0
LINE
  5
18D
330
7C
100
AcDbEntity
  8
06-99
100
AcDbLine
 10
304.3058439537349
 20
14.48671415471227
 30
0.0
 11
304.3169636337349
 21
14.66872763471229
 31
0.0
  0
LINE
  5
18E
330
7C
100
AcDbEntity
  8
06-99
100
AcDbLine
 10
304.3169636337349
 20
14.66872763471229
 30
0.0
 11
304.3209588777348
 21
14.8092312067123
 31
0.0
  0
LINE
  5
18F
330
7C
100
AcDbEntity
  8
06-99
100
AcDbLine
 10
304.3209588777348
 20
14.8092312067123
 30
0.0
 11
304.3390319217348
 21
16.03490862671236
 31
0.0
  0
LINE
  5
190
330
7C
100
AcDbEntity
  8
06-99
100
AcDbLine
 10
304.3390319217348
 20
16.03490862671236
 30
0.0
 11
303.3345042657348
 21
16.03490862671236
 31
0.0
  0
LINE
  5
191
330
7C
100
AcDbEntity
  8
06-99
100
AcDbLine
 10
303.3345042657348
 20
16.03490862671236
 30
0.0
 11
303.6127350537349
 21
13.25281458671242
 31
0.0
  0
LINE
  5
192
330
7C
100
AcDbEntity
  8
06-99
100
AcDbLine
 10
303.6127350537349
 20
13.25281458671242
 30
0.0
 11
304.4843290737348
 21
13.25281458671242
 31
0.0
  0
LINE
  5
193
330
7C
100
AcDbEntity
  8
06-99
100
AcDbLine
 10
304.4843290737348
 20
13.25281458671242
 30
0.0
 11
304.8772386897349
 21
14.20222854671237
 31
0.0
  0
LINE
  5
194
330
7C
100
AcDbEntity
  8
06-99
100
AcDbLine
 10
304.8772386897349
 20
14.20222854671237
 30
0.0
 11
304.9325127657348
 21
14.33510159471234
 31
0.0
  0
LINE
  5
195
330
7C
100
AcDbEntity
  8
06-99
100
AcDbLine
 10
304.9325127657348
 20
14.33510159471234
 30
0.0
 11
304.9905774537349
 21
14.48699927471239
 31
0.0
  0
LINE
  5
196
330
7C
100
AcDbEntity
  8
06-99
100
AcDbLine
 10
304.9905774537349
 20
14.48699927471239
 30
0.0
 11
305.0434565217349
 21
14.66137866671232
 31
0.0
  0
LINE
  5
197
330
7C
100
AcDbEntity
  8
06-99
100
AcDbLine
 10
309.4520674977348
 20
14.26448449871236
 30
0.0
 11
309.5983590057348
 21
14.57965971071235
 31
0.0
  0
LINE
  5
198
330
7C
100
AcDbEntity
  8
06-99
100
AcDbLine
 10
309.5983590057348
 20
14.57965971071235
 30
0.0
 11
309.6731103417349
 21
14.74409554271244
 31
0.0
  0
LINE
  5
199
330
7C
100
AcDbEntity
  8
06-99
100
AcDbLine
 10
309.6731103417349
 20
14.74409554271244
 30
0.0
 11
309.7541521377349
 21
14.94571102271237
 31
0.0
  0
LINE
  5
19A
330
7C
100
AcDbEntity
  8
06-99
100
AcDbLine
 10
309.7541521377349
 20
14.94571102271237
 30
0.0
 11
309.8288286297349
 21
15.19056495071243
 31
0.0
  0
LINE
  5
19B
330
7C
100
AcDbEntity
  8
06-99
100
AcDbLine
 10
309.8288286297349
 20
15.19056495071243
 30
0.0
 11
309.8482880697349
 21
15.19056495071243
 31
0.0
  0
LINE
  5
19C
330
7C
100
AcDbEntity
  8
06-99
100
AcDbLine
 10
309.8482880697349
 20
15.19056495071243
 30
0.0
 11
309.8286646857348
 21
14.94571102271237
 31
0.0
  0
LINE
  5
19D
330
7C
100
AcDbEntity
  8
06-99
100
AcDbLine
 10
309.8286646857348
 20
14.94571102271237
 30
0.0
 11
309.8320718697348
 21
14.74409554271244
 31
0.0
  0
LINE
  5
19E
330
7C
100
AcDbEntity
  8
06-99
100
AcDbLine
 10
309.8320718697348
 20
14.74409554271244
 30
0.0
 11
309.8435051817348
 21
14.57965971071235
 31
0.0
  0
LINE
  5
19F
330
7C
100
AcDbEntity
  8
06-99
100
AcDbLine
 10
309.8435051817348
 20
14.57965971071235
 30
0.0
 11
309.868410413735
 21
14.26448449871236
 31
0.0
  0
LINE
  5
1A0
330
7C
100
AcDbEntity
  8
06-99
100
AcDbLine
 10
309.868410413735
 20
14.26448449871236
 30
0.0
 11
309.4520674977348
 21
14.26448449871236
 31
0.0
  0
LINE
  5
1A1
330
7C
100
AcDbEntity
  8
06-99
100
AcDbLine
 10
312.586705289735
 20
13.25281458671242
 30
0.0
 11
313.5672400977347
 21
13.25281458671242
 31
0.0
  0
LINE
  5
1A2
330
7C
100
AcDbEntity
  8
06-99
100
AcDbLine
 10
313.5672400977347
 20
13.25281458671242
 30
0.0
 11
313.7440358817348
 21
14.17110413471232
 31
0.0
  0
LINE
  5
1A3
330
7C
100
AcDbEntity
  8
06-99
100
AcDbLine
 10
313.7440358817348
 20
14.17110413471232
 30
0.0
 11
314.053626305735
 21
13.25281458671242
 31
0.0
  0
LINE
  5
1A4
330
7C
100
AcDbEntity
  8
06-99
100
AcDbLine
 10
314.053626305735
 20
13.25281458671242
 30
0.0
 11
315.1742370057348
 21
13.25281458671242
 31
0.0
  0
LINE
  5
1A5
330
7C
100
AcDbEntity
  8
06-99
100
AcDbLine
 10
315.1742370057348
 20
13.25281458671242
 30
0.0
 11
314.6490673497349
 21
14.38511520671233
 31
0.0
  0
LINE
  5
1A6
330
7C
100
AcDbEntity
  8
06-99
100
AcDbLine
 10
314.6490673497349
 20
14.38511520671233
 30
0.0
 11
314.8084280457349
 21
14.42380955471236
 31
0.0
  0
LINE
  5
1A7
330
7C
100
AcDbEntity
  8
06-99
100
AcDbLine
 10
314.8084280457349
 20
14.42380955471236
 30
0.0
 11
314.9537002497348
 21
14.49881749871235
 31
0.0
  0
LINE
  5
1A8
330
7C
100
AcDbEntity
  8
06-99
100
AcDbLine
 10
314.9537002497348
 20
14.49881749871235
 30
0.0
 11
315.0813484737348
 21
14.60690292671233
 31
0.0
  0
LINE
  5
1A9
330
7C
100
AcDbEntity
  8
06-99
100
AcDbLine
 10
315.0813484737348
 20
14.60690292671233
 30
0.0
 11
315.1878301017348
 21
14.74481903471235
 31
0.0
  0
LINE
  5
1AA
330
7C
100
AcDbEntity
  8
06-99
100
AcDbLine
 10
315.1878301017348
 20
14.74481903471235
 30
0.0
 11
315.2695989537348
 21
14.90932258271232
 31
0.0
  0
LINE
  5
1AB
330
7C
100
AcDbEntity
  8
06-99
100
AcDbLine
 10
315.2695989537348
 20
14.90932258271232
 30
0.0
 11
315.3231124137347
 21
15.09717033071234
 31
0.0
  0
LINE
  5
1AC
330
7C
100
AcDbEntity
  8
06-99
100
AcDbLine
 10
315.3231124137347
 20
15.09717033071234
 30
0.0
 11
315.3445997697348
 21
15.26809264271236
 31
0.0
  0
LINE
  5
1AD
330
7C
100
AcDbEntity
  8
06-99
100
AcDbLine
 10
315.3445997697348
 20
15.26809264271236
 30
0.0
 11
315.3403015857348
 21
15.42330127871241
 31
0.0
  0
LINE
  5
1AE
330
7C
100
AcDbEntity
  8
06-99
100
AcDbLine
 10
315.3403015857348
 20
15.42330127871241
 30
0.0
 11
315.3102285537349
 21
15.56226163871236
 31
0.0
  0
LINE
  5
1AF
330
7C
100
AcDbEntity
  8
06-99
100
AcDbLine
 10
315.3102285537349
 20
15.56226163871236
 30
0.0
 11
315.2543913657347
 21
15.68443555871226
 31
0.0
  0
LINE
  5
1B0
330
7C
100
AcDbEntity
  8
06-99
100
AcDbLine
 10
315.2543913657347
 20
15.68443555871226
 30
0.0
 11
315.1728078417348
 21
15.78928843871239
 31
0.0
  0
LINE
  5
1B1
330
7C
100
AcDbEntity
  8
06-99
100
AcDbLine
 10
315.1728078417348
 20
15.78928843871239
 30
0.0
 11
315.0654922377348
 21
15.87627855071235
 31
0.0
  0
LINE
  5
1B2
330
7C
100
AcDbEntity
  8
06-99
100
AcDbLine
 10
315.0654922377348
 20
15.87627855071235
 30
0.0
 11
314.9324516817348
 21
15.94487485871235
 31
0.0
  0
LINE
  5
1B3
330
7C
100
AcDbEntity
  8
06-99
100
AcDbLine
 10
314.9324516817348
 20
15.94487485871235
 30
0.0
 11
314.7737075577347
 21
15.9945356347124
 31
0.0
  0
LINE
  5
1B4
330
7C
100
AcDbEntity
  8
06-99
100
AcDbLine
 10
314.7737075577347
 20
15.9945356347124
 30
0.0
 11
314.5892634297348
 21
16.02472627871236
 31
0.0
  0
LINE
  5
1B5
330
7C
100
AcDbEntity
  8
06-99
100
AcDbLine
 10
314.5892634297348
 20
16.02472627871236
 30
0.0
 11
314.3791442457348
 21
16.03490862671236
 31
0.0
  0
LINE
  5
1B6
330
7C
100
AcDbEntity
  8
06-99
100
AcDbLine
 10
314.3791442457348
 20
16.03490862671236
 30
0.0
 11
313.1223424137348
 21
16.03490862671236
 31
0.0
  0
LINE
  5
1B7
330
7C
100
AcDbEntity
  8
06-99
100
AcDbLine
 10
313.1223424137348
 20
16.03490862671236
 30
0.0
 11
312.586705289735
 21
13.25281458671242
 31
0.0
  0
LINE
  5
1B8
330
7C
100
AcDbEntity
  8
06-99
100
AcDbLine
 10
313.9650323937349
 20
15.31896517871234
 30
0.0
 11
314.1206829657349
 21
15.31896517871234
 31
0.0
  0
LINE
  5
1B9
330
7C
100
AcDbEntity
  8
06-99
100
AcDbLine
 10
314.1206829657349
 20
15.31896517871234
 30
0.0
 11
314.2773528417349
 21
15.28538517071229
 31
0.0
  0
LINE
  5
1BA
330
7C
100
AcDbEntity
  8
06-99
100
AcDbLine
 10
314.2773528417349
 20
15.28538517071229
 30
0.0
 11
314.3582200017347
 21
15.19041169871241
 31
0.0
  0
LINE
  5
1BB
330
7C
100
AcDbEntity
  8
06-99
100
AcDbLine
 10
314.3582200017347
 20
15.19041169871241
 30
0.0
 11
314.3632167297349
 21
15.04270171871235
 31
0.0
  0
LINE
  5
1BC
330
7C
100
AcDbEntity
  8
06-99
100
AcDbLine
 10
314.3632167297349
 20
15.04270171871235
 30
0.0
 11
314.3008645497348
 21
14.8970018347124
 31
0.0
  0
LINE
  5
1BD
330
7C
100
AcDbEntity
  8
06-99
100
AcDbLine
 10
314.3008645497348
 20
14.8970018347124
 30
0.0
 11
314.1832917537348
 21
14.80578125471237
 31
0.0
  0
LINE
  5
1BE
330
7C
100
AcDbEntity
  8
06-99
100
AcDbLine
 10
314.1832917537348
 20
14.80578125471237
 30
0.0
 11
314.0158122657348
 21
14.77422203471229
 31
0.0
  0
LINE
  5
1BF
330
7C
100
AcDbEntity
  8
06-99
100
AcDbLine
 10
314.0158122657348
 20
14.77422203471229
 30
0.0
 11
313.8601616937349
 21
14.77422203471229
 31
0.0
  0
LINE
  5
1C0
330
7C
100
AcDbEntity
  8
06-99
100
AcDbLine
 10
313.8601616937349
 20
14.77422203471229
 30
0.0
 11
313.9650323937349
 21
15.31896517871234
 31
0.0
  0
LINE
  5
1C1
330
7C
100
AcDbEntity
  8
06-99
100
AcDbLine
 10
309.579801257735
 20
17.12736016271231
 30
0.0
 11
311.3988989337349
 21
17.12736016271231
 31
0.0
  0
LINE
  5
1C2
330
7C
100
AcDbEntity
  8
06-99
100
AcDbLine
 10
311.3988989337349
 20
17.12736016271231
 30
0.0
 11
311.3988989337349
 21
17.44082465471229
 31
0.0
  0
LINE
  5
1C3
330
7C
100
AcDbEntity
  8
06-99
100
AcDbLine
 10
311.3988989337349
 20
17.44082465471229
 30
0.0
 11
309.913819337735
 21
17.44082465471229
 31
0.0
  0
LINE
  5
1C4
330
7C
100
AcDbEntity
  8
06-99
100
AcDbLine
 10
309.913819337735
 20
17.44082465471229
 30
0.0
 11
309.913819337735
 21
19.02353290271242
 31
0.0
  0
LINE
  5
1C5
330
7C
100
AcDbEntity
  8
06-99
100
AcDbLine
 10
309.913819337735
 20
19.02353290271242
 30
0.0
 11
311.3988989337349
 21
19.02353290271242
 31
0.0
  0
LINE
  5
1C6
330
7C
100
AcDbEntity
  8
06-99
100
AcDbLine
 10
311.3988989337349
 20
19.02353290271242
 30
0.0
 11
311.3988989337349
 21
19.3369973947124
 31
0.0
  0
LINE
  5
1C7
330
7C
100
AcDbEntity
  8
06-99
100
AcDbLine
 10
311.3988989337349
 20
19.3369973947124
 30
0.0
 11
309.913819337735
 21
19.3369973947124
 31
0.0
  0
LINE
  5
1C8
330
7C
100
AcDbEntity
  8
06-99
100
AcDbLine
 10
309.913819337735
 20
19.3369973947124
 30
0.0
 11
309.913819337735
 21
20.48806960271236
 31
0.0
  0
LINE
  5
1C9
330
7C
100
AcDbEntity
  8
06-99
100
AcDbLine
 10
309.913819337735
 20
20.48806960271236
 30
0.0
 11
311.3988989337349
 21
20.48806960271236
 31
0.0
  0
LINE
  5
1CA
330
7C
100
AcDbEntity
  8
06-99
100
AcDbLine
 10
311.3988989337349
 20
20.48806960271236
 30
0.0
 11
311.3988989337349
 21
20.80153409471234
 31
0.0
  0
LINE
  5
1CB
330
7C
100
AcDbEntity
  8
06-99
100
AcDbLine
 10
311.3988989337349
 20
20.80153409471234
 30
0.0
 11
309.579801257735
 21
20.80153409471234
 31
0.0
  0
LINE
  5
1CC
330
7C
100
AcDbEntity
  8
06-99
100
AcDbLine
 10
309.579801257735
 20
20.80153409471234
 30
0.0
 11
309.579801257735
 21
17.12736016271231
 31
0.0
  0
LINE
  5
1CD
330
7C
100
AcDbEntity
  8
06-99
100
AcDbLine
 10
304.853024873735
 20
17.12736016271231
 30
0.0
 11
305.1870465177349
 21
17.12736016271231
 31
0.0
  0
LINE
  5
1CE
330
7C
100
AcDbEntity
  8
06-99
100
AcDbLine
 10
305.1870465177349
 20
17.12736016271231
 30
0.0
 11
305.1870465177349
 21
20.09753361071233
 31
0.0
  0
LINE
  5
1CF
330
7C
100
AcDbEntity
  8
06-99
100
AcDbLine
 10
305.1870465177349
 20
20.09753361071233
 30
0.0
 11
307.7666661537348
 21
17.01858688271232
 31
0.0
  0
LINE
  5
1D0
330
7C
100
AcDbEntity
  8
06-99
100
AcDbLine
 10
307.7666661537348
 20
17.01858688271232
 30
0.0
 11
307.7666661537348
 21
20.80153409471234
 31
0.0
  0
LINE
  5
1D1
330
7C
100
AcDbEntity
  8
06-99
100
AcDbLine
 10
307.7666661537348
 20
20.80153409471234
 30
0.0
 11
307.4326587657349
 21
20.80153409471234
 31
0.0
  0
LINE
  5
1D2
330
7C
100
AcDbEntity
  8
06-99
100
AcDbLine
 10
307.4326587657349
 20
20.80153409471234
 30
0.0
 11
307.4326587657349
 21
17.88274639871235
 31
0.0
  0
LINE
  5
1D3
330
7C
100
AcDbEntity
  8
06-99
100
AcDbLine
 10
307.4326587657349
 20
17.88274639871235
 30
0.0
 11
304.853024873735
 21
20.95568422271231
 31
0.0
  0
LINE
  5
1D4
330
7C
100
AcDbEntity
  8
06-99
100
AcDbLine
 10
304.853024873735
 20
20.95568422271231
 30
0.0
 11
304.853024873735
 21
17.12736016271231
 31
0.0
  0
LINE
  5
1D5
330
7C
100
AcDbEntity
  8
06-99
100
AcDbLine
 10
313.448423465735
 20
20.50862675471228
 30
0.0
 11
313.7824308537349
 21
20.50862675471228
 31
0.0
  0
LINE
  5
1D6
330
7C
100
AcDbEntity
  8
06-99
100
AcDbLine
 10
313.7824308537349
 20
20.50862675471228
 30
0.0
 11
313.9866159777348
 21
20.50030837871236
 31
0.0
  0
LINE
  5
1D7
330
7C
100
AcDbEntity
  8
06-99
100
AcDbLine
 10
313.9866159777348
 20
20.50030837871236
 30
0.0
 11
314.1604465137349
 21
20.47385993471232
 31
0.0
  0
LINE
  5
1D8
330
7C
100
AcDbEntity
  8
06-99
100
AcDbLine
 10
314.1604465137349
 20
20.47385993471232
 30
0.0
 11
314.3048954337349
 21
20.42705748671227
 31
0.0
  0
LINE
  5
1D9
330
7C
100
AcDbEntity
  8
06-99
100
AcDbLine
 10
314.3048954337349
 20
20.42705748671227
 30
0.0
 11
314.4209178897349
 21
20.35767353471232
 31
0.0
  0
LINE
  5
1DA
330
7C
100
AcDbEntity
  8
06-99
100
AcDbLine
 10
314.4209178897349
 20
20.35767353471232
 30
0.0
 11
314.509479725735
 21
20.26348057871229
 31
0.0
  0
LINE
  5
1DB
330
7C
100
AcDbEntity
  8
06-99
100
AcDbLine
 10
314.509479725735
 20
20.26348057871229
 30
0.0
 11
314.5715432217348
 21
20.14225111871241
 31
0.0
  0
LINE
  5
1DC
330
7C
100
AcDbEntity
  8
06-99
100
AcDbLine
 10
314.5715432217348
 20
20.14225111871241
 30
0.0
 11
314.6080777857349
 21
19.99175052671228
 31
0.0
  0
LINE
  5
1DD
330
7C
100
AcDbEntity
  8
06-99
100
AcDbLine
 10
314.6080777857349
 20
19.99175052671228
 30
0.0
 11
314.6200421337348
 21
19.80976199471234
 31
0.0
  0
LINE
  5
1DE
330
7C
100
AcDbEntity
  8
06-99
100
AcDbLine
 10
314.6200421337348
 20
19.80976199471234
 30
0.0
 11
314.6074469577349
 21
19.63100957471232
 31
0.0
  0
LINE
  5
1DF
330
7C
100
AcDbEntity
  8
06-99
100
AcDbLine
 10
314.6074469577349
 20
19.63100957471232
 30
0.0
 11
314.5693763097349
 21
19.48586211071233
 31
0.0
  0
LINE
  5
1E0
330
7C
100
AcDbEntity
  8
06-99
100
AcDbLine
 10
314.5693763097349
 20
19.48586211071233
 30
0.0
 11
314.5054167657349
 21
19.37130445871241
 31
0.0
  0
LINE
  5
1E1
330
7C
100
AcDbEntity
  8
06-99
100
AcDbLine
 10
314.5054167657349
 20
19.37130445871241
 30
0.0
 11
314.4151370817349
 21
19.28432860271238
 31
0.0
  0
LINE
  5
1E2
330
7C
100
AcDbEntity
  8
06-99
100
AcDbLine
 10
314.4151370817349
 20
19.28432860271238
 30
0.0
 11
314.298123833735
 21
19.22192296271237
 31
0.0
  0
LINE
  5
1E3
330
7C
100
AcDbEntity
  8
06-99
100
AcDbLine
 10
314.298123833735
 20
19.22192296271237
 30
0.0
 11
314.1539493417349
 21
19.18107239471232
 31
0.0
  0
LINE
  5
1E4
330
7C
100
AcDbEntity
  8
06-99
100
AcDbLine
 10
314.1539493417349
 20
19.18107239471232
 30
0.0
 11
313.9821894897348
 21
19.15877244671242
 31
0.0
  0
LINE
  5
1E5
330
7C
100
AcDbEntity
  8
06-99
100
AcDbLine
 10
313.9821894897348
 20
19.15877244671242
 30
0.0
 11
313.7824308537349
 21
19.15200797471237
 31
0.0
  0
LINE
  5
1E6
330
7C
100
AcDbEntity
  8
06-99
100
AcDbLine
 10
313.7824308537349
 20
19.15200797471237
 30
0.0
 11
313.448423465735
 21
19.15200797471237
 31
0.0
  0
LINE
  5
1E7
330
7C
100
AcDbEntity
  8
06-99
100
AcDbLine
 10
313.448423465735
 20
19.15200797471237
 30
0.0
 11
313.448423465735
 21
20.50862675471228
 31
0.0
  0
LINE
  5
1E8
330
7C
100
AcDbEntity
  8
06-99
100
AcDbLine
 10
315.3445997697348
 20
17.12736016271231
 30
0.0
 11
314.0239560057348
 21
18.87965422271236
 31
0.0
  0
LINE
  5
1E9
330
7C
100
AcDbEntity
  8
06-99
100
AcDbLine
 10
314.0239560057348
 20
18.87965422271236
 30
0.0
 11
314.212373993735
 21
18.8922529627124
 31
0.0
  0
LINE
  5
1EA
330
7C
100
AcDbEntity
  8
06-99
100
AcDbLine
 10
314.212373993735
 20
18.8922529627124
 30
0.0
 11
314.3829007017349
 21
18.92942191871231
 31
0.0
  0
LINE
  5
1EB
330
7C
100
AcDbEntity
  8
06-99
100
AcDbLine
 10
314.3829007017349
 20
18.92942191871231
 30
0.0
 11
314.5343992137349
 21
18.99023088671242
 31
0.0
  0
LINE
  5
1EC
330
7C
100
AcDbEntity
  8
06-99
100
AcDbLine
 10
314.5343992137349
 20
18.99023088671242
 30
0.0
 11
314.6657219217349
 21
19.07375679071236
 31
0.0
  0
LINE
  5
1ED
330
7C
100
AcDbEntity
  8
06-99
100
AcDbLine
 10
314.6657219217349
 20
19.07375679071236
 30
0.0
 11
314.7757283457349
 21
19.17905873471233
 31
0.0
  0
LINE
  5
1EE
330
7C
100
AcDbEntity
  8
06-99
100
AcDbLine
 10
314.7757283457349
 20
19.17905873471233
 30
0.0
 11
314.8632744417348
 21
19.30521720671237
 31
0.0
  0
LINE
  5
1EF
330
7C
100
AcDbEntity
  8
06-99
100
AcDbLine
 10
314.8632744417348
 20
19.30521720671237
 30
0.0
 11
314.9272232937349
 21
19.4512948747124
 31
0.0
  0
LINE
  5
1F0
330
7C
100
AcDbEntity
  8
06-99
100
AcDbLine
 10
314.9272232937349
 20
19.4512948747124
 30
0.0
 11
314.9664308577349
 21
19.61636153471238
 31
0.0
  0
LINE
  5
1F1
330
7C
100
AcDbEntity
  8
06-99
100
AcDbLine
 10
314.9664308577349
 20
19.61636153471238
 30
0.0
 11
314.9797530897347
 21
19.79949054671237
 31
0.0
  0
LINE
  5
1F2
330
7C
100
AcDbEntity
  8
06-99
100
AcDbLine
 10
314.9797530897347
 20
19.79949054671237
 30
0.0
 11
314.969937833735
 21
19.97455422671237
 31
0.0
  0
LINE
  5
1F3
330
7C
100
AcDbEntity
  8
06-99
100
AcDbLine
 10
314.969937833735
 20
19.97455422671237
 30
0.0
 11
314.940481373735
 21
20.13261762671238
 31
0.0
  0
LINE
  5
1F4
330
7C
100
AcDbEntity
  8
06-99
100
AcDbLine
 10
314.940481373735
 20
20.13261762671238
 30
0.0
 11
314.8913551977349
 21
20.27374846271237
 31
0.0
  0
LINE
  5
1F5
330
7C
100
AcDbEntity
  8
06-99
100
AcDbLine
 10
314.8913551977349
 20
20.27374846271237
 30
0.0
 11
314.822541485735
 21
20.39801445071225
 31
0.0
  0
LINE
  5
1F6
330
7C
100
AcDbEntity
  8
06-99
100
AcDbLine
 10
314.822541485735
 20
20.39801445071225
 30
0.0
 11
314.7340152897349
 21
20.50548687071239
 31
0.0
  0
LINE
  5
1F7
330
7C
100
AcDbEntity
  8
06-99
100
AcDbLine
 10
314.7340152897349
 20
20.50548687071239
 30
0.0
 11
314.625751661735
 21
20.59623700271237
 31
0.0
  0
LINE
  5
1F8
330
7C
100
AcDbEntity
  8
06-99
100
AcDbLine
 10
314.625751661735
 20
20.59623700271237
 30
0.0
 11
314.4977292177349
 21
20.67032899871231
 31
0.0
  0
LINE
  5
1F9
330
7C
100
AcDbEntity
  8
06-99
100
AcDbLine
 10
314.4977292177349
 20
20.67032899871231
 30
0.0
 11
314.3499230097348
 21
20.72783413871235
 31
0.0
  0
LINE
  5
1FA
330
7C
100
AcDbEntity
  8
06-99
100
AcDbLine
 10
314.3499230097348
 20
20.72783413871235
 30
0.0
 11
314.1823116537348
 21
20.76882726671238
 31
0.0
  0
LINE
  5
1FB
330
7C
100
AcDbEntity
  8
06-99
100
AcDbLine
 10
314.1823116537348
 20
20.76882726671238
 30
0.0
 11
313.9948737657348
 21
20.79336897071238
 31
0.0
  0
LINE
  5
1FC
330
7C
100
AcDbEntity
  8
06-99
100
AcDbLine
 10
313.9948737657348
 20
20.79336897071238
 30
0.0
 11
313.7875808337349
 21
20.80153409471234
 31
0.0
  0
LINE
  5
1FD
330
7C
100
AcDbEntity
  8
06-99
100
AcDbLine
 10
313.7875808337349
 20
20.80153409471234
 30
0.0
 11
313.7875808337349
 21
20.80153409471234
 31
0.0
  0
LINE
  5
1FE
330
7C
100
AcDbEntity
  8
06-99
100
AcDbLine
 10
313.7875808337349
 20
20.80153409471234
 30
0.0
 11
313.1144053857349
 21
20.80153409471234
 31
0.0
  0
LINE
  5
1FF
330
7C
100
AcDbEntity
  8
06-99
100
AcDbLine
 10
313.1144053857349
 20
20.80153409471234
 30
0.0
 11
313.1144053857349
 21
17.12736016271231
 31
0.0
  0
LINE
  5
200
330
7C
100
AcDbEntity
  8
06-99
100
AcDbLine
 10
313.1144053857349
 20
17.12736016271231
 30
0.0
 11
313.448423465735
 21
17.12736016271231
 31
0.0
  0
LINE
  5
201
330
7C
100
AcDbEntity
  8
06-99
100
AcDbLine
 10
313.448423465735
 20
17.12736016271231
 30
0.0
 11
313.448423465735
 21
18.87965422271236
 31
0.0
  0
LINE
  5
202
330
7C
100
AcDbEntity
  8
06-99
100
AcDbLine
 10
313.448423465735
 20
18.87965422271236
 30
0.0
 11
313.6488378777349
 21
18.87965422271236
 31
0.0
  0
LINE
  5
203
330
7C
100
AcDbEntity
  8
06-99
100
AcDbLine
 10
313.6488378777349
 20
18.87965422271236
 30
0.0
 11
314.9386387857348
 21
17.12736016271231
 31
0.0
  0
LINE
  5
204
330
7C
100
AcDbEntity
  8
06-99
100
AcDbLine
 10
314.9386387857348
 20
17.12736016271231
 30
0.0
 11
315.3445997697348
 21
17.12736016271231
 31
0.0
  0
TEXT
  5
205
330
7C
100
AcDbEntity
  8
06-99
100
AcDbText
 10
294.6083578687944
 20
10.63320974709819
 30
0.0
 40
1.4256
  1
GmbH & Co KG
 41
1.199203187251
 51
15.0
  7
ROMAND8
 72
     5
 11
315.0419578687945
 21
10.63320974709819
 31
0.0
100
AcDbText
  0
TEXT
  5
207
330
7C
100
AcDbEntity
  8
06-99
100
AcDbText
 10
294.7098146233783
 20
8.391016474674643
 30
0.0
 40
1.4256
  1
72774 Reutlingen
 50
0.5663244663116128
 41
1.087840993687879
 51
15.0
  7
ROMAND8
 72
     5
 11
314.9434146233783
 21
8.591016474674631
 31
0.0
100
AcDbText
  0
TEXT
  5
208
330
7C
100
AcDbEntity
  8
08-99
100
AcDbText
 10
282.4141179695723
 20
49.4500923918223
 30
0.0
 40
2.25
  1
Zul. Abw.
 51
15.0
  7
ROMANS8
100
AcDbText
  0
TEXT
  5
209
330
7C
100
AcDbEntity
  8
08-99
100
AcDbText
 10
332.2099260900184
 20
50.28616492075241
 30
0.0
 40
2.0
  1
Mat. Art.
 51
15.0
  7
ROMANS8
100
AcDbText
  0
TEXT
  5
20A
330
7C
100
AcDbEntity
  8
08-99
100
AcDbText
 10
364.4865307401076
 20
50.40431414472369
 30
0.0
 40
2.0
  1
Oberfläche:
 51
15.0
  7
ROMANS8
100
AcDbText
  0
TEXT
  5
20B
330
7C
100
AcDbEntity
  8
08-99
100
AcDbText
 10
393.7625376083154
 20
42.73764747805694
 30
0.0
 40
2.0
  1
Blech Dicke:
 51
15.0
  7
ROMANS8
100
AcDbText
  0
TEXT
  5
20C
330
7C
100
AcDbEntity
  8
08-99
100
AcDbText
 10
396.4380277982925
 20
50.28616492075252
 30
0.0
 40
2.0
  1
Maßstab:
 51
15.0
  7
ROMANS8
100
AcDbText
  0
LINE
  5
20D
330
7C
100
AcDbEntity
  8
01-99
100
AcDbLine
 10
323.9999997697348
 20
47.88888965037898
 30
0.0
 11
300.9999997697348
 21
47.88888965037898
 31
0.0
  0
LINE
  5
20E
330
7C
100
AcDbEntity
  8
01-99
100
AcDbLine
 10
323.9999997697348
 20
45.33333409471225
 30
0.0
 11
300.9999997697348
 21
45.33333409471225
 31
0.0
  0
LINE
  5
20F
330
7C
100
AcDbEntity
  8
01-99
100
AcDbLine
 10
323.9999997697349
 20
41.50000076137894
 30
0.0
 11
300.9999997697347
 21
41.50000076137897
 31
0.0
  0
ATTDEF
  5
210
330
7C
100
AcDbEntity
  8
06-99
100
AcDbText
 10
325.495446508912
 20
27.18783945866119
 30
0.0
 40
4.5
  1

 41
0.9
  7
ROMANS8
100
AcDbAttributeDefinition
280
     0
  3
Benennung/Teil
  2
TEILE
 70
     0
280
     0
  0
ATTDEF
  5
211
330
7C
100
AcDbEntity
  8
06-99
100
AcDbText
 10
325.495446508912
 20
19.89177436492207
 30
0.0
 40
4.5
  1

 41
0.9
  7
ROMANS8
100
AcDbAttributeDefinition
280
     0
  3
Benennung/Teil2
  2
TEILE2
 70
     0
280
     0
  0
ATTDEF
  5
212
330
7C
100
AcDbEntity
  8
06-99
100
AcDbText
 10
400.3473859814493
 20
46.33333409471231
 30
0.0
 40
3.375
  1

  7
ROMANS8
100
AcDbAttributeDefinition
280
     0
  3
Maßstab
  2
:
 70
     0
280
     0
  0
ATTDEF
  5
213
330
7C
100
AcDbEntity
  8
06-99
100
AcDbText
 10
301.9970675691022
 20
28.44168622941026
 30
0.0
 40
2.5
  1

 41
0.9
  7
ROMANS8
100
AcDbAttributeDefinition
280
     0
  3
Name
  2
NAME
 70
     0
280
     0
  0
ATTDEF
  5
214
330
7C
100
AcDbEntity
  8
06-99
100
AcDbText
 10
288.4931462216289
 20
28.46123593549021
 30
0.0
 40
2.5
  1

 50
359.9144597696142
 41
0.9542572414211148
  7
ROMANS8
 72
     5
 11
299.7397368901736
 21
28.44444522804565
 31
0.0
100
AcDbAttributeDefinition
280
     0
  3
Datum
  2
DATUM
 70
     0
280
     0
  0
ATTDEF
  5
215
330
7C
100
AcDbEntity
  8
06-99
100
AcDbText
 10
387.5063437368931
 20
8.492900561667681
 30
0.0
 40
2.99376
  1

  7
ROMANS8
100
AcDbAttributeDefinition
280
     0
  3
Ident-Nummer
  2
ID.NR
 70
     0
280
     0
  0
ATTDEF
  5
216
330
7C
100
AcDbEntity
  8
06-99
100
AcDbText
 10
325.7312660254454
 20
38.66666740582343
 30
0.0
 40
3.0
  1

 41
0.9
  7
ROMANS8
100
AcDbAttributeDefinition
280
     0
  3
Zuschnitts.Länge
  2
LÄNGE
 70
     0
280
     0
  0
ATTDEF
  5
217
330
7C
100
AcDbEntity
  8
06-99
100
AcDbText
 10
359.1808046815046
 20
38.6781046318238
 30
0.0
 40
3.0
  1

 41
0.9
  7
ROMANS8
100
AcDbAttributeDefinition
280
     0
  3
Zuschnitts Breite
  2
BREITE
 70
     0
280
     0
  0
ATTDEF
  5
218
330
7C
100
AcDbEntity
  8
06-99
100
AcDbText
 10
399.6090918964667
 20
38.66666742804574
 30
0.0
 40
3.09375
  1

  7
ROMANS8
100
AcDbAttributeDefinition
280
     0
  3
Blech.Dicke
  2
1.0
 70
     0
280
     0
  0
ATTDEF
  5
219
330
7C
100
AcDbEntity
  8
06-99
100
AcDbText
 10
373.1277853711375
 20
46.33333409471243
 30
0.0
 40
3.0
  1

  7
ROMANS8
 72
     1
 11
373.1277853711375
 21
46.33333409471243
 31
0.0
100
AcDbAttributeDefinition
280
     0
  3
Oberfläche
  2
IV
 70
     0
280
     0
  0
ATTDEF
  5
21A
330
7C
100
AcDbEntity
  8
06-99
100
AcDbText
 10
332.2747403058506
 20
46.33333409471219
 30
0.0
 40
3.375
  1
1.4301
  7
ROMANS8
100
AcDbAttributeDefinition
280
     0
  3
Mat.Art
  2
1.4301
 70
     0
280
     0
  0
ATTDEF
  5
21B
330
7C
100
AcDbEntity
  8
06-99
100
AcDbText
 10
355.0006336566149
 20
8.504397365733609
 30
0.0
 40
3.168
  1

 41
0.9
  7
ROMANS8
100
AcDbAttributeDefinition
280
     0
  3
Auftrags Nr.
  2
AUFTRAGS.NR.
 70
     0
280
     0
  0
ATTDEF
  5
21C
330
7C
100
AcDbEntity
  8
06-99
100
AcDbText
 10
325.4999997697348
 20
8.500000761378998
 30
0.0
 40
3.168
  1

 41
0.9
  7
ROMANS8
100
AcDbAttributeDefinition
280
     0
  3
Sonder-NR,WPS
  2
SONDER-NR
 70
     0
280
     0
  0
ATTDEF
  5
21D
330
7C
100
AcDbEntity
  8
06-99
100
AcDbText
 10
255.4997507647431
 20
7.601810830638839
 30
0.0
 40
1.5
  1

 41
0.9
  7
ROMANS8
100
AcDbAttributeDefinition
280
     0
  3
ERSETZT.Durch
  2
ERSETZT.DURCH
 70
     0
280
     0
  0
ATTDEF
  5
21E
330
7C
100
AcDbEntity
  8
06-99
100
AcDbText
 10
230.4994675499334
 20
7.597457159251405
 30
0.0
 40
1.5
  1

 41
0.9
  7
ROMANS8
100
AcDbAttributeDefinition
280
     0
  3
ERSETZT.Für
  2
ERSETZT.FÜR
 70
     0
280
     0
  0
ATTDEF
  5
21F
330
7C
100
AcDbEntity
  8
06-99
100
AcDbText
 10
309.0037152733153
 20
48.66851190138698
 30
0.0
 40
1.287
  1
DIN A3
  7
ROMANS8
 72
     1
 11
312.2518581304581
 21
48.66851190138698
 31
0.0
100
AcDbAttributeDefinition
280
     0
  3
Format
  2
FORMAT
 70
     0
280
     0
  0
ATTDEF
  5
220
330
7C
100
AcDbEntity
  8
06-99
100
AcDbText
 10
304.9914283411633
 20
38.39666742804565
 30
0.0
 40
2.34
  1
DIN 2768
  7
ROMANS8
 72
     1
 11
313.0142854840205
 21
38.39666742804565
 31
0.0
100
AcDbAttributeDefinition
280
     0
  3
Norm / Kanten
  2
NORM2
 70
     0
280
     0
  0
ATTDEF
  5
221
330
7C
100
AcDbEntity
  8
06-99
100
AcDbText
 10
301.8157140554491
 20
42.23000076137895
 30
0.0
 40
2.34
  1
DIN 6930-M
  7
ROMANS8
 72
     1
 11
312.5128569125919
 21
42.23000076137895
 31
0.0
100
AcDbAttributeDefinition
280
     0
  3
Norm / Fräsen
  2
NORM1
 70
     0
280
     0
  0
ENDBLK
  5
222
330
7C
100
AcDbEntity
  8
0
100
AcDbBlockEnd
  0
ENDSEC
  0
SECTION
  2
ENTITIES
  0
INSERT
  5
7B
330
2
100
AcDbEntity
  8
09-01
100
AcDbBlockReference
 66
     1
  2
DIN A3
 10
0.0
 20
0.0
 30
0.0
 41
2.0
 42
2.0
 43
2.0
  0
ATTRIB
  5
223
330
7B
100
AcDbEntity
  8
06-99
100
AcDbText
 10
650.9908930178239
 20
54.37567891732237
 30
0.0
 40
9.0
  1
Handtuchspender WP 170
 41
0.9
  7
ROMANS8
100
AcDbAttribute
280
     0
  2
TEILE
 70
     0
280
     0
  0
ATTRIB
  5
224
330
7B
100
AcDbEntity
  8
06-99
100
AcDbText
 10
650.9908930178239
 20
39.78354872984414
 30
0.0
 40
9.0
  1

 41
0.9
  7
ROMANS8
100
AcDbAttribute
280
     0
  2
TEILE2
 70
     0
280
     0
  0
ATTRIB
  5
225
330
7B
100
AcDbEntity
  8
06-99
100
AcDbText
 10
800.6947719628987
 20
92.66666818942463
 30
0.0
 40
6.75
  1
1:2
  7
ROMANS8
100
AcDbAttribute
280
     0
  2
:
 70
     0
280
     0
  0
ATTRIB
  5
226
330
7B
100
AcDbEntity
  8
06-99
100
AcDbText
 10
603.9941351382045
 20
56.88337245882053
 30
0.0
 40
5.0
  1
Pfrepper
 41
0.9
  7
ROMANS8
100
AcDbAttribute
280
     0
  2
NAME
 70
     0
280
     0
  0
ATTRIB
  5
227
330
7B
100
AcDbEntity
  8
06-99
100
AcDbText
 10
576.9862924432577
 20
56.92247187098042
 30
0.0
 40
5.0
  1
28.09.2000
 50
359.9144597696142
 41
0.5429394649464962
  7
ROMANS8
 72
     5
 11
599.4794737803472
 21
56.8888904560913
 31
0.0
100
AcDbAttribute
280
     0
  2
DATUM
 70
     0
280
     0
  0
ATTRIB
  5
228
330
7B
100
AcDbEntity
  8
06-99
100
AcDbText
 10
775.0126874737861
 20
16.98580112333536
 30
0.0
 40
5.98752
  1
727408
  7
ROMANS8
100
AcDbAttribute
280
     0
  2
ID.NR
 70
     0
280
     0
  0
ATTRIB
  5
229
330
7B
100
AcDbEntity
  8
06-99
100
AcDbText
 10
651.4625320508907
 20
77.33333481164686
 30
0.0
 40
6.0
  1

 41
0.9
  7
ROMANS8
100
AcDbAttribute
280
     0
  2
LÄNGE
 70
     0
280
     0
  0
ATTRIB
  5
22A
330
7B
100
AcDbEntity
  8
06-99
100
AcDbText
 10
718.3616093630091
 20
77.35620926364759
 30
0.0
 40
6.0
  1

 41
0.9
  7
ROMANS8
100
AcDbAttribute
280
     0
  2
BREITE
 70
     0
280
     0
  0
ATTRIB
  5
22B
330
7B
100
AcDbEntity
  8
06-99
100
AcDbText
 10
799.2181837929333
 20
77.33333485609148
 30
0.0
 40
6.187500000000001
  1

  7
ROMANS8
100
AcDbAttribute
280
     0
  2
1.0
 70
     0
280
     0
  0
ATTRIB
  5
22C
330
7B
100
AcDbEntity
  8
06-99
100
AcDbText
 10
746.255570742275
 20
92.66666818942486
 30
0.0
 40
6.0
  1

  7
ROMANS8
 72
     1
 11
746.255570742275
 21
92.66666818942486
 31
0.0
100
AcDbAttribute
280
     0
  2
IV
 70
     0
280
     0
  0
ATTRIB
  5
22D
330
7B
100
AcDbEntity
  8
06-99
100
AcDbText
 10
664.5494806117012
 20
92.66666818942439
 30
0.0
 40
6.75
  1
1.4301
  7
ROMANS8
100
AcDbAttribute
280
     0
  2
1.4301
 70
     0
280
     0
  0
ATTRIB
  5
22E
330
7B
100
AcDbEntity
  8
06-99
100
AcDbText
 10
710.0012673132298
 20
17.00879473146722
 30
0.0
 40
6.336
  1

 41
0.9000000000000001
  7
ROMANS8
100
AcDbAttribute
280
     0
  2
AUFTRAGS.NR.
 70
     0
280
     0
  0
ATTRIB
  5
22F
330
7B
100
AcDbEntity
  8
06-99
100
AcDbText
 10
650.9999995394696
 20
17.000001522758
 30
0.0
 40
6.336
  1

 41
0.9000000000000001
  7
ROMANS8
100
AcDbAttribute
280
     0
  2
SONDER-NR
 70
     0
280
     0
  0
ATTRIB
  5
230
330
7B
100
AcDbEntity
  8
06-99
100
AcDbText
 10
510.9995015294862
 20
15.20362166127768
 30
0.0
 40
3.0
  1

 41
0.9
  7
ROMANS8
100
AcDbAttribute
280
     0
  2
ERSETZT.DURCH
 70
     0
280
     0
  0
ATTRIB
  5
231
330
7B
100
AcDbEntity
  8
06-99
100
AcDbText
 10
460.9989350998667
 20
15.19491431850281
 30
0.0
 40
3.0
  1

 41
0.9
  7
ROMANS8
100
AcDbAttribute
280
     0
  2
ERSETZT.FÜR
 70
     0
280
     0
  0
ATTRIB
  5
232
330
7B
100
AcDbEntity
  8
06-99
100
AcDbText
 10
618.0074305466305
 20
97.33702380277396
 30
0.0
 40
2.574
  1
DIN A3
  7
ROMANS8
 72
     1
 11
624.5037162609162
 21
97.33702380277396
 31
0.0
100
AcDbAttribute
280
     0
  2
FORMAT
 70
     0
280
     0
  0
ATTRIB
  5
233
330
7B
100
AcDbEntity
  8
06-99
100
AcDbText
 10
609.9828566823267
 20
76.79333485609129
 30
0.0
 40
4.68
  1
DIN 2768
  7
ROMANS8
 72
     1
 11
626.028570968041
 21
76.79333485609129
 31
0.0
100
AcDbAttribute
280
     0
  2
NORM2
 70
     0
280
     0
  0
ATTRIB
  5
234
330
7B
100
AcDbEntity
  8
06-99
100
AcDbText
 10
603.6314281108981
 20
84.46000152275791
 30
0.0
 40
4.68
  1
DIN 6930-M
  7
ROMANS8
 72
     1
 11
625.0257138251838
 21
84.46000152275791
 31
0.0
100
AcDbAttribute
280
     0
  2
NORM1
 70
     0
280
     0
  0
SEQEND
  5
235
330
7B
100
AcDbEntity
  8
09-01
  0
DIMENSION
  5
236
330
2
100
AcDbEntity
  8
09-01
100
AcDbDimension
280
     0
  2
*D15
 10
56.83351526089291
 20
416.4326775619745
 30
0.0
 11
73.59635229992273
 21
420.9331558325131
 31
0.0
 70
   128
 71
     5
 42
2.800151081635249
 73
     0
 74
     0
 75
     0
  3
Wagner$0
100
AcDbAlignedDimension
 13
54.03336417925766
 23
428.9461461404455
 33
0.0
 14
56.83351526089291
 24
428.9461461404455
 34
0.0
100
AcDbRotatedDimension
1001
ACAD
1000
DSTYLE
1002
{
1070
    40
1040
2.0
1070
   271
1070
     2
1070
   272
1070
     2
1002
}
  0
DIMENSION
  5
247
330
2
100
AcDbEntity
  8
09-01
100
AcDbDimension
280
     0
  2
*D14
 10
34.78490862294619
 20
390.9461461404455
 30
0.0
 11
29.09382744968556
 21
464.9461461404455
 31
0.0
 71
     5
 42
148.0
 73
     0
 74
     0
 75
     0
  3
Wagner$0
100
AcDbAlignedDimension
 13
66.83336417925784
 23
538.9461461404455
 33
0.0
 14
66.83336417925784
 24
390.9461461404455
 34
0.0
 50
90.0
100
AcDbRotatedDimension
1001
ACAD
1000
DSTYLE
1002
{
1070
    40
1040
2.5
1070
   271
1070
     2
1070
   272
1070
     2
1002
}
  0
LINE
  5
254
330
2
100
AcDbEntity
  8
03-01
100
AcDbLine
 10
361.2261306791622
 20
466.1109768651154
 30
0.0
 11
56.83336417925785
 21
466.1109768651154
 31
0.0
  0
LINE
  5
259
330
2
100
AcDbEntity
  8
05-01
100
AcDbLine
 10
73.10884606765569
 20
454.9615294042921
 30
0.0
 11
52.13279803945624
 21
454.9615294042921
 31
0.0
  0
DIMENSION
  5
25E
330
2
100
AcDbEntity
  8
09-01
100
AcDbDimension
280
     0
  2
*D13
 10
46.51937650508577
 20
390.9461461404455
 30
0.0
 11
40.8261636810748
 21
409.9461461404455
 31
0.0
 71
     5
 42
38.0
 73
     0
 74
     0
 75
     0
  3
Wagner$0
100
AcDbAlignedDimension
 13
54.03336417925766
 23
428.9461461404455
 33
0.0
 14
66.83336417925784
 24
390.9461461404455
 34
0.0
 50
90.0
100
AcDbRotatedDimension
1001
ACAD
1000
DSTYLE
1002
{
1070
    40
1040
2.5
1070
   271
1070
     2
1070
   272
1070
     2
1002
}
  0
DIMENSION
  5
26B
330
2
100
AcDbEntity
  8
09-01
100
AcDbDimension
280
     0
  2
*D12
 10
46.51937650508578
 20
428.9461461404455
 30
0.0
 11
40.82829533182515
 21
454.9461461404455
 31
0.0
 71
     5
 42
52.0
 73
     0
 74
     0
 75
     0
  3
Wagner$0
100
AcDbAlignedDimension
 13
54.03336417925766
 23
480.9461461404455
 33
0.0
 14
54.03336417925766
 24
428.9461461404455
 34
0.0
 50
90.0
100
AcDbRotatedDimension
1001
ACAD
1000
DSTYLE
1002
{
1070
    40
1040
2.5
1070
   271
1070
     2
1070
   272
1070
     2
1002
}
  0
DIMENSION
  5
278
330
2
100
AcDbEntity
  8
09-01
100
AcDbDimension
280
     0
  2
*D11
 10
46.5193765050858
 20
480.9461461404455
 30
0.0
 11
40.82829533182515
 21
509.9461461404455
 31
0.0
 71
     5
 42
58.0
 73
     0
 74
     0
 75
     0
  3
Wagner$0
100
AcDbAlignedDimension
 13
66.83336417925784
 23
538.9461461404455
 33
0.0
 14
54.03336417925766
 24
480.9461461404455
 34
0.0
 50
90.0
100
AcDbRotatedDimension
1001
ACAD
1000
DSTYLE
1002
{
1070
    40
1040
2.5
1070
   271
1070
     2
1070
   272
1070
     2
1002
}
  0
DIMENSION
  5
285
330
2
100
AcDbEntity
  8
09-01
100
AcDbDimension
280
     0
  2
*D10
 10
41.25011463285772
 20
51.43882770476978
 30
0.0
 11
35.55903345959715
 21
199.4393920541985
 31
0.0
 71
     5
 42
296.0011286988575
 73
     0
 74
     0
 75
     0
  3
Wagner$0
100
AcDbAlignedDimension
 13
56.83336417925784
 23
347.4399564036273
 33
0.0
 14
56.83336417925784
 24
51.43882770476977
 34
0.0
 50
90.0
100
AcDbRotatedDimension
1001
ACAD
1000
DSTYLE
1002
{
1070
    40
1040
2.5
1070
   271
1070
     2
1070
   272
1070
     2
1002
}
  0
DIMENSION
  5
292
330
2
100
AcDbEntity
  8
09-01
100
AcDbDimension
280
     0
  2
*D9
 10
366.8333641792579
 20
551.6422245667631
 30
0.0
 11
216.8333641792578
 21
557.3354373907741
 31
0.0
 71
     5
 42
300.0
 73
     0
 74
     0
 75
     0
  3
Wagner$0
100
AcDbAlignedDimension
 13
66.83336417925784
 23
538.9461461404455
 33
0.0
 14
366.8333641792579
 24
538.9461461404455
 34
0.0
100
AcDbRotatedDimension
1001
ACAD
1000
DSTYLE
1002
{
1070
    40
1040
2.5
1070
   271
1070
     2
1070
   272
1070
     2
1002
}
  0
DIMENSION
  5
29F
330
2
100
AcDbEntity
  8
09-01
100
AcDbDimension
280
     0
  2
*D8
 10
404.7932551906151
 20
390.9461461404455
 30
0.0
 11
399.1021740173545
 21
464.9461461404456
 31
0.0
 71
     5
 42
148.0
 73
     0
 74
     0
 75
     0
  3
Wagner$0
100
AcDbAlignedDimension
 13
366.8333641792579
 23
538.9461461404455
 33
0.0
 14
366.8333641792579
 24
390.9461461404455
 34
0.0
 50
90.0
100
AcDbRotatedDimension
1001
ACAD
1000
DSTYLE
1002
{
1070
    40
1040
2.5
1070
   271
1070
     2
1070
   272
1070
     2
1002
}
  0
DIMENSION
  5
2AC
330
2
100
AcDbEntity
  8
09-01
100
AcDbDimension
280
     0
  2
*D7
 10
366.8333641792579
 20
565.6422245667632
 30
0.0
 11
211.8333641792578
 21
571.3354373907741
 31
0.0
 71
     5
 42
310.0
 73
     0
 74
     0
 75
     0
  3
Wagner$0
100
AcDbAlignedDimension
 13
56.83336417925784
 23
537.9461461404455
 33
0.0
 14
366.8333641792579
 24
538.9461461404455
 34
0.0
100
AcDbRotatedDimension
1001
ACAD
1000
DSTYLE
1002
{
1070
    40
1040
2.5
1070
   271
1070
     2
1070
   272
1070
     2
1002
}
  0
LINE
  5
2B9
330
2
100
AcDbEntity
  8
0
100
AcDbLine
 10
366.8333641792579
 20
50.43995640362732
 30
0.0
 11
66.83336417925784
 21
50.43995640362732
 31
0.0
  0
DIMENSION
  5
2BA
330
2
100
AcDbEntity
  8
09-01
100
AcDbDimension
280
     0
  2
*D6
 10
56.83336417925784
 20
36.09144670284241
 30
0.0
 11
61.83336417925784
 21
41.78252787610297
 31
0.0
 71
     5
 42
10.0
 73
     0
 74
     0
 75
     0
  3
Wagner$0
100
AcDbAlignedDimension
 13
66.83336417925784
 23
51.43995640362732
 33
0.0
 14
56.83336417925784
 24
51.43995640362732
 34
0.0
100
AcDbRotatedDimension
1001
ACAD
1000
DSTYLE
1002
{
1070
    40
1040
2.5
1070
   271
1070
     2
1070
   272
1070
     2
1002
}
  0
DIMENSION
  5
2C9
330
2
100
AcDbEntity
  8
09-01
100
AcDbDimension
280
     0
  2
*D5
 10
383.3941837963652
 20
50.43995640362731
 30
0.0
 11
377.7031026231047
 21
199.4399564036273
 31
0.0
 71
     5
 42
298.0
 73
     0
 74
     0
 75
     0
  3
Wagner$0
100
AcDbAlignedDimension
 13
366.8333641792579
 23
348.4399564036273
 33
0.0
 14
366.8333641792579
 24
50.43995640362732
 34
0.0
 50
90.0
100
AcDbRotatedDimension
1001
ACAD
1000
DSTYLE
1002
{
1070
    40
1040
2.5
1070
   271
1070
     2
1070
   272
1070
     2
1002
}
  0
DIMENSION
  5
2D6
330
2
100
AcDbEntity
  8
09-01
100
AcDbDimension
280
     0
  2
*D4
 10
366.8333641792579
 20
359.8607419411046
 30
0.0
 11
211.8333641792578
 21
365.5539547651155
 31
0.0
 71
     5
 42
310.0
 73
     0
 74
     0
 75
     0
  3
Wagner$0
100
AcDbAlignedDimension
 13
56.83336417925784
 23
347.4399564036273
 33
0.0
 14
366.8333641792579
 24
348.4399564036273
 34
0.0
100
AcDbRotatedDimension
1001
ACAD
1000
DSTYLE
1002
{
1070
    40
1040
2.5
1070
   271
1070
     2
1070
   272
1070
     2
1002
}
  0
LINE
  5
2E3
330
2
100
AcDbEntity
  8
03-01
100
AcDbLine
 10
359.940163012441
 20
325.9431688479444
 30
12.65320325994776
 11
359.9401630124409
 21
72.94316884794444
 31
12.65320325994776
  0
LINE
  5
2E4
330
2
100
AcDbEntity
  8
03-01
100
AcDbLine
 10
360.740163012441
 20
325.9431688479444
 30
12.65320325994776
 11
360.7401630124408
 21
72.94316884794444
 31
12.65320325994776
  0
LINE
  5
2E5
330
2
100
AcDbEntity
  8
03-01
100
AcDbLine
 10
299.540163012441
 20
325.9431688479444
 30
12.65320325994776
 11
299.5401630124409
 21
72.94316884794444
 31
12.65320325994776
  0
LINE
  5
2E6
330
2
100
AcDbEntity
  8
03-01
100
AcDbLine
 10
276.540163012441
 20
325.9431688479444
 30
12.65320325994776
 11
276.5401630124409
 21
72.94316884794444
 31
12.65320325994776
  0
LINE
  5
2E7
330
2
100
AcDbEntity
  8
03-01
100
AcDbLine
 10
275.7401630124409
 20
325.9431688479444
 30
12.65320325994776
 11
275.7401630124409
 21
72.94316884794444
 31
12.65320325994776
  0
LINE
  5
2E8
330
2
100
AcDbEntity
  8
03-01
100
AcDbLine
 10
360.7401630124408
 20
72.94316884794444
 30
12.65320325994776
 11
275.7401630124409
 21
72.94316884794444
 31
12.65320325994776
  0
LINE
  5
2E9
330
2
100
AcDbEntity
  8
03-01
100
AcDbLine
 10
360.740163012441
 20
325.9431688479444
 30
12.65320325994776
 11
275.7401630124409
 21
325.9431688479444
 31
12.65320325994776
  0
LINE
  5
2EA
330
2
100
AcDbEntity
  8
03-01
100
AcDbLine
 39
25.30640651989552
 10
276.5401630124406
 20
503.2413663051272
 30
0.0
 11
276.5401630124406
 21
452.0557256590721
 31
0.0
  0
LINE
  5
2EB
330
2
100
AcDbEntity
  8
03-01
100
AcDbLine
 39
25.30640651989552
 10
340.5401630124406
 20
504.0413663051272
 30
0.0
 11
275.7401630124406
 21
504.0413663051272
 31
0.0
  0
LINE
  5
2EC
330
2
100
AcDbEntity
  8
03-01
100
AcDbLine
 39
25.30640651989552
 10
275.7401630124406
 20
504.0413663051272
 30
0.0
 11
275.7401630124405
 21
451.8413663051271
 31
0.0
  0
LINE
  5
2ED
330
2
100
AcDbEntity
  8
03-01
100
AcDbLine
 39
25.30640651989552
 10
275.7401630124405
 20
451.8413663051271
 30
0.0
 11
299.5401630124405
 21
410.6185570849879
 31
0.0
  0
LINE
  5
2EE
330
2
100
AcDbEntity
  8
03-01
100
AcDbLine
 39
25.30640651989552
 10
299.5401630124405
 20
410.6185570849879
 30
0.0
 11
360.7401630124404
 21
410.6185570849879
 31
0.0
  0
LINE
  5
2EF
330
2
100
AcDbEntity
  8
03-01
100
AcDbLine
 39
25.30640651989552
 10
360.7401630124406
 20
420.6185570849879
 30
0.0
 11
360.7401630124404
 21
410.6185570849879
 31
0.0
  0
LINE
  5
2F0
330
2
100
AcDbEntity
  8
03-01
100
AcDbLine
 39
25.30640651989552
 10
359.9401630124407
 20
420.6185570849879
 30
0.0
 11
359.9401630124404
 21
411.4185570849879
 31
0.0
  0
LINE
  5
2F1
330
2
100
AcDbEntity
  8
03-01
100
AcDbLine
 39
25.30640651989552
 10
300.0020432277922
 20
411.4185570849879
 30
0.0
 11
359.9401630124404
 21
411.4185570849879
 31
0.0
  0
LINE
  5
2F2
330
2
100
AcDbEntity
  8
03-01
100
AcDbLine
 39
25.30640651989552
 10
276.5401630124406
 20
452.0557256590721
 30
0.0
 11
300.0020432277922
 21
411.4185570849879
 31
0.0
  0
LINE
  5
2F3
330
2
100
AcDbEntity
  8
03-01
100
AcDbLine
 39
25.30640651989552
 10
340.5401630124406
 20
503.2413663051272
 30
0.0
 11
276.5401630124406
 21
503.2413663051272
 31
0.0
  0
LINE
  5
2F4
330
2
100
AcDbEntity
  8
03-01
100
AcDbLine
 39
25.30640651989552
 10
340.5401630124406
 20
504.0413663051272
 30
0.0
 11
340.5401630124406
 21
503.2413663051272
 31
0.0
  0
LINE
  5
2F5
330
2
100
AcDbEntity
  8
03-01
100
AcDbLine
 39
25.30640651989552
 10
360.7401630124406
 20
420.6185570849879
 30
0.0
 11
359.9401630124407
 21
420.6185570849879
 31
0.0
  0
LINE
  5
2F6
330
2
100
AcDbEntity
  8
03-01
100
AcDbLine
 10
56.83336417925784
 20
71.7586168164958
 30
0.0
 11
362.0368453548376
 21
71.77683484871886
 31
0.0
  0
LINE
  5
2F7
330
2
100
AcDbEntity
  8
0
100
AcDbLine
 10
54.03336417925789
 20
75.44106596910467
 30
0.0
 11
56.83336417925784
 21
75.44106596910467
 31
0.0
  0
LINE
  5
2F8
330
2
100
AcDbEntity
  8
03-01
100
AcDbLine
 10
361.2261306791622
 20
404.6461461404454
 30
0.0
 11
361.2261306791622
 21
466.1109768651154
 31
0.0
  0
LINE
  5
2F9
330
2
100
AcDbEntity
  8
03-01
100
AcDbLine
 10
361.2261306791622
 20
404.6461461404454
 30
0.0
 11
56.83336417925786
 21
404.6461461404453
 31
0.0
  0
LINE
  5
2FA
330
2
100
AcDbEntity
  8
03-01
100
AcDbLine
 10
362.0368453548376
 20
327.1019492596782
 30
0.0
 11
362.0368453548376
 21
199.4221664869663
 31
0.0
  0
LINE
  5
2FB
330
2
100
AcDbEntity
  8
03-01
100
AcDbLine
 10
362.0368453548376
 20
71.74238371425452
 30
0.0
 11
362.0368453548376
 21
199.4221664869662
 31
0.0
  0
LINE
  5
2FC
330
2
100
AcDbEntity
  8
0
100
AcDbLine
 10
53.33336417925771
 20
190.9796032887689
 30
0.0
 11
56.83336417925784
 21
190.9796032887689
 31
0.0
  0
LINE
  5
2FD
330
2
100
AcDbEntity
  8
0
100
AcDbLine
 10
52.83336417925771
 20
191.4796032887689
 30
0.0
 11
53.33336417925771
 21
190.9796032887689
 31
0.0
  0
LINE
  5
2FE
330
2
100
AcDbEntity
  8
0
100
AcDbLine
 10
53.33336417925782
 20
207.9796032887688
 30
0.0
 11
56.83336417925784
 21
207.9796032887689
 31
0.0
  0
LINE
  5
2FF
330
2
100
AcDbEntity
  8
0
100
AcDbLine
 10
53.33336417925782
 20
207.9796032887688
 30
0.0
 11
52.83336417925783
 21
207.4796032887688
 31
0.0
  0
LINE
  5
300
330
2
100
AcDbEntity
  8
0
100
AcDbLine
 10
53.33336417925782
 20
207.9796032887688
 30
0.0
 11
53.33336417925771
 21
190.9796032887689
 31
0.0
  0
LINE
  5
301
330
2
100
AcDbEntity
  8
0
100
AcDbLine
 10
52.83336417925783
 20
207.4796032887688
 30
0.0
 11
52.83336417925771
 21
191.4796032887689
 31
0.0
  0
LINE
  5
302
330
2
100
AcDbEntity
  8
0
100
AcDbLine
 10
54.03336417925789
 20
323.4377181392925
 30
0.0
 11
56.83336417925784
 21
323.4377181392925
 31
0.0
  0
LINE
  5
303
330
2
100
AcDbEntity
  8
0
100
AcDbLine
 10
56.83336417925784
 20
347.4388277047699
 30
0.0
 11
66.83336417925784
 21
347.4388277047699
 31
0.0
  0
LINE
  5
304
330
2
100
AcDbEntity
  8
0
100
AcDbLine
 10
54.03336417925789
 20
323.4377181392925
 30
0.0
 11
54.03336417925789
 21
207.9796032887688
 31
0.0
  0
LINE
  5
305
330
2
100
AcDbEntity
  8
0
100
AcDbLine
 10
56.83336417925784
 20
51.43882770476977
 30
0.0
 11
56.83336417925784
 21
199.4397876048898
 31
0.0
  0
LINE
  5
306
330
2
100
AcDbEntity
  8
0
100
AcDbLine
 10
54.03336417925789
 20
75.44185707048734
 30
0.0
 11
54.03336417925789
 21
190.9796032887689
 31
0.0
  0
LINE
  5
307
330
2
100
AcDbEntity
  8
03-01
100
AcDbLine
 10
56.83336417925785
 20
327.1201672919015
 30
0.0
 11
362.0368453548376
 21
327.1019492596782
 31
0.0
  0
LINE
  5
308
330
2
100
AcDbEntity
  8
02-01
100
AcDbLine
 10
56.31865962787583
 20
513.9022215747572
 30
0.0
 11
50.35408573153993
 21
513.9022215747572
 31
0.0
  0
LINE
  5
309
330
2
100
AcDbEntity
  8
0
100
AcDbLine
 10
53.33336417925782
 20
505.5526326994104
 30
0.0
 11
53.33336417925782
 21
522.5526326994102
 31
0.0
  0
LINE
  5
30A
330
2
100
AcDbEntity
  8
0
100
AcDbLine
 10
52.83336417925783
 20
506.0526326994104
 30
0.0
 11
52.83336417925783
 21
522.0526326994102
 31
0.0
  0
LINE
  5
30B
330
2
100
AcDbEntity
  8
0
100
AcDbLine
 10
53.33336417925782
 20
505.5526326994104
 30
0.0
 11
56.81264262697595
 21
505.5526326994102
 31
0.0
  0
LINE
  5
30C
330
2
100
AcDbEntity
  8
0
100
AcDbLine
 10
53.33336417925782
 20
505.5526326994104
 30
0.0
 11
52.83336417925783
 21
506.0526326994104
 31
0.0
  0
LINE
  5
30D
330
2
100
AcDbEntity
  8
0
100
AcDbLine
 10
53.33336417925782
 20
522.5526326994102
 30
0.0
 11
56.81264262697595
 21
522.5526326994102
 31
0.0
  0
LINE
  5
30E
330
2
100
AcDbEntity
  8
05-01
100
AcDbLine
 10
69.81264262697596
 20
513.9022215747572
 30
0.0
 11
50.85733021484109
 21
513.9022215747572
 31
0.0
  0
LINE
  5
30F
330
2
100
AcDbEntity
  8
0
100
AcDbLine
 10
52.83336417925783
 20
522.0526326994102
 30
0.0
 11
53.33336417925782
 21
522.5526326994102
 31
0.0
  0
LINE
  5
310
330
2
100
AcDbEntity
  8
0
100
AcDbLine
 10
54.03336417925766
 20
428.9461461404455
 30
0.0
 11
54.03336417925766
 21
480.9461461404455
 31
0.0
  0
LINE
  5
311
330
2
100
AcDbEntity
  8
0
100
AcDbLine
 10
56.83351526089291
 20
428.9461461404455
 30
0.0
 11
54.03336417925766
 21
428.9461461404455
 31
0.0
  0
LINE
  5
312
330
2
100
AcDbEntity
  8
0
100
AcDbLine
 10
56.83336417925739
 20
480.9461461404455
 30
0.0
 11
54.03336417925766
 21
480.9461461404455
 31
0.0
  0
DIMENSION
  5
313
330
2
100
AcDbEntity
  8
09-01
100
AcDbDimension
280
     0
  2
*D3
 10
767.4606557608012
 20
485.7467132959091
 30
0.0
 11
754.960655760801
 21
491.4377944691696
 31
0.0
 71
     5
 42
25.00000000000023
 73
     0
 74
     0
 75
     0
  3
Wagner$0
100
AcDbAlignedDimension
 13
742.4606557608009
 23
485.9862386705843
 33
0.0
 14
767.4606557608012
 24
485.9862386705843
 34
0.0
100
AcDbRotatedDimension
1001
ACAD
1000
DSTYLE
1002
{
1070
    40
1040
2.5
1070
   271
1070
     2
1070
   272
1070
     2
1002
}
  0
DIMENSION
  5
320
330
2
100
AcDbEntity
  8
09-01
100
AcDbDimension
280
     0
  2
*D2
 10
469.4606557608012
 20
485.7467132959091
 30
0.0
 11
481.9606557608012
 21
491.4377944691696
 31
0.0
 71
     5
 42
24.99999999999989
 73
     0
 74
     0
 75
     0
  3
Wagner$0
100
AcDbAlignedDimension
 13
494.4606557608011
 23
485.9862386705843
 33
0.0
 14
469.4606557608012
 24
485.9862386705843
 34
0.0
100
AcDbRotatedDimension
1001
ACAD
1000
DSTYLE
1002
{
1070
    40
1040
2.5
1070
   271
1070
     2
1070
   272
1070
     2
1002
}
  0
LINE
  5
32D
330
2
100
AcDbEntity
  8
0
100
AcDbLine
 10
56.83336417925784
 20
537.9461461404455
 30
0.0
 11
66.83336417925705
 21
537.9461461404455
 31
0.0
  0
LINE
  5
32E
330
2
100
AcDbEntity
  8
0
100
AcDbLine
 10
56.83336417925784
 20
391.9461461404455
 30
0.0
 11
66.83336417925784
 21
391.9461461404456
 31
0.0
  0
LINE
  5
32F
330
2
100
AcDbEntity
  8
0
100
AcDbLine
 10
56.83336417925784
 20
537.9461461404455
 30
0.0
 11
56.83336417925784
 21
391.9461461404455
 31
0.0
  0
LINE
  5
330
330
2
100
AcDbEntity
  8
0
100
AcDbLine
 10
66.83336417925784
 20
538.9461461404455
 30
0.0
 11
66.83336417925784
 21
390.9461461404455
 31
0.0
  0
LINE
  5
331
330
2
100
AcDbEntity
  8
0
100
AcDbLine
 10
366.8333641792579
 20
538.9461461404455
 30
0.0
 11
366.8333641792579
 21
390.9461461404455
 31
0.0
  0
LINE
  5
332
330
2
100
AcDbEntity
  8
0
100
AcDbLine
 10
366.8333641792579
 20
538.9461461404455
 30
0.0
 11
66.83336417925784
 21
538.9461461404455
 31
0.0
  0
LINE
  5
333
330
2
100
AcDbEntity
  8
0
100
AcDbLine
 10
366.8333641792579
 20
390.9461461404455
 30
0.0
 11
66.83336417925784
 21
390.9461461404455
 31
0.0
  0
LINE
  5
334
330
2
100
AcDbEntity
  8
0
100
AcDbLine
 10
66.83336417925784
 20
51.43995640362732
 30
0.0
 11
56.83336417925784
 21
51.43995640362732
 31
0.0
  0
LINE
  5
335
330
2
100
AcDbEntity
  8
01-01
100
AcDbLine
 10
66.83336417925784
 20
347.4399564036273
 30
0.0
 11
56.83336417925784
 21
347.4399564036273
 31
0.0
  0
LINE
  5
339
330
2
100
AcDbEntity
  8
0
100
AcDbLine
 10
56.83336417925784
 20
347.4399564036273
 30
0.0
 11
56.83336417925784
 21
51.43995640362732
 31
0.0
  0
LINE
  5
33A
330
2
100
AcDbEntity
  8
0
100
AcDbLine
 10
66.83336417925784
 20
348.4399564036273
 30
0.0
 11
66.83336417925784
 21
50.43995640362732
 31
0.0
  0
LINE
  5
33B
330
2
100
AcDbEntity
  8
0
100
AcDbLine
 10
366.8333641792579
 20
348.4399564036273
 30
0.0
 11
66.83336417925784
 21
348.4399564036273
 31
0.0
  0
LINE
  5
33C
330
2
100
AcDbEntity
  8
0
100
AcDbLine
 10
366.8333641792579
 20
50.43995640362732
 30
0.0
 11
366.8333641792579
 21
348.4399564036273
 31
0.0
  0
LINE
  5
33D
330
2
100
AcDbEntity
  8
0
100
AcDbLine
 10
66.83336417925784
 20
50.43995640362732
 30
0.0
 11
366.8333641792579
 21
50.43995640362732
 31
0.0
  0
LINE
  5
33E
330
2
100
AcDbEntity
  8
03-01
100
AcDbLine
 10
754.446434072808
 20
466.1109768651154
 30
0.0
 11
754.446434072808
 21
465.3109768651152
 31
0.0
  0
LINE
  5
33F
330
2
100
AcDbEntity
  8
03-01
100
AcDbLine
 10
754.446434072808
 20
465.3109768651152
 30
0.0
 11
747.0101782535881
 21
465.3109768651152
 31
0.0
  0
LINE
  5
340
330
2
100
AcDbEntity
  8
03-01
100
AcDbLine
 10
754.446434072808
 20
466.1109768651154
 30
0.0
 11
746.210178253588
 21
466.1109768651154
 31
0.0
  0
LINE
  5
341
330
2
100
AcDbEntity
  8
03-01
100
AcDbLine
 10
747.0101782535881
 20
465.3109768651152
 30
0.0
 11
747.0101782535881
 21
403.8598017743138
 31
0.0
  0
LINE
  5
342
330
2
100
AcDbEntity
  8
03-01
100
AcDbLine
 10
746.210178253588
 20
466.1109768651154
 30
0.0
 11
746.210178253588
 21
404.6598017743136
 31
0.0
  0
LINE
  5
343
330
2
100
AcDbEntity
  8
0
100
AcDbLine
 10
767.4606557608012
 20
538.9461461404455
 30
0.0
 11
767.4606557608012
 21
390.9568501735956
 31
0.0
  0
LINE
  5
344
330
2
100
AcDbEntity
  8
0
100
AcDbLine
 10
766.5111381537078
 20
537.9461461404456
 30
0.0
 11
766.5111381537082
 21
391.9568501735955
 31
0.0
  0
LINE
  5
345
330
2
100
AcDbEntity
  8
0
100
AcDbLine
 10
619.4606557608008
 20
517.9095628074444
 30
0.0
 11
619.4606557608012
 21
509.9095628074444
 31
0.0
  0
LINE
  5
346
330
2
100
AcDbEntity
  8
0
100
AcDbLine
 10
617.4606557608012
 20
509.9095628074444
 30
0.0
 11
617.4606557608008
 21
517.9095628074444
 31
0.0
  0
LINE
  5
347
330
2
100
AcDbEntity
  8
0
100
AcDbLine
 10
619.4606557608012
 20
509.9095628074444
 30
0.0
 11
617.4606557608012
 21
509.9095628074444
 31
0.0
  0
LINE
  5
348
330
2
100
AcDbEntity
  8
0
100
AcDbLine
 10
617.4606557608008
 20
517.9095628074444
 30
0.0
 11
619.4606557608008
 21
517.9095628074444
 31
0.0
  0
CIRCLE
  5
349
330
2
100
AcDbEntity
  8
0
100
AcDbCircle
 10
618.4606557608012
 20
513.9095628074446
 30
0.0
 40
8.0
  0
CIRCLE
  5
34A
330
2
100
AcDbEntity
  8
0
100
AcDbCircle
 10
618.4606557608012
 20
513.9095628074446
 30
0.0
 40
8.5
  0
LINE
  5
34B
330
2
100
AcDbEntity
  8
0
100
AcDbLine
 10
469.4606557608012
 20
538.9461461404455
 30
0.0
 11
767.4606557608012
 21
538.9461461404455
 31
0.0
  0
LINE
  5
34C
330
2
100
AcDbEntity
  8
0
100
AcDbLine
 10
470.4606557608013
 20
537.9461461404455
 30
0.0
 11
766.5111381537078
 21
537.9461461404456
 31
0.0
  0
LWPOLYLINE
  5
34D
330
2
100
AcDbEntity
  8
EBENE_1
  6
Continuous
 62
     1
100
AcDbPolyline
 90
       10
 70
     1
 43
0.0135
 10
625.9763555721901
 20
405.7895886735956
 10
626.1610670721902
 20
406.1875371735955
 10
626.2554500721901
 20
406.3951581735955
 10
626.3577755721901
 20
406.6497231735955
 10
626.45206407219
 20
406.9588821735957
 10
626.4766340721901
 20
406.9588821735957
 10
626.4518570721902
 20
406.6497231735955
 10
626.4561590721901
 20
406.3951581735955
 10
626.47059507219
 20
406.1875371735955
 10
626.5020410721902
 20
405.7895886735956
  0
LWPOLYLINE
  5
351
330
2
100
AcDbEntity
  8
EBENE_1
  6
Continuous
 62
     1
100
AcDbPolyline
 90
       12
 70
     1
 43
0.0135
 10
625.6954250721901
 20
409.4043306735955
 10
627.99226557219
 20
409.4043306735955
 10
627.99226557219
 20
409.8001191735955
 10
626.1171650721901
 20
409.8001191735955
 10
626.1171650721901
 20
411.7984881735957
 10
627.99226557219
 20
411.7984881735957
 10
627.99226557219
 20
412.1942766735956
 10
626.1171650721901
 20
412.1942766735956
 10
626.1171650721901
 20
413.6476506735956
 10
627.99226557219
 20
413.6476506735956
 10
627.99226557219
 20
414.0434391735955
 10
625.6954250721901
 20
414.0434391735955
  0
LWPOLYLINE
  5
352
330
2
100
AcDbEntity
  8
EBENE_1
  6
Continuous
 62
     1
100
AcDbPolyline
 90
       29
 70
     1
 43
0.0135
 10
632.9742110721899
 20
409.4043306735955
 10
631.3067315721901
 20
411.6168231735955
 10
631.5446330721901
 20
411.6327306735954
 10
631.75994457219
 20
411.6796611735954
 10
631.95123057219
 20
411.7564401735956
 10
632.1170420721901
 20
411.8619021735956
 10
632.2559390721901
 20
411.9948591735954
 10
632.36647707219
 20
412.1541501735956
 10
632.44722057219
 20
412.3385916735956
 10
632.4967250721901
 20
412.5470091735956
 10
632.5135460721899
 20
412.7782326735956
 10
632.5011530721901
 20
412.9992726735954
 10
632.4639605721902
 20
413.1988476735954
 10
632.4019325721901
 20
413.3770431735954
 10
632.3150465721901
 20
413.5339446735954
 10
632.20327107219
 20
413.6696421735956
 10
632.0665745721901
 20
413.7842256735956
 10
631.9049300721901
 20
413.8777761735956
 10
631.71830607219
 20
413.9503836735955
 10
631.50667557219
 20
414.0021426735954
 10
631.27001157219
 20
414.0331296735956
 10
631.0082780721899
 20
414.0434391735955
 10
631.0082780721899
 20
414.0434391735955
 10
630.1583090721901
 20
414.0434391735955
 10
630.1583090721901
 20
409.4043306735955
 10
630.5800490721899
 20
409.4043306735955
 10
630.5800490721899
 20
411.6168231735955
 10
630.8330975721901
 20
411.6168231735955
 10
632.46163407219
 20
409.4043306735955
  0
LWPOLYLINE
  5
353
330
2
100
AcDbEntity
  8
EBENE_1
  6
Continuous
 62
     1
100
AcDbPolyline
 90
       19
 70
     1
 43
0.0135
 10
630.5800490721899
 20
413.6736066735955
 10
631.0017755721901
 20
413.6736066735955
 10
631.2595850721899
 20
413.6631036735956
 10
631.4790680721901
 20
413.6297091735955
 10
631.6614530721901
 20
413.5706151735954
 10
631.8079460721901
 20
413.4830091735955
 10
631.9197665721901
 20
413.3640786735955
 10
631.99812957219
 20
413.2110111735956
 10
632.04425907219
 20
413.0209851735954
 10
632.05936557219
 20
412.7912016735955
 10
632.04346257219
 20
412.5655041735954
 10
631.99539357219
 20
412.3822371735955
 10
631.9146365721901
 20
412.2375936735955
 10
631.80064707219
 20
412.1277756735956
 10
631.6529030721901
 20
412.0489806735955
 10
631.47086457219
 20
411.9974016735955
 10
631.2539960721901
 20
411.9692451735955
 10
631.0017755721901
 20
411.9607041735956
 10
630.5800490721899
 20
411.9607041735956
  0
LWPOLYLINE
  5
354
330
2
100
AcDbEntity
  8
EBENE_1
  6
Continuous
 62
     1
100
AcDbPolyline
 90
        9
 70
     1
 43
0.0135
 10
631.67454357219
 20
407.1210036735954
 10
631.8710720721901
 20
407.1210036735954
 10
632.06888757219
 20
407.0786046735955
 10
632.17099257219
 20
406.9586886735956
 10
632.1773015721901
 20
406.7721861735954
 10
632.0985740721901
 20
406.5882216735955
 10
631.95012357219
 20
406.4730441735956
 10
631.73865957219
 20
406.4331966735954
 10
631.5421310721899
 20
406.4331966735954
  0
LWPOLYLINE
  5
355
330
2
100
AcDbEntity
  8
EBENE_1
  6
Continuous
 62
     1
100
AcDbPolyline
 90
       23
 70
     1
 43
0.0135
 10
629.9342315721901
 20
404.5122276735956
 10
631.1722805721902
 20
404.5122276735956
 10
631.3955075721901
 20
405.6716841735954
 10
631.7864045721901
 20
404.5122276735956
 10
633.20131707219
 20
404.5122276735956
 10
632.5382240721901
 20
405.9419001735955
 10
632.7394370721902
 20
405.9907566735956
 10
632.9228615721899
 20
406.0854636735956
 10
633.08403357219
 20
406.2219351735955
 10
633.2184800721902
 20
406.3960716735955
 10
633.32172357219
 20
406.6037781735954
 10
633.3892910721901
 20
406.8409596735955
 10
633.4164215721902
 20
407.0567706735956
 10
633.41099457219
 20
407.2527411735955
 10
633.37302357219
 20
407.4281961735955
 10
633.3025220721902
 20
407.5824561735954
 10
633.1995125721901
 20
407.7148461735956
 10
633.0640130721901
 20
407.8246821735954
 10
632.89603257219
 20
407.9112936735955
 10
632.69559807219
 20
407.9739966735956
 10
632.46271407219
 20
408.0121161735955
 10
632.1974120721902
 20
408.0249726735956
 10
630.61054107219
 20
408.0249726735956
  0
LWPOLYLINE
  5
356
330
2
100
AcDbEntity
  8
EBENE_1
  6
Continuous
 62
     1
100
AcDbPolyline
 90
        8
 70
     1
 43
0.0135
 10
619.7272730721902
 20
409.4043306735955
 10
620.1490175721901
 20
409.4043306735955
 10
620.1490175721901
 20
413.1545496735955
 10
623.4061130721902
 20
409.2669906735955
 10
623.4061130721902
 20
414.0434391735955
 10
622.98438657219
 20
414.0434391735955
 10
622.98438657219
 20
410.3581011735955
 10
619.7272730721902
 20
414.2380731735955
  0
LWPOLYLINE
  5
357
330
2
100
AcDbEntity
  8
EBENE_1
  6
Continuous
 62
     1
100
AcDbPolyline
 90
        7
 70
     1
 43
0.0135
 10
607.7703995721901
 20
409.4043306735955
 10
608.1997085721901
 20
409.4043306735955
 10
608.8160825721902
 20
410.9744931735955
 10
610.7106545721901
 20
410.9744931735955
 10
611.30109507219
 20
409.4043306735955
 10
611.76176007219
 20
409.4043306735955
 10
609.80879607219
 20
414.2251041735954
  0
SOLID
  5
358
330
2
100
AcDbEntity
  8
EBENE_1
 62
     1
100
AcDbTrace
 10
608.9588270721901
 20
411.3378231735955
 30
0.0
 11
609.78284007219
 21
413.3556861735954
 31
0.0
 12
608.9588270721901
 22
411.3378231735955
 32
0.0
 13
610.57441707219
 23
411.3378231735955
 33
0.0
  0
LWPOLYLINE
  5
359
330
2
100
AcDbEntity
  8
EBENE_1
  6
Continuous
 62
     1
100
AcDbPolyline
 90
        3
 70
     1
 43
0.0135
 10
608.9588270721901
 20
411.3378231735955
 10
609.78284007219
 20
413.3556861735954
 10
610.57441707219
 20
411.3378231735955
  0
LWPOLYLINE
  5
35A
330
2
100
AcDbEntity
  8
EBENE_1
  6
Continuous
 62
     1
100
AcDbPolyline
 90
      133
 70
     1
 43
0.0135
 10
617.09408457219
 20
412.8755496735955
 10
617.3990180721901
 20
413.1415626735955
 10
617.2901855721899
 20
413.3170806735955
 10
617.1657065721902
 20
413.4756021735955
 10
617.0260130721901
 20
413.6171856735955
 10
616.8715550721899
 20
413.7418986735954
 10
616.70276457219
 20
413.8497906735954
 10
616.52007807219
 20
413.9409201735955
 10
616.32394107219
 20
414.0153546735955
 10
616.1147855721901
 20
414.0731436735955
 10
615.89305257219
 20
414.1143456735957
 10
615.6591830721899
 20
414.1390281735955
 10
615.4136135721901
 20
414.1472406735955
 10
615.2104250721899
 20
414.1395861735955
 10
615.01378407219
 20
414.1169556735954
 10
614.8241090721901
 20
414.0798396735956
 10
614.6418230721901
 20
414.0287376735956
 10
614.4673445721901
 20
413.9641491735956
 10
614.30108307219
 20
413.8865691735955
 10
614.1434705721901
 20
413.7964926735953
 10
613.99491657219
 20
413.6944146735955
 10
613.8558395721902
 20
413.5808301735956
 10
613.7266670721901
 20
413.4562431735956
 10
613.6078040721902
 20
413.3211396735956
 10
613.4996780721901
 20
413.1760281735956
 10
613.4027075721901
 20
413.0213946735955
 10
613.3173065721901
 20
412.8577386735956
 10
613.2438980721901
 20
412.6855551735955
 10
613.18289607219
 20
412.5053481735954
 10
613.1347190721901
 20
412.3176036735954
 10
613.0997945721901
 20
412.1228256735953
 10
613.07852757219
 20
411.9215046735956
 10
613.0713500721902
 20
411.7141401735955
 10
613.07843757219
 20
411.5006241735955
 10
613.0994615721902
 20
411.2943936735955
 10
613.1340440721901
 20
411.0958491735956
 10
613.1818070721902
 20
410.9053866735953
 10
613.24237707219
 20
410.7234021735956
 10
613.3153805721899
 20
410.5502916735955
 10
613.4004440721901
 20
410.3864466735954
 10
613.4971895721901
 20
410.2322676735956
 10
613.6052435721901
 20
410.0881461735956
 10
613.7242370721901
 20
409.9544826735955
 10
613.85378307219
 20
409.8316686735954
 10
613.99352157219
 20
409.7201046735954
 10
614.1430655721901
 20
409.6201821735955
 10
614.30204607219
 20
409.5322971735955
 10
614.4700850721902
 20
409.4568501735955
 10
614.6468135721899
 20
409.3942326735955
 10
614.8318490721901
 20
409.3448406735957
 10
615.0248270721899
 20
409.3090701735955
 10
615.2253605721901
 20
409.2873171735956
 10
615.4330850721899
 20
409.2799776735954
 10
615.6401525721901
 20
409.2866106735955
 10
615.83880507219
 20
409.3063566735954
 10
616.02880407219
 20
409.3389726735955
 10
616.2099110721901
 20
409.3842156735955
 10
616.3818920721901
 20
409.4418471735956
 10
616.5445040721902
 20
409.5116286735954
 10
616.69751307219
 20
409.5933171735955
 10
616.8406715721901
 20
409.6866786735954
 10
616.9737545721901
 20
409.7914701735954
 10
617.09651007219
 20
409.9074441735955
 10
617.2087085721901
 20
410.0343756735954
 10
617.3101115721902
 20
410.1720081735955
 10
617.40047607219
 20
410.3201166735956
 10
617.47956357219
 20
410.4784491735954
 10
617.5471400721901
 20
410.6467716735954
 10
617.60296707219
 20
410.8248411735954
 10
617.6467970721901
 20
411.0124191735954
 10
617.67840507219
 20
411.2092671735955
 10
617.6975435721901
 20
411.4151466735955
 10
617.7039740721902
 20
411.6298101735954
 10
617.7039740721902
 20
411.6298101735954
 10
617.7039740721902
 20
411.6946866735955
 10
615.6407060721901
 20
411.6946866735955
 10
615.6407060721901
 20
411.3313386735954
 10
617.2433090721901
 20
411.3313386735954
 10
617.2297505721899
 20
411.1261071735955
 10
617.19524007219
 20
410.9308476735956
 10
617.1406685721901
 20
410.7463971735955
 10
617.0669270721901
 20
410.5735971735955
 10
616.9749155721902
 20
410.4132756735955
 10
616.8655295721901
 20
410.2662831735954
 10
616.7396510721901
 20
410.1334431735955
 10
616.5981845721901
 20
410.0156061735955
 10
616.4420210721901
 20
409.9135956735954
 10
616.27205157219
 20
409.8282576735956
 10
616.08917157219
 20
409.7604246735955
 10
615.8942765721901
 20
409.7109381735956
 10
615.6882575721901
 20
409.6806306735955
 10
615.4720100721902
 20
409.6703436735954
 10
615.2641055721901
 20
409.6803831735954
 10
615.0642380721901
 20
409.7099076735954
 10
614.8731545721901
 20
409.7580216735956
 10
614.6915975721899
 20
409.8238341735955
 10
614.52030057219
 20
409.9064496735955
 10
614.3600105721902
 20
410.0049726735955
 10
614.21146557219
 20
410.1185166735954
 10
614.07541257219
 20
410.2461816735957
 10
613.9525895721901
 20
410.3870766735954
 10
613.8437345721899
 20
410.5403106735955
 10
613.7495945721902
 20
410.7049836735956
 10
613.6709075721901
 20
410.8802091735954
 10
613.6084160721902
 20
411.0650916735954
 10
613.5628625721901
 20
411.2587311735956
 10
613.53498507219
 20
411.4602456735956
 10
613.5255305721901
 20
411.6687351735954
 10
613.5335945721902
 20
411.8813286735955
 10
613.5574625721901
 20
412.0858896735954
 10
613.59663057219
 20
412.2817881735955
 10
613.65059907219
 20
412.4683986735954
 10
613.71887307219
 20
412.6450956735955
 10
613.80094857219
 20
412.8112581735955
 10
613.89632607219
 20
412.9662516735955
 10
614.0045105721902
 20
413.1094596735954
 10
614.12499807219
 20
413.2402476735956
 10
614.2572980721902
 20
413.3579946735954
 10
614.4008975721901
 20
413.4620706735955
 10
614.5553105721901
 20
413.5518546735955
 10
614.7200285721901
 20
413.6267166735954
 10
614.8945565721901
 20
413.6860311735954
 10
615.0783995721901
 20
413.7291726735955
 10
615.2710490721902
 20
413.7555201735954
 10
615.4720100721902
 20
413.7644391735955
 10
615.69638457219
 20
413.7531801735955
 10
615.9107195721901
 20
413.7195471735954
 10
616.1145875721902
 20
413.6637516735955
 10
616.30756107219
 20
413.5860051735954
 10
616.4892125721901
 20
413.4865281735954
 10
616.6591190721901
 20
413.3655276735956
 10
616.81685307219
 20
413.2232241735955
 10
616.9619825721902
 20
413.0598246735955
  0
LWPOLYLINE
  5
35B
330
2
100
AcDbEntity
  8
EBENE_1
  6
Continuous
 62
     1
100
AcDbPolyline
 90
       12
 70
     1
 43
0.0135
 10
613.33358757219
 20
404.5122276735956
 10
615.7114505721901
 20
404.5122276735956
 10
615.89495607219
 20
405.4653411735956
 10
614.7551465721901
 20
405.4653411735956
 10
614.8260845721901
 20
405.8338101735953
 10
615.8332340721901
 20
405.8338101735953
 10
616.0063220721899
 20
406.7328696735954
 10
614.9991725721902
 20
406.7328696735954
 10
615.0644585721902
 20
407.0718771735953
 10
616.1747885721902
 20
407.0718771735953
 10
616.3582805721901
 20
408.0249726735956
 10
614.0098970721901
 20
408.0249726735956
  0
LWPOLYLINE
  5
35C
330
2
100
AcDbEntity
  8
EBENE_1
  6
Continuous
 62
     1
100
AcDbPolyline
 90
       34
 70
     1
 43
0.0135
 10
620.4099275721901
 20
406.2907176735955
 10
620.4541490721899
 20
406.2907176735955
 10
620.43614907219
 20
406.0705416735955
 10
620.4356135721901
 20
405.8787516735954
 10
620.44078857219
 20
405.7109826735955
 10
620.47529907219
 20
404.5122276735956
 10
621.5758010721901
 20
404.5122276735956
 10
623.2789070721901
 20
408.0249726735956
 10
622.0113785721901
 20
408.0249726735956
 10
621.4382810721901
 20
406.4774001735955
 10
621.3750200721902
 20
406.2999966735954
 10
621.30056307219
 20
406.0701816735955
 10
621.22630407219
 20
405.7846836735955
 10
621.1968425721902
 20
405.7846836735955
 10
621.22427457219
 20
406.0339701735954
 10
621.2300300721901
 20
406.2330366735955
 10
621.22871607219
 20
406.3840701735956
 10
621.21055407219
 20
408.0249726735956
 10
620.3213270721901
 20
408.0249726735956
 10
619.6713245721901
 20
406.3840701735956
 10
619.61185257219
 20
406.2330366735955
 10
619.54095057219
 20
406.0339701735954
 10
619.4723840721901
 20
405.7846836735955
 10
619.4429225721901
 20
405.7846836735955
 10
619.47859857219
 20
406.0701816735955
 10
619.4926385721901
 20
406.2999966735954
 10
619.49768307219
 20
406.4774001735955
 10
619.5205025721902
 20
408.0249726735956
 10
618.25215957219
 20
408.0249726735956
 10
618.6034610721901
 20
404.5122276735956
 10
619.70395857219
 20
404.5122276735956
 10
620.2000565721901
 20
405.7109826735955
 10
620.26984707219
 20
405.8787516735954
 10
620.3431610721899
 20
406.0705416735955
  0
LWPOLYLINE
  5
35D
330
2
100
AcDbEntity
  8
EBENE_1
  6
Continuous
 62
     1
100
AcDbPolyline
 90
        8
 70
     1
 43
0.0135
 10
624.0543065721899
 20
404.5122276735956
 10
625.4110925721902
 20
404.5122276735956
 10
625.6043090721901
 20
404.9543976735954
 10
626.5574225721902
 20
404.9543976735954
 10
626.5852910721901
 20
404.5122276735956
 10
627.9412625721899
 20
404.5122276735956
 10
627.3893375721899
 20
408.0249726735956
 10
625.98423957219
 20
408.0249726735956
  0
SOLID
  5
35E
330
2
100
AcDbEntity
  8
EBENE_1
 62
     1
100
AcDbTrace
 10
595.8709820721901
 20
405.3046686735954
 30
0.0
 11
611.59983207219
 21
405.3046686735954
 31
0.0
 12
595.71495357219
 22
404.5113231735954
 32
0.0
 13
611.4437990721901
 23
404.5113231735954
 33
0.0
  0
LWPOLYLINE
  5
35F
330
2
100
AcDbEntity
  8
EBENE_1
  6
Continuous
 62
     1
100
AcDbPolyline
 90
        4
 70
     1
 43
0.0135
 10
595.8709820721901
 20
405.3046686735954
 10
611.59983207219
 20
405.3046686735954
 10
611.4437990721901
 20
404.5113231735954
 10
595.71495357219
 20
404.5113231735954
  0
LWPOLYLINE
  5
360
330
2
100
AcDbEntity
  8
EBENE_1
  6
Continuous
 62
     1
100
AcDbPolyline
 90
       10
 70
     1
 43
0.0135
 10
602.6727500721902
 20
409.2799776735954
 10
603.90550257219
 20
413.1610341735955
 10
605.1901805721899
 20
409.2799776735954
 10
606.74087607219
 20
414.0434391735955
 10
606.3061670721899
 20
414.0434391735955
 10
605.1901805721899
 20
410.3710881735953
 10
603.90550257219
 20
414.2251041735954
 10
602.6727500721902
 20
410.3386476735955
 10
601.5113450721901
 20
414.0434391735955
 10
601.0701470721901
 20
414.0434391735955
  0
LINE
  5
361
330
2
100
AcDbEntity
  8
03-01
100
AcDbLine
 10
489.9529904577482
 20
465.3109768651152
 30
0.0
 11
489.9529904577482
 21
465.1698981502026
 31
0.0
  0
LINE
  5
362
330
2
100
AcDbEntity
  8
03-01
100
AcDbLine
 10
490.7529904577484
 20
466.1109768651154
 30
0.0
 11
490.7529904577484
 21
465.141782383865
 31
0.0
  0
LINE
  5
363
330
2
100
AcDbEntity
  8
03-01
100
AcDbLine
 10
482.5167346385283
 20
466.1109768651154
 30
0.0
 11
482.5167346385283
 21
465.3109768651152
 31
0.0
  0
LINE
  5
364
330
2
100
AcDbEntity
  8
03-01
100
AcDbLine
 10
482.5167346385283
 20
465.3109768651152
 30
0.0
 11
489.9529904577482
 21
465.3109768651152
 31
0.0
  0
LINE
  5
365
330
2
100
AcDbEntity
  8
03-01
100
AcDbLine
 10
482.5167346385283
 20
466.1109768651154
 30
0.0
 11
490.7529904577484
 21
466.1109768651154
 31
0.0
  0
LINE
  5
366
330
2
100
AcDbEntity
  8
03-01
100
AcDbLine
 10
490.7529904577484
 20
465.141782383865
 30
0.0
 11
490.7529904577484
 21
404.6598017743138
 31
0.0
  0
LINE
  5
367
330
2
100
AcDbEntity
  8
03-01
100
AcDbLine
 10
489.9529904577484
 20
465.141782383865
 30
0.0
 11
489.9529904577484
 21
403.8598017743138
 31
0.0
  0
LINE
  5
368
330
2
100
AcDbEntity
  8
0
100
AcDbLine
 10
469.4606557608012
 20
390.9568501735956
 30
0.0
 11
767.4606557608012
 21
390.9568501735956
 31
0.0
  0
LINE
  5
369
330
2
100
AcDbEntity
  8
0
100
AcDbLine
 10
470.4606557608013
 20
391.9568501735956
 30
0.0
 11
766.5111381537082
 21
391.9568501735955
 31
0.0
  0
LINE
  5
36A
330
2
100
AcDbEntity
  8
0
100
AcDbLine
 10
471.4539503578683
 20
391.9598017743138
 30
0.0
 11
618.513886263577
 21
391.9598017743138
 31
0.0
  0
LINE
  5
36B
330
2
100
AcDbEntity
  8
0
100
AcDbLine
 10
469.4606557608012
 20
538.9461461404455
 30
0.0
 11
469.4606557608012
 21
390.9568501735956
 31
0.0
  0
LINE
  5
36C
330
2
100
AcDbEntity
  8
0
100
AcDbLine
 10
470.4606557608013
 20
537.9461461404455
 30
0.0
 11
470.4606557608013
 21
391.9568501735956
 31
0.0
  0
LINE
  5
36D
330
2
100
AcDbEntity
  8
0
100
AcDbLine
 10
470.4539503578678
 20
536.409097741164
 30
0.0
 11
470.4539503578683
 21
392.4098017743138
 31
0.0
  0
LINE
  5
36E
330
2
100
AcDbEntity
  8
03-01
100
AcDbLine
 10
489.9529904577484
 20
403.8598017743138
 30
0.0
 11
747.0101782535881
 21
403.8598017743138
 31
0.0
  0
LINE
  5
36F
330
2
100
AcDbEntity
  8
03-01
100
AcDbLine
 10
490.7529904577484
 20
404.6598017743138
 30
0.0
 11
746.210178253588
 21
404.6598017743136
 31
0.0
  0
DIMENSION
  5
370
330
2
100
AcDbEntity
  8
09-01
100
AcDbDimension
280
     0
  2
*D1
 10
767.4606557608012
 20
374.8267519753462
 30
0.0
 11
618.4606557608012
 21
380.5178331486068
 31
0.0
 71
     5
 42
297.9999999999999
 73
     0
 74
     0
 75
     0
  3
Wagner$0
100
AcDbAlignedDimension
 13
469.4606557608012
 23
390.9568501735956
 33
0.0
 14
767.4606557608012
 24
390.9568501735956
 34
0.0
100
AcDbRotatedDimension
1001
ACAD
1000
DSTYLE
1002
{
1070
    40
1040
2.5
1070
   271
1070
     2
1070
   272
1070
     2
1002
}
  0
LWPOLYLINE
  5
37D
330
2
100
AcDbEntity
  8
0
100
AcDbPolyline
 90
        9
 70
     0
 43
0.0
 10
500.4606557608012
 20
429.9615294042921
 10
736.4606557608011
 20
429.9615294042921
 42
0.4142135623730951
 10
741.4606557608011
 20
434.9615294042921
 10
741.4606557608011
 20
474.9615294042921
 42
0.4142135623730951
 10
736.4606557608011
 20
479.9615294042921
 10
500.4606557608012
 20
479.9615294042921
 42
0.4142135623730951
 10
495.4606557608011
 20
474.9615294042921
 10
495.4606557608011
 20
434.9615294042921
 42
0.4142135623730951
 10
500.4606557608012
 20
429.9615294042921
 42
0.4142135623730951
  0
LWPOLYLINE
  5
37E
330
2
100
AcDbEntity
  8
0
100
AcDbPolyline
 90
        8
 70
     1
 43
0.0
 10
500.4606557608012
 20
428.9615294042921
 10
736.4606557608011
 20
428.9615294042921
 42
0.4142135623730951
 10
742.4606557608012
 20
434.9615294042921
 10
742.4606557608012
 20
474.9615294042921
 42
0.4142135623730951
 10
736.4606557608011
 20
480.9615294042921
 10
500.4606557608012
 20
480.9615294042921
 42
0.4142135623730951
 10
494.4606557608011
 20
474.9615294042921
 10
494.4606557608011
 20
434.9615294042921
 42
0.4142135623730951
  0
DIMENSION
  5
37F
330
2
100
AcDbEntity
  8
09-01
100
AcDbDimension
280
     0
  2
*D0
 10
742.4606557608009
 20
485.9862386705843
 30
0.0
 11
618.460655760801
 21
491.6773198438447
 31
0.0
 71
     5
 42
247.9999999999998
 73
     0
 74
     0
 75
     0
  3
Wagner$0
100
AcDbAlignedDimension
 13
494.4606557608011
 23
474.9615294042921
 33
0.0
 14
742.4606557608009
 24
474.9615294042921
 34
0.0
100
AcDbRotatedDimension
1001
ACAD
1000
DSTYLE
1002
{
1070
    40
1040
2.5
1070
   271
1070
     2
1070
   272
1070
     2
1002
}
  0
ENDSEC
  0
SECTION
  2
OBJECTS
  0
DICTIONARY
  5
B
330
0
100
AcDbDictionary
281
     1
  3
ACAD_COLOR
350
4E
  3
ACAD_GROUP
350
3B
  3
ACAD_LAYOUT
350
18
  3
ACAD_MATERIAL
350
D
  3
ACAD_MLEADERSTYLE
350
51
  3
ACAD_MLINESTYLE
350
3C
  3
ACAD_PLOTSETTINGS
350
3D
  3
ACAD_PLOTSTYLENAME
350
A
  3
ACAD_SCALELIST
350
4F
  3
ACAD_TABLESTYLE
350
50
  3
ACAD_VISUALSTYLE
350
31
  3
ACDB_RECOMPOSE_DATA
350
398
  3
AcDbVariableDictionary
350
38E
  0
DICTIONARY
  5
32
330
2E
100
AcDbDictionary
280
     1
281
     1
  0
DICTIONARY
  5
21
330
20
100
AcDbDictionary
280
     1
281
     1
  3
ACAD_LAYERFILTERS
360
22
  3
ACAD_LAYERSTATES
360
23
  3
ACLYDICTIONARY
360
24
  0
DICTIONARY
  5
7
330
6
100
AcDbDictionary
280
     1
281
     1
  3
ADSK_XREC_LAYER_RECONCILED
360
8
  0
DICTIONARY
  5
25B
330
25A
100
AcDbDictionary
280
     1
281
     1
  3
ADSK_XREC_LAYER_RECONCILED
360
25C
  0
DICTIONARY
  5
337
330
336
100
AcDbDictionary
280
     1
281
     1
  3
ADSK_XREC_LAYER_RECONCILED
360
338
  0
DICTIONARY
  5
87
330
86
100
AcDbDictionary
280
     1
281
     1
  3
ADSK_XREC_LAYER_RECONCILED
360
88
  0
DICTIONARY
  5
256
330
255
100
AcDbDictionary
280
     1
281
     1
  3
ADSK_XREC_LAYER_RECONCILED
360
257
  0
DICTIONARY
  5
53
330
52
100
AcDbDictionary
280
     1
281
     1
  3
ADSK_XREC_LAYER_RECONCILED
360
54
  0
DICTIONARY
  5
82
330
81
100
AcDbDictionary
280
     1
281
     1
  3
ADSK_XREC_LAYER_RECONCILED
360
83
  0
DICTIONARY
  5
C2
330
C1
100
AcDbDictionary
280
     1
281
     1
  3
ADSK_XREC_LAYER_RECONCILED
360
C3
  0
DICTIONARY
  5
AC
330
AB
100
AcDbDictionary
280
     1
281
     1
  3
ADSK_XREC_LAYER_RECONCILED
360
AD
  0
DICTIONARY
  5
34F
330
34E
100
AcDbDictionary
280
     1
281
     1
  3
ADSK_XREC_LAYER_RECONCILED
360
350
  0
DICTIONARY
  5
3
330
2
100
AcDbDictionary
280
     1
281
     1
  3
ACAD_SORTENTS
360
38D
  0
DICTIONARY
  5
7D
330
7C
100
AcDbDictionary
280
     1
281
     1
  3
ACAD_SORTENTS
360
38C
  0
DICTIONARY
  5
4E
102
{ACAD_REACTORS
330
B
102
}
330
B
100
AcDbDictionary
281
     1
  0
DICTIONARY
  5
3B
102
{ACAD_REACTORS
330
B
102
}
330
B
100
AcDbDictionary
281
     1
  0
DICTIONARY
  5
18
102
{ACAD_REACTORS
330
B
102
}
330
B
100
AcDbDictionary
281
     1
  3
Layout1
350
1F
  3
Model
350
17
  0
DICTIONARY
  5
D
102
{ACAD_REACTORS
330
B
102
}
330
B
100
AcDbDictionary
281
     1
  3
ByBlock
350
46
  3
ByLayer
350
3E
  3
Global
350
C
  0
DICTIONARY
  5
51
102
{ACAD_REACTORS
330
B
102
}
330
B
100
AcDbDictionary
281
     1
  0
DICTIONARY
  5
3C
102
{ACAD_REACTORS
330
B
102
}
330
B
100
AcDbDictionary
281
     1
  3
STANDARD
350
55
  0
DICTIONARY
  5
3D
102
{ACAD_REACTORS
330
B
102
}
330
B
100
AcDbDictionary
281
     1
  0
ACDBDICTIONARYWDFLT
  5
A
102
{ACAD_REACTORS
330
B
102
}
330
B
100
AcDbDictionary
281
     1
  3
Normal
350
9
100
AcDbDictionaryWithDefault
340
9
  0
DICTIONARY
  5
4F
102
{ACAD_REACTORS
330
B
102
}
330
B
100
AcDbDictionary
281
     1
  3
A0
350
5A
  3
A1
350
5B
  3
A2
350
5C
  3
A3
350
5D
  3
A4
350
5E
  3
A5
350
5F
  3
A6
350
60
  3
A7
350
61
  3
A8
350
62
  3
A9
350
63
  3
B0
350
64
  3
B1
350
65
  3
B2
350
66
  3
B3
350
67
  3
B4
350
68
  3
B5
350
69
  3
B6
350
6A
  3
B7
350
6B
  3
B8
350
6C
  3
B9
350
6D
  3
C0
350
6E
  3
C1
350
6F
  3
C2
350
70
  3
C3
350
71
  3
C4
350
72
  3
C5
350
73
  3
C6
350
74
  3
C7
350
75
  3
C8
350
76
  3
C9
350
77
  3
D0
350
78
  3
D1
350
79
  3
D2
350
7A
  0
DICTIONARY
  5
50
102
{ACAD_REACTORS
330
B
102
}
330
B
100
AcDbDictionary
281
     1
  3
Standard
350
56
  0
DICTIONARY
  5
31
102
{ACAD_REACTORS
330
B
102
}
330
B
100
AcDbDictionary
281
     1
  3
2dWireframe
350
30
  3
3dWireframe
350
59
  3
Realistic
350
58
  0
XRECORD
  5
398
102
{ACAD_REACTORS
330
B
102
}
330
B
100
AcDbXrecord
280
     1
 90
        1
330
56
  0
DICTIONARY
  5
38E
102
{ACAD_REACTORS
330
B
102
}
330
B
100
AcDbDictionary
281
     1
  3
CANNOSCALE
350
392
  3
CMLEADERSTYLE
350
390
  3
CTABLESTYLE
350
38F
  3
LAYEREVAL
350
394
  3
LAYERNOTIFY
350
395
  3
LIGHTINGUNITS
350
393
  3
MSLTSCALE
350
391
  0
DICTIONARY
  5
22
102
{ACAD_REACTORS
330
21
102
}
330
21
100
AcDbDictionary
281
     1
  0
DICTIONARY
  5
23
102
{ACAD_REACTORS
330
21
102
}
330
21
100
AcDbDictionary
281
     1
  0
DICTIONARY
  5
24
102
{ACAD_REACTORS
330
21
102
}
330
21
100
AcDbDictionary
281
     1
1001
ACAD
1000
<All
  0
XRECORD
  5
8
102
{ACAD_REACTORS
330
7
102
}
330
7
100
AcDbXrecord
280
     1
290
     1
  0
XRECORD
  5
25C
102
{ACAD_REACTORS
330
25B
102
}
330
25B
100
AcDbXrecord
280
     1
290
     1
  0
XRECORD
  5
338
102
{ACAD_REACTORS
330
337
102
}
330
337
100
AcDbXrecord
280
     1
290
     1
  0
XRECORD
  5
88
102
{ACAD_REACTORS
330
87
102
}
330
87
100
AcDbXrecord
280
     1
290
     1
  0
XRECORD
  5
257
102
{ACAD_REACTORS
330
256
102
}
330
256
100
AcDbXrecord
280
     1
290
     1
  0
XRECORD
  5
54
102
{ACAD_REACTORS
330
53
102
}
330
53
100
AcDbXrecord
280
     1
290
     1
  0
XRECORD
  5
83
102
{ACAD_REACTORS
330
82
102
}
330
82
100
AcDbXrecord
280
     1
290
     1
  0
XRECORD
  5
C3
102
{ACAD_REACTORS
330
C2
102
}
330
C2
100
AcDbXrecord
280
     1
290
     1
  0
XRECORD
  5
AD
102
{ACAD_REACTORS
330
AC
102
}
330
AC
100
AcDbXrecord
280
     1
290
     1
  0
XRECORD
  5
350
102
{ACAD_REACTORS
330
34F
102
}
330
34F
100
AcDbXrecord
280
     1
290
     1
  0
SORTENTSTABLE
  5
38D
102
{ACAD_REACTORS
330
3
102
}
330
3
100
AcDbSortentsTable
330
2
331
30E
  5
332
331
30A
  5
339
331
306
  5
33D
331
345
  5
2FE
331
302
  5
341
331
341
  5
302
331
33D
  5
306
331
2FE
  5
345
331
2FA
  5
349
331
339
  5
30A
331
2F6
  5
34D
331
335
  5
30B
331
278
  5
36C
331
2F2
  5
354
331
331
  5
30F
331
370
  5
254
331
36C
  5
278
331
368
  5
2AC
331
32D
  5
313
331
2EE
  5
358
331
2EA
  5
35C
331
2E6
  5
360
331
364
  5
2D6
331
360
  5
2E6
331
35C
  5
2EA
331
236
  5
37E
331
358
  5
2EE
331
29F
  5
369
331
2D6
  5
364
331
311
  5
32F
331
354
  5
2F2
331
34C
  5
2F7
331
348
  5
2FB
331
30D
  5
333
331
309
  5
33A
331
305
  5
33E
331
344
  5
2FF
331
301
  5
342
331
340
  5
303
331
37F
  5
7B
331
33C
  5
307
331
2FD
  5
346
331
2F9
  5
34A
331
2BA
  5
366
331
2F5
  5
351
331
334
  5
30C
331
2F1
  5
355
331
330
  5
310
331
36F
  5
259
331
36B
  5
285
331
2ED
  5
359
331
2E9
  5
35D
331
2E5
  5
361
331
26B
  5
36D
331
367
  5
2B9
331
363
  5
2E3
331
35F
  5
2E7
331
35B
  5
2EB
331
310
  5
330
331
357
  5
2EF
331
353
  5
2F3
331
34B
  5
2F8
331
292
  5
36A
331
30C
  5
334
331
308
  5
33B
331
347
  5
2FC
331
2C9
  5
365
331
304
  5
33F
331
343
  5
300
331
300
  5
343
331
37E
  5
236
331
254
  5
370
331
33F
  5
304
331
33B
  5
308
331
2FC
  5
347
331
2F8
  5
34B
331
2B9
  5
367
331
2F4
  5
352
331
333
  5
30D
331
2F0
  5
356
331
36E
  5
25E
331
36A
  5
292
331
32F
  5
311
331
2EC
  5
35A
331
2E8
  5
35E
331
2E4
  5
362
331
366
  5
2BA
331
362
  5
2E4
331
35E
  5
2E8
331
35A
  5
2EC
331
25E
  5
36E
331
313
  5
32D
331
356
  5
2F0
331
352
  5
2F4
331
34A
  5
2F9
331
7B
  5
37F
331
30F
  5
331
331
30B
  5
335
331
307
  5
33C
331
346
  5
2FD
331
303
  5
340
331
342
  5
301
331
37D
  5
247
331
33E
  5
305
331
285
  5
36B
331
2FF
  5
344
331
33A
  5
309
331
2FB
  5
348
331
2F7
  5
34C
331
2F3
  5
353
331
332
  5
30E
331
36D
  5
26B
331
247
  5
37D
331
369
  5
29F
331
2EF
  5
357
331
32E
  5
312
331
2EB
  5
35B
331
2AC
  5
368
331
2E7
  5
35F
331
2E3
  5
363
331
365
  5
2C9
331
361
  5
2E5
331
35D
  5
2E9
331
359
  5
2ED
331
312
  5
32E
331
259
  5
36F
331
355
  5
2F1
331
351
  5
2F5
331
34D
  5
2F6
331
349
  5
2FA
  0
SORTENTSTABLE
  5
38C
102
{ACAD_REACTORS
330
7D
102
}
330
7D
100
AcDbSortentsTable
330
7C
  0
LAYOUT
  5
1F
102
{ACAD_REACTORS
330
18
102
}
330
18
100
AcDbPlotSettings
  1

  2
HP LaserJet 4 Plus
  4

  6

 40
0.0
 41
0.0
 42
0.0
 43
0.0
 44
0.0
 45
0.0
 46
0.0
 47
0.0
 48
0.0
 49
0.0
140
0.0
141
0.0
142
1.0
143
1.0
 70
   688
 72
     0
 73
     0
 74
     5
  7
CNC-Soft.ctb
 75
    16
147
1.0
 76
     0
 77
     2
 78
   300
148
0.0
149
0.0
100
AcDbLayout
  1
Layout1
 70
     0
 71
     1
 10
0.0
 20
0.0
 11
420.0
 21
297.0
 12
0.0
 22
0.0
 32
0.0
 14
1.000000000000000E+20
 24
1.000000000000000E+20
 34
1.000000000000000E+20
 15
-1.000000000000000E+20
 25
-1.000000000000000E+20
 35
-1.000000000000000E+20
146
0.0
 13
0.0
 23
0.0
 33
0.0
 16
1.0
 26
0.0
 36
0.0
 17
0.0
 27
1.0
 37
0.0
 76
     0
330
1C
  0
LAYOUT
  5
17
102
{ACAD_XDICTIONARY
360
19
102
}
102
{ACAD_REACTORS
330
18
102
}
330
18
100
AcDbPlotSettings
  1

  2
DWG To PDF.pc3
  4
ISO_expand_A4_(210.00_x_297.00_MM)
  6

 40
5.793749809265136
 41
10.79374980926513
 42
5.793746948242187
 43
10.79376220703125
 44
210.0
 45
297.0
 46
0.0
 47
0.0
 48
0.0
 49
0.0
140
839.9999999999163
141
593.9999999999408
142
1.0
143
3.049970631867715
 70
  3760
 72
     1
 73
     1
 74
     4
  7
monochrome.ctb
 75
     0
147
0.3278720095044417
 76
     1
 77
     2
 78
   300
148
0.0
149
0.0
100
AcDbLayout
  1
Model
 70
     1
 71
     0
 10
0.0
 20
0.0
 11
12.0
 21
9.0
 12
0.0
 22
0.0
 32
0.0
 14
0.0
 24
0.0
 34
0.0
 15
0.0
 25
0.0
 35
0.0
146
0.0
 13
0.0
 23
0.0
 33
0.0
 16
1.0
 26
0.0
 36
0.0
 17
0.0
 27
1.0
 37
0.0
 76
     0
330
2
331
2F
1001
ACAD_PSEXT
1000
DWG To PDF.pc3
1000
DWG To PDF
1000
Datei
1000

1070
     0
  0
MATERIAL
  5
46
102
{ACAD_XDICTIONARY
360
47
102
}
102
{ACAD_REACTORS
330
D
102
}
330
D
100
AcDbMaterial
  1
ByBlock
 72
     0
 43
0.0208333333333333
 43
0.0
 43
0.0
 43
0.0
 43
0.0
 43
0.0208333333333333
 43
0.0
 43
0.0
 43
0.0
 43
0.0
 43
1.0
 43
0.0
 43
0.0
 43
0.0
 43
0.0
 43
1.0
 77
     0
 47
0.0208333333333333
 47
0.0
 47
0.0
 47
0.0
 47
0.0
 47
0.0208333333333333
 47
0.0
 47
0.0
 47
0.0
 47
0.0
 47
1.0
 47
0.0
 47
0.0
 47
0.0
 47
0.0
 47
1.0
171
     0
 49
0.0208333333333333
 49
0.0
 49
0.0
 49
0.0
 49
0.0
 49
0.0208333333333333
 49
0.0
 49
0.0
 49
0.0
 49
0.0
 49
1.0
 49
0.0
 49
0.0
 49
0.0
 49
0.0
 49
1.0
175
     0
142
0.0208333333333333
142
0.0
142
0.0
142
0.0
142
0.0
142
0.0208333333333333
142
0.0
142
0.0
142
0.0
142
0.0
142
1.0
142
0.0
142
0.0
142
0.0
142
0.0
142
1.0
179
     0
144
0.0208333333333333
144
0.0
144
0.0
144
0.0
144
0.0
144
0.0208333333333333
144
0.0
144
0.0
144
0.0
144
0.0
144
1.0
144
0.0
144
0.0
144
0.0
144
0.0
144
1.0
147
0.0208333333333333
147
0.0
147
0.0
147
0.0
147
0.0
147
0.0208333333333333
147
0.0
147
0.0
147
0.0
147
0.0
147
1.0
147
0.0
147
0.0
147
0.0
147
0.0
147
1.0
  0
MATERIAL
  5
3E
102
{ACAD_XDICTIONARY
360
3F
102
}
102
{ACAD_REACTORS
330
D
102
}
330
D
100
AcDbMaterial
  1
ByLayer
 72
     0
 43
0.0208333333333333
 43
0.0
 43
0.0
 43
0.0
 43
0.0
 43
0.0208333333333333
 43
0.0
 43
0.0
 43
0.0
 43
0.0
 43
1.0
 43
0.0
 43
0.0
 43
0.0
 43
0.0
 43
1.0
 77
     0
 47
0.0208333333333333
 47
0.0
 47
0.0
 47
0.0
 47
0.0
 47
0.0208333333333333
 47
0.0
 47
0.0
 47
0.0
 47
0.0
 47
1.0
 47
0.0
 47
0.0
 47
0.0
 47
0.0
 47
1.0
171
     0
 49
0.0208333333333333
 49
0.0
 49
0.0
 49
0.0
 49
0.0
 49
0.0208333333333333
 49
0.0
 49
0.0
 49
0.0
 49
0.0
 49
1.0
 49
0.0
 49
0.0
 49
0.0
 49
0.0
 49
1.0
175
     0
142
0.0208333333333333
142
0.0
142
0.0
142
0.0
142
0.0
142
0.0208333333333333
142
0.0
142
0.0
142
0.0
142
0.0
142
1.0
142
0.0
142
0.0
142
0.0
142
0.0
142
1.0
179
     0
144
0.0208333333333333
144
0.0
144
0.0
144
0.0
144
0.0
144
0.0208333333333333
144
0.0
144
0.0
144
0.0
144
0.0
144
1.0
144
0.0
144
0.0
144
0.0
144
0.0
144
1.0
147
0.0208333333333333
147
0.0
147
0.0
147
0.0
147
0.0
147
0.0208333333333333
147
0.0
147
0.0
147
0.0
147
0.0
147
1.0
147
0.0
147
0.0
147
0.0
147
0.0
147
1.0
  0
MATERIAL
  5
C
102
{ACAD_XDICTIONARY
360
E
102
}
102
{ACAD_REACTORS
330
D
102
}
330
D
100
AcDbMaterial
  1
Global
 72
     0
 43
0.0208333333333333
 43
0.0
 43
0.0
 43
0.0
 43
0.0
 43
0.0208333333333333
 43
0.0
 43
0.0
 43
0.0
 43
0.0
 43
1.0
 43
0.0
 43
0.0
 43
0.0
 43
0.0
 43
1.0
 77
     0
 47
0.0208333333333333
 47
0.0
 47
0.0
 47
0.0
 47
0.0
 47
0.0208333333333333
 47
0.0
 47
0.0
 47
0.0
 47
0.0
 47
1.0
 47
0.0
 47
0.0
 47
0.0
 47
0.0
 47
1.0
171
     0
 49
0.0208333333333333
 49
0.0
 49
0.0
 49
0.0
 49
0.0
 49
0.0208333333333333
 49
0.0
 49
0.0
 49
0.0
 49
0.0
 49
1.0
 49
0.0
 49
0.0
 49
0.0
 49
0.0
 49
1.0
175
     0
142
0.0208333333333333
142
0.0
142
0.0
142
0.0
142
0.0
142
0.0208333333333333
142
0.0
142
0.0
142
0.0
142
0.0
142
1.0
142
0.0
142
0.0
142
0.0
142
0.0
142
1.0
179
     0
144
0.0208333333333333
144
0.0
144
0.0
144
0.0
144
0.0
144
0.0208333333333333
144
0.0
144
0.0
144
0.0
144
0.0
144
1.0
144
0.0
144
0.0
144
0.0
144
0.0
144
1.0
147
0.0208333333333333
147
0.0
147
0.0
147
0.0
147
0.0
147
0.0208333333333333
147
0.0
147
0.0
147
0.0
147
0.0
147
1.0
147
0.0
147
0.0
147
0.0
147
0.0
147
1.0
  0
MLINESTYLE
  5
55
102
{ACAD_REACTORS
330
3C
102
}
330
3C
100
AcDbMlineStyle
  2
STANDARD
 70
     0
  3

 62
   256
 51
90.0
 52
90.0
 71
     2
 49
0.5
 62
   256
  6
BYLAYER
 49
-0.5
 62
   256
  6
BYLAYER
  0
ACDBPLACEHOLDER
  5
9
102
{ACAD_REACTORS
330
A
102
}
330
A
  0
SCALE
  5
5A
102
{ACAD_REACTORS
330
4F
102
}
330
4F
100
AcDbScale
 70
     0
300
1:1
140
1.0
141
1.0
290
     1
  0
SCALE
  5
5B
102
{ACAD_REACTORS
330
4F
102
}
330
4F
100
AcDbScale
 70
     0
300
1:2
140
1.0
141
2.0
290
     0
  0
SCALE
  5
5C
102
{ACAD_REACTORS
330
4F
102
}
330
4F
100
AcDbScale
 70
     0
300
1:4
140
1.0
141
4.0
290
     0
  0
SCALE
  5
5D
102
{ACAD_REACTORS
330
4F
102
}
330
4F
100
AcDbScale
 70
     0
300
1:5
140
1.0
141
5.0
290
     0
  0
SCALE
  5
5E
102
{ACAD_REACTORS
330
4F
102
}
330
4F
100
AcDbScale
 70
     0
300
1:8
140
1.0
141
8.0
290
     0
  0
SCALE
  5
5F
102
{ACAD_REACTORS
330
4F
102
}
330
4F
100
AcDbScale
 70
     0
300
1:10
140
1.0
141
10.0
290
     0
  0
SCALE
  5
60
102
{ACAD_REACTORS
330
4F
102
}
330
4F
100
AcDbScale
 70
     0
300
1:16
140
1.0
141
16.0
290
     0
  0
SCALE
  5
61
102
{ACAD_REACTORS
330
4F
102
}
330
4F
100
AcDbScale
 70
     0
300
1:20
140
1.0
141
20.0
290
     0
  0
SCALE
  5
62
102
{ACAD_REACTORS
330
4F
102
}
330
4F
100
AcDbScale
 70
     0
300
1:30
140
1.0
141
30.0
290
     0
  0
SCALE
  5
63
102
{ACAD_REACTORS
330
4F
102
}
330
4F
100
AcDbScale
 70
     0
300
1:40
140
1.0
141
40.0
290
     0
  0
SCALE
  5
64
102
{ACAD_REACTORS
330
4F
102
}
330
4F
100
AcDbScale
 70
     0
300
1:50
140
1.0
141
50.0
290
     0
  0
SCALE
  5
65
102
{ACAD_REACTORS
330
4F
102
}
330
4F
100
AcDbScale
 70
     0
300
1:100
140
1.0
141
100.0
290
     0
  0
SCALE
  5
66
102
{ACAD_REACTORS
330
4F
102
}
330
4F
100
AcDbScale
 70
     0
300
2:1
140
2.0
141
1.0
290
     0
  0
SCALE
  5
67
102
{ACAD_REACTORS
330
4F
102
}
330
4F
100
AcDbScale
 70
     0
300
4:1
140
4.0
141
1.0
290
     0
  0
SCALE
  5
68
102
{ACAD_REACTORS
330
4F
102
}
330
4F
100
AcDbScale
 70
     0
300
8:1
140
8.0
141
1.0
290
     0
  0
SCALE
  5
69
102
{ACAD_REACTORS
330
4F
102
}
330
4F
100
AcDbScale
 70
     0
300
10:1
140
10.0
141
1.0
290
     0
  0
SCALE
  5
6A
102
{ACAD_REACTORS
330
4F
102
}
330
4F
100
AcDbScale
 70
     0
300
100:1
140
100.0
141
1.0
290
     0
  0
SCALE
  5
6B
102
{ACAD_REACTORS
330
4F
102
}
330
4F
100
AcDbScale
 70
     0
300
1/128" = 1'-0"
140
0.0078125
141
12.0
290
     0
  0
SCALE
  5
6C
102
{ACAD_REACTORS
330
4F
102
}
330
4F
100
AcDbScale
 70
     0
300
1/64" = 1'-0"
140
0.015625
141
12.0
290
     0
  0
SCALE
  5
6D
102
{ACAD_REACTORS
330
4F
102
}
330
4F
100
AcDbScale
 70
     0
300
1/32" = 1'-0"
140
0.03125
141
12.0
290
     0
  0
SCALE
  5
6E
102
{ACAD_REACTORS
330
4F
102
}
330
4F
100
AcDbScale
 70
     0
300
1/16" = 1'-0"
140
0.0625
141
12.0
290
     0
  0
SCALE
  5
6F
102
{ACAD_REACTORS
330
4F
102
}
330
4F
100
AcDbScale
 70
     0
300
3/32" = 1'-0"
140
0.09375
141
12.0
290
     0
  0
SCALE
  5
70
102
{ACAD_REACTORS
330
4F
102
}
330
4F
100
AcDbScale
 70
     0
300
1/8" = 1'-0"
140
0.125
141
12.0
290
     0
  0
SCALE
  5
71
102
{ACAD_REACTORS
330
4F
102
}
330
4F
100
AcDbScale
 70
     0
300
3/16" = 1'-0"
140
0.1875
141
12.0
290
     0
  0
SCALE
  5
72
102
{ACAD_REACTORS
330
4F
102
}
330
4F
100
AcDbScale
 70
     0
300
1/4" = 1'-0"
140
0.25
141
12.0
290
     0
  0
SCALE
  5
73
102
{ACAD_REACTORS
330
4F
102
}
330
4F
100
AcDbScale
 70
     0
300
3/8" = 1'-0"
140
0.375
141
12.0
290
     0
  0
SCALE
  5
74
102
{ACAD_REACTORS
330
4F
102
}
330
4F
100
AcDbScale
 70
     0
300
1/2" = 1'-0"
140
0.5
141
12.0
290
     0
  0
SCALE
  5
75
102
{ACAD_REACTORS
330
4F
102
}
330
4F
100
AcDbScale
 70
     0
300
3/4" = 1'-0"
140
0.75
141
12.0
290
     0
  0
SCALE
  5
76
102
{ACAD_REACTORS
330
4F
102
}
330
4F
100
AcDbScale
 70
     0
300
1" = 1'-0"
140
1.0
141
12.0
290
     0
  0
SCALE
  5
77
102
{ACAD_REACTORS
330
4F
102
}
330
4F
100
AcDbScale
 70
     0
300
1-1/2" = 1'-0"
140
1.5
141
12.0
290
     0
  0
SCALE
  5
78
102
{ACAD_REACTORS
330
4F
102
}
330
4F
100
AcDbScale
 70
     0
300
3" = 1'-0"
140
3.0
141
12.0
290
     0
  0
SCALE
  5
79
102
{ACAD_REACTORS
330
4F
102
}
330
4F
100
AcDbScale
 70
     0
300
6" = 1'-0"
140
6.0
141
12.0
290
     0
  0
SCALE
  5
7A
102
{ACAD_REACTORS
330
4F
102
}
330
4F
100
AcDbScale
 70
     0
300
1'-0" = 1'-0"
140
12.0
141
12.0
290
     0
  0
TABLESTYLE
  5
56
102
{ACAD_XDICTIONARY
360
57
102
}
102
{ACAD_REACTORS
330
50
102
}
330
50
100
AcDbTableStyle
280
     0
  3
Standard
 70
     0
 71
     0
 40
1.5
 41
1.5
280
     0
281
     0
  7
STANDARD
140
4.5
170
     2
 62
     0
 63
     7
283
     0
 90
      512
 91
        0
  1

274
    -2
284
     1
 64
     0
275
    -2
285
     1
 65
     0
276
    -2
286
     1
 66
     0
277
    -2
287
     1
 67
     0
278
    -2
288
     1
 68
     0
279
    -2
289
     1
 69
     0
  7
STANDARD
140
6.0
170
     5
 62
     0
 63
     7
283
     0
 90
      512
 91
        0
  1

274
    -2
284
     1
 64
     0
275
    -2
285
     1
 65
     0
276
    -2
286
     1
 66
     0
277
    -2
287
     1
 67
     0
278
    -2
288
     1
 68
     0
279
    -2
289
     1
 69
     0
  7
STANDARD
140
4.5
170
     5
 62
     0
 63
     7
283
     0
 90
      512
 91
        0
  1

274
    -2
284
     1
 64
     0
275
    -2
285
     1
 65
     0
276
    -2
286
     1
 66
     0
277
    -2
287
     1
 67
     0
278
    -2
288
     1
 68
     0
279
    -2
289
     1
 69
     0
  0
VISUALSTYLE
  5
30
102
{ACAD_REACTORS
330
31
102
}
330
31
100
AcDbVisualStyle
  2
2dWireframe
 70
     4
177
     2
291
     0
 71
     0
176
     1
 72
     2
176
     1
 73
     0
176
     1
 90
        0
176
     1
 40
0.6
176
     1
 41
30.0
176
     1
 63
     7
176
     1
 74
     1
176
     1
 91
        4
176
     1
 64
     7
176
     1
 65
   257
176
     1
 75
     1
176
     1
175
     1
176
     1
 42
1.0
176
     1
 92
        0
176
     1
 66
   257
176
     1
 43
1.0
176
     1
 76
     1
176
     1
 77
     6
176
     1
 78
     2
176
     1
 67
     7
176
     1
 79
     5
176
     1
170
     0
176
     1
171
     0
176
     1
290
     0
176
     1
 93
        1
176
     1
 44
0.0
176
     1
173
     0
176
     1
  0
VISUALSTYLE
  5
59
102
{ACAD_REACTORS
330
31
102
}
330
31
100
AcDbVisualStyle
  2
3dWireframe
 70
     5
177
     2
291
     0
 71
     0
176
     1
 72
     2
176
     1
 73
     0
176
     1
 90
        0
176
     1
 40
0.6
176
     1
 41
30.0
176
     1
 63
     7
176
     1
 74
     1
176
     1
 91
        4
176
     1
 64
     7
176
     1
 65
   257
176
     1
 75
     1
176
     1
175
     1
176
     1
 42
1.0
176
     1
 92
        0
176
     1
 66
   257
176
     1
 43
1.0
176
     1
 76
     1
176
     1
 77
     6
176
     1
 78
     2
176
     1
 67
     7
176
     1
 79
     5
176
     1
170
     0
176
     1
171
     0
176
     1
290
     0
176
     1
 93
        1
176
     1
 44
0.0
176
     1
173
     0
176
     1
  0
VISUALSTYLE
  5
58
102
{ACAD_REACTORS
330
31
102
}
330
31
100
AcDbVisualStyle
  2
Realistic
 70
     8
177
     2
291
     0
 71
     2
176
     1
 72
     2
176
     1
 73
     0
176
     1
 90
        0
176
     1
 40
0.6
176
     1
 41
30.0
176
     1
 63
     7
176
     1
 74
     1
176
     1
 91
        0
176
     1
 64
     7
176
     1
 65
   257
176
     1
 75
     1
176
     1
175
     1
176
     1
 42
1.0
176
     1
 92
        8
176
     1
 66
     8
176
     1
 43
1.0
176
     1
 76
     1
176
     1
 77
     6
176
     1
 78
     2
176
     1
 67
     7
176
     1
 79
     5
176
     1
170
     0
176
     1
171
     0
176
     1
290
     0
176
     1
 93
       13
176
     1
 44
0.0
176
     1
173
     0
176
     1
  0
DICTIONARYVAR
  5
392
102
{ACAD_REACTORS
330
38E
102
}
330
38E
100
DictionaryVariables
280
     0
  1
1:1
  0
DICTIONARYVAR
  5
390
102
{ACAD_REACTORS
330
38E
102
}
330
38E
100
DictionaryVariables
280
     0
  1
STANDARD
  0
DICTIONARYVAR
  5
38F
102
{ACAD_REACTORS
330
38E
102
}
330
38E
100
DictionaryVariables
280
     0
  1
STANDARD
  0
DICTIONARYVAR
  5
394
102
{ACAD_REACTORS
330
38E
102
}
330
38E
100
DictionaryVariables
280
     0
  1
1
  0
DICTIONARYVAR
  5
395
102
{ACAD_REACTORS
330
38E
102
}
330
38E
100
DictionaryVariables
280
     0
  1
15
  0
DICTIONARYVAR
  5
393
102
{ACAD_REACTORS
330
38E
102
}
330
38E
100
DictionaryVariables
280
     0
  1
0
  0
DICTIONARYVAR
  5
391
102
{ACAD_REACTORS
330
38E
102
}
330
38E
100
DictionaryVariables
280
     0
  1
0
  0
DICTIONARY
  5
19
330
17
100
AcDbDictionary
280
     1
281
     1
  3
ADSK_XREC_LAYOUTTHUMBNAIL
360
1A
  0
DICTIONARY
  5
47
330
46
100
AcDbDictionary
280
     1
281
     1
  3
BUMPTILE
360
48
  3
DIFFUSETILE
360
49
  3
OPACITYTILE
360
4A
  3
REFLECTIONTILE
360
4B
  3
REFRACTIONTILE
360
4C
  3
SPECULARTILE
360
4D
  0
DICTIONARY
  5
3F
330
3E
100
AcDbDictionary
280
     1
281
     1
  3
BUMPTILE
360
40
  3
DIFFUSETILE
360
41
  3
OPACITYTILE
360
42
  3
REFLECTIONTILE
360
43
  3
REFRACTIONTILE
360
44
  3
SPECULARTILE
360
45
  0
DICTIONARY
  5
E
330
C
100
AcDbDictionary
280
     1
281
     1
  3
BUMPTILE
360
F
  3
DIFFUSETILE
360
10
  3
OPACITYTILE
360
11
  3
REFLECTIONTILE
360
12
  3
REFRACTIONTILE
360
13
  3
SPECULARTILE
360
14
  0
DICTIONARY
  5
57
330
56
100
AcDbDictionary
280
     1
281
     1
  3
ACAD_ROUNDTRIP_2008_TABLESTYLE_CELLSTYLEMAP
360
396
  0
XRECORD
  5
1A
102
{ACAD_REACTORS
330
19
102
}
330
19
100
AcDbXrecord
280
     1
310
280000000001000085000000010008000000000000850000000000000000000000010000000000000000000000000000FFFFFF000000000000000000000000000000000000000000000000000000000000000000330000006600000099000000CC000000FF00000000330000333300006633000099330000CC330000FF3300
310
0000660000336600006666000099660000CC660000FF66000000990000339900006699000099990000CC990000FF99000000CC000033CC000066CC000099CC0000CCCC0000FFCC000000FF000033FF000066FF000099FF0000CCFF0000FFFF000000003300330033006600330099003300CC003300FF003300003333003333
310
33006633330099333300CC333300FF33330000663300336633006666330099663300CC663300FF66330000993300339933006699330099993300CC993300FF99330000CC330033CC330066CC330099CC3300CCCC3300FFCC330000FF330033FF330066FF330099FF3300CCFF3300FFFF330000006600330066006600660099
310
006600CC006600FF00660000336600333366006633660099336600CC336600FF33660000666600336666006666660099666600CC666600FF66660000996600339966006699660099996600CC996600FF99660000CC660033CC660066CC660099CC6600CCCC6600FFCC660000FF660033FF660066FF660099FF6600CCFF6600
310
FFFF660000009900330099006600990099009900CC009900FF00990000339900333399006633990099339900CC339900FF33990000669900336699006666990099669900CC669900FF66990000999900339999006699990099999900CC999900FF99990000CC990033CC990066CC990099CC9900CCCC9900FFCC990000FF99
310
0033FF990066FF990099FF9900CCFF9900FFFF99000000CC003300CC006600CC009900CC00CC00CC00FF00CC000033CC003333CC006633CC009933CC00CC33CC00FF33CC000066CC003366CC006666CC009966CC00CC66CC00FF66CC000099CC003399CC006699CC009999CC00CC99CC00FF99CC0000CCCC0033CCCC0066CC
310
CC0099CCCC00CCCCCC00FFCCCC0000FFCC0033FFCC0066FFCC0099FFCC00CCFFCC00FFFFCC000000FF003300FF006600FF009900FF00CC00FF00FF00FF000033FF003333FF006633FF009933FF00CC33FF00FF33FF000066FF003366FF006666FF009966FF00CC66FF00FF66FF000099FF003399FF006699FF009999FF00CC
310
99FF00FF99FF0000CCFF0033CCFF0066CCFF0099CCFF00CCCCFF00FFCCFF0000FFFF0033FFFF0066FFFF0099FFFF00CCFFFF00FFFFFF00000000000D0D0D001A1A1A00282828003535350043434300505050005D5D5D006B6B6B00787878008686860093939300A1A1A100AEAEAE00BBBBBB00C9C9C900D6D6D600E4E4E400
310
F1F1F100FFFFFF0000000000000000000000000000000000000000000000000000000000000000000000000000000000E2E2E2E2E2E2E2E2E2E2E2E2E2E2E2E2E2E2E2E2E2E2E2E2E2E2E2E2E2E2E2E2E2E2E2E2E2E2E2E2E2E2E2E2E2E2E2E2E2E2E2E2E2E2E2E2E2E2E2E2E2E2E2E2E2E2E2E2E2E2E2E2E2E2E2E2E2E2E2
310
E2E2E2E2E2E2E2E2E2E2E2E2E2E2E2E2E2E2E2E2E2E2E2E2E2E2E2E2E2E2E2E2E2E2E2E2E2E2E2E2E2E2E2E2E2E2E2E2E2E2E2E2E2E2E2E2E2E2E2E2E2E2E2E2E2E2E2E2E2E2E2E2E2E2E2E2E2E2E2E2E2E2E2E2E2E2E2E2E2E2E2E2E2E2E2E2E2E2E2E2E2E2E2E2E2E2E2E2E2E2E2E2E2E2E2E2E2E2E2E2E2E2E2E2E2E2E2
310
E2E2E2E2E2E2E2E2E2E2E2E2E2E2E2E2E2E2E2E2E2E2E2E2E2E2E2E2E2E2E2E2E2E2E2E2E2E2E2E2E2E2E2E2E2E2E2E2E2E2E2E2E2E2E2E2E2E2E2E2E2E2E2E2E2E2E2E2E2E2E2E2E2E2E2E2E2E2E2E2E2E2E2E2BEBEBEBEBEBEBEBEBEBEBEBEBEBEBEBEBEBEBEBEBEBEBEBEBEBEBEBEBEBEBEBEBEBEBEBEBEBEBEBEBEBEBE
310
BEBEBEBEBEBEBEBEBEBEBEBEBEBEBEBEBEBEBEBEBEBEBEBEBEBEBEBEBEBEBEBEBEBEBEBEBEBEBEBEBEBEBEBEBEBEBEBEBEBEBEBEBEBEBEBEBEBEBEBEBEBEBEBEBEBEBEBEBEBEBEBEBEBEBEBEBEBEBEBEBEBEBEBEBEBEBEBEBEBEBEBEBEBEBEBEBEBEBEBEBEBEBEBEBEBEBEBEBEBEBEBEBEBEBEBEBEBEBEBEBEBEBEBEBEBEBE
310
BEBEBEBEBEBEBEBEBEBEBEBEBEBEBEBEBEBEE2E2E2E2E2E2E2E2E2E2E2E2E2E2E2E2E2E2E2E2E2E2E2E2E2E2E2E2E2E2E2E2E2E2E2E2E2E2E2E2E2E2E2E2E2E2E2E2E2E2E2E2E2E2E2E2E2E2E2E2E2E2E2E2E2E2E2E2BEE2E2E2E2E2E2E2E2E2E2E2E2E2E2E2E2E2E2E2E2E2E2E2E2E2E2E2E2E2E2E2E2E2E2E2E2E2E2E2E2
310
E2E2E2E2E2E2E2E2E2E2E2E2E2E2E2E2E2E2E2E2E2E2E2E2E2E2E2E2E2E2E2E2E2E2E2E2E2E2E2E2E2E2E2E2E2E2E2E2E2E2E2E2E2E2E2E2E2E2E2E2E2E2E2E2E2E2E2E2E2E2E2E2E2E2E2E2E2E2E2E2E2E2E2E2E2E2E2E2E2E2E2E2E2E2E2E2E2E2E2E2E2E2E2E2E2E2E2E2E2E2E2E2E2E2E2E2E2E2E2E2E2E2E2E2E2E2E2
310
E2E2E2E2E2E2E2E2E2E2E2E2E2E2E2E2E2E2E2BEE2E2E2E2E2E2E2E2E2E2E2E2E2E2E2E2E2E2E2E2E2E2E2E2E2E2E2E2E2E2E2E2E2E2E2E2E2E2E2E2E2E2E2E2E2E2E2E2E2E2E2E2E2E2E2E2E2E2E2E2E2E2E2E2E2E2E2E2BEE2E2E2E2E2E2E2E2E2E2E2E2E2E2E2E2E2E2E2E2E2E2E2E2E2E2E2E2E2E2E2E2E2E2E2E2E2E2
310
E2E2E2E2E2E2E2E2E2E2E2E2E2E2E2E2E2E2E2E2E2E2E2E2E2E2E2E2E2E2E2E2E2E2E2E2E2E2E2E2E2E2E2E2E2E2E2E2E2E2E2E2E2E2E2E2E2E2E2E2E2E2E2E2E2E2E2E2E2E2E2E2E2E2E2E2E2E2E2E2E2E2E2E2E2E2E2E2E2E2E2E2E2E2E2E2E2E2E2E2E2E2E2E2E2E2E2E2E2E2E2E2E2E2E2E2E2E2E2E2E2E2E2E2E2E2E2
310
E2E2E2E2E2E2E2E2E2E2E2E2E2E2E2E2E2E2E2E2E2BEE2E2E2E2E2E2E2E2E2E2E2E2E2E2E2E2E2E2E2E2E2E2E2E2E2E2E2E2E2E2E2E2E2E2E2E2E2E2E2E2E2E2E2E2E2E2E2E2E2E2E2E2E2E2E2E2E2E2E2E2E2E2E2E2E2E2E2E2BEE2E2DCDCDCDCDCDCDCDCDCDCDCDCDCDCDCDCDCDCDCDCDCDCDCDCDCDCDCDCDCDCDCDCDCDC
310
DCDCDCDCDCDCDCDCDCDCDCDCDCDCDCDCDCDCDCDCDCDCDCDCDCDCDCDCDCDCDCDCDCDCDCDCDCDCDCDCDCDCDCDCDCDCDCDCDCDCDCDCDCDCDCDCDCDCDCDCDCDCDCDCDCDCDCDCDCDCDCDCDCDCDCDCDCDCDCDCDCDCDCDCDCDCDCDCDCDCDCDCDCDCDCDCDCDCDCDCDCDCDCDCDCDCDCDCDCDCDCDCDCDCDCDCDCDCDCDCDCDCDCDCDCDCDC
310
DCDCDCDCDCDCDCDCDCDCDCDCDCDCDCDCDCDCDCDCC3E2E2BEE2E2E2E2E2E2E2E2E2E2E2E2E2E2E2E2E2E2E2E2E2E2E2E2E2E2E2E2E2E2E2E2E2E2E2E2E2E2E2E2E2E2E2E2E2E2E2E2E2E2E2E2E2E2E2E2E2E2E2E2E2E2E2E2E2E2E2E2BEE2E2DCE2E2E2E2E2E2E2E2E2E2E2E2E2E2E2E2E2E2E2E2E2E2E2E2E2E2E2E2E2E2E2
310
E2E2E2E2E2E2E2E2E2E2E2E2E2E2E2E2E2E2E2E2E2E2E2E2E2E2E2E2E2E2E2E2E2E2E2E2E2E2E2E2E2E2E2E2E2E2E2E2E2E2E2E2E2E2E2E2E2E2E2E2E2E2E2E2E2E2E2DCDCDCDCDCDCDCDCDCDCDCDCDCDCDCDCDCE2DCDCE2DCDCDCDCE2E2E2E2E2E2E2E2E2E2E2E2E2E2E2E2E2DCE2E2E2DCDCDCE2E2E2DCDCDCDCDCDCDCDC
310
DCDCE2E2E2DCBEE2E2E2E2E2E2E2E2DCDCDCDCE2E2E2DCE2E2BEE2E2E2E2E2E2E2E2E2E2E2E2E2E2E2E2E2E2E2E2E2E2E2E2E2E2E2E2E2E2E2E2E2E2E2E2E2E2E2E2E2E2E2E2E2E2E2E2E2E2E2E2E2E2E2E2E2E2E2E2E2E2E2E2E2E2E2E2BEE2E2DCE2E2E2E2E2E2E2E2E2E2E2E2E2E2E2E2E2E2E2E2E2E2E2E2E2E2E2E2E2
310
E2E2E2E2E2E2E2E2E2E2E2E2E2E2E2E2E2E2E2E2E2E2E2E2E2E2E2E2E2E2E2E2E2E2E2E2E2E2E2E2E2E2E2E2E2E2E2E2E2E2E2E2E2E2E2E2E2E2E2E2E2E2E2E2E2E2E2E2E2DCDCE2E2E2DCE2E2DCF5F5E2E2E2DCE2E2DCDCDCE2DCDCDCDCE2E2E2E2E2E2E2E2E2E2E2E2E2E2E2E2E2DCE2E2DCDCDCDCE2E2E2DCDCDCDCDCDC
310
DCDCDCDCE2E2E2DCE2E2E2E2E2E2E2E2E2DCDCDCDCE2E2E2DCE2E2BEE2E2E2E2E2E2E2E2E2E2E2E2E2E2E2E2E2E2E2E2E2E2E2E2E2E2E2E2E2E2E2E2E2E2E2E2E2E2E2E2E2E2E2E2E2E2E2E2E2E2E2E2E2E2E2E2E2E2E2E2E2E2E2E2E2E2E2E2BEE2E2DCE2E2E2E2E2E2E2E2E2E2E2E2E2E2E2E2E2E2E2E2E2E2E2E2E2E2E2
310
E2E2E2E2E2E2E2E2E2E2E2E2E2E2E2E2E2E2E2E2E2E2E2E2E2E2E2E2E2E2E2E2E2E2E2E2E2E2E2E2E2E2E2E2E2E2E2E2E2E2E2E2E2E2E2E2E2E2E2E2E2E2E2E2E2E2E2E2E2E2E2DCF5F5F5F5F5F5F5F5F5F5F5F5F5F5E2E2E2E2E2E2E2E2E2E2E2E2E2E2E2E2E2E2E2E2E2E2E2E2E2E2E2DCF5F5F5F5F5F5F5E2E2DCF5F5F5
310
F5F5F5F5F5F5E2E2E2DCF5F5F5F5F5F5F5F5F5DCF5F5DCF5F5F5F5E2E2BEE2E2E2E2E2E2E2E2E2E2E2E2E2E2E2E2E2E2E2E2E2E2E2E2E2E2E2E2E2E2E2E2E2E2E2E2E2E2E2E2E2E2E2E2E2E2E2E2E2E2E2E2E2E2E2E2E2E2E2E2E2E2E2E2E2E2E2E2BEE2E2DCE2E2E2E2E2E22D2D2DF52D2D2D2D2DE2E2E2E2E2E2E2E2E2E2
310
E2E2E2E2E2E2E2E2E2E2E2E2E2E2E2E2E2E2E2E2E2E2E2E2E2E2E2E2E2E2E2E2E2E2E2E2E2E2E2E2E2E2E2E2E2E2E2E2E2E2E2E2E2E2E2E2E2E2E2E2E2E2E2E2E2E2E2E2E2E2E2E2E2DCDCDCDCDCDCDCDCDCDCDCDCDCDCDCDCDCDCDCDCDCDCDCDCDCDCDCDCDCDCDCDCDCDCDCDCDCDCDCDCDCDCDCDCDCDCDCDCDCDCDCDCDCDC
310
DCDCDCDCDCDCDCDCDCDCDCDCF5F5F5F5F5F5F5F5F5DCDCDCDCDCDCDCDCE2E2BEE2E2E2E2E2E2E2E2E2E2E2E2E2E2E2E2E2E2E2E2E2E2E2E2E2E2E2E2E2E2E2E2E2E2E2E2E2E2E2E2E2E2E2E2E2E2E2E2E2E2E2E2E2E2E2E2E2E2E2E2E2E2E2E2E2E2E2E2BEE2E2DCE2E2E2E2E2E2E22D2DBEBE2D2DE2E2E2E2E2E2E2E2E2E2
310
E2E2E2E2E2E2E2E2E2E2E2E2E2E2E2E2E2E2E2E2E2E2E2E2E2E2E2E2E2E2E2E2E2E2E2E2E2E2E2E2E2E2E2E2E2E2E2E2E2E2E2E2E2E2E2E2E2E2E2E2E2E2E2E2E2E2E2E2E2E2E2E2E2E2E2F5F5F5F5F5F5F5F5F5E2F5F5F5F5F5BEBEBEBEBEBEBEBEBEF5F5F5F5F5F5BEBEBEBEE2E2E2E2E2E2E2E2E2E2E2E2E2E2E2E2E2E2
310
E2E2E2E2E2E2E2E2E2DCE2E2E2E2E2E2E2E2E2E2E2E2E2E2E2E2E2E2E2E2DCE2E2BEE2E2E2E2E2E2E2E2E2E2E2E2E2E2E2E2E2E2E2E2E2E2E2E2E2E2E2E2E2E2E2E2E2E2E2E2E2E2E2E2E2E2E2E2E2E2E2E2E2E2E2E2E2E2E2E2E2E2E2E2E2E2E2E2E2E2E2E2BEE2E2DCE2E2E2E2E2E2E2E2E2BEBE2DE2E2E2E2E2E2E2E2E2
310
E2E2E2E2E2E2E2E2E2E2E2E2E2E2E2E2E2E2E2E2E2E2E2E2E2E2E2E2E2E2E2E2E2E2E2E2E2E2E2E2E2E2E2E2E2E2E2E2E2E2E2E2E2E2E2E2E2E2E2E2E2E2E2E2E2E2E2E2E2E2E2E2E2E2E2E2E2DCF5F5F5F5F5F5F5F5E2F5F5F5F5F5BEBEBEBEBEBEBEBEBEF5F5F5F5F5F5BEBEBEBEBEE2E2E2E2E2E2E2E2E2E2E2E2E2E2E2
310
E2E2E2E2E2E2E2E2E2E2E2DCE22D2D2D2D2D2D2D2D2D2D2D2D2D2D2D2D2D2DE2DCE2E2BEE2E2E2E2E2E2E2E2E2E2E2E2E2E2E2E2E2E2E2E2E2E2E2E2E2E2E2E2E2E2E2E2E2E2E2E2E2E2E2E2E2E2E2E2E2E2E2E2E2E2E2E2E2E2E2E2E2E2E2E2E2E2E2E2E2E2E2E2BEE2E2DCE2E2E2E2E2E2E2E2E22DE22DE2E2E2E2E2E2E2
310
E2E2E2E2E2E2E2E2E2E2E2E2E2E2E2E2E2E2E2E2E2E2E2E2E2E2E2E2E2E2E2E2E2E2E2E2E2E2E2E2E2E2E2E2E2E2E2E2E2E2E2E2E2E2E2E2E2E2E2E2E2E2E2E2E2E2E2E2E2E2E2E2E2E2E2E2E2E2E2DCDCDCDCDCDCDCDCDCDCDCDCDCDCDCDCDCDCDCDCDCDCDCDCDCDCDCDCDCDCDCDCDCDCDCDCDCDCDCDCDCDCDCDCDCDCDCDC
310
DCDCDCDCDCDCDCDCDCDCDCDCDCDCE2E2E2E2E2E2E2E2E22D2D2D2D2DE22DE22D2DE2DCE2E2BEE2E2E2E2E2E2E2E2E2E2E2E2E2E2E2E2E2E2E2E2E2E2E2E2E2E2E2E2E2E2E2E2E2E2E2E2E2E2E2E2E2E2E2E2E2E2E2E2E2E2E2E2E2E2E2E2E2E2E2E2E2E2E2E2E2E2E2E2BEE2E2DCE2E2E2E2E2F52D2D2DF5F5F5F5F5F5F5F5
310
F5F5F5F5F5F5F5F5F5F5F5F5F5F5F5F5F5F5F5F5F5F5F5F5F5F5F5F5F5F5F5F5F5F5F5F5F5F5F5F5F5F5F5F5F5F5F5F5F5F5F5F5F5F5F5F5F5F5F5F5F5F52D2DF52DE2E2E2E2E2E2E2E2E2E2E2E2E2E2E2DCE2E2E2E2E2E2E2E2E2E2E2E2E2E2E2E2E2E2E2E2E2E2E2E2E2E2E2E2E2E2E2E2E2E2E2E2E2E2E2E2E2E2E2E2E2
310
E2E2E2E2E2E2E2E2E2E2E2E2E2E2E2DCE2E2E2E22D2D2D2D2D2D2D2D2D2D2D2D2D2D2DE2DCE2E2BEE2E2E2E2E2E2E2E2E2E2E2E2E2E2E2E2E2E2E2E2E2E2E2E2E2E2E2E2E2E2E2E2E2E2E2E2E2E2E2E2E2E2E2E2E2E2E2E2E2E2E2E2E2E2E2E2E2E2E2E2E2E2E2E2E2E2E2E2BEE2E2DCE2E2E2E2E22DE2E2E2F5E2F5E2E2E2
310
E2E2E2E2E2E2E2E2E2E2E2E2E2E2E2E2E2E2E2E2E2E2E2E2E2E2E2E2E2E2E2E2E2E2E2E2E2E2E2E2E2E2E2E2E2E2E2E2E2E2E2E2E2E2E2E2E2E2E2E2E2E2E2F5E2E22D2DE2E2E2E2E2E2E2E2E2E2E2E2E2E2E2BEF5F5F5F5F5F5F5F5F5BEBEBEBEBEBEBEBEBEBEBEBEBEBEBEBEBEBEBEBEBEBEBEBEBEBEBEBEBEBEBEBEBEBE
310
BEBEBEBEBEBEBEBEBEBEBEBEBEBEBEBEBEBEE2E2E2E22D2D2D2D2D2D2D2D2D2D2D2D2D2D2DE2DCE2E2BEE2E2E2E2E2E2E2E2E2E2E2E2E2E2E2E2E2E2E2E2E2E2E2E2E2E2E2E2E2E2E2E2E2E2E2E2E2E2E2E2E2E2E2E2E2E2E2E2E2E2E2E2E2E2E2E2E2E2E2E2E2E2E2E2E2E2E2E2BEE2E2DCE2E2E2E2E22DE2E2E2F5E2F5E2
310
E2E2E2E2E2E2E2E2E2E2E2E2E2E2E2E2E2E2E2E2E2E2E2E2E2E2E2E2E2E2E2E2E2E2E2E2E2E2E2E2E2E2E2E2E2E2E2E2E2E2E2E2E2E2E2E2E2E2E2E2E2E2E2E2E2F5E2E22DE2E2E2E2E2E2E2E2E2E2E2E2E2E2E2E2DCF5F5F5F5F5F5F5F5F5E2E2E2E2E2E2E2E2E2E2E2E2E2E2E2E2E2E2E2E2E2E2E2E2E2E2E2E2E2E2E2E2
310
E2E2E2E2E2E2E2E2E2E2E2E2E2E2E2E2E2E2E2DCE2E2E2E22D2D2D2DE22D2D2D2D2D2D2D2D2D2DE2DCE2E2BEE2E2E2E2E2E2E2E2E2E2E2E2E2E2E2E2E2E2E2E2E2E2E2E2E2E2E2E2E2E2E2E2E2E2E2E2E2E2E2E2E2E2E2E2E2E2E2E2E2E2E2E2E2E2E2E2E2E2E2E2E2E2E2E2E2E2E2E2BEE2E2DCE2E2E2E2E22DE2E2E2F5E2
310
F5E2E2E2E2E2E2E2E2E2E2E2E2E2E2E2E2E2E2E2E2E2E2E2E2E2E2E2E2E2E2E2E2E2E2E2E2E2E2E2E2E2E2E2E2E2E2E2E2E2E2E2E2E2E2E2E2E2E2E2E2E2E2E2E2E2E2F5E2E22DE2E2E2E2E2E2E2E2E2E2E2E2E2E2E2E2DCF5F5DCDCDCDCDCDCDCDCDCDCDCDCDCDCDCDCDCDCDCDCDCDCDCDCDCDCDCDCDCDCDCDCDCDCDCDCDC
310
DCDCDCDCDCDCDCDCDCDCDCDCDCDCDCDCDCDCDCDCDCDCDCDCDCDCDCDCDCDCDCDCDCDCDCDCDCDCDCDCDCDCDCE2E2BEE2E2E2E2E2E2E2E2E2E2E2E2E2E2E2E2E2E2E2E2E2E2E2E2E2E2E2E2E2E2E2E2E2E2E2E2E2E2E2E2E2E2E2E2E2E2E2E2E2E2E2E2E2E2E2E2E2E2E2E2E2E2E2E2E2E2E2E2BEE2E2DCE2E2E2E2E22DE2E2E2
310
282828282828282828282828282828282828282828282828282828282828282828282828282828282828282828282828282828282828282828282828282828282828282828F5E2E22DE2E2E2E2E2E2E2E2E2E2E2E2E2E2E2E2DCDCE2E2E2E2E2E2E2E2E2E2E2E2E2E2E2E2E2E2E2E2E2E2E2E2E2E2E2E2E2E2E2E2E2E2E2E2
310
E2E2BEDCE2E2E2E2E2E2E2E2E2E2E2E2E2E2E2E2E2E2E2E2E2E2E2E2E2E2E2E2E2E2E2E2E2E2E2E2E2E2E2E2DCE2E2BEE2E2E2E2E2E2E2E2E2E2E2E2E2E2E2E2E2E2E2E2E2E2E2E2E2E2E2E2E2E2E2E2E2E2E2E2E2E2E2E2E2E2E2E2E2E2E2E2E2E2E2E2E2E2E2E2E2E2E2E2E2E2E2E2E2E2E2E2BEE2E2DCE2E2E2E2E22DE2
310
E2F5F5E2F5E2E2E2E2E2E2E2E2E2E2E2E2E2E2E2E2E2E2E2E2E2E2E2E2E2E2E2E2E2E2E2E2E2E2E2E2E2E2E2E2E2E2E2E2E2282828282828282828282828282828282828282828F5E2E22DE2E2E2E2E2E2E2E2E2E2E2E2E2E2E2E2DCE2E2E2E2E2E2E2E2E2E2E2E2E2E2E2E2E2E2E2E2E2E2E2E2E2E2E2E2E2E2E2E2E2E2E2
310
E2E2E2E2BEE2E2E2E2E2E2E2E2E2E2E2E2E2E2E2E2E2E2E2E2E2E2E2E2E2E2E2E2E2E2E2E2E2E2E2E2E2E2E2E2E2DCE2E2BEE2E2E2E2E2E2E2E2E2E2E2E2E2E2E2E2E2E2E2E2E2E2E2E2E2E2E2E2E2E2E2E2E2E2E2E2E2E2E2E2E2E2E2E2E2E2E2E2E2E2E2E2E2E2E2E2E2E2E2E2E2E2E2E2E2E2E2E2BEE2E2DCE2E2E2E2E2
310
2DE2E2F5F5E2F5E2E2E2E2E2E2E2E2E2E2E2E2E2E2E2E2E2E2E2E2E2E2E2E2E2E2E2E2E2E2E2E2E2E2E2E2E2E2E2E2E2E2E2E2E22828E2E2E2E228E2E2E2E2E2E2E2E2E2E2E2E22828F5E2E22DE2E2E2E2E2E2E2E2E2E2E2E2E2E2E2E2DCF5F5F5F5F5E2E2E2E2E2E2E2E2E2E2E2E2E2E2E2E2E2E2E2E2E2E2E2E2E2E2E2E2
310
E2E2E2E2E2E2BEF5F5F5F5E2E2E2E2E2E2E2E2E2E2E2E2E2E2E2E2E2E2E2E2E2E2E2E2E2E2E2E2E2E2E2E2E2E2E2E2E2DCE2E2BEE2E2E2E2E2E2E2E2E2E2E2E2E2E2E2E2E2E2E2E2E2E2E2E2E2E2E2E2E2E2E2E2E2E2E2E2E2E2E2E2E2E2E2E2E2E2E2E2E2E2E2E2E2E2E2E2E2E2E2E2E2E2E2E2E2E2E2E2BEE2E2DCE2E2E2
310
E2E22DE2E2F5F5E2F5E2E2E2E2E2E2E2E2E2E2E2E2E2E2E2E2E2E2E2E2E2E2E2E2E2E2E2E2E2E2E2E2E2E2E2E2E2E2E2E2E2E2E2E2E22828E2E2E2E228E2E2E2E2E2E2E2E2E2E2E2E22828F5E2E22DE2E2E2E2E2E2E2E2E2E2E2E2E2E2E2E2BEF5F5BEBEBEBEBEBEBEBEBEBEBEBEBEBEBEBEBEBEBEBEBEBEBEBEBEBEBEBEBE
310
BEBEBEBEBEBEBEBEBEF5F5BEBEBEBEBEBEBEBEBEBEBEBEBEBEBEBEBEBEBEBEBEBEBEBEBEBEBEBEBEBEBEBEBEBEBEBEBEBEBEBEE2E2BEE2E2E2E2E2E2E2E2E2E2E2E2E2E2E2E2E2E2E2E2E2E2E2E2E2E2E2E2E2E2E2E2E2E2E2E2E2E2E2E2E2E2E2E2E2E2E2E2E2E2E2E2E2E2E2E2E2E2E2E2E2E2E2E2E2E2E2E2BEE2E2DCE2
310
E2E2E2E22DE2E2F5F5E2F5E2E2E2E2E2E2E2E2E2E2E2E2E2E2E2E2E2E2E2E2E2E2E2E2E2E2E2E2E2E2E2E2E2E2E2E2E2E2E2E2E2E2E2E2E22828E2E2E2E228E2E2E2E2E2E2E2E2E2E2E2E22828F5E2E22DE2E2E2E2E2E2E2E2E2E2E2E2E2E2E2E2DCDCE2E2E2E2E2E2E2E2E2E2E2E2E2E2E2E2E2E2E2E2E2E2E2E2E2E2E2E2
310
E2E2E2E2E2E2E2E2E2E2BEDCE2E2E2E2E2E2E2E2E2E2E2E2E2E2E2E2E2E2E2E2E2E2E2E2E2E2E2E2E2E2E2E2E2E2E2E2E2E2E2E2DCE2E2BEE2E2E2E2E2E2E2E2E2E2E2E2E2E2E2E2E2E2E2E2E2E2E2E2E2E2E2E2E2E2E2E2E2E2E2E2E2E2E2E2E2E2E2E2E2E2E2E2E2E2E2E2E2E2E2E2E2E2E2E2E2E2E2E2E2E2E2E2BEE2E2
310
DCE2E2E2E2E22DE2E2F5F5E2F5E2E2E2E2E2E2E2E2E2E2E2E2E2E2E2E2E2E2E2E2E2E2E2E2E2E2E2E2E2E2E2E2E2E2E2E2E2E2E2E2E2E2E2E2E22828E2E2E2E228E2E2E2E2E2E2E2E2E2E2E2E22828F5E2E22DE2E2E2E2E2E2E2E2E2E2E2E2E2E2E2E2DCE2E2E2E2E2E2E2E2E2E2E2E2E2E2E2E2E2E2E2E2E2E2E2E2E2E2E2
310
E2E2E2E2E2E2E2E2E2E2E2E2BEE2E2E2E2E2E2E2E2E2E2E2E2E2E2E2E2E2E2E2E2E2E2E2E2E2E2E2E2E2E2E2E2E2E2E2E2E2E2E2E2E2DCE2E2BEE2E2E2E2E2E2E2E2E2E2E2E2E2E2E2E2E2E2E2E2E2E2E2E2E2E2E2E2E2E2E2E2E2E2E2E2E2E2E2E2E2E2E2E2E2E2E2E2E2E2E2E2E2E2E2E2E2E2E2E2E2E2E2E2E2E2E2E2BE
310
E2E2DCE2E2E2E2E22DE2E2F5F5E2F5E2E2E2E2E2E2E2E2E2E2E2E2E2E2E2E2E2E2E2E2E2E2E2E2E2E2E2E2E2E2E2E2E2E2E2E2E2E2E2E2E2E2E2E2E22828E2E2E2E228E2E2E2E2E2E2E2E2E2E2E2E22828F5E2E22DE2E2E2E2E2E2E2E2E2E2E2E2E2E2E2E2DCF5F5F5F5F5F5E2E2E2E2E2E2E2E2E2E2E2E2E2E2E2E2E2E2E2
310
E2E2E2E2E2E2E2E2E2E2E2E2E2E2BEF5F5F5F5F5F5F5E2E2E2E2E2E2E2E2E2E2E2E2E2E2E2E2E2E2E2E2E2E2E2E2E2E2E2E2E2E2E2E2E2E2DCE2E2BEE2E2E2E2E2E2E2E2E2E2E2E2E2E2E2E2E2E2E2E2E2E2E2E2E2E2E2E2E2E2E2E2E2E2E2E2E2E2E2E2E2E2E2E2E2E2E2E2E2E2E2E2E2E2E2E2E2E2E2E2E2E2E2E2E2E2E2
310
E2BEE2E2DCE2E2E2E2E22DE2E2F5F5E2F5E2E2E2E2E2E2E2E2E2E2E2E2E2E2E2E2E2E2E2E2E2E2E2E2E2E2E2E2E2E2E2E2E2E2E2E2E2E2E2E2E2E2E2E2E22828E2E2E2E228E2E2E2E2E2E2E2E2E2E2E2E22828F5E2E22DE2E2E2E2E2E2E2E2E2E2E2E2E2E2E2E2DCF5F5F5F5F5F5E2E2E2E2E2E2E2E2E2E2E2E2E2E2E2E2E2
310
E2E2E2E2E2E2E2E2E2E2E2E2E2E2E2E2BEF5F5F5F5F5F5F5E2E2E2E2E2E2E2E2E2E2E2E2E2E2E2E2E2E2E2E2E2E2E2E2E2E2E2E2E2E2E2E2E2E2DCE2E2BEE2E2E2E2E2E2E2E2E2E2E2E2E2E2E2E2E2E2E2E2E2E2E2E2E2E2E2E2E2E2E2E2E2E2E2E2E2E2E2E2E2E2E2E2E2E2E2E2E2E2E2E2E2E2E2E2E2E2E2E2E2E2E2E2E2
310
E2E2E2BEE2E2DCE2E2E2E2E22DE2E2F5F5E2F5E2E2E2E2E2E2E2E2E2E2E2E2E2E2E2E2E2E2E2E2E2E2E2E2E2E2E2E2E2E2E2E2E2E2E2E2E2E2E2E2E2E2E2E2E22828E2E2E2E228E2E2E2E2E2E2E2E2E2E2E2E22828F5E2E22DE2E2E2E2E2E2E2E2E2E2E2E2E2E2E2E2DCDCDCDCDCDCDCDCDCDCDCDCDCDCDCDCDCDCDCDCDCDC
310
DCDCDCDCDCDCDCDCDCDCDCDCDCDCDCDCDCDCDCDCDCDCDCDCDCDCDCDCDCDCDCDCDCDCDCDCDCDCDCDCDCDCDCDCDCDCDCDCDCDCDCDCDCDCDCDCDCDCDCDCDCE2E2BEE2E2E2E2E2E2E2E2E2E2E2E2E2E2E2E2E2E2E2E2E2E2E2E2E2E2E2E2E2E2E2E2E2E2E2E2E2E2E2E2E2E2E2E2E2E2E2E2E2E2E2E2E2E2E2E2E2E2E2E2E2E2E2
310
E2E2E2E2E2BEE2E2DCE2E2E2E2E22DE2E2F5F5E2F5E2E2E2E2E2E2E2E2E2E2E2E2E2E2E2E2E2E2E2E2E2E2E2E2E2E2E2E2E2E2E2E2E2E2E2E2E2E2E2E2E2E2E2E2E22828E2E2E2E228E2E2E2E2E2E2E2E2E2E2E2E22828F5E2E22DE2E2E2E2E2E2E2E2E2E2E2E2E2E2E2E2E2E2E2E2E2E2E2E2E2E2E2E2E2E2E2E2E2E2E2E2
310
E2E2E2E2E2E2E2E2E2E2E2E2E2E2E2E2E2E2E2E2E2E2E2E2E2E2E2E2E2E2E2E2E2E2E2E2E2E2E2E2E2E2E2E2E2E2E2E2E2E2E2E2E2E2E2E2E2E2E2E2E2E2DCE2E2BEE2E2E2E2E2E2E2E2E2E2E2E2E2E2E2E2E2E2E2E2E2E2E2E2E2E2E2E2E2E2E2E2E2E2E2E2E2E2E2E2E2E2E2E2E2E2E2E2E2E2E2E2E2E2E2E2E2E2E2E2E2
310
E2E2E2E2E2E2E2BEE2E2DCE2E2E2E2E22DE2E2F5F5E2F5E2E2E2E2E2E2E2E2E2E2E2E2E2E2E2E2E2E2E2E2E2E2E2E2E2E2E2E2E2E2E2E2E2E2E2E2E2E2E2E2E2E2E2E2E22828E2E2E2E228E2E2E2E2E2E2E2E2E2E2E2E22828F5E2E22DE2E2E2E2E2E2E2E2E2E2E2E2E2E2E2E2E2E2E2E2E2E2E2E2E2E2E2E2E2E2E2E2E2E2
310
E2E2E2E2E2E2E2E2E2E2E2E2E2E2E2E2E2E2E2E2E2E2E2E2E2E2E2E2E2E2E2E2E2E2E2E2E2E2E2E2E2E2E2E2E2E2E2E2E2E2E2E2E2E2E2E2E2E2E2E2E2E2E2E2DCE2E2BEE2E2E2E2E2E2E2E2E2E2E2E2E2E2E2E2E2E2E2E2E2E2E2E2E2E2E2E2E2E2E2E2E2E2E2E2E2E2E2E2E2E2E2E2E2E2E2E2E2E2E2E2E2E2E2E2E2E2E2
310
E2E2E2E2E2E2E2E2E2BEE2E2DCE2E2E2E2E22DE2E2F5F5E2F5E2E2E2E2E2E2E2E2E2E2E2E2E2E2E2E2E2E2E2E2E2E2E2E2E2E2E2E2E2E2E2E2E2E2E2E2E2E2E2E2E2E2E2E2E22828E2E2E2E228E2E2E2E2E2E2E2E2E2E2E2E22828F5E2E22DE2E2E2E2E2E2E2E2E2E2E2E2E2E2E2E2E2E2E2E2E2E2E2E2E2E2E2E2E2E2E2E2
310
E2E2E2E2E2E2E2E2E2E2E2E2E2E2E2E2E2E2E2E2E2E2E2E2E2E2E2E2E2E2E2E2E2E2E2E2E2E2E2E2E2E2E2E2E2E2E2E2E2E2E2E2E2E2E2E2E2E2E2E2E2E2E2E2E2E2DCE2E2BEE2E2E2E2E2E2E2E2E2E2E2E2E2E2E2E2E2E2E2E2E2E2E2E2E2E2E2E2E2E2E2E2E2E2E2E2E2E2E2E2E2E2E2E2E2E2E2E2E2E2E2E2E2E2E2E2E2
310
E2E2E2E2E2E2E2E2E2E2E2BEE2E2DCE2E2E2E2E22DE2E2F5F5E2F5E2E2E2E2E2E2E2E2E2E2E2E2E2E2E2E2E2E2E2E2E2E2E2E2E2E2E2E2E2E2E2E2E2E2E2E2E2E2E2E2E2E2E2E2E22828E2E2E2E228E2E2E2E2E2E2E2E2E2E2E2E22828F5E2E22DE2E2E2E2E2E2E2E2E2E2E2E2E2E2E2E2E2E2E2E2E2E2E2E2E2E2E2E2E2E2
310
E2E2E2E2E2E2E2E2E2E2E2E2E2E2E2E2E2E2E2E2E2E2E2E2E2E2E2E2E2E2E2E2E2E2E2E2E2E2E2E2E2E2E2E2E2E2E2E2E2E2E2E2E2E2E2E2E2E2E2E2E2E2E2E2E2E2E2E2DCE2E2BEE2E2E2E2E2E2E2E2E2E2E2E2E2E2E2E2E2E2E2E2E2E2E2E2E2E2E2E2E2E2E2E2E2E2E2E2E2E2E2E2E2E2E2E2E2E2E2E2E2E2E2E2E2E2E2
310
E2E2E2E2E2E2E2E2E2E2E2E2E2BEE2E2DCE2E2E2E2E22DE2E2F5F5E2F5E2E2E2E2E2E2E2E2E2E2E2E2E2E2E2E2E2E2E2E2E2E2E2E2E2E2E2E2E2E2E2E2E2E2E2E2E2E2E2E2E2E2E2E2E22828E2E2E2E228E2E2E2E2E2E2E2E2E2E2E2E22828F5E2E22DE2E2E2E2E2E2E2E2E2E2E2E2E2E2E2E2E2E2E2E2E2E2E2E2E2E2E2E2
310
E2E2E2E2E2E2E2E2E2E2E2E2E2E2E2E2E2E2E2E2E2E2E2E2E2E2E2E2E2E2E2E2E2E2E2E2E2E2E2E2E2E2E2E2E2E2E2E2E2E2E2E2E2E2E2E2E2E2E2E2E2E2E2E2E2E2E2E2E2E2DCE2E2BEE2E2E2E2E2E2E2E2E2E2E2E2E2E2E2E2E2E2E2E2E2E2E2E2E2E2E2E2E2E2E2E2E2E2E2E2E2E2E2E2E2E2E2E2E2E2E2E2E2E2E2E2E2
310
E2E2E2E2E2E2E2E2E2E2E2E2E2E2E2BEE2E2DCE2E2E2E2E22DE2E2F5F5E2F5E2E2E2E2E2E2E2E2E2E2E2E2E2E2E2E2E2E2E2E2E2E2E2E2E2E2E2E2E2E2E2E2E2E2E2E2E2E2E2E2E2E2E2E2E22828E2E2E2E228E2E2E2E2E2E2E2E2E2E2E2E22828F5E2E22DE2E2E2E2E2E2E2E2E2E2E2E2E2E2E2E2E2E2E2E2E2E2E2E2E2E2
310
E2E2E2E2E2E2E2E2E2E2E2E2E2E2E2E2E2E2E2E2E2E2E2E2E2E2E2E2E2E2E2E2E2E2E2E2E2E2E2E2E2E2E2E2E2E2E2E2E2E2E2E2E2E2E2E2E2E2E2E2E2E2E2E2E2E2E2E2E2E2E2E2DCE2E2BEE2E2E2E2E2E2E2E2E2E2E2E2E2E2E2E2E2E2E2E2E2E2E2E2E2E2E2E2E2E2E2E2E2E2E2E2E2E2E2E2E2E2E2E2E2E2E2E2E2E2E2
310
E2E2E2E2E2E2E2E2E2E2E2E2E2E2E2E2E2BEE2E2DCE2E2E2E2E22DE2E2F5F5E2F5E2E2E2E2E2E2E2E2E2E2E2E2E2E2E2E2E2E2E2E2E2E2E2E2E2E2E2E2E2E2E2E2E2E2E2E2E2E2E2E2E2E2E2E2E22828E2E2E2E228E2E2E2E2E2E2E2E2E2E2E2E22828F5E2E22DE2E2E2E2E2E2E2E2E2E2E2E2E2E2E2E2E2E2E2E2E2E2E2E2
310
E2E2E2E2E2E2E2E2E2E2E2E2E2E2E2E2E2E2E2E2E2E2E2E2E2E2E2E2E2E2E2E2E2E2E2E2E2E2E2E2E2E2E2E2E2E2E2E2E2E2E2E2E2E2E2E2E2E2E2E2E2E2E2E2E2E2E2E2E2E2E2E2E2E2DCE2E2BEE2E2E2E2E2E2E2E2E2E2E2E2E2E2E2E2E2E2E2E2E2E2E2E2E2E2E2E2E2E2E2E2E2E2E2E2E2E2E2E2E2E2E2E2E2E2E2E2E2
310
E2E2E2E2E2E2E2E2E2E2E2E2E2E2E2E2E2E2E2BEE2E2DCE2E2E2E2E22DE2E2F5F5E2F5E2E2E2E2E2E2E2E2E2E2E2E2E2E2E2E2E2E2E2E2E2E2E2E2E2E2E2E2E2E2E2E2E2E2E2E2E2E2E2E2E2E2E2E2E22828E2E2E2E228E2E2E2E2E2E2E2E2E2E2E2E22828F5E2E22DE2E2E2E2E2E2E2E2E2E2E2E2E2E2E2E2E2E2E2E2E2E2
310
E2E2E2E2E2E2E2E2E2E2E2E2E2E2E2E2E2E2E2E2E2E2E2E2E2E2E2E2E2E2E2E2E2E2E2E2E2E2E2E2E2E2E2E2E2E2E2E2E2E2E2E2E2E2E2E2E2E2E2E2E2E2E2E2E2E2E2E2E2E2E2E2E2E2E2E2DCE2E2BEE2E2E2E2E2E2E2E2E2E2E2E2E2E2E2E2E2E2E2E2E2E2E2E2E2E2E2E2E2E2E2E2E2E2E2E2E2E2E2E2E2E2E2E2E2E2E2
310
E2E2E2E2E2E2E2E2E2E2E2E2E2E2E2E2E2E2E2E2E2BEE2E2DCE2E2E2E2E22DE2E2F5F5E2F5E2E2E2E2E2E2E2E2E2E2E2E2E2E2E2E2E2E2E2E2E2E2E2E2E2E2E2E2E2E2E2E2E2E2E2E2E2E2E2E2E2E2E2E2E22828E2E2E2E228E2E2E2E2E2E2E2E2E2E2E2E22828F5E2E22DE2E2E2E2E2E2E2E2E2E2E2E2E2E2E2E2E2E2E2E2
310
E2E2E2E2E2E2E2E2E2E2E2E2E2E2E2E2E2E2E2E2E2E2E2E2E2E2E2E2E2E2E2E2E2E2E2E2E2E2E2E2E2E2E2E2E2E2E2E2E2E2E2E2E2E2E2E2E2E2E2E2E2E2E2E2E2E2E2E2E2E2E2E2E2E2E2E2E2E2DCE2E2BEE2E2E2E2E2E2E2E2E2E2E2E2E2E2E2E2E2E2E2E2E2E2E2E2E2E2E2E2E2E2E2E2E2E2E2E2E2E2E2E2E2E2E2E2E2
310
E2E2E2E2E2E2E2E2E2E2E2E2E2E2E2E2E2E2E2E2E2E2E2BEE2E2DCE2E2E2E2E22DE2E2F5F5E2F5E2E2E2E2E2E2E2E2E2E2E2E2E2E2E2E2E2E2E2E2E2E2E2E2E2E2E2E2E2E2E2E2E2E2E2E2E2E2E2E2E2E2E2E2E22828E2E2E2E228E2E2E2E2E2E2E2E2E2E2E2E22828F5E2E22DE2E2E2E2E2E2E2E2E2E2E2E2E2E2E2E2E2E2
310
E2E2E2E2E2E2E2E2E2E2E2E2E2E2E2E2E2E2E2E2E2E2E2E2E2E2E2E2E2E2E2E2E2E2E2E2E2E2E2E2E2E2E2E2E2E2E2E2E2E2E2E2E2E2E2E2E2E2E2E2E2E2E2E2E2E2E2E2E2E2E2E2E2E2E2E2E2E2E2E2DCE2E2BEE2E2E2E2E2E2E2E2E2E2E2E2E2E2E2E2E2E2E2E2E2E2E2E2E2E2E2E2E2E2E2E2E2E2E2E2E2E2E2E2E2E2E2
310
E2E2E2E2E2E2E2E2E2E2E2E2E2E2E2E2E2E2E2E2E2E2E2E2E2BEE2E2DCE2E2E2E2E22DE2E2F5F5E2F5E2E2E2E2E2E2E2E2E2E2E2E2E2E2E2E2E2E2E2E2E2E2E2E2E2E2E2E2E2E2E2E2E2E2E2E2E2E2E2E2E2E2E2E2E22828E2E2E2E228E2E2E2E2E2E2E2E2E2E2E2E22828F5E2E22DE2E2E2E2E2E2E2E2E2E2E2E2E2E2E2E2
310
E2E2E2E2E2E2E2E2E2E2E2E2E2E2E2E2E2E2E2E2E2E2E2E2E2E2E2E2E2E2E2E2E2E2E2E2E2E2E2E2E2E2E2E2E2E2E2E2E2E2E2E2E2E2E2E2E2E2E2E2E2E2E2E2E2E2E2E2E2E2E2E2E2E2E2E2E2E2E2E2E2E2DCE2E2BEE2E2E2E2E2E2E2E2E2E2E2E2E2E2E2E2E2E2E2E2E2E2E2E2E2E2E2E2E2E2E2E2E2E2E2E2E2E2E2E2E2
310
E2E2E2E2E2E2E2E2E2E2E2E2E2E2E2E2E2E2E2E2E2E2E2E2E2E2E2BEE2E2DCE2E2E2E2E22DE2E2F5F5E2F5E2E2E2E2E2E2E2E2E2E2E2E2E2E2E2E2E2E2E2E2E2E2E2E2E2E2E2E2E2E2E2E2E2E2E2E2E2E2E2E2E2E2E2E2E22828E2E2E2E228E2E2E2E2E2E2E2E2E2E2E2E22828F5E2E22DE2E2E2E2E2E2E2E2E2E2E2E2E2E2
310
E2E2E2E2E2E2E2E2E2E2E2E2E2E2E2E2E2E2E2E2E2E2E2E2E2E2E2E2E2E2E2E2E2E2E2E2E2E2E2E2E2E2E2E2E2E2E2E2E2E2E2E2E2E2E2E2E2E2E2E2E2E2E2E2E2E2E2E2E2E2E2E2E2E2E2E2E2E2E2E2E2E2E2E2DCE2E2BEE2E2E2E2E2E2E2E2E2E2E2E2E2E2E2E2E2E2E2E2E2E2E2E2E2E2E2E2E2E2E2E2E2E2E2E2E2E2E2
310
E2E2E2E2E2E2E2E2E2E2E2E2E2E2E2E2E2E2E2E2E2E2E2E2E2E2E2E2E2BEE2E2DCE2E2E2E2E22DE2E2F5F5E2F5E2E2E2E2E2E2E2E2E2E2E2E2E2E2E2E2E2E2E2E2E2E2E2E2E2E2E2E2E2E2E2E2E2E2E2E2E2E2E2E2E2E2E2E2E22828E2E2E2E228E2E2E2E2E2E2E2E2E2E2E2E22828F5E2E22DE2E2E2E2E2E2E2E2E2E2E2E2
310
E2E2E2E2E2E2E2E2E2E2E2E2E2E2E2E2E2E2E2E2E2E2E2E2E2E2E2E2E2E2E2E2E2E2E2E2E2E2E2E2E2E2E2E2E2E2E2E2E2E2E2E2E2E2E2E2E2E2E2E2E2E2E2E2E2E2E2E2E2E2E2E2E2E2E2E2E2E2E2E2E2E2E2E2E2E2DCE2E2BEE2E2E2E2E2E2E2E2E2E2E2E2E2E2E2E2E2E2E2E2E2E2E2E2E2E2E2E2E2E2E2E2E2E2E2E2E2
310
E2E2E2E2E2E2E2E2E2E2E2E2E2E2E2E2E2E2E2E2E2E2E2E2E2E2E2E2E2E2E2BEE2E2DCE2E2E2E2E22DE2E2F5F5E2F5E2E2E2E2E2E2E2E2E2E2E2E2E2E2E2E2E2E2E2E2E2E2E2E2E2E2E2E2E2E2E2E2E2E2E2E2E2E2E2E2E2E2E2E2E22828E2E2E2E228E2E2E2E2E2E2E2E2E2E2E2E22828F5E2E22DE2E2E2E2E2E2E2E2E2E2
310
E2E2E2E2E2E2E2E2E2E2E2E2E2E2E2E2E2E2E2E2E2E2E2E2E2E2E2E2E2E2E2E2E2E2E2E2E2E2E2E2E2E2E2E2E2E2E2E2E2E2E2E2E2E2E2E2E2E2E2E2E2E2E2E2E2E2E2E2E2E2E2E2E2E2E2E2E2E2E2E2E2E2E2E2E2E2E2E2DCE2E2BEE2E2E2E2E2E2E2E2E2E2E2E2E2E2E2E2E2E2E2E2E2E2E2E2E2E2E2E2E2E2E2E2E2E2E2
310
E2E2E2E2E2E2E2E2E2E2E2E2E2E2E2E2E2E2E2E2E2E2E2E2E2E2E2E2E2E2E2E2E2BEE2E2DCE2E2E2E2E22DE2E2F5F5E2F5E2E2E2E2E2E2E2E2E2E2E2E2E2E2E2E2E2E2E2E2E2E2E2E2E2E2E2E2E2E2E2E2E2E2E2E2E2E2E2E2E2E2E2E2E22828E2E2E2E228E2E2E2E2E2E2E2E2E2E2E2E22828F5E2E22DE2E2E2E2E2E2E2E2
310
E2E2E2E2E2E2E2E2E2E2E2E2E2E2E2E2E2E2E2E2E2E2E2E2E2E2E2E2E2E2E2E2E2E2E2E2E2E2E2E2E2E2E2E2E2E2E2E2E2E2E2E2E2E2E2E2E2E2E2E2E2E2E2E2E2E2E2E2E2E2E2E2E2E2E2E2E2E2E2E2E2E2E2E2E2E2E2E2E2E2DCE2E2BEE2E2E2E2E2E2E2E2E2E2E2E2E2E2E2E2E2E2E2E2E2E2E2E2E2E2E2E2E2E2E2E2E2
310
E2E2E2E2E2E2E2E2E2E2E2E2E2E2E2E2E2E2E2E2E2E2E2E2E2E2E2E2E2E2E2E2E2E2E2BEE2E2DCE2E2E2E2E22DE2E2F5F5E2F5E2E2E2E2E2E2E2E2E2E2E2E2E2E2E2E2E2E2E2E2E2E2E2E2E2E2E2E2E2E2E2E2E2E2E2E2E2E2E2E2E2E2E2E2E22828E2E2E2E228E2E2E2E2E2E2E2E2E2E2E2E22828F5E2E22DE2E2E2E2E2E2
310
E2E2E2E2E2E2E2E2E2E2E2E2E2E2E2E2E2E2E2E2E2E2E2E2E2E2E2E2E2E2E2E2E2E2E2E2E2E2E2E2E2E2E2E2E2E2E2E2E2E2E2E2E2E2E2E2E2E2E2E2E2E2E2E2E2E2E2E2E2E2E2E2E2E2E2E2E2E2E2E2E2E2E2E2E2E2E2E2E2E2E2E2DCE2E2BEE2E2E2E2E2E2E2E2E2E2E2E2E2E2E2E2E2E2E2E2E2E2E2E2E2E2E2E2E2E2E2
310
E2E2E2E2E2E2E2E2E2E2E2E2E2E2E2E2E2E2E2E2E2E2E2E2E2E2E2E2E2E2E2E2E2E2E2E2E2BEE2E2DCE2E2E2E2E22DE2E2F5F5E2F5E2E2E2E2E2E2E2E2E2E2E2E2E2E2E2E2E2E2E2E2E2E2E2E2E2E2E2E2E2E2E2E2E2E2E2E2E2E2E2E2E2E2E2E2E22828E2E2E2E228E2E2E2E2E2E2E2E2E2E2E2E22828F5E2E22DE2E2E2E2
310
E2E2E2E2E2E2E2E2E2E2E2E2E2E2E2E2E2E2E2E2E2E2E2E2E2E2E2E2E2E2E2E2E2E2E2E2E2E2E2E2E2E2E2E2E2E2E2E2E2E2E2E2E2E2E2E2E2E2E2E2E2E2E2E2E2E2E2E2E2E2E2E2E2E2E2E2E2E2E2E2E2E2E2E2E2E2E2E2E2E2E2E2E2E2DCE2E2BEE2E2E2E2E2E2E2E2E2E2E2E2E2E2E2E2E2E2E2E2E2E2E2E2E2E2E2E2E2
310
E2E2E2E2E2E2E2E2E2E2E2E2E2E2E2E2E2E2E2E2E2E2E2E2E2E2E2E2E2E2E2E2E2E2E2E2E2E2E2BEE2E2DCE2E2E2E2E22DE2E2F5F5E2F5E2E2E2E2E2E2E2E2E2E2E2E2E2E2E2E2E2E2E2E2E2E2E2E2E2E2E2E2E2E2E2E2E2E2E2E2E2E2E2E2E2E2E2E2E22828E2E2E2E228E2E2E2E2E2E2E2E2E2E2E2E22828F5E2E22DE2E2
310
E2E2E2E2E2E2E2E2E2E2E2E2E2E2E2E2E2E2E2E2E2E2E2E2E2E2E2E2E2E2E2E2E2E2E2E2E2E2E2E2E2E2E2E2E2E2E2E2E2E2E2E2E2E2E2E2E2E2E2E2E2E2E2E2E2E2E2E2E2E2E2E2E2E2E2E2E2E2E2E2E2E2E2E2E2E2E2E2E2E2E2E2E2E2E2E2DCE2E2BEE2E2E2E2E2E2E2E2E2E2E2E2E2E2E2E2E2E2E2E2E2E2E2E2E2E2E2
310
E2E2E2E2E2E2E2E2E2E2E2E2E2E2E2E2E2E2E2E2E2E2E2E2E2E2E2E2E2E2E2E2E2E2E2E2E2E2E2E2E2BEE2E2DCE2E2E2BEBE2DE2E2F5F5E2F5E2E2E2E2E2E2E2E2E2E2E2E2E2E2E2E2E2E2E2E2E2E2E2E2E2E2E2E2E2E2E2E2E2E2E2E2E2E2E2E2E2E2E2E2E22828E2E2E2E228E2E2E2E2E2E2E2E2E2E2E2E22828F5BEBE2D
310
E2E2E2E2E2E2E2E2E2E2E2E2E2E2E2E2E2E2E2E2E2E2E2E2E2E2E2E2E2E2E2E2E2E2E2E2E2E2E2E2E2E2E2E2E2E2E2E2E2E2E2E2E2E2E2E2E2E2E2E2E2E2E2E2E2E2E2E2E2E2E2E2E2E2E2E2E2E2E2E2E2E2E2E2E2E2E2E2E2E2E2E2E2E2E2E2E2E2DCE2E2BEE2E2E2E2E2E2E2E2E2E2E2E2E2E2E2E2E2E2E2E2E2E2E2E2E2
310
E2E2E2E2E2E2E2E2E2E2E2E2E2E2E2E2E2E2E2E2E2E2E2E2E2E2E2E2E2E2E2E2E2E2E2E2E2E2E2E2E2E2E2BEE2E2DCE2E2E2BEBE2DE2E2F5F5E2F5E2E2E2E2E2E2E2E2E2E2E2E2E2E2E2E2E2E2E2E2E2E2E2E2E2E2E2E2E2E2E2E2E2E2E2E2E2E2E2E2E2E2E2E2E22828E2E2E2E228E2E2E2E2E2E2E2E2E2E2E2E22828F5BE
310
BE2DE2E2E2E2E2E2E2E2E2E2E2E2E2E2E2E2E2E2E2E2E2E2E2E2E2E2E2E2E2E2E2E2E2E2E2E2E2E2E2E2E2E2E2E2E2E2E2E2E2E2E2E2E2E2E2E2E2E2E2E2E2E2E2E2E2E2E2E2E2E2E2E2E2E2E2E2E2E2E2E2E2E2E2E2E2E2E2E2E2E2E2E2E2E2E2E2E2E2DCE2E2BEE2E2E2E2E2E2E2E2E2E2E2E2E2E2E2E2E2E2E2E2E2E2E2
310
E2E2E2E2E2E2E2E2E2E2E2E2E2E2E2E2E2E2E2E2E2E2E2E2E2E2E2E2E2E2E2E2E2E2E2E2E2E2E2E2E2E2E2E2E2BEE2E2DCE2E2E2BEBE2DE2E2F5F5E2F5E2E2E2E2E2E2E2E2E2E2E2E2E2E2E2E2E2E2E2E2E2E2E2E2E2E2E2E2E2E2E2E2E2E2E2E2E2E2E2E2E2E2E2E2E22828E2E2E2E228E2E2E2E2E2E2E2E2E2E2E2E22828
310
F5BEBE2DE2E2E2E2E2E2E2E2E2E2E2E2E2E2E2E2E2E2E2E2E2E2E2E2E2E2E2E2E2E2E2E2E2E2E2E2E2E2E2E2E2E2E2E2E2E2E2E2E2E2E2E2E2E2E2E2E2E2E2E2E2E2E2E2E2E2E2E2E2E2E2E2E2E2E2E2E2E2E2E2E2E2E2E2E2E2E2E2E2E2E2E2E2E2E2E2E2E2DCE2E2BEE2E2E2E2E2E2E2E2E2E2E2E2E2E2E2E2E2E2E2E2E2
310
E2E2E2E2E2E2E2E2E2E2E2E2E2E2E2E2E2E2E2E2E2E2E2E2E2E2E2E2E2E2E2E2E2E2E2E2E2E2E2E2E2E2E2E2E2E2E2BEE2E2DCE2E2E2E2E22DE2E2F5F5E2F5E2E2E2E2E2E2E2E2E2E2E2E2E2E2E2E2E2E2E2E2E2E2E2E2E2E2E2E2E2E2E2E2E2E2E2E2E2E2E2E2E2E2E2E2E22828E2E2E2E228E2E2E2E2E2E2E2E2E2E2E2E2
310
2828F5E2E22DE2E2E2E2E2E2E2E2E2E2E2E2E2E2E2E2E2E2E2E2E2E2E2E2E2E2E2E2E2E2E2E2E2E2E2E2E2E2E2E2E2E2E2E2E2E2E2E2E2E2E2E2E2E2E2E2E2E2E2E2E2E2E2E2E2E2E2E2E2E2E2E2E2E2E2E2E2E2E2E2E2E2E2E2E2E2E2E2E2E2E2E2E2E2E2E2E2E2DCE2E2BEE2E2E2E2E2E2E2E2E2E2E2E2E2E2E2E2E2E2E2
310
E2E2E2E2E2E2E2E2E2E2E2E2E2E2E2E2E2E2E2E2E2E2E2E2E2E2E2E2E2E2E2E2E2E2E2E2E2E2E2E2E2E2E2E2E2E2E2E2E2BEE2E2DCE2E2E2E2E22DE2E2F5F5E2F5E2E2E2E2E2E2E2E2E2E2E2E2E2E2E2E2E2E2E2E2E2E2E2E2E2E2E2E2E2E2E2E2E2E2E2E2E2E2E2E2E2E2E2E2E22828E2E2E2E228E2E2E2E2E2E2E2E2E2E2
310
E2E22828F5E2E22DE2E2E2E2E2E2E2E2E2E2E2E2E2E2E2E2E2E2E2E2E2E2E2E2E2E2E2E2E2E2E2E2E2E2E2E2E2E2E2E2E2E2E2E2E2E2E2E2E2E2E2E2E2E2E2E2E2E2E2E2E2E2E2E2E2E2E2E2E2E2E2E2E2E2E2E2E2E2E2E2E2E2E2E2E2E2E2E2E2E2E2E2E2E2E2E2E2E2DCE2E2BEE2E2E2E2E2E2E2E2E2E2E2E2E2E2E2E2E2
310
E2E2E2E2E2E2E2E2E2E2E2E2E2E2E2E2E2E2E2E2E2E2E2E2E2E2E2E2E2E2E2E2E2E2E2E2E2E2E2E2E2E2E2E2E2E2E2E2E2E2E2BEE2E2DCE2E2E2E2E22DE2E2F5F5E2F5E2E2E2E2E2E2E2E2E2E2E2E2E2E2E2E2E2E2E2E2E2E2E2E2E2E2E2E2E2E2E2E2E2E2E2E2E2E2E2E2E2E2E2E2E22828E2E2E2E228E2E2E2E2E2E2E2E2
310
E2E2E2E22828F5E2E22DE2E2E2E2E2E2E2E2E2E2E2E2E2E2E2E2E2E2E2E2E2E2E2E2E2E2E2E2E2E2E2E2E2E2E2E2E2E2E2E2E2E2E2E2E2E2E2E2E2E2E2E2E2E2E2E2E2E2E2E2E2E2E2E2E2E2E2E2E2E2E2E2E2E2E2E2E2E2E2E2E2E2E2E2E2E2E2E2E2E2E2E2E2E2E2E2E2E2DCE2E2BEE2E2E2E2E2E2E2E2E2E2E2E2E2E2E2
310
E2E2E2E2E2E2E2E2E2E2E2E2E2E2E2E2E2E2E2E2E2E2E2E2E2E2E2E2E2E2E2E2E2E2E2E2E2E2E2E2E2E2E2E2E2E2E2E2E2E2E2E2E2BEE2E2DCE2E2E2E2E22DE2E2F5F5E2F5E2E2E2E2E2E2E2E2E2E2E2E2E2E2E2E2E2E2E2E2E2E2E2E2E2E2E2E2E2E2E2E2E2E2E2E2E2E2E2E2E2E2E2E2E22828E2E2E2E228E2E2E2E2E2E2
310
E2E2E2E2E2E22828F5E2E22DE2E2E2E2E2E2E2E2E2E2E2E2E2E2E2E2E2E2E2E2E2E2E2E2E2E2E2E2E2E2E2E2E2E2E2E2E2E2E2E2E2E2E2E2E2E2E2E2E2E2E2E2E2E2E2E2E2E2E2E2E2E2E2E2E2E2E2E2E2E2E2E2E2E2E2E2E2E2E2E2E2E2E2E2E2E2E2E2E2E2E2E2E2E2E2E2E2E2DCE2E2BEE2E2E2E2E2E2E2E2E2E2E2E2E2
310
E2E2E2E2E2E2E2E2E2E2E2E2E2E2E2E2E2E2E2E2E2E2E2E2E2E2E2E2E2E2E2E2E2E2E2E2E2E2E2E2E2E2E2E2E2E2E2E2E2E2E2E2E2E2E2BEE2E2DCE2E2E2E2E22DE2E2F5F5E2F5E2E2E2E2E2E2E2E2E2E2E2E2E2E2E2E2E2E2E2E2E2E2E2E2E2E2E2E2E2E2E2E2E2E2E2E2E2E2E2E2E2E2E2E2E22828E2E2E2E228E2E2E2E2
310
E2E2E2E2E2E2E2E22828F5E2E22DE2E2E2E2E2E2E2E2E2E2E2E2E2E2E2E2E2E2E2E2E2E2E2E2E2E2E2E2E2E2E2E2E2E2E2E2E2E2E2E2E2E2E2E2E2E2E2E2E2E2E2E2E2E2E2E2E2E2E2E2E2E2E2E2E2E2E2E2E2E2E2E2E2E2E2E2E2E2E2E2E2E2E2E2E2E2E2E2E2E2E2E2E2E2E2E2E2E2DCE2E2BEE2E2E2E2E2E2E2E2E2E2E2
310
E2E2E2E2E2E2E2E2E2E2E2E2E2E2E2E2E2E2E2E2E2E2E2E2E2E2E2E2E2E2E2E2E2E2E2E2E2E2E2E2E2E2E2E2E2E2E2E2E2E2E2E2E2E2E2E2E2BEE2E2DCE2E2E2E2E22DE2E2F5F5E2F5E2E2E2E2E2E2E2E2E2E2E2E2E2E2E2E2E2E2E2E2E2E2E2E2E2E2E2E2E2E2E2E2E2E2E2E2E2E2E2E2E2E2E2E2E22828E2E2E2E228E2E2
310
E2E2E2E2E2E2E2E2E2E22828F5E2E22DE2E2E2E2E2E2E2E2E2E2E2E2E2E2E2E2E2E2E2E2E2E2E2E2E2E2E2E2E2E2E2E2E2E2E2E2E2E2E2E2E2E2E2E2E2E2E2E2E2E2E2E2E2E2E2E2E2E2E2E2E2E2E2E2E2E2E2E2E2E2E2E2E2E2E2E2E2E2E2E2E2E2E2E2E2E2E2E2E2E2E2E2E2E2E2E2E2E2DCE2E2BEE2E2E2E2E2E2E2E2E2
310
E2E2E2E2E2E2E2E2E2E2E2E2E2E2E2E2E2E2E2E2E2E2E2E2E2E2E2E2E2E2E2E2E2E2E2E2E2E2E2E2E2E2E2E2E2E2E2E2E2E2E2E2E2E2E2E2E2E2E2BEE2E2DCE2E2E2E2E22DE2E2F5F5E2F5E2E2E2E2E2E2E2E2E2E2E2E2E2E2E2E2E2E2E2E2E2E2E2E2E2E2E2E2E2E2E2E2E2E2E2E2E2E2E2E2E2E2E2E2E22828E2E2E2E228
310
E2E2E2E2E2E2E2E2E2E2E2E22828F5E2E22DE2E2E2E2E2E2E2E2E2E2E2E2E2E2E2E2E2E2E2E2E2E2E2E2E2E2E2E2E2E2E2E2E2E2E2E2E2E2E2E2E2E2E2E2E2E2E2E2E2E2E2E2E2E2E2E2E2E2E2E2E2E2E2E2E2E2E2E2E2E2E2E2E2E2E2E2E2E2E2E2E2E2E2E2E2E2E2E2E2E2E2E2E2E2E2E2E2E2DCE2E2BEE2E2E2E2E2E2E2
310
E2E2E2E2E2E2E2E2E2E2E2E2E2E2E2E2E2E2E2E2E2E2E2E2E2E2E2E2E2E2E2E2E2E2E2E2E2E2E2E2E2E2E2E2E2E2E2E2E2E2E2E2E2E2E2E2E2E2E2E2E2BEE2E2DCE2E2E2E2E22DE2E2F5F5E2F5E2E2E2E2E2E2E2E2E2E2E2E2E2E2E2E2E2E2E2E2E2E2E2E2E2E2E2E2E2E2E2E2E2E2E2E2E2E2E2E2E2E2E2E2E22828E2E2E2
310
E228E2E2E2E2E2E2E2E2E2E2E2E22828F5E2E22DE2E2E2E2E2E2E2E2E2E2E2E2E2E2E2E2E2E2E2E2E2E2E2E2E2E2E2E2E2E2E2E2E2E2E2E2E2E2E2E2E2E2E2E2E2E2E2E2E2E2E2E2E2E2E2E2E2E2E2E2E2E2E2E2E2E2E2E2E2E2E2E2E2E2E2E2E2E2E2E2E2E2E2E2E2E2E2E2E2E2E2E2E2E2E2E2E2E2DCE2E2BEE2E2E2E2E2
310
E2E2E2E2E2E2E2E2E2E2E2E2E2E2E2E2E2E2E2E2E2E2E2E2E2E2E2E2E2E2E2E2E2E2E2E2E2E2E2E2E2E2E2E2E2E2E2E2E2E2E2E2E2E2E2E2E2E2E2E2E2E2E2BEE2E2DCE2E2E2E2E22DE2E2F5F5E2F5E2E2E2E2E2E2E2E2E2E2E2E2E2E2E2E2E2E2E2E2E2E2E2E2E2E2E2E2E2E2E2E2E2E2E2E2E2E2E2E2E2E2E2E2E22828E2
310
E2E2E228E2E2E2E2E2E2E2E2E2E2E2E22828F5E2E22DE2E2E2E2E2E2E2E2E2E2E2E2E2E2E2E2E2E2E2E2E2E2E2E2E2E2E2E2E2E2E2E2E2E2E2E2E2E2E2E2E2E2E2E2E2E2E2E2E2E2E2E2E2E2E2E2E2E2E2E2E2E2E2E2E2E2E2E2E2E2E2E2E2E2E2E2E2E2E2E2E2E2E2E2E2E2E2E2E2E2E2E2E2E2E2E2E2E2DCE2E2BEE2E2E2
310
E2E2E2E2E2E2E2E2E2E2E2E2E2E2E2E2E2E2E2E2E2E2E2E2E2E2E2E2E2E2E2E2E2E2E2E2E2E2E2E2E2E2E2E2E2E2E2E2E2E2E2E2E2E2E2E2E2E2E2E2E2E2E2E2E2BEE2E2DCE2E2E2E2E22DE2E2F5F5E2F5E2E2E2E2E2E2E2E2E2E2E2E2E2E2E2E2E2E2E2E2E2E2E2E2E2E2E2E2E2E2E2E2E2E2E2E2E2E2E2E2E2E2E2E2E228
310
28E2E2E2E228E2E2E2E2E2E2E2E2E2E2E2E22828F5E2E22DE2E2E2E2E2E2E2E2E2E2E2E2E2E2E2E2E2E2E2E2E2E2E2E2E2E2E2E2E2E2E2E2E2E2E2E2E2E2E2E2E2E2E2E2E2E2E2E2E2E2E2E2E2E2E2E2E2E2E2E2E2E2E2E2E2E2E2E2E2E2E2E2E2E2E2E2E2E2E2E2E2E2E2E2E2E2E2E2E2E2E2E2E2E2E2E2E2E2DCE2E2BEE2
310
E2E2E2E2E2E2E2E2E2E2E2E2E2E2E2E2E2E2E2E2E2E2E2E2E2E2E2E2E2E2E2E2E2E2E2E2E2E2E2E2E2E2E2E2E2E2E2E2E2E2E2E2E2E2E2E2E2E2E2E2E2E2E2E2E2E2E2BEE2E2DCE2E2E2E2E22DE2E2F5F5E2F5E2E2E2E2E2E2E2E2E2E2E2E2E2E2E2E2E2E2E2E2E2E2E2E2E2E2E2E2E2E2E2E2E2E2E2E2E2E2E2E2E2E2E2E2
310
E22828E2E2E2E228E2E2E2E2E2E2E2E2E2E2E2E22828F5E2E22DE2E2E2E2E2E2E2E2E2E2E2E2E2E2E2E2E2E2E2E2E2E2E2E2E2E2E2E2E2E2E2E2E2E2E2E2E2E2E2E2E2E2E2E2E2E2E2E2E2E2E2E2E2E2E2E2E2E2E2E2E2E2E2E2E2E2E2E2E2E2E2E2E2E2E2E2E2E2E2E2E2E2E2E2E2E2E2E2E2E2E2E2E2E2E2E2E2E2DCE2E2
310
BEE2E2E2E2E2E2E2E2E2E2E2E2E2E2E2E2E2E2E2E2E2E2E2E2E2E2E2E2E2E2E2E2E2E2E2E2E2E2E2E2E2E2E2E2E2E2E2E2E2E2E2E2E2E2E2E2E2E2E2E2E2E2E2E2E2E2E2E2BEE2E2DCE2E2E2E2E22DE2E2F5F5E2F5E2E2E2E2E2E2E2E2E2E2E2E2E2E2E2E2E2E2E2E2E2E2E2E2E2E2E2E2E2E2E2E2E2E2E2E2E2E2E2E2E2E2
310
E2E2E22828E2E2E2E228E2E2E2E2E2E2E2E2E2E2E2E22828F5E2E22DE2E2E2E2E2E2E2E2E2E2E2E2E2E2E2E2E2E2E2E2E2E2E2E2E2E2E2E2E2E2E2E2E2E2E2E2E2E2E2E2E2E2E2E2E2E2E2E2E2E2E2E2E2E2E2E2E2E2E2E2E2E2E2E2E2E2E2E2E2E2E2E2E2E2E2E2E2E2E2E2E2E2E2E2E2E2E2E2E2E2E2E2E2E2E2E2E2E2DC
310
E2E2BEE2E2E2E2E2E2E2E2E2E2E2E2E2E2E2E2E2E2E2E2E2E2E2E2E2E2E2E2E2E2E2E2E2E2E2E2E2E2E2E2E2E2E2E2E2E2E2E2E2E2E2E2E2E2E2E2E2E2E2E2E2E2E2E2E2E2E2E2BEE2E2DCE2E2E2E2E22DE2E2F5F5E2F5E2E2E2E2E2E2E2E2E2E2E2E2E2E2E2E2E2E2E2E2E2E2E2E2E2E2E2E2E2E2E2E2E2E2E2E2E2E2E2E2
310
E2E2E2E2E22828E2E2E2E228E2E2E2E2E2E2E2E2E2E2E2E22828F5E2E22DE2E2E2E2E2E2E2E2E2E2E2E2E2E2E2E2E2E2E2E2E2E2E2E2E2E2E2E2E2E2E2E2E2E2E2E2E2E2E2E2E2E2E2E2E2E2E2E2E2E2E2E2E2E2E2E2E2E2E2E2E2E2E2E2E2E2E2E2E2E2E2E2E2E2E2E2E2E2E2E2E2E2E2E2E2E2E2E2E2E2E2E2E2E2E2E2E2
310
E2DCE2E2BEE2E2E2E2E2E2E2E2E2E2E2E2E2E2E2E2E2E2E2E2E2E2E2E2E2E2E2E2E2E2E2E2E2E2E2E2E2E2E2E2E2E2E2E2E2E2E2E2E2E2E2E2E2E2E2E2E2E2E2E2E2E2E2E2E2E2E2E2BEE2E2DCE2E2E2E2E22DE2E2F5F5E2F5E2E2E2E2E2E2E2E2E2E2E2E2E2E2E2E2E2E2E2E2E2E2E2E2E2E2E2E2E2E2E2E2E2E2E2E2E2E2
310
E2E2E2E2E2E2E22828E2E2E2E228E2E2E2E2E2E2E2E2E2E2E2E22828F5E2E22DE2E2E2E2E2E2E2E2E2E2E2E2E2E2E2E2E2E2E2E2E2E2E2E2E2E2E2E2E2E2E2E2E2E2E2E2E2E2E2E2E2E2E2E2E2E2E2E2E2E2E2E2E2E2E2E2E2E2E2E2E2E2E2E2E2E2E2E2E2E2E2E2E2E2E2E2E2E2E2E2E2E2E2E2E2E2E2E2E2E2E2E2E2E2E2
310
E2E2E2DCE2E2BEE2E2E2E2E2E2E2E2E2E2E2E2E2E2E2E2E2E2E2E2E2E2E2E2E2E2E2E2E2E2E2E2E2E2E2E2E2E2E2E2E2E2E2E2E2E2E2E2E2E2E2E2E2E2E2E2E2E2E2E2E2E2E2E2E2E2E2E2BEE2E2DCE2E2E2E2E22DE2E2F5F5E2F5E2E2E2E2E2E2E2E2E2E2E2E2E2E2E2E2E2E2E2E2E2E2E2E2E2E2E2E2E2E2E2E2E2E2E2E2
310
E2E2E2E2E2E2E2E2E22828E2E2E2E228E2E2E2E2E2E2E2E2E2E2E2E22828F5E2E22DE2E2E2E2E2E2E2E2E2E2E2E2E2E2E2E2E2E2E2E2E2E2E2E2E2E2E2E2E2E2E2E2E2E2E2E2E2E2E2E2E2E2E2E2E2E2E2E2E2E2E2E2E2E2E2E2E2E2E2E2E2E2E2E2E2E2E2E2E2E2E2E2E2E2E2E2E2E2E2E2E2E2E2E2E2E2E2E2E2E2E2E2E2
310
E2E2E2E2E2DCE2E2BEE2E2E2E2E2E2E2E2E2E2E2E2E2E2E2E2E2E2E2E2E2E2E2E2E2E2E2E2E2E2E2E2E2E2E2E2E2E2E2E2E2E2E2E2E2E2E2E2E2E2E2E2E2E2E2E2E2E2E2E2E2E2E2E2E2E2E2E2BEE2E2DCE2E2E2E2E22DE2E2F5F5E2F5E2E2E2E2E2E2E2E2E2E2E2E2E2E2E2E2E2E2E2E2E2E2E2E2E2E2E2E2E2E2E2E2E2E2
310
E2E2E2E2E2E2E2E2E2E2E22828E2E2E2E228E2E2E2E2E2E2E2E2E2E2E2E22828F5E2E22DE2E2E2E2E2E2E2E2E2E2E2E2E2E2E2E2E2E2E2E2E2E2E2E2E2E2E2E2E2E2E2E2E2E2E2E2E2E2E2E2E2E2E2E2E2E2E2E2E2E2E2E2E2E2E2E2E2E2E2E2E2E2E2E2E2E2E2E2E2E2E2E2E2E2E2E2E2E2E2E2E2E2E2E2E2E2E2E2E2E2E2
310
E2E2E2E2E2E2E2DCE2E2BEE2E2E2E2E2E2E2E2E2E2E2E2E2E2E2E2E2E2E2E2E2E2E2E2E2E2E2E2E2E2E2E2E2E2E2E2E2E2E2E2E2E2E2E2E2E2E2E2E2E2E2E2E2E2E2E2E2E2E2E2E2E2E2E2E2E2E2E2BEE2E2DCE2E2E2E2E22DE2E2F5F5E2F5E2E2E2E2E2E2E2E2E2E2E2E2E2E2E2E2E2E2E2E2E2E2E2E2E2E2E2E2E2E2E2E2
310
E2E2E2E2E2E2E2E2E2E2E2E2E22828E2E2E2E228E2E2E2E2E2E2E2E2E2E2E2E22828F5E2E22DE2E2E2E2E2E2E2E2E2E2E2E2E2E2E2E2E2E2E2E2E2E2E2E2E2E2E2E2E2E2E2E2E2E2E2E2E2E2E2E2E2E2E2E2E2E2E2E2E2E2E2E2E2E2E2E2E2E2E2E2E2E2E2E2E2E2E2E2E2E2E2E2E2E2E2E2E2E2E2E2E2E2E2E2E2E2E2E2E2
310
E2E2E2E2E2E2E2E2E2DCE2E2BEE2E2E2E2E2E2E2E2E2E2E2E2E2E2E2E2E2E2E2E2E2E2E2E2E2E2E2E2E2E2E2E2E2E2E2E2E2E2E2E2E2E2E2E2E2E2E2E2E2E2E2E2E2E2E2E2E2E2E2E2E2E2E2E2E2E2E2E2BEE2E2DCE2E2E2E2E22DE2E2F5F5E2F5E2E2E2E2E2E2E2E2E2E2E2E2E2E2E2E2E2E2E2E2E2E2E2E2E2E2E2E2E2E2
310
E2E2E2E2E2E2E2E2E2E2E2E2E2E2E22828E2E2E2E228E2E2E2E2E2E2E2E2E2E2E2E22828F5E2E22DE2E2E2E2E2E2E2E2E2E2E2E2E2E2E2E2E2E2E2E2E2E2E2E2E2E2E2E2E2E2E2E2E2E2E2E2E2E2E2E2E2E2E2E2E2E2E2E2E2E2E2E2E2E2E2E2E2E2E2E2E2E2E2E2E2E2E2E2E2E2E2E2E2E2E2E2E2E2E2E2E2E2E2E2E2E2E2
310
E2E2E2E2E2E2E2E2E2E2E2DCE2E2BEE2E2E2E2E2E2E2E2E2E2E2E2E2E2E2E2E2E2E2E2E2E2E2E2E2E2E2E2E2E2E2E2E2E2E2E2E2E2E2E2E2E2E2E2E2E2E2E2E2E2E2E2E2E2E2E2E2E2E2E2E2E2E2E2E2E2E2E2BEE2E2DCE2E2E2E2E22DE2E2F5F5E2F5E2E2E2E2E2E2E2E2E2E2E2E2E2E2E2E2E2E2E2E2E2E2E2E2E2E2E2E2
310
E2E2E2E2E2E2E2E2E2E2E2E2E2E2E2E2E22828E2E2E2E228E2E2E2E2E2E2E2E2E2E2E2E22828F5E2E22DE2E2E2E2E2E2E2E2E2E2E2E2E2E2E2E2E2E2E2E2E2E2E2E2E2E2E2E2E2E2E2E2E2E2E2E2E2E2E2E2E2E2E2E2E2E2E2E2E2E2E2E2E2E2E2E2E2E2E2E2E2E2E2E2E2E2E2E2E2E2E2E2E2E2E2E2E2E2E2E2E2E2E2E2E2
310
E2E2E2E2E2E2E2E2E2E2E2E2E2DCE2E2BEE2E2E2E2E2E2E2E2E2E2E2E2E2E2E2E2E2E2E2E2E2E2E2E2E2E2E2E2E2E2E2E2E2E2E2E2E2E2E2E2E2E2E2E2E2E2E2E2E2E2E2E2E2E2E2E2E2E2E2E2E2E2E2E2E2E2E2E2BEE2E2DCE2E2E2E2E22DE2E2F5F5E2F5E2E2E2E2E2E2E2E2E2E2E2E2E2E2E2E2E2E2E2E2E2E2E2E2E2E2
310
E2E2E2E2E2E2E2E2E2E2E2E2E2E2E2E2E2E2E22828E2E2E2E228E2E2E2E2E2E2E2E2E2E2E2E22828F5E2E22DE2E2E2E2E2E2E2E2E2E2E2E2E2E2E2E2E2E2E2E2E2E2E2E2E2E2E2E2E2E2E2E2E2E2E2E2E2E2E2E2E2E2E2E2E2E2E2E2E2E2E2E2E2E2E2E2E2E2E2E2E2E2E2E2E2E2E2E2E2E2E2E2E2E2E2E2E2E2E2E2E2E2E2
310
E2E2E2E2E2E2E2E2E2E2E2E2E2E2E2DCE2E2BEE2E2E2E2E2E2E2E2E2E2E2E2E2E2E2E2E2E2E2E2E2E2E2E2E2E2E2E2E2E2E2E2E2E2E2E2E2E2E2E2E2E2E2E2E2E2E2E2E2E2E2E2E2E2E2E2E2E2E2E2E2E2E2E2E2E2E2E2BEE2E2DCE2E2E2E2E22DE2E2F5F5E2F5E2E2E2E2E2E2E2E2E2E2E2E2E2E2E2E2E2E2E2E2E2E2E2E2
310
E2E2E2E2E2E2E2E2E2E2E2E2E2E2E2E2E2E2E2E2E22828E2E2E2E228E2E2E2E2E2E2E2E2E2E2E2E22828F5E2E22DE2E2E2E2E2E2E2E2E2E2E2E2E2E2E2E2E2E2E2E2E2E2E2E2E2E2E2E2E2E2E2E2E2E2E2E2E2E2E2E2E2E2E2E2E2E2E2E2E2E2E2E2E2E2E2E2E2E2E2E2E2E2E2E2E2E2E2E2E2E2E2E2E2E2E2E2E2E2E2E2E2
310
E2E2E2E2E2E2E2E2E2E2E2E2E2E2E2E2E2DCE2E2BEE2E2E2E2E2E2E2E2E2E2E2E2E2E2E2E2E2E2E2E2E2E2E2E2E2E2E2E2E2E2E2E2E2E2E2E2E2E2E2E2E2E2E2E2E2E2E2E2E2E2E2E2E2E2E2E2E2E2E2E2E2E2E2E2E2E2E2E2BEE2E2DCE2E2E2E2E22DE2E2F5F5E2F5E2E2E2E2E2E2E2E2E2E2E2E2E2E2E2E2E2E2E2E2E2E2
310
E2E2E2E2E2E2E2E2E2E2E2E2E2E2E2E2E2E2E2E2E2E2E22828E2E2E2E228E2E2E2E2E2E2E2E2E2E2E2E22828F5E2E22DE2E2E2E2E2E2E2E2E2E2E2E2E2E2E2E2E2E2E2E2E2E2E2E2E2E2E2E2E2E2E2E2E2E2E2E2E2E2E2E2E2E2E2E2E2E2E2E2E2E2E2E2E2E2E2E2E2E2E2E2E2E2E2E2E2E2E2E2E2E2E2E2E2E2E2E2E2E2E2
310
E2E2E2E2E2E2E2E2E2E2E2E2E2E2E2E2E2E2E2DCE2E2BEE2E2E2E2E2E2E2E2E2E2E2E2E2E2E2E2E2E2E2E2E2E2E2E2E2E2E2E2E2E2E2E2E2E2E2E2E2E2E2E2E2E2E2E2E2E2E2E2E2E2E2E2E2E2E2E2E2E2E2E2E2E2E2E2E2E2E2E2BEE2E2DCE2E2E2E2E22DE2E2F5F5E2F5E2E2E2E2E2E2E2E2E2E2E2E2E2E2E2E2E2E2E2E2
310
E2E2E2E2E2E2E2E2E2E2E2E2E2E2E2E2E2E2E2E2E2E2E2E2E22828E2E2E2E228E2E2E2E2E2E2E2E2E2E2E2E22828F5E2E22DE2E2E2E2E2E2E2E2E2E2E2E2E2E2E2E2E2E2E2E2E2E2E2E2E2E2E2E2E2E2E2E2E2E2E2E2E2E2E2E2E2E2E2E2E2E2E2E2E2E2E2E2E2E2E2E2E2E2E2E2E2E2E2E2E2E2E2E2E2E2E2E2E2E2E2E2E2
310
E2E2E2E2E2E2E2E2E2E2E2E2E2E2E2E2E2E2E2E2E2DCE2E2BEE2E2E2E2E2E2E2E2E2E2E2E2E2E2E2E2E2E2E2E2E2E2E2E2E2E2E2E2E2E2E2E2E2E2E2E2E2E2E2E2E2E2E2E2E2E2E2E2E2E2E2E2E2E2E2E2E2E2E2E2E2E2E2E2E2E2E2E2BEE2E2DCE2E2E2E2E22DE2E2F5F5E2F5E2E2E2E2E2E2E2E2E2E2E2E2E2E2E2E2E2E2
310
E2E2E2E2E2E2E2E2E2E2E2E2E2E2E2E2E2E2E2E2E2E2E2E2E2E2E22828E2E2E2E228E2E2E2E2E2E2E2E2E2E2E2E22828F5E2E22DE2E2E2E2E2E2E2E2E2E2E2E2E2E2E2E2E2E2E2E2E2E2E2E2E2E2E2E2E2E2E2E2E2E2E2E2E2E2E2E2E2E2E2E2E2E2E2E2E2E2E2E2E2E2E2E2E2E2E2E2E2E2E2E2E2E2E2E2E2E2E2E2E2E2E2
310
E2E2E2E2E2E2E2E2E2E2E2E2E2E2E2E2E2E2E2E2E2E2E2DCE2E2BEE2E2E2E2E2E2E2E2E2E2E2E2E2E2E2E2E2E2E2E2E2E2E2E2E2E2E2E2E2E2E2E2E2E2E2E2E2E2E2E2E2E2E2E2E2E2E2E2E2E2E2E2E2E2E2E2E2E2E2E2E2E2E2E2E2E2E2E2BEE2E2DCE2E2E2E2E22DE2E2F5F5E2F5E2E2E2E2E2E2E2E2E2E2E2E2E2E2E2E2
310
E2E2E2E2E2E2E2E2E2E2E2E2E2E2E2E2E2E2E2E2E2E2E2E2E2E2E2E2E22828E2E2E2E228E2E2E2E2E2E2E2E2E2E2E2E22828F5E2E22DE2E2E2E2E2E2E2E2E2E2E2E2E2E2E2E2E2E2E2E2E2E2E2E2E2E2E2E2E2E2E2E2E2E2E2E2E2E2E2E2E2E2E2E2E2E2E2E2E2E2E2E2E2E2E2E2E2E2E2E2E2E2E2E2E2E2E2E2E2E2E2E2E2
310
E2E2E2E2E2E2E2E2E2E2E2E2E2E2E2E2E2E2E2E2E2E2E2E2E2DCE2E2BEE2E2E2E2E2E2E2E2E2E2E2E2E2E2E2E2E2E2E2E2E2E2E2E2E2E2E2E2E2E2E2E2E2E2E2E2E2E2E2E2E2E2E2E2E2E2E2E2E2E2E2E2E2E2E2E2E2E2E2E2E2E2E2E2E2E2E2E2BEE2E2DCE2E2E2E2E22DE2E2F5F5E2F5E2E2E2E2E2E2E2E2E2E2E2E2E2E2
310
E2E2E2E2E2E2E2E2E2E2E2E2E2E2E2E2E2E2E2E2E2E2E2E2E2E2E2E2E2E2E22828E2E2E2E228E2E2E2E2E2E2E2E2E2E2E2E22828F5E2E22DE2E2E2E2E2E2E2E2E2E2E2E2E2E2E2E2E2E2E2E2E2E2E2E2E2E2E2E2E2E2E2E2E2E2E2E2E2E2E2E2E2E2E2E2E2E2E2E2E2E2E2E2E2E2E2E2E2E2E2E2E2E2E2E2E2E2E2E2E2E2E2
310
E2E2E2E2E2E2E2E2E2E2E2E2E2E2E2E2E2E2E2E2E2E2E2E2E2E2E2DCE2E2BEE2E2E2E2E2E2E2E2E2E2E2E2E2E2E2E2E2E2E2E2E2E2E2E2E2E2E2E2E2E2E2E2E2E2E2E2E2E2E2E2E2E2E2E2E2E2E2E2E2E2E2E2E2E2E2E2E2E2E2E2E2E2E2E2E2E2E2E2BEE2E2DCE2E2E2E2E22DE2E2F5F5E2F5E2E2E2E2E2E2E2E2E2E2E2E2
310
E2E2E2E2E2E2E2E2E2E2E2E2E2E2E2E2E2E2E2E2E2E2E2E2E2E2E2E2E2E2E2E2E2282828282828282828282828282828282828282828F5E2E22DE2E2E2E2E2E2E2E2E2E2E2E2E2E2E2E2E2E2E2E2E2E2E2E2E2E2E2E2E2E2E2E2E2E2E2E2E2E2E2E2E2E2E2E2E2E2E2E2E2E2E2E2E2E2E2E2E2E2E2E2E2E2E2E2E2E2E2E2E2
310
E2E2E2E2E2E2E2E2E2E2E2E2E2E2E2E2E2E2E2E2E2E2E2E2E2E2E2E2E2DCE2E2BEE2E2E2E2E2E2E2E2E2E2E2E2E2E2E2E2E2E2E2E2E2E2E2E2E2E2E2E2E2E2E2E2E2E2E2E2E2E2E2E2E2E2E2E2E2E2E2E2E2E2E2E2E2E2E2E2E2E2E2E2E2E2E2E2E2E2E2E2BEE2E2DCE2E2E2E2E22DE2E2E228282828282828282828282828
310
2828282828282828282828282828282828282828282828282828282828282828282828282828282828282828282828282828282828282828F5E2E22DE2E2E2E2E2E2E2E2E2E2E2E2E2E2E2E2E2E2E2E2E2E2E2E2E2E2E2E2E2E2E2E2E2E2E2E2E2E2E2E2E2E2E2E2E2E2E2E2E2E2E2E2E2E2E2E2E2E2E2E2E2E2E2E2E2E2E2
310
E2E2E2E2E2E2E2E2E2E2E2E2E2E2E2E2E2E2E2E2E2E2E2E2E2E2E2E2E2E2E2DCE2E2BEE2E2E2E2E2E2E2E2E2E2E2E2E2E2E2E2E2E2E2E2E2E2E2E2E2E2E2E2E2E2E2E2E2E2E2E2E2E2E2E2E2E2E2E2E2E2E2E2E2E2E2E2E2E2E2E2E2E2E2E2E2E2E2E2E2E2E2E2BEE2E2DCE2E2E2E2E22DE2E2E2F5E2F5E2E2E2E2E2E2E2E2
310
E2E2E2E2E2E2E2E2E2E2E2E2E2E2E2E2E2E2E2E2E2E2E2E2E2E2E2E2E2E2E2E2E2E2E2E2E2E2E2E2E2E2E2E2E2E2E2E2E2E2E2E2E2E2E2E2E2E2F5E2E22DE2E2E2E2E2E2E2E2E2E2E2E2E2E2E2E2E2E2E2E2E2E2E2E2E2E2E2E2E2E2E2E2E2E2E2E2E2E2E2E2E2E2E2E2E2E2E2E2E2E2E2E2E2E2E2E2E2E2E2E2E2E2E2E2E2
310
E2E2E2E2E2E2E2E2E2E2E2E2E2E2E2E2E2E2E2E2E2E2E2E2E2E2E2E2E2E2E2E2E2DCE2E2BEE2E2E2E2E2E2E2E2E2E2E2E2E2E2E2E2E2E2E2E2E2E2E2E2E2E2E2E2E2E2E2E2E2E2E2E2E2E2E2E2E2E2E2E2E2E2E2E2E2E2E2E2E2E2E2E2E2E2E2E2E2E2E2E2E2E2E2E2BEE2E2DCE2E2E2E2E22DE2E2E2F5E2F5E2E2E2E2E2E2
310
E2E2E2E2E2E2E2E2E2E2E2E2E2E2E2E2E2E2E2E2E2E2E2E2E2E2E2E2E2E2E2E2E2E2E2E2E2E2E2E2E2E2E2E2E2E2E2E2E2E2E2E2E2E2E2E2E2E2E2E2F5E2E22DE2E2E2E2E2E2E2E2E2E2E2E2E2E2E2E2E2E2E2E2E2E2E2E2E2E2E2E2E2E2E2E2E2E2E2E2E2E2E2E2E2E2E2E2E2E2E2E2E2E2E2E2E2E2E2E2E2E2E2E2E2E2E2
310
E2E2E2E2E2E2E2E2E2E2E2E2E2E2E2E2E2E2E2E2E2E2E2E2E2E2E2E2E2E2E2E2E2E2E2DCE2E2BEE2E2E2E2E2E2E2E2E2E2E2E2E2E2E2E2E2E2E2E2E2E2E2E2E2E2E2E2E2E2E2E2E2E2E2E2E2E2E2E2E2E2E2E2E2E2E2E2E2E2E2E2E2E2E2E2E2E2E2E2E2E2E2E2E2E2E2E2BEE2E2DCE2E2E2E2E22DE2E2E2F5E2F5E2E2E2E2
310
E2E2E2E2E2E2E2E2E2E2E2E2E2E2E2E2E2E2E2E2E2E2E2E2E2E2E2E2E2E2E2E2E2E2E2E2E2E2E2E2E2E2E2E2E2E2E2E2E2E2E2E2E2E2E2E2E2E2E2E2E2E2F5E2E22D2DE2E2E2E2E2E2E2E2E2E2E2E2E2E2E2E2E2E2E2E2E2E2E2E2E2E2E2E2E2E2E2E2E2E2E2E2E2E2E2E2E2E2E2E2E2E2E2E2E2E2E2E2E2E2E2E2E2E2E2E2
310
E2E2E2E2E2E2E2E2E2E2E2E2E2E2E2E2E2E2E2E2E2E2E2E2E2E2E2E2E2E2E2E2E2E2E2E2E2DCE2E2BEE2E2E2E2E2E2E2E2E2E2E2E2E2E2E2E2E2E2E2E2E2E2E2E2E2E2E2E2E2E2E2E2E2E2E2E2E2E2E2E2E2E2E2E2E2E2E2E2E2E2E2E2E2E2E2E2E2E2E2E2E2E2E2E2E2E2E2E2BEE2E2DCE2E2E2E2E22D2D2D2DF5F5F5F5F5
310
F5F5F5F5F5F5F5F5F5F5F5F5F5F5F5F5F5F5F5F5F5F5F5F5F5F5F5F5F5F5F5F5F5F5F5F5F5F5F5F5F5F5F5F5F5F5F5F5F5F5F5F5F5F5F5F5F5F5F5F5F5F5F5F5F52D2D2D2DE2E2E2E2E2E2E2E2E2E2E2E2E2E2E2E2E2E2E2E2E2E2E2E2E2E2E2E2E2E2E2E2E2E2E2E2E2E2E2E2E2E2E2E2E2E2E2E2E2E2E2E2E2E2E2E2E2E2
310
E2E2E2E2E2E2E2E2E2E2E2E2E2E2E2E2E2E2E2E2E2E2E2E2E2E2E2E2E2E2E2E2E2E2E2E2E2E2E2DCE2E2BEE2E2E2E2E2E2E2E2E2E2E2E2E2E2E2E2E2E2E2E2E2E2E2E2E2E2E2E2E2E2E2E2E2E2E2E2E2E2E2E2E2E2E2E2E2E2E2E2E2E2E2E2E2E2E2E2E2E2E2E2E2E2E2E2E2E2E2E2BEE2E2DCE2E2E2E2E2E2E2E2E22DE2E2
310
E2E2E2E2E2E2E2E2E2E2E2E2E2E2E2E2E2E2E2E2E2E2E2E2E2E2E2E2E2E2E2E2E2E2E2E2E2E2E2E2E2E2E2E2E2E2E2E2E2E2E2E2E2E2E2E2E2E2E2E2E2E2E2E2E2E22DE2E2E2E2E2E2E2E2E2E2E2E2E2E2E2E2E2E2E2E2E2E2E2E2E2E2E2E2E2E2E2E2E2E2E2E2E2E2E2E2E2E2E2E2E2E2E2E2E2E2E2E2E2E2E2E2E2E2E2E2
310
E2E2E2E2E2E2E2E2E2E2E2E2E2E2E2E2E2E2E2E2E2E2E2E2E2E2E2E2E2E2E2E2E2E2E2E2E2E2E2E2E2DCE2E2BEE2E2E2E2E2E2E2E2E2E2E2E2E2E2E2E2E2E2E2E2E2E2E2E2E2E2E2E2E2E2E2E2E2E2E2E2E2E2E2E2E2E2E2E2E2E2E2E2E2E2E2E2E2E2E2E2E2E2E2E2E2E2E2E2E2E2E2E2BEE2E2DCE2E2E2E2E2E2E2E2E22D
310
E2E2E2E2E2E2E2E2E2E2E2E2E2E2E2E2E2E2E2E2E2E2E2E2E2E2E2E2E2E2E2E2E2E2E2E2E2E2E2E2E2E2E2E2E2E2E2E2E2E2E2E2E2E2E2E2E2E2E2E2E2E2E2E2E2E2E2E22DE2E2E2E2E2E2E2E2E2E2E2E2E2E2E2E2E2E2E2E2E2E2E2E2E2E2E2E2E2E2E2E2E2E2E2E2E2E2E2E2E2E2E2E2E2E2E2E2E2E2E2E2E2E2E2E2E2E2
310
E2E2E2E2E2E2E2E2E2E2E2E2E2E2E2E2E2E2E2E2E2E2E2E2E2E2E2E2E2E2E2E2E2E2E2E2E2E2E2E2E2E2E2DCE2E2BEE2E2E2E2E2E2E2E2E2E2E2E2E2E2E2E2E2E2E2E2E2E2E2E2E2E2E2E2E2E2E2E2E2E2E2E2E2E2E2E2E2E2E2E2E2E2E2E2E2E2E2E2E2E2E2E2E2E2E2E2E2E2E2E2E2E2E2E2BEE2E2DCE2E2E2E2E2E2E2E2
310
E22D2D2D2D2D2D2D2D2D2D2D2D2D2D2D2D2D2D2D2D2D2D2D2D2D2D2D2D2D2D2D2D2DBEBEBE2D2D2D2D2D2D2D2D2D2D2D2D2D2D2D2D2D2D2D2D2D2D2D2D2D2D2D2D2D2D2D2D2DF5E2E2E2E2E2E2E2E2E2E2E2E2E2E2E2E2E2E2E2E2E2E2E2E2E2E2E2E2E2E2E2E2E2E2E2E2E2E2E2E2E2E2E2E2E2E2E2E2E2E2E2E2E2E2E2E2
310
E2E2E2E2E2E2E2E2E2E2E2E2E2E2E2E2E2E2E2E2E2E2E2E2E2E2E2E2E2E2E2E2E2E2E2E2E2E2E2E2E2E2E2E2E2DCE2E2BEE2E2E2E2E2E2E2E2E2E2E2E2E2E2E2E2E2E2E2E2E2E2E2E2E2E2E2E2E2E2E2E2E2E2E2E2E2E2E2E2E2E2E2E2E2E2E2E2E2E2E2E2E2E2E2E2E2E2E2E2E2E2E2E2E2E2E2E2BEE2E2DCE2E2E2E2E2E2
310
E2E2E2E2E2E2E2E2E2E2E2E2E2E2E2E2E2E2E2E2E2E2E2E2E2E2E2E2E2E2E2E2E2E2E2E2BEBEBEE2E2E2E2E2E2E2E2E2E2E2E2E2E2E2E2E2E2E2E2E2E2E2E2E2E2E2E2E2E2E2E2E2E2E2E2E2E2E2E2E2E2E2E2E2E2E2E2E2E2E2E2E2E2E2E2E2E2E2E2E2E2E2E2E2E2E2E2E2E2E2E2E2E2E2E2E2E2E2E2E2E2E2E2E2E2E2E2
310
E2E2E2E2E2E2E2E2E2E2E2E2E2E2E2E2E2E2E2E2E2E2E2E2E2E2E2E2E2E2E2E2E2E2E2E2E2E2E2E2E2E2E2E2E2E2E2DCE2E2BEE2E2E2E2E2E2E2E2E2E2E2E2E2E2E2E2E2E2E2E2E2E2E2E2E2E2E2E2E2E2E2E2E2E2E2E2E2E2E2E2E2E2E2E2E2E2E2E2E2E2E2E2E2E2E2E2E2E2E2E2E2E2E2E2E2E2E2E2BEE2E2DCE2E2E2E2
310
E2E2E2E2E2E2E2E2E2E2E2E2E2E2E2E2E2E2E2E2E2E2E2E2E2E2E2E2E2E2E2E2E2E2E2E2E2E2E2E2E2E2E2E2E2E2E2E2E2E2E2E2E2E2E2E2E2E2E2E2E2E2E2E2E2E2E2E2E2E2E2E2E2E2E2E2E2E2E2E2E2E2E2E2E2E2E2E2E2E2E2E2E2E2E2E2E2E2E2E2E2E2E2E2E2E2E2E2E2E2E2E2E2E2E2E2E2E2E2E2E2E2E2E2E2E2E2
310
E2E2E2E2E2E2E2E2E2E2E2E2E2E2E2E2E2E2E2E2E2E2E2E2E2E2E2E2E2E2E2E2E2E2E2E2E2E2E2E2E2E2E2E2E2E2E2E2E2DCE2E2BEE2E2E2E2E2E2E2E2E2E2E2E2E2E2E2E2E2E2E2E2E2E2E2E2E2E2E2E2E2E2E2E2E2E2E2E2E2E2E2E2E2E2E2E2E2E2E2E2E2E2E2E2E2E2E2E2E2E2E2E2E2E2E2E2E2E2E2E2BEE2E2DCE2E2
310
E2E2E2E2E2E2E2E2E2E2E2E2E2E2E2E2E2E2E2E2E2E2E2E2E2E2E2E2E2E2E2E2E2E2E2E2E2E2E2E2E2E2E2E2E2E2E2E2E2E2E2E2E2E2E2E2E2E2E2E2E2E2E2E2E2E2E2E2E2E2E2E2E2E2E2E2E2E2E2E2E2E2E2E2E2E2E2E2E2E2E2E2E2E2E2E2E2E2E22D2D2D2D2D2D2D2D2D2D2D2D2D2D2D2D2D2D2D2D2D2D2D2D2D2D2D2D
310
2D2D2DBEBEBE2D2D2D2D2D2D2D2D2D2D2D2D2D2D2D2D2D2D2D2D2D2D2D2D2D2D2D2D2D2D2D2DF5E2E2E2E2E2E2E2E2E2E2E2E2DCE2E2BEE2E2E2E2E2E2E2E2E2E2E2E2E2E2E2E2E2E2E2E2E2E2E2E2E2E2E2E2E2E2E2E2E2E2E2E2E2E2E2E2E2E2E2E2E2E2E2E2E2E2E2E2E2E2E2E2E2E2E2E2E2E2E2E2E2E2E2E2BEE2E2DC
310
E2E2E2E2E2E2E2E2E2E2E2E2E2E2E2E2E2E2E2E2E2E2E2E2E2E2E2E2E2E2E2E2E2E2E2E2E2E2E2E2E2E2E2E2E2E2E2E2E2E2E2E2E2E2E2E2E2E2E2E2E2E2E2E2E2E2E2E2E2E2E2E2E2E2E2E2E2E2E2E2E2E2E2E2E2E2E2E2E2E2E2E2E2E2E2E2E2E2E2E2E22DE2E2E2E2E2E2E2E2E2E2E2E2E2E2E2E2E2E2E2E2E2E2E2E2E2
310
E2E2E2E2E2BEBEBEE2E2E2E2E2E2E2E2E2E2E2E2E2E2E2E2E2E2E2E2E2E2E2E2E2E2E2E2E2E2E2E22DE2E2E2E2E2E2E2E2E2E2E2E2DCE2E2BEE2E2E2E2E2E2E2E2E2E2E2E2E2E2E2E2E2E2E2E2E2E2E2E2E2E2E2E2E2E2E2E2E2E2E2E2E2E2E2E2E2E2E2E2E2E2E2E2E2E2E2E2E2E2E2E2E2E2E2E2E2E2E2E2E2E2E2E2BEE2
310
E2DCE2E2E2E2E2E2E2E2E2E2E2E2E2E2E2E2E2E2E2E2E2E2E2E2E2E2E2E2E2E2E2E2E2E2E2E2E2E2E2E2E2E2E2E2E2E2E2E2E2E2E2E2E2E2E2E2E2E2E2E2E2E2E2E2E2E2E2E2E2E2E2E2E2E2E2E2E2E2E2E2E2E2E2E2E2E2E2E2E2E2E2E2E2E2E2E2E2E2E2E2E22DE2E2E2E2E2E2E2E2E2E2E2E2E2E2E2E2E2E2E2E2E2E2E2
310
E2E2E2E2E2E2E2E2E2E2E2E2E2E2E2E2E2E2E2E2E2E2E2E2E2E2E2E2E2E2E2E2E2E2E2E2E2E2E2E2E2E22DE2E2E2E2E2E2E2E2E2E2E2E2DCE2E2BEE2E2E2E2E2E2E2E2E2E2E2E2E2E2E2E2E2E2E2E2E2E2E2E2E2E2E2E2E2E2E2E2E2E2E2E2E2E2E2E2E2E2E2E2E2E2E2E2E2E2E2E2E2E2E2E2E2E2E2E2E2E2E2E2E2E2E2E2
310
BEE2E2DCE2E2E2E2E2E2E2E2E2E2E2E2E2E2E2E2E2E2E2E2E2E2E2E2E2E2E2E2E2E2E2E2E2E2E2E2E2E2E2E2E2E2E2E2E2E2E2E2E2E2E2E2E2E2E2E2E2E2E2E2E2E2E2E2E2E2E2E2E2E2E2E2E2E2E2E2E2E2E2E2E2E2E2E2E2E2E2E2E2E2E2E2E2E2E2E2E2E2E2E2E22DE2E2E2E2E2E2E2E2E2E2E2E2E2E2E2E2E2E2E2E2E2
310
E2E2E2E2E2E2E2E2E2E2E2E2E2E2E2E2E2E2E2E2E2E2E2E2E2E2E2E2E2E2E2E2E2E2E2E2E2E2E2E2E2E2E2E22DE2E2E2E2E2E2E2E2E2E2E2E2DCE2E2BEE2E2E2E2E2E2E2E2E2E2E2E2E2E2E2E2E2E2E2E2E2E2E2E2E2E2E2E2E2E2E2E2E2E2E2E2E2E2E2E2E2E2E2E2E2E2E2E2E2E2E2E2E2E2E2E2E2E2E2E2E2E2E2E2E2E2
310
E2E2BEE2E2DCE2E2E22DF52D2D2D2D2D2DF5F5F5F5F5F5F5F5F5F5F5F5F5F5F5F5F5F5F5F5F5F5F5F5F5F5F5F5F5F5F5F5F5F5F5F5F5F5F5F5F5F5F5F5F5F5F5F5F5F5F5F5F5F5F5F5F5F5F5F5F5F5F5F5F5F5F5F52D2D2D2D2D2D2DF52DE2E2E2E2E2E2E2E2E2E2E2E2E2F5F5F5F5F5F5F5F5F5F5F5F5F5F5F5F5F5F5F5F5
310
F5F5F5F5F5F5F5F5F5F5F5F5F5F5F5F5F5F5F5F5F5F5F5F5F5F5F5F5F5F5F5F5F5F5F5F5F5F5F5F5F5F5F5F5F5F5F5E2E2E2E2E2E2E2E2E2E2E2E2DCE2E2BEE2E2E2E2E2E2E2E2E2E2E2E2E2E2E2E2E2E2E2E2E2E2E2E2E2E2E2E2E2E2E2E2E2E2E2E2E2E2E2E2E2E2E2E2E2E2E2E2E2E2E2E2E2E2E2E2E2E2E2E2E2E2E2E2
310
E2E2E2E2BEE2E2DCE2E2E2E22DE22D2DE2F5E2F5E2E2E2E2E2E2E2E2E2E2E2E2E2E2E2E2E2E2E2E2E2E2E2E2E2E2E2E2E2E2E2E2E2E2E2E2E2E2E2E2E2E2E2E2E2E2E2E2E2E2E2E2E2E2E2E2E2E2E2E2E2E2E2E2E2E2F5E2E2E2E2E2E2E22DE2E2E2E2E2E2E2E2E2E2E2E2E2E2F5E2E2E2E2E2E2E2E2E2E2E2E2E2E2E2E2E2
310
E2E2E2E2E2E2E2E2E2E2E2E2E2E2E2E2E2E2E2E2E2E2E2E2E2E2E2E2E2E2E2E2E2E2E2E2E2E2E2E2E2E2E2E2E2E2E2E2F5E2E2E2E2E2E2E2E2E2E2E2E2DCE2E2BEE2E2E2E2E2E2E2E2E2E2E2E2E2E2E2E2E2E2E2E2E2E2E2E2E2E2E2E2E2E2E2E2E2E2E2E2E2E2E2E2E2E2E2E2E2E2E2E2E2E2E2E2E2E2E2E2E2E2E2E2E2E2
310
E2E2E2E2E2E2BEE2E2DCE2E2E2E22DE22DE2E2F5E2F5E2E2E2E2E2E2E2E2E2E2E2E2E2E2E2E2E2E2E2E2E2E2E2E2E2E2E2E2E2E2E2E2E2E2E2E2E2E2E2E2E2E2E2E2E2E2E2E2E2E2E2E2E2E2E2E2E2E2E2E2E2E2E2E2E2E2F5E2E2E2E2E2E2E22DE2E2E2E2E2E2E2E2E2E2E2E2E2E2F5E2E2E2E2E2E2E2E2E2E2E2E2E2E2E2
310
E2E2E2E2E2E2E2E2E2E2E2E2E2E2E2E2E2E2E2E2E2E2E2E2E2E2E2E2E2E2E2E2E2E2E2E2E2E2E2E2E2E2E2E2E2E2E2E2E2E2F5E2E2E2E2E2E2E2E2E2E2E2E2DCE2E2BEE2E2E2E2E2E2E2E2E2E2E2E2E2E2E2E2E2E2E2E2E2E2E2E2E2E2E2E2E2E2E2E2E2E2E2E2E2E2E2E2E2E2E2E2E2E2E2E2E2E2E2E2E2E2E2E2E2E2E2E2
310
E2E2E2E2E2E2E2E2BEE2E2DCE2E2E2E22DBE2DE2E22828282828282828282828282828282828282828282828282828282828282828282828282828282828282828282828282828282828282828282828282828282828282828E2F5E2E2E2E2E2E2E22DE2E2E2E2E2E2E2E2E2E2E2E2E2E2F5E2E2E228282828282828282828
310
2828282828282828282828282828BEBEBEBEBEBEBEBEBE28282828282828282828282828282828282828282828282828E2E2E2E2F5E2E2E2E2E2E2E2E2E2E2E2E2DCE2E2BEE2E2E2E2E2E2E2E2E2E2E2E2E2E2E2E2E2E2E2E2E2E2E2E2E2E2E2E2E2E2E2E2E2E2E2E2E2E2E2E2E2E2E2E2E2E2E2E2E2E2E2E2E2E2E2E2E2E2
310
E2E2E2E2E2E2E2E2E2E2BEE2E2DCE2E2E2E22DBE2DE2E2F5E2F5E2E2E2E2E2E2E2E2E2E2E2E2E2E2E2E2E2E2E2E2E2E2E2E2E2E2E2E2E2E2E2E2E2E2E2E2E2E2E2E2E2E2E2E2E2E2E2E2E2E2E22828282828282828282828282828E2F5E2E2E2E2E2E2E22DE2E2E2E2E2E2E2E2E2E2E2E2E2E2F5E2E2E228E2E2E2E2E2E2E2
310
E2E2E2E2E2E2E2E2E2E2E2E2E2E2E2E2E2BEBEBEBEBEBEBEBEE2E2E2E2E2E2E2E2E2E2E2E2E2E2E2E2E2E2E2E2E2E2E2E228E2E2E2E2F5E2E2E2E2E2E2E2E2E2E2E2E2DCE2E2BEE2E2E2E2E2E2E2E2E2E2E2E2E2E2E2E2E2E2E2E2E2E2E2E2E2E2E2E2E2E2E2E2E2E2E2E2E2E2E2E2E2E2E2E2E2E2E2E2E2E2E2E2E2E2E2E2
310
E2E2E2E2E2E2E2E2E2E2E2E2BEE2E2DCE2E2E2E22DE22D2D2DF52DBEBEBEE2E2E2E2E2E2E2E2E2E2E2E2E2E2E2E2E2E2E2E2E2E2E2E2E2E2E2E2E2E2E2E2E2E2E2E2E2E2E2E2E2E2E2E2E2E2E2E228E2E2E2E2E2E2E2E2E2E2E2E2E228E2F5E2E2E2E2E2E2E22DE2E2E2E2E2E2E2E2E2E2E2E2E2E2F5E2E2E228E2E2E2E2E2
310
E2E2E2E2E2E2E2E2E2E2E2E2E2E2E2E2E2E2E2BEBEBEBEBEBEBEBEE2E2E2E2E2E2E2E2E2E2E2E2E2E2E2E2E2E2E2E2E2E2E2E228E2E2E2E2F5E2E2E2E2E2E2E2E2E2E2E2E2DCE2E2BEE2E2E2E2E2E2E2E2E2E2E2E2E2E2E2E2E2E2E2E2E2E2E2E2E2E2E2E2E2E2E2E2E2E2E2E2E2E2E2E2E2E2E2E2E2E2E2E2E2E2E2E2E2E2
310
E2E2E2E2E2E2E2E2E2E2E2E2E2E2BEE2E2DCE2E2E2E22DE22D2D2D2D2DBEBEBEE2E2E2E2E2E2E2E2E2E2E2E2E2E2E2E2E2E2E2E2E2E2E2E2E2E2E2E2E2E2E2E2E2E2E2E2E2E2E2E2E2E2E2E2E2E2E2E228E2E2E2E2E2E2E2E2E2E2E2E2E228E2F5E2E2E2E2E2E2E22DE2E2E2E2E2E2E2E2E2E2E2E2E2E2F5E2E2E228E2E2E2
310
E2E2E2E2E2E2E2E2E2E2E2E2E2E2E2E2E2E2E2E2E2E2E2E2E2E2E2E2E2E2E2E2E2E2E2E2E2E2E2E2E2E2E2E2E2E2E2E2E2E2E2E2E228E2E2E2E2F5E2E2E2E2E2E2E2E2E2E2E2E2DCE2E2BEE2E2E2E2E2E2E2E2E2E2E2E2E2E2E2E2E2E2E2E2E2E2E2E2E2E2E2E2E2E2E2E2E2E2E2E2E2E2E2E2E2E2E2E2E2E2E2E2E2E2E2E2
310
E2E2E2E2E2E2E2E2E2E2E2E2E2E2E2E2BEE2E2DCE2E2E2E22DE22D2D2D2DE2F5E2E2E2E2E2E2E2E2E2E2E2E2E2E2E2E2E2E2E2E2E2E2E2E2E2E2E2E2E2E2E2E2E2E2E2E2E2E2E2E2E2E2E2E2E2E2E2E2E228E2E2E2E2E2E2E2E2E2E2E2E2E2E228E2F5E2E2E2E2E2E2E22DE2E2E2E2E2E2E2E2E2E2E2E2E2E2F5E2E2E228E2
310
E2E2E2E2E2E2E2E2E2E2E2E2E2E2E2E2E2E2E2E2E2E2E2E2E2E2E2E2E2E2E2E2E2E2E2E2E2E2E2E2E2E2E2E2E2E2E2E2E2E2E2E2E2E2E228E2E2E2E2F5E2E2E2E2E2E2E2E2E2E2E2E2DCE2E2BEE2E2E2E2E2E2E2E2E2E2E2E2E2E2E2E2E2E2E2E2E2E2E2E2E2E2E2E2E2E2E2E2E2E2E2E2E2E2E2E2E2E2E2E2E2E2E2E2E2E2
310
E2E2E2E2E2E2E2E2E2E2E2E2E2E2E2E2E2E2BEE2E2DCE2E2E2E22DE22D2DF5F5E2F5E2E2E2E2E2E2E2E2E2E2E2E2E2E2E2E2E2E2E2E2E2E2E2E2E2E2E2E2E2E2E2E2E2E2E2E2E2E2E2E2E2E2E2E2E2E2E2E22828E2E2E2E2E2E2E2E2E2E2E2E2E2E228E2F5E2E2E2E2E2E2E22DE2E2E2E2E2E2E2E2E2E2E2E2E2E2F5E2E2E2
310
28E2F5F5F5F5F5F5F5F5F5F5F5F5F5F5F5F5F5F5F5F5F5F5F5F5F5F5F5F5F5F5F5F5F5F5F5F5F5F5F5F5F5F5F5F5F5F5F5F5F5F5F5F5F5F5F528E2E2E2E2F5E2E2E2E2E2E2E2E2E2E2E2E2DCE2E2BEE2E2E2E2E2E2E2E2E2E2E2E2E2E2E2E2E2E2E2E2E2E2E2E2E2E2E2E2E2E2E2E2E2E2E2E2E2E2E2E2E2E2E2E2E2E2E2E2
310
E2E2E2E2E2E2E2E2E2E2E2E2E2E2E2E2E2E2E2E2BEE2E2DCE2E2E2E22DE22D2DF5F5E2F5E2E2E2E2E2E2E2E2E2E2E2E2E2E2E2E2E2E2E2E2E2E2E2E2E2E2E2E2E2E2E2E2E2E2E2E2E2E2E2E2E2E2E2E2E2E2E2E228E2E2E2E2E2E2E2E2E2E2E2E2E2E2E228E2F5E2E2E2E2E2E2E22DE2E2E2E2E2E2E2E2E2E2E2E2E2E2F5E2
310
E2E228F5F5E2E2E2E2E2E2E2E2E2E2E2E2E2E2E2E2E2E2E2E2E2E2E2E2E2E2E2E2E2E2E2E2E2E2E2E2E2E2E2E2E2E2E2E2E2E2E2E2E2E2E2E2E2F528E2E2E2E2F5E2E2E2E2E2E2E2E2E2E2E2E2DCE2E2BEE2E2E2E2E2E2E2E2E2E2E2E2E2E2E2E2E2E2E2E2E2E2E2E2E2E2E2E2E2E2E2E2E2E2E2E2E2E2E2E2E2E2E2E2E2E2
310
E2E2E2E2E2E2E2E2E2E2E2E2E2E2E2E2E2E2E2E2E2E2BEE2E2DCE2E2E2E22DE22DE2F5F5E2F5E2E2E2E2E2E2E2E2E2E2E2E2E2E2E2E2E2E2E2E2E2E2E2E2E2E2E2E2E2E2E2E2E2E2E2E2E2E2E2E2E2E2E2E2E2E2E228E2E2E2E2E2E2E2E2E2E2E2E2E2E2E2E228E2F5E2E2E2E2E2E2E22DE2E2E2E2E2E2E2E2E2E2E2E2E2E2
310
F5E2E2E228F5E2E2E2E2E2E2E2E2E2E2E2E2E2E2E2E2E2E2E2E2E2E2E2E2E2E2E2E2E2E2E2E2E2E2E2E2E2E2E2E2E2E2E2E2E2E2E2E2E2E2E2E2E2E2F528E2E2E2E2F5E2E2E2E2E2E2E2E2E2E2E2E2DCE2E2BEE2E2E2E2E2E2E2E2E2E2E2E2E2E2E2E2E2E2E2E2E2E2E2E2E2E2E2E2E2E2E2E2E2E2E2E2E2E2E2E2E2E2E2E2
310
E2E2E2E2E2E2E2E2E2E2E2E2E2E2E2E2E2E2E2E2E2E2E2E2BEE2E2DCE2E2E2E22DE22DE2F5F5E2F5E2E2E2E2E2E2E2E2E2E2E2E2E2E2E2E2E2E2E2E2E2E2E2E2E2E2E2E2E2E2E2E2E2E2E2E2E2E2E2E2E2E2E2E2E2E22828E2E2E2E2E2E2E2E2E2E2E2E2E2E2E2E228E2F5E2E2E2E2E2E2E22DE2E2E2E2E2E2E2E2E2E2E2E2
310
E2E2F5E2E2E228F5E2E2E2E2E2E2E2E2E2E2E2E2E2E2E2E2E2E2E2E2E2E2E2E2E2E2E2E2E2E2E2E2E2E2E2E2E2E2E2E2E2E2E2E2E2E2E2E2E2E2E2E2E2E2F528E2E2E2E2F5E2E2E2E2E2E2E2E2E2E2E2E2DCE2E2BEE2E2E2E2E2E2E2E2E2E2E2E2E2E2E2E2E2E2E2E2E2E2E2E2E2E2E2E2E2E2E2E2E2E2E2E2E2E2E2E2E2E2
310
E2E2E2E2E2E2E2E2E2E2E2E2E2E2E2E2E2E2E2E2E2E2E2E2E2E2BEE2E2DCE2E2E2E22DE22DE2F5F5E2F5E2E2E2E2E2E2E2E2E2E2E2E2E2E2E2E2E2E2E2E2E2E2E2E2E2E2E2E2E2E2E2E2E2E2E2E2E2E2E2E2E2E2E2E2E2E22828E2E2E2E2E2E2E2E2E2E2E2E2E2E2E2E228E2F5E2E2E2E2E2E2E22DE2E2E2E2E2E2E2E2E2E2
310
E2E2E2E2F5E2E2E228F5E2E2E2E2E2E2E2E2E2E2E2E2E2E2E2E2E2E2E2E2E2E2E2E2E2E2E2E2E2E2E2E2E2E2E2E2E2E2E2E2E2E2E2E2E2E2E2E2E2E2E2E2E2E2F528E2E2E2E2F5E2E2E2E2E2E2E2E2E2E2E2E2DCE2E2BEE2E2E2E2E2E2E2E2E2E2E2E2E2E2E2E2E2E2E2E2E2E2E2E2E2E2E2E2E2E2E2E2E2E2E2E2E2E2E2E2
310
E2E2E2E2E2E2E2E2E2E2E2E2E2E2E2E2E2E2E2E2E2E2E2E2E2E2E2E2BEE2E2DCE2E2E2E22DBE2DE2F5F5E2F5E2E2E2E2E2E2E2E2E2E2E2E2E2E2E2E2E2E2E2E2E2E2E2E2E2E2E2E2E2E2E2E2E2E2E2E2E2E2E2E2E2E2E2E2E22828E2E2E2E2E2E2E2E2E2E2E2E2E2E2E2E2E228E2F5E2E2E2E2E2E2E22DE2E2E2E2E2E2E2E2
310
E2E2E2E2E2E2F5E2E2E228F5E2E2E2E2E2E2E2E2E2E2E2E2E2E2E2E2E2E2E2E2E2E2E2E2E2E2E2E2E2E2E2E2E2E2E2E2E2E2E2E2E2E2E2E2E2E2E2E2E2E2E2E2E2E2F528E2E2E2E2F5E2E2E2E2E2E2E2E2E2E2E2E2DCE2E2BEE2E2E2E2E2E2E2E2E2E2E2E2E2E2E2E2E2E2E2E2E2E2E2E2E2E2E2E2E2E2E2E2E2E2E2E2E2E2
310
E2E2E2E2E2E2E2E2E2E2E2E2E2E2E2E2E2E2E2E2E2E2E2E2E2E2E2E2E2E2BEE2E2DCE2BEBEBE2DBE2DE2BEBEBEBEBEE2E2E2E2E2E2E2E2E2E2E2E2E2E2E2E2E2E2E2E2E2E2E2E2E2E2E2E2E2E2E2E2E2E2E2E2E2E2E2E2E2E2E2E22828E2E2E2E2E2E2E2E2E2E2E2E2E2E2E2E2E228E2F5E2E2E2E2E2BEBE2DE2E2E2E2E2E2
310
E2E2E2E2E2E2E2E2F5E2E2E228F5E2E2E2E2E2E2E2E2E2E2E2E2E2E2E2E2E2E2E2E2E2E2E2E2E2E2E2E2E2E2E2E2E2E2E2E2E2E2E2E2E2E2E2E2E2E2E2E2E2E2E2E2E2E2F528E2E2E2E2F5E2E2E2E2E2E2E2E2E2E2E2E2DCE2E2BEE2E2E2E2E2E2E2E2E2E2E2E2E2E2E2E2E2E2E2E2E2E2E2E2E2E2E2E2E2E2E2E2E2E2E2E2
310
E2E2E2E2E2E2E2E2E2E2E2E2E2E2E2E2E2E2E2E2E2E2E2E2E2E2E2E2E2E2E2E2BEE2E2DCE2BEBEBE2DE22DE2F5F5E2F5E2E2E2E2E2E2E2E2E2E2E2E2E2E2E2E2E2E2E2E2E2E2E2E2E2E2E2E2E2E2E2E2E2E2E2E2E2E2E2E2E2E2E2E2E22828E2E2E2E2E2E2E2E2E2E2E2E2E2E2E2E2E228E2F5E2E2E2E2E2BEBE2DE2E2E2E2
310
E2E2E2E2E2E2E2E2E2E2F5E2E2E228F5E2E2E2E2E2E2E2E2E2E2E2E2E2E2E2E2E2E2E2E2E2E2E2E2E2E2E2E2E2E2E2E2E2E2E2E2E2E2E2E2E2E2E2E2E2E2E2E2E2E2E2E2E2E2F528E2E2E2E2F5E2E2E2E2E2E2E2E2E2E2E2E2DCE2E2BEE2E2E2E2E2E2E2E2E2E2E2E2E2E2E2E2E2E2E2E2E2E2E2E2E2E2E2E2E2E2E2E2E2E2
310
E2E2E2E2E2E2E2E2E2E2E2E2E2E2E2E2E2E2E2E2E2E2E2E2E2E2E2E2E2E2E2E2E2E2BEE2E2DCE2BEBEBE2DE22DE2F52828282828282828282828282828282828282828282828282828282828282828282828282828282828282828282828282828282828282828282828282828282828282828E2F5E2E2E2E2E2BEBE2DE2E2
310
E2E2E2E2E2E2E2E2E2E2E2E2F5E2282828F5E2E2E2E2E2E2E2E2E2E2E2E2E2E2E2E2E2E2E2E2E2E2E2E2E2E2E2E2E2E2E2E2E2E2E2E2E2E2E2E2E2E2E2E2E2E2E2E2E2E2E2E2E2E2F5282828E2E2F5E2E2E2E2E2E2E2E2E2E2E2E2DCE2E2BEE2E2E2E2E2E2E2E2E2E2E2E2E2E2E2E2E2E2E2E2E2E2E2E2E2E2E2E2E2E2E2E2
310
E2E2E2E2E2E2E2E2E2E2E2E2E2E2E2E2E2E2E2E2E2E2E2E2E2E2E2E2E2E2E2E2E2E2E2E2BEE2E2DCE2BEBEBE2DE22DE2F5F5E2F5E2E2E2E2E2E2E2E2E2E2E2E2E2E2E2E2E2E2E2E2E2E2E2E2E2E2E2E2E2E2E2E2E2E2E2E2E2E2E2E2E2E2E2E2E22828E2E2E2E2E2E2E2E2E2E2E2E2E2E2E2E2E2E2E2F5E2E2E2E2E2BEBE2D
310
E2E2E2E2E2E2E2E2E2E2E2E2E2E2F5E2E2E2E2F5E2E2E2E2E2E2E2E2E2E2E2E2E2E2E2E2E2E2E2E2E2E2E2E2E2E2E2E2E2E2E2E2E2E2E2E2E2E2E2E2E2E2E2E2E2E2E2E2E2E2E2E2E2E2F5E2E2E2E2E2F5E2E2E2E2E2E2E2E2E2E2E2E2DCE2E2BEE2E2E2E2E2E2E2E2E2E2E2E2E2E2E2E2E2E2E2E2E2E2E2E2E2E2E2E2E2E2
310
E2E2E2E2E2E2E2E2E2E2E2E2E2E2E2E2E2E2E2E2E2E2E2E2E2E2E2E2E2E2E2E2E2E2E2E2E2E2BEE2E2DCE2E2E2E22DE22D2DF5F5E2F5E2E2E2E2E2E2E2E2E2E2E2E2E2E2E2E2E2E2E2E2E2E2E2E2E2E2E2E2E2E2E2E2E2E2E2E2E2E2E2E2E2E2E2E2E22828E2E2E2E2E2E2E2E2E2E2E2E2E2E2E2E2E2E2E2F5E2E2E2E2E2E2
310
E22DE2E2E2E2E2E2E2E2E2E2E2E2E2E2F5E2E2E2E2F5E2E2E2E2E2E2E2E2E2E2E2E2E2E2E2E2E2E2E2E2E2E2E2E2E2E2E2E2E2E2E2E2E2E2E2E2E2E2E2E2E2E2E2E2E2E2E2E2E2E2E2E2E2E2F5E2E2E2E2E2F5E2E2E2E2E2E2E2E2E2E2E2E2DCE2E2BEE2E2E2E2E2E2E2E2E2E2E2E2E2E2E2E2E2E2E2E2E2E2E2E2E2E2E2E2
310
E2E2E2E2E2E2E2E2E2E2E2E2E2E2E2E2E2E2E2E2E2E2E2E2E2E2E2E2E2E2E2E2E2E2E2E2E2E2E2E2BEE2E2DCE2E2E2E22DE22D2DF5F5E2F5E2E2E2E2E2E2E2E2E2E2E2E2E2E2E2E2E2E2E2E2E2E2E2E2E2E2E2E2E2E2E2E2E2E2E2E2E2E2E2E2E2E2E2E2E22828E2E2E2E2E2E2E2E2E2E2E2E2E2E2E2E2E2E2E2F5E2E2E2E2
310
E2E2E22DE2E2E2E2E2E2E2E2E2E2E2E2E2E2F5E2E2E2E2F5F5F5F5F5F5F5F5F5F5F5F5F5F5F5F5F5F5F5F5F5F5F5F5F5F5F5F5F5F5F5F5F5F5F5F5F5F5F5F5F5F5F5F5F5F5F5F5F5F5F5F5F5F5F5F5E2E2E2E2E2F5E2E2E2E2E2E2E2E2E2E2E2E2DCE2E2BEE2E2E2E2E2E2E2E2E2E2E2E2E2E2E2E2E2E2E2E2E2E2E2E2E2E2
310
E2E2E2E2E2E2E2E2E2E2E2E2E2E2E2E2E2E2E2E2E2E2E2E2E2E2E2E2E2E2E2E2E2E2E2E2E2E2E2E2E2E2BEE2E2DCE2E2E2E22DE22D2DF5F5E2F5E2E2E2E2E2E2E2E2E2E2E2E2E2E2E2E2E2E2E2E2E2E2E2E2E2E2E2E2E2E2E2E2E2E2E2E2E2E2E2E2E2E2E2E2E22828E2E2E2E2E2E2E2E2E2E2E2E2E2E2E2E2E2E2E2F5E2E2
310
E2E2E2E2E22DE2E2E2E2E2E2E2E2E2E2E2E2E2E22D2DE2E22D2DF5F5F5F5F5F5F5F5F5F5F5F5F5F5F5F5F5F5F5F5F5F5F5F5F5F5F5F5F5F5F5F5F5F5F5F5F5F5F5F5F5F5F5F5F5F5F5F5F5F5F5F5F5F52DE22DE22DE22DE2E2E2E2E2E2E2E2E2E2E2E2DCE2E2BEE2E2E2E2E2E2E2E2E2E2E2E2E2E2E2E2E2E2E2E2E2E2E2E2
310
E2E2E2E2E2E2E2E2E2E2E2E2E2E2E2E2E2E2E2E2E2E2E2E2E2E2E2E2E2E2E2E2E2E2E2E2E2E2E2E2E2E2E2E2BEE2E2DCE2E2E2E22DE22D2DE2F5E2F5E2E2E2E2E2E2E2E2E2E2E2E2E2E2E2E2E2E2E2E2E2E2E2E2E2E2E2E2E2E2E2E2E2E2E2E2E2E2E2E2E2E2E2E2E22828E2E2E2E2E2E2E2E2E2E2E2E2E2E2E2E2E2E2E2F5
310
E2E2E2E2E2E2E22DE2E2E2E2E2E2E2E2E2E2E2E2E2E2F5BEBE2D2DF52D2D2D2D2D2D2D2D2D2D2D2D2D2D2D2D2D2D2D2D2D2D2D2D2DBEBEBE2D2D2D2D2D2D2D2D2D2D2D2D2D2D2D2D2D2D2D2D2D2D2D2D2D2DF52DBEBE2D2DF5E2E2E2E2E2E2E2E2E2E2E2E2DCE2E2BEE2E2E2E2E2E2E2E2E2E2E2E2E2E2E2E2E2E2E2E2E2E2
310
E2E2E2E2E2E2E2E2E2E2E2E2E2E2E2E2E2E2E2E2E2E2E2E2E2E2E2E2E2E2E2E2E2E2E2E2E2E2E2E2E2E2E2E2E2E2BEE2E2DCE2E2E2E22DE22DE2E2F5E2F5E2E2E2E2E2E2E2E2E2E2E2E2E2E2E2E2E2E2E2E2E2E2E2E2E2E2E2E2E2E2E2E2E2E2E2E2E2E2E2E2E2E2E2E2E22828E2E2E2E2E2E2E2E2E2E2E2E2E2E2E2E2E2E2
310
E2F5E2E2E2E2E2E2E22DE2E2E2E2E2E2E2E2E2E2E2E2E2E2F5BEBEE2E2E2E2E2E2E2E2E2E2E2E2E2E2E2E2E2E2E2E2E2E2E2E2E2E2E2E2BEBEBEE2E2E2E2E2E2E2E2E2E2E2E2E2E2E2E2E2E2E2E2E2E2E2E2E2E2E2E2BEBEE2E2F5E2E2E2E2E2E2E2E2E2E2E2E2DCE2E2BEE2E2E2E2E2E2E2E2E2E2E2E2E2E2E2E2E2E2E2E2
310
E2E2E2E2E2E2E2E2E2E2E2E2E2E2E2E2E2E2E2E2E2E2E2E2E2E2E2E2E2E2E2E2E2E2E2E2E2E2E2E2E2E2E2E2E2E2E2E2BEE2E2DCE2E2E2E22DE22DE2E2F5E2F5E2E2E2E2E2E2E2E2E2E2E2E2E2E2E2E2E2E2E2E2E2E2E2E2E2E2E2E2E2E2E2E2E2E2E2E2E2E2E2E2E2E2E2E2E22828E2E2E2E2E2E2E2E2E2E2E2E2E2E2E2E2
310
E2E2E2F5E2E2E2E2E2E2E22DE2E2E2E2E2E2E2E2E2E2E2E2E2E2F5E2E2E2E2E2E2E2E2E2E2E2E2E2E2E2E2E2E2E2E2E2E2E2E2E2E2E2E2E2E2E2E2E2E2E2E2E2E2E2E2E2E2E2E2E2E2E2E2E2E2E2E2E2E2E2E2E2E2E2E2E2E2E2E2E2F5E2E2E2E2E2E2E2E2E2E2E2E2DCE2E2BEE2E2E2E2E2E2E2E2E2E2E2E2E2E2E2E2E2E2
310
E2E2E2E2E2E2E2E2E2E2E2E2E2E2E2E2E2E2E2E2E2E2E2E2E2E2E2E2E2E2E2E2E2E2E2E2E2E2E2E2E2E2E2E2E2E2E2E2E2E2BEE2E2DCE2E2E2E22DE22DE2E2F5E2F5E2E2E2E2E2E2E2E2E2E2E2E2E2E2E2E2E2E2E2E2E2E2E2E2E2E2E2E2E2E2E2E2E2E2E2E2E2E2E2E2E2E2E2E2E228282828282828282828282828282828
310
E2E2E2E2E2F5E2E2E2E2E2E2E22DE2E2E2E2E2E2E2E2E2E2E2E2E2E2F5E2E2E2E2E2E2E2E2E2E2E2E2E2E2E2E2E2E2E2E2E2E2E2E2E2E2E2E2E2E2E2E2E2E2E2E2E2E2E2E2E2E2E2E2E2E2E2E2E2E2E2E2E2E2E2E2E2E2E2E2E2E2E2E2E2F5E2E2E2E2E2E2E2E2E2E2E2E2DCE2E2BEE2E2E2E2E2E2E2E2E2E2E2E2E2E2E2E2
310
E2E2E2E2E2E2E2E2E2E2E2E2E2E2E2E2E2E2E2E2E2E2E2E2E2E2E2E2E2E2E2E2E2E2E2E2E2E2E2E2E2E2E2E2E2E2E2E2E2E2E2E2BEE2E2DCE2E2E2E22DBE2DE2F5F5E2F5E2E2E2E2E2E2E2E2E2E2E2E2E2E2E2E2E2E2E2E2E2E2E2E2E2E2E2E2E2E2E2E2E2E2E2E2E2E2E2E2E2E2E2E2E22828282828282828282828282828
310
2828E2E2E2E2E2F5E2E2E2E2E2E2E22DE2E2E2E2E2E2E2E2E2E2E2E2E2E2F5E2E2E2E2E2E2E2E2E2E2E2E2E2E2E2E2E2E2E2E2E2E2E2E2E2E2E2E2E2E2F5F5F5F5E2E2E2E2E2E2E2E2E2E2E2E2E2E2E2E2E2E2E2E2E2E2E2E2E2E2E2E2E2E2E2F5E2E2E2E2E2E2E2E2E2E2E2E2DCE2E2BEE2E2E2E2E2E2E2E2E2E2E2E2E2E2
310
E2E2E2E2E2E2E2E2E2E2E2E2E2E2E2E2E2E2E2E2E2E2E2E2E2E2E2E2E2E2E2E2E2E2E2E2E2E2E2E2E2E2E2E2E2E2E2E2E2E2E2E2E2E2BEE2E2DCE2E2E2E22DBE2DE2F5F5E2F5E2E2E2E2E2E2E2E2E2E2E2E2E2E2E2E2E2E2E2E2E2E2E2E2E2E2E2E2E2E2E2E2E2E2E2E2E2E2E2E2E2E2E2E2E2E2E2E2E2E2E2E2E2E2E2E2E2
310
E2E2E2E2E2E2E2E2E2F5E2E2E2E2E2E2E22DE2E2E2E2E2E2E2E2E2E2E2E2E2E2F5E2E2E2E2E2E2E2E2E2E2E2E2E2E2E2E2E2E2E2E2E2E2E2E2E2E2E2E2E2E2F5F5F5F5F5E2E2E2E2E2E2E2E2E2E2E2E2E2E2E2E2E2E2E2E2E2E2E2E2E2E2E2E2E2E2F5E2E2E2E2E2E2E2E2E2E2E2E2DCE2E2BEE2E2E2E2E2E2E2E2E2E2E2E2
310
E2E2E2E2E2E2E2E2E2E2E2E2E2E2E2E2E2E2E2E2E2E2E2E2E2E2E2E2E2E2E2E2E2E2E2E2E2E2E2E2E2E2E2E2E2E2E2E2E2E2E2E2E2E2E2E2BEE2E2DCE2E2E2E22DE22DBEBEBEBEBEBEE2E2E2E2E2E2E2E2E2E2E2E2E2E2E2E2E2E2E2E2E2E2E2E2E2E2E2E2E2E2E2E2E2E2E2E2E2E2E2E2E2E2E2E2E2E2E2E2E2E2E2E2E2E2
310
E2E2E2E2E2E2E2E2E2E2E2F5E2E2E2E2E2E2E22DE2E2E2E2E2E2E2E2E2E2E2E2E2E2F5E2E2E2E2E2E2E2E2E2E2E2E2E2E2E2E2E2E2E2E2E2E2E2E2E2E2E2E2E2E2F5F5F5F5F5E2E2E2E2E2E2E2E2E2E2E2E2E2E2E2E2E2E2E2E2E2E2E2E2E2E2E2E2E2E2F5E2E2E2E2E2E2E2E2E2E2E2E2DCE2E2BEE2E2E2E2E2E2E2E2E2E2
310
E2E2E2E2E2E2E2E2E2E2E2E2E2E2E2E2E2E2E2E2E2E2E2E2E2E2E2E2E2E2E2E2E2E2E2E2E2E2E2E2E2E2E2E2E2E2E2E2E2E2E2E2E2E2E2E2E2E2BEE2E2DCE2E2E2E22DE22DE2F5F5E2F5E2E2E2E2E2E2E2E2E2E2E2E2E2E2E2E2E2E2E2E2E2E2E2E2E2E2E2E2E2E2E2E2E2E2E2E2E2E2E2E2E2E2E2E2E2E2E2E2E2E2E2E2E2
310
E2E2E2E2E2E2E2E2E2E2E2E2E2F5E2E2E2E2E2E2E22DE2E2E2E2E2E2E2E2E2E2E2E2E2E2F5E2E2E2E2E2E2E2E2E2E2E2E2E2E2E2E2E2E2E2E2E2E2E2E2E2E2E2E2E2E2F5F5F5F5E2E2E2E2E2E2E2E2E2E2E2E2E2E2E2E2E2E2E2E2E2E2E2E2E2E2E2E2E2E2E2F5E2E2E2E2E2E2E2E2E2E2E2E2DCE2E2BEE2E2E2E2E2E2E2E2
310
E2E2E2E2E2E2E2E2E2E2E2E2E2E2E2E2E2E2E2E2E2E2E2E2E2E2E2E2E2E2E2E2E2E2E2E2E2E2E2E2E2E2E2E2E2E2E2E2E2E2E2E2E2E2E2E2E2E2E2E2BEE2E2DCE2E2E2E22DE22DE2F5F5E2F5E2E2E2E2E2E2E2E2E2E2E2E2E2E2E2E2E2E2E2E2E2E2E2E2E2E2E2E2E2E2E2E2E2E2E2E2E2E2E2E2E2E2E2E2E2E2E2E2E2E2E2
310
E2E2E2E2E2E2E2E2E2E2E2E2E2E2E2F5E2E2E2E2E2E2E22DE2E2E2E2E2E2E2E2E2E2E2E2E2E2F5E2E2E2E2E2E2E2E2E2E2E2E2E2E2E2E2E2E2E2E2E2E2E2E2E2E2E2E2E2E2E2F5F5E2E2E2E2E2E2E2E2E2E2E2E2E2E2E2E2E2E2E2E2E2E2E2E2E2E2E2E2E2E2E2E2F5E2E2E2E2E2E2E2E2E2E2E2E2DCE2E2BEE2E2E2E2E2E2
310
E2E2E2E2E2E2E2E2E2E2E2E2E2E2E2E2E2E2E2E2E2E2E2E2E2E2E2E2E2E2E2E2E2E2E2E2E2E2E2E2E2E2E2E2E2E2E2E2E2E2E2E2E2E2E2E2E2E2E2E2E2E2BEE2E2DCE2E2E2E22DE22DE2E2F5E2F5E2E2E2E2E2E2E2E2E2E2E2E2E2E2E2E2E2E2E2E2E2E2E2E2E2E2E2E2E2E2E2E2E2E2E2E2E2E2E2E2E2E2E2E2E2E2E2E2E2
310
E2E2E2E2E2E2E2E2E2E2E2E2E2E2E2E2E2F5E2E2E2E2E2E2E22DE2E2E2E2E2E2E2E2E2E2E2E2E2E2F5E2E2E2E2E2E2E2E2E2E2E2E2E2E2E2E2E2E2E2E2E2E2E2E2E2E2E2E2E2E2E2E2E2E2E2E2E2E2E2E2E2E2E2E2E2E2E2E2E2E2E2E2E2E2E2E2E2E2E2E2E2E2E2E2E2F5E2E2E2E2E2E2E2E2E2E2E2E2DCE2E2BEE2E2E2E2
310
E2E2E2E2E2E2E2E2E2E2E2E2E2E2E2E2E2E2E2E2E2E2E2E2E2E2E2E2E2E2E2E2E2E2E2E2E2E2E2E2E2E2E2E2E2E2E2E2E2E2E2E2E2E2E2E2E2E2E2E2E2E2E2E2BEE2E2DCE2E2E2E22DE22D2DE2F5E2F5E2E2E2E2E2E2E2E2E2E2E2E2E2E2E2E2E2E2E2E2E2E2E2E2E2E2E2E2E2E2E2E2E2E2E2E2E2E2E2E2E2E2E2E2E2E2E2
310
E2E2E2E2E2E2E2E2E2E2E2E2E2E2E2E2E2E2E2F5E2E2E2E2E2E2E22DE2E2E2E2E2E2E2E2E2E2E2E2E2E2F5E2E2E2E2E2E2E2E2E2E2E2E2E2E2E2E2E2E2E2E2E2E2E2E2E2E2E2E2E2E2E2E2E2E2E2E2E2E2E2E2E2E2E2E2E2E2E2E2E2E2E2E2E2E2E2E2E2E2E2E2E2E2E2E2E2F5E2E2E2E2E2E2E2E2E2E2E2E2DCE2E2BEE2E2
310
E2E2E2E2E2E2E2E2E2E2E2E2E2E2E2E2E2E2E2E2E2E2E2E2E2E2E2E2E2E2E2E2E2E2E2E2E2E2E2E2E2E2E2E2E2E2E2E2E2E2E2E2E2E2E2E2E2E2E2E2E2E2E2E2E2E2BEE2E2DCE2E2E22D2D2D2D2D2D2D2DF5F5F5F5F5F5F5F5F5F5F5F5F5F5F5F5F5F5F5F5F5F5F5F5F5F5F5F5F5F5F5F5F5F5F5F5F5F5F5F5F5F5F5F5F5F5
310
F5F5F5F5F5F5F5F5F5F5F5F5F5F5F5F5F5F5F5F5F5F52D2D2D2D2D2D2D2D2DE2E2E2E2E2E2E2E2E2E2E2E2E2F5F5F5F5F5F5F5F5F5F5F5F5F5F5F5F5F5F5F5F5F5F5F5F5F5F5F5F5F5F5F5F5F5F5F5F5F5F5F5F5F5F5F5F5F5F5F5F5F5F5F5F5F5F5F5F5F5F5F5F5F5F5F5F5F5F5F5E2E2E2E2E2E2E2E2E2E2E2E2DCE2E2BE
310
E2E2E2E2E2E2E2E2E2E2E2E2E2E2E2E2E2E2E2E2E2E2E2E2E2E2E2E2E2E2E2E2E2E2E2E2E2E2E2E2E2E2E2E2E2E2E2E2E2E2E2E2E2E2E2E2E2E2E2E2E2E2E2E2E2E2E2E2BEE2E2DCE2E2E2E2E2E2E2E2E22DE22DE2E2E2E2E2E2E2E2E2E2E2E2E2E2E2E2E2E2E2E2E2E2E2E2E2E2E2E2E2E2E2E2E2E2E2E2E2E2E2E2E2E2E2
310
E2E2E2E2E2E2E2E2E2E2E2E2E2E2E2E2E2E2E2E2E2E2E22DE2E2E2E2E2E2E2E2E2E2E2E2E2E2E2E2E2E2E2E2E2E2E2E2E2E2E2E2E2E2E2E2E2E2E2E2E2E2E2E2E2E2E2E2E2E2E2E2E2E2E2E2E2E2E2E2E2E2E2E2E2E2E2E2E2E2E2E2E2E2E2E2E2E2E2E2E2E2E2E2E2E2E2E2E2E2E2E2E2E2E2E2E2E2E2E2E2E2E2E2E2DCE2
310
E2BEE2E2E2E2E2E2E2E2E2E2E2E2E2E2E2E2E2E2E2E2E2E2E2E2E2E2E2E2E2E2E2E2E2E2E2E2E2E2E2E2E2E2E2E2E2E2E2E2E2E2E2E2E2E2E2E2E2E2E2E2E2E2E2E2E2E2E2E2BEE2E2DCE2E2E2E2E2E2E2E2E22DE22DE2E2E2E2E2E2E2E2E2E2E2E2E2E2E2E2E2E2E2E2E2E2E2E2E2E2E2E2E2E2E2E2E2E2E2E2E2E2E2E2E2
310
E2E2E2E2E2E2E2E2E2E2E2E2E2E2E2E2E2E2E2E2E2E2E2E2E22DE2E2E2E2E2E2E2E2E2E2E2E2E2E2E2E2E2E2E2E2E2E2E2E2E2E2E2E2E2E2E2E2E2E2E2E2E2E2E2E2E2E2E2E2E2E2E2E2E2E2E2E2E2E2E2E2E2E2E2E2E2E2E2E2E2E2E2E2E2E2E2E2E2E2E2E2E2E2E2E2E2E2E2E2E2E2E2E2E2E2E2E2E2E2E2E2E2E2E2E2E2
310
DCE2E2BEE2E2E2E2E2E2E2E2E2E2E2E2E2E2E2E2E2E2E2E2E2E2E2E2E2E2E2E2E2E2E2E2E2E2E2E2E2E2E2E2E2E2E2E2E2E2E2E2E2E2E2E2E2E2E2E2E2E2E2E2E2E2E2E2E2E2E2E2BEE2E2DCE2E2E2E2E2E2E2E2E22DE22D2D2D2D2D2D2D2D2D2D2D2D2D2D2D2D2D2D2D2D2D2D2D2D2D2D2D2D2D2D2D2DBEBEBE2D2D2D2D2D
310
2D2D2D2D2D2D2D2D2D2D2D2D2D2D2D2D2D2D2D2D2D2D2D2D2D2D2DF5E2E2E2E2E2E2E2E2E2E2E2E2E2E2E2E2E2E2E2E2E2E2E2E2E2E2E2E2E2E2E2E2E2E2E2E2E2E2E2E2E2E2E2E2E2E2E2E2E2E2E2E2E2E2E2E2E2E2E2E2E2E2E2E2E2E2E2E2E2E2E2E2E2E2E2E2E2E2E2E2E2E2E2E2E2E2E2E2E2E2E2E2E2E2E2E2E2E2E2
310
E2E2DCE2E2BEE2E2E2E2E2E2E2E2E2E2E2E2E2E2E2E2E2E2E2E2E2E2E2E2E2E2E2E2E2E2E2E2E2E2E2E2E2E2E2E2E2E2E2E2E2E2E2E2E2E2E2E2E2E2E2E2E2E2E2E2E2E2E2E2E2E2E2E2BEE2E2DCE2E2E2E2E2E2E2E2E22DE22DE2E2E2E2E2E2E2E2E2E2E2E2E2E2E2E2E2E2E2E2E2E2E2E2E2E2E2E2E2E2E2BEBEBEE2E2E2
310
E2E2E2E2E2E2E2E2E2E2E2E2E2E2E2E2E2E2E2E2E2E2E2E2E2E2E2E2E22DE2E2E2E2E2E2E2E2E2E2E2E2E2E2E2E2E2E2E2E2E2E2E2E2E2E2E2E2E2E2E2E2E2E2E2E2E2E2E2E2E2E2E2E2E2E2E2E2E2E2E2E2E2E2E2E2E2E2E2E2E2E2E2E2E2E2E2E2E2E2E2E2E2E2E2E2E2E2E2E2E2E2E2E2E2E2E2E2E2E2E2E2E2E2E2E2E2
310
E2E2E2E2DCE2E2BEE2E2E2E2E2E2E2E2E2E2E2E2E2E2E2E2E2E2E2E2E2E2E2E2E2E2E2E2E2E2E2E2E2E2E2E2E2E2E2E2E2E2E2E2E2E2E2E2E2E2E2E2E2E2E2E2E2E2E2E2E2E2E2E2E2E2E2E2BEE2E2DCE2E2E2E2E2E2E2E2E22DE2E2E2E2E2E2E2E2E2E2E2E2E2E2E2E2E2E2E2E2E2E2E2E2E2E2E2E2E2E2E2E2E2E2E2E2E2
310
E2E2E2E2E2E2E2E2E2E2E2E2E2E2E2E2E2E2E2E2E2E2E2E2E2E2E2E2E2E2E22DE2E2E2E2E2E2E2E2E2E2E2E2E2E2E2E2E2E2E2E2E2E2E2E2E2E2E2E2E2E2E2E2E2E2E2E2E2E2E2E2E2E2E2E2E2E2E2E2E2E2E2E2E2E2E2E2E2E2E2E2E2E2E2E2E2E2E2E2E2E2E2E2E2E2E2E2E2E2E2E2E2E2E2E2E2E2E2E2E2E2E2E2E2E2E2
310
E2E2E2E2E2E2DCE2E2BEE2E2E2E2E2E2E2E2E2E2E2E2E2E2E2E2E2E2E2E2E2E2E2E2E2E2E2E2E2E2E2E2E2E2E2E2E2E2E2E2E2E2E2E2E2E2E2E2E2E2E2E2E2E2E2E2E2E2E2E2E2E2E2E2E2E2E2E2BEE2E2DCE2E2E2E2E2E2E2E2E22D2D2D2D2D2D2D2D2D2D2D2D2D2D2D2D2D2D2D2D2D2D2D2D2D2D2D2D2D2D2D2D2DBEBEBE
310
2D2D2D2D2D2D2D2D2D2D2D2D2D2D2D2D2D2D2D2D2D2D2D2D2D2D2D2D2D2D2D2D2DF5E2E2E2E2E2E2E2E2E2E2E2E2E2E2E2E2E2E2E2E2E2E2E2E2E2E2E2E2E2E2E2E2E2E2E2E2E2E2E2E2E2E2E2E2E2E2E2E2E2E2E2E2E2E2E2E2E2E2E2E2E2E2E2E2E2E2E2E2E2E2E2E2E2E2E2E2E2E2E2E2E2E2E2E2E2E2E2E2E2E2E2E2E2
310
E2E2E2E2E2E2E2E2DCE2E2BEE2E2E2E2E2E2E2E2E2E2E2E2E2E2E2E2E2E2E2E2E2E2E2E2E2E2E2E2E2E2E2E2E2E2E2E2E2E2E2E2E2E2E2E2E2E2E2E2E2E2E2E2E2E2E2E2E2E2E2E2E2E2E2E2E2E2E2E2BEE2E2DCE2E2E2E2E2E2E2E2E22DE2E2E2E2E2E2E2E2E2E2E2E2E2E2E2E2E2E2E2E2E2E2E2E2E2E2E2E2E2E2E2E2BE
310
BEBEE2E2E2E2E2E2E2E2E2E2E2E2E2E2E2E2E2E2E2E2E2E2E2E2E2E2E2E2E2E2E2E2E22DE2E2E2E2E2E2E2E2E2E2E2E2E2E2E2E2E2E2E2E2E2E2E2E2E2E2E2E2E2E2E2E2E2E2E2E2E2E2E2E2E2E2E2E2E2E2E2E2E2E2E2E2E2E2E2E2E2E2E2E2E2E2E2E2E2E2E2E2E2E2E2E2E2E2E2E2E2E2E2E2E2E2E2E2E2E2E2E2E2E2E2
310
E2E2E2E2E2E2E2E2E2E2DCE2E2BEE2E2E2E2E2E2E2E2E2E2E2E2E2E2E2E2E2E2E2E2E2E2E2E2E2E2E2E2E2E2E2E2E2E2E2E2E2E2E2E2E2E2E2E2E2E2E2E2E2E2E2E2E2E2E2E2E2E2E2E2E2E2E2E2E2E2E2E2BEE2E2DCE2E2E2E2E2E2E2E2E2E2E2E2E2E2E2E2E2E2E2E2E2E2E2E2E2E2E2E2E2E2E2E2E2E2E2E2E2E2E2E2E2
310
E2BEBEBEE2E2E2E2E2E2E2E2E2E2E2E2E2E2E2E2E2E2E2E2E2E2E2E2E2E2E2E2E2E2E2E2E2E2E2E2E2E2E2E2E2E2E2E2E2E2E2E2E2E2E2E2E2E2E2E2E2E2E2E2E2E2E2E2E2E2E2E2E2E2E2E2E2E2E2E2E2E2E2E2E2E2E2E2E2E2E2E2E2E2E2E2E2E2E2E2E2E2E2E2E2E2E2E2E2E2E2E2E2E2E2E2E2E2E2E2E2E2E2E2E2E2E2
310
E2E2E2E2E2E2E2E2E2E2E2E2DCE2E2BEE2E2E2E2E2E2E2E2E2E2E2E2E2E2E2E2E2E2E2E2E2E2E2E2E2E2E2E2E2E2E2E2E2E2E2E2E2E2E2E2E2E2E2E2E2E2E2E2E2E2E2E2E2E2E2E2E2E2E2E2E2E2E2E2E2E2E2E2BEE2E2DCDCDCDCDCDCDCDCDCDCDCDCDCDCDCDCDCDCDCDCDCDCDCDCDCDCDCDCDCDCDCDCDCDCDCDCDCDCDCDC
310
DCDCDCDCDCDCDCDCDCDCDCDCDCDCDCDCDCDCDCDCDCDCDCDCDCDCDCDCDCDCDCDCDCDCDCDCDCDCDCDCDCDCDCDCDCDCDCDCDCDCDCDCDCDCDCDCDCDCDCDCDCDCDCDCDCDCDCDCDCDCDCDCDCDCDCDCDCDCDCDCDCDCDCDCDCDCDCDCDCDCDCDCDCDCDCDCDCDCDCDCDCDCDCDCDCDCDCDCDCDCDCDCDCDCDCDCDCDCDCDCDCDCDCDCDCDCDC
310
DCDCDCDCDCDCDCDCDCDCDCDCDCDCDCE2E2BEE2E2E2E2E2E2E2E2E2E2E2E2E2E2E2E2E2E2E2E2E2E2E2E2E2E2E2E2E2E2E2E2E2E2E2E2E2E2E2E2E2E2E2E2E2E2E2E2E2E2E2E2E2E2E2E2E2E2E2E2E2E2E2E2E2E2E2E2BEE2E2E2E2E2E2E2E2E2E2E2E2E2E2E2E2E2E2E2E2E2E2E2E2E2E2E2E2E2E2E2E2E2E2E2E2E2E2E2E2
310
E2E2E2E2E2E2E2E2E2E2E2E2E2E2E2E2E2E2E2E2E2E2E2E2E2E2E2E2E2E2E2E2E2E2E2E2E2E2E2E2E2E2E2E2E2E2E2E2E2E2E2E2E2E2E2E2E2E2E2E2E2E2E2E2E2E2E2E2E2E2E2E2E2E2E2E2E2E2E2E2E2E2E2E2E2E2E2E2E2E2E2E2E2E2E2E2E2E2E2E2E2E2E2E2E2E2E2E2E2E2E2E2E2E2E2E2E2E2E2E2E2E2E2E2E2E2E2
310
E2E2E2E2E2E2E2E2E2E2E2E2E2E2E2E2E2E2E2BEE2E2E2E2E2E2E2E2E2E2E2E2E2E2E2E2E2E2E2E2E2E2E2E2E2E2E2E2E2E2E2E2E2E2E2E2E2E2E2E2E2E2E2E2E2E2E2E2E2E2E2E2E2E2E2E2E2E2E2E2E2E2E2E2E2E2E2E2BEE2E2E2E2E2E2E2E2E2E2E2E2E2E2E2E2E2E2E2E2E2E2E2E2E2E2E2E2E2E2E2E2E2E2E2E2E2E2
310
E2E2E2E2E2E2E2E2E2E2E2E2E2E2E2E2E2E2E2E2E2E2E2E2E2E2E2E2E2E2E2E2E2E2E2E2E2E2E2E2E2E2E2E2E2E2E2E2E2E2E2E2E2E2E2E2E2E2E2E2E2E2E2E2E2E2E2E2E2E2E2E2E2E2E2E2E2E2E2E2E2E2E2E2E2E2E2E2E2E2E2E2E2E2E2E2E2E2E2E2E2E2E2E2E2E2E2E2E2E2E2E2E2E2E2E2E2E2E2E2E2E2E2E2E2E2E2
310
E2E2E2E2E2E2E2E2E2E2E2E2E2E2E2E2E2E2E2E2E2BEE2E2E2E2E2E2E2E2E2E2E2E2E2E2E2E2E2E2E2E2E2E2E2E2E2E2E2E2E2E2E2E2E2E2E2E2E2E2E2E2E2E2E2E2E2E2E2E2E2E2E2E2E2E2E2E2E2E2E2E2E2E2E2E2E2E2E2E2BEBEBEBEBEBEBEBEBEBEBEBEBEBEBEBEBEBEBEBEBEBEBEBEBEBEBEBEBEBEBEBEBEBEBEBEBE
310
BEBEBEBEBEBEBEBEBEBEBEBEBEBEBEBEBEBEBEBEBEBEBEBEBEBEBEBEBEBEBEBEBEBEBEBEBEBEBEBEBEBEBEBEBEBEBEBEBEBEBEBEBEBEBEBEBEBEBEBEBEBEBEBEBEBEBEBEBEBEBEBEBEBEBEBEBEBEBEBEBEBEBEBEBEBEBEBEBEBEBEBEBEBEBEBEBEBEBEBEBEBEBEBEBEBEBEBEBEBEBEBEBEBEBEBEBEBEBEBEBEBEBEBEBEBEBE
310
BEBEBEBEBEBEBEBEBEBEBEBEBEBEBEBEBEBEBEBEBEBEBEBEE2E2E2E2E2E2E2E2E2E2E2E2E2E2E2E2E2E2E2E2E2E2E2E2E2E2E2E2E2E2E2E2E2E2E2E2E2E2E2E2E2E2E2E2E2E2E2E2E2E2E2E2E2E2E2E2E2E2E2E2E2E2E2E2E2E2E2E2E2E2E2E2E2E2E2E2E2E2E2E2E2E2E2E2E2E2E2E2E2E2E2E2E2E2E2E2E2E2E2E2E2E2E2
310
E2E2E2E2E2E2E2E2E2E2E2E2E2E2E2E2E2E2E2E2E2E2E2E2E2E2E2E2E2E2E2E2E2E2E2E2E2E2E2E2E2E2E2E2E2E2E2E2E2E2E2E2E2E2E2E2E2E2E2E2E2E2E2E2E2E2E2E2E2E2E2E2E2E2E2E2E2E2E2E2E2E2E2E2E2E2E2E2E2E2E2E2E2E2E2E2E2E2E2E2E2E2E2E2E2E2E2E2E2E2E2E2E2E2E2E2E2E2E2E2E2E2E2E2E2E2E2
310
E2E2E2E2E2E2E2E2E2E2E2E2E2E2E2E2E2E2E2E2E2E2E2E2E2E2E2E2E2E2E2E2E2E2E2E2E2E2E2E2E2E2E2E2E2E2E2E2E2E2E2E2E2E2E2E2E2E2E2E2
  0
XRECORD
  5
48
102
{ACAD_REACTORS
330
47
102
}
330
47
100
AcDbXrecord
280
     1
270
     1
271
     1
  0
XRECORD
  5
49
102
{ACAD_REACTORS
330
47
102
}
330
47
100
AcDbXrecord
280
     1
270
     1
271
     1
  0
XRECORD
  5
4A
102
{ACAD_REACTORS
330
47
102
}
330
47
100
AcDbXrecord
280
     1
270
     1
271
     1
  0
XRECORD
  5
4B
102
{ACAD_REACTORS
330
47
102
}
330
47
100
AcDbXrecord
280
     1
270
     1
271
     1
  0
XRECORD
  5
4C
102
{ACAD_REACTORS
330
47
102
}
330
47
100
AcDbXrecord
280
     1
270
     1
271
     1
  0
XRECORD
  5
4D
102
{ACAD_REACTORS
330
47
102
}
330
47
100
AcDbXrecord
280
     1
270
     1
271
     1
  0
XRECORD
  5
40
102
{ACAD_REACTORS
330
3F
102
}
330
3F
100
AcDbXrecord
280
     1
270
     1
271
     1
  0
XRECORD
  5
41
102
{ACAD_REACTORS
330
3F
102
}
330
3F
100
AcDbXrecord
280
     1
270
     1
271
     1
  0
XRECORD
  5
42
102
{ACAD_REACTORS
330
3F
102
}
330
3F
100
AcDbXrecord
280
     1
270
     1
271
     1
  0
XRECORD
  5
43
102
{ACAD_REACTORS
330
3F
102
}
330
3F
100
AcDbXrecord
280
     1
270
     1
271
     1
  0
XRECORD
  5
44
102
{ACAD_REACTORS
330
3F
102
}
330
3F
100
AcDbXrecord
280
     1
270
     1
271
     1
  0
XRECORD
  5
45
102
{ACAD_REACTORS
330
3F
102
}
330
3F
100
AcDbXrecord
280
     1
270
     1
271
     1
  0
XRECORD
  5
F
102
{ACAD_REACTORS
330
E
102
}
330
E
100
AcDbXrecord
280
     1
270
     1
271
     1
  0
XRECORD
  5
10
102
{ACAD_REACTORS
330
E
102
}
330
E
100
AcDbXrecord
280
     1
270
     1
271
     1
  0
XRECORD
  5
11
102
{ACAD_REACTORS
330
E
102
}
330
E
100
AcDbXrecord
280
     1
270
     1
271
     1
  0
XRECORD
  5
12
102
{ACAD_REACTORS
330
E
102
}
330
E
100
AcDbXrecord
280
     1
270
     1
271
     1
  0
XRECORD
  5
13
102
{ACAD_REACTORS
330
E
102
}
330
E
100
AcDbXrecord
280
     1
270
     1
271
     1
  0
XRECORD
  5
14
102
{ACAD_REACTORS
330
E
102
}
330
E
100
AcDbXrecord
280
     1
270
     1
271
     1
  0
CELLSTYLEMAP
  5
396
102
{ACAD_REACTORS
330
57
102
}
330
57
100
AcDbCellStyleMap
 90
        3
300
CELLSTYLE
  1
TABLEFORMAT_BEGIN
 90
        5
170
     1
 91
        0
 92
    32768
 62
   257
 93
        1
300
CONTENTFORMAT
  1
CONTENTFORMAT_BEGIN
 90
        0
 91
        0
 92
      512
 93
        0
300

 40
0.0
140
1.0
 94
        5
 62
     0
340
27
144
6.0
309
CONTENTFORMAT_END
171
     1
301
MARGIN
  1
CELLMARGIN_BEGIN
 40
1.5
 40
1.5
 40
1.5
 40
1.5
 40
4.5
 40
4.5
309
CELLMARGIN_END
 94
        6
 95
        1
302
GRIDFORMAT
  1
GRIDFORMAT_BEGIN
 90
        0
 91
        1
 62
     0
 92
       -2
340
0
 93
        0
 40
1.125
309
GRIDFORMAT_END
 95
        2
302
GRIDFORMAT
  1
GRIDFORMAT_BEGIN
 90
        0
 91
        1
 62
     0
 92
       -2
340
0
 93
        0
 40
1.125
309
GRIDFORMAT_END
 95
        4
302
GRIDFORMAT
  1
GRIDFORMAT_BEGIN
 90
        0
 91
        1
 62
     0
 92
       -2
340
0
 93
        0
 40
1.125
309
GRIDFORMAT_END
 95
        8
302
GRIDFORMAT
  1
GRIDFORMAT_BEGIN
 90
        0
 91
        1
 62
     0
 92
       -2
340
0
 93
        0
 40
1.125
309
GRIDFORMAT_END
 95
       16
302
GRIDFORMAT
  1
GRIDFORMAT_BEGIN
 90
        0
 91
        1
 62
     0
 92
       -2
340
0
 93
        0
 40
1.125
309
GRIDFORMAT_END
 95
       32
302
GRIDFORMAT
  1
GRIDFORMAT_BEGIN
 90
        0
 91
        1
 62
     0
 92
       -2
340
0
 93
        0
 40
1.125
309
GRIDFORMAT_END
309
TABLEFORMAT_END
  1
CELLSTYLE_BEGIN
 90
        1
 91
        1
300
_TITLE
309
CELLSTYLE_END
300
CELLSTYLE
  1
TABLEFORMAT_BEGIN
 90
        5
170
     1
 91
        0
 92
        0
 62
   257
 93
        1
300
CONTENTFORMAT
  1
CONTENTFORMAT_BEGIN
 90
        0
 91
        0
 92
      512
 93
        0
300

 40
0.0
140
1.0
 94
        5
 62
     0
340
27
144
4.5
309
CONTENTFORMAT_END
171
     1
301
MARGIN
  1
CELLMARGIN_BEGIN
 40
1.5
 40
1.5
 40
1.5
 40
1.5
 40
4.5
 40
4.5
309
CELLMARGIN_END
 94
        6
 95
        1
302
GRIDFORMAT
  1
GRIDFORMAT_BEGIN
 90
        0
 91
        1
 62
     0
 92
       -2
340
0
 93
        0
 40
1.125
309
GRIDFORMAT_END
 95
        2
302
GRIDFORMAT
  1
GRIDFORMAT_BEGIN
 90
        0
 91
        1
 62
     0
 92
       -2
340
0
 93
        0
 40
1.125
309
GRIDFORMAT_END
 95
        4
302
GRIDFORMAT
  1
GRIDFORMAT_BEGIN
 90
        0
 91
        1
 62
     0
 92
       -2
340
0
 93
        0
 40
1.125
309
GRIDFORMAT_END
 95
        8
302
GRIDFORMAT
  1
GRIDFORMAT_BEGIN
 90
        0
 91
        1
 62
     0
 92
       -2
340
0
 93
        0
 40
1.125
309
GRIDFORMAT_END
 95
       16
302
GRIDFORMAT
  1
GRIDFORMAT_BEGIN
 90
        0
 91
        1
 62
     0
 92
       -2
340
0
 93
        0
 40
1.125
309
GRIDFORMAT_END
 95
       32
302
GRIDFORMAT
  1
GRIDFORMAT_BEGIN
 90
        0
 91
        1
 62
     0
 92
       -2
340
0
 93
        0
 40
1.125
309
GRIDFORMAT_END
309
TABLEFORMAT_END
  1
CELLSTYLE_BEGIN
 90
        2
 91
        1
300
_HEADER
309
CELLSTYLE_END
300
CELLSTYLE
  1
TABLEFORMAT_BEGIN
 90
        5
170
     1
 91
        0
 92
        0
 62
   257
 93
        1
300
CONTENTFORMAT
  1
CONTENTFORMAT_BEGIN
 90
        0
 91
        0
 92
      512
 93
        0
300

 40
0.0
140
1.0
 94
        2
 62
     0
340
27
144
4.5
309
CONTENTFORMAT_END
171
     1
301
MARGIN
  1
CELLMARGIN_BEGIN
 40
1.5
 40
1.5
 40
1.5
 40
1.5
 40
4.5
 40
4.5
309
CELLMARGIN_END
 94
        6
 95
        1
302
GRIDFORMAT
  1
GRIDFORMAT_BEGIN
 90
        0
 91
        1
 62
     0
 92
       -2
340
0
 93
        0
 40
1.125
309
GRIDFORMAT_END
 95
        2
302
GRIDFORMAT
  1
GRIDFORMAT_BEGIN
 90
        0
 91
        1
 62
     0
 92
       -2
340
0
 93
        0
 40
1.125
309
GRIDFORMAT_END
 95
        4
302
GRIDFORMAT
  1
GRIDFORMAT_BEGIN
 90
        0
 91
        1
 62
     0
 92
       -2
340
0
 93
        0
 40
1.125
309
GRIDFORMAT_END
 95
        8
302
GRIDFORMAT
  1
GRIDFORMAT_BEGIN
 90
        0
 91
        1
 62
     0
 92
       -2
340
0
 93
        0
 40
1.125
309
GRIDFORMAT_END
 95
       16
302
GRIDFORMAT
  1
GRIDFORMAT_BEGIN
 90
        0
 91
        1
 62
     0
 92
       -2
340
0
 93
        0
 40
1.125
309
GRIDFORMAT_END
 95
       32
302
GRIDFORMAT
  1
GRIDFORMAT_BEGIN
 90
        0
 91
        1
 62
     0
 92
       -2
340
0
 93
        0
 40
1.125
309
GRIDFORMAT_END
309
TABLEFORMAT_END
  1
CELLSTYLE_BEGIN
 90
        3
 91
        2
300
_DATA
309
CELLSTYLE_END
  0
ENDSEC
  0
EOF
