  0
SECTION
  2
HEADER
  9
$ACADVER
  1
AC1024
  9
$ACADMAINTVER
 70
     6
  9
$DWGCODEPAGE
  3
ANSI_1252
  9
$INSBASE
 10
0.0
 20
0.0
 30
0.0
  9
$EXTMIN
 10
0.0
 20
0.0
 30
0.0
  9
$EXTMAX
 10
1237.393627350615
 20
594.0
 30
0.0
  9
$LIMMIN
 10
0.0
 20
0.0
  9
$LIMMAX
 10
420.0
 20
297.0
  9
$ORTHOMODE
 70
     1
  9
$REGENMODE
 70
     1
  9
$FILLMODE
 70
     1
  9
$QTEXTMODE
 70
     0
  9
$MIRRTEXT
 70
     0
  9
$LTSCALE
 40
25.0
  9
$ATTMODE
 70
     1
  9
$TEXTSIZE
 40
8.0
  9
$TRACEWID
 40
1.0
  9
$TEXTSTYLE
  7
Standard
  9
$CLAYER
  8
09-01
  9
$CELTYPE
  6
ByLayer
  9
$CECOLOR
 62
   256
  9
$CELTSCALE
 40
1.0
  9
$DISPSILH
 70
     0
  9
$DIMSCALE
 40
2.0
  9
$DIMASZ
 40
2.5
  9
$DIMEXO
 40
1.0
  9
$DIMDLI
 40
10.0
  9
$DIMRND
 40
0.0
  9
$DIMDLE
 40
0.0
  9
$DIMEXE
 40
1.0
  9
$DIMTP
 40
0.0
  9
$DIMTM
 40
0.0
  9
$DIMTXT
 40
2.5
  9
$DIMCEN
 40
0.0
  9
$DIMTSZ
 40
0.0
  9
$DIMTOL
 70
     0
  9
$DIMLIM
 70
     0
  9
$DIMTIH
 70
     0
  9
$DIMTOH
 70
     0
  9
$DIMSE1
 70
     0
  9
$DIMSE2
 70
     0
  9
$DIMTAD
 70
     1
  9
$DIMZIN
 70
     8
  9
$DIMBLK
  1

  9
$DIMASO
 70
     1
  9
$DIMSHO
 70
     1
  9
$DIMPOST
  1

  9
$DIMAPOST
  1

  9
$DIMALT
 70
     0
  9
$DIMALTD
 70
     3
  9
$DIMALTF
 40
0.03937007874016
  9
$DIMLFAC
 40
1.0
  9
$DIMTOFL
 70
     1
  9
$DIMTVP
 40
0.0
  9
$DIMTIX
 70
     0
  9
$DIMSOXD
 70
     0
  9
$DIMSAH
 70
     0
  9
$DIMBLK1
  1

  9
$DIMBLK2
  1

  9
$DIMSTYLE
  2
Wagner
  9
$DIMCLRD
 70
     4
  9
$DIMCLRE
 70
     4
  9
$DIMCLRT
 70
     1
  9
$DIMTFAC
 40
1.0
  9
$DIMGAP
 40
1.0
  9
$DIMJUST
 70
     0
  9
$DIMSD1
 70
     0
  9
$DIMSD2
 70
     0
  9
$DIMTOLJ
 70
     0
  9
$DIMTZIN
 70
     8
  9
$DIMALTZ
 70
     0
  9
$DIMALTTZ
 70
     0
  9
$DIMUPT
 70
     0
  9
$DIMDEC
 70
     8
  9
$DIMTDEC
 70
     8
  9
$DIMALTU
 70
     2
  9
$DIMALTTD
 70
     3
  9
$DIMTXSTY
  7
Standard
  9
$DIMAUNIT
 70
     0
  9
$DIMADEC
 70
     2
  9
$DIMALTRND
 40
0.0
  9
$DIMAZIN
 70
     2
  9
$DIMDSEP
 70
    46
  9
$DIMATFIT
 70
     3
  9
$DIMFRAC
 70
     0
  9
$DIMLDRBLK
  1

  9
$DIMLUNIT
 70
     2
  9
$DIMLWD
 70
    -2
  9
$DIMLWE
 70
    -2
  9
$DIMTMOVE
 70
     0
  9
$DIMFXL
 40
1.0
  9
$DIMFXLON
 70
     0
  9
$DIMJOGANG
 40
0.7853981633974483
  9
$DIMTFILL
 70
     0
  9
$DIMTFILLCLR
 70
     0
  9
$DIMARCSYM
 70
     0
  9
$DIMLTYPE
  6

  9
$DIMLTEX1
  6

  9
$DIMLTEX2
  6

  9
$DIMTXTDIRECTION
 70
     0
  9
$LUNITS
 70
     2
  9
$LUPREC
 70
     4
  9
$SKETCHINC
 40
1.0
  9
$FILLETRAD
 40
0.0
  9
$AUNITS
 70
     0
  9
$AUPREC
 70
     0
  9
$MENU
  1
.
  9
$ELEVATION
 40
0.0
  9
$PELEVATION
 40
0.0
  9
$THICKNESS
 40
0.0
  9
$LIMCHECK
 70
     0
  9
$CHAMFERA
 40
0.0
  9
$CHAMFERB
 40
0.0
  9
$CHAMFERC
 40
0.0
  9
$CHAMFERD
 40
0.0
  9
$SKPOLY
 70
     0
  9
$TDCREATE
 40
2455574.665525162
  9
$TDUCREATE
 40
2455574.582191829
  9
$TDUPDATE
 40
2456864.606094167
  9
$TDUUPDATE
 40
2456864.522760833
  9
$TDINDWG
 40
0.1964229861
  9
$TDUSRTIMER
 40
0.1964229861
  9
$USRTIMER
 70
     1
  9
$ANGBASE
 50
0.0
  9
$ANGDIR
 70
     0
  9
$PDMODE
 70
     0
  9
$PDSIZE
 40
0.0
  9
$PLINEWID
 40
0.0
  9
$SPLFRAME
 70
     0
  9
$SPLINETYPE
 70
     6
  9
$SPLINESEGS
 70
     8
  9
$HANDSEED
  5
3A7
  9
$SURFTAB1
 70
     6
  9
$SURFTAB2
 70
     6
  9
$SURFTYPE
 70
     6
  9
$SURFU
 70
     6
  9
$SURFV
 70
     6
  9
$UCSBASE
  2

  9
$UCSNAME
  2

  9
$UCSORG
 10
0.0
 20
0.0
 30
0.0
  9
$UCSXDIR
 10
1.0
 20
0.0
 30
0.0
  9
$UCSYDIR
 10
0.0
 20
1.0
 30
0.0
  9
$UCSORTHOREF
  2

  9
$UCSORTHOVIEW
 70
     0
  9
$UCSORGTOP
 10
0.0
 20
0.0
 30
0.0
  9
$UCSORGBOTTOM
 10
0.0
 20
0.0
 30
0.0
  9
$UCSORGLEFT
 10
0.0
 20
0.0
 30
0.0
  9
$UCSORGRIGHT
 10
0.0
 20
0.0
 30
0.0
  9
$UCSORGFRONT
 10
0.0
 20
0.0
 30
0.0
  9
$UCSORGBACK
 10
0.0
 20
0.0
 30
0.0
  9
$PUCSBASE
  2

  9
$PUCSNAME
  2

  9
$PUCSORG
 10
0.0
 20
0.0
 30
0.0
  9
$PUCSXDIR
 10
1.0
 20
0.0
 30
0.0
  9
$PUCSYDIR
 10
0.0
 20
1.0
 30
0.0
  9
$PUCSORTHOREF
  2

  9
$PUCSORTHOVIEW
 70
     0
  9
$PUCSORGTOP
 10
0.0
 20
0.0
 30
0.0
  9
$PUCSORGBOTTOM
 10
0.0
 20
0.0
 30
0.0
  9
$PUCSORGLEFT
 10
0.0
 20
0.0
 30
0.0
  9
$PUCSORGRIGHT
 10
0.0
 20
0.0
 30
0.0
  9
$PUCSORGFRONT
 10
0.0
 20
0.0
 30
0.0
  9
$PUCSORGBACK
 10
0.0
 20
0.0
 30
0.0
  9
$USERI1
 70
     0
  9
$USERI2
 70
     0
  9
$USERI3
 70
     0
  9
$USERI4
 70
     0
  9
$USERI5
 70
     0
  9
$USERR1
 40
0.0
  9
$USERR2
 40
0.0
  9
$USERR3
 40
0.0
  9
$USERR4
 40
0.0
  9
$USERR5
 40
0.0
  9
$WORLDVIEW
 70
     1
  9
$SHADEDGE
 70
     3
  9
$SHADEDIF
 70
    70
  9
$TILEMODE
 70
     1
  9
$MAXACTVP
 70
    64
  9
$PINSBASE
 10
0.0
 20
0.0
 30
0.0
  9
$PLIMCHECK
 70
     0
  9
$PEXTMIN
 10
0.0
 20
0.0
 30
0.0
  9
$PEXTMAX
 10
0.0
 20
0.0
 30
0.0
  9
$PLIMMIN
 10
0.0
 20
0.0
  9
$PLIMMAX
 10
12.0
 20
9.0
  9
$UNITMODE
 70
     0
  9
$VISRETAIN
 70
     1
  9
$PLINEGEN
 70
     0
  9
$PSLTSCALE
 70
     1
  9
$TREEDEPTH
 70
  3020
  9
$CMLSTYLE
  2
Standard
  9
$CMLJUST
 70
     0
  9
$CMLSCALE
 40
20.0
  9
$PROXYGRAPHICS
 70
     1
  9
$MEASUREMENT
 70
     1
  9
$CELWEIGHT
370
    -1
  9
$ENDCAPS
280
     0
  9
$JOINSTYLE
280
     0
  9
$LWDISPLAY
290
     0
  9
$INSUNITS
 70
     4
  9
$HYPERLINKBASE
  1

  9
$STYLESHEET
  1

  9
$XEDIT
290
     1
  9
$CEPSNTYPE
380
     0
  9
$PSTYLEMODE
290
     1
  9
$FINGERPRINTGUID
  2
{0634C9F6-6525-44C5-B6A0-D8CD5FDA19B9}
  9
$VERSIONGUID
  2
{059DE5EA-2A08-4FFD-9E83-9D097B445A71}
  9
$EXTNAMES
290
     1
  9
$PSVPSCALE
 40
0.0
  9
$OLESTARTUP
290
     0
  9
$SORTENTS
280
   127
  9
$INDEXCTL
280
     0
  9
$HIDETEXT
280
     1
  9
$XCLIPFRAME
280
     0
  9
$HALOGAP
280
     0
  9
$OBSCOLOR
 70
   257
  9
$OBSLTYPE
280
     0
  9
$INTERSECTIONDISPLAY
280
     0
  9
$INTERSECTIONCOLOR
 70
   257
  9
$DIMASSOC
280
     2
  9
$PROJECTNAME
  1

  9
$CAMERADISPLAY
290
     0
  9
$LENSLENGTH
 40
50.0
  9
$CAMERAHEIGHT
 40
0.0
  9
$STEPSPERSEC
 40
2.0
  9
$STEPSIZE
 40
6.0
  9
$3DDWFPREC
 40
2.0
  9
$PSOLWIDTH
 40
5.0
  9
$PSOLHEIGHT
 40
80.0
  9
$LOFTANG1
 40
1.570796326794896
  9
$LOFTANG2
 40
1.570796326794896
  9
$LOFTMAG1
 40
0.0
  9
$LOFTMAG2
 40
0.0
  9
$LOFTPARAM
 70
     7
  9
$LOFTNORMALS
280
     1
  9
$LATITUDE
 40
37.795
  9
$LONGITUDE
 40
-122.394
  9
$NORTHDIRECTION
 40
0.0
  9
$TIMEZONE
 70
 -8000
  9
$LIGHTGLYPHDISPLAY
280
     1
  9
$TILEMODELIGHTSYNCH
280
     1
  9
$CMATERIAL
347
3B
  9
$SOLIDHIST
280
     1
  9
$SHOWHIST
280
     1
  9
$DWFFRAME
280
     2
  9
$DGNFRAME
280
     0
  9
$REALWORLDSCALE
290
     1
  9
$INTERFERECOLOR
 62
     1
  9
$INTERFEREOBJVS
345
47
  9
$INTERFEREVPVS
346
48
  9
$CSHADOW
280
     0
  9
$SHADOWPLANELOCATION
 40
0.0
  0
ENDSEC
  0
SECTION
  2
CLASSES
  0
CLASS
  1
ACDBDICTIONARYWDFLT
  2
AcDbDictionaryWithDefault
  3
ObjectDBX Classes
 90
        0
 91
        1
280
     0
281
     0
  0
CLASS
  1
DICTIONARYVAR
  2
AcDbDictionaryVar
  3
ObjectDBX Classes
 90
        0
 91
        5
280
     0
281
     0
  0
CLASS
  1
TABLESTYLE
  2
AcDbTableStyle
  3
ObjectDBX Classes
 90
     4095
 91
        1
280
     0
281
     0
  0
CLASS
  1
MATERIAL
  2
AcDbMaterial
  3
ObjectDBX Classes
 90
     1153
 91
        3
280
     0
281
     0
  0
CLASS
  1
VISUALSTYLE
  2
AcDbVisualStyle
  3
ObjectDBX Classes
 90
     4095
 91
        3
280
     0
281
     0
  0
CLASS
  1
SCALE
  2
AcDbScale
  3
ObjectDBX Classes
 90
     1153
 91
       33
280
     0
281
     0
  0
CLASS
  1
MLEADERSTYLE
  2
AcDbMLeaderStyle
  3
ACDB_MLEADERSTYLE_CLASS
 90
     4095
 91
        0
280
     0
281
     0
  0
CLASS
  1
CELLSTYLEMAP
  2
AcDbCellStyleMap
  3
ObjectDBX Classes
 90
     1152
 91
        1
280
     0
281
     0
  0
CLASS
  1
SORTENTSTABLE
  2
AcDbSortentsTable
  3
ObjectDBX Classes
 90
        0
 91
        6
280
     0
281
     0
  0
CLASS
  1
DIMASSOC
  2
AcDbDimAssoc
  3
"AcDbDimAssoc|Product Desc:     AcDim ARX App For Dimension|Company:          Autodesk, Inc.|WEB Address:      www.autodesk.com"
 90
        0
 91
       15
280
     0
281
     0
  0
CLASS
  1
AEC_REFEDIT_STATUS_TRACKER
  2
AecDbRefEditStatusTracker
  3
AecArchBase60|Product Desc: Autodesk Architectural Desktop 2007 |Company: Autodesk,Inc. |WEB Address: www.autodesk.com
 90
      129
 91
        0
280
     0
281
     0
  0
CLASS
  1
NPOCOLLECTION
  2
AcDbImpNonPersistentObjectsCollection
  3
ObjectDBX Classes
 90
     1153
 91
        0
280
     0
281
     0
  0
CLASS
  1
SOLID_BACKGROUND
  2
AcDbSolidBackground
  3
SCENEOE
 90
     4095
 91
        0
280
     0
281
     0
  0
CLASS
  1
ACDB_DYNAMICBLOCKPURGEPREVENTER_VERSION
  2
AcDbDynamicBlockPurgePreventer
  3
ObjectDBX Classes
 90
     1153
 91
        0
280
     0
281
     0
  0
CLASS
  1
ACAD_TABLE
  2
AcDbTable
  3
ObjectDBX Classes
 90
     1025
 91
        0
280
     0
281
     1
  0
CLASS
  1
TABLECONTENT
  2
AcDbTableContent
  3
ObjectDBX Classes
 90
     1152
 91
        0
280
     0
281
     0
  0
CLASS
  1
TABLEGEOMETRY
  2
AcDbTableGeometry
  3
ObjectDBX Classes
 90
     1152
 91
        0
280
     0
281
     0
  0
CLASS
  1
ACDBASSOCNETWORK
  2
AcDbAssocNetwork
  3
ObjectDBX Classes
 90
     1025
 91
        0
280
     0
281
     0
  0
CLASS
  1
ACDBASSOC2DCONSTRAINTGROUP
  2
AcDbAssoc2dConstraintGroup
  3
ObjectDBX Classes
 90
     1025
 91
        0
280
     0
281
     0
  0
CLASS
  1
ACDBASSOCGEOMDEPENDENCY
  2
AcDbAssocGeomDependency
  3
ObjectDBX Classes
 90
     1025
 91
        0
280
     0
281
     0
  0
ENDSEC
  0
SECTION
  2
TABLES
  0
TABLE
  2
VPORT
  5
2C
330
0
100
AcDbSymbolTable
 70
     1
  0
VPORT
  5
2D
330
2C
100
AcDbSymbolTableRecord
100
AcDbViewportTableRecord
  2
*Active
 70
     0
 10
0.0
 20
0.0
 11
1.0
 21
1.0
 12
523.832009237758
 22
286.3850987246071
 13
0.0
 23
0.0
 14
10.0
 24
10.0
 15
10.0
 25
10.0
 16
0.0
 26
0.0
 36
1.0
 17
0.0
 27
0.0
 37
0.0
 40
758.7891186640648
 41
1.937738246505718
 42
50.0
 43
0.0
 44
0.0
 50
0.0
 51
0.0
 71
     0
 72
  1000
 73
     1
 74
     3
 75
     0
 76
     0
 77
     0
 78
     0
281
     0
 65
     1
110
0.0
120
0.0
130
0.0
111
1.0
121
0.0
131
0.0
112
0.0
122
1.0
132
0.0
 79
     0
146
0.0
348
2E
 60
     2
 61
     5
292
     1
282
     1
141
0.0
142
0.0
 63
   250
421
  3355443
  0
ENDTAB
  0
TABLE
  2
LTYPE
  5
27
330
0
100
AcDbSymbolTable
 70
     4
  0
LTYPE
  5
28
330
27
100
AcDbSymbolTableRecord
100
AcDbLinetypeTableRecord
  2
ByBlock
 70
     0
  3

 72
    65
 73
     0
 40
0.0
  0
LTYPE
  5
29
330
27
100
AcDbSymbolTableRecord
100
AcDbLinetypeTableRecord
  2
ByLayer
 70
     0
  3

 72
    65
 73
     0
 40
0.0
  0
LTYPE
  5
14
330
27
100
AcDbSymbolTableRecord
100
AcDbLinetypeTableRecord
  2
Continuous
 70
     0
  3
Solid line
 72
    65
 73
     0
 40
0.0
  0
LTYPE
  5
244
330
27
100
AcDbSymbolTableRecord
100
AcDbLinetypeTableRecord
  2
AUSGEZOGEN
 70
     0
  3
Ausgezogene Linie
 72
    65
 73
     0
 40
0.0
  0
LTYPE
  5
FC
330
27
100
AcDbSymbolTableRecord
100
AcDbLinetypeTableRecord
  2
STRICHPUNKT
 70
     0
  3
__ . __ . __ . __ . __ . __ . __ . __ . __ . __
 72
    65
 73
     4
 40
1.0
 49
0.5
 74
     0
 49
-0.25
 74
     0
 49
0.0
 74
     0
 49
-0.25
 74
     0
  0
LTYPE
  5
124
330
27
100
AcDbSymbolTableRecord
100
AcDbLinetypeTableRecord
  2
VERDECKT
 70
     0
  3
__ __ __ __ __ __ __ __ __ __ __ __ __ __ __ __
 72
    65
 73
     2
 40
0.375
 49
0.25
 74
     0
 49
-0.125
 74
     0
  0
ENDTAB
  0
TABLE
  2
LAYER
  5
1F
102
{ACAD_XDICTIONARY
360
20
102
}
330
0
100
AcDbSymbolTable
 70
    10
  0
LAYER
  5
6
102
{ACAD_XDICTIONARY
360
7
102
}
330
1F
100
AcDbSymbolTableRecord
100
AcDbLayerTableRecord
  2
0
 70
     0
 62
     7
  6
Continuous
370
    -3
390
9
347
C
  0
LAYER
  5
23B
102
{ACAD_XDICTIONARY
360
23C
102
}
330
1F
100
AcDbSymbolTableRecord
100
AcDbLayerTableRecord
  2
01-99
 70
     0
 62
     2
  6
Continuous
370
    -3
390
9
347
C
  0
LAYER
  5
241
102
{ACAD_XDICTIONARY
360
242
102
}
330
1F
100
AcDbSymbolTableRecord
100
AcDbLayerTableRecord
  2
02-99
 70
     0
 62
     1
  6
AUSGEZOGEN
370
    -3
390
9
347
C
  0
LAYER
  5
279
102
{ACAD_XDICTIONARY
360
27A
102
}
330
1F
100
AcDbSymbolTableRecord
100
AcDbLayerTableRecord
  2
06-99
 70
     0
 62
     1
  6
AUSGEZOGEN
370
    -3
390
9
347
C
  0
LAYER
  5
41
102
{ACAD_XDICTIONARY
360
42
102
}
330
1F
100
AcDbSymbolTableRecord
100
AcDbLayerTableRecord
  2
09-01
 70
     0
 62
     7
  6
Continuous
370
    -3
390
9
347
C
  0
LAYER
  5
76
330
1F
100
AcDbSymbolTableRecord
100
AcDbLayerTableRecord
  2
DEFPOINTS
 70
     0
 62
     7
  6
Continuous
290
     0
370
    -3
390
9
347
C
  0
LAYER
  5
263
102
{ACAD_XDICTIONARY
360
264
102
}
330
1F
100
AcDbSymbolTableRecord
100
AcDbLayerTableRecord
  2
08-99
 70
     0
 62
     7
  6
Continuous
370
    -3
390
9
347
C
  0
LAYER
  5
F9
102
{ACAD_XDICTIONARY
360
FA
102
}
330
1F
100
AcDbSymbolTableRecord
100
AcDbLayerTableRecord
  2
05-01
 70
     0
 62
     1
  6
STRICHPUNKT
370
    -3
390
9
347
C
  0
LAYER
  5
121
102
{ACAD_XDICTIONARY
360
122
102
}
330
1F
100
AcDbSymbolTableRecord
100
AcDbLayerTableRecord
  2
03-01
 70
     0
 62
     3
  6
VERDECKT
370
    -3
390
9
347
C
  0
LAYER
  5
A9
102
{ACAD_XDICTIONARY
360
AA
102
}
330
1F
100
AcDbSymbolTableRecord
100
AcDbLayerTableRecord
  2
02-01
 70
     0
 62
     1
  6
Continuous
370
    -3
390
9
347
C
  0
ENDTAB
  0
TABLE
  2
STYLE
  5
24
330
0
100
AcDbSymbolTable
 70
     3
  0
STYLE
  5
25
330
24
100
AcDbSymbolTableRecord
100
AcDbTextStyleTableRecord
  2
Standard
 70
     0
 40
0.0
 41
1.0
 50
0.0
 71
     0
 42
8.0
  3
txt.shx
  4

  0
STYLE
  5
266
330
24
100
AcDbSymbolTableRecord
100
AcDbTextStyleTableRecord
  2
ROMANS8
 70
     0
 40
0.0
 41
1.0
 50
0.0
 71
     0
 42
2.5
  3
ROMANS8
  4

  0
STYLE
  5
28C
330
24
100
AcDbSymbolTableRecord
100
AcDbTextStyleTableRecord
  2
ROMAND8
 70
     0
 40
0.0
 41
1.0
 50
0.0
 71
     0
 42
3.5
  3
ROMAND8
  4

  0
ENDTAB
  0
TABLE
  2
VIEW
  5
2A
330
0
100
AcDbSymbolTable
 70
     0
  0
ENDTAB
  0
TABLE
  2
UCS
  5
2B
330
0
100
AcDbSymbolTable
 70
     0
  0
ENDTAB
  0
TABLE
  2
APPID
  5
30
330
0
100
AcDbSymbolTable
 70
     5
  0
APPID
  5
13
330
30
100
AcDbSymbolTableRecord
100
AcDbRegAppTableRecord
  2
ACAD
 70
     0
  0
APPID
  5
1A
330
30
100
AcDbSymbolTableRecord
100
AcDbRegAppTableRecord
  2
ACAD_PSEXT
 70
     0
  0
APPID
  5
34
330
30
100
AcDbSymbolTableRecord
100
AcDbRegAppTableRecord
  2
ACAD_DSTYLE_DIMJAG
 70
     0
  0
APPID
  5
35
330
30
100
AcDbSymbolTableRecord
100
AcDbRegAppTableRecord
  2
ACAD_DSTYLE_DIMTALN
 70
     0
  0
APPID
  5
33
330
30
100
AcDbSymbolTableRecord
100
AcDbRegAppTableRecord
  2
ACAD_DSTYLE_DIMJOGGED_JOGANGLE_SYMBOL
 70
     0
  0
ENDTAB
  0
TABLE
  2
DIMSTYLE
  5
31
330
0
100
AcDbSymbolTable
 70
     3
100
AcDbDimStyleTable
 71
     2
340
32
340
36
  0
DIMSTYLE
105
36
330
31
100
AcDbSymbolTableRecord
100
AcDbDimStyleTableRecord
  2
ISO-25
 70
     0
 41
2.5
 42
0.625
 43
3.75
 44
1.25
 73
     0
 74
     0
 77
     1
 78
     8
140
2.5
141
2.5
143
0.03937007874016
147
0.625
171
     3
172
     1
271
     2
272
     2
274
     3
278
    44
283
     0
284
     8
340
25
  0
DIMSTYLE
105
32
330
31
100
AcDbSymbolTableRecord
100
AcDbDimStyleTableRecord
  2
Wagner
 70
     0
 41
2.5
 42
1.0
 43
10.0
 44
1.0
 73
     0
 74
     0
 77
     1
 78
     8
 79
     2
140
2.5
141
0.0
143
0.03937007874016
147
1.0
171
     3
172
     1
176
     4
177
     4
178
     1
179
     2
271
     8
272
     8
274
     3
283
     0
284
     8
340
25
1001
ACAD_DSTYLE_DIMJOGGED_JOGANGLE_SYMBOL
1070
   384
1040
0.7853981633974483
1001
ACAD_DSTYLE_DIMJAG
1070
   388
1040
1.5
1001
ACAD_DSTYLE_DIMTALN
1070
   392
1070
     0
  0
DIMSTYLE
105
7A
102
{ACAD_REACTORS
330
1E9
330
1F6
330
205
330
214
330
2BC
330
2CB
330
2DA
330
1D9
330
1CA
330
1BD
330
126
330
E9
330
DA
330
CB
330
BC
330
AD
330
99
330
8A
330
7B
330
6A
102
}
330
31
100
AcDbSymbolTableRecord
100
AcDbDimStyleTableRecord
  2
Wagner$0
 70
     0
 41
2.5
 42
1.0
 43
10.0
 44
1.0
 73
     0
 74
     0
 77
     1
 78
     8
 79
     2
140
2.5
141
0.0
143
0.03937007874016
147
1.0
171
     3
172
     1
174
     1
176
     4
177
     4
178
     1
179
     2
271
     8
272
     8
274
     3
279
     2
283
     0
284
     8
340
25
1001
ACAD_DSTYLE_DIMJOGGED_JOGANGLE_SYMBOL
1070
   384
1040
0.7853981633974483
1001
ACAD_DSTYLE_DIMJAG
1070
   388
1040
1.5
1001
ACAD_DSTYLE_DIMTALN
1070
   392
1070
     0
  0
ENDTAB
  0
TABLE
  2
BLOCK_RECORD
  5
1
330
0
100
AcDbSymbolTable
 70
    27
  0
BLOCK_RECORD
  5
2
102
{ACAD_XDICTIONARY
360
3
102
}
330
1
100
AcDbSymbolTableRecord
100
AcDbBlockTableRecord
  2
*Model_Space
340
16
 70
     0
280
     1
281
     0
  0
BLOCK_RECORD
  5
1B
330
1
100
AcDbSymbolTableRecord
100
AcDbBlockTableRecord
  2
*Paper_Space
340
1E
 70
     0
280
     1
281
     0
  0
BLOCK_RECORD
  5
2DD
330
1
100
AcDbSymbolTableRecord
100
AcDbBlockTableRecord
  2
*D0
340
0
 70
     0
280
     1
281
     0
  0
BLOCK_RECORD
  5
2CE
330
1
100
AcDbSymbolTableRecord
100
AcDbBlockTableRecord
  2
*D1
340
0
 70
     0
280
     1
281
     0
  0
BLOCK_RECORD
  5
2BF
330
1
100
AcDbSymbolTableRecord
100
AcDbBlockTableRecord
  2
*D2
340
0
 70
     0
280
     1
281
     0
  0
BLOCK_RECORD
  5
236
102
{ACAD_XDICTIONARY
360
237
102
}
330
1
100
AcDbSymbolTableRecord
100
AcDbBlockTableRecord
  2
DIN A4
340
0
102
{BLKREFS
331
235
102
}
 70
     4
280
     1
281
     0
  0
BLOCK_RECORD
  5
215
330
1
100
AcDbSymbolTableRecord
100
AcDbBlockTableRecord
  2
*D4
340
0
 70
     0
280
     1
281
     0
  0
BLOCK_RECORD
  5
206
330
1
100
AcDbSymbolTableRecord
100
AcDbBlockTableRecord
  2
*D5
340
0
 70
     0
280
     1
281
     0
  0
BLOCK_RECORD
  5
1F7
330
1
100
AcDbSymbolTableRecord
100
AcDbBlockTableRecord
  2
*D6
340
0
 70
     0
280
     1
281
     0
  0
BLOCK_RECORD
  5
1EA
330
1
100
AcDbSymbolTableRecord
100
AcDbBlockTableRecord
  2
*D7
340
0
 70
     0
280
     1
281
     0
  0
BLOCK_RECORD
  5
1DC
330
1
100
AcDbSymbolTableRecord
100
AcDbBlockTableRecord
  2
*D8
340
0
 70
     0
280
     1
281
     0
  0
BLOCK_RECORD
  5
1CD
330
1
100
AcDbSymbolTableRecord
100
AcDbBlockTableRecord
  2
*D9
340
0
 70
     0
280
     1
281
     0
  0
BLOCK_RECORD
  5
1BE
330
1
100
AcDbSymbolTableRecord
100
AcDbBlockTableRecord
  2
*D10
340
0
 70
     0
280
     1
281
     0
  0
BLOCK_RECORD
  5
FD
102
{ACAD_XDICTIONARY
360
FE
102
}
330
1
100
AcDbSymbolTableRecord
100
AcDbBlockTableRecord
  2
Seifenflasche 500ml-01-v
340
0
102
{BLKREFS
331
F8
102
}
 70
     4
280
     1
281
     0
  0
BLOCK_RECORD
  5
136
330
1
100
AcDbSymbolTableRecord
100
AcDbBlockTableRecord
  2
Seifenflasche_950ml_V
340
0
310
2800000020000000200000000100080000000000000400000000000000000000000000000000000000000000000080000080000000808000800000008000800080800000C0C0C000C0DCC000F0CAA6000020400000206000002080000020A0000020C0000020E00000400000004020000040400000406000004080000040A0
310
000040C0000040E00000600000006020000060400000606000006080000060A0000060C0000060E00000800000008020000080400000806000008080000080A0000080C0000080E00000A0000000A0200000A0400000A0600000A0800000A0A00000A0C00000A0E00000C0000000C0200000C0400000C0600000C0800000C0
310
A00000C0C00000C0E00000E0000000E0200000E0400000E0600000E0800000E0A00000E0C00000E0E00040000000400020004000400040006000400080004000A0004000C0004000E00040200000402020004020400040206000402080004020A0004020C0004020E000404000004040200040404000404060004040800040
310
40A0004040C0004040E00040600000406020004060400040606000406080004060A0004060C0004060E00040800000408020004080400040806000408080004080A0004080C0004080E00040A0000040A0200040A0400040A0600040A0800040A0A00040A0C00040A0E00040C0000040C0200040C0400040C0600040C08000
310
40C0A00040C0C00040C0E00040E0000040E0200040E0400040E0600040E0800040E0A00040E0C00040E0E00080000000800020008000400080006000800080008000A0008000C0008000E00080200000802020008020400080206000802080008020A0008020C0008020E00080400000804020008040400080406000804080
310
008040A0008040C0008040E00080600000806020008060400080606000806080008060A0008060C0008060E00080800000808020008080400080806000808080008080A0008080C0008080E00080A0000080A0200080A0400080A0600080A0800080A0A00080A0C00080A0E00080C0000080C0200080C0400080C0600080C0
310
800080C0A00080C0C00080C0E00080E0000080E0200080E0400080E0600080E0800080E0A00080E0C00080E0E000C0000000C0002000C0004000C0006000C0008000C000A000C000C000C000E000C0200000C0202000C0204000C0206000C0208000C020A000C020C000C020E000C0400000C0402000C0404000C0406000C0
310
408000C040A000C040C000C040E000C0600000C0602000C0604000C0606000C0608000C060A000C060C000C060E000C0800000C0802000C0804000C0806000C0808000C080A000C080C000C080E000C0A00000C0A02000C0A04000C0A06000C0A08000C0A0A000C0A0C000C0A0E000C0C00000C0C02000C0C04000C0C06000
310
C0C08000C0C0A000F0FBFF00A4A0A000808080000000FF0000FF000000FFFF00FF000000FF00FF00FFFF0000FFFFFF0049494949494949494949494949494949494949494949494949494949494949494949494949494949494949494949FFFFFFFF49494949494949494949494949494949494949494949494949494949FF
310
4949FF49494949494949494949494949494949494949494949494949494949FFFFFFFF49494949494949494949494949494949494949494949494949494949FF4949FF49494949494949494949494949494949494949494949494949494949FFFFFFFF49494949494949494949494949494949494949494949494949FFFFFF
310
FFFFFFFFFFFFFF49494949494949494949494949494949494949494949FF4949494949494949FF49494949494949494949494949494949494949494949FF4949494949494949FF49494949494949494949494949494949494949494949FF4949494949494949FF49494949494949494949494949494949494949494949FF49
310
49494949494949FF49494949494949494949494949494949494949494949FF4949494949494949FF49494949494949494949494949494949494949494949FF4949494949494949FF49494949494949494949494949494949494949494949FF4949494949494949FF49494949494949494949494949494949494949494949FF
310
4949494949494949FF49494949494949494949494949494949494949494949FF4949494949494949FF49494949494949494949494949494949494949494949FF4949494949494949FF49494949494949494949494949494949494949494949FF4949494949494949FF49494949494949494949494949494949494949494949
310
FF4949494949494949FF49494949494949494949494949494949494949494949FF4949494949494949FF49494949494949494949494949494949494949494949FF4949494949494949FF49494949494949494949494949494949494949494949FF4949494949494949FF494949494949494949494949494949494949494949
310
49FF4949494949494949FF49494949494949494949494949494949494949494949FF4949494949494949FF49494949494949494949494949494949494949494949FF4949494949494949FF49494949494949494949494949494949494949494949FF4949494949494949FF4949494949494949494949494949494949494949
310
4949FF49494949494949FFFF49494949494949494949494949494949494949494949FF49494949494949FF4949494949494949494949494949494949494949494949FF49494949494949FF4949494949494949494949494949494949494949494949FF494949494949FFFF4949494949494949494949494949494949494949
310
494949FFFFFFFFFFFFFFFF494949494949494949494949494949494949494949494949494949494949494949494949494949494949494949
102
{BLKREFS
331
135
102
}
 70
     4
280
     1
281
     0
  0
BLOCK_RECORD
  5
1A1
330
1
100
AcDbSymbolTableRecord
100
AcDbBlockTableRecord
  2
Seifenflasche_950ml_S
340
0
310
2800000020000000200000000100080000000000000400000000000000000000000000000000000000000000000080000080000000808000800000008000800080800000C0C0C000C0DCC000F0CAA6000020400000206000002080000020A0000020C0000020E00000400000004020000040400000406000004080000040A0
310
000040C0000040E00000600000006020000060400000606000006080000060A0000060C0000060E00000800000008020000080400000806000008080000080A0000080C0000080E00000A0000000A0200000A0400000A0600000A0800000A0A00000A0C00000A0E00000C0000000C0200000C0400000C0600000C0800000C0
310
A00000C0C00000C0E00000E0000000E0200000E0400000E0600000E0800000E0A00000E0C00000E0E00040000000400020004000400040006000400080004000A0004000C0004000E00040200000402020004020400040206000402080004020A0004020C0004020E000404000004040200040404000404060004040800040
310
40A0004040C0004040E00040600000406020004060400040606000406080004060A0004060C0004060E00040800000408020004080400040806000408080004080A0004080C0004080E00040A0000040A0200040A0400040A0600040A0800040A0A00040A0C00040A0E00040C0000040C0200040C0400040C0600040C08000
310
40C0A00040C0C00040C0E00040E0000040E0200040E0400040E0600040E0800040E0A00040E0C00040E0E00080000000800020008000400080006000800080008000A0008000C0008000E00080200000802020008020400080206000802080008020A0008020C0008020E00080400000804020008040400080406000804080
310
008040A0008040C0008040E00080600000806020008060400080606000806080008060A0008060C0008060E00080800000808020008080400080806000808080008080A0008080C0008080E00080A0000080A0200080A0400080A0600080A0800080A0A00080A0C00080A0E00080C0000080C0200080C0400080C0600080C0
310
800080C0A00080C0C00080C0E00080E0000080E0200080E0400080E0600080E0800080E0A00080E0C00080E0E000C0000000C0002000C0004000C0006000C0008000C000A000C000C000C000E000C0200000C0202000C0204000C0206000C0208000C020A000C020C000C020E000C0400000C0402000C0404000C0406000C0
310
408000C040A000C040C000C040E000C0600000C0602000C0604000C0606000C0608000C060A000C060C000C060E000C0800000C0802000C0804000C0806000C0808000C080A000C080C000C080E000C0A00000C0A02000C0A04000C0A06000C0A08000C0A0A000C0A0C000C0A0E000C0C00000C0C02000C0C04000C0C06000
310
C0C08000C0C0A000F0FBFF00A4A0A000808080000000FF0000FF000000FFFF00FF000000FF00FF00FFFF0000FFFFFF0049494949494949494949494949494949494949494949494949494949494949494949494949494949494949494949FFFFFFFF49494949494949494949494949494949494949494949494949494949FF
310
4949FF49494949494949494949494949494949494949494949494949494949FFFFFFFF49494949494949494949494949494949494949494949494949494949FF4949FF49494949494949494949494949494949494949494949494949494949FFFFFFFF494949494949494949494949494949494949494949494949FFFFFFFF
310
FFFFFFFFFFFFFFFF49494949494949494949494949494949494949FFFF49494949494949494949FFFF494949494949494949494949494949494949FF494949494949494949494949FF494949494949494949494949494949494949FF494949494949494949494949FF494949494949494949494949494949494949FF494949
310
494949494949494949FF494949494949494949494949494949494949FF494949494949494949494949FF494949494949494949494949494949494949FF494949494949494949494949FF494949494949494949494949494949494949FF494949494949494949494949FF494949494949494949494949494949494949FF4949
310
49494949494949494949FF494949494949494949494949494949494949FF494949494949494949494949FF494949494949494949494949494949494949FF494949494949494949494949FF494949494949494949494949494949494949FF494949494949494949494949FF494949494949494949494949494949494949FF49
310
4949494949494949494949FF494949494949494949494949494949494949FF494949494949494949494949FF494949494949494949494949494949494949FF494949494949494949494949FF494949494949494949494949494949494949FF494949494949494949494949FF494949494949494949494949494949494949FF
310
494949494949494949494949FF494949494949494949494949494949494949FF494949494949494949494949FF494949494949494949494949494949494949FF494949494949494949494949FF494949494949494949494949494949494949FF494949494949494949494949FF494949494949494949494949494949494949
310
FF494949494949494949494949FF494949494949494949494949494949494949FF494949494949494949494949FF494949494949494949494949494949494949FF494949494949494949494949FF494949494949494949494949494949494949FFFF49494949494949494949FFFF4949494949494949494949494949494949
310
4949FFFFFFFFFFFFFFFFFFFFFFFF494949494949494949494949494949494949494949494949494949494949494949494949494949494949
102
{BLKREFS
331
1A0
102
}
 70
     4
280
     1
281
     0
  0
BLOCK_RECORD
  5
184
330
1
100
AcDbSymbolTableRecord
100
AcDbBlockTableRecord
  2
Seifenflasche_500ml_S
340
0
310
2800000020000000200000000100080000000000000400000000000000000000000000000000000000000000000080000080000000808000800000008000800080800000C0C0C000C0DCC000F0CAA6000020400000206000002080000020A0000020C0000020E00000400000004020000040400000406000004080000040A0
310
000040C0000040E00000600000006020000060400000606000006080000060A0000060C0000060E00000800000008020000080400000806000008080000080A0000080C0000080E00000A0000000A0200000A0400000A0600000A0800000A0A00000A0C00000A0E00000C0000000C0200000C0400000C0600000C0800000C0
310
A00000C0C00000C0E00000E0000000E0200000E0400000E0600000E0800000E0A00000E0C00000E0E00040000000400020004000400040006000400080004000A0004000C0004000E00040200000402020004020400040206000402080004020A0004020C0004020E000404000004040200040404000404060004040800040
310
40A0004040C0004040E00040600000406020004060400040606000406080004060A0004060C0004060E00040800000408020004080400040806000408080004080A0004080C0004080E00040A0000040A0200040A0400040A0600040A0800040A0A00040A0C00040A0E00040C0000040C0200040C0400040C0600040C08000
310
40C0A00040C0C00040C0E00040E0000040E0200040E0400040E0600040E0800040E0A00040E0C00040E0E00080000000800020008000400080006000800080008000A0008000C0008000E00080200000802020008020400080206000802080008020A0008020C0008020E00080400000804020008040400080406000804080
310
008040A0008040C0008040E00080600000806020008060400080606000806080008060A0008060C0008060E00080800000808020008080400080806000808080008080A0008080C0008080E00080A0000080A0200080A0400080A0600080A0800080A0A00080A0C00080A0E00080C0000080C0200080C0400080C0600080C0
310
800080C0A00080C0C00080C0E00080E0000080E0200080E0400080E0600080E0800080E0A00080E0C00080E0E000C0000000C0002000C0004000C0006000C0008000C000A000C000C000C000E000C0200000C0202000C0204000C0206000C0208000C020A000C020C000C020E000C0400000C0402000C0404000C0406000C0
310
408000C040A000C040C000C040E000C0600000C0602000C0604000C0606000C0608000C060A000C060C000C060E000C0800000C0802000C0804000C0806000C0808000C080A000C080C000C080E000C0A00000C0A02000C0A04000C0A06000C0A08000C0A0A000C0A0C000C0A0E000C0C00000C0C02000C0C04000C0C06000
310
C0C08000C0C0A000F0FBFF00A4A0A000808080000000FF0000FF000000FFFF00FF000000FF00FF00FFFF0000FFFFFF0049494949494949494949494949494949494949494949494949494949494949494949494949494949494949494949FFFFFFFF49494949494949494949494949494949494949494949494949494949FF
310
4949FF494949494949494949494949494949494949494949494949494949FFFFFFFFFFFF4949494949494949494949494949494949494949494949494949FF49494949FF4949494949494949494949494949494949494949494949494949FF49494949FF4949494949494949494949494949494949494949494949494949FF
310
FFFFFFFFFF4949494949494949494949494949494949494949494949FFFFFFFFFFFFFFFFFFFFFFFF4949494949494949494949494949494949494949FF49494949494949494949FF4949494949494949494949494949494949494949FF49494949494949494949FF4949494949494949494949494949494949494949FF4949
310
4949494949494949FF4949494949494949494949494949494949494949FF49494949494949494949FF4949494949494949494949494949494949494949FF49494949494949494949FF4949494949494949494949494949494949494949FF49494949494949494949FF4949494949494949494949494949494949494949FF49
310
494949494949494949FF4949494949494949494949494949494949494949FF49494949494949494949FF4949494949494949494949494949494949494949FF49494949494949494949FF4949494949494949494949494949494949494949FF49494949494949494949FF4949494949494949494949494949494949494949FF
310
49494949494949494949FF4949494949494949494949494949494949494949FF49494949494949494949FF4949494949494949494949494949494949494949FF49494949494949494949FF4949494949494949494949494949494949494949FF49494949494949494949FF4949494949494949494949494949494949494949
310
FF49494949494949494949FF4949494949494949494949494949494949494949FF49494949494949494949FF4949494949494949494949494949494949494949FF49494949494949494949FF4949494949494949494949494949494949494949FF49494949494949494949FF49494949494949494949494949494949494949
310
49FF49494949494949494949FF4949494949494949494949494949494949494949FF49494949494949494949FF4949494949494949494949494949494949494949FF49494949494949494949FF4949494949494949494949494949494949494949FF49494949494949494949FF494949494949494949494949494949494949
310
4949FFFFFFFFFFFFFFFFFFFFFFFF494949494949494949494949494949494949494949494949494949494949494949494949494949494949
102
{BLKREFS
331
183
102
}
 70
     4
280
     1
281
     0
  0
BLOCK_RECORD
  5
16D
330
1
100
AcDbSymbolTableRecord
100
AcDbBlockTableRecord
  2
Seifenflasche_500ml_D
340
0
310
2800000020000000200000000100080000000000000400000000000000000000000000000000000000000000000080000080000000808000800000008000800080800000C0C0C000C0DCC000F0CAA6000020400000206000002080000020A0000020C0000020E00000400000004020000040400000406000004080000040A0
310
000040C0000040E00000600000006020000060400000606000006080000060A0000060C0000060E00000800000008020000080400000806000008080000080A0000080C0000080E00000A0000000A0200000A0400000A0600000A0800000A0A00000A0C00000A0E00000C0000000C0200000C0400000C0600000C0800000C0
310
A00000C0C00000C0E00000E0000000E0200000E0400000E0600000E0800000E0A00000E0C00000E0E00040000000400020004000400040006000400080004000A0004000C0004000E00040200000402020004020400040206000402080004020A0004020C0004020E000404000004040200040404000404060004040800040
310
40A0004040C0004040E00040600000406020004060400040606000406080004060A0004060C0004060E00040800000408020004080400040806000408080004080A0004080C0004080E00040A0000040A0200040A0400040A0600040A0800040A0A00040A0C00040A0E00040C0000040C0200040C0400040C0600040C08000
310
40C0A00040C0C00040C0E00040E0000040E0200040E0400040E0600040E0800040E0A00040E0C00040E0E00080000000800020008000400080006000800080008000A0008000C0008000E00080200000802020008020400080206000802080008020A0008020C0008020E00080400000804020008040400080406000804080
310
008040A0008040C0008040E00080600000806020008060400080606000806080008060A0008060C0008060E00080800000808020008080400080806000808080008080A0008080C0008080E00080A0000080A0200080A0400080A0600080A0800080A0A00080A0C00080A0E00080C0000080C0200080C0400080C0600080C0
310
800080C0A00080C0C00080C0E00080E0000080E0200080E0400080E0600080E0800080E0A00080E0C00080E0E000C0000000C0002000C0004000C0006000C0008000C000A000C000C000C000E000C0200000C0202000C0204000C0206000C0208000C020A000C020C000C020E000C0400000C0402000C0404000C0406000C0
310
408000C040A000C040C000C040E000C0600000C0602000C0604000C0606000C0608000C060A000C060C000C060E000C0800000C0802000C0804000C0806000C0808000C080A000C080C000C080E000C0A00000C0A02000C0A04000C0A06000C0A08000C0A0A000C0A0C000C0A0E000C0C00000C0C02000C0C04000C0C06000
310
C0C08000C0C0A000F0FBFF00A4A0A000808080000000FF0000FF000000FFFF00FF000000FF00FF00FFFF0000FFFFFF004949494949494949494949494949494949494949494949494949494949494949494949494949FFFFFFFFFFFFFFFFFFFFFFFFFFFFFFFFFFFFFFFF4949494949494949494949FFFF4949494949494949
310
494949494949FFFF4949FFFF494949494949494949FFFF49494949494949494949494949494949FF494949FFFF4949494949494949FF4949494949494949494949494949494949FF49494949FF4949494949494949FF4949494949494949494949494949494949FF49494949FF4949494949494949FF494949494949494949
310
4949494949494949FF49494949FF4949494949494949FF4949494949494949494949494949494949FF49494949FF4949494949494949FF4949494949494949494949494949494949FF49494949FF4949494949494949FF49494949494949494949F9494949494949FF49494949FF4949494949494949FF4949494949494949
310
49FAFAFAFAFA494949FF49494949FF4949494949494949FF49494949494949FAFAFAFAFAFA49FA4949FF49494949FF4949494949494949FF494949494949FA49FAFAFAFAFAFAFA4949FF49494949FF4949494949494949FF494949494949FAFA4949F94949FAFAFAFAFF49494949FF4949494949494949FF4949494949FAFA
310
FA4949F9494949FAFAFAFF49494949FF4949494949494949FF49494949F9FAFAFAF9F9F9F9F9F9FAFAFAF949494949FF4949494949494949FF4949494949FAFAFA4949F9494949FAFAFAFF49494949FF4949494949494949FF4949494949FAFAFA4949F9494949FAFAFAFF49494949FF4949494949494949FF494949494949
310
FAFA4949F94949FAFAFAFAFF49494949FF4949494949494949FF494949494949FA49FAFAFAFAFAFAFA4949FF49494949FF4949494949494949FF49494949494949FAFAFAFAFAFA49FA4949FF49494949FF4949494949494949FF494949494949494949FAFAFAFAFA494949FF49494949FF4949494949494949FF4949494949
310
4949494949F9494949494949FF49494949FF4949494949494949FF4949494949494949494949494949494949FF49494949FF4949494949494949FF4949494949494949494949494949494949FF49494949FF4949494949494949FF4949494949494949494949494949494949FF49494949FF4949494949494949FF49494949
310
49494949494949494949494949FF49494949FF4949494949494949FF4949494949494949494949494949494949FF49494949FF4949494949494949FFFF49494949494949494949494949494949FF494949FFFF494949494949494949FFFF4949494949494949494949494949FFFF4949FFFF4949494949494949494949FFFF
310
FFFFFFFFFFFFFFFFFFFFFFFFFFFFFFFFFFFF4949494949494949494949494949494949494949494949494949494949494949494949494949
102
{BLKREFS
331
16C
102
}
 70
     4
280
     1
281
     0
  0
BLOCK_RECORD
  5
157
330
1
100
AcDbSymbolTableRecord
100
AcDbBlockTableRecord
  2
Seifenflasche_950ml_D
340
0
310
2800000020000000200000000100080000000000000400000000000000000000000000000000000000000000000080000080000000808000800000008000800080800000C0C0C000C0DCC000F0CAA6000020400000206000002080000020A0000020C0000020E00000400000004020000040400000406000004080000040A0
310
000040C0000040E00000600000006020000060400000606000006080000060A0000060C0000060E00000800000008020000080400000806000008080000080A0000080C0000080E00000A0000000A0200000A0400000A0600000A0800000A0A00000A0C00000A0E00000C0000000C0200000C0400000C0600000C0800000C0
310
A00000C0C00000C0E00000E0000000E0200000E0400000E0600000E0800000E0A00000E0C00000E0E00040000000400020004000400040006000400080004000A0004000C0004000E00040200000402020004020400040206000402080004020A0004020C0004020E000404000004040200040404000404060004040800040
310
40A0004040C0004040E00040600000406020004060400040606000406080004060A0004060C0004060E00040800000408020004080400040806000408080004080A0004080C0004080E00040A0000040A0200040A0400040A0600040A0800040A0A00040A0C00040A0E00040C0000040C0200040C0400040C0600040C08000
310
40C0A00040C0C00040C0E00040E0000040E0200040E0400040E0600040E0800040E0A00040E0C00040E0E00080000000800020008000400080006000800080008000A0008000C0008000E00080200000802020008020400080206000802080008020A0008020C0008020E00080400000804020008040400080406000804080
310
008040A0008040C0008040E00080600000806020008060400080606000806080008060A0008060C0008060E00080800000808020008080400080806000808080008080A0008080C0008080E00080A0000080A0200080A0400080A0600080A0800080A0A00080A0C00080A0E00080C0000080C0200080C0400080C0600080C0
310
800080C0A00080C0C00080C0E00080E0000080E0200080E0400080E0600080E0800080E0A00080E0C00080E0E000C0000000C0002000C0004000C0006000C0008000C000A000C000C000C000E000C0200000C0202000C0204000C0206000C0208000C020A000C020C000C020E000C0400000C0402000C0404000C0406000C0
310
408000C040A000C040C000C040E000C0600000C0602000C0604000C0606000C0608000C060A000C060C000C060E000C0800000C0802000C0804000C0806000C0808000C080A000C080C000C080E000C0A00000C0A02000C0A04000C0A06000C0A08000C0A0A000C0A0C000C0A0E000C0C00000C0C02000C0C04000C0C06000
310
C0C08000C0C0A000F0FBFF00A4A0A000808080000000FF0000FF000000FFFF00FF000000FF00FF00FFFF0000FFFFFF004949494949494949494949494949494949494949494949494949494949494949494949494949FFFFFFFFFFFFFFFFFFFFFFFFFFFFFFFFFFFFFFFF4949494949494949494949FFFF4949494949494949
310
49494949494949FFFF49FFFF49494949494949494949FF4949494949494949494949494949494949FF4949FF49494949494949494949FF4949494949494949494949494949494949FF4949FF49494949494949494949FF4949494949494949494949494949494949FF4949FF49494949494949494949FF4949494949494949
310
494949494949494949FF4949FF49494949494949494949FF4949494949494949494949494949494949FF4949FF49494949494949494949FF4949494949494949494949494949494949FF4949FF49494949494949494949FF4949494949494949494949494949494949FF4949FF49494949494949494949FF49494949494949
310
4949F949494949494949FF4949FF49494949494949494949FF4949494949494949FAFAFAFA4949494949FF4949FF49494949494949494949FF49494949494949FAFAFAFAFAFAFA494949FF4949FF49494949494949494949FF494949494949FAFAFAF949FAFAFA494949FF4949FF49494949494949494949FF4949494949FA
310
FAFA49F94949FAFAFA4949FF4949FF49494949494949494949FF4949494949FAFA4949F9494949FAFA4949FF4949FF49494949494949494949FF49494949F9FAFAF9F9F9F9F9F9FAFAF949FF4949FF49494949494949494949FF4949494949FAFAFA49F94949FAFAFA4949FF4949FF49494949494949494949FF4949494949
310
49FAFAFAF949FAFAFA494949FF4949FF49494949494949494949FF49494949494949FAFAFAFAFAFAFA494949FF4949FF49494949494949494949FF4949494949494949FAFAFAFA4949494949FF4949FF49494949494949494949FF494949494949494949F949494949494949FF4949FF49494949494949494949FF49494949
310
49494949494949494949494949FF4949FF49494949494949494949FF4949494949494949494949494949494949FF4949FF49494949494949494949FF4949494949494949494949494949494949FF4949FF49494949494949494949FF4949494949494949494949494949494949FF4949FF49494949494949494949FF494949
310
4949494949494949494949494949FF4949FF49494949494949494949FF4949494949494949494949494949494949FF4949FF49494949494949494949FF4949494949494949494949494949494949FF4949FF49494949494949494949FFFF494949494949494949494949494949FFFF49FFFF4949494949494949494949FFFF
310
FFFFFFFFFFFFFFFFFFFFFFFFFFFFFFFFFFFF4949494949494949494949494949494949494949494949494949494949494949494949494949
102
{BLKREFS
331
156
102
}
 70
     4
280
     1
281
     0
  0
BLOCK_RECORD
  5
129
330
1
100
AcDbSymbolTableRecord
100
AcDbBlockTableRecord
  2
*D17
340
0
 70
     0
280
     1
281
     0
  0
BLOCK_RECORD
  5
EC
330
1
100
AcDbSymbolTableRecord
100
AcDbBlockTableRecord
  2
*D18
340
0
 70
     0
280
     1
281
     0
  0
BLOCK_RECORD
  5
DD
330
1
100
AcDbSymbolTableRecord
100
AcDbBlockTableRecord
  2
*D19
340
0
 70
     0
280
     1
281
     0
  0
BLOCK_RECORD
  5
CE
330
1
100
AcDbSymbolTableRecord
100
AcDbBlockTableRecord
  2
*D20
340
0
 70
     0
280
     1
281
     0
  0
BLOCK_RECORD
  5
BF
330
1
100
AcDbSymbolTableRecord
100
AcDbBlockTableRecord
  2
*D21
340
0
 70
     0
280
     1
281
     0
  0
BLOCK_RECORD
  5
B0
330
1
100
AcDbSymbolTableRecord
100
AcDbBlockTableRecord
  2
*D22
340
0
 70
     0
280
     1
281
     0
  0
BLOCK_RECORD
  5
9C
330
1
100
AcDbSymbolTableRecord
100
AcDbBlockTableRecord
  2
*D23
340
0
 70
     0
280
     1
281
     0
  0
BLOCK_RECORD
  5
8D
330
1
100
AcDbSymbolTableRecord
100
AcDbBlockTableRecord
  2
*D24
340
0
 70
     0
280
     1
281
     0
  0
BLOCK_RECORD
  5
7E
330
1
100
AcDbSymbolTableRecord
100
AcDbBlockTableRecord
  2
*D25
340
0
 70
     0
280
     1
281
     0
  0
BLOCK_RECORD
  5
6D
330
1
100
AcDbSymbolTableRecord
100
AcDbBlockTableRecord
  2
*D26
340
0
 70
     0
280
     1
281
     0
  0
ENDTAB
  0
ENDSEC
  0
SECTION
  2
BLOCKS
  0
BLOCK
  5
5
330
2
100
AcDbEntity
  8
0
100
AcDbBlockBegin
  2
*Model_Space
 70
     0
 10
0.0
 20
0.0
 30
0.0
  3
*Model_Space
  1

  0
ENDBLK
  5
15
330
2
100
AcDbEntity
  8
0
100
AcDbBlockEnd
  0
BLOCK
  5
1C
330
1B
100
AcDbEntity
 67
     1
  8
0
100
AcDbBlockBegin
  2
*Paper_Space
 70
     0
 10
0.0
 20
0.0
 30
0.0
  3
*Paper_Space
  1

  0
ENDBLK
  5
1D
330
1B
100
AcDbEntity
 67
     1
  8
0
100
AcDbBlockEnd
  0
BLOCK
  5
2DE
330
2DD
100
AcDbEntity
  8
0
100
AcDbBlockBegin
  2
*D0
 70
     1
 10
0.0
 20
0.0
 30
0.0
  3
*D0
  1

  0
LINE
  5
2DF
330
2DD
100
AcDbEntity
  8
09-01
 62
     4
440
 16777216
370
    -2
100
AcDbLine
 10
248.9370692551074
 20
300.1326608571394
 30
0.0
 11
248.9370692551074
 21
229.6904911249699
 31
0.0
  0
LINE
  5
2E0
330
2DD
100
AcDbEntity
  8
09-01
 62
     4
440
 16777216
370
    -2
100
AcDbLine
 10
334.887069155131
 20
300.1326608571394
 30
0.0
 11
334.887069155131
 21
229.6904911249699
 31
0.0
  0
LINE
  5
2E1
330
2DD
100
AcDbEntity
  8
09-01
 62
     4
440
 16777216
370
    -2
100
AcDbLine
 10
253.9370692551074
 20
231.6904911249699
 30
0.0
 11
329.887069155131
 21
231.6904911249699
 31
0.0
  0
SOLID
  5
2E2
330
2DD
100
AcDbEntity
  8
09-01
 62
     4
440
 16777216
100
AcDbTrace
 10
253.9370692551074
 20
232.5238244583032
 30
0.0
 11
253.9370692551074
 21
230.8571577916365
 31
0.0
 12
248.9370692551074
 22
231.6904911249699
 32
0.0
 13
248.9370692551074
 23
231.6904911249699
 33
0.0
  0
SOLID
  5
2E3
330
2DD
100
AcDbEntity
  8
09-01
 62
     4
440
 16777216
100
AcDbTrace
 10
329.887069155131
 20
232.5238244583032
 30
0.0
 11
329.887069155131
 21
230.8571577916365
 31
0.0
 12
334.887069155131
 22
231.6904911249699
 32
0.0
 13
334.887069155131
 23
231.6904911249699
 33
0.0
  0
MTEXT
  5
2E4
330
2DD
100
AcDbEntity
  8
09-01
 62
     1
440
 16777216
100
AcDbMText
 10
291.9120692051192
 20
236.1904911249699
 30
0.0
 40
5.0
 41
0.0
 46
0.0
 71
     5
 72
     1
  1
85.9
 73
     1
 44
1.0
  0
POINT
  5
2E5
330
2DD
100
AcDbEntity
  8
DEFPOINTS
 62
     0
440
 16777216
100
AcDbPoint
 10
248.9370692551074
 20
302.1326608571394
 30
0.0
  0
POINT
  5
2E6
330
2DD
100
AcDbEntity
  8
DEFPOINTS
 62
     0
440
 16777216
100
AcDbPoint
 10
334.887069155131
 20
302.1326608571394
 30
0.0
  0
POINT
  5
2E7
330
2DD
100
AcDbEntity
  8
DEFPOINTS
 62
     0
440
 16777216
100
AcDbPoint
 10
334.887069155131
 20
231.6904911249699
 30
0.0
  0
ENDBLK
  5
2E8
330
2DD
100
AcDbEntity
  8
0
100
AcDbBlockEnd
  0
BLOCK
  5
2CF
330
2CE
100
AcDbEntity
  8
0
100
AcDbBlockBegin
  2
*D1
 70
     1
 10
0.0
 20
0.0
 30
0.0
  3
*D1
  1

  0
LINE
  5
2D0
330
2CE
100
AcDbEntity
  8
09-01
 62
     4
440
 16777216
370
    -2
100
AcDbLine
 10
246.9370692551074
 20
302.1326608571394
 30
0.0
 11
230.1365333137855
 21
302.1326608571394
 31
0.0
  0
LINE
  5
2D1
330
2CE
100
AcDbEntity
  8
09-01
 62
     4
440
 16777216
370
    -2
100
AcDbLine
 10
246.9370692551074
 20
452.1326668176034
 30
0.0
 11
230.1365333137856
 21
452.1326668176034
 31
0.0
  0
LINE
  5
2D2
330
2CE
100
AcDbEntity
  8
09-01
 62
     4
440
 16777216
370
    -2
100
AcDbLine
 10
232.1365333137855
 20
307.1326608571394
 30
0.0
 11
232.1365333137855
 21
447.1326668176033
 31
0.0
  0
SOLID
  5
2D3
330
2CE
100
AcDbEntity
  8
09-01
 62
     4
440
 16777216
100
AcDbTrace
 10
231.3031999804521
 20
307.1326608571394
 30
0.0
 11
232.9698666471188
 21
307.1326608571394
 31
0.0
 12
232.1365333137855
 22
302.1326608571394
 32
0.0
 13
232.1365333137855
 23
302.1326608571394
 33
0.0
  0
SOLID
  5
2D4
330
2CE
100
AcDbEntity
  8
09-01
 62
     4
440
 16777216
100
AcDbTrace
 10
231.3031999804522
 20
447.1326668176033
 30
0.0
 11
232.9698666471188
 21
447.1326668176033
 31
0.0
 12
232.1365333137856
 22
452.1326668176034
 32
0.0
 13
232.1365333137856
 23
452.1326668176034
 33
0.0
  0
MTEXT
  5
2D5
330
2CE
100
AcDbEntity
  8
09-01
 62
     1
440
 16777216
100
AcDbMText
 10
227.6365333137855
 20
377.1326638373715
 30
0.0
 40
5.0
 41
0.0
 46
0.0
 71
     5
 72
     1
  1
150
 11
0.0000000000000001
 21
1.0
 31
0.0
 73
     1
 44
1.0
  0
POINT
  5
2D6
330
2CE
100
AcDbEntity
  8
DEFPOINTS
 62
     0
440
 16777216
100
AcDbPoint
 10
248.9370692551074
 20
302.1326608571394
 30
0.0
  0
POINT
  5
2D7
330
2CE
100
AcDbEntity
  8
DEFPOINTS
 62
     0
440
 16777216
100
AcDbPoint
 10
248.9370692551074
 20
452.1326668176034
 30
0.0
  0
POINT
  5
2D8
330
2CE
100
AcDbEntity
  8
DEFPOINTS
 62
     0
440
 16777216
100
AcDbPoint
 10
232.1365333137856
 20
452.1326668176034
 30
0.0
  0
ENDBLK
  5
2D9
330
2CE
100
AcDbEntity
  8
0
100
AcDbBlockEnd
  0
BLOCK
  5
2C0
330
2BF
100
AcDbEntity
  8
0
100
AcDbBlockBegin
  2
*D2
 70
     1
 10
0.0
 20
0.0
 30
0.0
  3
*D2
  1

  0
LINE
  5
2C1
330
2BF
100
AcDbEntity
  8
09-01
 62
     4
440
 16777216
370
    -2
100
AcDbLine
 10
248.9370692551074
 20
300.1326608571394
 30
0.0
 11
248.9370692551074
 21
207.3640065304492
 31
0.0
  0
LINE
  5
2C2
330
2BF
100
AcDbEntity
  8
09-01
 62
     4
440
 16777216
370
    -2
100
AcDbLine
 10
345.4870691551305
 20
387.2514364497538
 30
0.0
 11
345.4870691551305
 21
207.3640065304492
 31
0.0
  0
LINE
  5
2C3
330
2BF
100
AcDbEntity
  8
09-01
 62
     4
440
 16777216
370
    -2
100
AcDbLine
 10
253.9370692551074
 20
209.3640065304492
 30
0.0
 11
340.4870691551305
 21
209.3640065304492
 31
0.0
  0
SOLID
  5
2C4
330
2BF
100
AcDbEntity
  8
09-01
 62
     4
440
 16777216
100
AcDbTrace
 10
253.9370692551074
 20
210.1973398637825
 30
0.0
 11
253.9370692551074
 21
208.5306731971158
 31
0.0
 12
248.9370692551074
 22
209.3640065304492
 32
0.0
 13
248.9370692551074
 23
209.3640065304492
 33
0.0
  0
SOLID
  5
2C5
330
2BF
100
AcDbEntity
  8
09-01
 62
     4
440
 16777216
100
AcDbTrace
 10
340.4870691551305
 20
210.1973398637825
 30
0.0
 11
340.4870691551305
 21
208.5306731971158
 31
0.0
 12
345.4870691551305
 22
209.3640065304492
 32
0.0
 13
345.4870691551305
 23
209.3640065304492
 33
0.0
  0
MTEXT
  5
2C6
330
2BF
100
AcDbEntity
  8
09-01
 62
     1
440
 16777216
100
AcDbMText
 10
297.212069205119
 20
213.8640065304492
 30
0.0
 40
5.0
 41
0.0
 46
0.0
 71
     5
 72
     1
  1
96.5
 73
     1
 44
1.0
  0
POINT
  5
2C7
330
2BF
100
AcDbEntity
  8
DEFPOINTS
 62
     0
440
 16777216
100
AcDbPoint
 10
248.9370692551074
 20
302.1326608571394
 30
0.0
  0
POINT
  5
2C8
330
2BF
100
AcDbEntity
  8
DEFPOINTS
 62
     0
440
 16777216
100
AcDbPoint
 10
345.4870691551305
 20
389.2514364497539
 30
0.0
  0
POINT
  5
2C9
330
2BF
100
AcDbEntity
  8
DEFPOINTS
 62
     0
440
 16777216
100
AcDbPoint
 10
345.4870691551305
 20
209.3640065304492
 30
0.0
  0
ENDBLK
  5
2CA
330
2BF
100
AcDbEntity
  8
0
100
AcDbBlockEnd
  0
BLOCK
  5
239
330
236
100
AcDbEntity
  8
0
100
AcDbBlockBegin
  2
DIN A4
 70
     2
 10
0.0
 20
0.0
 30
0.0
  3
DIN A4
  1

  0
LINE
  5
23A
330
236
100
AcDbEntity
  8
01-99
100
AcDbLine
 10
204.0000000617172
 20
290.9999999563947
 30
0.0
 11
20.0000000617174
 21
290.9999999563947
 31
0.0
  0
LINE
  5
23E
330
236
100
AcDbEntity
  8
01-99
100
AcDbLine
 10
203.9999999999998
 20
291.0
 30
0.0
 11
204.0
 21
6.0
 31
0.0
  0
LINE
  5
23F
330
236
100
AcDbEntity
  8
01-99
100
AcDbLine
 10
20.0
 20
5.999999999999886
 30
0.0
 11
20.0
 21
291.0
 31
0.0
  0
LWPOLYLINE
  5
240
330
236
100
AcDbEntity
  8
02-99
100
AcDbPolyline
 90
        4
 70
     1
 43
0.0
 10
0.0
 20
0.0
 10
210.0
 20
0.0
 10
210.0
 20
297.0
 10
0.0
 20
297.0
  0
LINE
  5
245
330
236
100
AcDbEntity
  8
01-99
100
AcDbLine
 10
20.0
 20
5.999999999999886
 30
0.0
 11
204.0
 21
6.000000000000056
 31
0.0
  0
LINE
  5
246
330
236
100
AcDbEntity
  8
01-99
100
AcDbLine
 10
70.0
 20
11.1111111109999
 30
0.0
 11
20.0
 21
11.1111111109999
 31
0.0
  0
LINE
  5
247
330
236
100
AcDbEntity
  8
01-99
100
AcDbLine
 10
70.0
 20
16.22222222199991
 30
0.0
 11
20.0
 21
16.22222222199991
 31
0.0
  0
LINE
  5
248
330
236
100
AcDbEntity
  8
01-99
100
AcDbLine
 10
70.0
 20
21.33333333299993
 30
0.0
 11
20.0
 21
21.33333333299987
 31
0.0
  0
LINE
  5
249
330
236
100
AcDbEntity
  8
01-99
100
AcDbLine
 10
115.0
 20
26.44444444399994
 30
0.0
 11
20.0
 21
26.44444444399989
 31
0.0
  0
LINE
  5
24A
330
236
100
AcDbEntity
  8
01-99
100
AcDbLine
 10
115.0
 20
31.55555555499996
 30
0.0
 11
20.0
 21
31.5555555549999
 31
0.0
  0
LINE
  5
24B
330
236
100
AcDbEntity
  8
01-99
100
AcDbLine
 10
45.0
 20
5.999999999999886
 30
0.0
 11
45.0
 21
11.1111111109999
 31
0.0
  0
LINE
  5
24C
330
236
100
AcDbEntity
  8
01-99
100
AcDbLine
 10
28.0
 20
11.1111111109999
 30
0.0
 11
28.0
 21
36.66666666666657
 31
0.0
  0
LINE
  5
24D
330
236
100
AcDbEntity
  8
01-99
100
AcDbLine
 10
70.0
 20
5.999999999999886
 30
0.0
 11
70.0
 21
51.99999999999988
 31
0.0
  0
LINE
  5
24E
330
236
100
AcDbEntity
  8
01-99
100
AcDbLine
 10
115.0
 20
5.999999999999886
 30
0.0
 11
115.0
 21
51.99999999999988
 31
0.0
  0
LINE
  5
24F
330
236
100
AcDbEntity
  8
01-99
100
AcDbLine
 10
144.5
 20
5.999999999999886
 30
0.0
 11
144.5
 21
16.22222222199997
 31
0.0
  0
LINE
  5
250
330
236
100
AcDbEntity
  8
01-99
100
AcDbLine
 10
177.0
 20
5.999999999999886
 30
0.0
 11
177.0
 21
16.22222222200003
 31
0.0
  0
LINE
  5
251
330
236
100
AcDbEntity
  8
01-99
100
AcDbLine
 10
148.5
 20
36.66666666666663
 30
0.0
 11
148.5
 21
52.0
 31
0.0
  0
LINE
  5
252
330
236
100
AcDbEntity
  8
01-99
100
AcDbLine
 10
182.0
 20
36.66666666666663
 30
0.0
 11
182.0
 21
52.0
 31
0.0
  0
LINE
  5
253
330
236
100
AcDbEntity
  8
01-99
100
AcDbLine
 10
78.0
 20
21.33333333333326
 30
0.0
 11
78.0
 21
36.66666666666663
 31
0.0
  0
LINE
  5
254
330
236
100
AcDbEntity
  8
01-99
100
AcDbLine
 10
60.00318833942947
 20
11.1111111109999
 30
0.0
 11
60.00318833942947
 21
36.66666666666657
 31
0.0
  0
LINE
  5
255
330
236
100
AcDbEntity
  8
01-99
100
AcDbLine
 10
48.00318833942947
 20
11.1111111109999
 30
0.0
 11
48.00318833942947
 21
36.66666666666657
 31
0.0
  0
LINE
  5
256
330
236
100
AcDbEntity
  8
01-99
100
AcDbLine
 10
204.0
 20
52.0
 30
0.0
 11
19.99999999999818
 21
51.99999999999988
 31
0.0
  0
LINE
  5
257
330
236
100
AcDbEntity
  8
01-99
100
AcDbLine
 10
115.0
 20
21.33333333333326
 30
0.0
 11
70.0
 21
21.33333333333326
 31
0.0
  0
LINE
  5
258
330
236
100
AcDbEntity
  8
01-99
100
AcDbLine
 10
115.0
 20
36.66666666666663
 30
0.0
 11
20.0
 21
36.66666666666652
 31
0.0
  0
LINE
  5
259
330
236
100
AcDbEntity
  8
01-99
100
AcDbLine
 10
92.0
 20
21.33333333333326
 30
0.0
 11
92.0
 21
51.99999999999994
 31
0.0
  0
LINE
  5
25A
330
236
100
AcDbEntity
  8
01-99
100
AcDbLine
 10
70.0
 20
36.66666666666657
 30
0.0
 11
78.0
 21
31.55555556666661
 31
0.0
  0
LINE
  5
25B
330
236
100
AcDbEntity
  8
01-99
100
AcDbLine
 10
70.0
 20
31.55555556666661
 30
0.0
 11
78.0
 21
36.66666666666663
 31
0.0
  0
LINE
  5
25C
330
236
100
AcDbEntity
  8
01-99
100
AcDbLine
 10
204.0
 20
44.33333333333325
 30
0.0
 11
115.0
 21
44.3333333333332
 31
0.0
  0
LINE
  5
25D
330
236
100
AcDbEntity
  8
01-99
100
AcDbLine
 10
115.0
 20
16.22222222199991
 30
0.0
 11
204.0
 21
16.22222222200003
 31
0.0
  0
LINE
  5
25E
330
236
100
AcDbEntity
  8
01-99
100
AcDbLine
 10
115.0
 20
36.66666666666663
 30
0.0
 11
204.0
 21
36.66666666666669
 31
0.0
  0
LINE
  5
25F
330
236
100
AcDbEntity
  8
01-99
100
AcDbLine
 10
92.0
 20
41.77777777799991
 30
0.0
 11
70.0
 21
41.77777777799991
 31
0.0
  0
LINE
  5
260
330
236
100
AcDbEntity
  8
01-99
100
AcDbLine
 10
92.0
 20
46.88888888899993
 30
0.0
 11
70.0
 21
46.88888888899987
 31
0.0
  0
LINE
  5
261
330
236
100
AcDbEntity
  8
01-99
100
AcDbLine
 10
19.99999999999818
 20
51.99999999999988
 30
0.0
 11
19.99999999999818
 21
5.999999999999886
 31
0.0
  0
TEXT
  5
262
330
236
100
AcDbEntity
  8
08-99
100
AcDbText
 10
116.4997011683063
 20
32.66987370785785
 30
0.0
 40
2.5
  1
Benennung/Teil:
 51
15.0
  7
ROMANS8
100
AcDbText
  0
TEXT
  5
267
330
236
100
AcDbEntity
  8
08-99
100
AcDbText
 10
178.5028274475673
 20
12.01760269423056
 30
0.0
 40
2.7
  1
Ident-Nr.
 51
15.0
  7
ROMANS8
100
AcDbText
  0
TEXT
  5
268
330
236
100
AcDbEntity
  8
08-99
100
AcDbText
 10
93.50002173316807
 20
33.05557696178232
 30
0.0
 40
2.5
  1
Name:
 51
15.0
  7
ROMANS8
100
AcDbText
  0
TEXT
  5
269
330
236
100
AcDbEntity
  8
08-99
100
AcDbText
 10
79.50776914254493
 20
33.04841796100436
 30
0.0
 40
2.5
  1
Datum:
 50
0.102528160689452
 41
0.8933771909280748
 51
15.0
  7
ROMANS8
 72
     5
 11
90.67496614962692
 21
33.06840116746434
 31
0.0
100
AcDbText
  0
TEXT
  5
26A
330
236
100
AcDbEntity
  8
08-99
100
AcDbText
 10
29.50000808173536
 20
33.05597709897978
 30
0.0
 40
1.6
  1
Änderung:
 51
15.0
  7
ROMANS8
100
AcDbText
  0
TEXT
  5
26B
330
236
100
AcDbEntity
  8
08-99
100
AcDbText
 10
46.49993807575287
 20
9.111119299162339
 30
0.0
 40
1.0
  1
ERSETZT.DURCH:
 51
15.0
  7
ROMANS8
100
AcDbText
  0
TEXT
  5
26C
330
236
100
AcDbEntity
  8
08-99
100
AcDbText
 10
21.49936081567171
 20
9.110854202936138
 30
0.0
 40
1.0
  1
ERSETZT.FÜR:
 51
15.0
  7
ROMANS8
100
AcDbText
  0
TEXT
  5
26D
330
236
100
AcDbEntity
  8
08-99
100
AcDbText
 10
145.9909068421542
 20
12.61295686406368
 30
0.0
 40
2.112
  1
AUFTRAGS.NR.:
 51
15.0
  7
ROMANS8
100
AcDbText
  0
TEXT
  5
26E
330
236
100
AcDbEntity
  8
08-99
100
AcDbText
 10
116.5034642050124
 20
12.61092865603024
 30
0.0
 40
2.112
  1
Sonder-Nr:
 51
15.0
  7
ROMANS8
100
AcDbText
  0
TEXT
  5
26F
330
236
100
AcDbEntity
  8
08-99
100
AcDbText
 10
99.69630749507826
 20
49.92370850704219
 30
0.0
 40
1.349999999999999
  1
Format
 51
15.0
  7
ROMANS8
100
AcDbText
  0
TEXT
  5
270
330
236
100
AcDbEntity
  8
08-99
100
AcDbText
 10
98.30437974676783
 20
44.64161879310063
 30
0.0
 40
1.822499999999999
  1
Normen
 51
15.0
  7
ROMANS8
100
AcDbText
  0
TEXT
  5
271
330
236
100
AcDbEntity
  8
08-99
100
AcDbText
 10
21.50002960390157
 20
33.05556783555801
 30
0.0
 40
1.6
  1
Zust.
 51
15.0
  7
ROMANS8
100
AcDbText
  0
TEXT
  5
272
330
236
100
AcDbEntity
  8
08-99
100
AcDbText
 10
49.50318070116918
 20
33.05555925149645
 30
0.0
 40
1.6
  1
Datum:
 51
15.0
  7
ROMANS8
100
AcDbText
  0
TEXT
  5
273
330
236
100
AcDbEntity
  8
08-99
100
AcDbText
 10
61.50321361693205
 20
33.05556405794533
 30
0.0
 40
1.6
  1
Name:
 51
15.0
  7
ROMANS8
100
AcDbText
  0
TEXT
  5
274
330
236
100
AcDbEntity
  8
08-99
100
AcDbText
 10
71.1545544455912
 20
28.03813956794875
 30
0.0
 40
1.6
  1
Erst.
 51
15.0
  7
ROMANS8
100
AcDbText
  0
TEXT
  5
275
330
236
100
AcDbEntity
  8
08-99
100
AcDbText
 10
70.51718036231068
 20
23.19745105942093
 30
0.0
 40
1.6
  1
Bearb.
 51
15.0
  7
ROMANS8
100
AcDbText
  0
TEXT
  5
276
330
236
100
AcDbEntity
  8
08-99
100
AcDbText
 10
149.430804911768
 20
41.61949749270681
 30
0.0
 40
2.0
  1
Zuschnittsbreite:
 51
15.0
  7
ROMANS8
100
AcDbText
  0
TEXT
  5
277
330
236
100
AcDbEntity
  8
08-99
100
AcDbText
 10
115.9849947740322
 20
41.73762362811351
 30
0.0
 40
2.0
  1
Zuschnittslänge:
 51
15.0
  7
ROMANS8
100
AcDbText
  0
LWPOLYLINE
  5
278
330
236
100
AcDbEntity
  8
06-99
100
AcDbPolyline
 90
      133
 70
     1
 43
0.010692
 10
93.767539812
 20
18.8765648493333
 10
94.00904714400008
 20
19.08724714533332
 10
93.92285180400007
 20
19.22625740133321
 10
93.82426443600001
 20
19.35180642933335
 10
93.71362718400019
 20
19.46394056133334
 10
93.59129644799997
 20
19.5627132573332
 10
93.45761437200009
 20
19.64816372133327
 10
93.31292666400008
 20
19.72033828533324
 10
93.15758616000005
 20
19.77929040933327
 10
92.9919350040002
 20
19.82505929733327
 10
92.81632246800006
 20
19.85769128133336
 10
92.63109782400022
 20
19.87723982133332
 10
92.43660678000015
 20
19.88374412133328
 10
92.27568148800003
 20
19.87768175733328
 10
92.11994181599994
 20
19.85975840133324
 10
91.96971921600015
 20
19.8303625293334
 10
91.82534870400013
 20
19.78988974533325
 10
91.68716173200005
 20
19.73873565333338
 10
91.55548262400008
 20
19.67729229333327
 10
91.43065352400014
 20
19.60595170533327
 10
91.31299875600006
 20
19.52510592933322
 10
91.20284977200004
 20
19.4351470053333
 10
91.1005451520001
 20
19.33647410133329
 10
91.0064056560002
 20
19.22947212933332
 10
90.92076986400014
 20
19.11454382133331
 10
90.8439692280001
 20
18.9920740893333
 10
90.77633163600012
 20
18.86245853733334
 10
90.71819210400008
 20
18.72608920533327
 10
90.66987852000011
 20
18.58336526133325
 10
90.63172233600017
 20
18.43467161733326
 10
90.60406213199996
 20
18.28040744133324
 10
90.58721866800011
 20
18.1209612093333
 10
90.58153408800013
 20
17.95672852533329
 10
90.58714738800006
 20
17.78762385333334
 10
90.60379839600022
 20
17.62428929733329
 10
90.6311877359999
 20
17.46704205333327
 10
90.66901603199994
 20
17.3161957533332
 10
90.71698747200002
 20
17.17206402933328
 10
90.77480624400015
 20
17.03496051333331
 10
90.84217653600012
 20
16.90519527333328
 10
90.9187989720001
 20
16.78308550533325
 10
91.00437774000011
 20
16.66894127733326
 10
91.09862059200009
 20
16.56307978533329
 10
91.20122102400001
 20
16.4658110973333
 10
91.31189391600003
 20
16.37745240933321
 10
91.43033276400013
 20
16.29831378933335
 10
91.55624532000002
 20
16.22870886933333
 10
91.68933220799999
 20
16.16895484533324
 10
91.82930118000001
 20
16.11936178533329
 10
91.9758492960002
 20
16.08024332133334
 10
92.12868787199999
 20
16.05191308533335
 10
92.28751040400004
 20
16.0346847093333
 10
92.45202820800011
 20
16.02887182533334
 10
92.61602566800013
 20
16.03412516133329
 10
92.77335844800006
 20
16.04976399333333
 10
92.92383765600005
 20
16.0755958653333
 10
93.06727439999997
 20
16.11142832133333
 10
93.20348335200014
 20
16.15707246933328
 10
93.33227205599996
 20
16.21233941733328
 10
93.45345518400007
 20
16.27703670933328
 10
93.56683671600013
 20
16.35097901733331
 10
93.6722384520001
 20
16.43397388533327
 10
93.76946080800008
 20
16.5258252933333
 10
93.85832202000006
 20
16.62635504133328
 10
93.93863319600018
 20
16.73535998133326
 10
94.01020188000007
 20
16.85266191333329
 10
94.07283918000008
 20
16.97806125333329
 10
94.12635976800016
 20
17.11137267333322
 10
94.170574752
 20
17.25240371733326
 10
94.20528811200005
 20
17.40096549333327
 10
94.23032164800009
 20
17.55686910933332
 10
94.2454793400002
 20
17.71992567333325
 10
94.25057229599998
 20
17.88993916533326
 10
94.25057229599998
 20
17.88993916533326
 10
94.25057229599998
 20
17.94132135333331
 10
92.61646404000009
 20
17.94132135333331
 10
92.61646404000009
 20
17.65354973733326
 10
93.88572561599994
 20
17.65354973733326
 10
93.87498728399998
 20
17.49100638933328
 10
93.84765496800003
 20
17.33636086533329
 10
93.80443434000017
 20
17.19027606933332
 10
93.74603107200005
 20
17.05341846933328
 10
93.67315796400021
 20
16.92644384133331
 10
93.58652425200011
 20
16.81002578133331
 10
93.48682848000009
 20
16.70481650133331
 10
93.37478701200007
 20
16.61148959733327
 10
93.25110552000001
 20
16.53069728133329
 10
93.11648967600012
 20
16.46310958533331
 10
92.97164871600001
 20
16.40938584933326
 10
92.81729187600012
 20
16.37019254133338
 10
92.65412482800014
 20
16.34618900133324
 10
92.48285680800018
 20
16.33804169733332
 10
92.31819644400014
 20
16.34599298133327
 10
92.15990138400002
 20
16.36937638533322
 10
92.00856325200005
 20
16.40748267333328
 10
91.8647701079999
 20
16.45960617333327
 10
91.72910288400009
 20
16.52503764933328
 10
91.60215320400004
 20
16.60306786533334
 10
91.48450556400007
 20
16.69299471333329
 10
91.37675158800005
 20
16.79410539333338
 10
91.27947577200018
 20
16.90569423333329
 10
91.19326261200001
 20
17.02705556133327
 10
91.11870373200009
 20
17.15747657733328
 10
91.05638362800005
 20
17.29625517333329
 10
91.00689036000005
 20
17.44268211333326
 10
90.97081198799992
 20
17.59604459733333
 10
90.94873300799998
 20
17.7556440813334
 10
90.94124504400008
 20
17.92076776533321
 10
90.94763173200021
 20
18.08914181733331
 10
90.96653518800009
 20
18.25115412933326
 10
90.99755624400017
 20
18.40630574133325
 10
91.04029929600006
 20
18.55410125733328
 10
91.09437230399999
 20
18.69404528133327
 10
91.15937610000003
 20
18.82564598133331
 10
91.23491508000006
 20
18.94840083333332
 10
91.32059720400013
 20
19.06182156933329
 10
91.41602330399996
 20
19.16540566533337
 10
91.52080490399999
 20
19.25866128933325
 10
91.63453570800015
 20
19.34108948133331
 10
91.75683080400018
 20
19.41219840933331
 10
91.88728745999993
 20
19.47148911333329
 10
92.02551363600013
 20
19.51846619733328
 10
92.17111729200018
 20
19.55263426533327
 10
92.32369569600018
 20
19.57350148533328
 10
92.48285680800018
 20
19.58056533333331
 10
92.6605614120001
 20
19.5716482053333
 10
92.83031473200015
 20
19.54501086933328
 10
92.99177818800012
 20
19.50082083333331
 10
93.1446132000001
 20
19.43924560533327
 10
93.2884811880001
 20
19.36045982133328
 10
93.42304713600015
 20
19.26462742533334
 10
93.54797246400005
 20
19.15192305333329
 10
93.66291502800015
 20
19.02251064933335
  0
LWPOLYLINE
  5
27C
330
236
100
AcDbEntity
  8
06-99
100
AcDbPolyline
 90
       12
 70
     1
 43
0.010692
 10
90.43899547199998
 20
12.25281382533336
 10
92.32226296800012
 20
12.25281382533336
 10
92.46759932400005
 20
13.0076797173333
 10
91.56487020000009
 20
13.0076797173333
 10
91.62105309599997
 20
13.29950716533324
 10
92.41871550000007
 20
13.29950716533324
 10
92.55580119599995
 20
14.01156228933325
 10
91.75813879199996
 20
14.01156228933325
 10
91.80984530399996
 20
14.28005622933324
 10
92.68922666399999
 20
14.28005622933324
 10
92.83455232800008
 20
15.03490786533331
 10
90.9746325960001
 20
15.03490786533331
  0
LWPOLYLINE
  5
27D
330
236
100
AcDbEntity
  8
06-99
100
AcDbPolyline
 90
        4
 70
     1
 43
0.010692
 10
76.60861191600009
 20
12.88042709733327
 10
89.06586111599995
 20
12.88042709733327
 10
88.94228298000006
 20
12.25209746133328
 10
76.48503734400003
 20
12.25209746133328
  0
SOLID
  5
27E
330
236
100
AcDbEntity
  8
06-99
100
AcDbTrace
 10
76.60861191600009
 20
12.88042709733327
 30
0.0
 11
89.06586111599995
 21
12.88042709733327
 31
0.0
 12
76.48503734400003
 22
12.25209746133328
 32
0.0
 13
88.94228298000006
 23
12.25209746133328
 33
0.0
  0
LWPOLYLINE
  5
27F
330
236
100
AcDbEntity
  8
06-99
100
AcDbPolyline
 90
       10
 70
     1
 43
0.010692
 10
82.34584288800011
 20
16.02887182533334
 10
83.32218286800003
 20
19.10266857333329
 10
84.33964784399995
 20
16.02887182533334
 10
85.56779868000012
 20
19.80153333333328
 10
85.22350915200002
 20
19.80153333333328
 10
84.33964784399995
 20
16.89303134133325
 10
83.32218286800003
 20
19.94541201333322
 10
82.34584288800011
 20
16.86733846533332
 10
81.42601012800014
 20
19.80153333333328
 10
81.07658131200015
 20
19.80153333333328
  0
LWPOLYLINE
  5
280
330
236
100
AcDbEntity
  8
06-99
100
AcDbPolyline
 90
        3
 70
     1
 43
0.010692
 10
87.32441587200014
 20
17.65868546133333
 10
87.97703416800004
 20
19.25683295733324
 10
88.603963152
 20
17.65868546133333
  0
LWPOLYLINE
  5
281
330
236
100
AcDbEntity
  8
06-99
100
AcDbPolyline
 90
        7
 70
     1
 43
0.010692
 10
86.38318129200014
 20
16.12735940133325
 10
86.72319402000004
 20
16.12735940133325
 10
87.21136222799998
 20
17.37092810133328
 10
88.71186325200017
 20
17.37092810133328
 10
89.17949212799999
 20
16.12735940133325
 10
89.54433880800001
 20
16.12735940133325
 10
87.99759132000009
 20
19.94541201333322
  0
LWPOLYLINE
  5
282
330
236
100
AcDbEntity
  8
06-99
100
AcDbPolyline
 90
        8
 70
     1
 43
0.010692
 10
98.92980491999992
 20
12.25281382533336
 10
100.0043794319999
 20
12.25281382533336
 10
100.1574069000001
 20
12.60301246533328
 10
100.9122727920001
 20
12.60301246533328
 10
100.934344644
 20
12.25281382533336
 10
102.0082740719999
 20
12.25281382533336
 10
101.571149472
 20
15.03490786533331
 10
100.458311856
 20
15.03490786533331
  0
LWPOLYLINE
  5
283
330
236
100
AcDbEntity
  8
06-99
100
AcDbPolyline
 90
       34
 70
     1
 43
0.010692
 10
96.04345675200011
 20
13.66137790533327
 10
96.07848017999993
 20
13.66137790533327
 10
96.06422418000011
 20
13.48699851333333
 10
96.06380006400002
 20
13.33510083333328
 10
96.06789866400005
 20
13.20222778533332
 10
96.09523098000011
 20
12.25281382533336
 10
96.96682856399991
 20
12.25281382533336
 10
98.31568851599991
 20
15.03490786533331
 10
97.31180594400008
 20
15.03490786533331
 10
96.85791272400003
 20
13.80923044533324
 10
96.80781001200012
 20
13.66872687333324
 10
96.74884006799993
 20
13.48671339333322
 10
96.69002693999994
 20
13.26059897733336
 10
96.66669343199998
 20
13.26059897733336
 10
96.68841957600001
 20
13.45803388533329
 10
96.69297793200009
 20
13.61569455333324
 10
96.69193724399997
 20
13.7353130853333
 10
96.67755293999995
 20
15.03490786533331
 10
95.97328515599997
 20
15.03490786533331
 10
95.45848317600007
 20
13.7353130853333
 10
95.41138135199991
 20
13.61569455333324
 10
95.35522696800013
 20
13.45803388533329
 10
95.30092230000002
 20
13.26059897733336
 10
95.27758879199996
 20
13.26059897733336
 10
95.30584418400009
 20
13.48671339333322
 10
95.31696386400005
 20
13.66872687333324
 10
95.320959108
 20
13.80923044533324
 10
95.33903215199996
 20
15.03490786533331
 10
94.33450449600002
 20
15.03490786533331
 10
94.61273528400012
 20
12.25281382533336
 10
95.48432930399997
 20
12.25281382533336
 10
95.87723892000008
 20
13.20222778533332
 10
95.93251299600002
 20
13.33510083333328
 10
95.99057768400006
 20
13.48699851333333
  0
LWPOLYLINE
  5
284
330
236
100
AcDbEntity
  8
06-99
100
AcDbPolyline
 90
       10
 70
     1
 43
0.010692
 10
100.4520677279999
 20
13.26448373733331
 10
100.5983592359999
 20
13.57965894933329
 10
100.673110572
 20
13.74409478133339
 10
100.754152368
 20
13.94571026133332
 10
100.82882886
 20
14.19056418933337
 10
100.8482883
 20
14.19056418933337
 10
100.8286649159999
 20
13.94571026133332
 10
100.8320721
 20
13.74409478133339
 10
100.843505412
 20
13.57965894933329
 10
100.8684106440001
 20
13.26448373733331
  0
LWPOLYLINE
  5
285
330
236
100
AcDbEntity
  8
06-99
100
AcDbPolyline
 90
       23
 70
     1
 43
0.010692
 10
103.5867055200001
 20
12.25281382533336
 10
104.5672403279999
 20
12.25281382533336
 10
104.744036112
 20
13.17110337333327
 10
105.0536265360001
 20
12.25281382533336
 10
106.1742372359999
 20
12.25281382533336
 10
105.64906758
 20
13.38511444533327
 10
105.808428276
 20
13.42380879333331
 10
105.9537004799999
 20
13.4988167373333
 10
106.081348704
 20
13.60690216533328
 10
106.187830332
 20
13.74481827333329
 10
106.2695991839999
 20
13.90932182133326
 10
106.3231126439999
 20
14.09716956933329
 10
106.3446
 20
14.2680918813333
 10
106.3403018159999
 20
14.42330051733336
 10
106.310228784
 20
14.5622608773333
 10
106.2543915959999
 20
14.68443479733321
 10
106.1728080719999
 20
14.78928767733333
 10
106.065492468
 20
14.8762777893333
 10
105.932451912
 20
14.9448740973333
 10
105.7737077879999
 20
14.99453487333335
 10
105.58926366
 20
15.02472551733331
 10
105.3791444759999
 20
15.03490786533331
 10
104.122342644
 20
15.03490786533331
  0
LWPOLYLINE
  5
286
330
236
100
AcDbEntity
  8
06-99
100
AcDbPolyline
 90
        9
 70
     1
 43
0.010692
 10
104.965032624
 20
14.31896441733329
 10
105.120683196
 20
14.31896441733329
 10
105.2773530720001
 20
14.28538440933323
 10
105.3582202319999
 20
14.19041093733335
 10
105.36321696
 20
14.04270095733329
 10
105.30086478
 20
13.89700107333334
 10
105.183291984
 20
13.80578049333331
 10
105.0158124959999
 20
13.77422127333324
 10
104.860161924
 20
13.77422127333324
  0
LWPOLYLINE
  5
287
330
236
100
AcDbEntity
  8
06-99
100
AcDbPolyline
 90
       12
 70
     1
 43
0.010692
 10
100.5798014880001
 20
16.12735940133325
 10
102.3988991640001
 20
16.12735940133325
 10
102.3988991640001
 20
16.44082389333323
 10
100.9138195680001
 20
16.44082389333323
 10
100.9138195680001
 20
18.02353214133336
 10
102.3988991640001
 20
18.02353214133336
 10
102.3988991640001
 20
18.33699663333334
 10
100.9138195680001
 20
18.33699663333334
 10
100.9138195680001
 20
19.4880688413333
 10
102.3988991640001
 20
19.4880688413333
 10
102.3988991640001
 20
19.80153333333328
 10
100.5798014880001
 20
19.80153333333328
  0
LWPOLYLINE
  5
288
330
236
100
AcDbEntity
  8
06-99
100
AcDbPolyline
 90
        8
 70
     1
 43
0.010692
 10
95.85302510400016
 20
16.12735940133325
 10
96.18704674800007
 20
16.12735940133325
 10
96.18704674800007
 20
19.09753284933328
 10
98.76666638400003
 20
16.01858612133327
 10
98.76666638400003
 20
19.80153333333328
 10
98.43265899600011
 20
19.80153333333328
 10
98.43265899600011
 20
16.8827456373333
 10
95.85302510400016
 20
19.95568346133325
  0
LWPOLYLINE
  5
289
330
236
100
AcDbEntity
  8
06-99
100
AcDbPolyline
 90
       19
 70
     1
 43
0.010692
 10
104.4484236960002
 20
19.50862599333322
 10
104.7824310840001
 20
19.50862599333322
 10
104.986616208
 20
19.5003076173333
 10
105.160446744
 20
19.47385917333327
 10
105.3048956640001
 20
19.42705672533321
 10
105.4209181200001
 20
19.35767277333326
 10
105.5094799560001
 20
19.26347981733323
 10
105.571543452
 20
19.14225035733335
 10
105.608078016
 20
18.99174976533322
 10
105.620042364
 20
18.80976123333329
 10
105.607447188
 20
18.63100881333327
 10
105.5693765400001
 20
18.48586134933327
 10
105.5054169960001
 20
18.37130369733336
 10
105.415137312
 20
18.28432784133332
 10
105.2981240640001
 20
18.22192220133331
 10
105.1539495720001
 20
18.18107163333326
 10
104.9821897199999
 20
18.15877168533336
 10
104.7824310840001
 20
18.15200721333332
 10
104.4484236960002
 20
18.15200721333332
  0
LWPOLYLINE
  5
28A
330
236
100
AcDbEntity
  8
06-99
100
AcDbPolyline
 90
       29
 70
     1
 43
0.010692
 10
106.3446
 20
16.12735940133325
 10
105.023956236
 20
17.8796534613333
 10
105.2123742240002
 20
17.89225220133335
 10
105.3829009320001
 20
17.92942115733325
 10
105.5343994440001
 20
17.99023012533337
 10
105.665722152
 20
18.07375602933331
 10
105.7757285760001
 20
18.17905797333327
 10
105.863274672
 20
18.30521644533331
 10
105.927223524
 20
18.45129411333335
 10
105.966431088
 20
18.61636077333333
 10
105.9797533199998
 20
18.79948978533332
 10
105.9699380640002
 20
18.97455346533331
 10
105.9404816040002
 20
19.13261686533332
 10
105.8913554280001
 20
19.27374770133332
 10
105.8225417160001
 20
19.3980136893332
 10
105.7340155200001
 20
19.50548610933333
 10
105.6257518920001
 20
19.59623624133331
 10
105.4977294480001
 20
19.67032823733325
 10
105.3499232399999
 20
19.7278333773333
 10
105.182311884
 20
19.76882650533332
 10
104.994873996
 20
19.79336820933332
 10
104.787581064
 20
19.80153333333328
 10
104.787581064
 20
19.80153333333328
 10
104.1144056160001
 20
19.80153333333328
 10
104.1144056160001
 20
16.12735940133325
 10
104.4484236960002
 20
16.12735940133325
 10
104.4484236960002
 20
17.8796534613333
 10
104.648838108
 20
17.8796534613333
 10
105.938639016
 20
16.12735940133325
  0
TEXT
  5
28B
330
236
100
AcDbEntity
  8
06-99
100
AcDbText
 10
85.60835809905961
 20
9.633208985719136
 30
0.0
 40
1.4256
  1
GmbH & Co KG
 41
1.199203187251
 51
15.0
  7
ROMAND8
 72
     5
 11
106.0419580990597
 21
9.633208985719136
 31
0.0
100
AcDbText
  0
TEXT
  5
28D
330
236
100
AcDbEntity
  8
06-99
100
AcDbText
 10
85.70981485364347
 20
7.391015713295587
 30
0.0
 40
1.4256
  1
72774 Reutlingen
 50
0.5663244663116128
 41
1.087840993687879
 51
15.0
  7
ROMAND8
 72
     5
 11
105.9434148536435
 21
7.591015713295576
 31
0.0
100
AcDbText
  0
TEXT
  5
28E
330
236
100
AcDbEntity
  8
08-99
100
AcDbText
 10
73.41411819983751
 20
48.45009163044323
 30
0.0
 40
2.25
  1
Zul. Abw.
 51
15.0
  7
ROMANS8
100
AcDbText
  0
TEXT
  5
28F
330
236
100
AcDbEntity
  8
08-99
100
AcDbText
 10
123.2099263202836
 20
49.28616415937344
 30
0.0
 40
2.0
  1
Mat. Art.
 51
15.0
  7
ROMANS8
100
AcDbText
  0
TEXT
  5
290
330
236
100
AcDbEntity
  8
08-99
100
AcDbText
 10
155.4865309703727
 20
49.40431338334462
 30
0.0
 40
2.0
  1
Oberfläche:
 51
15.0
  7
ROMANS8
100
AcDbText
  0
TEXT
  5
291
330
236
100
AcDbEntity
  8
08-99
100
AcDbText
 10
184.7625378385805
 20
41.73764671667789
 30
0.0
 40
2.0
  1
Blech Dicke:
 51
15.0
  7
ROMANS8
100
AcDbText
  0
TEXT
  5
292
330
236
100
AcDbEntity
  8
08-99
100
AcDbText
 10
187.4380280285577
 20
49.28616415937347
 30
0.0
 40
2.0
  1
Maßstab:
 51
15.0
  7
ROMANS8
100
AcDbText
  0
LINE
  5
293
330
236
100
AcDbEntity
  8
01-99
100
AcDbLine
 10
115.0
 20
46.88888888899993
 30
0.0
 11
92.0
 21
46.88888888899993
 31
0.0
  0
LINE
  5
294
330
236
100
AcDbEntity
  8
01-99
100
AcDbLine
 10
115.0
 20
44.3333333333332
 30
0.0
 11
92.0
 21
44.3333333333332
 31
0.0
  0
LINE
  5
295
330
236
100
AcDbEntity
  8
01-99
100
AcDbLine
 10
115.0
 20
40.49999999999989
 30
0.0
 11
91.99999999999993
 21
40.49999999999989
 31
0.0
  0
ATTDEF
  5
296
330
236
100
AcDbEntity
  8
06-99
100
AcDbText
 10
116.4954467391771
 20
26.18783869728213
 30
0.0
 40
4.0
  1

 41
0.9
  7
ROMANS8
100
AcDbAttributeDefinition
280
     0
  3
Benennung/Teil
  2
TEILE
 70
     0
280
     0
  0
ATTDEF
  5
297
330
236
100
AcDbEntity
  8
06-99
100
AcDbText
 10
92.99706779936741
 20
27.44168546803121
 30
0.0
 40
2.5
  1

 41
0.9
  7
ROMANS8
100
AcDbAttributeDefinition
280
     0
  3
Name
  2
NAME
 70
     0
280
     0
  0
ATTDEF
  5
298
330
236
100
AcDbEntity
  8
06-99
100
AcDbText
 10
79.49314645189407
 20
27.46123517411116
 30
0.0
 40
2.5
  1

 50
359.9144597696142
 41
0.9542572414211148
  7
ROMANS8
 72
     5
 11
90.7397371204388
 21
27.4444444666666
 31
0.0
100
AcDbAttributeDefinition
280
     0
  3
Datum
  2
DATUM
 70
     0
280
     0
  0
ATTDEF
  5
299
330
236
100
AcDbEntity
  8
06-99
100
AcDbText
 10
191.3473862117146
 20
45.33333333333326
 30
0.0
 40
3.375
  1

  7
ROMANS8
100
AcDbAttributeDefinition
280
     0
  3
Maßstab
  2
:
 70
     0
280
     0
  0
ATTDEF
  5
29A
330
236
100
AcDbEntity
  8
06-99
100
AcDbText
 10
178.5063439671582
 20
7.492899800288626
 30
0.0
 40
2.99376
  1

  7
ROMANS8
100
AcDbAttributeDefinition
280
     0
  3
Ident-Nummer
  2
ID.NR
 70
     0
280
     0
  0
ATTDEF
  5
29B
330
236
100
AcDbEntity
  8
06-99
100
AcDbText
 10
116.5
 20
7.499999999999943
 30
0.0
 40
3.168
  1

 41
0.9
  7
ROMANS8
100
AcDbAttributeDefinition
280
     0
  3
Sonder-NR,WPS
  2
SONDER-NR
 70
     0
280
     0
  0
ATTDEF
  5
29C
330
236
100
AcDbEntity
  8
06-99
100
AcDbText
 10
146.0006338868801
 20
7.504396604354553
 30
0.0
 40
3.168
  1

 41
0.9
  7
ROMANS8
100
AcDbAttributeDefinition
280
     0
  3
Auftrags Nr.
  2
AUFTRAGS.NR.
 70
     0
280
     0
  0
ATTDEF
  5
29D
330
236
100
AcDbEntity
  8
06-99
100
AcDbText
 10
116.7312662557105
 20
37.66666664444438
 30
0.0
 40
3.0
  1

 41
0.9
  7
ROMANS8
100
AcDbAttributeDefinition
280
     0
  3
Zuschnitts.Länge
  2
LÄNGE
 70
     0
280
     0
  0
ATTDEF
  5
29E
330
236
100
AcDbEntity
  8
06-99
100
AcDbText
 10
150.1808049117697
 20
37.67810387044475
 30
0.0
 40
3.0
  1

 41
0.9
  7
ROMANS8
100
AcDbAttributeDefinition
280
     0
  3
Zuschnitts Breite
  2
BREITE
 70
     0
280
     0
  0
ATTDEF
  5
29F
330
236
100
AcDbEntity
  8
06-99
100
AcDbText
 10
190.6090921267318
 20
37.66666666666669
 30
0.0
 40
3.09375
  1

  7
ROMANS8
100
AcDbAttributeDefinition
280
     0
  3
Blech.Dicke
  2
1.0
 70
     0
280
     0
  0
ATTDEF
  5
2A0
330
236
100
AcDbEntity
  8
06-99
100
AcDbText
 10
164.1277856014027
 20
45.33333333333337
 30
0.0
 40
3.0
  1

  7
ROMANS8
 72
     1
 11
164.1277856014027
 21
45.33333333333337
 31
0.0
100
AcDbAttributeDefinition
280
     0
  3
Oberfläche
  2
IV
 70
     0
280
     0
  0
ATTDEF
  5
2A1
330
236
100
AcDbEntity
  8
06-99
100
AcDbText
 10
21.49946778019853
 20
6.597456397872349
 30
0.0
 40
1.5
  1

 41
0.9
  7
ROMANS8
100
AcDbAttributeDefinition
280
     0
  3
ERSETZT.Für
  2
ERSETZT.FÜR
 70
     0
280
     0
  0
ATTDEF
  5
2A2
330
236
100
AcDbEntity
  8
06-99
100
AcDbText
 10
46.4997509950083
 20
6.601810069259784
 30
0.0
 40
1.5
  1

 41
0.9
  7
ROMANS8
100
AcDbAttributeDefinition
280
     0
  3
ERSETZT.Durch
  2
ERSETZT.DURCH
 70
     0
280
     0
  0
ATTDEF
  5
2A3
330
236
100
AcDbEntity
  8
06-99
100
AcDbText
 10
92.81172471169201
 20
41.03030066719799
 30
0.0
 40
2.34
  1
DIN 6930-M
  7
ROMANS8
 72
     1
 11
103.5088675688348
 21
41.03030066719799
 31
0.0
100
AcDbAttributeDefinition
280
     0
  3
Norm / Fräsen
  2
NORM1
 70
     0
280
     0
  0
ATTDEF
  5
2A4
330
236
100
AcDbEntity
  8
06-99
100
AcDbText
 10
95.98743899740631
 20
37.19696733386469
 30
0.0
 40
2.34
  1
DIN 2768
  7
ROMANS8
 72
     1
 11
104.0102961402634
 21
37.19696733386469
 31
0.0
100
AcDbAttributeDefinition
280
     0
  3
Norm / Kanten
  2
NORM2
 70
     0
280
     0
  0
ATTDEF
  5
2A5
330
236
100
AcDbEntity
  8
06-99
100
AcDbText
 10
99.97307264643758
 20
47.66851114000792
 30
0.0
 40
1.287
  1
DIN A4
  7
ROMANS8
 72
     1
 11
103.2518583607233
 21
47.66851114000792
 31
0.0
100
AcDbAttributeDefinition
280
     0
  3
Format
  2
FORMAT
 70
     0
280
     0
  0
ATTDEF
  5
2A6
330
236
100
AcDbEntity
  8
06-99
100
AcDbText
 10
123.2747405361158
 20
45.33333333333323
 30
0.0
 40
3.375
  1
1.4301
  7
ROMANS8
100
AcDbAttributeDefinition
280
     0
  3
Mat.Art
  2
1.4301
 70
     0
280
     0
  0
ATTDEF
  5
2A7
330
236
100
AcDbEntity
  8
06-99
100
AcDbText
 10
116.4954467391771
 20
19.29547849899632
 30
0.0
 40
4.0
  1

 41
0.9
  7
ROMANS8
100
AcDbAttributeDefinition
280
     0
  3
Benennung/Teil2
  2
TEILE2
 70
     0
280
     0
  0
ENDBLK
  5
2A8
330
236
100
AcDbEntity
  8
0
100
AcDbBlockEnd
  0
BLOCK
  5
216
330
215
100
AcDbEntity
  8
0
100
AcDbBlockBegin
  2
*D4
 70
     1
 10
0.0
 20
0.0
 30
0.0
  3
*D4
  1

  0
LINE
  5
217
330
215
100
AcDbEntity
  8
09-01
 62
     4
440
 16777216
370
    -2
100
AcDbLine
 10
154.8081728409544
 20
439.3826668176034
 30
0.0
 11
140.7154462652653
 21
439.3826668176034
 31
0.0
  0
LINE
  5
218
330
215
100
AcDbEntity
  8
09-01
 62
     4
440
 16777216
370
    -2
100
AcDbLine
 10
154.8081728409544
 20
330.8826668176036
 30
0.0
 11
140.7154462652653
 21
330.8826668176036
 31
0.0
  0
LINE
  5
219
330
215
100
AcDbEntity
  8
09-01
 62
     4
440
 16777216
370
    -2
100
AcDbLine
 10
142.7154462652653
 20
434.3826668176034
 30
0.0
 11
142.7154462652653
 21
335.8826668176036
 31
0.0
  0
SOLID
  5
21A
330
215
100
AcDbEntity
  8
09-01
 62
     4
440
 16777216
100
AcDbTrace
 10
141.882112931932
 20
434.3826668176034
 30
0.0
 11
143.5487795985987
 21
434.3826668176034
 31
0.0
 12
142.7154462652653
 22
439.3826668176034
 32
0.0
 13
142.7154462652653
 23
439.3826668176034
 33
0.0
  0
SOLID
  5
21B
330
215
100
AcDbEntity
  8
09-01
 62
     4
440
 16777216
100
AcDbTrace
 10
141.882112931932
 20
335.8826668176036
 30
0.0
 11
143.5487795985987
 21
335.8826668176036
 31
0.0
 12
142.7154462652653
 22
330.8826668176036
 32
0.0
 13
142.7154462652653
 23
330.8826668176036
 33
0.0
  0
MTEXT
  5
21C
330
215
100
AcDbEntity
  8
09-01
 62
     1
440
 16777216
100
AcDbMText
 10
138.2154462652653
 20
385.1326668176036
 30
0.0
 40
5.0
 41
0.0
 46
0.0
 71
     5
 72
     1
  1
108.5
 11
0.0000000000000001
 21
1.0
 31
0.0
 73
     1
 44
1.0
  0
POINT
  5
21D
330
215
100
AcDbEntity
  8
DEFPOINTS
 62
     0
440
 16777216
100
AcDbPoint
 10
156.8081728409544
 20
439.3826668176034
 30
0.0
  0
POINT
  5
21E
330
215
100
AcDbEntity
  8
DEFPOINTS
 62
     0
440
 16777216
100
AcDbPoint
 10
156.8081728409544
 20
330.8826668176036
 30
0.0
  0
POINT
  5
21F
330
215
100
AcDbEntity
  8
DEFPOINTS
 62
     0
440
 16777216
100
AcDbPoint
 10
142.7154462652653
 20
330.8826668176036
 30
0.0
  0
ENDBLK
  5
220
330
215
100
AcDbEntity
  8
0
100
AcDbBlockEnd
  0
BLOCK
  5
207
330
206
100
AcDbEntity
  8
0
100
AcDbBlockBegin
  2
*D5
 70
     1
 10
0.0
 20
0.0
 30
0.0
  3
*D5
  1

  0
LINE
  5
208
330
206
100
AcDbEntity
  8
09-01
 62
     4
440
 16777216
370
    -2
100
AcDbLine
 10
158.0581728409544
 20
332.8826668176037
 30
0.0
 11
158.0581728409544
 21
339.5291125837816
 31
0.0
  0
LINE
  5
209
330
206
100
AcDbEntity
  8
09-01
 62
     4
440
 16777216
370
    -2
100
AcDbLine
 10
163.5581728409544
 20
332.8826668176037
 30
0.0
 11
163.5581728409544
 21
339.5291125837816
 31
0.0
  0
LINE
  5
20A
330
206
100
AcDbEntity
  8
09-01
 62
     4
440
 16777216
370
    -2
100
AcDbLine
 10
153.0581728409544
 20
337.5291125837816
 30
0.0
 11
148.0581728409544
 21
337.5291125837816
 31
0.0
  0
LINE
  5
20B
330
206
100
AcDbEntity
  8
09-01
 62
     4
440
 16777216
370
    -2
100
AcDbLine
 10
168.5581728409544
 20
337.5291125837816
 30
0.0
 11
173.5581728409544
 21
337.5291125837816
 31
0.0
  0
MTEXT
  5
20C
330
206
100
AcDbEntity
  8
09-01
 62
     1
440
 16777216
100
AcDbMText
 10
174.2612653425039
 20
342.8378681246641
 30
0.0
 40
5.0
 41
0.0
 46
0.0
 71
     5
 72
     1
  1
5.5
 73
     1
 44
1.0
  0
LINE
  5
20D
330
206
100
AcDbEntity
  8
09-01
 62
     4
440
 16777216
370
    -2
100
AcDbLine
 10
158.0581728409544
 20
337.5291125837816
 30
0.0
 11
163.5581728409544
 21
337.5291125837816
 31
0.0
  0
SOLID
  5
20E
330
206
100
AcDbEntity
  8
09-01
 62
     4
440
 16777216
100
AcDbTrace
 10
153.0581728409544
 20
338.3624459171149
 30
0.0
 11
153.0581728409544
 21
336.6957792504483
 31
0.0
 12
158.0581728409544
 22
337.5291125837816
 32
0.0
 13
158.0581728409544
 23
337.5291125837816
 33
0.0
  0
SOLID
  5
20F
330
206
100
AcDbEntity
  8
09-01
 62
     4
440
 16777216
100
AcDbTrace
 10
168.5581728409544
 20
338.3624459171149
 30
0.0
 11
168.5581728409544
 21
336.6957792504483
 31
0.0
 12
163.5581728409544
 22
337.5291125837816
 32
0.0
 13
163.5581728409544
 23
337.5291125837816
 33
0.0
  0
POINT
  5
210
330
206
100
AcDbEntity
  8
DEFPOINTS
 62
     0
440
 16777216
100
AcDbPoint
 10
158.0581728409544
 20
330.8826668176036
 30
0.0
  0
POINT
  5
211
330
206
100
AcDbEntity
  8
DEFPOINTS
 62
     0
440
 16777216
100
AcDbPoint
 10
163.5581728409544
 20
330.8826668176036
 30
0.0
  0
POINT
  5
212
330
206
100
AcDbEntity
  8
DEFPOINTS
 62
     0
440
 16777216
100
AcDbPoint
 10
163.5581728409544
 20
337.5291125837816
 30
0.0
  0
ENDBLK
  5
213
330
206
100
AcDbEntity
  8
0
100
AcDbBlockEnd
  0
BLOCK
  5
1F8
330
1F7
100
AcDbEntity
  8
0
100
AcDbBlockBegin
  2
*D6
 70
     1
 10
0.0
 20
0.0
 30
0.0
  3
*D6
  1

  0
LINE
  5
1F9
330
1F7
100
AcDbEntity
  8
09-01
 62
     4
440
 16777216
370
    -2
100
AcDbLine
 10
154.5581728409544
 20
425.3826668176034
 30
0.0
 11
154.5581728409544
 21
412.8427792721627
 31
0.0
  0
LINE
  5
1FA
330
1F7
100
AcDbEntity
  8
09-01
 62
     4
440
 16777216
370
    -2
100
AcDbLine
 10
167.0581728409544
 20
425.3826668176034
 30
0.0
 11
167.0581728409544
 21
412.8427792721627
 31
0.0
  0
LINE
  5
1FB
330
1F7
100
AcDbEntity
  8
09-01
 62
     4
440
 16777216
370
    -2
100
AcDbLine
 10
149.5581728409544
 20
414.8427792721626
 30
0.0
 11
144.5581728409544
 21
414.8427792721626
 31
0.0
  0
LINE
  5
1FC
330
1F7
100
AcDbEntity
  8
09-01
 62
     4
440
 16777216
370
    -2
100
AcDbLine
 10
172.0581728409544
 20
414.8427792721626
 30
0.0
 11
177.0581728409544
 21
414.8427792721626
 31
0.0
  0
MTEXT
  5
1FD
330
1F7
100
AcDbEntity
  8
09-01
 62
     1
440
 16777216
100
AcDbMText
 10
175.4439012534325
 20
419.2971957720133
 30
0.0
 40
5.0
 41
0.0
 46
0.0
 71
     5
 72
     1
  1
12.5
 73
     1
 44
1.0
  0
LINE
  5
1FE
330
1F7
100
AcDbEntity
  8
09-01
 62
     4
440
 16777216
370
    -2
100
AcDbLine
 10
154.5581728409544
 20
414.8427792721626
 30
0.0
 11
167.0581728409544
 21
414.8427792721626
 31
0.0
  0
SOLID
  5
1FF
330
1F7
100
AcDbEntity
  8
09-01
 62
     4
440
 16777216
100
AcDbTrace
 10
149.5581728409544
 20
415.676112605496
 30
0.0
 11
149.5581728409544
 21
414.0094459388294
 31
0.0
 12
154.5581728409544
 22
414.8427792721626
 32
0.0
 13
154.5581728409544
 23
414.8427792721626
 33
0.0
  0
SOLID
  5
200
330
1F7
100
AcDbEntity
  8
09-01
 62
     4
440
 16777216
100
AcDbTrace
 10
172.0581728409544
 20
415.676112605496
 30
0.0
 11
172.0581728409544
 21
414.0094459388294
 31
0.0
 12
167.0581728409544
 22
414.8427792721626
 32
0.0
 13
167.0581728409544
 23
414.8427792721626
 33
0.0
  0
POINT
  5
201
330
1F7
100
AcDbEntity
  8
DEFPOINTS
 62
     0
440
 16777216
100
AcDbPoint
 10
154.5581728409544
 20
427.3826668176034
 30
0.0
  0
POINT
  5
202
330
1F7
100
AcDbEntity
  8
DEFPOINTS
 62
     0
440
 16777216
100
AcDbPoint
 10
167.0581728409544
 20
427.3826668176034
 30
0.0
  0
POINT
  5
203
330
1F7
100
AcDbEntity
  8
DEFPOINTS
 62
     0
440
 16777216
100
AcDbPoint
 10
167.0581728409544
 20
414.8427792721626
 30
0.0
  0
ENDBLK
  5
204
330
1F7
100
AcDbEntity
  8
0
100
AcDbBlockEnd
  0
BLOCK
  5
1EB
330
1EA
100
AcDbEntity
  8
0
100
AcDbBlockBegin
  2
*D7
 70
     1
 10
0.0
 20
0.0
 30
0.0
  3
*D7
  1

  0
LINE
  5
1EC
330
1EA
100
AcDbEntity
  8
09-01
 62
     4
440
 16777216
370
    -2
100
AcDbLine
 10
162.8081728409544
 20
333.6326668176036
 30
0.0
 11
179.0415777912732
 21
333.6326668176036
 31
0.0
  0
LINE
  5
1ED
330
1EA
100
AcDbEntity
  8
09-01
 62
     4
440
 16777216
370
    -2
100
AcDbLine
 10
162.8081728409544
 20
312.6326668176036
 30
0.0
 11
179.0415777912732
 21
312.6326668176036
 31
0.0
  0
LINE
  5
1EE
330
1EA
100
AcDbEntity
  8
09-01
 62
     4
440
 16777216
370
    -2
100
AcDbLine
 10
177.0415777912732
 20
328.6326668176037
 30
0.0
 11
177.0415777912732
 21
317.6326668176037
 31
0.0
  0
SOLID
  5
1EF
330
1EA
100
AcDbEntity
  8
09-01
 62
     4
440
 16777216
100
AcDbTrace
 10
176.2082444579399
 20
328.6326668176037
 30
0.0
 11
177.8749111246066
 21
328.6326668176037
 31
0.0
 12
177.0415777912732
 22
333.6326668176036
 32
0.0
 13
177.0415777912732
 23
333.6326668176036
 33
0.0
  0
SOLID
  5
1F0
330
1EA
100
AcDbEntity
  8
09-01
 62
     4
440
 16777216
100
AcDbTrace
 10
176.2082444579398
 20
317.6326668176037
 30
0.0
 11
177.8749111246066
 21
317.6326668176037
 31
0.0
 12
177.0415777912732
 22
312.6326668176036
 32
0.0
 13
177.0415777912732
 23
312.6326668176036
 33
0.0
  0
MTEXT
  5
1F1
330
1EA
100
AcDbEntity
  8
09-01
 62
     1
440
 16777216
100
AcDbMText
 10
172.5415777912732
 20
323.1326668176037
 30
0.0
 40
5.0
 41
0.0
 46
0.0
 71
     5
 72
     1
  1
21
 11
0.0000000000000001
 21
1.0
 31
0.0
 73
     1
 44
1.0
  0
POINT
  5
1F2
330
1EA
100
AcDbEntity
  8
DEFPOINTS
 62
     0
440
 16777216
100
AcDbPoint
 10
160.8081728409544
 20
333.6326668176036
 30
0.0
  0
POINT
  5
1F3
330
1EA
100
AcDbEntity
  8
DEFPOINTS
 62
     0
440
 16777216
100
AcDbPoint
 10
160.8081728409544
 20
312.6326668176036
 30
0.0
  0
POINT
  5
1F4
330
1EA
100
AcDbEntity
  8
DEFPOINTS
 62
     0
440
 16777216
100
AcDbPoint
 10
177.0415777912732
 20
312.6326668176036
 30
0.0
  0
ENDBLK
  5
1F5
330
1EA
100
AcDbEntity
  8
0
100
AcDbBlockEnd
  0
BLOCK
  5
1DD
330
1DC
100
AcDbEntity
  8
0
100
AcDbBlockBegin
  2
*D8
 70
     1
 10
0.0
 20
0.0
 30
0.0
  3
*D8
  1

  0
LINE
  5
1DE
330
1DC
100
AcDbEntity
  8
0
 62
     4
440
 16777216
370
    -2
100
AcDbLine
 10
248.9370692551074
 20
300.1326608571394
 30
0.0
 11
248.9370692551074
 21
243.3727123124231
 31
0.0
  0
LINE
  5
1DF
330
1DC
100
AcDbEntity
  8
0
 62
     4
440
 16777216
370
    -2
100
AcDbLine
 10
321.1831323502284
 20
291.6971299371742
 30
0.0
 11
321.1831323502284
 21
243.3727123124231
 31
0.0
  0
LINE
  5
1E0
330
1DC
100
AcDbEntity
  8
0
 62
     4
440
 16777216
370
    -2
100
AcDbLine
 10
253.9370692551074
 20
245.3727123124231
 30
0.0
 11
316.1831323502284
 21
245.3727123124231
 31
0.0
  0
SOLID
  5
1E1
330
1DC
100
AcDbEntity
  8
0
 62
     4
440
 16777216
100
AcDbTrace
 10
253.9370692551074
 20
246.2060456457565
 30
0.0
 11
253.9370692551074
 21
244.5393789790898
 31
0.0
 12
248.9370692551074
 22
245.3727123124231
 32
0.0
 13
248.9370692551074
 23
245.3727123124231
 33
0.0
  0
SOLID
  5
1E2
330
1DC
100
AcDbEntity
  8
0
 62
     4
440
 16777216
100
AcDbTrace
 10
316.1831323502284
 20
246.2060456457565
 30
0.0
 11
316.1831323502284
 21
244.5393789790898
 31
0.0
 12
321.1831323502284
 22
245.3727123124231
 32
0.0
 13
321.1831323502284
 23
245.3727123124231
 33
0.0
  0
MTEXT
  5
1E3
330
1DC
100
AcDbEntity
  8
0
 62
     1
440
 16777216
100
AcDbMText
 10
285.0601008026679
 20
249.8727123124231
 30
0.0
 40
5.0
 41
0.0
 46
0.0
 71
     5
 72
     1
  1
72.2
 73
     1
 44
1.0
  0
POINT
  5
1E4
330
1DC
100
AcDbEntity
  8
DEFPOINTS
 62
     0
440
 16777216
100
AcDbPoint
 10
248.9370692551074
 20
302.1326608571394
 30
0.0
  0
POINT
  5
1E5
330
1DC
100
AcDbEntity
  8
DEFPOINTS
 62
     0
440
 16777216
100
AcDbPoint
 10
321.1831323502284
 20
293.6971299371742
 30
0.0
  0
POINT
  5
1E6
330
1DC
100
AcDbEntity
  8
DEFPOINTS
 62
     0
440
 16777216
100
AcDbPoint
 10
321.1831323502284
 20
245.3727123124231
 30
0.0
  0
ENDBLK
  5
1E7
330
1DC
100
AcDbEntity
  8
0
100
AcDbBlockEnd
  0
BLOCK
  5
1CE
330
1CD
100
AcDbEntity
  8
0
100
AcDbBlockBegin
  2
*D9
 70
     1
 10
0.0
 20
0.0
 30
0.0
  3
*D9
  1

  0
LINE
  5
1CF
330
1CD
100
AcDbEntity
  8
0
 62
     4
440
 16777216
370
    -2
100
AcDbLine
 10
154.8081728409544
 20
330.8826668176036
 30
0.0
 11
140.7154462652653
 21
330.8826668176036
 31
0.0
  0
LINE
  5
1D0
330
1CD
100
AcDbEntity
  8
0
 62
     4
440
 16777216
370
    -2
100
AcDbLine
 10
145.8542360360515
 20
302.1326608571394
 30
0.0
 11
140.7154462652653
 21
302.1326608571394
 31
0.0
  0
LINE
  5
1D1
330
1CD
100
AcDbEntity
  8
0
 62
     4
440
 16777216
370
    -2
100
AcDbLine
 10
142.7154462652653
 20
325.8826668176037
 30
0.0
 11
142.7154462652653
 21
307.1326608571394
 31
0.0
  0
SOLID
  5
1D2
330
1CD
100
AcDbEntity
  8
0
 62
     4
440
 16777216
100
AcDbTrace
 10
141.882112931932
 20
325.8826668176037
 30
0.0
 11
143.5487795985987
 21
325.8826668176037
 31
0.0
 12
142.7154462652653
 22
330.8826668176036
 32
0.0
 13
142.7154462652653
 23
330.8826668176036
 33
0.0
  0
SOLID
  5
1D3
330
1CD
100
AcDbEntity
  8
0
 62
     4
440
 16777216
100
AcDbTrace
 10
141.882112931932
 20
307.1326608571394
 30
0.0
 11
143.5487795985986
 21
307.1326608571394
 31
0.0
 12
142.7154462652653
 22
302.1326608571394
 32
0.0
 13
142.7154462652653
 23
302.1326608571394
 33
0.0
  0
MTEXT
  5
1D4
330
1CD
100
AcDbEntity
  8
0
 62
     1
440
 16777216
100
AcDbMText
 10
138.2154462652653
 20
316.5076638373716
 30
0.0
 40
5.0
 41
0.0
 46
0.0
 71
     5
 72
     1
  1
28.8
 11
0.0000000000000001
 21
1.0
 31
0.0
 73
     1
 44
1.0
  0
POINT
  5
1D5
330
1CD
100
AcDbEntity
  8
DEFPOINTS
 62
     0
440
 16777216
100
AcDbPoint
 10
156.8081728409544
 20
330.8826668176036
 30
0.0
  0
POINT
  5
1D6
330
1CD
100
AcDbEntity
  8
DEFPOINTS
 62
     0
440
 16777216
100
AcDbPoint
 10
147.8542360360515
 20
302.1326608571394
 30
0.0
  0
POINT
  5
1D7
330
1CD
100
AcDbEntity
  8
DEFPOINTS
 62
     0
440
 16777216
100
AcDbPoint
 10
142.7154462652653
 20
302.1326608571394
 30
0.0
  0
ENDBLK
  5
1D8
330
1CD
100
AcDbEntity
  8
0
100
AcDbBlockEnd
  0
BLOCK
  5
1BF
330
1BE
100
AcDbEntity
  8
0
100
AcDbBlockBegin
  2
*D10
 70
     1
 10
0.0
 20
0.0
 30
0.0
  3
*D10
  1

  0
LINE
  5
1C0
330
1BE
100
AcDbEntity
  8
0
 62
     4
440
 16777216
370
    -2
100
AcDbLine
 10
126.3542360360515
 20
541.2514364497531
 30
0.0
 11
126.3542360360515
 21
523.8817338714272
 31
0.0
  0
LINE
  5
1C1
330
1BE
100
AcDbEntity
  8
0
 62
     4
440
 16777216
370
    -2
100
AcDbLine
 10
195.3542360360515
 20
516.8514364497529
 30
0.0
 11
195.3542360360515
 21
527.8817338714272
 31
0.0
  0
LINE
  5
1C2
330
1BE
100
AcDbEntity
  8
0
 62
     4
440
 16777216
370
    -2
100
AcDbLine
 10
131.3542360360515
 20
525.8817338714273
 30
0.0
 11
190.3542360360515
 21
525.8817338714273
 31
0.0
  0
SOLID
  5
1C3
330
1BE
100
AcDbEntity
  8
0
 62
     4
440
 16777216
100
AcDbTrace
 10
131.3542360360515
 20
526.7150672047606
 30
0.0
 11
131.3542360360515
 21
525.0484005380939
 31
0.0
 12
126.3542360360515
 22
525.8817338714273
 32
0.0
 13
126.3542360360515
 23
525.8817338714273
 33
0.0
  0
SOLID
  5
1C4
330
1BE
100
AcDbEntity
  8
0
 62
     4
440
 16777216
100
AcDbTrace
 10
190.3542360360515
 20
526.7150672047606
 30
0.0
 11
190.3542360360515
 21
525.0484005380939
 31
0.0
 12
195.3542360360515
 22
525.8817338714273
 32
0.0
 13
195.3542360360515
 23
525.8817338714273
 33
0.0
  0
MTEXT
  5
1C5
330
1BE
100
AcDbEntity
  8
0
 62
     1
440
 16777216
100
AcDbMText
 10
160.8542360360515
 20
530.3817338714273
 30
0.0
 40
5.0
 41
0.0
 46
0.0
 71
     5
 72
     1
  1
69
 73
     1
 44
1.0
  0
POINT
  5
1C6
330
1BE
100
AcDbEntity
  8
DEFPOINTS
 62
     0
440
 16777216
100
AcDbPoint
 10
126.3542360360515
 20
543.2514364497531
 30
0.0
  0
POINT
  5
1C7
330
1BE
100
AcDbEntity
  8
DEFPOINTS
 62
     0
440
 16777216
100
AcDbPoint
 10
195.3542360360515
 20
514.851436449753
 30
0.0
  0
POINT
  5
1C8
330
1BE
100
AcDbEntity
  8
DEFPOINTS
 62
     0
440
 16777216
100
AcDbPoint
 10
195.3542360360515
 20
525.8817338714273
 30
0.0
  0
ENDBLK
  5
1C9
330
1BE
100
AcDbEntity
  8
0
100
AcDbBlockEnd
  0
BLOCK
  5
100
330
FD
100
AcDbEntity
  8
0
100
AcDbBlockBegin
  2
Seifenflasche 500ml-01-v
 70
     0
 10
0.0
 20
0.0
 30
0.0
  3
Seifenflasche 500ml-01-v
  1

  0
LINE
  5
101
330
FD
100
AcDbEntity
  8
0
100
AcDbLine
 10
-29.0
 20
159.0
 30
0.0
 11
-29.0
 21
30.11877347664961
 31
0.0
  0
LINE
  5
102
330
FD
100
AcDbEntity
  8
0
100
AcDbLine
 10
17.0
 20
159.0
 30
0.0
 11
17.0
 21
140.9999999999996
 31
0.0
  0
ARC
  5
103
330
FD
100
AcDbEntity
  8
0
100
AcDbCircle
 10
22.0
 20
140.9999999999996
 30
0.0
 40
5.0
100
AcDbArc
 50
180.0
 51
270.0
  0
ARC
  5
104
330
FD
100
AcDbEntity
  8
0
100
AcDbCircle
 10
12.0
 20
159.0
 30
0.0
 40
5.0
100
AcDbArc
 50
0.0
 51
90.0
  0
LINE
  5
105
330
FD
100
AcDbEntity
  8
0
100
AcDbLine
 10
10.50000000000006
 20
0.0000000000001137
 30
0.0
 11
10.5
 21
-11.50000000000011
 31
0.0
  0
LINE
  5
106
330
FD
100
AcDbEntity
  8
0
100
AcDbLine
 10
-10.49999999999988
 20
0.0000000000003411
 30
0.0
 11
-10.49999999999994
 21
-11.49999999999988
 31
0.0
  0
LINE
  5
107
330
FD
100
AcDbEntity
  8
0
100
AcDbLine
 10
14.5
 20
14.99999999999988
 30
0.0
 11
14.5
 21
-0.0000000000001137
 31
0.0
  0
LINE
  5
108
330
FD
100
AcDbEntity
  8
0
100
AcDbLine
 10
-14.5
 20
14.99999999999988
 30
0.0
 11
-14.5
 21
0.0000000000001137
 31
0.0
  0
LINE
  5
109
330
FD
100
AcDbEntity
  8
0
100
AcDbLine
 10
11.5
 20
22.00000000000011
 30
0.0
 11
11.49999999999994
 21
18.00000000000011
 31
0.0
  0
LINE
  5
10A
330
FD
100
AcDbEntity
  8
0
100
AcDbLine
 10
-11.5
 20
22.00000000000011
 30
0.0
 11
-11.5
 21
18.00000000000011
 31
0.0
  0
LINE
  5
10B
330
FD
100
AcDbEntity
  8
0
100
AcDbLine
 10
13.24999999999994
 20
17.99999999999988
 30
0.0
 11
13.24999999999994
 21
15.99999999999988
 31
0.0
  0
LINE
  5
10C
330
FD
100
AcDbEntity
  8
0
100
AcDbLine
 10
-13.25
 20
17.99999999999988
 30
0.0
 11
-13.25000000000005
 21
15.99999999999988
 31
0.0
  0
LINE
  5
10D
330
FD
100
AcDbEntity
  8
0
100
AcDbLine
 10
29.0
 20
130.9999999999996
 30
0.0
 11
29.0
 21
30.11877347665006
 31
0.0
  0
ARC
  5
10E
330
FD
100
AcDbEntity
  8
0
100
AcDbCircle
 10
24.0
 20
30.11877347665006
 30
0.0
 40
5.0
100
AcDbArc
 50
279.999999999997
 51
0.0
  0
ARC
  5
10F
330
FD
100
AcDbEntity
  8
0
100
AcDbCircle
 10
24.0
 20
130.9999999999996
 30
0.0
 40
5.0
100
AcDbArc
 50
0.0
 51
90.0
  0
LINE
  5
110
330
FD
100
AcDbEntity
  8
0
100
AcDbLine
 10
-24.0
 20
164.0
 30
0.0
 11
12.0
 21
164.0
 31
0.0
  0
LINE
  5
111
330
FD
100
AcDbEntity
  8
0
100
AcDbLine
 10
21.99999999999994
 20
135.9999999999996
 30
0.0
 11
24.0
 21
135.9999999999996
 31
0.0
  0
ARC
  5
112
330
FD
100
AcDbEntity
  8
0
100
AcDbCircle
 10
-24.0
 20
159.0
 30
0.0
 40
5.0
100
AcDbArc
 50
90.0
 51
180.0
  0
LINE
  5
113
330
FD
100
AcDbEntity
  8
0
100
AcDbLine
 10
-13.25
 20
22.00000000000011
 30
0.0
 11
13.2500000000013
 21
22.00000000000011
 31
0.0
  0
LINE
  5
114
330
FD
100
AcDbEntity
  8
0
100
AcDbLine
 10
-13.25000000000005
 20
15.99999999999988
 30
0.0
 11
13.24999999999994
 21
15.99999999999988
 31
0.0
  0
LINE
  5
115
330
FD
100
AcDbEntity
  8
0
100
AcDbLine
 10
-14.5
 20
14.99999999999988
 30
0.0
 11
14.5
 21
14.99999999999988
 31
0.0
  0
LINE
  5
116
330
FD
100
AcDbEntity
  8
0
100
AcDbLine
 10
-14.5
 20
0.0000000000001137
 30
0.0
 11
14.5
 21
-0.0000000000001137
 31
0.0
  0
LINE
  5
117
330
FD
100
AcDbEntity
  8
0
100
AcDbLine
 10
-10.49999999999994
 20
-11.49999999999988
 30
0.0
 11
10.5
 21
-11.50000000000011
 31
0.0
  0
LINE
  5
118
330
FD
100
AcDbEntity
  8
0
100
AcDbLine
 10
-13.25
 20
17.99999999999988
 30
0.0
 11
13.24999999999994
 21
17.99999999999988
 31
0.0
  0
LINE
  5
119
330
FD
100
AcDbEntity
  8
0
100
AcDbLine
 10
-24.86824088833464
 20
25.19473471158847
 30
0.0
 11
-13.24999999999994
 21
22.00000000000011
 31
0.0
  0
ARC
  5
11A
330
FD
100
AcDbEntity
  8
0
100
AcDbCircle
 10
-24.0
 20
30.11877347664961
 30
0.0
 40
5.0
100
AcDbArc
 50
180.0
 51
260.0000000000029
  0
LINE
  5
11B
330
FD
100
AcDbEntity
  8
0
100
AcDbLine
 10
24.86824088833464
 20
25.19473471158892
 30
0.0
 11
13.2500000000013
 21
22.00000000000011
 31
0.0
  0
LINE
  5
11C
330
FD
100
AcDbEntity
  8
0
100
AcDbLine
 10
11.49999999999994
 20
14.99999999999988
 30
0.0
 11
11.49999999999994
 21
15.99999999999966
 31
0.0
  0
LINE
  5
11D
330
FD
100
AcDbEntity
  8
0
100
AcDbLine
 10
-11.5
 20
14.99999999999988
 30
0.0
 11
-11.5
 21
15.99999999999966
 31
0.0
  0
ENDBLK
  5
11E
330
FD
100
AcDbEntity
  8
0
100
AcDbBlockEnd
  0
BLOCK
  5
137
330
136
100
AcDbEntity
  8
0
100
AcDbBlockBegin
  2
Seifenflasche_950ml_V
 70
     0
 10
0.0
 20
0.0
 30
0.0
  3
Seifenflasche_950ml_V
  1

  0
LINE
  5
138
330
136
100
AcDbEntity
  8
0
100
AcDbLine
 10
-34.5
 20
197.0
 30
0.0
 11
-34.5
 21
30.11877347664949
 31
0.0
  0
ARC
  5
139
330
136
100
AcDbEntity
  8
0
100
AcDbCircle
 10
-29.5
 20
197.0
 30
0.0
 40
5.0
100
AcDbArc
 50
90.0
 51
180.0
  0
LINE
  5
13A
330
136
100
AcDbEntity
  8
0
100
AcDbLine
 10
23.5
 20
197.0
 30
0.0
 11
23.5
 21
178.5999999999999
 31
0.0
  0
ARC
  5
13B
330
136
100
AcDbEntity
  8
0
100
AcDbCircle
 10
28.5
 20
178.5999999999999
 30
0.0
 40
5.0
100
AcDbArc
 50
180.0
 51
270.0
  0
ARC
  5
13C
330
136
100
AcDbEntity
  8
0
100
AcDbCircle
 10
18.5
 20
197.0
 30
0.0
 40
5.0
100
AcDbArc
 50
0.0
 51
90.0
  0
LINE
  5
13D
330
136
100
AcDbEntity
  8
0
100
AcDbLine
 10
10.5
 20
0.0
 30
0.0
 11
10.5
 21
-11.50000000000023
 31
0.0
  0
LINE
  5
13E
330
136
100
AcDbEntity
  8
0
100
AcDbLine
 10
-10.5
 20
0.0000000000002274
 30
0.0
 11
-10.5
 21
-11.5
 31
0.0
  0
LINE
  5
13F
330
136
100
AcDbEntity
  8
0
100
AcDbLine
 10
14.5
 20
14.99999999999977
 30
0.0
 11
14.5
 21
-0.0000000000002274
 31
0.0
  0
LINE
  5
140
330
136
100
AcDbEntity
  8
0
100
AcDbLine
 10
-14.5
 20
14.99999999999977
 30
0.0
 11
-14.5
 21
0.0
 31
0.0
  0
LINE
  5
141
330
136
100
AcDbEntity
  8
0
100
AcDbLine
 10
11.5
 20
22.0
 30
0.0
 11
11.5
 21
18.0
 31
0.0
  0
LINE
  5
142
330
136
100
AcDbEntity
  8
0
100
AcDbLine
 10
-11.5
 20
22.0
 30
0.0
 11
-11.5
 21
18.0
 31
0.0
  0
LINE
  5
143
330
136
100
AcDbEntity
  8
0
100
AcDbLine
 10
13.25
 20
17.99999999999977
 30
0.0
 11
13.25
 21
15.99999999999977
 31
0.0
  0
LINE
  5
144
330
136
100
AcDbEntity
  8
0
100
AcDbLine
 10
-13.25
 20
17.99999999999977
 30
0.0
 11
-13.25
 21
15.99999999999977
 31
0.0
  0
LINE
  5
145
330
136
100
AcDbEntity
  8
0
100
AcDbLine
 10
34.5
 20
168.5999999999999
 30
0.0
 11
34.5
 21
30.11877347664995
 31
0.0
  0
ARC
  5
146
330
136
100
AcDbEntity
  8
0
100
AcDbCircle
 10
29.5
 20
168.5999999999999
 30
0.0
 40
5.0
100
AcDbArc
 50
0.0
 51
90.0
  0
ARC
  5
147
330
136
100
AcDbEntity
  8
0
100
AcDbCircle
 10
29.5
 20
30.11877347664995
 30
0.0
 40
5.0
100
AcDbArc
 50
279.999999999991
 51
0.0
  0
LINE
  5
148
330
136
100
AcDbEntity
  8
0
100
AcDbLine
 10
-13.25
 20
22.0
 30
0.0
 11
13.25000000000136
 21
22.0
 31
0.0
  0
LINE
  5
149
330
136
100
AcDbEntity
  8
0
100
AcDbLine
 10
-13.25
 20
15.99999999999977
 30
0.0
 11
13.25
 21
15.99999999999977
 31
0.0
  0
LINE
  5
14A
330
136
100
AcDbEntity
  8
0
100
AcDbLine
 10
-14.5
 20
14.99999999999977
 30
0.0
 11
14.5
 21
14.99999999999977
 31
0.0
  0
LINE
  5
14B
330
136
100
AcDbEntity
  8
0
100
AcDbLine
 10
-14.5
 20
0.0
 30
0.0
 11
14.5
 21
-0.0000000000002274
 31
0.0
  0
LINE
  5
14C
330
136
100
AcDbEntity
  8
0
100
AcDbLine
 10
-10.5
 20
-11.5
 30
0.0
 11
10.5
 21
-11.50000000000023
 31
0.0
  0
LINE
  5
14D
330
136
100
AcDbEntity
  8
0
100
AcDbLine
 10
-13.25
 20
17.99999999999977
 30
0.0
 11
13.25
 21
17.99999999999977
 31
0.0
  0
LINE
  5
14E
330
136
100
AcDbEntity
  8
0
100
AcDbLine
 10
-30.36824088833464
 20
25.19473471158836
 30
0.0
 11
-13.25
 21
22.0
 31
0.0
  0
ARC
  5
14F
330
136
100
AcDbEntity
  8
0
100
AcDbCircle
 10
-29.5
 20
30.11877347664949
 30
0.0
 40
5.0
100
AcDbArc
 50
180.0
 51
260.000000000009
  0
LINE
  5
150
330
136
100
AcDbEntity
  8
0
100
AcDbLine
 10
30.36824088833464
 20
25.19473471158881
 30
0.0
 11
13.25000000000136
 21
22.0
 31
0.0
  0
LINE
  5
151
330
136
100
AcDbEntity
  8
0
100
AcDbLine
 10
11.5
 20
14.99999999999977
 30
0.0
 11
11.5
 21
15.99999999999954
 31
0.0
  0
LINE
  5
152
330
136
100
AcDbEntity
  8
0
100
AcDbLine
 10
-11.5
 20
14.99999999999977
 30
0.0
 11
-11.5
 21
15.99999999999954
 31
0.0
  0
LINE
  5
153
330
136
100
AcDbEntity
  8
0
100
AcDbLine
 10
-29.5
 20
202.0
 30
0.0
 11
18.5
 21
202.0
 31
0.0
  0
LINE
  5
154
330
136
100
AcDbEntity
  8
0
100
AcDbLine
 10
28.5
 20
173.5999999999999
 30
0.0
 11
29.5
 21
173.5999999999999
 31
0.0
  0
ENDBLK
  5
155
330
136
100
AcDbEntity
  8
0
100
AcDbBlockEnd
  0
BLOCK
  5
1A2
330
1A1
100
AcDbEntity
  8
0
100
AcDbBlockBegin
  2
Seifenflasche_950ml_S
 70
     0
 10
0.0
 20
0.0
 30
0.0
  3
Seifenflasche_950ml_S
  1

  0
LINE
  5
1A3
330
1A1
100
AcDbEntity
  8
0
100
AcDbLine
 10
-10.5
 20
0.0
 30
0.0
 11
-10.5
 21
-11.50000000000023
 31
0.0
  0
LINE
  5
1A4
330
1A1
100
AcDbEntity
  8
0
100
AcDbLine
 10
10.5
 20
0.0000000000002274
 30
0.0
 11
10.5
 21
-11.5
 31
0.0
  0
LINE
  5
1A5
330
1A1
100
AcDbEntity
  8
0
100
AcDbLine
 10
-14.5
 20
14.99999999999977
 30
0.0
 11
-14.5
 21
-0.0000000000002274
 31
0.0
  0
LINE
  5
1A6
330
1A1
100
AcDbEntity
  8
0
100
AcDbLine
 10
14.50000000000023
 20
14.99999999999977
 30
0.0
 11
14.50000000000023
 21
0.0
 31
0.0
  0
LINE
  5
1A7
330
1A1
100
AcDbEntity
  8
0
100
AcDbLine
 10
-11.5
 20
22.0
 30
0.0
 11
-11.49999999999977
 21
18.0
 31
0.0
  0
LINE
  5
1A8
330
1A1
100
AcDbEntity
  8
0
100
AcDbLine
 10
11.50000000000023
 20
22.0
 30
0.0
 11
11.50000000000023
 21
18.0
 31
0.0
  0
LINE
  5
1A9
330
1A1
100
AcDbEntity
  8
0
100
AcDbLine
 10
-13.24999999999977
 20
17.99999999999977
 30
0.0
 11
-13.24999999999977
 21
15.99999999999977
 31
0.0
  0
LINE
  5
1AA
330
1A1
100
AcDbEntity
  8
0
100
AcDbLine
 10
13.25000000000023
 20
17.99999999999977
 30
0.0
 11
13.25000000000023
 21
15.99999999999977
 31
0.0
  0
LINE
  5
1AB
330
1A1
100
AcDbEntity
  8
0
100
AcDbLine
 10
13.25000000000023
 20
22.0
 30
0.0
 11
-13.25000000000114
 21
22.0
 31
0.0
  0
LINE
  5
1AC
330
1A1
100
AcDbEntity
  8
0
100
AcDbLine
 10
13.25000000000023
 20
15.99999999999977
 30
0.0
 11
-13.24999999999977
 21
15.99999999999977
 31
0.0
  0
LINE
  5
1AD
330
1A1
100
AcDbEntity
  8
0
100
AcDbLine
 10
14.50000000000023
 20
14.99999999999977
 30
0.0
 11
-14.5
 21
14.99999999999977
 31
0.0
  0
LINE
  5
1AE
330
1A1
100
AcDbEntity
  8
0
100
AcDbLine
 10
14.50000000000023
 20
0.0
 30
0.0
 11
-14.5
 21
-0.0000000000002274
 31
0.0
  0
LINE
  5
1AF
330
1A1
100
AcDbEntity
  8
0
100
AcDbLine
 10
10.5
 20
-11.5
 30
0.0
 11
-10.5
 21
-11.50000000000023
 31
0.0
  0
LINE
  5
1B0
330
1A1
100
AcDbEntity
  8
0
100
AcDbLine
 10
13.25000000000023
 20
17.99999999999977
 30
0.0
 11
-13.24999999999977
 21
17.99999999999977
 31
0.0
  0
LINE
  5
1B1
330
1A1
100
AcDbEntity
  8
0
100
AcDbLine
 10
-11.49999999999977
 20
14.99999999999977
 30
0.0
 11
-11.49999999999977
 21
15.99999999999954
 31
0.0
  0
LINE
  5
1B2
330
1A1
100
AcDbEntity
  8
0
100
AcDbLine
 10
11.50000000000023
 20
14.99999999999977
 30
0.0
 11
11.50000000000023
 21
15.99999999999954
 31
0.0
  0
LINE
  5
1B3
330
1A1
100
AcDbEntity
  8
0
100
AcDbLine
 10
-45.49999999999999
 20
197.0
 30
0.0
 11
-45.49999999999999
 21
30.11877347664949
 31
0.0
  0
ARC
  5
1B4
330
1A1
100
AcDbEntity
  8
0
100
AcDbCircle
 10
-40.49999999999999
 20
197.0
 30
0.0
 40
5.0
100
AcDbArc
 50
90.0
 51
180.0
  0
ARC
  5
1B5
330
1A1
100
AcDbEntity
  8
0
100
AcDbCircle
 10
40.50000000000022
 20
197.0
 30
0.0
 40
5.0
100
AcDbArc
 50
0.0
 51
90.0
  0
LINE
  5
1B6
330
1A1
100
AcDbEntity
  8
0
100
AcDbLine
 10
45.50000000000022
 20
197.0
 30
0.0
 11
45.49999999999999
 21
30.11877347664995
 31
0.0
  0
ARC
  5
1B7
330
1A1
100
AcDbEntity
  8
0
100
AcDbCircle
 10
40.49999999999999
 20
30.11877347664995
 30
0.0
 40
5.0
100
AcDbArc
 50
279.999999999991
 51
0.0
  0
LINE
  5
1B8
330
1A1
100
AcDbEntity
  8
0
100
AcDbLine
 10
-41.36824088833395
 20
25.19473471158836
 30
0.0
 11
-13.25000000000114
 21
22.0
 31
0.0
  0
ARC
  5
1B9
330
1A1
100
AcDbEntity
  8
0
100
AcDbCircle
 10
-40.49999999999999
 20
30.11877347664949
 30
0.0
 40
5.0
100
AcDbArc
 50
180.0
 51
260.000000000009
  0
LINE
  5
1BA
330
1A1
100
AcDbEntity
  8
0
100
AcDbLine
 10
41.36824088833395
 20
25.19473471158881
 30
0.0
 11
13.25000000000023
 21
22.0
 31
0.0
  0
LINE
  5
1BB
330
1A1
100
AcDbEntity
  8
0
100
AcDbLine
 10
-40.49999999999999
 20
202.0
 30
0.0
 11
40.50000000000022
 21
202.0000000000002
 31
0.0
  0
ENDBLK
  5
1BC
330
1A1
100
AcDbEntity
  8
0
100
AcDbBlockEnd
  0
BLOCK
  5
185
330
184
100
AcDbEntity
  8
0
100
AcDbBlockBegin
  2
Seifenflasche_500ml_S
 70
     0
 10
0.0
 20
0.0
 30
0.0
  3
Seifenflasche_500ml_S
  1

  0
LINE
  5
186
330
184
100
AcDbEntity
  8
0
100
AcDbLine
 10
37.0
 20
159.0
 30
0.0
 11
37.00000000000023
 21
30.34346453353123
 31
0.0
  0
LINE
  5
187
330
184
100
AcDbEntity
  8
0
100
AcDbLine
 10
-10.5
 20
0.0
 30
0.0
 11
-10.5
 21
-11.50000000000023
 31
0.0
  0
LINE
  5
188
330
184
100
AcDbEntity
  8
0
100
AcDbLine
 10
10.5
 20
0.0000000000002274
 30
0.0
 11
10.5
 21
-11.5
 31
0.0
  0
LINE
  5
189
330
184
100
AcDbEntity
  8
0
100
AcDbLine
 10
-14.5
 20
14.99999999999977
 30
0.0
 11
-14.5
 21
-0.0000000000002274
 31
0.0
  0
LINE
  5
18A
330
184
100
AcDbEntity
  8
0
100
AcDbLine
 10
14.50000000000023
 20
14.99999999999977
 30
0.0
 11
14.50000000000023
 21
0.0
 31
0.0
  0
LINE
  5
18B
330
184
100
AcDbEntity
  8
0
100
AcDbLine
 10
-11.5
 20
22.0
 30
0.0
 11
-11.49999999999977
 21
18.0
 31
0.0
  0
LINE
  5
18C
330
184
100
AcDbEntity
  8
0
100
AcDbLine
 10
11.50000000000023
 20
22.0
 30
0.0
 11
11.50000000000023
 21
18.0
 31
0.0
  0
LINE
  5
18D
330
184
100
AcDbEntity
  8
0
100
AcDbLine
 10
-13.24999999999977
 20
17.99999999999977
 30
0.0
 11
-13.24999999999977
 21
15.99999999999977
 31
0.0
  0
LINE
  5
18E
330
184
100
AcDbEntity
  8
0
100
AcDbLine
 10
13.25000000000023
 20
17.99999999999977
 30
0.0
 11
13.25000000000023
 21
15.99999999999977
 31
0.0
  0
LINE
  5
18F
330
184
100
AcDbEntity
  8
0
100
AcDbLine
 10
-37.0
 20
159.0
 30
0.0
 11
-37.0
 21
30.34346453353146
 31
0.0
  0
ARC
  5
190
330
184
100
AcDbEntity
  8
0
100
AcDbCircle
 10
-32.0
 20
30.34346453353146
 30
0.0
 40
5.0
100
AcDbArc
 50
180.0
 51
262.9557985512313
  0
ARC
  5
191
330
184
100
AcDbEntity
  8
0
100
AcDbCircle
 10
-32.0
 20
159.0
 30
0.0
 40
5.0
100
AcDbArc
 50
90.0
 51
180.0
  0
LINE
  5
192
330
184
100
AcDbEntity
  8
0
100
AcDbLine
 10
32.0
 20
164.0
 30
0.0
 11
-32.0
 21
164.0
 31
0.0
  0
ARC
  5
193
330
184
100
AcDbEntity
  8
0
100
AcDbCircle
 10
32.0
 20
159.0
 30
0.0
 40
5.0
100
AcDbArc
 50
0.0
 51
90.0
  0
LINE
  5
194
330
184
100
AcDbEntity
  8
0
100
AcDbLine
 10
13.25000000000023
 20
22.0
 30
0.0
 11
-13.25000000000114
 21
22.0
 31
0.0
  0
LINE
  5
195
330
184
100
AcDbEntity
  8
0
100
AcDbLine
 10
13.25000000000023
 20
15.99999999999977
 30
0.0
 11
-13.24999999999977
 21
15.99999999999977
 31
0.0
  0
LINE
  5
196
330
184
100
AcDbEntity
  8
0
100
AcDbLine
 10
14.50000000000023
 20
14.99999999999977
 30
0.0
 11
-14.5
 21
14.99999999999977
 31
0.0
  0
LINE
  5
197
330
184
100
AcDbEntity
  8
0
100
AcDbLine
 10
14.50000000000023
 20
0.0
 30
0.0
 11
-14.5
 21
-0.0000000000002274
 31
0.0
  0
LINE
  5
198
330
184
100
AcDbEntity
  8
0
100
AcDbLine
 10
10.5
 20
-11.5
 30
0.0
 11
-10.5
 21
-11.50000000000023
 31
0.0
  0
LINE
  5
199
330
184
100
AcDbEntity
  8
0
100
AcDbLine
 10
13.25000000000023
 20
17.99999999999977
 30
0.0
 11
-13.24999999999977
 21
17.99999999999977
 31
0.0
  0
LINE
  5
19A
330
184
100
AcDbEntity
  8
0
100
AcDbLine
 10
32.61317508763545
 20
25.38120533918209
 30
0.0
 11
13.25
 21
22.0
 31
0.0
  0
ARC
  5
19B
330
184
100
AcDbEntity
  8
0
100
AcDbCircle
 10
32.00000000000023
 20
30.34346453353123
 30
0.0
 40
5.0
100
AcDbArc
 50
277.0442014487688
 51
0.0
  0
LINE
  5
19C
330
184
100
AcDbEntity
  8
0
100
AcDbLine
 10
-32.61317508763523
 20
25.38120533918232
 30
0.0
 11
-13.25000000000114
 21
22.0
 31
0.0
  0
LINE
  5
19D
330
184
100
AcDbEntity
  8
0
100
AcDbLine
 10
-11.49999999999977
 20
14.99999999999977
 30
0.0
 11
-11.49999999999977
 21
15.99999999999954
 31
0.0
  0
LINE
  5
19E
330
184
100
AcDbEntity
  8
0
100
AcDbLine
 10
11.50000000000023
 20
14.99999999999977
 30
0.0
 11
11.50000000000023
 21
15.99999999999954
 31
0.0
  0
ENDBLK
  5
19F
330
184
100
AcDbEntity
  8
0
100
AcDbBlockEnd
  0
BLOCK
  5
16E
330
16D
100
AcDbEntity
  8
0
100
AcDbBlockBegin
  2
Seifenflasche_500ml_D
 70
     0
 10
0.0
 20
0.0
 30
0.0
  3
Seifenflasche_500ml_D
  1

  0
LINE
  5
16F
330
16D
100
AcDbEntity
  8
0
100
AcDbLine
 10
-29.0
 20
32.00000000000045
 30
0.0
 11
-29.0
 21
-32.00000000000023
 31
0.0
  0
LINE
  5
170
330
16D
100
AcDbEntity
  8
05-01
100
AcDbLine
 10
0.0
 20
16.5
 30
0.0
 11
0.0
 21
-16.5
 31
0.0
  0
LINE
  5
171
330
16D
100
AcDbEntity
  8
05-01
100
AcDbLine
 10
29.0
 20
16.5
 30
0.0
 11
29.0
 21
-16.5
 31
0.0
  0
ARC
  5
172
330
16D
100
AcDbEntity
  8
0
100
AcDbCircle
 10
-24.0
 20
-32.00000000000023
 30
0.0
 40
5.0
100
AcDbArc
 50
180.0
 51
270.0
  0
ARC
  5
173
330
16D
100
AcDbEntity
  8
0
100
AcDbCircle
 10
-24.0
 20
32.00000000000045
 30
0.0
 40
5.0
100
AcDbArc
 50
90.0
 51
180.0
  0
LINE
  5
174
330
16D
100
AcDbEntity
  8
0
100
AcDbLine
 10
17.00000000000409
 20
32.00000000000045
 30
0.0
 11
17.00000000000386
 21
-32.0
 31
0.0
  0
ARC
  5
175
330
16D
100
AcDbEntity
  8
0
100
AcDbCircle
 10
12.00000000000386
 20
32.00000000000045
 30
0.0
 40
5.0
100
AcDbArc
 50
0.0
 51
90.0
  0
LINE
  5
176
330
16D
100
AcDbEntity
  8
0
100
AcDbLine
 10
29.00000000000023
 20
32.00000000000045
 30
0.0
 11
29.0
 21
-32.0
 31
0.0
  0
ARC
  5
177
330
16D
100
AcDbEntity
  8
0
100
AcDbCircle
 10
24.0
 20
32.00000000000045
 30
0.0
 40
5.0
100
AcDbArc
 50
0.0
 51
90.0
  0
LINE
  5
178
330
16D
100
AcDbEntity
  8
05-01
100
AcDbLine
 10
-16.5
 20
0.0
 30
0.0
 11
16.5
 21
0.0
 31
0.0
  0
LINE
  5
179
330
16D
100
AcDbEntity
  8
05-01
100
AcDbLine
 10
-16.5
 20
-37.0
 30
0.0
 11
16.5
 21
-37.0
 31
0.0
  0
LINE
  5
17A
330
16D
100
AcDbEntity
  8
05-01
100
AcDbLine
 10
-16.5
 20
37.0
 30
0.0
 11
16.5
 21
37.0
 31
0.0
  0
LINE
  5
17B
330
16D
100
AcDbEntity
  8
0
100
AcDbLine
 10
-24.0
 20
-37.00000000000023
 30
0.0
 11
24.0
 21
-37.0
 31
0.0
  0
ARC
  5
17C
330
16D
100
AcDbEntity
  8
0
100
AcDbCircle
 10
12.00000000000386
 20
-32.00000000000045
 30
0.0
 40
5.0
100
AcDbArc
 50
270.0
 51
0.0
  0
ARC
  5
17D
330
16D
100
AcDbEntity
  8
0
100
AcDbCircle
 10
24.0
 20
-32.0
 30
0.0
 40
5.0
100
AcDbArc
 50
270.0
 51
0.0
  0
LINE
  5
17E
330
16D
100
AcDbEntity
  8
0
100
AcDbLine
 10
-24.0
 20
36.99999999999955
 30
0.0
 11
24.0
 21
37.00000000000045
 31
0.0
  0
CIRCLE
  5
17F
330
16D
100
AcDbEntity
  8
03-01
100
AcDbCircle
 10
0.0
 20
0.0
 30
0.0
 40
11.5
  0
CIRCLE
  5
180
330
16D
100
AcDbEntity
  8
03-01
100
AcDbCircle
 10
0.0
 20
0.0
 30
0.0
 40
14.5
  0
CIRCLE
  5
181
330
16D
100
AcDbEntity
  8
03-01
100
AcDbCircle
 10
0.0
 20
0.0
 30
0.0
 40
10.5
  0
ENDBLK
  5
182
330
16D
100
AcDbEntity
  8
0
100
AcDbBlockEnd
  0
BLOCK
  5
158
330
157
100
AcDbEntity
  8
0
100
AcDbBlockBegin
  2
Seifenflasche_950ml_D
 70
     0
 10
0.0
 20
0.0
 30
0.0
  3
Seifenflasche_950ml_D
  1

  0
LINE
  5
159
330
157
100
AcDbEntity
  8
0
100
AcDbLine
 10
-34.5
 20
40.49999999999999
 30
0.0
 11
-34.5
 21
-40.49999999999999
 31
0.0
  0
LINE
  5
15A
330
157
100
AcDbEntity
  8
05-01
100
AcDbLine
 10
0.0
 20
16.5
 30
0.0
 11
0.0
 21
-16.5
 31
0.0
  0
ARC
  5
15B
330
157
100
AcDbEntity
  8
0
100
AcDbCircle
 10
-29.5
 20
-40.49999999999999
 30
0.0
 40
5.0
100
AcDbArc
 50
180.0
 51
270.0
  0
ARC
  5
15C
330
157
100
AcDbEntity
  8
0
100
AcDbCircle
 10
-29.5
 20
40.49999999999999
 30
0.0
 40
5.0
100
AcDbArc
 50
90.0
 51
180.0
  0
LINE
  5
15D
330
157
100
AcDbEntity
  8
0
100
AcDbLine
 10
23.5
 20
40.49999999999999
 30
0.0
 11
23.5
 21
-40.49999999999977
 31
0.0
  0
ARC
  5
15E
330
157
100
AcDbEntity
  8
0
100
AcDbCircle
 10
18.5
 20
40.49999999999999
 30
0.0
 40
5.0
100
AcDbArc
 50
0.0
 51
90.0
  0
LINE
  5
15F
330
157
100
AcDbEntity
  8
0
100
AcDbLine
 10
34.49999999999636
 20
40.49999999999999
 30
0.0
 11
34.49999999999636
 21
-40.49999999999977
 31
0.0
  0
ARC
  5
160
330
157
100
AcDbEntity
  8
0
100
AcDbCircle
 10
29.49999999999636
 20
40.49999999999999
 30
0.0
 40
5.0
100
AcDbArc
 50
0.0
 51
90.0
  0
LINE
  5
161
330
157
100
AcDbEntity
  8
0
100
AcDbLine
 10
-29.5
 20
45.49999999999999
 30
0.0
 11
18.5
 21
45.49999999999999
 31
0.0
  0
LINE
  5
162
330
157
100
AcDbEntity
  8
0
100
AcDbLine
 10
-29.5
 20
-45.49999999999999
 30
0.0
 11
18.5
 21
-45.49999999999999
 31
0.0
  0
LINE
  5
163
330
157
100
AcDbEntity
  8
05-01
100
AcDbLine
 10
-16.5
 20
0.0
 30
0.0
 11
16.5
 21
0.0
 31
0.0
  0
LINE
  5
164
330
157
100
AcDbEntity
  8
0
100
AcDbLine
 10
-29.5
 20
-45.49999999999999
 30
0.0
 11
29.49999999999636
 21
-45.49999999999977
 31
0.0
  0
ARC
  5
165
330
157
100
AcDbEntity
  8
0
100
AcDbCircle
 10
18.5
 20
-40.49999999999977
 30
0.0
 40
5.0
100
AcDbArc
 50
270.0
 51
0.0
  0
ARC
  5
166
330
157
100
AcDbEntity
  8
0
100
AcDbCircle
 10
29.49999999999636
 20
-40.49999999999977
 30
0.0
 40
5.0
100
AcDbArc
 50
270.0
 51
0.0
  0
LINE
  5
167
330
157
100
AcDbEntity
  8
0
100
AcDbLine
 10
18.5
 20
45.49999999999999
 30
0.0
 11
29.49999999999636
 21
45.49999999999999
 31
0.0
  0
CIRCLE
  5
168
330
157
100
AcDbEntity
  8
03-01
100
AcDbCircle
 10
0.0
 20
0.0
 30
0.0
 40
11.5
  0
CIRCLE
  5
169
330
157
100
AcDbEntity
  8
03-01
100
AcDbCircle
 10
0.0
 20
0.0
 30
0.0
 40
14.5
  0
CIRCLE
  5
16A
330
157
100
AcDbEntity
  8
03-01
100
AcDbCircle
 10
0.0
 20
0.0
 30
0.0
 40
10.5
  0
ENDBLK
  5
16B
330
157
100
AcDbEntity
  8
0
100
AcDbBlockEnd
  0
BLOCK
  5
12A
330
129
100
AcDbEntity
  8
0
100
AcDbBlockBegin
  2
*D17
 70
     1
 10
0.0
 20
0.0
 30
0.0
  3
*D17
  1

  0
LINE
  5
12B
330
129
100
AcDbEntity
  8
09-01
 62
     4
440
 16777216
370
    -2
100
AcDbLine
 10
127.3081728409545
 20
220.7230564014552
 30
0.0
 11
127.3081728409545
 21
233.1997767468038
 31
0.0
  0
LINE
  5
12C
330
129
100
AcDbEntity
  8
09-01
 62
     4
440
 16777216
370
    -2
100
AcDbLine
 10
194.3081728409543
 20
220.7230564014552
 30
0.0
 11
194.3081728409543
 21
233.1997767468038
 31
0.0
  0
LINE
  5
12D
330
129
100
AcDbEntity
  8
09-01
 62
     4
440
 16777216
370
    -2
100
AcDbLine
 10
132.3081728409545
 20
231.1997767468038
 30
0.0
 11
189.3081728409543
 21
231.1997767468038
 31
0.0
  0
SOLID
  5
12E
330
129
100
AcDbEntity
  8
09-01
 62
     4
440
 16777216
100
AcDbTrace
 10
132.3081728409545
 20
232.0331100801371
 30
0.0
 11
132.3081728409545
 21
230.3664434134704
 31
0.0
 12
127.3081728409545
 22
231.1997767468038
 32
0.0
 13
127.3081728409545
 23
231.1997767468038
 33
0.0
  0
SOLID
  5
12F
330
129
100
AcDbEntity
  8
09-01
 62
     4
440
 16777216
100
AcDbTrace
 10
189.3081728409543
 20
232.0331100801371
 30
0.0
 11
189.3081728409543
 21
230.3664434134704
 31
0.0
 12
194.3081728409543
 22
231.1997767468038
 32
0.0
 13
194.3081728409543
 23
231.1997767468038
 33
0.0
  0
MTEXT
  5
130
330
129
100
AcDbEntity
  8
09-01
 62
     1
440
 16777216
100
AcDbMText
 10
160.8081728409544
 20
235.6997767468038
 30
0.0
 40
5.0
 41
0.0
 46
0.0
 71
     5
 72
     1
  1
67
 73
     1
 44
1.0
  0
POINT
  5
131
330
129
100
AcDbEntity
  8
DEFPOINTS
 62
     0
440
 16777216
100
AcDbPoint
 10
127.3081728409545
 20
218.7230564014552
 30
0.0
  0
POINT
  5
132
330
129
100
AcDbEntity
  8
DEFPOINTS
 62
     0
440
 16777216
100
AcDbPoint
 10
194.3081728409543
 20
218.7230564014552
 30
0.0
  0
POINT
  5
133
330
129
100
AcDbEntity
  8
DEFPOINTS
 62
     0
440
 16777216
100
AcDbPoint
 10
194.3081728409543
 20
231.1997767468038
 30
0.0
  0
ENDBLK
  5
134
330
129
100
AcDbEntity
  8
0
100
AcDbBlockEnd
  0
BLOCK
  5
ED
330
EC
100
AcDbEntity
  8
0
100
AcDbBlockBegin
  2
*D18
 70
     1
 10
0.0
 20
0.0
 30
0.0
  3
*D18
  1

  0
LINE
  5
EE
330
EC
100
AcDbEntity
  8
09-01
 62
     4
440
 16777216
370
    -2
100
AcDbLine
 10
125.3081728409545
 20
302.1326608571394
 30
0.0
 11
114.9756871115823
 21
302.1326608571394
 31
0.0
  0
LINE
  5
EF
330
EC
100
AcDbEntity
  8
09-01
 62
     4
440
 16777216
370
    -2
100
AcDbLine
 10
134.8542360360516
 20
522.6326690825799
 30
0.0
 11
114.9756871115823
 21
522.6326690825799
 31
0.0
  0
LINE
  5
F0
330
EC
100
AcDbEntity
  8
09-01
 62
     4
440
 16777216
370
    -2
100
AcDbLine
 10
116.9756871115823
 20
307.1326608571394
 30
0.0
 11
116.9756871115823
 21
517.6326690825799
 31
0.0
  0
SOLID
  5
F1
330
EC
100
AcDbEntity
  8
09-01
 62
     4
440
 16777216
100
AcDbTrace
 10
116.142353778249
 20
307.1326608571394
 30
0.0
 11
117.8090204449156
 21
307.1326608571394
 31
0.0
 12
116.9756871115823
 22
302.1326608571394
 32
0.0
 13
116.9756871115823
 23
302.1326608571394
 33
0.0
  0
SOLID
  5
F2
330
EC
100
AcDbEntity
  8
09-01
 62
     4
440
 16777216
100
AcDbTrace
 10
116.142353778249
 20
517.6326690825799
 30
0.0
 11
117.8090204449157
 21
517.6326690825799
 31
0.0
 12
116.9756871115823
 22
522.6326690825799
 32
0.0
 13
116.9756871115823
 23
522.6326690825799
 33
0.0
  0
MTEXT
  5
F3
330
EC
100
AcDbEntity
  8
09-01
 62
     1
440
 16777216
100
AcDbMText
 10
112.4756871115823
 20
412.3826649698596
 30
0.0
 40
5.0
 41
0.0
 46
0.0
 71
     5
 72
     1
  1
220.5
 11
0.0000000000000001
 21
1.0
 31
0.0
 73
     1
 44
1.0
  0
POINT
  5
F4
330
EC
100
AcDbEntity
  8
DEFPOINTS
 62
     0
440
 16777216
100
AcDbPoint
 10
127.3081728409545
 20
302.1326608571394
 30
0.0
  0
POINT
  5
F5
330
EC
100
AcDbEntity
  8
DEFPOINTS
 62
     0
440
 16777216
100
AcDbPoint
 10
136.8542360360516
 20
522.6326690825799
 30
0.0
  0
POINT
  5
F6
330
EC
100
AcDbEntity
  8
DEFPOINTS
 62
     0
440
 16777216
100
AcDbPoint
 10
116.9756871115823
 20
522.6326690825799
 30
0.0
  0
ENDBLK
  5
F7
330
EC
100
AcDbEntity
  8
0
100
AcDbBlockEnd
  0
BLOCK
  5
DE
330
DD
100
AcDbEntity
  8
0
100
AcDbBlockBegin
  2
*D19
 70
     1
 10
0.0
 20
0.0
 30
0.0
  3
*D19
  1

  0
LINE
  5
DF
330
DD
100
AcDbEntity
  8
09-01
 62
     4
440
 16777216
370
    -2
100
AcDbLine
 10
125.3081728409545
 20
302.1326608571394
 30
0.0
 11
103.1457768676445
 21
302.1326608571394
 31
0.0
  0
LINE
  5
E0
330
DD
100
AcDbEntity
  8
09-01
 62
     4
440
 16777216
370
    -2
100
AcDbLine
 10
129.3542360360515
 20
560.6326690825799
 30
0.0
 11
103.1457768676446
 21
560.6326690825799
 31
0.0
  0
LINE
  5
E1
330
DD
100
AcDbEntity
  8
09-01
 62
     4
440
 16777216
370
    -2
100
AcDbLine
 10
105.1457768676445
 20
307.1326608571394
 30
0.0
 11
105.1457768676446
 21
555.6326690825799
 31
0.0
  0
SOLID
  5
E2
330
DD
100
AcDbEntity
  8
09-01
 62
     4
440
 16777216
100
AcDbTrace
 10
104.3124435343112
 20
307.1326608571394
 30
0.0
 11
105.9791102009778
 21
307.1326608571394
 31
0.0
 12
105.1457768676445
 22
302.1326608571394
 32
0.0
 13
105.1457768676445
 23
302.1326608571394
 33
0.0
  0
SOLID
  5
E3
330
DD
100
AcDbEntity
  8
09-01
 62
     4
440
 16777216
100
AcDbTrace
 10
104.3124435343113
 20
555.6326690825799
 30
0.0
 11
105.9791102009779
 21
555.6326690825799
 31
0.0
 12
105.1457768676446
 22
560.6326690825799
 32
0.0
 13
105.1457768676446
 23
560.6326690825799
 33
0.0
  0
MTEXT
  5
E4
330
DD
100
AcDbEntity
  8
09-01
 62
     1
440
 16777216
100
AcDbMText
 10
100.6457768676445
 20
431.3826649698596
 30
0.0
 40
5.0
 41
0.0
 46
0.0
 71
     5
 72
     1
  1
258.5
 11
0.0000000000000001
 21
1.0
 31
0.0
 73
     1
 44
1.0
  0
POINT
  5
E5
330
DD
100
AcDbEntity
  8
DEFPOINTS
 62
     0
440
 16777216
100
AcDbPoint
 10
127.3081728409545
 20
302.1326608571394
 30
0.0
  0
POINT
  5
E6
330
DD
100
AcDbEntity
  8
DEFPOINTS
 62
     0
440
 16777216
100
AcDbPoint
 10
131.3542360360515
 20
560.6326690825799
 30
0.0
  0
POINT
  5
E7
330
DD
100
AcDbEntity
  8
DEFPOINTS
 62
     0
440
 16777216
100
AcDbPoint
 10
105.1457768676446
 20
560.6326690825799
 30
0.0
  0
ENDBLK
  5
E8
330
DD
100
AcDbEntity
  8
0
100
AcDbBlockEnd
  0
BLOCK
  5
CF
330
CE
100
AcDbEntity
  8
0
100
AcDbBlockBegin
  2
*D20
 70
     1
 10
0.0
 20
0.0
 30
0.0
  3
*D20
  1

  0
LINE
  5
D0
330
CE
100
AcDbEntity
  8
09-01
 62
     4
440
 16777216
370
    -2
100
AcDbLine
 10
125.3081728409545
 20
302.1326608571394
 30
0.0
 11
114.9756871115823
 21
302.1326608571394
 31
0.0
  0
LINE
  5
D1
330
CE
100
AcDbEntity
  8
09-01
 62
     4
440
 16777216
370
    -2
100
AcDbLine
 10
143.8542360360515
 20
259.123169156018
 30
0.0
 11
114.9756871115823
 21
259.123169156018
 31
0.0
  0
LINE
  5
D2
330
CE
100
AcDbEntity
  8
09-01
 62
     4
440
 16777216
370
    -2
100
AcDbLine
 10
116.9756871115823
 20
297.1326608571394
 30
0.0
 11
116.9756871115823
 21
264.1231691560181
 31
0.0
  0
SOLID
  5
D3
330
CE
100
AcDbEntity
  8
09-01
 62
     4
440
 16777216
100
AcDbTrace
 10
116.142353778249
 20
297.1326608571394
 30
0.0
 11
117.8090204449156
 21
297.1326608571394
 31
0.0
 12
116.9756871115823
 22
302.1326608571394
 32
0.0
 13
116.9756871115823
 23
302.1326608571394
 33
0.0
  0
SOLID
  5
D4
330
CE
100
AcDbEntity
  8
09-01
 62
     4
440
 16777216
100
AcDbTrace
 10
116.142353778249
 20
264.1231691560181
 30
0.0
 11
117.8090204449156
 21
264.1231691560181
 31
0.0
 12
116.9756871115823
 22
259.123169156018
 32
0.0
 13
116.9756871115823
 23
259.123169156018
 33
0.0
  0
MTEXT
  5
D5
330
CE
100
AcDbEntity
  8
09-01
 62
     1
440
 16777216
100
AcDbMText
 10
112.4756871115822
 20
280.6279150065787
 30
0.0
 40
5.0
 41
0.0
 46
0.0
 71
     5
 72
     1
  1
43
 11
0.0000000000000001
 21
1.0
 31
0.0
 73
     1
 44
1.0
  0
POINT
  5
D6
330
CE
100
AcDbEntity
  8
DEFPOINTS
 62
     0
440
 16777216
100
AcDbPoint
 10
127.3081728409545
 20
302.1326608571394
 30
0.0
  0
POINT
  5
D7
330
CE
100
AcDbEntity
  8
DEFPOINTS
 62
     0
440
 16777216
100
AcDbPoint
 10
145.8542360360515
 20
259.123169156018
 30
0.0
  0
POINT
  5
D8
330
CE
100
AcDbEntity
  8
DEFPOINTS
 62
     0
440
 16777216
100
AcDbPoint
 10
116.9756871115823
 20
259.123169156018
 30
0.0
  0
ENDBLK
  5
D9
330
CE
100
AcDbEntity
  8
0
100
AcDbBlockEnd
  0
BLOCK
  5
C0
330
BF
100
AcDbEntity
  8
0
100
AcDbBlockBegin
  2
*D21
 70
     1
 10
0.0
 20
0.0
 30
0.0
  3
*D21
  1

  0
LINE
  5
C1
330
BF
100
AcDbEntity
  8
09-01
 62
     4
440
 16777216
370
    -2
100
AcDbLine
 10
143.8906449202872
 20
259.123169156018
 30
0.0
 11
90.39022436999944
 21
259.123169156018
 31
0.0
  0
LINE
  5
C2
330
BF
100
AcDbEntity
  8
09-01
 62
     4
440
 16777216
370
    -2
100
AcDbLine
 10
134.8542360360516
 20
522.6326690825799
 30
0.0
 11
90.3902243699995
 21
522.6326690825799
 31
0.0
  0
LINE
  5
C3
330
BF
100
AcDbEntity
  8
09-01
 62
     4
440
 16777216
370
    -2
100
AcDbLine
 10
92.39022436999944
 20
264.1231691560181
 30
0.0
 11
92.39022436999951
 21
517.6326690825799
 31
0.0
  0
SOLID
  5
C4
330
BF
100
AcDbEntity
  8
09-01
 62
     4
440
 16777216
100
AcDbTrace
 10
91.55689103666611
 20
264.1231691560181
 30
0.0
 11
93.22355770333278
 21
264.1231691560181
 31
0.0
 12
92.39022436999944
 22
259.123169156018
 32
0.0
 13
92.39022436999944
 23
259.123169156018
 33
0.0
  0
SOLID
  5
C5
330
BF
100
AcDbEntity
  8
09-01
 62
     4
440
 16777216
100
AcDbTrace
 10
91.55689103666617
 20
517.6326690825799
 30
0.0
 11
93.22355770333283
 21
517.6326690825799
 31
0.0
 12
92.39022436999951
 22
522.6326690825799
 32
0.0
 13
92.39022436999951
 23
522.6326690825799
 33
0.0
  0
MTEXT
  5
C6
330
BF
100
AcDbEntity
  8
09-01
 62
     1
440
 16777216
100
AcDbMText
 10
87.89022436999941
 20
390.877919119299
 30
0.0
 40
5.0
 41
0.0
 46
0.0
 71
     5
 72
     1
  1
263.5
 11
0.0000000000000001
 21
1.0
 31
0.0
 73
     1
 44
1.0
  0
POINT
  5
C7
330
BF
100
AcDbEntity
  8
DEFPOINTS
 62
     0
440
 16777216
100
AcDbPoint
 10
145.8906449202872
 20
259.123169156018
 30
0.0
  0
POINT
  5
C8
330
BF
100
AcDbEntity
  8
DEFPOINTS
 62
     0
440
 16777216
100
AcDbPoint
 10
136.8542360360516
 20
522.6326690825799
 30
0.0
  0
POINT
  5
C9
330
BF
100
AcDbEntity
  8
DEFPOINTS
 62
     0
440
 16777216
100
AcDbPoint
 10
92.39022436999951
 20
522.6326690825799
 30
0.0
  0
ENDBLK
  5
CA
330
BF
100
AcDbEntity
  8
0
100
AcDbBlockEnd
  0
BLOCK
  5
B1
330
B0
100
AcDbEntity
  8
0
100
AcDbBlockBegin
  2
*D22
 70
     1
 10
0.0
 20
0.0
 30
0.0
  3
*D22
  1

  0
LINE
  5
B2
330
B0
100
AcDbEntity
  8
09-01
 62
     4
440
 16777216
370
    -2
100
AcDbLine
 10
143.8542360360515
 20
259.123169156018
 30
0.0
 11
77.532910009977
 21
259.123169156018
 31
0.0
  0
LINE
  5
B3
330
B0
100
AcDbEntity
  8
09-01
 62
     4
440
 16777216
370
    -2
100
AcDbLine
 10
129.3542360360515
 20
560.6326690825799
 30
0.0
 11
77.53291000997707
 21
560.6326690825799
 31
0.0
  0
LINE
  5
B4
330
B0
100
AcDbEntity
  8
09-01
 62
     4
440
 16777216
370
    -2
100
AcDbLine
 10
79.532910009977
 20
264.1231691560181
 30
0.0
 11
79.53291000997707
 21
555.6326690825799
 31
0.0
  0
SOLID
  5
B5
330
B0
100
AcDbEntity
  8
09-01
 62
     4
440
 16777216
100
AcDbTrace
 10
78.69957667664367
 20
264.1231691560181
 30
0.0
 11
80.36624334331033
 21
264.1231691560181
 31
0.0
 12
79.532910009977
 22
259.123169156018
 32
0.0
 13
79.532910009977
 23
259.123169156018
 33
0.0
  0
SOLID
  5
B6
330
B0
100
AcDbEntity
  8
09-01
 62
     4
440
 16777216
100
AcDbTrace
 10
78.69957667664374
 20
555.6326690825799
 30
0.0
 11
80.3662433433104
 21
555.6326690825799
 31
0.0
 12
79.53291000997707
 22
560.6326690825799
 32
0.0
 13
79.53291000997707
 23
560.6326690825799
 33
0.0
  0
MTEXT
  5
B7
330
B0
100
AcDbEntity
  8
09-01
 62
     1
440
 16777216
100
AcDbMText
 10
75.03291000997697
 20
409.8779191192989
 30
0.0
 40
5.0
 41
0.0
 46
0.0
 71
     5
 72
     1
  1
301.5
 11
0.0000000000000001
 21
1.0
 31
0.0
 73
     1
 44
1.0
  0
POINT
  5
B8
330
B0
100
AcDbEntity
  8
DEFPOINTS
 62
     0
440
 16777216
100
AcDbPoint
 10
145.8542360360515
 20
259.123169156018
 30
0.0
  0
POINT
  5
B9
330
B0
100
AcDbEntity
  8
DEFPOINTS
 62
     0
440
 16777216
100
AcDbPoint
 10
131.3542360360515
 20
560.6326690825799
 30
0.0
  0
POINT
  5
BA
330
B0
100
AcDbEntity
  8
DEFPOINTS
 62
     0
440
 16777216
100
AcDbPoint
 10
79.53291000997707
 20
560.6326690825799
 30
0.0
  0
ENDBLK
  5
BB
330
B0
100
AcDbEntity
  8
0
100
AcDbBlockEnd
  0
BLOCK
  5
9D
330
9C
100
AcDbEntity
  8
0
100
AcDbBlockBegin
  2
*D23
 70
     1
 10
0.0
 20
0.0
 30
0.0
  3
*D23
  1

  0
LINE
  5
9E
330
9C
100
AcDbEntity
  8
09-01
 62
     4
440
 16777216
370
    -2
100
AcDbLine
 10
131.8542360360516
 20
474.8851225113003
 30
0.0
 11
131.8542360360516
 21
475.9447493525385
 31
0.0
  0
LINE
  5
9F
330
9C
100
AcDbEntity
  8
09-01
 62
     4
440
 16777216
370
    -2
100
AcDbLine
 10
189.8542360360515
 20
474.1787024078039
 30
0.0
 11
189.8542360360515
 21
475.9447493525385
 31
0.0
  0
LINE
  5
A0
330
9C
100
AcDbEntity
  8
09-01
 62
     4
440
 16777216
370
    -2
100
AcDbLine
 10
136.8542360360516
 20
473.9447493525386
 30
0.0
 11
184.8542360360516
 21
473.9447493525386
 31
0.0
  0
SOLID
  5
A1
330
9C
100
AcDbEntity
  8
09-01
 62
     4
440
 16777216
100
AcDbTrace
 10
136.8542360360516
 20
474.7780826858718
 30
0.0
 11
136.8542360360516
 21
473.1114160192052
 31
0.0
 12
131.8542360360516
 22
473.9447493525386
 32
0.0
 13
131.8542360360516
 23
473.9447493525386
 33
0.0
  0
SOLID
  5
A2
330
9C
100
AcDbEntity
  8
09-01
 62
     4
440
 16777216
100
AcDbTrace
 10
184.8542360360516
 20
474.7780826858718
 30
0.0
 11
184.8542360360516
 21
473.1114160192052
 31
0.0
 12
189.8542360360515
 22
473.9447493525386
 32
0.0
 13
189.8542360360515
 23
473.9447493525386
 33
0.0
  0
MTEXT
  5
A3
330
9C
100
AcDbEntity
  8
09-01
 62
     1
440
 16777216
100
AcDbMText
 10
160.8542360360516
 20
478.4447493525386
 30
0.0
 40
5.0
 41
0.0
 46
0.0
 71
     5
 72
     1
  1
58
 73
     1
 44
1.0
  0
POINT
  5
A4
330
9C
100
AcDbEntity
  8
DEFPOINTS
 62
     0
440
 16777216
100
AcDbPoint
 10
131.8542360360516
 20
472.8851225113003
 30
0.0
  0
POINT
  5
A5
330
9C
100
AcDbEntity
  8
DEFPOINTS
 62
     0
440
 16777216
100
AcDbPoint
 10
189.8542360360515
 20
472.1787024078039
 30
0.0
  0
POINT
  5
A6
330
9C
100
AcDbEntity
  8
DEFPOINTS
 62
     0
440
 16777216
100
AcDbPoint
 10
189.8542360360515
 20
473.9447493525386
 30
0.0
  0
ENDBLK
  5
A7
330
9C
100
AcDbEntity
  8
0
100
AcDbBlockEnd
  0
BLOCK
  5
8E
330
8D
100
AcDbEntity
  8
0
100
AcDbBlockBegin
  2
*D24
 70
     1
 10
0.0
 20
0.0
 30
0.0
  3
*D24
  1

  0
LINE
  5
8F
330
8D
100
AcDbEntity
  8
09-01
 62
     4
440
 16777216
370
    -2
100
AcDbLine
 10
254.5331323502282
 20
523.961894684121
 30
0.0
 11
254.5331323502282
 21
523.8817338714272
 31
0.0
  0
LINE
  5
90
330
8D
100
AcDbEntity
  8
09-01
 62
     4
440
 16777216
370
    -2
100
AcDbLine
 10
345.5331323502284
 20
523.9618946841209
 30
0.0
 11
345.5331323502284
 21
523.8817338714272
 31
0.0
  0
LINE
  5
91
330
8D
100
AcDbEntity
  8
09-01
 62
     4
440
 16777216
370
    -2
100
AcDbLine
 10
259.5331323502283
 20
525.8817338714273
 30
0.0
 11
340.5331323502284
 21
525.8817338714273
 31
0.0
  0
SOLID
  5
92
330
8D
100
AcDbEntity
  8
09-01
 62
     4
440
 16777216
100
AcDbTrace
 10
259.5331323502283
 20
526.7150672047606
 30
0.0
 11
259.5331323502283
 21
525.0484005380939
 31
0.0
 12
254.5331323502282
 22
525.8817338714273
 32
0.0
 13
254.5331323502282
 23
525.8817338714273
 33
0.0
  0
SOLID
  5
93
330
8D
100
AcDbEntity
  8
09-01
 62
     4
440
 16777216
100
AcDbTrace
 10
340.5331323502284
 20
526.7150672047606
 30
0.0
 11
340.5331323502284
 21
525.0484005380939
 31
0.0
 12
345.5331323502284
 22
525.8817338714273
 32
0.0
 13
345.5331323502284
 23
525.8817338714273
 33
0.0
  0
MTEXT
  5
94
330
8D
100
AcDbEntity
  8
09-01
 62
     1
440
 16777216
100
AcDbMText
 10
300.0331323502284
 20
530.3817338714273
 30
0.0
 40
5.0
 41
0.0
 46
0.0
 71
     5
 72
     1
  1
91
 73
     1
 44
1.0
  0
POINT
  5
95
330
8D
100
AcDbEntity
  8
DEFPOINTS
 62
     0
440
 16777216
100
AcDbPoint
 10
254.5331323502282
 20
525.961894684121
 30
0.0
  0
POINT
  5
96
330
8D
100
AcDbEntity
  8
DEFPOINTS
 62
     0
440
 16777216
100
AcDbPoint
 10
345.5331323502284
 20
525.9618946841209
 30
0.0
  0
POINT
  5
97
330
8D
100
AcDbEntity
  8
DEFPOINTS
 62
     0
440
 16777216
100
AcDbPoint
 10
345.5331323502284
 20
525.8817338714273
 30
0.0
  0
ENDBLK
  5
98
330
8D
100
AcDbEntity
  8
0
100
AcDbBlockEnd
  0
BLOCK
  5
7F
330
7E
100
AcDbEntity
  8
0
100
AcDbBlockBegin
  2
*D25
 70
     1
 10
0.0
 20
0.0
 30
0.0
  3
*D25
  1

  0
LINE
  5
80
330
7E
100
AcDbEntity
  8
09-01
 62
     4
440
 16777216
370
    -2
100
AcDbLine
 10
263.0331323502282
 20
475.7655544311346
 30
0.0
 11
263.0331323502282
 21
476.1787024078039
 31
0.0
  0
LINE
  5
81
330
7E
100
AcDbEntity
  8
09-01
 62
     4
440
 16777216
370
    -2
100
AcDbLine
 10
337.0331323502283
 20
475.4546675474085
 30
0.0
 11
337.0331323502283
 21
476.1787024078039
 31
0.0
  0
LINE
  5
82
330
7E
100
AcDbEntity
  8
09-01
 62
     4
440
 16777216
370
    -2
100
AcDbLine
 10
268.0331323502282
 20
474.1787024078039
 30
0.0
 11
332.0331323502283
 21
474.1787024078039
 31
0.0
  0
SOLID
  5
83
330
7E
100
AcDbEntity
  8
09-01
 62
     4
440
 16777216
100
AcDbTrace
 10
268.0331323502282
 20
475.0120357411372
 30
0.0
 11
268.0331323502282
 21
473.3453690744706
 31
0.0
 12
263.0331323502282
 22
474.1787024078039
 32
0.0
 13
263.0331323502282
 23
474.1787024078039
 33
0.0
  0
SOLID
  5
84
330
7E
100
AcDbEntity
  8
09-01
 62
     4
440
 16777216
100
AcDbTrace
 10
332.0331323502283
 20
475.0120357411372
 30
0.0
 11
332.0331323502283
 21
473.3453690744706
 31
0.0
 12
337.0331323502283
 22
474.1787024078039
 32
0.0
 13
337.0331323502283
 23
474.1787024078039
 33
0.0
  0
MTEXT
  5
85
330
7E
100
AcDbEntity
  8
09-01
 62
     1
440
 16777216
100
AcDbMText
 10
300.0331323502282
 20
478.6787024078039
 30
0.0
 40
5.0
 41
0.0
 46
0.0
 71
     5
 72
     1
  1
74
 73
     1
 44
1.0
  0
POINT
  5
86
330
7E
100
AcDbEntity
  8
DEFPOINTS
 62
     0
440
 16777216
100
AcDbPoint
 10
263.0331323502282
 20
473.7655544311346
 30
0.0
  0
POINT
  5
87
330
7E
100
AcDbEntity
  8
DEFPOINTS
 62
     0
440
 16777216
100
AcDbPoint
 10
337.0331323502283
 20
473.4546675474084
 30
0.0
  0
POINT
  5
88
330
7E
100
AcDbEntity
  8
DEFPOINTS
 62
     0
440
 16777216
100
AcDbPoint
 10
337.0331323502283
 20
474.1787024078039
 30
0.0
  0
ENDBLK
  5
89
330
7E
100
AcDbEntity
  8
0
100
AcDbBlockEnd
  0
BLOCK
  5
6E
330
6D
100
AcDbEntity
  8
0
100
AcDbBlockBegin
  2
*D26
 70
     1
 10
0.0
 20
0.0
 30
0.0
  3
*D26
  1

  0
LINE
  5
6F
330
6D
100
AcDbEntity
  8
09-01
 62
     4
440
 16777216
370
    -2
100
AcDbLine
 10
248.9370692551074
 20
300.1326608571394
 30
0.0
 11
248.9370692551074
 21
218.6150013065208
 31
0.0
  0
LINE
  5
70
330
6D
100
AcDbEntity
  8
09-01
 62
     4
440
 16777216
370
    -2
100
AcDbLine
 10
337.0331323502285
 20
386.9761336161116
 30
0.0
 11
337.0331323502285
 21
218.6150013065208
 31
0.0
  0
LINE
  5
71
330
6D
100
AcDbEntity
  8
09-01
 62
     4
440
 16777216
370
    -2
100
AcDbLine
 10
253.9370692551074
 20
220.6150013065208
 30
0.0
 11
332.0331323502285
 21
220.6150013065208
 31
0.0
  0
SOLID
  5
72
330
6D
100
AcDbEntity
  8
09-01
 62
     4
440
 16777216
100
AcDbTrace
 10
253.9370692551074
 20
221.4483346398541
 30
0.0
 11
253.9370692551074
 21
219.7816679731874
 31
0.0
 12
248.9370692551074
 22
220.6150013065208
 32
0.0
 13
248.9370692551074
 23
220.6150013065208
 33
0.0
  0
SOLID
  5
73
330
6D
100
AcDbEntity
  8
09-01
 62
     4
440
 16777216
100
AcDbTrace
 10
332.0331323502285
 20
221.4483346398541
 30
0.0
 11
332.0331323502285
 21
219.7816679731874
 31
0.0
 12
337.0331323502285
 22
220.6150013065208
 32
0.0
 13
337.0331323502285
 23
220.6150013065208
 33
0.0
  0
MTEXT
  5
74
330
6D
100
AcDbEntity
  8
09-01
 62
     1
440
 16777216
100
AcDbMText
 10
292.9851008026679
 20
225.1150013065208
 30
0.0
 40
5.0
 41
0.0
 46
0.0
 71
     5
 72
     1
  1
88.1
 73
     1
 44
1.0
  0
POINT
  5
75
330
6D
100
AcDbEntity
  8
DEFPOINTS
 62
     0
440
 16777216
100
AcDbPoint
 10
248.9370692551074
 20
302.1326608571394
 30
0.0
  0
POINT
  5
77
330
6D
100
AcDbEntity
  8
DEFPOINTS
 62
     0
440
 16777216
100
AcDbPoint
 10
337.0331323502285
 20
388.9761336161116
 30
0.0
  0
POINT
  5
78
330
6D
100
AcDbEntity
  8
DEFPOINTS
 62
     0
440
 16777216
100
AcDbPoint
 10
337.0331323502285
 20
220.6150013065208
 30
0.0
  0
ENDBLK
  5
79
330
6D
100
AcDbEntity
  8
0
100
AcDbBlockEnd
  0
ENDSEC
  0
SECTION
  2
ENTITIES
  0
DIMENSION
  5
6A
102
{ACAD_XDICTIONARY
360
6B
102
}
102
{ACAD_REACTORS
330
6C
102
}
330
2
100
AcDbEntity
  8
09-01
100
AcDbDimension
280
     0
  2
*D26
 10
337.0331323502285
 20
220.6150013065208
 30
0.0
 11
292.9851008026679
 21
225.1150013065208
 31
0.0
 71
     5
 42
88.09606309512105
 73
     0
 74
     0
 75
     0
  3
Wagner$0
100
AcDbAlignedDimension
 13
248.9370692551074
 23
302.1326608571394
 33
0.0
 14
337.0331323502285
 24
388.9761336161116
 34
0.0
100
AcDbRotatedDimension
1001
ACAD
1000
DSTYLE
1002
{
1070
   271
1070
     1
1070
    40
1040
2.0
1002
}
  0
DIMENSION
  5
7B
102
{ACAD_XDICTIONARY
360
7C
102
}
102
{ACAD_REACTORS
330
7D
102
}
330
2
100
AcDbEntity
  8
09-01
100
AcDbDimension
280
     0
  2
*D25
 10
337.0331323502283
 20
474.1787024078039
 30
0.0
 11
300.0331323502282
 21
478.6787024078039
 31
0.0
 71
     5
 42
74.00000000000005
 73
     0
 74
     0
 75
     0
  3
Wagner$0
100
AcDbAlignedDimension
 13
263.0331323502282
 23
473.7655544311346
 33
0.0
 14
337.0331323502283
 24
473.4546675474084
 34
0.0
100
AcDbRotatedDimension
1001
ACAD
1000
DSTYLE
1002
{
1070
    40
1040
2.0
1002
}
  0
DIMENSION
  5
8A
102
{ACAD_XDICTIONARY
360
8B
102
}
102
{ACAD_REACTORS
330
8C
102
}
330
2
100
AcDbEntity
  8
09-01
100
AcDbDimension
280
     0
  2
*D24
 10
345.5331323502284
 20
525.8817338714273
 30
0.0
 11
300.0331323502284
 21
530.3817338714273
 31
0.0
 71
     5
 42
91.00000000000017
 73
     0
 74
     0
 75
     0
  3
Wagner$0
100
AcDbAlignedDimension
 13
254.5331323502282
 23
525.961894684121
 33
0.0
 14
345.5331323502284
 24
525.9618946841209
 34
0.0
100
AcDbRotatedDimension
1001
ACAD
1000
DSTYLE
1002
{
1070
    40
1040
2.0
1002
}
  0
DIMENSION
  5
99
102
{ACAD_XDICTIONARY
360
9A
102
}
102
{ACAD_REACTORS
330
9B
102
}
330
2
100
AcDbEntity
  8
09-01
100
AcDbDimension
280
     0
  2
*D23
 10
189.8542360360515
 20
473.9447493525386
 30
0.0
 11
160.8542360360516
 21
478.4447493525386
 31
0.0
 71
     5
 42
58.0
 73
     0
 74
     0
 75
     0
  3
Wagner$0
100
AcDbAlignedDimension
 13
131.8542360360516
 23
472.8851225113003
 33
0.0
 14
189.8542360360515
 24
472.1787024078039
 34
0.0
100
AcDbRotatedDimension
1001
ACAD
1000
DSTYLE
1002
{
1070
    40
1040
2.0
1002
}
  0
TEXT
  5
A8
330
2
100
AcDbEntity
  8
02-01
100
AcDbText
 10
143.5424048018178
 20
550.9689413723897
 30
0.0
 40
5.0
  1
950 ml
100
AcDbText
  0
TEXT
  5
AC
330
2
100
AcDbEntity
  8
02-01
100
AcDbText
 10
143.5424048018178
 20
512.9287450186136
 30
0.0
 40
5.0
  1
500 ml
100
AcDbText
  0
DIMENSION
  5
AD
102
{ACAD_XDICTIONARY
360
AE
102
}
102
{ACAD_REACTORS
330
AF
102
}
330
2
100
AcDbEntity
  8
09-01
100
AcDbDimension
280
     0
  2
*D22
 10
79.53291000997707
 20
560.6326690825799
 30
0.0
 11
75.03291000997697
 21
409.8779191192989
 31
0.0
 71
     5
 42
301.5094999265619
 73
     0
 74
     0
 75
     0
  3
Wagner$0
100
AcDbAlignedDimension
 13
145.8542360360515
 23
259.123169156018
 33
0.0
 14
131.3542360360515
 24
560.6326690825799
 34
0.0
 50
90.0
100
AcDbRotatedDimension
1001
ACAD
1000
DSTYLE
1002
{
1070
   271
1070
     1
1070
    40
1040
2.0
1002
}
  0
DIMENSION
  5
BC
102
{ACAD_XDICTIONARY
360
BD
102
}
102
{ACAD_REACTORS
330
BE
102
}
330
2
100
AcDbEntity
  8
09-01
100
AcDbDimension
280
     0
  2
*D21
 10
92.39022436999951
 20
522.6326690825799
 30
0.0
 11
87.89022436999941
 21
390.877919119299
 31
0.0
 71
     5
 42
263.5094999265619
 73
     0
 74
     0
 75
     0
  3
Wagner$0
100
AcDbAlignedDimension
 13
145.8906449202872
 23
259.123169156018
 33
0.0
 14
136.8542360360516
 24
522.6326690825799
 34
0.0
 50
90.0
100
AcDbRotatedDimension
1001
ACAD
1000
DSTYLE
1002
{
1070
   271
1070
     1
1070
    40
1040
2.0
1002
}
  0
DIMENSION
  5
CB
102
{ACAD_XDICTIONARY
360
CC
102
}
102
{ACAD_REACTORS
330
CD
102
}
330
2
100
AcDbEntity
  8
09-01
100
AcDbDimension
280
     0
  2
*D20
 10
116.9756871115823
 20
259.123169156018
 30
0.0
 11
112.4756871115822
 21
280.6279150065787
 31
0.0
 71
     5
 42
43.00949170112136
 73
     0
 74
     0
 75
     0
  3
Wagner$0
100
AcDbAlignedDimension
 13
127.3081728409545
 23
302.1326608571394
 33
0.0
 14
145.8542360360515
 24
259.123169156018
 34
0.0
 50
90.0
100
AcDbRotatedDimension
1001
ACAD
1000
DSTYLE
1002
{
1070
   271
1070
     1
1070
    40
1040
2.0
1002
}
  0
DIMENSION
  5
DA
102
{ACAD_XDICTIONARY
360
DB
102
}
102
{ACAD_REACTORS
330
DC
102
}
330
2
100
AcDbEntity
  8
09-01
100
AcDbDimension
280
     0
  2
*D19
 10
105.1457768676446
 20
560.6326690825799
 30
0.0
 11
100.6457768676445
 21
431.3826649698596
 31
0.0
 71
     5
 42
258.5000082254405
 73
     0
 74
     0
 75
     0
  3
Wagner$0
100
AcDbAlignedDimension
 13
127.3081728409545
 23
302.1326608571394
 33
0.0
 14
131.3542360360515
 24
560.6326690825799
 34
0.0
 50
90.0
100
AcDbRotatedDimension
1001
ACAD
1000
DSTYLE
1002
{
1070
   271
1070
     1
1070
    40
1040
2.0
1002
}
  0
DIMENSION
  5
E9
102
{ACAD_XDICTIONARY
360
EA
102
}
102
{ACAD_REACTORS
330
EB
102
}
330
2
100
AcDbEntity
  8
09-01
100
AcDbDimension
280
     0
  2
*D18
 10
116.9756871115823
 20
522.6326690825799
 30
0.0
 11
112.4756871115823
 21
412.3826649698596
 31
0.0
 71
     5
 42
220.5000082254405
 73
     0
 74
     0
 75
     0
  3
Wagner$0
100
AcDbAlignedDimension
 13
127.3081728409545
 23
302.1326608571394
 33
0.0
 14
136.8542360360516
 24
522.6326690825799
 34
0.0
 50
90.0
100
AcDbRotatedDimension
1001
ACAD
1000
DSTYLE
1002
{
1070
   271
1070
     1
1070
    40
1040
2.0
1002
}
  0
INSERT
  5
F8
102
{ACAD_REACTORS
330
EB
330
BE
330
9B
102
}
330
2
100
AcDbEntity
  8
05-01
100
AcDbBlockReference
  2
Seifenflasche 500ml-01-v
 10
160.8542360360516
 20
358.6326690825799
 30
0.0
  0
LINE
  5
11F
330
2
100
AcDbEntity
  8
05-01
100
AcDbLine
 10
160.8081728409544
 20
411.3826668176034
 30
0.0
 11
160.8081728409544
 21
403.3826668176033
 31
0.0
  0
CIRCLE
  5
120
330
2
100
AcDbEntity
  8
03-01
100
AcDbCircle
 10
160.8081728409544
 20
407.3826668176034
 30
0.0
 40
3.0
  0
LINE
  5
125
330
2
100
AcDbEntity
  8
05-01
100
AcDbLine
 10
164.8081728409544
 20
407.3826668176034
 30
0.0
 11
156.8081728409544
 21
407.3826668176034
 31
0.0
  0
DIMENSION
  5
126
102
{ACAD_XDICTIONARY
360
127
102
}
102
{ACAD_REACTORS
330
128
102
}
330
2
100
AcDbEntity
  8
09-01
100
AcDbDimension
280
     0
  2
*D17
 10
194.3081728409543
 20
231.1997767468038
 30
0.0
 11
160.8081728409544
 21
235.6997767468038
 31
0.0
 71
     5
 42
66.99999999999977
 73
     0
 74
     0
 75
     0
  3
Wagner$0
100
AcDbAlignedDimension
 13
127.3081728409545
 23
218.7230564014552
 33
0.0
 14
194.3081728409543
 24
218.7230564014552
 34
0.0
100
AcDbRotatedDimension
1001
ACAD
1000
DSTYLE
1002
{
1070
    40
1040
2.0
1002
}
  0
INSERT
  5
135
102
{ACAD_REACTORS
330
DC
330
AF
102
}
330
2
100
AcDbEntity
  8
05-01
100
AcDbBlockReference
  2
Seifenflasche_950ml_V
 10
160.8542360360515
 20
358.6326690825799
 30
0.0
  0
INSERT
  5
156
330
2
100
AcDbEntity
  8
05-01
100
AcDbBlockReference
  2
Seifenflasche_950ml_D
 10
160.8081728409542
 20
167.7230564014553
 30
0.0
  0
INSERT
  5
16C
330
2
100
AcDbEntity
  8
05-01
100
AcDbBlockReference
  2
Seifenflasche_500ml_D
 10
160.8081728409542
 20
167.7230564014553
 30
0.0
  0
INSERT
  5
183
102
{ACAD_REACTORS
330
7D
330
6C
102
}
330
2
100
AcDbEntity
  8
05-01
100
AcDbBlockReference
  2
Seifenflasche_500ml_S
 10
300.0331323502282
 20
358.6326690825804
 30
0.0
  0
INSERT
  5
1A0
102
{ACAD_REACTORS
330
8C
102
}
330
2
100
AcDbEntity
  8
05-01
100
AcDbBlockReference
  2
Seifenflasche_950ml_S
 10
300.0331323502282
 20
358.6326690825799
 30
0.0
  0
DIMENSION
  5
1BD
330
2
100
AcDbEntity
  8
0
100
AcDbDimension
280
     0
  2
*D10
 10
195.3542360360515
 20
525.8817338714273
 30
0.0
 11
160.8542360360515
 21
530.3817338714273
 31
0.0
 71
     5
 42
69.0
 73
     0
 74
     0
 75
     0
  3
Wagner$0
100
AcDbAlignedDimension
 13
126.3542360360515
 23
543.2514364497531
 33
0.0
 14
195.3542360360515
 24
514.851436449753
 34
0.0
100
AcDbRotatedDimension
1001
ACAD
1000
DSTYLE
1002
{
1070
    40
1040
2.0
1002
}
  0
DIMENSION
  5
1CA
102
{ACAD_XDICTIONARY
360
1CB
102
}
102
{ACAD_REACTORS
330
1CC
102
}
330
2
100
AcDbEntity
  8
0
100
AcDbDimension
280
     0
  2
*D9
 10
142.7154462652653
 20
302.1326608571394
 30
0.0
 11
138.2154462652653
 21
316.5076638373716
 31
0.0
 71
     5
 42
28.75000596046425
 73
     0
 74
     0
 75
     0
  3
Wagner$0
100
AcDbAlignedDimension
 13
156.8081728409544
 23
330.8826668176036
 33
0.0
 14
147.8542360360515
 24
302.1326608571394
 34
0.0
 50
90.0
100
AcDbRotatedDimension
1001
ACAD
1000
DSTYLE
1002
{
1070
   271
1070
     1
1070
    40
1040
2.0
1002
}
  0
DIMENSION
  5
1D9
102
{ACAD_XDICTIONARY
360
1DA
102
}
102
{ACAD_REACTORS
330
1DB
102
}
330
2
100
AcDbEntity
  8
0
100
AcDbDimension
280
     0
  2
*D8
 10
321.1831323502284
 20
245.3727123124231
 30
0.0
 11
285.0601008026679
 21
249.8727123124231
 31
0.0
 71
     5
 42
72.24606309512097
 73
     0
 74
     0
 75
     0
  3
Wagner$0
100
AcDbAlignedDimension
 13
248.9370692551074
 23
302.1326608571394
 33
0.0
 14
321.1831323502284
 24
293.6971299371742
 34
0.0
100
AcDbRotatedDimension
1001
ACAD
1000
DSTYLE
1002
{
1070
   271
1070
     1
1070
    40
1040
2.0
1002
}
  0
LINE
  5
1E8
102
{ACAD_REACTORS
330
1DB
102
}
330
2
100
AcDbEntity
  8
05-01
100
AcDbLine
 10
321.1831323502284
 20
293.6971299371742
 30
0.0
 11
321.1831323502284
 21
305.5466989097479
 31
0.0
  0
DIMENSION
  5
1E9
330
2
100
AcDbEntity
  8
09-01
100
AcDbDimension
280
     0
  2
*D7
 10
177.0415777912732
 20
312.6326668176036
 30
0.0
 11
172.5415777912732
 21
323.1326668176037
 31
0.0
 71
     5
 42
21.0
 73
     0
 74
     0
 75
     0
  3
Wagner$0
100
AcDbAlignedDimension
 13
160.8081728409544
 23
333.6326668176036
 33
0.0
 14
160.8081728409544
 24
312.6326668176036
 34
0.0
 50
90.0
100
AcDbRotatedDimension
1001
ACAD
1000
DSTYLE
1002
{
1070
    40
1040
2.0
1002
}
  0
DIMENSION
  5
1F6
330
2
100
AcDbEntity
  8
09-01
100
AcDbDimension
280
     0
  2
*D6
 10
167.0581728409544
 20
414.8427792721626
 30
0.0
 11
175.4439012534325
 21
419.2971957720133
 31
0.0
 70
   128
 71
     5
 42
12.5
 73
     0
 74
     0
 75
     0
  3
Wagner$0
100
AcDbAlignedDimension
 13
154.5581728409544
 23
427.3826668176034
 33
0.0
 14
167.0581728409544
 24
427.3826668176034
 34
0.0
100
AcDbRotatedDimension
1001
ACAD
1000
DSTYLE
1002
{
1070
    40
1040
2.0
1002
}
  0
DIMENSION
  5
205
330
2
100
AcDbEntity
  8
09-01
100
AcDbDimension
280
     0
  2
*D5
 10
163.5581728409544
 20
337.5291125837816
 30
0.0
 11
174.2612653425039
 21
342.8378681246641
 31
0.0
 70
   128
 71
     5
 42
5.5
 73
     0
 74
     0
 75
     0
  3
Wagner$0
100
AcDbAlignedDimension
 13
158.0581728409544
 23
330.8826668176036
 33
0.0
 14
163.5581728409544
 24
330.8826668176036
 34
0.0
100
AcDbRotatedDimension
1001
ACAD
1000
DSTYLE
1002
{
1070
    40
1040
2.0
1002
}
  0
DIMENSION
  5
214
330
2
100
AcDbEntity
  8
09-01
100
AcDbDimension
280
     0
  2
*D4
 10
142.7154462652653
 20
330.8826668176036
 30
0.0
 11
138.2154462652653
 21
385.1326668176036
 31
0.0
 71
     5
 42
108.4999999999997
 73
     0
 74
     0
 75
     0
  3
Wagner$0
100
AcDbAlignedDimension
 13
156.8081728409544
 23
439.3826668176034
 33
0.0
 14
156.8081728409544
 24
330.8826668176036
 34
0.0
 50
90.0
100
AcDbRotatedDimension
1001
ACAD
1000
DSTYLE
1002
{
1070
    40
1040
2.0
1002
}
  0
LINE
  5
221
330
2
100
AcDbEntity
  8
03-01
100
AcDbLine
 10
163.5581728409544
 20
330.8826668176036
 30
0.0
 11
163.5581728409544
 21
324.4951528977645
 31
0.0
  0
ARC
  5
222
330
2
100
AcDbEntity
  8
03-01
100
AcDbCircle
 10
160.8081728409544
 20
330.8826668176036
 30
0.0
 40
2.75
100
AcDbArc
 50
0.0
 51
180.0
  0
LINE
  5
223
330
2
100
AcDbEntity
  8
03-01
100
AcDbLine
 10
158.0581728409544
 20
324.4951528977645
 30
0.0
 11
158.0581728409544
 21
330.8826668176036
 31
0.0
  0
ARC
  5
224
330
2
100
AcDbEntity
  8
03-01
100
AcDbCircle
 10
160.8081728409544
 20
318.8826668176036
 30
0.0
 40
6.25
100
AcDbArc
 50
116.1038811373434
 51
63.89611886265659
  0
LINE
  5
225
330
2
100
AcDbEntity
  8
05-01
100
AcDbLine
 10
168.0581728409544
 20
318.8826668176036
 30
0.0
 11
153.5581728409544
 21
318.8826668176036
 31
0.0
  0
LINE
  5
226
330
2
100
AcDbEntity
  8
05-01
100
AcDbLine
 10
160.8081728409544
 20
334.3826668176037
 30
0.0
 11
160.8081728409544
 21
311.6326668176037
 31
0.0
  0
LINE
  5
227
102
{ACAD_REACTORS
330
1CC
102
}
330
2
100
AcDbEntity
  8
05-01
100
AcDbLine
 10
164.8081728409544
 20
330.8826668176036
 30
0.0
 11
156.8081728409544
 21
330.8826668176036
 31
0.0
  0
LINE
  5
228
330
2
100
AcDbEntity
  8
03-01
100
AcDbLine
 10
163.5581728409544
 20
439.3826668176034
 30
0.0
 11
163.5581728409544
 21
432.9951528977642
 31
0.0
  0
ARC
  5
229
330
2
100
AcDbEntity
  8
03-01
100
AcDbCircle
 10
160.8081728409544
 20
439.3826668176034
 30
0.0
 40
2.75
100
AcDbArc
 50
0.0
 51
180.0
  0
LINE
  5
22A
330
2
100
AcDbEntity
  8
03-01
100
AcDbLine
 10
158.0581728409544
 20
432.9951528977642
 30
0.0
 11
158.0581728409544
 21
439.3826668176034
 31
0.0
  0
ARC
  5
22B
330
2
100
AcDbEntity
  8
03-01
100
AcDbCircle
 10
160.8081728409544
 20
427.3826668176034
 30
0.0
 40
6.25
100
AcDbArc
 50
116.1038811373434
 51
63.89611886265659
  0
LINE
  5
22C
330
2
100
AcDbEntity
  8
05-01
100
AcDbLine
 10
168.0581728409544
 20
427.3826668176034
 30
0.0
 11
153.5581728409544
 21
427.3826668176034
 31
0.0
  0
LINE
  5
22D
330
2
100
AcDbEntity
  8
05-01
100
AcDbLine
 10
160.8081728409544
 20
442.8826668176034
 30
0.0
 11
160.8081728409544
 21
420.1326668176034
 31
0.0
  0
LINE
  5
22E
330
2
100
AcDbEntity
  8
05-01
100
AcDbLine
 10
164.8081728409544
 20
439.3826668176034
 30
0.0
 11
156.8081728409544
 21
439.3826668176034
 31
0.0
  0
LINE
  5
22F
330
2
100
AcDbEntity
  8
03-01
100
AcDbLine
 10
192.8081728409543
 20
384.9213094308316
 30
0.0
 11
192.8081728409543
 21
452.1326668176034
 31
0.0
  0
LINE
  5
230
330
2
100
AcDbEntity
  8
03-01
100
AcDbLine
 10
194.3081728409543
 20
452.1326668176034
 30
0.0
 11
194.3081728409543
 21
386.2514364497538
 31
0.0
  0
LINE
  5
231
330
2
100
AcDbEntity
  8
03-01
100
AcDbLine
 10
127.3081728409545
 20
386.251436449753
 30
0.0
 11
127.3081728409545
 21
452.1326668176034
 31
0.0
  0
LINE
  5
232
330
2
100
AcDbEntity
  8
03-01
100
AcDbLine
 10
128.8081728409543
 20
384.9213094308311
 30
0.0
 11
128.8081728409543
 21
452.1326668176034
 31
0.0
  0
LINE
  5
233
330
2
100
AcDbEntity
  8
0
100
AcDbLine
 10
270.3370701104341
 20
330.9396080288275
 30
0.0
 11
271.9370692551074
 21
330.9396080288275
 31
0.0
  0
LINE
  5
234
330
2
100
AcDbEntity
  8
0
100
AcDbLine
 10
270.3370701104341
 20
312.3257256659849
 30
0.0
 11
271.9370692551074
 21
312.3257256659849
 31
0.0
  0
INSERT
  5
235
330
2
100
AcDbEntity
  8
0
100
AcDbBlockReference
 66
     1
  2
DIN A4
 10
0.0
 20
0.0
 30
0.0
 41
2.0
 42
2.0
 43
2.0
  0
ATTRIB
  5
2A9
330
235
100
AcDbEntity
  8
06-99
100
AcDbText
 10
232.9908934783543
 20
52.37567739456427
 30
0.0
 40
8.0
  1
Seifenspender WP 173
 41
0.9
  7
ROMANS8
100
AcDbAttribute
280
     0
  2
TEILE
 70
     0
280
     0
  0
ATTRIB
  5
2AA
330
235
100
AcDbEntity
  8
06-99
100
AcDbText
 10
185.9941355987348
 20
54.88337093606242
 30
0.0
 40
5.0
  1
von Lehsten
 41
0.9
  7
ROMANS8
100
AcDbAttribute
280
     0
  2
NAME
 70
     0
280
     0
  0
ATTRIB
  5
2AB
330
235
100
AcDbEntity
  8
06-99
100
AcDbText
 10
158.9862929037881
 20
54.92247034822231
 30
0.0
 40
5.0
  1
13.01.2011
 50
359.9144597696142
 41
0.6174605679783683
  7
ROMANS8
 72
     5
 11
181.4794742408776
 21
54.88888893333319
 31
0.0
100
AcDbAttribute
280
     0
  2
DATUM
 70
     0
280
     0
  0
ATTRIB
  5
2AC
330
235
100
AcDbEntity
  8
06-99
100
AcDbText
 10
382.6947724234292
 20
90.66666666666652
 30
0.0
 40
6.75
  1
1:2
  7
ROMANS8
100
AcDbAttribute
280
     0
  2
:
 70
     0
280
     0
  0
ATTRIB
  5
2AD
330
235
100
AcDbEntity
  8
06-99
100
AcDbText
 10
357.0126879343165
 20
14.98579960057725
 30
0.0
 40
5.98752
  1
727173
  7
ROMANS8
100
AcDbAttribute
280
     0
  2
ID.NR
 70
     0
280
     0
  0
ATTRIB
  5
2AE
330
235
100
AcDbEntity
  8
06-99
100
AcDbText
 10
233.0
 20
14.99999999999988
 30
0.0
 40
6.336
  1

 41
0.9000000000000001
  7
ROMANS8
100
AcDbAttribute
280
     0
  2
SONDER-NR
 70
     0
280
     0
  0
ATTRIB
  5
2AF
330
235
100
AcDbEntity
  8
06-99
100
AcDbText
 10
292.0012677737602
 20
15.00879320870911
 30
0.0
 40
6.336
  1

 41
0.9000000000000001
  7
ROMANS8
100
AcDbAttribute
280
     0
  2
AUFTRAGS.NR.
 70
     0
280
     0
  0
ATTRIB
  5
2B0
330
235
100
AcDbEntity
  8
06-99
100
AcDbText
 10
233.4625325114211
 20
75.33333328888875
 30
0.0
 40
6.0
  1

 41
0.9
  7
ROMANS8
100
AcDbAttribute
280
     0
  2
LÄNGE
 70
     0
280
     0
  0
ATTRIB
  5
2B1
330
235
100
AcDbEntity
  8
06-99
100
AcDbText
 10
300.3616098235395
 20
75.35620774088949
 30
0.0
 40
6.0
  1

 41
0.9
  7
ROMANS8
100
AcDbAttribute
280
     0
  2
BREITE
 70
     0
280
     0
  0
ATTRIB
  5
2B2
330
235
100
AcDbEntity
  8
06-99
100
AcDbText
 10
381.2181842534637
 20
75.33333333333337
 30
0.0
 40
6.187500000000001
  1

  7
ROMANS8
100
AcDbAttribute
280
     0
  2
1.0
 70
     0
280
     0
  0
ATTRIB
  5
2B3
330
235
100
AcDbEntity
  8
06-99
100
AcDbText
 10
328.2555712028054
 20
90.66666666666675
 30
0.0
 40
6.0
  1

  7
ROMANS8
 72
     1
 11
328.2555712028054
 21
90.66666666666675
 31
0.0
100
AcDbAttribute
280
     0
  2
IV
 70
     0
280
     0
  0
ATTRIB
  5
2B4
330
235
100
AcDbEntity
  8
06-99
100
AcDbText
 10
42.99893556039705
 20
13.1949127957447
 30
0.0
 40
3.0
  1

 41
0.9
  7
ROMANS8
100
AcDbAttribute
280
     0
  2
ERSETZT.FÜR
 70
     0
280
     0
  0
ATTRIB
  5
2B5
330
235
100
AcDbEntity
  8
06-99
100
AcDbText
 10
92.9995019900166
 20
13.20362013851957
 30
0.0
 40
3.0
  1

 41
0.9
  7
ROMANS8
100
AcDbAttribute
280
     0
  2
ERSETZT.DURCH
 70
     0
280
     0
  0
ATTRIB
  5
2B6
330
235
100
AcDbEntity
  8
06-99
100
AcDbText
 10
185.623449423384
 20
82.06060133439599
 30
0.0
 40
4.68
  1
DIN 6930-M
  7
ROMANS8
 72
     1
 11
207.0177351376697
 21
82.06060133439599
 31
0.0
100
AcDbAttribute
280
     0
  2
NORM1
 70
     0
280
     0
  0
ATTRIB
  5
2B7
330
235
100
AcDbEntity
  8
06-99
100
AcDbText
 10
191.9748779948126
 20
74.39393466772937
 30
0.0
 40
4.68
  1
DIN 2768
  7
ROMANS8
 72
     1
 11
208.0205922805269
 21
74.39393466772937
 31
0.0
100
AcDbAttribute
280
     0
  2
NORM2
 70
     0
280
     0
  0
ATTRIB
  5
2B8
330
235
100
AcDbEntity
  8
06-99
100
AcDbText
 10
199.9461452928752
 20
95.33702228001585
 30
0.0
 40
2.574
  1
DIN A4
  7
ROMANS8
 72
     1
 11
206.5037167214466
 21
95.33702228001585
 31
0.0
100
AcDbAttribute
280
     0
  2
FORMAT
 70
     0
280
     0
  0
ATTRIB
  5
2B9
330
235
100
AcDbEntity
  8
06-99
100
AcDbText
 10
246.5494810722317
 20
90.66666666666646
 30
0.0
 40
6.75
  1
1.4301
  7
ROMANS8
100
AcDbAttribute
280
     0
  2
1.4301
 70
     0
280
     0
  0
ATTRIB
  5
2BA
330
235
100
AcDbEntity
  8
06-99
100
AcDbText
 10
232.9908934783543
 20
38.59095699799264
 30
0.0
 40
8.0
  1
Einbau in Schrank
 41
0.9
  7
ROMANS8
100
AcDbAttribute
280
     0
  2
TEILE2
 70
     0
280
     0
  0
SEQEND
  5
2BB
330
235
100
AcDbEntity
  8
0
  0
DIMENSION
  5
2BC
102
{ACAD_XDICTIONARY
360
2BD
102
}
102
{ACAD_REACTORS
330
2BE
102
}
330
2
100
AcDbEntity
  8
09-01
100
AcDbDimension
280
     0
  2
*D2
 10
345.4870691551305
 20
209.3640065304492
 30
0.0
 11
297.212069205119
 21
213.8640065304492
 31
0.0
 71
     5
 42
96.54999990002307
 73
     0
 74
     0
 75
     0
  3
Wagner$0
100
AcDbAlignedDimension
 13
248.9370692551074
 23
302.1326608571394
 33
0.0
 14
345.4870691551305
 24
389.2514364497539
 34
0.0
100
AcDbRotatedDimension
1001
ACAD
1000
DSTYLE
1002
{
1070
   271
1070
     1
1070
    40
1040
2.0
1002
}
  0
DIMENSION
  5
2CB
102
{ACAD_XDICTIONARY
360
2CC
102
}
102
{ACAD_REACTORS
330
2CD
102
}
330
2
100
AcDbEntity
  8
09-01
100
AcDbDimension
280
     0
  2
*D1
 10
232.1365333137856
 20
452.1326668176034
 30
0.0
 11
227.6365333137855
 21
377.1326638373715
 31
0.0
 71
     5
 42
150.000005960464
 73
     0
 74
     0
 75
     0
  3
Wagner$0
100
AcDbAlignedDimension
 13
248.9370692551074
 23
302.1326608571394
 33
0.0
 14
248.9370692551074
 24
452.1326668176034
 34
0.0
 50
90.0
100
AcDbRotatedDimension
1001
ACAD
1000
DSTYLE
1002
{
1070
   271
1070
     1
1070
    40
1040
2.0
1002
}
  0
DIMENSION
  5
2DA
102
{ACAD_XDICTIONARY
360
2DB
102
}
102
{ACAD_REACTORS
330
2DC
102
}
330
2
100
AcDbEntity
  8
09-01
100
AcDbDimension
280
     0
  2
*D0
 10
334.887069155131
 20
231.6904911249699
 30
0.0
 11
291.9120692051192
 21
236.1904911249699
 31
0.0
 71
     5
 42
85.94999990002362
 73
     0
 74
     0
 75
     0
  3
Wagner$0
100
AcDbAlignedDimension
 13
248.9370692551074
 23
302.1326608571394
 33
0.0
 14
334.887069155131
 24
302.1326608571394
 34
0.0
100
AcDbRotatedDimension
1001
ACAD
1000
DSTYLE
1002
{
1070
   271
1070
     1
1070
    40
1040
2.0
1002
}
  0
LINE
  5
2E9
330
2
100
AcDbEntity
  8
0
100
AcDbLine
 10
190.8542360360515
 20
312.1326690825801
 30
0.0
 11
194.3081728409543
 21
312.1326690825801
 31
0.0
  0
LINE
  5
2EA
330
2
100
AcDbEntity
  8
0
100
AcDbLine
 10
194.3081728409543
 20
332.1326690825799
 30
0.0
 11
190.8542360360515
 21
332.1326690825798
 31
0.0
  0
LINE
  5
2EB
330
2
100
AcDbEntity
  8
0
100
AcDbLine
 10
190.8542360360515
 20
348.1326690825799
 30
0.0
 11
194.3081728409543
 21
348.1326690825799
 31
0.0
  0
LINE
  5
2EC
330
2
100
AcDbEntity
  8
0
100
AcDbLine
 10
192.8081728409547
 20
312.1326690825801
 30
0.0
 11
192.8081728409547
 21
332.1326690825799
 31
0.0
  0
LINE
  5
2ED
330
2
100
AcDbEntity
  8
0
100
AcDbLine
 10
130.8542360360515
 20
312.1326690825801
 30
0.0
 11
127.3081728409545
 21
312.1326690825801
 31
0.0
  0
LINE
  5
2EE
330
2
100
AcDbEntity
  8
0
100
AcDbLine
 10
127.3081728409547
 20
332.1326690825799
 30
0.0
 11
130.8542360360515
 21
332.1326690825799
 31
0.0
  0
LINE
  5
2EF
330
2
100
AcDbEntity
  8
0
100
AcDbLine
 10
130.8542360360515
 20
348.1326690825799
 30
0.0
 11
127.3081728409545
 21
348.1326690825799
 31
0.0
  0
LINE
  5
2F0
102
{ACAD_REACTORS
330
1CC
330
EB
330
DC
330
CD
102
}
330
2
100
AcDbEntity
  8
0
100
AcDbLine
 10
127.3081728409545
 20
302.1326608571394
 30
0.0
 11
194.3081728409543
 21
302.1326608571393
 31
0.0
  0
LINE
  5
2F1
330
2
100
AcDbEntity
  8
03-01
100
AcDbLine
 10
127.3081728409545
 20
452.1326668176034
 30
0.0
 11
194.3081728409543
 21
452.1326668176034
 31
0.0
  0
LINE
  5
2F2
330
2
100
AcDbEntity
  8
0
100
AcDbLine
 10
192.8081728409543
 20
348.1326690825799
 30
0.0
 11
192.8081728409543
 21
384.9213094308316
 31
0.0
  0
LINE
  5
2F3
330
2
100
AcDbEntity
  8
0
100
AcDbLine
 10
194.3081728409543
 20
302.1326608571393
 30
0.0
 11
194.3081728409543
 21
386.2514364497538
 31
0.0
  0
LINE
  5
2F4
330
2
100
AcDbEntity
  8
0
100
AcDbLine
 10
128.8081728409543
 20
348.1326690825799
 30
0.0
 11
128.8081728409544
 21
384.9213094308311
 31
0.0
  0
LINE
  5
2F5
330
2
100
AcDbEntity
  8
0
100
AcDbLine
 10
128.8081728409543
 20
312.1326690825801
 30
0.0
 11
128.8081728409543
 21
332.1326690825799
 31
0.0
  0
LINE
  5
2F6
330
2
100
AcDbEntity
  8
0
100
AcDbLine
 10
127.3081728409545
 20
302.1326608571394
 30
0.0
 11
127.3081728409545
 21
386.251436449753
 31
0.0
  0
LINE
  5
2F7
330
2
100
AcDbEntity
  8
0
100
AcDbLine
 10
194.3081728409543
 20
195.7230564014551
 30
0.0
 11
190.9099188112977
 21
196.230928869026
 31
0.0
  0
LINE
  5
2F8
330
2
100
AcDbEntity
  8
0
100
AcDbLine
 10
192.8081728409543
 20
197.4638920952749
 30
0.0
 11
190.9099188112977
 21
197.747588060822
 31
0.0
  0
LINE
  5
2F9
330
2
100
AcDbEntity
  8
0
100
AcDbLine
 10
128.8081728409545
 20
217.2230564014552
 30
0.0
 11
128.8081728409545
 21
197.4638920952749
 31
0.0
  0
LINE
  5
2FA
330
2
100
AcDbEntity
  8
0
100
AcDbLine
 10
192.8081728409543
 20
217.2230564014552
 30
0.0
 11
128.8081728409545
 21
217.2230564014552
 31
0.0
  0
LINE
  5
2FB
330
2
100
AcDbEntity
  8
0
100
AcDbLine
 10
192.8081728409543
 20
197.4638920952749
 30
0.0
 11
192.8081728409543
 21
217.2230564014552
 31
0.0
  0
LINE
  5
2FC
330
2
100
AcDbEntity
  8
0
100
AcDbLine
 10
128.8081728409545
 20
197.4638920952749
 30
0.0
 11
130.9099188112977
 21
197.7780001351241
 31
0.0
  0
LINE
  5
2FD
102
{ACAD_REACTORS
330
128
102
}
330
2
100
AcDbEntity
  8
0
100
AcDbLine
 10
127.3081728409545
 20
218.7230564014552
 30
0.0
 11
127.3081728409545
 21
195.7230564014551
 31
0.0
  0
LINE
  5
2FE
102
{ACAD_REACTORS
330
128
102
}
330
2
100
AcDbEntity
  8
0
100
AcDbLine
 10
194.3081728409543
 20
218.7230564014552
 30
0.0
 11
127.3081728409545
 21
218.7230564014552
 31
0.0
  0
LINE
  5
2FF
330
2
100
AcDbEntity
  8
0
100
AcDbLine
 10
194.3081728409543
 20
195.7230564014551
 30
0.0
 11
194.3081728409543
 21
218.7230564014552
 31
0.0
  0
LINE
  5
300
330
2
100
AcDbEntity
  8
0
100
AcDbLine
 10
127.3081728409545
 20
195.7230564014551
 30
0.0
 11
130.9099188112977
 21
196.2613409433282
 31
0.0
  0
ARC
  5
301
330
2
100
AcDbEntity
  8
0
100
AcDbCircle
 10
249.9936803681021
 20
450.1326692282159
 30
0.0
 40
2.0
100
AcDbArc
 50
65.00001900000168
 51
90.0
  0
LINE
  5
302
102
{ACAD_REACTORS
330
2CD
102
}
330
2
100
AcDbEntity
  8
0
100
AcDbLine
 10
248.9370692551074
 20
452.1326668176034
 30
0.0
 11
249.9967855966997
 21
452.1326668176034
 31
0.0
  0
ARC
  5
303
330
2
100
AcDbEntity
  8
0
370
    15
100
AcDbCircle
 10
264.8958766415653
 20
372.9326672467569
 30
0.0
 40
0.5000000819563999
100
AcDbArc
 50
0.0
 51
180.0
  0
ARC
  5
304
330
2
100
AcDbEntity
  8
0
370
    15
100
AcDbCircle
 10
267.3958765596081
 20
351.1326690825799
 30
0.0
 40
3.0
100
AcDbArc
 50
180.0
 51
270.0
  0
ARC
  5
305
330
2
100
AcDbEntity
  8
0
370
    15
100
AcDbCircle
 10
265.39587721526
 20
373.5540985003299
 30
0.0
 40
3.0
100
AcDbArc
 50
0.0
 51
34.99999316247827
  0
LWPOLYLINE
  5
306
330
2
100
AcDbEntity
  8
0
100
AcDbPolyline
 90
        4
 70
     0
 43
0.0
 10
262.29886904062
 20
386.045114927128
 42
-0.153937885390317
 10
261.9370692904977
 20
387.1924160825802
 10
261.9370692904977
 20
445.4959900825802
 42
0.2914734195860889
 10
260.7823058139784
 20
447.3086056566535
  0
LINE
  5
307
330
2
100
AcDbEntity
  8
0
100
AcDbLine
 10
260.7823062904972
 20
447.3086060825798
 30
0.0
 11
250.8389162904968
 21
451.9452850825801
 31
0.0
  0
LINE
  5
308
330
2
100
AcDbEntity
  8
0
370
    15
100
AcDbLine
 10
262.29886904062
 20
386.045114927128
 30
0.0
 11
267.8533335534739
 21
375.2748275161171
 31
0.0
  0
ARC
  5
309
330
2
100
AcDbEntity
  8
0
370
    15
100
AcDbCircle
 10
267.3958767768218
 20
352.4326668176036
 30
0.0
 40
1.0
100
AcDbArc
 50
270.0
 51
0.0
  0
LINE
  5
30A
330
2
100
AcDbEntity
  8
0
370
    15
100
AcDbLine
 10
270.3370701104341
 20
348.1326690825799
 30
0.0
 11
271.9370692551074
 21
348.1326690825799
 31
0.0
  0
LINE
  5
30B
330
2
100
AcDbEntity
  8
0
370
    15
100
AcDbLine
 10
271.9370692551074
 20
330.9396080288275
 30
0.0
 11
271.9370692551074
 21
348.1326690825799
 31
0.0
  0
LINE
  5
30C
330
2
100
AcDbEntity
  8
0
370
    15
100
AcDbLine
 10
270.3370701104341
 20
330.9396080288275
 30
0.0
 11
270.3370701104341
 21
348.1326690825799
 31
0.0
  0
ARC
  5
30D
330
2
100
AcDbEntity
  8
0
370
    15
100
AcDbCircle
 10
266.3958767768217
 20
352.4326668176036
 30
0.0
 40
1.0
100
AcDbArc
 50
180.0
 51
270.0
  0
LINE
  5
30E
330
2
100
AcDbEntity
  8
0
370
    15
100
AcDbLine
 10
267.3958770513473
 20
351.4326683792451
 30
0.0
 11
266.3958768874345
 21
351.4326683792451
 31
0.0
  0
LINE
  5
30F
330
2
100
AcDbEntity
  8
0
370
    15
100
AcDbLine
 10
267.3958765596081
 20
348.1326690825799
 30
0.0
 11
270.3370701104341
 21
348.1326690825799
 31
0.0
  0
ARC
  5
310
330
2
100
AcDbEntity
  8
0
370
    15
100
AcDbCircle
 10
271.3958767768218
 20
315.1326668176039
 30
0.0
 40
3.000000000000001
100
AcDbArc
 50
180.0
 51
249.3330218700007
  0
LINE
  5
311
330
2
100
AcDbEntity
  8
0
370
    15
100
AcDbLine
 10
268.3958772152601
 20
328.1326688441618
 30
0.0
 11
268.3958772152601
 21
315.1326723012312
 31
0.0
  0
ARC
  5
312
330
2
100
AcDbEntity
  8
0
370
    15
100
AcDbCircle
 10
271.3958767768218
 20
328.1326668176039
 30
0.0
 40
3.000000000000015
100
AcDbArc
 50
110.6669781300132
 51
180.0
  0
LINE
  5
313
330
2
100
AcDbEntity
  8
0
370
    15
100
AcDbLine
 10
271.9370692551074
 20
302.1326608571394
 30
0.0
 11
270.3370701104341
 21
302.1326608571394
 31
0.0
  0
LINE
  5
314
330
2
100
AcDbEntity
  8
0
370
    15
100
AcDbLine
 10
271.9370692551074
 20
302.1326608571394
 30
0.0
 11
271.9370692551075
 21
312.3257256659849
 31
0.0
  0
LINE
  5
315
330
2
100
AcDbEntity
  8
0
370
    15
100
AcDbLine
 10
270.3370701104341
 20
302.1326608571394
 30
0.0
 11
270.3370701104341
 21
312.3257256659849
 31
0.0
  0
LINE
  5
316
330
2
100
AcDbEntity
  8
0
370
    15
100
AcDbLine
 10
268.3958772152601
 20
373.5540985003299
 30
0.0
 11
268.3958772152601
 21
352.432670405803
 31
0.0
  0
LINE
  5
317
330
2
100
AcDbEntity
  8
0
370
    15
100
AcDbLine
 10
265.3958767235217
 20
352.432670405803
 30
0.0
 11
265.3958767235217
 21
372.9326672467569
 31
0.0
  0
LINE
  5
318
330
2
100
AcDbEntity
  8
0
370
    15
100
AcDbLine
 10
264.395876559609
 20
372.9326672467569
 30
0.0
 11
264.395876559608
 21
351.1326690825799
 31
0.0
  0
LINE
  5
319
102
{ACAD_REACTORS
330
2DC
330
2CD
330
2BE
330
6C
102
}
330
2
100
AcDbEntity
  8
0
370
    15
100
AcDbLine
 10
248.9370692551074
 20
452.1326668176034
 30
0.0
 11
248.9370692551074
 21
302.1326608571394
 31
0.0
  0
LINE
  5
31A
102
{ACAD_REACTORS
330
1DB
102
}
330
2
100
AcDbEntity
  8
0
370
    15
100
AcDbLine
 10
248.9370692551074
 20
302.1326608571394
 30
0.0
 11
270.3370701104341
 21
302.1326608571394
 31
0.0
  0
LINE
  5
31B
330
2
100
AcDbEntity
  8
0
100
AcDbLine
 10
179.8081728409544
 20
198.4230564014552
 30
0.0
 11
179.8081728409544
 21
193.4230564014552
 31
0.0
  0
LINE
  5
31C
330
2
100
AcDbEntity
  8
0
100
AcDbLine
 10
171.8081728409544
 20
193.4230564014552
 30
0.0
 11
179.8081728409544
 21
193.4230564014552
 31
0.0
  0
LINE
  5
31D
330
2
100
AcDbEntity
  8
0
100
AcDbLine
 10
171.8081728409544
 20
198.4230564014552
 30
0.0
 11
179.8081728409544
 21
198.4230564014552
 31
0.0
  0
LINE
  5
31E
330
2
100
AcDbEntity
  8
0
100
AcDbLine
 10
171.8081728409544
 20
193.4230564014552
 30
0.0
 11
171.8081728409544
 21
198.4230564014552
 31
0.0
  0
LINE
  5
31F
330
2
100
AcDbEntity
  8
0
100
AcDbLine
 10
149.8081728409544
 20
198.4230564014552
 30
0.0
 11
149.8081728409544
 21
193.4230564014552
 31
0.0
  0
LINE
  5
320
330
2
100
AcDbEntity
  8
0
100
AcDbLine
 10
141.8081728409544
 20
193.4230564014552
 30
0.0
 11
149.8081728409544
 21
193.4230564014552
 31
0.0
  0
LINE
  5
321
330
2
100
AcDbEntity
  8
0
100
AcDbLine
 10
141.8081728409544
 20
198.4230564014552
 30
0.0
 11
149.8081728409544
 21
198.4230564014552
 31
0.0
  0
LINE
  5
322
330
2
100
AcDbEntity
  8
0
100
AcDbLine
 10
141.8081728409544
 20
193.4230564014552
 30
0.0
 11
141.8081728409544
 21
198.4230564014552
 31
0.0
  0
LINE
  5
323
330
2
100
AcDbEntity
  8
0
100
AcDbLine
 10
188.3081728409544
 20
200.4230564014552
 30
0.0
 11
188.3081728409544
 21
202.8230564014552
 31
0.0
  0
LINE
  5
324
330
2
100
AcDbEntity
  8
0
100
AcDbLine
 10
185.8081728409544
 20
200.4230564014552
 30
0.0
 11
188.3081728409544
 21
200.4230564014552
 31
0.0
  0
LINE
  5
325
330
2
100
AcDbEntity
  8
0
100
AcDbLine
 10
185.8081728409544
 20
202.8230564014552
 30
0.0
 11
185.8081728409544
 21
200.4230564014552
 31
0.0
  0
LINE
  5
326
330
2
100
AcDbEntity
  8
0
100
AcDbLine
 10
135.8081728409544
 20
200.4230564014552
 30
0.0
 11
135.8081728409544
 21
202.8230564014552
 31
0.0
  0
LINE
  5
327
330
2
100
AcDbEntity
  8
0
100
AcDbLine
 10
133.3081728409544
 20
200.4230564014552
 30
0.0
 11
135.8081728409544
 21
200.4230564014552
 31
0.0
  0
LINE
  5
328
330
2
100
AcDbEntity
  8
0
100
AcDbLine
 10
133.3081728409544
 20
202.8230564014552
 30
0.0
 11
133.3081728409544
 21
200.4230564014552
 31
0.0
  0
CIRCLE
  5
329
330
2
100
AcDbEntity
  8
0
100
AcDbCircle
 10
160.8081728409544
 20
167.7230564014551
 30
0.0
 40
7.5
  0
CIRCLE
  5
32A
330
2
100
AcDbEntity
  8
0
100
AcDbCircle
 10
160.8081728409544
 20
167.7230564014551
 30
0.0
 40
13.90000000000003
  0
ARC
  5
32B
330
2
100
AcDbEntity
  8
0
100
AcDbCircle
 10
170.8081728409544
 20
152.8230564014551
 30
0.0
 40
20.0
100
AcDbArc
 50
270.0
 51
0.0
  0
ARC
  5
32C
330
2
100
AcDbEntity
  8
0
100
AcDbCircle
 10
150.8081728409544
 20
152.8230564014551
 30
0.0
 40
20.0
100
AcDbArc
 50
180.0
 51
270.0
  0
LINE
  5
32D
330
2
100
AcDbEntity
  8
0
100
AcDbLine
 10
130.8081728409544
 20
202.8230564014552
 30
0.0
 11
130.8081728409544
 21
152.8230564014551
 31
0.0
  0
LINE
  5
32E
330
2
100
AcDbEntity
  8
0
100
AcDbLine
 10
190.8081728409544
 20
192.8230564014551
 30
0.0
 11
130.8081728409544
 21
192.8230564014551
 31
0.0
  0
LINE
  5
32F
330
2
100
AcDbEntity
  8
0
100
AcDbLine
 10
133.3081728409544
 20
202.8230564014552
 30
0.0
 11
130.8081728409544
 21
202.8230564014552
 31
0.0
  0
LINE
  5
330
330
2
100
AcDbEntity
  8
0
100
AcDbLine
 10
185.8081728409544
 20
202.8230564014552
 30
0.0
 11
135.8081728409544
 21
202.8230564014552
 31
0.0
  0
LINE
  5
331
330
2
100
AcDbEntity
  8
0
100
AcDbLine
 10
190.8081728409544
 20
202.8230564014552
 30
0.0
 11
188.3081728409542
 21
202.8230564014552
 31
0.0
  0
LINE
  5
332
330
2
100
AcDbEntity
  8
0
100
AcDbLine
 10
190.8081728409544
 20
152.8230564014551
 30
0.0
 11
190.8081728409544
 21
202.8230564014552
 31
0.0
  0
LINE
  5
333
330
2
100
AcDbEntity
  8
0
100
AcDbLine
 10
150.8081728409544
 20
132.8230564014551
 30
0.0
 11
170.8081728409544
 21
132.8230564014551
 31
0.0
  0
LINE
  5
334
330
2
100
AcDbEntity
  8
0
100
AcDbLine
 10
274.9331323502286
 20
350.1326690825799
 30
0.0
 11
264.9331323502284
 21
350.1326690825799
 31
0.0
  0
LINE
  5
335
330
2
100
AcDbEntity
  8
0
100
AcDbLine
 10
334.9331323502284
 20
354.1326690825799
 30
0.0
 11
274.9331323502286
 21
354.1326690825799
 31
0.0
  0
LINE
  5
336
330
2
100
AcDbEntity
  8
0
100
AcDbLine
 10
334.9331323502284
 20
302.1326690825799
 30
0.0
 11
334.9331323502284
 21
354.1326690825799
 31
0.0
  0
LINE
  5
337
330
2
100
AcDbEntity
  8
0
100
AcDbLine
 10
264.9331323502284
 20
302.1326690825799
 30
0.0
 11
334.9331323502284
 21
302.1326690825799
 31
0.0
  0
LINE
  5
338
330
2
100
AcDbEntity
  8
0
100
AcDbLine
 10
274.380369661797
 20
301.6085547383087
 30
0.0
 11
274.4165752942868
 21
302.1326690825799
 31
0.0
  0
ARC
  5
339
330
2
100
AcDbEntity
  8
03-01
100
AcDbCircle
 10
274.6614719837335
 20
305.6778044380609
 30
0.0
 40
9.99999999999342
100
AcDbArc
 50
193.385631861299
 51
200.7636330503133
  0
ARC
  5
33A
330
2
100
AcDbEntity
  8
0
100
AcDbCircle
 10
273.9789133130738
 20
305.6214843812167
 30
0.0
 40
9.3235168706339
100
AcDbArc
 50
175.4139447523169
 51
194.0199928843849
  0
LINE
  5
33B
330
2
100
AcDbEntity
  8
0
100
AcDbLine
 10
264.9331323502284
 20
309.9553591132814
 30
0.0
 11
264.6852469133751
 21
306.3669585176638
 31
0.0
  0
LINE
  5
33C
330
2
100
AcDbEntity
  8
0
100
AcDbLine
 10
267.8212320872829
 20
298.383209304752
 30
0.0
 11
280.3708154815857
 21
284.5095255887415
 31
0.0
  0
ARC
  5
33D
330
2
100
AcDbEntity
  8
0
100
AcDbCircle
 10
274.4379341958905
 20
279.1428767601102
 30
0.0
 40
8.0
100
AcDbArc
 50
344.9781031974633
 51
42.13124222122941
  0
ARC
  5
33E
330
2
100
AcDbEntity
  8
0
100
AcDbCircle
 10
281.1742711051289
 20
265.2770243222057
 30
0.0
 40
2.900000000000142
100
AcDbArc
 50
121.3752842247652
 51
208.5809221701716
  0
LINE
  5
33F
330
2
100
AcDbEntity
  8
0
100
AcDbLine
 10
280.0409357195893
 20
261.439635769572
 30
0.0
 11
278.6276583851491
 21
263.8896658052976
 31
0.0
  0
LINE
  5
340
330
2
100
AcDbEntity
  8
0
100
AcDbLine
 10
282.1645489362223
 20
277.0693713575399
 30
0.0
 11
279.6644110864343
 21
267.7529731754635
 31
0.0
  0
ARC
  5
341
330
2
100
AcDbEntity
  8
0
100
AcDbCircle
 10
284.2649170012617
 20
264.4476221611776
 30
0.0
 40
2.900000000000142
100
AcDbArc
 50
121.3752842247652
 51
208.5809221701716
  0
LINE
  5
342
330
2
100
AcDbEntity
  8
0
100
AcDbLine
 10
283.1315816157221
 20
260.6102336085438
 30
0.0
 11
281.7183042812818
 21
263.0602636442694
 31
0.0
  0
LINE
  5
343
330
2
100
AcDbEntity
  8
0
100
AcDbLine
 10
286.0290621433465
 20
259.8326690825799
 30
0.0
 11
280.0409357195893
 21
261.439635769572
 31
0.0
  0
ARC
  5
344
330
2
100
AcDbEntity
  8
0
100
AcDbCircle
 10
280.8920041803472
 20
279.2721806320472
 30
0.0
 40
10.0
100
AcDbArc
 50
344.9781031974633
 51
46.84110227043288
  0
ARC
  5
345
330
2
100
AcDbEntity
  8
0
100
AcDbCircle
 10
277.5285800920233
 20
278.3134745990821
 30
0.0
 40
8.0
100
AcDbArc
 50
344.9781031974633
 51
46.84110227043288
  0
LINE
  5
346
330
2
100
AcDbEntity
  8
0
100
AcDbLine
 10
285.2551948323549
 20
276.2399691965118
 30
0.0
 11
282.7550569825671
 21
266.9235710144353
 31
0.0
  0
LINE
  5
347
330
2
100
AcDbEntity
  8
0
100
AcDbLine
 10
290.5502726057617
 20
276.6802988788342
 30
0.0
 11
286.0290621433465
 21
259.8326690825799
 31
0.0
  0
LINE
  5
348
330
2
100
AcDbEntity
  8
0
100
AcDbLine
 10
283.0007720091888
 20
284.1491507057307
 30
0.0
 11
267.8212320872829
 21
298.383209304752
 31
0.0
  0
LINE
  5
349
330
2
100
AcDbEntity
  8
0
100
AcDbLine
 10
287.732244076804
 20
286.566775765358
 30
0.0
 11
275.948362248751
 21
297.6166801318528
 31
0.0
  0
ARC
  5
34A
330
2
100
AcDbEntity
  8
0
100
AcDbCircle
 10
279.3684821969792
 20
301.2639776985082
 30
0.0
 40
5.0
100
AcDbArc
 50
176.0483057754038
 51
226.8411022704329
  0
ARC
  5
34B
330
2
100
AcDbEntity
  8
0
100
AcDbCircle
 10
274.6614719837396
 20
305.6778044380627
 30
0.0
 40
10.0
100
AcDbArc
 50
200.763633050303
 51
226.8411022704329
  0
LINE
  5
34C
330
2
100
AcDbEntity
  8
0
100
AcDbLine
 10
286.1331323502284
 20
358.6326690825799
 30
0.0
 11
313.9331323502284
 21
358.6326690825799
 31
0.0
  0
LINE
  5
34D
330
2
100
AcDbEntity
  8
0
100
AcDbLine
 10
286.1331323502284
 20
354.1326690825799
 30
0.0
 11
286.1331323502284
 21
358.6326690825799
 31
0.0
  0
LINE
  5
34E
330
2
100
AcDbEntity
  8
0
100
AcDbLine
 10
313.9331323502284
 20
354.1326690825799
 30
0.0
 11
313.9331323502284
 21
358.6326690825799
 31
0.0
  0
LINE
  5
34F
330
2
100
AcDbEntity
  8
0
100
AcDbLine
 10
319.4331323502284
 20
297.1326690825799
 30
0.0
 11
318.2331323502286
 21
302.1326690825799
 31
0.0
  0
LINE
  5
350
330
2
100
AcDbEntity
  8
0
100
AcDbLine
 10
322.9331323502284
 20
297.1326690825799
 30
0.0
 11
319.4331323502284
 21
297.1326690825799
 31
0.0
  0
LINE
  5
351
330
2
100
AcDbEntity
  8
0
100
AcDbLine
 10
324.3331323502285
 20
302.1326690825799
 30
0.0
 11
322.9331323502284
 21
297.1326690825799
 31
0.0
  0
LINE
  5
352
330
2
100
AcDbEntity
  8
0
100
AcDbLine
 10
274.9331323502284
 20
354.1326690825799
 30
0.0
 11
274.9331323502286
 21
350.1326690825799
 31
0.0
  0
LINE
  5
353
330
2
100
AcDbEntity
  8
0
100
AcDbLine
 10
264.9331323502286
 20
350.1326690825799
 30
0.0
 11
264.9331323502284
 21
302.1326690825799
 31
0.0
  0
LINE
  5
354
330
2
100
AcDbEntity
  8
0
100
AcDbLine
 10
271.9370692551074
 20
348.1326690825799
 30
0.0
 11
269.5081323502285
 21
348.1326690825799
 31
0.0
  0
LINE
  5
355
330
2
100
AcDbEntity
  8
0
100
AcDbLine
 10
146.9542360360514
 20
358.6326690825799
 30
0.0
 11
174.7542360360516
 21
358.6326690825799
 31
0.0
  0
LINE
  5
356
330
2
100
AcDbEntity
  8
0
100
AcDbLine
 10
146.9542360360514
 20
354.1326690825798
 30
0.0
 11
146.9542360360514
 21
358.6326690825799
 31
0.0
  0
LINE
  5
357
330
2
100
AcDbEntity
  8
0
100
AcDbLine
 10
174.7542360360516
 20
354.1326690825798
 30
0.0
 11
174.7542360360516
 21
358.6326690825799
 31
0.0
  0
LINE
  5
358
330
2
100
AcDbEntity
  8
0
100
AcDbLine
 10
190.8542360360515
 20
354.1326690825798
 30
0.0
 11
130.8542360360515
 21
354.1326690825799
 31
0.0
  0
LINE
  5
359
330
2
100
AcDbEntity
  8
0
100
AcDbLine
 10
170.8542360360515
 20
296.622633439127
 30
0.0
 11
173.8542360360515
 21
296.622633439127
 31
0.0
  0
LINE
  5
35A
330
2
100
AcDbEntity
  8
0
100
AcDbLine
 10
147.8542360360513
 20
296.622633439127
 30
0.0
 11
150.8542360360513
 21
296.622633439127
 31
0.0
  0
LINE
  5
35B
102
{ACAD_REACTORS
330
1CC
102
}
330
2
100
AcDbEntity
  8
0
100
AcDbLine
 10
147.8542360360515
 20
302.13266908258
 30
0.0
 11
147.8542360360515
 21
290.8658098431384
 31
0.0
  0
LINE
  5
35C
330
2
100
AcDbEntity
  8
0
100
AcDbLine
 10
150.8542360360513
 20
302.13266908258
 30
0.0
 11
150.8542360360515
 21
296.622633439127
 31
0.0
  0
LINE
  5
35D
330
2
100
AcDbEntity
  8
0
100
AcDbLine
 10
173.8542360360515
 20
302.13266908258
 30
0.0
 11
173.8542360360513
 21
290.8658098431384
 31
0.0
  0
LINE
  5
35E
330
2
100
AcDbEntity
  8
0
100
AcDbLine
 10
170.8542360360515
 20
302.13266908258
 30
0.0
 11
170.8542360360515
 21
296.622633439127
 31
0.0
  0
LINE
  5
35F
330
2
100
AcDbEntity
  8
0
100
AcDbLine
 10
173.8948663351436
 20
290.2296870800506
 30
0.0
 11
174.0108231471203
 21
289.6242980279154
 31
0.0
  0
LINE
  5
360
330
2
100
AcDbEntity
  8
0
100
AcDbLine
 10
173.8542360360515
 20
290.8658098431372
 30
0.0
 11
173.8948663351436
 21
290.2296870800506
 31
0.0
  0
LINE
  5
361
330
2
100
AcDbEntity
  8
0
100
AcDbLine
 10
147.8127073707091
 20
290.2227219616025
 30
0.0
 11
147.8542360360515
 21
290.8658098431372
 31
0.0
  0
LINE
  5
362
330
2
100
AcDbEntity
  8
0
100
AcDbLine
 10
147.6976489249827
 20
289.6242980279154
 30
0.0
 11
147.8127073707091
 21
290.2227219616025
 31
0.0
  0
ARC
  5
363
330
2
100
AcDbEntity
  8
0
100
AcDbCircle
 10
175.3542360360515
 20
286.623169156018
 30
0.0
 40
0.5
100
AcDbArc
 50
0.0
 51
50.4788036413521
  0
ARC
  5
364
330
2
100
AcDbEntity
  8
0
100
AcDbCircle
 10
178.8542360360515
 20
290.8658098431372
 30
0.0
 40
5.000000000000001
100
AcDbArc
 50
194.377077490379
 51
230.4788036413521
  0
ARC
  5
365
330
2
100
AcDbEntity
  8
0
100
AcDbCircle
 10
146.3542360360515
 20
286.623169156018
 30
0.0
 40
0.5
100
AcDbArc
 50
129.5211963586479
 51
180.0
  0
ARC
  5
366
330
2
100
AcDbEntity
  8
0
100
AcDbCircle
 10
142.8542360360515
 20
290.8658098431372
 30
0.0
 40
5.00000000000002
100
AcDbArc
 50
309.5211963586479
 51
345.622922509621
  0
LINE
  5
367
330
2
100
AcDbEntity
  8
0
100
AcDbLine
 10
173.5264818582272
 20
289.8406988176319
 30
0.0
 11
148.1819902138758
 21
289.8406988176319
 31
0.0
  0
LINE
  5
368
330
2
100
AcDbEntity
  8
0
100
AcDbLine
 10
175.8542360360515
 20
286.623169156018
 30
0.0
 11
175.8542360360515
 21
259.123169156018
 31
0.0
  0
ARC
  5
369
330
2
100
AcDbEntity
  8
0
100
AcDbCircle
 10
175.4875881972352
 20
272.9112495084394
 30
0.0
 40
1.307432050152177
100
AcDbArc
 50
73.71391671635334
 51
95.85409077905239
  0
LINE
  5
36A
102
{ACAD_REACTORS
330
BE
102
}
330
2
100
AcDbEntity
  8
0
100
AcDbLine
 10
175.8178271518158
 20
259.123169156018
 30
0.0
 11
145.8906449202872
 21
259.123169156018
 31
0.0
  0
ARC
  5
36B
330
2
100
AcDbEntity
  8
0
100
AcDbCircle
 10
146.2211624183405
 20
272.9081982691532
 30
0.0
 40
1.310439098684448
100
AcDbArc
 50
84.17163136697416
 51
106.2603611376256
  0
LINE
  5
36C
102
{ACAD_REACTORS
330
CD
330
AF
102
}
330
2
100
AcDbEntity
  8
0
100
AcDbLine
 10
145.8542360360515
 20
259.123169156018
 30
0.0
 11
145.8542360360515
 21
286.623169156018
 31
0.0
  0
LINE
  5
36D
330
2
100
AcDbEntity
  8
0
100
AcDbLine
 10
145.8906449202872
 20
259.123169156018
 30
0.0
 11
145.8542360360515
 21
259.123169156018
 31
0.0
  0
LINE
  5
36E
330
2
100
AcDbEntity
  8
0
100
AcDbLine
 10
146.4795909005531
 20
274.2979289168205
 30
0.0
 11
146.5385904847089
 21
274.3981883696505
 31
0.0
  0
LINE
  5
36F
330
2
100
AcDbEntity
  8
0
100
AcDbLine
 10
146.4248619014908
 20
274.2391852988054
 30
0.0
 11
146.4795909005531
 21
274.2979289168205
 31
0.0
  0
LINE
  5
370
330
2
100
AcDbEntity
  8
0
100
AcDbLine
 10
146.3869812231175
 20
274.2177373148397
 30
0.0
 11
146.4248619014908
 21
274.2391852988054
 31
0.0
  0
LINE
  5
371
330
2
100
AcDbEntity
  8
0
100
AcDbLine
 10
146.3542360360515
 20
274.2118631201138
 30
0.0
 11
146.3869812231175
 21
274.2177373148397
 31
0.0
  0
LINE
  5
372
330
2
100
AcDbEntity
  8
0
100
AcDbLine
 10
147.114575964515
 20
275.3673504233567
 30
0.0
 11
146.5385904847089
 21
274.3981883696506
 31
0.0
  0
LINE
  5
373
330
2
100
AcDbEntity
  8
0
100
AcDbLine
 10
147.8050844472199
 20
276.2204631285476
 30
0.0
 11
147.114575964515
 21
275.3673504233567
 31
0.0
  0
LINE
  5
374
330
2
100
AcDbEntity
  8
0
100
AcDbLine
 10
148.3931587110075
 20
276.7999224349958
 30
0.0
 11
147.8050844472199
 21
276.2204631285476
 31
0.0
  0
LINE
  5
375
330
2
100
AcDbEntity
  8
0
100
AcDbLine
 10
149.0284201908607
 20
277.3257253932121
 30
0.0
 11
148.3931587110075
 21
276.7999224349958
 31
0.0
  0
LINE
  5
376
330
2
100
AcDbEntity
  8
0
100
AcDbLine
 10
150.3790203945988
 20
278.208980722274
 30
0.0
 11
149.0284201908607
 21
277.3257253932121
 31
0.0
  0
LINE
  5
377
330
2
100
AcDbEntity
  8
0
100
AcDbLine
 10
151.4465689583225
 20
278.7487456234672
 30
0.0
 11
150.3790203945988
 21
278.208980722274
 31
0.0
  0
LINE
  5
378
330
2
100
AcDbEntity
  8
0
100
AcDbLine
 10
152.5589008135688
 20
279.2031940353022
 30
0.0
 11
151.4465689583225
 21
278.7487456234672
 31
0.0
  0
LINE
  5
379
330
2
100
AcDbEntity
  8
0
100
AcDbLine
 10
153.6825880780997
 20
279.5738058652744
 30
0.0
 11
152.5589008135688
 21
279.2031940353022
 31
0.0
  0
LINE
  5
37A
330
2
100
AcDbEntity
  8
0
100
AcDbLine
 10
154.8320631277951
 20
279.8769761913838
 30
0.0
 11
153.6825880780997
 21
279.5738058652744
 31
0.0
  0
LINE
  5
37B
330
2
100
AcDbEntity
  8
0
100
AcDbLine
 10
156.579983052831
 20
280.2155414804146
 30
0.0
 11
154.8320631277951
 21
279.8769761913838
 31
0.0
  0
LINE
  5
37C
330
2
100
AcDbEntity
  8
0
100
AcDbLine
 10
158.3562884540769
 20
280.4299340005684
 30
0.0
 11
156.579983052831
 21
280.2155414804146
 31
0.0
  0
LINE
  5
37D
330
2
100
AcDbEntity
  8
0
100
AcDbLine
 10
160.1041415125011
 20
280.5283103514471
 30
0.0
 11
158.3562884540769
 21
280.4299340005684
 31
0.0
  0
LINE
  5
37E
330
2
100
AcDbEntity
  8
0
100
AcDbLine
 10
161.8562952520771
 20
280.5206165243614
 30
0.0
 11
160.1041415125011
 21
280.5283103514471
 31
0.0
  0
LINE
  5
37F
330
2
100
AcDbEntity
  8
0
100
AcDbLine
 10
163.5941374499988
 20
280.4078687643242
 30
0.0
 11
161.8562952520771
 21
280.5206165243614
 31
0.0
  0
LINE
  5
380
330
2
100
AcDbEntity
  8
0
100
AcDbLine
 10
165.3158354385045
 20
280.1855018246083
 30
0.0
 11
163.5941374499988
 21
280.4078687643242
 31
0.0
  0
LINE
  5
381
330
2
100
AcDbEntity
  8
0
100
AcDbLine
 10
166.96464144639
 20
279.8562833496915
 30
0.0
 11
165.3158354385045
 21
280.1855018246083
 31
0.0
  0
LINE
  5
382
330
2
100
AcDbEntity
  8
0
100
AcDbLine
 10
168.573109563741
 20
279.4032966420186
 30
0.0
 11
166.96464144639
 21
279.8562833496915
 31
0.0
  0
LINE
  5
383
330
2
100
AcDbEntity
  8
0
100
AcDbLine
 10
169.6392464874074
 20
279.0150420075857
 30
0.0
 11
168.573109563741
 21
279.4032966420186
 31
0.0
  0
LINE
  5
384
330
2
100
AcDbEntity
  8
0
100
AcDbLine
 10
170.6710459843397
 20
278.5553273935329
 30
0.0
 11
169.6392464874074
 21
279.0150420075857
 31
0.0
  0
LINE
  5
385
330
2
100
AcDbEntity
  8
0
100
AcDbLine
 10
171.634419576766
 20
278.0319228030896
 30
0.0
 11
170.6710459843397
 21
278.5553273935329
 31
0.0
  0
LINE
  5
386
330
2
100
AcDbEntity
  8
0
100
AcDbLine
 10
172.5451947684041
 20
277.4267458391121
 30
0.0
 11
171.634419576766
 21
278.0319228030896
 31
0.0
  0
LINE
  5
387
330
2
100
AcDbEntity
  8
0
100
AcDbLine
 10
173.6816891035827
 20
276.4515037844279
 30
0.0
 11
172.5451947684041
 21
277.4267458391121
 31
0.0
  0
LINE
  5
388
330
2
100
AcDbEntity
  8
0
100
AcDbLine
 10
174.174996268382
 20
275.9121966921061
 30
0.0
 11
173.6816891035827
 21
276.4515037844279
 31
0.0
  0
LINE
  5
389
330
2
100
AcDbEntity
  8
0
100
AcDbLine
 10
174.6202045145869
 20
275.3296173327717
 30
0.0
 11
174.174996268382
 21
275.9121966921061
 31
0.0
  0
LINE
  5
38A
330
2
100
AcDbEntity
  8
0
100
AcDbLine
 10
174.9125169869311
 20
274.8736125282448
 30
0.0
 11
174.6202045145869
 21
275.3296173327717
 31
0.0
  0
LINE
  5
38B
330
2
100
AcDbEntity
  8
0
100
AcDbLine
 10
175.1698815873941
 20
274.3981883696506
 30
0.0
 11
174.9125169869311
 21
274.8736125282448
 31
0.0
  0
LINE
  5
38C
330
2
100
AcDbEntity
  8
0
100
AcDbLine
 10
175.3439638834956
 20
274.2124412117576
 30
0.0
 11
175.3542360360515
 21
274.2118631201138
 31
0.0
  0
LINE
  5
38D
330
2
100
AcDbEntity
  8
0
100
AcDbLine
 10
175.311883591637
 20
274.2216895603048
 30
0.0
 11
175.3439638834956
 21
274.2124412117576
 31
0.0
  0
LINE
  5
38E
330
2
100
AcDbEntity
  8
0
100
AcDbLine
 10
175.2778815154847
 20
274.2437966345804
 30
0.0
 11
175.311883591637
 21
274.2216895603048
 31
0.0
  0
LINE
  5
38F
330
2
100
AcDbEntity
  8
0
100
AcDbLine
 10
175.2145558751462
 20
274.3187325349833
 30
0.0
 11
175.2778815154847
 21
274.2437966345804
 31
0.0
  0
LINE
  5
390
330
2
100
AcDbEntity
  8
0
100
AcDbLine
 10
175.1698815873941
 20
274.3981883696506
 30
0.0
 11
175.2145558751462
 21
274.3187325349833
 31
0.0
  0
LINE
  5
391
330
2
100
AcDbEntity
  8
0
100
AcDbLine
 10
190.8542360360515
 20
302.1326690825799
 30
0.0
 11
170.8542360360515
 21
302.1326690825799
 31
0.0
  0
LINE
  5
392
330
2
100
AcDbEntity
  8
0
100
AcDbLine
 10
190.8542360360515
 20
354.1326690825798
 30
0.0
 11
190.8542360360515
 21
302.1326690825799
 31
0.0
  0
LINE
  5
393
330
2
100
AcDbEntity
  8
0
100
AcDbLine
 10
150.8542360360515
 20
302.1326690825799
 30
0.0
 11
170.8542360360515
 21
302.1326690825799
 31
0.0
  0
LINE
  5
394
330
2
100
AcDbEntity
  8
0
100
AcDbLine
 10
150.8542360360515
 20
302.1326690825799
 30
0.0
 11
130.8542360360515
 21
302.1326690825799
 31
0.0
  0
LINE
  5
395
330
2
100
AcDbEntity
  8
0
100
AcDbLine
 10
130.8542360360515
 20
302.1326690825799
 30
0.0
 11
130.8542360360515
 21
354.1326690825799
 31
0.0
  0
LINE
  5
396
330
2
100
AcDbEntity
  8
0
100
AcDbLine
 10
163.0043861800049
 20
299.590386421618
 30
0.0
 11
163.8539335696218
 21
302.0904190004844
 31
0.0
  0
LINE
  5
397
330
2
100
AcDbEntity
  8
0
100
AcDbLine
 10
162.3674720933135
 20
297.1411735086538
 30
0.0
 11
163.0043861800049
 21
299.590386421618
 31
0.0
  0
LINE
  5
398
330
2
100
AcDbEntity
  8
0
100
AcDbLine
 10
159.3409999787897
 20
297.1411735086538
 30
0.0
 11
162.3674720933135
 21
297.1411735086538
 31
0.0
  0
LINE
  5
399
330
2
100
AcDbEntity
  8
0
100
AcDbLine
 10
158.7039132261592
 20
299.5901973101893
 30
0.0
 11
159.3409999787897
 21
297.1411735086538
 31
0.0
  0
LINE
  5
39A
330
2
100
AcDbEntity
  8
0
100
AcDbLine
 10
157.854153686268
 20
302.0901500817195
 30
0.0
 11
158.7039132261592
 21
299.5901973101893
 31
0.0
  0
ENDSEC
  0
SECTION
  2
OBJECTS
  0
DICTIONARY
  5
B
330
0
100
AcDbDictionary
281
     1
  3
ACAD_COLOR
350
3D
  3
ACAD_GROUP
350
38
  3
ACAD_LAYOUT
350
17
  3
ACAD_MATERIAL
350
D
  3
ACAD_MLEADERSTYLE
350
40
  3
ACAD_MLINESTYLE
350
39
  3
ACAD_PLOTSETTINGS
350
3A
  3
ACAD_PLOTSTYLENAME
350
A
  3
ACAD_SCALELIST
350
3E
  3
ACAD_TABLESTYLE
350
3F
  3
ACAD_VISUALSTYLE
350
2F
  3
ACDB_RECOMPOSE_DATA
350
3A6
  3
AcDbVariableDictionary
350
39E
  0
DICTIONARY
  5
20
330
1F
100
AcDbDictionary
280
     1
281
     1
  3
ACAD_LAYERFILTERS
360
21
  3
ACAD_LAYERSTATES
360
22
  3
ACLYDICTIONARY
360
23
  0
DICTIONARY
  5
7
330
6
100
AcDbDictionary
280
     1
281
     1
  3
ADSK_XREC_LAYER_RECONCILED
360
8
  0
DICTIONARY
  5
23C
330
23B
100
AcDbDictionary
280
     1
281
     1
  3
ADSK_XREC_LAYER_RECONCILED
360
23D
  0
DICTIONARY
  5
242
330
241
100
AcDbDictionary
280
     1
281
     1
  3
ADSK_XREC_LAYER_RECONCILED
360
243
  0
DICTIONARY
  5
27A
330
279
100
AcDbDictionary
280
     1
281
     1
  3
ADSK_XREC_LAYER_RECONCILED
360
27B
  0
DICTIONARY
  5
42
330
41
100
AcDbDictionary
280
     1
281
     1
  3
ADSK_XREC_LAYER_RECONCILED
360
43
  0
DICTIONARY
  5
264
330
263
100
AcDbDictionary
280
     1
281
     1
  3
ADSK_XREC_LAYER_RECONCILED
360
265
  0
DICTIONARY
  5
FA
330
F9
100
AcDbDictionary
280
     1
281
     1
  3
ADSK_XREC_LAYER_RECONCILED
360
FB
  0
DICTIONARY
  5
122
330
121
100
AcDbDictionary
280
     1
281
     1
  3
ADSK_XREC_LAYER_RECONCILED
360
123
  0
DICTIONARY
  5
AA
330
A9
100
AcDbDictionary
280
     1
281
     1
  3
ADSK_XREC_LAYER_RECONCILED
360
AB
  0
DICTIONARY
  5
3
330
2
100
AcDbDictionary
280
     1
281
     1
  3
ACAD_SORTENTS
360
39D
  0
DICTIONARY
  5
237
330
236
100
AcDbDictionary
280
     1
281
     1
  3
ACAD_SORTENTS
360
39B
  0
DICTIONARY
  5
FE
330
FD
100
AcDbDictionary
280
     1
281
     1
  3
ACAD_SORTENTS
360
39C
  0
DICTIONARY
  5
6B
330
6A
100
AcDbDictionary
280
     1
281
     1
  3
ACAD_DIMASSOC
360
6C
  0
DICTIONARY
  5
7C
330
7B
100
AcDbDictionary
280
     1
281
     1
  3
ACAD_DIMASSOC
360
7D
  0
DICTIONARY
  5
8B
330
8A
100
AcDbDictionary
280
     1
281
     1
  3
ACAD_DIMASSOC
360
8C
  0
DICTIONARY
  5
9A
330
99
100
AcDbDictionary
280
     1
281
     1
  3
ACAD_DIMASSOC
360
9B
  0
DICTIONARY
  5
AE
330
AD
100
AcDbDictionary
280
     1
281
     1
  3
ACAD_DIMASSOC
360
AF
  0
DICTIONARY
  5
BD
330
BC
100
AcDbDictionary
280
     1
281
     1
  3
ACAD_DIMASSOC
360
BE
  0
DICTIONARY
  5
CC
330
CB
100
AcDbDictionary
280
     1
281
     1
  3
ACAD_DIMASSOC
360
CD
  0
DICTIONARY
  5
DB
330
DA
100
AcDbDictionary
280
     1
281
     1
  3
ACAD_DIMASSOC
360
DC
  0
DICTIONARY
  5
EA
330
E9
100
AcDbDictionary
280
     1
281
     1
  3
ACAD_DIMASSOC
360
EB
  0
DICTIONARY
  5
127
330
126
100
AcDbDictionary
280
     1
281
     1
  3
ACAD_DIMASSOC
360
128
  0
DICTIONARY
  5
1CB
330
1CA
100
AcDbDictionary
280
     1
281
     1
  3
ACAD_DIMASSOC
360
1CC
  0
DICTIONARY
  5
1DA
330
1D9
100
AcDbDictionary
280
     1
281
     1
  3
ACAD_DIMASSOC
360
1DB
  0
DICTIONARY
  5
2BD
330
2BC
100
AcDbDictionary
280
     1
281
     1
  3
ACAD_DIMASSOC
360
2BE
  0
DICTIONARY
  5
2CC
330
2CB
100
AcDbDictionary
280
     1
281
     1
  3
ACAD_DIMASSOC
360
2CD
  0
DICTIONARY
  5
2DB
330
2DA
100
AcDbDictionary
280
     1
281
     1
  3
ACAD_DIMASSOC
360
2DC
  0
DICTIONARY
  5
3D
102
{ACAD_REACTORS
330
B
102
}
330
B
100
AcDbDictionary
281
     1
  0
DICTIONARY
  5
38
102
{ACAD_REACTORS
330
B
102
}
330
B
100
AcDbDictionary
281
     1
  0
DICTIONARY
  5
17
102
{ACAD_REACTORS
330
B
102
}
330
B
100
AcDbDictionary
281
     1
  3
Layout1
350
1E
  3
Model
350
16
  0
DICTIONARY
  5
D
102
{ACAD_REACTORS
330
B
102
}
330
B
100
AcDbDictionary
281
     1
  3
ByBlock
350
3C
  3
ByLayer
350
3B
  3
Global
350
C
  0
DICTIONARY
  5
40
102
{ACAD_REACTORS
330
B
102
}
330
B
100
AcDbDictionary
281
     1
  0
DICTIONARY
  5
39
102
{ACAD_REACTORS
330
B
102
}
330
B
100
AcDbDictionary
281
     1
  3
Standard
350
44
  0
DICTIONARY
  5
3A
102
{ACAD_REACTORS
330
B
102
}
330
B
100
AcDbDictionary
281
     1
  0
ACDBDICTIONARYWDFLT
  5
A
102
{ACAD_REACTORS
330
B
102
}
330
B
100
AcDbDictionary
281
     1
  3
Normal
350
9
100
AcDbDictionaryWithDefault
340
9
  0
DICTIONARY
  5
3E
102
{ACAD_REACTORS
330
B
102
}
330
B
100
AcDbDictionary
281
     1
  3
A0
350
49
  3
A1
350
4A
  3
A2
350
4B
  3
A3
350
4C
  3
A4
350
4D
  3
A5
350
4E
  3
A6
350
4F
  3
A7
350
50
  3
A8
350
51
  3
A9
350
52
  3
B0
350
53
  3
B1
350
54
  3
B2
350
55
  3
B3
350
56
  3
B4
350
57
  3
B5
350
58
  3
B6
350
59
  3
B7
350
5A
  3
B8
350
5B
  3
B9
350
5C
  3
C0
350
5D
  3
C1
350
5E
  3
C2
350
5F
  3
C3
350
60
  3
C4
350
61
  3
C5
350
62
  3
C6
350
63
  3
C7
350
64
  3
C8
350
65
  3
C9
350
66
  3
D0
350
67
  3
D1
350
68
  3
D2
350
69
  0
DICTIONARY
  5
3F
102
{ACAD_REACTORS
330
B
102
}
330
B
100
AcDbDictionary
281
     1
  3
Standard
350
45
  0
DICTIONARY
  5
2F
102
{ACAD_REACTORS
330
B
102
}
330
B
100
AcDbDictionary
281
     1
  3
2dWireframe
350
2E
  3
3dWireframe
350
48
  3
Realistic
350
47
  0
XRECORD
  5
3A6
102
{ACAD_REACTORS
330
B
102
}
330
B
100
AcDbXrecord
280
     1
 90
        1
330
45
  0
DICTIONARY
  5
39E
102
{ACAD_REACTORS
330
B
102
}
330
B
100
AcDbDictionary
281
     1
  3
CANNOSCALE
350
3A1
  3
CMLEADERSTYLE
350
3A0
  3
CTABLESTYLE
350
39F
  3
LAYEREVAL
350
3A2
  3
LAYERNOTIFY
350
3A3
  0
DICTIONARY
  5
21
102
{ACAD_REACTORS
330
20
102
}
330
20
100
AcDbDictionary
281
     1
  0
DICTIONARY
  5
22
102
{ACAD_REACTORS
330
20
102
}
330
20
100
AcDbDictionary
281
     1
  0
DICTIONARY
  5
23
102
{ACAD_REACTORS
330
20
102
}
330
20
100
AcDbDictionary
281
     1
1001
ACAD
1000
<All
  0
XRECORD
  5
8
102
{ACAD_REACTORS
330
7
102
}
330
7
100
AcDbXrecord
280
     1
290
     1
  0
XRECORD
  5
23D
102
{ACAD_REACTORS
330
23C
102
}
330
23C
100
AcDbXrecord
280
     1
290
     1
  0
XRECORD
  5
243
102
{ACAD_REACTORS
330
242
102
}
330
242
100
AcDbXrecord
280
     1
290
     1
  0
XRECORD
  5
27B
102
{ACAD_REACTORS
330
27A
102
}
330
27A
100
AcDbXrecord
280
     1
290
     1
  0
XRECORD
  5
43
102
{ACAD_REACTORS
330
42
102
}
330
42
100
AcDbXrecord
280
     1
290
     1
  0
XRECORD
  5
265
102
{ACAD_REACTORS
330
264
102
}
330
264
100
AcDbXrecord
280
     1
290
     1
  0
XRECORD
  5
FB
102
{ACAD_REACTORS
330
FA
102
}
330
FA
100
AcDbXrecord
280
     1
290
     1
  0
XRECORD
  5
123
102
{ACAD_REACTORS
330
122
102
}
330
122
100
AcDbXrecord
280
     1
290
     1
  0
XRECORD
  5
AB
102
{ACAD_REACTORS
330
AA
102
}
330
AA
100
AcDbXrecord
280
     1
290
     1
  0
SORTENTSTABLE
  5
39D
102
{ACAD_REACTORS
330
3
102
}
330
3
100
AcDbSortentsTable
330
2
331
AC
  5
395
331
126
  5
38B
331
A8
  5
396
331
30C
  5
342
331
347
  5
307
331
308
  5
346
331
384
  5
1CA
331
304
  5
34A
331
343
  5
30B
331
380
  5
1F6
331
300
  5
34E
331
37C
  5
222
331
378
  5
226
331
33F
  5
30F
331
2FC
  5
352
331
33B
  5
313
331
337
  5
317
331
2F8
  5
356
331
374
  5
22A
331
2F4
  5
35A
331
333
  5
31B
331
370
  5
22E
331
2F0
  5
35E
331
36C
  5
232
331
368
  5
2BC
331
CB
  5
392
331
32F
  5
31F
331
2EC
  5
362
331
32B
  5
323
331
323
  5
32B
331
364
  5
2EA
331
360
  5
2EE
331
35C
  5
2F2
331
232
  5
36C
331
358
  5
2F6
331
31F
  5
32F
331
135
  5
38A
331
31B
  5
333
331
397
  5
99
331
317
  5
337
331
393
  5
BC
331
313
  5
33B
331
22E
  5
370
331
354
  5
2FA
331
22A
  5
374
331
350
  5
2FE
331
38F
  5
F8
331
226
  5
378
331
34C
  5
302
331
38B
  5
126
331
222
  5
37C
331
348
  5
306
331
30F
  5
33F
331
125
  5
38C
331
30B
  5
343
331
346
  5
308
331
387
  5
183
331
307
  5
347
331
383
  5
1D9
331
303
  5
34B
331
342
  5
30C
331
37F
  5
205
331
1A0
  5
386
331
37B
  5
223
331
DA
  5
391
331
2FF
  5
34F
331
33E
  5
310
331
2FB
  5
353
331
33A
  5
314
331
336
  5
318
331
2BC
  5
368
331
377
  5
227
331
2F7
  5
357
331
373
  5
22B
331
2F3
  5
35B
331
332
  5
31C
331
36F
  5
22F
331
36B
  5
233
331
2EF
  5
35F
331
32E
  5
320
331
2EB
  5
363
331
32A
  5
324
331
326
  5
328
331
367
  5
2CB
331
363
  5
2EB
331
322
  5
32C
331
35F
  5
2EF
331
1F6
  5
380
331
235
  5
369
331
35B
  5
2F3
331
39A
  5
6A
331
231
  5
36D
331
7B
  5
399
331
31E
  5
330
331
31A
  5
334
331
396
  5
A8
331
316
  5
338
331
357
  5
2F7
331
392
  5
CB
331
312
  5
33C
331
22D
  5
371
331
353
  5
2FB
331
229
  5
375
331
34F
  5
2FF
331
38E
  5
11F
331
34B
  5
303
331
38A
  5
135
331
225
  5
379
331
16C
  5
388
331
221
  5
37D
331
30E
  5
340
331
E9
  5
390
331
120
  5
38D
331
30A
  5
344
331
345
  5
309
331
2CB
  5
367
331
386
  5
1A0
331
306
  5
348
331
382
  5
1E8
331
302
  5
34C
331
341
  5
30D
331
37E
  5
214
331
37A
  5
224
331
2FE
  5
350
331
33D
  5
311
331
2FA
  5
354
331
339
  5
315
331
335
  5
319
331
376
  5
228
331
2F6
  5
358
331
372
  5
22C
331
2F2
  5
35C
331
331
  5
31D
331
36E
  5
230
331
1CA
  5
384
331
205
  5
37F
331
36A
  5
234
331
8A
  5
398
331
2EE
  5
360
331
32D
  5
321
331
2EA
  5
364
331
329
  5
325
331
325
  5
329
331
366
  5
2DA
331
362
  5
2EC
331
183
  5
387
331
321
  5
32D
331
35E
  5
2F0
331
234
  5
36A
331
35A
  5
2F4
331
399
  5
7B
331
230
  5
36E
331
F8
  5
38F
331
31D
  5
331
331
2DA
  5
366
331
319
  5
335
331
395
  5
AC
331
315
  5
339
331
356
  5
2F8
331
22C
  5
372
331
352
  5
2FC
331
391
  5
DA
331
311
  5
33D
331
228
  5
376
331
34E
  5
300
331
38D
  5
120
331
1E9
  5
381
331
224
  5
37A
331
34A
  5
304
331
389
  5
156
331
AD
  5
394
331
30D
  5
341
331
309
  5
345
331
385
  5
1BD
331
305
  5
349
331
344
  5
30A
331
381
  5
1E9
331
301
  5
34D
331
340
  5
30E
331
37D
  5
221
331
1D9
  5
383
331
214
  5
37E
331
379
  5
225
331
11F
  5
38E
331
156
  5
389
331
99
  5
397
331
2FD
  5
351
331
33C
  5
312
331
338
  5
316
331
2F9
  5
355
331
334
  5
31A
331
375
  5
229
331
2F5
  5
359
331
371
  5
22D
331
2F1
  5
35D
331
6A
  5
39A
331
330
  5
31E
331
36D
  5
231
331
369
  5
235
331
2ED
  5
361
331
32C
  5
322
331
2E9
  5
365
331
328
  5
326
331
324
  5
32A
331
365
  5
2E9
331
361
  5
2ED
331
320
  5
32E
331
35D
  5
2F1
331
1BD
  5
385
331
233
  5
36B
331
359
  5
2F5
331
398
  5
8A
331
BC
  5
393
331
31C
  5
332
331
318
  5
336
331
394
  5
AD
331
314
  5
33A
331
22F
  5
36F
331
355
  5
2F9
331
22B
  5
373
331
351
  5
2FD
331
390
  5
E9
331
310
  5
33E
331
1E8
  5
382
331
227
  5
377
331
34D
  5
301
331
38C
  5
125
331
223
  5
37B
331
349
  5
305
331
388
  5
16C
  0
SORTENTSTABLE
  5
39B
102
{ACAD_REACTORS
330
237
102
}
330
237
100
AcDbSortentsTable
330
236
  0
SORTENTSTABLE
  5
39C
102
{ACAD_REACTORS
330
FE
102
}
330
FE
100
AcDbSortentsTable
330
FD
  0
DIMASSOC
  5
6C
102
{ACAD_REACTORS
330
6B
102
}
330
6B
100
AcDbDimAssoc
330
6A
 90
        3
 70
     0
 71
     0
  1
AcDbOsnapPointRef
 72
     1
331
319
 73
     2
 91
        0
 40
1.0
 10
0.0
 20
0.0
 30
2.000000000000000E+50
 75
     0
  1
AcDbOsnapPointRef
 72
     1
331
183
331
186
 73
     2
 91
        0
 40
1.0
 10
0.0
 20
0.0
 30
2.000000000000000E+50
 75
     0
  0
DIMASSOC
  5
7D
102
{ACAD_REACTORS
330
7C
102
}
330
7C
100
AcDbDimAssoc
330
7B
 90
        3
 70
     0
 71
     0
  1
AcDbOsnapPointRef
 72
    10
331
183
331
18F
 73
     2
 91
        0
 40
0.3409629716236118
 10
0.0
 20
0.0
 30
0.0
 75
     0
  1
AcDbOsnapPointRef
 72
    10
331
183
331
186
 73
     2
 91
        0
 40
0.3433793811950256
 10
0.0
 20
0.0
 30
0.0
 75
     0
  0
DIMASSOC
  5
8C
102
{ACAD_REACTORS
330
8B
102
}
330
8B
100
AcDbDimAssoc
330
8A
 90
        3
 70
     0
 71
     0
  1
AcDbOsnapPointRef
 72
    10
331
1A0
331
1B3
 73
     2
 91
        0
 40
0.1777957593948248
 10
0.0
 20
0.0
 30
0.0
 75
     0
  1
AcDbOsnapPointRef
 72
     8
331
1A0
331
1B6
 73
     2
 91
        0
 40
0.177795759394826
 10
0.0
 20
0.0
 30
0.0
 75
     1
  1
AcDbOsnapPointRef
 72
    10
331
1A0
331
1B3
 73
     2
 91
        0
 40
0.1777957593948248
 10
0.0
 20
0.0
 30
0.0
 75
     0
  0
DIMASSOC
  5
9B
102
{ACAD_REACTORS
330
9A
102
}
330
9A
100
AcDbDimAssoc
330
99
 90
        3
 70
     0
 71
     0
  1
AcDbOsnapPointRef
 72
    10
331
F8
331
101
 73
     2
 91
        0
 40
0.3471998814596346
 10
0.0
 20
0.0
 30
0.0
 75
     0
  1
AcDbOsnapPointRef
 72
    10
331
F8
331
10D
 73
     2
 91
        0
 40
0.1730150125676328
 10
0.0
 20
0.0
 30
0.0
 75
     0
  0
DIMASSOC
  5
AF
102
{ACAD_REACTORS
330
AE
102
}
330
AE
100
AcDbDimAssoc
330
AD
 90
        3
 70
     0
 71
     0
  1
AcDbOsnapPointRef
 72
    13
331
36C
 73
     2
 91
        0
 40
0.0
 10
0.0
 20
0.0
 30
2.000000000000000E+50
 75
     0
  1
AcDbOsnapPointRef
 72
    13
331
135
331
139
 73
     2
 91
        0
 40
1.570796326794896
 10
0.0
 20
0.0
 30
2.000000000000000E+50
 75
     0
  0
DIMASSOC
  5
BE
102
{ACAD_REACTORS
330
BD
102
}
330
BD
100
AcDbDimAssoc
330
BC
 90
        3
 70
     0
 71
     0
  1
AcDbOsnapPointRef
 72
     1
331
36A
 73
     2
 91
        0
 40
1.0
 10
0.0
 20
0.0
 30
2.000000000000000E+50
 75
     0
  1
AcDbOsnapPointRef
 72
    13
331
F8
331
110
 73
     2
 91
        0
 40
0.0
 10
0.0
 20
0.0
 30
2.000000000000000E+50
 75
     0
  0
DIMASSOC
  5
CD
102
{ACAD_REACTORS
330
CC
102
}
330
CC
100
AcDbDimAssoc
330
CB
 90
        3
 70
     0
 71
     0
  1
AcDbOsnapPointRef
 72
    13
331
2F0
 73
     2
 91
        0
 40
0.0
 10
0.0
 20
0.0
 30
2.000000000000000E+50
 75
     0
  1
AcDbOsnapPointRef
 72
    13
331
36C
 73
     2
 91
        0
 40
0.0
 10
0.0
 20
0.0
 30
2.000000000000000E+50
 75
     0
  0
DIMASSOC
  5
DC
102
{ACAD_REACTORS
330
DB
102
}
330
DB
100
AcDbDimAssoc
330
DA
 90
        3
 70
     0
 71
     0
  1
AcDbOsnapPointRef
 72
    13
331
2F0
 73
     2
 91
        0
 40
0.0
 10
0.0
 20
0.0
 30
2.000000000000000E+50
 75
     0
  1
AcDbOsnapPointRef
 72
    13
331
135
331
139
 73
     2
 91
        0
 40
1.570796326794896
 10
0.0
 20
0.0
 30
2.000000000000000E+50
 75
     0
  0
DIMASSOC
  5
EB
102
{ACAD_REACTORS
330
EA
102
}
330
EA
100
AcDbDimAssoc
330
E9
 90
        3
 70
     0
 71
     0
  1
AcDbOsnapPointRef
 72
    13
331
2F0
 73
     2
 91
        0
 40
0.0
 10
0.0
 20
0.0
 30
2.000000000000000E+50
 75
     0
  1
AcDbOsnapPointRef
 72
    13
331
F8
331
110
 73
     2
 91
        0
 40
0.0
 10
0.0
 20
0.0
 30
2.000000000000000E+50
 75
     0
  0
DIMASSOC
  5
128
102
{ACAD_REACTORS
330
127
102
}
330
127
100
AcDbDimAssoc
330
126
 90
        3
 70
     0
 71
     0
  1
AcDbOsnapPointRef
 72
    13
331
2FD
 73
     2
 91
        0
 40
0.0
 10
0.0
 20
0.0
 30
2.000000000000000E+50
 75
     0
  1
AcDbOsnapPointRef
 72
    13
331
2FE
 73
     2
 91
        0
 40
0.0
 10
0.0
 20
0.0
 30
2.000000000000000E+50
 75
     0
  0
DIMASSOC
  5
1CC
102
{ACAD_REACTORS
330
1CB
102
}
330
1CB
100
AcDbDimAssoc
330
1CA
 90
        3
 70
     0
 71
     0
  1
AcDbOsnapPointRef
 72
     1
331
227
 73
     2
 91
        0
 40
1.0
 10
0.0
 20
0.0
 30
2.000000000000000E+50
 75
     0
  1
AcDbOsnapPointRef
 72
     6
331
2F0
 73
     2
 91
        0
 40
0.3066576596283148
 10
0.0
 20
0.0
 30
0.0
332
35B
 74
     2
 92
        0
 75
     0
  0
DIMASSOC
  5
1DB
102
{ACAD_REACTORS
330
1DA
102
}
330
1DA
100
AcDbDimAssoc
330
1D9
 90
        3
 70
     0
 71
     0
  1
AcDbOsnapPointRef
 72
    13
331
31A
 73
     2
 91
        0
 40
0.0
 10
0.0
 20
0.0
 30
2.000000000000000E+50
 75
     0
  1
AcDbOsnapPointRef
 72
    13
331
1E8
 73
     2
 91
        0
 40
0.0
 10
0.0
 20
0.0
 30
2.000000000000000E+50
 75
     0
  0
DIMASSOC
  5
2BE
102
{ACAD_REACTORS
330
2BD
102
}
330
2BD
100
AcDbDimAssoc
330
2BC
 90
        1
 70
     0
 71
     0
  1
AcDbOsnapPointRef
 72
     1
331
319
 73
     2
 91
        0
 40
1.0
 10
0.0
 20
0.0
 30
2.000000000000000E+50
 75
     0
  0
DIMASSOC
  5
2CD
102
{ACAD_REACTORS
330
2CC
102
}
330
2CC
100
AcDbDimAssoc
330
2CB
 90
        3
 70
     0
 71
     0
  1
AcDbOsnapPointRef
 72
     1
331
319
 73
     2
 91
        0
 40
1.0
 10
0.0
 20
0.0
 30
2.000000000000000E+50
 75
     0
  1
AcDbOsnapPointRef
 72
    13
331
302
 73
     2
 91
        0
 40
0.0
 10
0.0
 20
0.0
 30
2.000000000000000E+50
 75
     0
  0
DIMASSOC
  5
2DC
102
{ACAD_REACTORS
330
2DB
102
}
330
2DB
100
AcDbDimAssoc
330
2DA
 90
        1
 70
     0
 71
     0
  1
AcDbOsnapPointRef
 72
     1
331
319
 73
     2
 91
        0
 40
1.0
 10
0.0
 20
0.0
 30
2.000000000000000E+50
 75
     0
  0
LAYOUT
  5
1E
102
{ACAD_REACTORS
330
17
102
}
330
17
100
AcDbPlotSettings
  1

  2
C:\Documents and Settings\basas\Application Data\Autodesk\AutoCAD 2005\R16.1\enu\plotters\Default Windows System Printer.pc3
  4

  6

 40
0.0
 41
0.0
 42
0.0
 43
0.0
 44
0.0
 45
0.0
 46
0.0
 47
0.0
 48
0.0
 49
0.0
140
0.0
141
0.0
142
1.0
143
1.0
 70
   688
 72
     0
 73
     0
 74
     5
  7

 75
    16
147
1.0
 76
     0
 77
     2
 78
   300
148
0.0
149
0.0
100
AcDbLayout
  1
Layout1
 70
     1
 71
     1
 10
0.0
 20
0.0
 11
12.0
 21
9.0
 12
0.0
 22
0.0
 32
0.0
 14
0.0
 24
0.0
 34
0.0
 15
0.0
 25
0.0
 35
0.0
146
0.0
 13
0.0
 23
0.0
 33
0.0
 16
1.0
 26
0.0
 36
0.0
 17
0.0
 27
1.0
 37
0.0
 76
     0
330
1B
  0
LAYOUT
  5
16
102
{ACAD_XDICTIONARY
360
18
102
}
102
{ACAD_REACTORS
330
17
102
}
330
17
100
AcDbPlotSettings
  1

  2
none_device
  4
ISO_A4_(210.00_x_297.00_MM)
  6

 40
7.5
 41
20.0
 42
7.5
 43
20.0
 44
210.0
 45
297.0
 46
11.54999923706054
 47
-13.65000009536743
 48
0.0
 49
0.0
140
0.0
141
0.0
142
1.0
143
8.704084754739808
 70
 11952
 72
     1
 73
     0
 74
     0
  7

 75
     0
147
0.1148885871608098
 76
     0
 77
     2
 78
   300
148
0.0
149
0.0
100
AcDbLayout
  1
Model
 70
     1
 71
     0
 10
0.0
 20
0.0
 11
12.0
 21
9.0
 12
0.0
 22
0.0
 32
0.0
 14
0.0
 24
0.0
 34
0.0
 15
0.0
 25
0.0
 35
0.0
146
0.0
 13
0.0
 23
0.0
 33
0.0
 16
1.0
 26
0.0
 36
0.0
 17
0.0
 27
1.0
 37
0.0
 76
     0
330
2
331
2D
1001
ACAD_PSEXT
1000
None
1000
None
1000
Not applicable
1000
The layout will not be plotted unless a new plotter configuration name is selected.
1070
     0
  0
MATERIAL
  5
3C
102
{ACAD_REACTORS
330
D
102
}
330
D
100
AcDbMaterial
  1
ByBlock
 94
       63
  0
MATERIAL
  5
3B
102
{ACAD_REACTORS
330
D
102
}
330
D
100
AcDbMaterial
  1
ByLayer
 94
       63
  0
MATERIAL
  5
C
102
{ACAD_XDICTIONARY
360
E
102
}
102
{ACAD_REACTORS
330
D
102
}
330
D
100
AcDbMaterial
  1
Global
 43
0.0007999999797903
 43
0.0
 43
0.0
 43
0.0
 43
0.0
 43
0.0007999999797903
 43
0.0
 43
0.0
 43
0.0
 43
0.0
 43
1.0
 43
0.0
 43
0.0
 43
0.0
 43
0.0
 43
1.0
 49
0.0007999999797903
 49
0.0
 49
0.0
 49
0.0
 49
0.0
 49
0.0007999999797903
 49
0.0
 49
0.0
 49
0.0
 49
0.0
 49
1.0
 49
0.0
 49
0.0
 49
0.0
 49
0.0
 49
1.0
142
0.0007999999797903
142
0.0
142
0.0
142
0.0
142
0.0
142
0.0007999999797903
142
0.0
142
0.0
142
0.0
142
0.0
142
1.0
142
0.0
142
0.0
142
0.0
142
0.0
142
1.0
144
0.0007999999797903
144
0.0
144
0.0
144
0.0
144
0.0
144
0.0007999999797903
144
0.0
144
0.0
144
0.0
144
0.0
144
1.0
144
0.0
144
0.0
144
0.0
144
0.0
144
1.0
 94
       63
1001
ACAD
1070
    -1
1070
     3
1070
     0
1000

1071
        0
1070
     0
  0
MLINESTYLE
  5
44
102
{ACAD_REACTORS
330
39
102
}
330
39
100
AcDbMlineStyle
  2
STANDARD
 70
     0
  3

 62
   256
 51
90.0
 52
90.0
 71
     2
 49
0.5
 62
   256
  6
BYLAYER
 49
-0.5
 62
   256
  6
BYLAYER
  0
ACDBPLACEHOLDER
  5
9
102
{ACAD_REACTORS
330
A
102
}
330
A
  0
SCALE
  5
49
102
{ACAD_REACTORS
330
3E
102
}
330
3E
100
AcDbScale
 70
     0
300
1:1
140
1.0
141
1.0
290
     1
  0
SCALE
  5
4A
102
{ACAD_REACTORS
330
3E
102
}
330
3E
100
AcDbScale
 70
     0
300
1:2
140
1.0
141
2.0
290
     0
  0
SCALE
  5
4B
102
{ACAD_REACTORS
330
3E
102
}
330
3E
100
AcDbScale
 70
     0
300
1:4
140
1.0
141
4.0
290
     0
  0
SCALE
  5
4C
102
{ACAD_REACTORS
330
3E
102
}
330
3E
100
AcDbScale
 70
     0
300
1:5
140
1.0
141
5.0
290
     0
  0
SCALE
  5
4D
102
{ACAD_REACTORS
330
3E
102
}
330
3E
100
AcDbScale
 70
     0
300
1:8
140
1.0
141
8.0
290
     0
  0
SCALE
  5
4E
102
{ACAD_REACTORS
330
3E
102
}
330
3E
100
AcDbScale
 70
     0
300
1:10
140
1.0
141
10.0
290
     0
  0
SCALE
  5
4F
102
{ACAD_REACTORS
330
3E
102
}
330
3E
100
AcDbScale
 70
     0
300
1:16
140
1.0
141
16.0
290
     0
  0
SCALE
  5
50
102
{ACAD_REACTORS
330
3E
102
}
330
3E
100
AcDbScale
 70
     0
300
1:20
140
1.0
141
20.0
290
     0
  0
SCALE
  5
51
102
{ACAD_REACTORS
330
3E
102
}
330
3E
100
AcDbScale
 70
     0
300
1:30
140
1.0
141
30.0
290
     0
  0
SCALE
  5
52
102
{ACAD_REACTORS
330
3E
102
}
330
3E
100
AcDbScale
 70
     0
300
1:40
140
1.0
141
40.0
290
     0
  0
SCALE
  5
53
102
{ACAD_REACTORS
330
3E
102
}
330
3E
100
AcDbScale
 70
     0
300
1:50
140
1.0
141
50.0
290
     0
  0
SCALE
  5
54
102
{ACAD_REACTORS
330
3E
102
}
330
3E
100
AcDbScale
 70
     0
300
1:100
140
1.0
141
100.0
290
     0
  0
SCALE
  5
55
102
{ACAD_REACTORS
330
3E
102
}
330
3E
100
AcDbScale
 70
     0
300
2:1
140
2.0
141
1.0
290
     0
  0
SCALE
  5
56
102
{ACAD_REACTORS
330
3E
102
}
330
3E
100
AcDbScale
 70
     0
300
4:1
140
4.0
141
1.0
290
     0
  0
SCALE
  5
57
102
{ACAD_REACTORS
330
3E
102
}
330
3E
100
AcDbScale
 70
     0
300
8:1
140
8.0
141
1.0
290
     0
  0
SCALE
  5
58
102
{ACAD_REACTORS
330
3E
102
}
330
3E
100
AcDbScale
 70
     0
300
10:1
140
10.0
141
1.0
290
     0
  0
SCALE
  5
59
102
{ACAD_REACTORS
330
3E
102
}
330
3E
100
AcDbScale
 70
     0
300
100:1
140
100.0
141
1.0
290
     0
  0
SCALE
  5
5A
102
{ACAD_REACTORS
330
3E
102
}
330
3E
100
AcDbScale
 70
     0
300
1/128" = 1'-0"
140
0.0078125
141
12.0
290
     0
  0
SCALE
  5
5B
102
{ACAD_REACTORS
330
3E
102
}
330
3E
100
AcDbScale
 70
     0
300
1/64" = 1'-0"
140
0.015625
141
12.0
290
     0
  0
SCALE
  5
5C
102
{ACAD_REACTORS
330
3E
102
}
330
3E
100
AcDbScale
 70
     0
300
1/32" = 1'-0"
140
0.03125
141
12.0
290
     0
  0
SCALE
  5
5D
102
{ACAD_REACTORS
330
3E
102
}
330
3E
100
AcDbScale
 70
     0
300
1/16" = 1'-0"
140
0.0625
141
12.0
290
     0
  0
SCALE
  5
5E
102
{ACAD_REACTORS
330
3E
102
}
330
3E
100
AcDbScale
 70
     0
300
3/32" = 1'-0"
140
0.09375
141
12.0
290
     0
  0
SCALE
  5
5F
102
{ACAD_REACTORS
330
3E
102
}
330
3E
100
AcDbScale
 70
     0
300
1/8" = 1'-0"
140
0.125
141
12.0
290
     0
  0
SCALE
  5
60
102
{ACAD_REACTORS
330
3E
102
}
330
3E
100
AcDbScale
 70
     0
300
3/16" = 1'-0"
140
0.1875
141
12.0
290
     0
  0
SCALE
  5
61
102
{ACAD_REACTORS
330
3E
102
}
330
3E
100
AcDbScale
 70
     0
300
1/4" = 1'-0"
140
0.25
141
12.0
290
     0
  0
SCALE
  5
62
102
{ACAD_REACTORS
330
3E
102
}
330
3E
100
AcDbScale
 70
     0
300
3/8" = 1'-0"
140
0.375
141
12.0
290
     0
  0
SCALE
  5
63
102
{ACAD_REACTORS
330
3E
102
}
330
3E
100
AcDbScale
 70
     0
300
1/2" = 1'-0"
140
0.5
141
12.0
290
     0
  0
SCALE
  5
64
102
{ACAD_REACTORS
330
3E
102
}
330
3E
100
AcDbScale
 70
     0
300
3/4" = 1'-0"
140
0.75
141
12.0
290
     0
  0
SCALE
  5
65
102
{ACAD_REACTORS
330
3E
102
}
330
3E
100
AcDbScale
 70
     0
300
1" = 1'-0"
140
1.0
141
12.0
290
     0
  0
SCALE
  5
66
102
{ACAD_REACTORS
330
3E
102
}
330
3E
100
AcDbScale
 70
     0
300
1-1/2" = 1'-0"
140
1.5
141
12.0
290
     0
  0
SCALE
  5
67
102
{ACAD_REACTORS
330
3E
102
}
330
3E
100
AcDbScale
 70
     0
300
3" = 1'-0"
140
3.0
141
12.0
290
     0
  0
SCALE
  5
68
102
{ACAD_REACTORS
330
3E
102
}
330
3E
100
AcDbScale
 70
     0
300
6" = 1'-0"
140
6.0
141
12.0
290
     0
  0
SCALE
  5
69
102
{ACAD_REACTORS
330
3E
102
}
330
3E
100
AcDbScale
 70
     0
300
1'-0" = 1'-0"
140
12.0
141
12.0
290
     0
  0
TABLESTYLE
  5
45
102
{ACAD_XDICTIONARY
360
46
102
}
102
{ACAD_REACTORS
330
3F
102
}
330
3F
100
AcDbTableStyle
280
     0
  3
Standard
 70
     0
 71
     0
 40
1.5
 41
1.5
280
     0
281
     0
  7
Standard
140
4.5
170
     2
 62
     0
 63
     7
283
     0
 90
      512
 91
        0
  1

274
    -2
284
     1
 64
     0
275
    -2
285
     1
 65
     0
276
    -2
286
     1
 66
     0
277
    -2
287
     1
 67
     0
278
    -2
288
     1
 68
     0
279
    -2
289
     1
 69
     0
  7
Standard
140
6.0
170
     5
 62
     0
 63
     7
283
     0
 90
      512
 91
        0
  1

274
    -2
284
     1
 64
     0
275
    -2
285
     1
 65
     0
276
    -2
286
     1
 66
     0
277
    -2
287
     1
 67
     0
278
    -2
288
     1
 68
     0
279
    -2
289
     1
 69
     0
  7
Standard
140
4.5
170
     5
 62
     0
 63
     7
283
     0
 90
      512
 91
        0
  1

274
    -2
284
     1
 64
     0
275
    -2
285
     1
 65
     0
276
    -2
286
     1
 66
     0
277
    -2
287
     1
 67
     0
278
    -2
288
     1
 68
     0
279
    -2
289
     1
 69
     0
  0
VISUALSTYLE
  5
2E
102
{ACAD_REACTORS
330
2F
102
}
330
2F
100
AcDbVisualStyle
  2
2dWireframe
 70
     4
177
     2
291
     0
 71
     0
176
     1
 72
     2
176
     1
 73
     1
176
     1
 90
        0
176
     1
 40
0.6
176
     1
 41
30.0
176
     1
 63
     7
421
 16777215
176
     1
 74
     1
176
     1
 91
        4
176
     1
 64
     7
176
     1
 65
   257
176
     1
 75
     1
176
     1
175
     1
176
     1
 42
1.0
176
     1
 92
        0
176
     1
 66
   257
176
     1
 43
1.0
176
     1
 76
     1
176
     1
 77
     6
176
     1
 78
     2
176
     1
 67
     7
176
     1
 79
     5
176
     1
170
     0
176
     1
171
     0
176
     1
290
     0
176
     1
 93
        1
176
     1
 44
0.0
176
     1
173
     0
176
     1
  0
VISUALSTYLE
  5
48
102
{ACAD_REACTORS
330
2F
102
}
330
2F
100
AcDbVisualStyle
  2
3dWireframe
 70
     5
177
     2
291
     0
 71
     0
176
     1
 72
     2
176
     1
 73
     1
176
     1
 90
        0
176
     1
 40
0.6
176
     1
 41
30.0
176
     1
 63
     7
421
 16777215
176
     1
 74
     1
176
     1
 91
        4
176
     1
 64
     7
176
     1
 65
   257
176
     1
 75
     1
176
     1
175
     1
176
     1
 42
1.0
176
     1
 92
        0
176
     1
 66
   257
176
     1
 43
1.0
176
     1
 76
     1
176
     1
 77
     6
176
     1
 78
     2
176
     1
 67
     7
176
     1
 79
     5
176
     1
170
     0
176
     1
171
     0
176
     1
290
     0
176
     1
 93
        1
176
     1
 44
0.0
176
     1
173
     0
176
     1
  0
VISUALSTYLE
  5
47
102
{ACAD_REACTORS
330
2F
102
}
330
2F
100
AcDbVisualStyle
  2
Realistic
 70
     8
177
     2
291
     0
 71
     2
176
     1
 72
     2
176
     1
 73
     1
176
     1
 90
        0
176
     1
 40
0.6
176
     1
 41
30.0
176
     1
 63
     7
421
 16777215
176
     1
 74
     1
176
     1
 91
        0
176
     1
 64
     7
176
     1
 65
   257
176
     1
 75
     1
176
     1
175
     1
176
     1
 42
1.0
176
     1
 92
        8
176
     1
 66
     8
424
  7895160
176
     1
 43
1.0
176
     1
 76
     1
176
     1
 77
     6
176
     1
 78
     2
176
     1
 67
     7
176
     1
 79
     5
176
     1
170
     0
176
     1
171
     0
176
     1
290
     0
176
     1
 93
       13
176
     1
 44
0.0
176
     1
173
     0
176
     1
  0
DICTIONARYVAR
  5
3A1
102
{ACAD_REACTORS
330
39E
102
}
330
39E
100
DictionaryVariables
280
     0
  1
1:1
  0
DICTIONARYVAR
  5
3A0
102
{ACAD_REACTORS
330
39E
102
}
330
39E
100
DictionaryVariables
280
     0
  1
STANDARD
  0
DICTIONARYVAR
  5
39F
102
{ACAD_REACTORS
330
39E
102
}
330
39E
100
DictionaryVariables
280
     0
  1
STANDARD
  0
DICTIONARYVAR
  5
3A2
102
{ACAD_REACTORS
330
39E
102
}
330
39E
100
DictionaryVariables
280
     0
  1
1
  0
DICTIONARYVAR
  5
3A3
102
{ACAD_REACTORS
330
39E
102
}
330
39E
100
DictionaryVariables
280
     0
  1
15
  0
DICTIONARY
  5
18
330
16
100
AcDbDictionary
280
     1
281
     1
  3
ADSK_XREC_LAYOUTTHUMBNAIL
360
19
  0
DICTIONARY
  5
E
330
C
100
AcDbDictionary
280
     1
281
     1
  3
BUMPTILE
360
F
  3
DIFFUSETILE
360
10
  3
OPACITYTILE
360
11
  3
REFLECTIONTILE
360
12
  0
DICTIONARY
  5
46
330
45
100
AcDbDictionary
280
     1
281
     1
  3
ACAD_ROUNDTRIP_2008_TABLESTYLE_CELLSTYLEMAP
360
3A4
  0
XRECORD
  5
19
102
{ACAD_REACTORS
330
18
102
}
330
18
100
AcDbXrecord
280
     1
310
28000000000100008C0000000100080000000000008C0000000000000000000000010000000000003028210000000000FFFFFF000000000000000000000000000000000000000000000000000000000000000000330000006600000099000000CC000000FF00000000330000333300006633000099330000CC330000FF3300
310
0000660000336600006666000099660000CC660000FF66000000990000339900006699000099990000CC990000FF99000000CC000033CC000066CC000099CC0000CCCC0000FFCC000000FF000033FF000066FF000099FF0000CCFF0000FFFF000000003300330033006600330099003300CC003300FF003300003333003333
310
33006633330099333300CC333300FF33330000663300336633006666330099663300CC663300FF66330000993300339933006699330099993300CC993300FF99330000CC330033CC330066CC330099CC3300CCCC3300FFCC330000FF330033FF330066FF330099FF3300CCFF3300FFFF330000006600330066006600660099
310
006600CC006600FF00660000336600333366006633660099336600CC336600FF33660000666600336666006666660099666600CC666600FF66660000996600339966006699660099996600CC996600FF99660000CC660033CC660066CC660099CC6600CCCC6600FFCC660000FF660033FF660066FF660099FF6600CCFF6600
310
FFFF660000009900330099006600990099009900CC009900FF00990000339900333399006633990099339900CC339900FF33990000669900336699006666990099669900CC669900FF66990000999900339999006699990099999900CC999900FF99990000CC990033CC990066CC990099CC9900CCCC9900FFCC990000FF99
310
0033FF990066FF990099FF9900CCFF9900FFFF99000000CC003300CC006600CC009900CC00CC00CC00FF00CC000033CC003333CC006633CC009933CC00CC33CC00FF33CC000066CC003366CC006666CC009966CC00CC66CC00FF66CC000099CC003399CC006699CC009999CC00CC99CC00FF99CC0000CCCC0033CCCC0066CC
310
CC0099CCCC00CCCCCC00FFCCCC0000FFCC0033FFCC0066FFCC0099FFCC00CCFFCC00FFFFCC000000FF003300FF006600FF009900FF00CC00FF00FF00FF000033FF003333FF006633FF009933FF00CC33FF00FF33FF000066FF003366FF006666FF009966FF00CC66FF00FF66FF000099FF003399FF006699FF009999FF00CC
310
99FF00FF99FF0000CCFF0033CCFF0066CCFF0099CCFF00CCCCFF00FFCCFF0000FFFF0033FFFF0066FFFF0099FFFF00CCFFFF00FFFFFF00000000000D0D0D001A1A1A00282828003535350043434300505050005D5D5D006B6B6B00787878008686860093939300A1A1A100AEAEAE00BBBBBB00C9C9C900D6D6D600E4E4E400
310
F1F1F100FFFFFF000000000000000000000000000000000000000000000000000000000000000000000000000000000000000000000000000000000000000000000000000000000000000000000000000000000000000000000000000000000000000000000000000000000000000000000000000000000000000000000000
310
00000000000000000000000000000000000000000000000000000000000000000000000000000000000000000000000000000000000000000000000000000000000000000000000000000000000000000000000000000000000000000000000000000000000000000000000000000000000000000000000000000000000000
310
00000000000000000000000000000000000000000000000000000000000000000000000000000000000000000000000000000000000000000000000000000000000000000000000000000000000000000000000000000000000000000000000000000000000000000000000000000000000000000000000000000000000000
310
00000000000000000000000000000000000000000000000000000000000000000000000000000000000000000000000000000000000000000000000000000000000000000000000000000000000000000000000000000000000000000000000000000000000000000000000000000000000000000000000000000000000000
310
00000000000000000000000000000000000000000000000000000000000000000000000000000000000000000000000000000000000000000000000000000000000000000000000000000000000000000000000000000000000000000000000000000000000000000000000000000000000000000000000000000000000000
310
00000000000000000000000000000000000000000000000000000000000000000000000000000000000000000000000000000000000000000000000000000000000000000000000000000000000000000000000000000000000000000000000000000000000000000000000000000000000000000000000000000000000000
310
00000000000000000000000000000000000000000000000000000000000000000000000000000000000000000000000000000000000000000000000000000000000000000000000000000000000000000000000000000000000000000000000000000000000000000000000000000000000000000000000000000000000000
310
00000000000000000000000000000000000000000000000000000000000000000000000000000000000000000000000000000000000000000000000000000000000000000000000000000000000000000000000000000000000000000000000000000000000000000000000000000000000000000000000000000000000000
310
00000000000000000000000000000000000000000000000000000000000000000000000000000000000000000000000000000000000000000000000000000000000000000000000000000000000000000000000000000000000000000000000000000000000000000000000000000000000000000000000000000000000000
310
00000000000000000000000000000000000000000000000000000000000000000000000000000000000000000000000000000000000000000000000000000000000000000000000000000000000000000000000000000000000000000000000000000000000000000000000000000000000000000000000000000000000000
310
00000000000000000000000000000000000000000000000000000000000000000000000000000000000000000000000000000000000000000000000000000000000000000000000000000000000000000000000000000000000000000000000000000000000000000000000000000000000000000000000000000000000000
310
00000000000000000000000000000000000000000000000000000000000000000000000000000000000000000000000000000000000000000000000000000000000000000000000000000000000000000000000000000000000000000000000000000000000000000000000000000000000000000000000000000000000000
310
00000000000000000000000000000000000000000000000000000000000000000000000000000000000000000000000000000000000000000000000000000000000000000000000000000000000000000000000000000000000000000000000000000000000000000000000000000000000000000000000000000000000000
310
00000000000000000000000000000000000000000000000000000000000000000000000000000000000000000000000000000000000000000000000000000000000000000000000000000000000000000000000000000000000000000000000000000000000000000000000000000000000000000000000000000000000000
310
00000000000000000000000000000000000000000000000000000000000000000000000000000000000000000000000000000000000000000000000000000000000000000000000000000000000000000000000000000000000000000000000000000000000000000000000000000000000000000000000000000000000000
310
00000000000000000000000000000000000000000000000000000000000000000000000000000000000000000000000000000000000000000000000000000000000000000000000000000000000000000000000000000000000000000000000000000000000000000000000000000000000000000000000000000000000000
310
00000000000000000000000000000000000000000000000000000000000000000000000000000000000000000000000000000000000000000000000000000000000000000000000000000000000000000000000000000000000000000000000000000000000000000000000000000000000000000000000000000000000000
310
00000000000000000000000000000000000000000000000000000000000000000000000000000000000000000000000000000000000000000000000000000000000000000000000000000000000000000000000000000000000000000000000000000000000000000000000000000000000000000000000000000000000000
310
00000000000000000000000000000000000000000000000000000000000000000000000000000000000000000000000000000000000000000000000000000000000000000000000000000000000000000000000000000000000000000000000000000000000000000000000000000000000000000000000000000000000000
310
00000000000000000000000000000000000000000000000000000000000000000000000000000000000000000000000000000000000000000000000000000000000000000000000000000000000000000000000000000000000000000000000000000000000000000000000000000000000000000000000000000000000000
310
00000000000000000000000000000000000000000000000000000000000000000000000000000000000000000000000000000000000000000000000000000000000000000000000000000000000000000000000000000000000000000000000000000000000000000000000000000000000000000000000000000000000000
310
00000000000000000000000000000000000000000000000000000000000000000000000000000000000000000000000000000000000000000000000000000000000000000000000000000000000000000000000000000000000000000000000000000000000000000000000000000000000000000000000000000000000000
310
00000000000000000000000000000000000000000000000000000000000000000000000000000000000000000000000000000000000000000000000000000000000000000000000000000000000000000000000000000000000000000000000000000000000000000000000000000000000000000000000000000000000000
310
00000000000000000000000000000000000000000000000000000000000000000000000000000000000000000000000000000000000000000000000000000000000000000000000000000000000000000000000000000000000000000000000000000000000000000000000000000000000000000000000000000000000000
310
00000000000000000000000000000000000000000000000000000000000000000000000000000000000000000000000000000000000000000000000000000000000000000000000000000000000000000000000000000000000000000000000000000000000000000000000000000000000000000000000000000000000000
310
00000000000000000000000000000000000000000000000000000000000000000000000000000000000000000000000000000000000000000000000000000000000000000000000000000000000000000000000000000000000000000000000000000000000000000000000000000000000000000000000000000000000000
310
00000000000000000000000000000000000000000000000000000000000000000000000000000000000000000000000000000000000000000000000000000000000000000000000000000000000000000000000000000000000000000000000000000000000000000000000000000000000000000000000000000000000000
310
00000000000000000000000000000000000000000000000000000000000000000000000000000000000000000000000000000000000000000000000000000000000000000000000000000000000000000000000000000000000000000000000000000000000000000000000000000000000000000000000000000000000000
310
00000000000000000000000000000000000000000000000000000000000000000000000000000000000000000000000000000000000000000000000000000000000000000000000000000000000000000000000000000000000000000000000000000000000000000000000000000000000000000000000000000000000000
310
00000000000000000000000000000000000000000000000000000000000000000000000000000000000000000000000000000000000000000000000000000000000000000000000000000000000000000000000000000000000000000000000000000000000000000000000000000000000000000000000000000000000000
310
00000000000000000000000000000000000000000000000000000000000000000000000000000000000000000000000000000000000000000000000000000000000000000000000000000000000000000000000000000000000000000000000000000000000000000000000000000000000000000000000000000000000000
310
00000000000000000000000000000000000000000000000000000000000000000000000000000000000000000000000000000000000000000000000000000000000000000000000000000000000000000000000000000000000000000000000000000000000000000000000000000000000000000000000000000000000000
310
00000000000000000000000000000000000000000000000000000000000000000000000000000000000000000000000000000000000000000000000000000000000000000000000000000000000000000000000000000000000000000000000000000000000000000000000000000000000000000000000000000000000000
310
00000000000000000000000000000000000000000000000000000000000000000000000000000000000000000000000000000000000000000000000000000000000000000000000000000000000000000000000000000000000000000000000000000000000000000000000000000000000000000000000000000000000000
310
00000000000000000000000000000000000000000000000000000000000000000000000000000000000000000000000000000000000000000000000000000000000000000000000000000000000000000000000000000000000000000000000000000000000000000000000000000000000000000000000000000000000000
310
00000000000000000000000000000000000000000000000000000000000000000000000000000000000000000000000000000000000000000000000000000000000000000000000000000000000000000000000000000000000000000000000000000000000000000000000000000000000000000000000000000000000000
310
00000000000000000000000000000000000000000000000000000000000000000000000000000000000000000000000000000000000000000000000000000000000000000000000000000000000000000000000000000000000000000000000000000000000000000000000000000000000000000000000000000000000000
310
00000000000000000000000000000000000000000000000000000000000000000000000000000000000000000000000000000000000000000000000000000000000000000000000000000000000000000000000000000000000000000000000000000000000000000000000000000000000000000000000000000000000000
310
00000000000000000000000000000000000000000000000000000000000000000000000000000000000000000000000000000000000000000000000000000000000000000000000000000000000000000000000000000000000000000000000000000000000000000000000000000000000000000000000000000000000000
310
000000BEBEBEBEBEBEBEBEBEBEBEBEBEBEBEBEBEBEBEBEBEBEBEBEBEBEBEBEBEBEBEBEBEBEBEBEBEBEBEBEBEBEBEBEBEBEBEBEBEBEBEBEBEBEBEBEBEBEBEBEBEBEBEBEBEBEBEBEBEBEBEBEBEBEBEBEBEF5F5F5F5F5F5F5F5F5F5F5F5F5F5F5F5F5F5F5F5F5F5F5F5F5F5F5F5F5F5F5F5F5F5F5F5F5F5F5F5F5F5F5F5F5F5F5
310
F5F5F5F5F5F5F5F5F5F5F5F5F5F5F5F5F5F5F5F5F5BEBEBEF5F5BEBEBEBEF5F50000000000000000000000000000000000000000000000000000000000000000000000000000000000000000000000000000000000000000000000000000000000000000000000000000000000000000000000000000000000000000000000
310
0000000000BE00000000000000000000000000000000000000000000000000000000000000000000000000000000000000000000000000000000000000000000000000000000000000000000000000000000F50000000000000000000000000000000000000000000000000000000000000000000000000000000000000000
310
0000000000000000000000000000000000000000000000BEBEBEBE00BE00BEBE00F5000000000000000000000000000000000000000000000000000000000000000000000000000000000000000000000000000000000000000000000000000000000000000000000000000000000000000000000000000000000000000000
310
00000000000000BE000000000000DCDCDCDCDCDCDCDCDCDCDCDCDCDCDCDCDCDCDCDCDCDCDCDCDCDCDCDCDCDCDCDCDCDCDCDCDCDCDCDCDCDCDCDCDCDCDCDCDCDCDCDCDCDCDCDCDCDCDCDCDCDCDCDCDCDCDCDCDC00F500000000000000F5F5F5F5F5F5F5F5F5F5F5F5F5F5F5F5F5F5F5F5F5F5F5F5F5F5F5F5F5F5F5F5F5F5F5
310
F5F5F5F5F5F5F5F5F5F5F5F5F5F5F5F5F5F5F5F5F5F5F5F5F5BEBEBEBEF5BEBEBEBE00F500000000000000000000000000000000000000000000000000000000000000000000000000000000000000000000000000000000000000000000000000000000000000000000000000000000000000000000000000000000000000
310
000000000000000000BE000000000000DCF5F5F5F5F500000000F5F5F5F5F5F5000000DC0000000000BEBEBEBEBEBEBEBE0000DC00000000000000000000DC0000000000000000000000DCBEBEBEBEBEBEBE0000DC00F500000000000000F50000000000000000000000000000000000000000000000000000000000000000
310
0000000000000000000000000000000000000000000000000000000000000000000000F500F50000000000000000000000000000000000000000000000000000000000000000000000000000000000000000000000000000000000000000000000000000000000000000000000000000000000000000000000000000000000
310
0000000000000000000000BE000000000000DCF5F5F5F5F5DCDCDCDCF5F5F5F5F5F5DCDCDCDC00BEBEBEBEBEBEBEBEBEBEBEBE0000DC00000000000000000000DC0000000000000000000000DCBEBEBEBEBEBEBE0000DC00F500000000000000F5000000000000000000000000000000000000000000000000000000000000
310
00000000000000000000000000000000000000000000000000000000000000000000000000F500F5000000000000000000000000000000000000000000000000000000000000000000000000000000000000000000000000000000000000000000000000000000000000000000000000000000000000000000000000000000
310
00000000000000000000000000BE000000000000DC0000DC00000000000000DC000000DC000000DC00BEBEBEBEBEBEBEBEBEBEBEBE0000DCF5F5F5F5F5F5F5000000DCF5F5F5F5F5F5F5F5F50000DCF5F5F5F5F5F5F50000DC00F500000000000000F500000000000000000000000000000000000000000000000000000000
310
000000000000000000000000000000000000000000000000000000000000000000000000000000F500F500000000000000000000000000000000000000000000000000000000000000000000000000000000000000000000000000000000000000000000000000000000000000000000000000000000000000000000000000
310
000000000000000000000000000000BE000000000000DCDCDCDCDCDCDCDCDCDCDCDCDCDCDCDCDCDCDCDC000000BEBEBEBEBEBEBEBEBEBE0000DCDCDCDCDCDCDCDCDCDCDCDCDCDCDCDCDCDCDCDCDCDCDCDCDCDCDCDCDCDCDCDCDCDC00F500000000000000F50000000000000000000000000000000000000000000000000000
310
0000000000000000000000000000000000000000000000000000000000000000000000000000000000F500F50000000000000000000000000000000000000000000000000000000000000000000000000000000000000000000000000000000000000000000000000000000000000000000000000000000000000000000000
310
0000000000000000000000000000000000BE000000000000DC0000DC00000000000000DC000000DC000000DC000000BEBEBEBEBEBEBEBEBEBE0000DCBEBEBEBEBEBEBE00BEBE00BEBEBEBEBEBEBEBE00000000000000000000000000DC00F500000000000000F5000000000000000000000000000000000000000000000000
310
00000000000000000000000000000000000000000000000000000000000000000000000000000000000000F500F5000000000000000000000000000000000000000000000000000000000000000000000000000000000000000000000000000000000000000000000000000000000000000000000000000000000000000000
310
00000000000000000000000000000000000000BE000000000000DCDCDCDCDCDCDCDCDCDCDCDCDCDCDCDCDCDCDCF5F5F5F5DCDCDCDCDCDCDCDCDCDCDCDCDCBEBEBEBEBEBEBE00BEBE00BEBEBEBEBEBEBEBE00000000000000000000000000DC00F500000000000000F500000000000000000000000000000000000000000000
310
000000000000000000000000000000000000000000000000000000000000000000000000000000000000000000F500F500000000000000000000000000000000000000000000000000000000000000000000000000000000000000000000000000000000000000000000000000000000000000000000000000000000000000
310
000000000000000000000000000000000000000000BE000000000000DC0000DC00000000000000DC000000DC000000F5F5F5F500000000DC00000000000000DCBEBE00BE000000BEBE0000BE00BE000000BE0000000000000000000000000000DC00F500000000000000F50000000000000000000000000000000000000000
310
0000000000000000000000000000000000000000000000000000000000000000000000000000000000000000000000F500F50000000000000000000000000000000000000000000000000000000000000000000000000000000000000000000000000000000000000000000000000000000000000000000000000000000000
310
0000000000000000000000000000000000000000000000BE000000000000DCDCDCDCDCDCDCDCDCDCDCDCDCDCDCDCDCDCDCF5F5F5BEBEBEBEBEDCBEBEBEBEBEBEBEBEBEBEBEBEBEBEBEBEBEBEBEBEBEBE00BEBEBE00BEBEBEBE000000000000000000DC00F500000000000000F5000000000000000000000000000000000000
310
00000000000000000000000000000000000000000000000000000000000000000000000000000000000000000000000000F500F5000000000000000000000000000000000000000000000000000000000000000000000000000000000000000000000000000000000000000000000000000000000000000000000000000000
310
00000000000000000000000000000000000000000000000000BE000000000000DC0000DC00000000000000DC000000DC000000F5F5F5BEBEBEBEBEBEBEBEBEBEBEBEBEBEBEBEBEBEBEBEBEBE00BEBEBEBEBE00BEBEBE00BEBEBEBE000000000000000000DC00F500000000000000F500000000000000000000000000000000
310
000000000000000000000000000000000000000000000000000000000000000000000000000000000000000000000000000000F500F500000000000000000000000000000000000000000000000000000000000000000000000000000000000000000000000000000000000000000000000000000000000000000000000000
310
000000000000000000000000000000000000000000000000000000BE000000000000DCF5F5F5F5F5F5F5F5DCDCF5F5F5F5DCF5F5F5DCDCDCF5F5F5F5F5DCF5F5F5F5F5DCDCDCF5F5F5F5F5F5F5F500F5F5F50000000000000000000000000000000000000000DC00F500000000000000F50000000000000000000000000000
310
0000000000000000000000000000000000000000000000000000000000000000000000000000000000000000000000000000000000F500F50000000000000000000000000000000000000000000000000000000000000000000000000000000000000000000000000000000000000000000000000000000000000000000000
310
0000000000000000000000000000000000000000000000000000000000BE000000000000DCF5F5F5F5F5F5DCDCDCDCF5F5F5DCDCF5DCDCDCDCDCDCF5F5F5F5F5F5F5F5F5F5DCDCDCF5F5F5F5F5F5F5F5F5F5F5F5DCDCDCDCDCDCDCDCDCDCDCDCDCDCDCDCDCDCDCDCDC00F500000000000000F5000000000000000000000000
310
00000000000000000000000000000000000000000000000000000000000000000000000000000000000000000000000000000000000000F500F5000000000000000000000000000000000000000000000000000000000000000000000000000000000000000000000000000000000000000000000000000000000000000000
310
00000000000000000000000000000000000000000000000000000000000000BE000000000000DC000000000000000000000000000000000000DC00000000000000DCBEBEBEBEBEBEBEDC000000000000000000000000DC0000000000000000000000DC00000000000000DC00F500000000000000F500000000000000000000
310
000000000000000000000000000000000000000000000000000000000000000000000000000000000000000000000000000000000000000000F500F500000000000000000000000000000000000000000000000000000000000000000000000000000000000000000000000000000000000000000000000000000000000000
310
000000000000000000000000000000000000000000000000000000000000000000BE000000000000DC000000000000000000000000000000000000DCDCDCDCDCDCDCDCBEBEBEBEBEBEBEBEBEF5F5F5F5F5F5F5F5F5F50000F5F5F5F5F5F5F5F5F5F50000DCF5F5F5F5F5F5F5F500F500000000000000F50000000000000000
310
0000000000000000000000000000000000000000000000000000000000000000000000000000000000000000000000000000000000000000000000F500F50000000000000000000000000000000000000000000000000000000000000000000000000000000000000000000000000000000000000000000000000000000000
310
0000000000000000000000000000000000000000000000000000000000000000000000BE000000000000DC000000000000000000000000000000000000DC00000000000000BEBEBEBEBEBEBEBEBEF5F5F5F5F5F5F5F5F5F5DCDCF5F5F5F5F5F5F5F5F5F5DCDCDCF5F5F5F5F5F5F5F500F500000000000000F5000000000000
310
00000000000000000000000000000000000000000000000000000000000000000000000000000000000000000000000000000000000000000000000000F500F5000000000000000000000000000000000000000000000000000000000000000000000000000000000000000000000000000000000000000000000000000000
310
00000000000000000000000000000000000000000000000000000000000000000000000000BE000000000000DC000000000000000000000000000000000000DCDCDCDCDCDCDCDCDCDCDCBEBEBEDCDCDC000000BEBEBEBEBEBE000000DC0000000000000000000000DC000000BEBEBE00DC00F500000000000000F500000000
310
000000000000000000000000000000000000000000000000000000000000000000000000000000000000000000000000000000000000000000000000000000F500F500000000000000000000000000000000000000000000000000000000000000000000000000000000000000000000000000000000000000000000000000
310
000000000000000000000000000000000000000000000000000000000000000000000000000000BE000000000000DC000000000000000000000000000000000000DCF5F5F5F5F5F5F5DC0000BEBEBE0000DC0000BEBEF5BEBEBEBE000000DC00F5F5F5F5F5F5F5000000DC00F5F5BEBEBEF5DC00F500000000000000F50000
310
0000000000000000000000000000000000000000000000000000000000000000000000000000000000000000000000000000000000000000000000000000000000F500F50000000000000000000000000000000000000000000000000000000000000000000000000000000000000000000000000000000000000000000000
310
0000000000000000000000000000000000000000000000000000000000000000000000000000000000BE000000000000DCDCDCDCDCDCDCDCDCDCDCDCDCDCDCDCDCDCDCDCF5F5F5DCF5DCDCDCDCDCF5F5F5DCDCDCDCDCDCF5F5DCF5F5DCDCDCDCDCDCF5F5F5F5F5F5F5DCDCDCDCDCF5F5F5F5F5F5DC00F500000000000000F5
310
00000000000000000000000000000000000000000000000000000000000000000000000000000000000000000000000000000000000000000000000000000000000000F500F5000000000000000000000000000000000000000000000000000000000000000000000000000000000000000000000000000000000000000000
310
00000000000000000000000000000000000000000000000000000000000000000000000000000000000000BE000000000000DC00000000000000000000000000000000000000000000000000000000000000000000000000000000000000000000000000000000000000000000000000000000000000DC00F5000000000000
310
00F500000000000000000000000000000000000000000000000000000000000000000000000000000000000000000000000000000000000000000000000000000000000000F500F500000000000000000000000000000000000000000000000000000000000000000000000000000000000000000000000000000000000000
310
000000000000000000000000000000000000000000000000000000000000000000000000000000000000000000BE000000000000DC00000000000000000000000000000000000000000000000000000000000000000000000000000000000000000000000000000000000000000000000000000000000000DC00F500000000
310
000000F500000000000000000000000000000000000000000000000000000000000000000000000000000000000000000000000000000000000000000000000000000000000000F500F50000000000000000000000000000000000000000000000000000000000000000000000000000000000000000000000000000000000
310
0000000000000000000000000000000000000000000000000000000000000000000000000000000000000000000000BE000000000000DC00000000000000000000000000000000BEBEBEBEBEBEBEBEBEBEBEBEBE0000000000000000000000000000000000000000000000000000000000000000000000000000DC00F50000
310
0000000000F500000000000000000000000000000000000000000000000000000000000000000000000000000000000000000000000000000000000000000000000000000000000000F500F5000000000000000000000000000000000000000000000000000000000000000000000000000000000000000000000000000000
310
00000000000000000000000000000000000000000000000000000000000000000000000000000000000000000000000000BE000000000000DC000000000000000000000000000000BEBE000000000000000000BE00BE0000000000000000000000000000000000000000000000000000000000000000000000000000DC00F5
310
00000000000000F500000000000000000000000000000000000000000000000000000000000000000000000000000000000000000000000000000000000000000000000000000000000000F500F500000000000000000000000000000000000000000000000000000000000000000000000000000000000000000000000000
310
000000000000000000000000000000000000000000000000000000000000000000000000000000000000000000000000000000BE000000000000DC000000000000000000000000000000BEBEBEBEBEBEBEBEBEBEBEBEBEBE0000000000000000000000000000000000000000000000000000000000000000000000000000DC
310
00F500000000000000F500000000000000000000000000000000000000000000000000000000000000000000000000000000000000000000000000000000000000000000000000000000000000F500F50000000000000000000000000000000000000000000000000000000000000000000000000000000000000000000000
310
0000000000000000000000000000000000000000000000000000000000000000000000000000000000000000000000000000000000BE000000000000DC000000000000000000000000000000BEBEF5F5000000000000BEBEBEBE00000000000000000000000000000000000000000000000000000000000000000000000000
310
00DC00F500000000000000F500000000000000000000000000000000000000000000000000000000000000000000000000000000000000000000000000000000000000000000000000000000000000F500F5000000000000000000000000000000000000000000000000000000000000000000000000000000000000000000
310
00000000000000000000000000000000000000000000000000000000000000000000000000000000000000000000000000000000000000BE000000000000DC000000000000000000000000000000BEBEF500000000000000BEBEBEBE0000000000000000000000000000000000000000000000000000000000000000000000
310
000000DC00F500000000000000F500000000000000000000000000000000000000000000000000000000000000000000000000000000000000000000000000000000000000000000000000000000000000F500F500000000000000000000000000000000000000000000000000000000000000000000000000000000000000
310
000000000000000000000000000000000000000000000000000000000000000000000000000000000000000000000000000000000000000000BE000000000000DC000000000000000000000000000000BEBE0000000000000000BEBEBEBE000000000000000000000000000000000000000000000000000000000000000000
310
0000000000DC00F500000000000000F500000000000000000000000000000000000000000000000000000000000000000000000000000000000000000000000000000000000000000000000000000000000000F500F50000000000000000000000000000000000000000000000000000000000000000000000000000000000
310
0000000000000000000000000000000000000000000000000000000000000000000000000000000000000000000000000000000000000000000000BE000000000000DC000000000000000000000000000000BEBE0000002828282800BEBEBEBE00000000000000000000000000000000000000000000000000000000000000
310
00000000000000DC00F500000000000000F500000000000000000000000000000000000000000000000000000000000000000000000000000000000000000000000000000000000000000000000000000000000000F500F5000000000000000000000000000000000000000000000000000000000000000000000000000000
310
00000000000000000000000000000000000000000000000000000000000000000000000000000000000000000000000000000000000000000000000000BE000000000000DC000000000000000000000000000000BEF5000000282828282800BEBEBE0000000000000000000000000000000000000000000000000000000000
310
000000000000000000DC00F500000000000000F5000000000000000000000000000000000000F5F5F5F5F5F52D2D2D2D2D2D2D2DF500000000000000000000000000000000000000000000000000000000000000000000F500F500000000000000000000000000000000000000000000000000000000000000000000000000
310
000000000000000000000000000000000000000000000000000000000000000000000000000000000000000000000000000000000000000000000000000000BE000000000000DC000000000000000000000000000000BEBE00002828F5BE2828BEBEBEBE000000000000000000000000000000000000000000000000000000
310
0000000000000000000000DC00F500000000000000F500000000000000000000000000000000F5F500000000000000F5F5000000002D2D00000000000000000000000000000000000000000000000000000000000000000000F500F50000000000000000000000000000000000000000000000000000000000000000000000
310
0000000000000000000000000000000000000000000000000000000000000000000000000000000000000000000000000000000000000000000000000000000000BE000000000000DC000000000000000000000000000000BEBE00002828BEBE2828BEBEBEBE00000000000000000000000000000000000000000000000000
310
00000000000000000000000000DC00F500000000000000F500000000000000000000000000000000F5000000000000000000F500000000002D00000000000000000000000000000000000000000000000000000000000000000000F500F5000000000000000000000000000000000000000000000000000000000000000000
310
00000000000000000000000000000000000000000000000000000000000000000000000000000000000000000000000000000000000000000000000000000000000000BE000000000000DC000000000000000000000000000000BEBE0000282828282828BEBEBEBE0000000000000000000000000000000000000000000000
310
000000000000000000000000000000DC00F500000000000000F500000000000000000000000000000000F5000000000000000000F500000000002D00000000000000000000000000000000000000000000000000000000000000000000F500F500000000000000000000000000000000000000000000000000000000000000
310
000000000000000000000000000000000000000000000000000000000000000000000000000000000000000000000000000000000000000000000000000000000000000000BE000000000000DC000000000000000000000000000000BEBE0000002828282800BEBEBEBE000000000000000000000000000000000000000000
310
0000000000000000000000000000000000DC00F500000000000000F5000000000000000000000000000000F500000000F5F5F500000000F5000000002D00000000000000000000000000000000000000000000000000000000000000000000F500F50000000000000000000000000000000000000000000000000000000000
310
0000000000000000000000000000000000000000000000000000000000000000000000000000000000000000000000000000000000000000000000000000000000000000000000BE000000000000DC000000000000000000000000000000BEBE0000000000BE0000BEBEBEBE00000000000000000000000000000000000000
310
00000000000000000000000000000000000000DC00F500000000000000F5000000000000000000000000000000F5000000F5F5F5F5F5000000F5000000002D00000000000000000000000000000000000000000000000000000000000000000000F500F5000000000000000000000000000000000000000000000000000000
310
00000000000000000000000000000000000000000000000000000000000000000000000000000000000000000000000000000000000000000000000000000000000000000000000000BE000000000000DC000000000000000000000000000000BEBEF5F5F5F5F5F5F5F5BEBEBEBE0000000000000000000000000000000000
310
000000000000000000000000000000000000000000DC00F500000000000000F5000000000000000000000000000000F50000F5F5F500F5F5F50000F50000BEBE2D00000000000000000000000000000000000000000000000000000000000000000000F500F500000000000000000000000000000000000000000000000000
310
000000000000000000000000000000000000000000000000000000000000000000000000000000000000000000000000000000000000000000000000000000000000000000000000000000BE000000000000DC000000000000000000000000000000BEBE00F5F5F5000000F5BEBEBEBE000000000000000000000000000000
310
0000000000000000000000000000000000000000000000DC00F500000000000000F5000000000000000000000000000000F5000000F5F500F5F5000000F50000BEBE2D00000000000000000000000000000000000000000000000000000000000000000000F500F50000000000000000000000000000000000000000000000
310
0000000000000000000000000000000000000000000000000000000000000000000000000000000000000000000000000000000000000000000000000000000000000000000000000000000000BE000000000000DC000000000000000000000000000000BEBEBEBEBEBEBEBEBEBEBEBEBEBE00000000000000000000000000
310
00000000000000000000000000000000000000000000000000DC00F500000000000000F5000000000000000000000000000000F5000000F5F5F5F5F5000000F50000BEBE2D000000002D2D2D2D2D2D2D2D2D2D2D2D2D2D2D2D2D2DF50000000000000000000000F500F5000000000000000000000000000000000000000000
310
00000000000000000000000000000000000000000000000000000000000000000000000000000000000000000000000000000000000000000000000000000000000000000000000000000000000000BE000000000000DC000000000000000000000000000000BEF5000000000000000000BE00BE0000000000000000002D2D
310
2D2D2D2D2D2D2D2D2D2D2D2D2D2D2D2DF500000000000000000000DC00F500000000000000F5000000000000000000000000000000F500000000F5F5F500000000F50000BEBE2D000000002D2D000000000000BEBEBEBE00000000002D2D0000000000000000000000F500F500000000000000000000000000000000000000
310
000000000000000000000000000000000000000000000000000000000000000000000000000000000000000000000000000000000000000000000000000000000000000000000000000000000000000000BE000000000000DC000000000000000000000000000000BEBEBEBEBEBEBEBEBEBEBEBEBEBE000000000000000000
310
2D000000000000BEBEBEBE000000000000002D00000000000000000000DC00F500000000000000F5000000000000000000000000000000F50000000000000000000000F5000000002D000000002D00000000000000BEBEBEBE0000000000002D0000000000000000000000F500F50000000000000000000000000000000000
310
0000000000000000000000000000000000000000000000000000000000000000000000000000000000000000000000000000000000000000000000000000000000000000000000000000000000000000000000BE000000000000DC00000000000000000000000000000000F5F5F5F5F5F5F5F5F5F5F5F5F500000000000000
310
00002D2D2D2D2D2D2D2D2D2D2D2D2D2D2D2DF5002D00000000000000000000DC00F500000000000000F5000000000000000000000000000000F5F5F5F5F5F5F5F5F5F5F5F5F5000000002D000000002D00000000000000000000000000000000002D0000000000000000000000F500F50000000000000000000000002D2D2D
310
2D2D2D2DBEBEBEBE2D2D2D2D2D2D2DF5000000000000000000000000000000000000000000000000000000000000000000000000000000000000000000000000000000000000000000000000000000000000000000BE000000000000DC000000000000000000000000000000002D00000000000000000000002D0000000000
310
000000002D2D0000000000BEBEBE00000000002D2D002D00000000000000000000DC00F500000000000000F5000000000000000000000000000000F5F500F5F5000000F5F5F5F5F5000000002D000000002D00000000000000000000000000000000002D0000000000000000000000F500F50000000000000000000000002D
310
000000000000BEBEBEBE000000000000002D000000000000000000000000000000000000000000000000000000000000000000000000000000000000000000000000000000000000000000000000000000000000000000BE000000000000DC000000000000000000000000000000002D2D2D2D2D2D2D2D2D2D2D2DF5000000
310
0000000000002D2D2D2D2D2D2DBEBEBE2D2D2D2D2D2D2D002D00000000000000000000DC00F500000000000000F5000000000000000000000000000000F5F5F5F5F5F5F5F5F5F5F5F5F5000000002D000000002D2D2D2D2D2D2D2D2D2D2D2D2D2D2D2DF5002D0000000000000000000000F500F50000000000000000000000
310
002D2D2D2D2D2D2D2D2D2D2D2D2D2D2D2DF5002D0000000000000000000000000000000000002D2D2D2D2D2D2D0000000000000000000000000000000000000000000000000000000000000000000000000000000000000000BE000000000000DC000000000000000000000000000000002D00000000BEBE00000000002D00
310
00000000000000002D2D00000000BEBEBEBE00000000002D2D002D00000000000000000000DC00F500000000000000F5000000000000000000000000000000F50000000000000000000000F5000000002D000000002D2D0000000000BEBEBEBE000000002D2D002D0000000000000000000000F500F5000000000000000000
310
0000002D2D00000000BEBEBEBE00000000002D2D002D0000000000000000000000000000000000002D2D00000000000000000000000000000000000000000000000000000000000000000000000000000000000000000000000000BE000000000000DC000000000000000000000000000000000000000000BEBE0000000000
310
000000000000000000002D0000000000BEBEBEBE0000000000002D002D00000000000000000000DC00F500000000000000F5000000000000000000000000000000F5F5F5F5F5F5F5F5F5F5F5F5F50000002D2D000000002D000000000000BEBEBEBE00000000002D002D0000000000000000000000F500F500000000000000
310
00000000002D0000000000BEBEBEBE0000000000002D002D0000000000000000000000000000000000002D0000000000000000000000000000000000000000000000000000000000000000000000000000000000000000000000000000BE000000000000DC0000000000000000000000000000000000000000000000000000
310
0000000000000000000000002D2D2D2D2DBEBEBEBE2D2D2D2DF500002D002D00000000000000000000DC00F500000000000000F5000000000000000000000000000000F5F5F5F5F5F5F5F5F5F5F5F5F52D2D2D2D2D000000002D2D2D2D2D2DBEBEBE2D2D2D2D2DF5002D002D0000000000000000000000F500F50000000000
310
000000000000002D2D2D2D2DBEBEBEBE2D2D2D2DF500002D002D0000000000000000000000000000000000002D2D2D2D2DBEBE0000000000000000000000000000000000000000000000000000000000000000000000000000000000000000BE000000000000DC000000000000000000000000000000000000000000000000
310
00000000000000000000000000002D00000000BEBEBEBE000000002D00002D002D00000000000000000000DC00F500000000000000F5000000000000000000000000000000000000000000000000000000000000000000000000002D0000000000BEBEBE00000000002D002D002D0000000000000000000000F500F5000000
310
0000000000000000002D00000000BEBEBEBE000000002D00002D002D0000000000000000000000000000000000002D00000000BEBE0000000000000000000000000000000000000000000000000000000000000000000000000000000000000000BE000000000000DC0000000000002D2D2D2D2D2D2D2D2D2D2D2D2DF5F5F5
310
F5F5F5000000000000000000000000002D0000000000000000000000002D00002D002D00000000000000000000DC00F500000000000000F5000000000000000000002D2D2D2D2D2D2D2DF5F5F5F5F5F5F50000000000000000000000002D000000000000000000000000002D002D002D0000000000000000000000F500F500
310
00000000000000000000002D0000000000000000000000002D00002D002D0000000000000000000000000000000000002D0000000000000000000000000000000000000000000000000000000000000000000000000000000000000000000000000000BE000000000000DC000000000000002D002D0000002D2D00000000F5
310
00000000F5000000000000000000000000002D00000000F5F5F500000000002D00002D002D00000000000000000000DC00F500000000000000F5000000000000000000002D00000000000000F50000000000F50000000000000000000000002D0000000000F5F50000000000002D002D002D0000000000000000000000F500
310
F50000000000000000000000002D00000000F5F5F500000000002D00002D002D0000000000000000000000000000000000002D0000000000F50000000000000000000000000000000000000000000000000000000000000000000000000000000000000000BE000000000000DC000000000000002D002D000000002D000000
310
00F500000000F5000000000000000000000000002D00000000F5F5F500000000002D00002D002D00000000000000000000DC00F500000000000000F5000000000000000000002D00000000000000F50000000000F50000000000000000000000002D0000000000F5F50000000000002D002D002D0000000000000000000000
310
F500F50000000000000000000000002D00000000F5F5F500000000002D00002D002D0000000000000000000000000000000000002D00000000F5F50000000000000000000000000000000000000000000000000000000000000000000000000000000000000000BE000000000000DC000000000000002D002D000000002D00
310
000000F500000000F5000000000000000000000000002D0000000000F5F5F5000000002D00002D002D00000000000000000000DC00F500000000000000F5000000000000000000002D00000000000000F50000000000F50000000000000000000000002D0000000000F5F5F500000000002D002D002D000000000000000000
310
0000F500F50000000000000000000000002D0000000000F5F500000000002D00002D002D0000000000000000000000000000000000002D0000000000F50000000000000000000000000000000000000000000000000000000000000000000000000000000000000000BE000000000000DC000000000000002D002D0000BEBE
310
2D00000000F5F5F5F5F5F5000000000000000000000000002D0000000000F5F5F5000000002D00002D002D00000000000000000000DC00F500000000000000F5000000000000000000002D00000000000000F5F5F5F5F5F5F50000000000000000000000002D0000000000F5F5F500000000002D002D002D00000000000000
310
00000000F500F50000000000000000000000002D0000000000F5F500000000002D00002D002D0000000000000000000000000000000000002D0000000000F50000000000000000000000000000000000000000000000000000000000000000000000000000000000000000BE000000000000DC000000000000002D002D0000
310
BEBE2D00000000F500000000F5000000000000000000000000002D0000000000F5F500000000002D00002D002D00000000000000000000DC00F500000000000000F5000000000000000000002D00000000000000F50000000000F50000000000000000000000002D0000000000F5F5F500000000002D002D002D0000000000
310
000000000000F500F50000000000000000000000002D0000000000F5F500000000002D00002D002D0000000000000000000000000000000000002D0000000000F50000000000000000000000000000000000000000000000000000000000000000000000000000000000000000BE000000000000DC000000000000002D002D
310
000000002D00000000F5F5F5F5F5F5000000000000000000000000002D00000000F5F50000000000002D00002D002D00000000000000000000DC00F500000000000000F5000000000000000000002D00000000000000F5F5F5F5F5F5F50000000000000000000000002D00000000F5F5000000000000002D002D002D000000
310
0000000000000000F500F50000000000000000000000002D00000000F5F50000000000002D00002D002D0000000000000000000000000000000000002D00000000F5F50000000000000000000000000000000000000000000000000000000000000000000000000000000000000000BE000000000000DC000000000000002D
310
002D0000002D2D00000000F5F5F5F500F5000000000000000000000000002D000000F500F5000000000000F5F5002D002D00000000000000000000DC00F500000000000000F5000000000000000000002D0000000000000000F500F500F5000000000000000000000000002D00000000F5F5000000000000F5F5002D002D00
310
00000000000000000000F500F50000000000000000000000002D000000F500F5000000000000F500002D002D0000000000000000000000000000000000002D00000000F5F50000000000000000000000000000000000000000000000000000000000000000000000000000000000000000BE000000000000DC000000000000
310
002D002D002D2D2D2D2DF5F5F5F5F5F5F5F5F5F5F5F5F500000000002D2D2D2DF5F5F5F5F5F5F5F5F5F5F5F5F5BEF5F52D002D00000000000000000000DC00F500000000000000F5000000000000000000002D00000000F5F52DF5F5F5F5F5F5F5F5F5F50000000000002D2D2DF5F5F5F5F5F5F5F5F5F5F5F5F5F5BEF5F500
310
2D0000000000000000000000F500F500000000000000002D2D2D2DF5F5F5F5F5F5F5F5F5F5F5F5F5BEF5F5F52D2D2D2D2DF52D000000000000000000002D2D2DF5F5F5F5F5F5F50000000000000000000000000000000000000000000000000000000000000000000000000000000000000000BE000000000000DC00000000
310
0000002D002D002D2D2D2D00F5002D2D00000000000000F5F50000000000002D0000F5000028F50000000000000000BE00002D002D00000000000000000000DC00F500000000000000F5000000000000000000002D00000000F5F5002D0000000000000000F50000000000002D0000F5000028F5000000000000000000BE00
310
F5002D0000000000000000000000F500F50000000000000000002D0000F5000028F50000000000000000BE0000F5002D0000002D00000000000000000000002D0000F5000028F500000000000000000000000000000000000000000000000000000000000000000000000000000000000000000000BE000000000000DC0000
310
00000000002D002D002D00002D00F5BEBE000028F52D2DF500F5F50000000000002D0000F50000F5F500000000000000000000002D002D00000000000000000000DC00F500000000000000F5000000000000000000002D00000000F5BEBE2D0000F52D2DF50000F50000000000002D0000F50000F5F5000000000000000000
310
0000F5002D0000000000000000000000F500F50000000000000000002D0000F50000F5F50000000000000000000000F5002D0000002D00000000000000000000002D0000F50000F5F500000000000000000000000000000000000000000000000000000000000000000000000000000000000000000000BE000000000000DC
310
000000000000002D002D002D00002D00F5BEBE00BE282828002D00F5F50000000000002D0000F50000F50000000000000000000000002D002D00000000000000000000DC00F500000000000000F5000000000000000000002D00000000F5BEBE2D0028BE28002D0000F50000000000002D0000F50000F5F500000000000000
310
00000000F5002D0000000000000000000000F500F50000000000000000002D0000F50000F5000000000000000000000000F5002D0000002D00000000000000000000002D0000F50000F5F500000000000000000000000000000000000000000000000000000000000000000000000000000000000000000000BE0000000000
310
00DC000000000000002D002D002D00002D00F5BEBE00002828BEBE2D00F5F50000000000002D0000F50000F50000000000000000000000002D002D00000000000000000000DC00F500000000000000F5000000000000000000002D00000000F5BEBE2D00282828BEBE0000F50000000000002D0000F50000F5F50000000000
310
000000000000F5002D0000000000000000000000F500F50000000000000000002D0000F50000F5000000000000000000000000F5002D0000002D00000000000000000000002D0000F50000F5F500000000000000000000000000000000000000000000000000000000000000000000000000000000000000000000BE000000
310
000000DC000000000000002D002D002D00002D00F5002D2D002828BEBE2D00F5F50000000000002D0000F50000F5F500000000000000000000002D002D00000000000000000000DC00F500000000000000F5000000000000000000002D00000000F5F5002D00002828BEBE0000F50000000000002D0000F50000F5F5000000
310
0000000000000000F5002D0000000000000000000000F500F50000000000000000002D0000F50000F5000000000000000000000000F5002D0000002D00000000000000000000002D0000F50000F5F500000000000000000000000000000000000000000000000000000000000000000000000000000000000000000000BE00
310
0000000000DC000000000000002D002D002D00002D00F5002D2D2DF5F52D2D2D00F5F50000000000002D0000F50000F5F500000000000000000000002D002D00000000000000000000DC00F500000000000000F5000000000000000000002D00000000F5F52D2D2DF5F52D2D2D0000F50000000000002D0000F50000F5F500
310
00000000000000000000F5002D0000000000000000000000F500F50000000000000000002D0000F50000F5F50000000000000000000000F5002D0000002D00000000000000000000002D0000F50000F5F500000000000000000000000000000000000000000000000000000000000000000000000000000000000000000000
310
BE000000000000DC000000000000002D002D002D00002D00F5002D2D2D2DF52DBEBE00F5F50000000000002D0000F50000F5F500000000000000000000002D002D00000000000000000000DC00F500000000000000F5000000000000000000002D00000000F5F5002D2D2D2DF52D000000F50000000000002D0000F50000F5
310
F50000000000000000000000F5002D0000000000000000000000F500F50000000000000000002D0000F50000F5F50000000000000000000000F5002D0000002D00000000000000000000002D0000F50000F5F50000000000000000000000000000000000000000000000000000000000000000000000000000000000000000
310
0000BE000000000000DC000000000000002D002D002D00002D00F5002D00000000BEBEBE00F5F50000000000002D0000F50000F5F500000000000000000000002D002D00000000000000000000DC00F500000000000000F5000000000000000000002D00000000F5F5002D00BEBEBE00000000F50000000000002D0000F500
310
00F5F50000000000000000000000F5002D0000000000000000000000F500F50000000000000000002D0000F50000F5F50000000000000000000000F5002D0000002D00000000000000000000002D0000F50000F5F5000000000000000000000000000000000000000000000000000000000000000000000000000000000000
310
00000000BE000000000000DC000000000000002D002D002D00002D00F5002D00BEBEBEBEBE0000F5F50000000000002D0000F50000F5F5F500BEBEBEBEBE000000002D002D00000000000000000000DC00F500000000000000F5000000000000000000BEBE00000000F5F5002D00BEBEBE00000000F50000000000002D0000
310
F50000F5F5F500000000000000000000F5002D0000000000000000000000F500F50000000000000000002D0000F50000F5F5F500000000000000000000F5002D0000002D00000000000000000000002D0000F50000F5F5F5000000000000000000000000000000000000000000000000000000000000000000000000000000
310
000000000000BE000000000000DC000000000000002D002D002D00002D00F5F52DF5BEF5F5F5BEF5F5F5F50000000000002D0000F50000F500F5F5BEF5F5F5BEF5F5F5F52D002D00000000000000000000DC00F500000000000000F5000000000000000000BEBE00000000F5F5F52DF5F5F5F5F5F5F5F5F50000000000002D
310
0000F50000F5F5F5F5F5F5F5F5F5F5F5F5F5F5002D0000000000000000000000F500F50000000000000000002D0000F50000F500F5F5F5F5F5F5F5F5F5F5F5F5002D0000002D00000000000000000000002D0000F50000F5F5F5F5000000000000000000000000000000000000000000000000000000000000000000000000
310
0000000000000000BE000000000000DC000000000000002D002D002D00002D00F5002DBEBEBEBEBEBE000000F50000000000002D0000F50000F5000000BEBEBEBEBEBE0000002D002D00000000000000000000DC00F500000000000000F5000000000000000000BEBE00000000F500002DF5F5F5F5F5F50000F50000000000
310
002D0000F50000F5F50000F5F5F5F5F5F500000000002D0000000000000000000000F500F50000000000000000002D0000F50000F5000000F5F5F5F5F5F500000000002D0000002D00000000000000000000002D0000F50000F5F5000000000000000000000000000000000000000000000000000000000000000000000000
310
00000000000000000000BE000000000000DC000000000000002D002D002D00002D00F5002DBE00000000BE000000F50000000000002D0000F50000F5000000BE00000000BE0000002D002D00000000000000000000DC00F500000000000000F5000000000000000000002D00000000F500002D0000000000F50000F5000000
310
0000002D0000F50000F5F50000F500000000F500000000002D0000000000000000000000F500F50000000000000000002D0000F50000F5000000F500000000F500000000002D0000002D00000000000000000000002D0000F50000F5F500000000000000000000000000000000000000000000000000000000000000000000
310
000000000000000000000000BE000000000000DC000000000000002D002D002D00002D00F5002DBEBEBEBEBEBE000000F50000000000BE2D0000F50000F5000000BEBEBEBEBEBE0000002D002D00000000000000000000DC00F500000000000000F5000000000000000000002D00000000F500002D0000000000F50000F500
310
00000000BEBE0000F50000F5F50000F500000000F500000000002D0000000000000000000000F500F500000000000000BEBE2D0000F50000F5000000F500000000F500000000002D0000002D00000000000000000000BEBE0000F50000F5F50000000000000000000000000000000000000000000000000000000000000000
310
0000000000000000000000000000BE000000000000DC000000000000002D002D002D00002D00F5BEBEBEBEBEBEBEBE000000F50000000000BE2D0000F50000F5000000BEBEBEBEBEBE0000002D002D00000000000000000000DC00F500000000000000F5000000000000000000002D00000000F5BEBE2DF5F5F5F5F5F50000
310
F50000000000BEBE0000F5000000F50000F5F5F5F5F5F500000000002D0000000000000000000000F500F500000000000000BEBE2D0000F50000F5000000F5F5F5F5F5F500000000002D0000002D00000000000000000000BEBE0000F5000000F5000000000000000000000000000000000000000000000000000000000000
310
00000000000000000000000000000000BE000000000000DC000000000000002DBEBE002D00002D00BEBEBEBEBEBEBEBEBEBEBEBEBE0000000000BE2D0000F5BEBEBEBEBEBEBEBEBEBEBEBEBEBEBE2DBE2D00000000000000000000DC00F500000000000000F5000000000000000000002D0000000028BEBE2DF5F5F5F5F5F5
310
F5F5280000000000BEBE0000F50000F5F5F5F5F5F5F5F5F5F5F5F5F5F5F52D0000000000000000000000F500F500000000000000BEBE2D0000F500F5F5F5F5F5F5F5F5F5F5F5F5F5F5F5F52D0000002D00000000000000000000BEBE0000F5000000F5F5F50000000000000000000000000000000000000000000000000000
310
000000000000000000000000000000000000BE000000000000DC000000000000002DBEBE002D00002DBEBEBEBE0000000000000000BEBE0000000000002D0000F5BEF5BE000000000000000000000000F5BEBE00000000000000000000DC00F500000000000000F5000000000000000000002D0000000028BEBE2D00000000
310
00000000280000000000002D0000F50000F50000000000000000000000000000F50000000000000000000000F500F50000000000000000002D0000F500F50000000000000000000000000000F5F50000002D00000000000000000000002D0000F500F5F5000000000000000000000000000000000000000000000000000000
310
0000000000000000000000000000000000000000BE000000000000DC000000000000002DBEBE002D00002DBEBEBEBE0000000000000000BEBE0000000000002D0000F5BEF5BE000000000000000000000000BE00BE00000000000000000000DC00F500000000000000F5000000000000000000002D0000000028BEBE2D0000
310
000000000000280000000000002D0000F50000F50000000000000000000000000000F50000000000000000000000F500F50000000000000000002D0000F500F5000000000000000000000000000000F50000002D00000000000000000000002D0000F500F5F500000000000000000000000000000000000000000000000000
310
00000000000000000000000000000000000000000000BE000000000000DC000000000000BE2DBEBE002D00002DBEBE002D000000000000000000BE0000000000002D0000F5BEF5BE000000000000000000000000BE00BE00000000000000000000DC00F500000000000000F5000000000000000000002D000000002800002D
310
0000000000000000280000000000002D0000F50000F50000000000000000000000000000F50000000000000000000000F500F50000000000000000002D0000F500F5000000000000000000000000000000F50000002D00000000000000000000002D0000F500F5F50000000000000000000000000000000000000000000000
310
000000000000000000000000000000000000000000000000BE000000000000DC0000000000BEBE2D002D002DBEBE2DBEBE002D0000282800000000BEBE0000000000002D0000F5BEF5BE000000000000000000000000BE00BE00000000000000000000DC00F500000000000000F5000000000000000000002D000000002800
310
002D0000000000000000280000000000002D0000F50000F50000000000000000000000000000F50000000000000000000000F500F50000000000000000002D0000F500F5000000000000000000000000000000F50000002D00000000000000000000002D0000F500F5F5000000000000000000000000000000000000000000
310
0000000000000000000000000000000000000000000000000000BE000000000000DC0000000000BEBE2D002D002DBEBE2DBEBE002D0000282800000000BEBE0000000000002D0000F5BEF5BE000000000000000000000000BE00BE00000000000000000000DC00F500000000000000F5000000000000000000002D00000000
310
2800002D0000000000000000280000000000002D0000F50000F50000000000000000000000000000F50000000000000000000000F500F50000000000000000002D0000F500F5000000000000000000000000000000F50000002D00000000000000000000002D0000F500F5F500000000000000000000000000000000000000
310
00000000000000000000000000000000000000000000000000000000BE000000000000DC0000000000BEBE2D002D002DBEBE2DBEBE002D2D2D2D2DF52DBEBEBEBE0000000000002D0000F5BEF5BE000000000000000000000000BE00BE00000000000000000000DC00F500000000000000F5000000000000000000002D0000
310
00002800002D2D2D2DF52DBEBE00280000000000002D0000F50000F50000000000000000000000000000F50000000000000000000000F500F50000000000000000002D0000F500F5000000000000000000000000000000F50000BEBE00000000000000000000002D0000F500F5F50000000000000000000000000000000000
310
000000000000000000000000000000000000000000000000000000000000BE000000000000DC0000000000BEBE2D002DBEBEBEBE2DBEBE002D00002D28BEBEBEBEBEBE0000000000002D0000F5BEF5BE000000000000000000000000BE00BE00000000000000000000DC00F500000000000000F5000000000000000000002D
310
000000002800002D002D28BEBEBEBE00280000000000002D0000F50000F50000000000000000000000000000F50000000000000000000000F500F50000000000000000002D0000F500F5000000000000000000000000000000F50000BEBE00000000000000000000002D0000F500F5F5000000000000000000000000000000
310
0000000000000000000000000000000000000000000000000000000000000000BE000000000000DC000000000000002D002DBEBE00002DBEBE002D00BEF5BEF5000000BEBE0000000000002D0000F5BEF5BE000000000000000000000000BE00BE00000000000000000000DC00F500000000000000F5000000000000000000
310
002D000000002800002D00F5BEF500000000280000000000002D0000F50000F50000000000000000000000000000F50000000000000000000000F500F50000000000000000002D0000F500F5000000000000000000000000000000F50000BEBE00000000000000000000002D0000F500F5F500000000000000000000000000
310
00000000000000000000000000000000000000000000000000000000000000000000BE000000000000DC000000000000002D002DBEBE00002D0028002D0000282828000000BEBE0000000000002D0000F500F50000000000000000000000000000000000000000000000000000DC00F500000000000000F500000000000000
310
0000002D000000002800002D0028282800000000280000000000002D0000F50000F50000000000000000000000000000F50000000000000000000000F500F50000000000000000002D0000F500F5000000000000000000000000000000F50000BEBE00000000000000000000002D0000F500F5F50000000000000000000000
310
000000000000000000000000000000000000000000000000000000000000000000000000BE000000000000DC000000000000002D002DBEBE00002DBEBE002D2D2DF52800000000BEBE0000000000002D0000F5BEF5BE000000000000000000000000BE00BE00000000000000000000DC00F500000000000000F50000000000
310
00000000002D0000000028002D2D2DF5282800282800280000000000002D0000F50000F50000000000000000000000000000F50000000000000000000000F500F50000000000000000002D0000F500F5000000000000000000000000000000F5000000BE00000000000000000000002D0000F500F5F5000000000000000000
310
0000000000000000000000000000000000000000000000000000000000000000000000000000BE000000000000DC000000000000002D002DBEBE00002DBEBE00000000282800000000BEBE0000000000002D0000F5BEF5BE000000000000000000000000BE00BE00000000000000000000DC00F500000000000000F5000000
310
000000000000002D00000000280000000000280000282800280000000000002D0000F50000F50000000000000000000000000000F50000000000000000000000F500F50000000000000000002D0000F500F5000000000000000000000000000000F50000002D00000000000000000000002D0000F500F5F500000000000000
310
00000000000000000000000000000000000000000000000000000000000000000000000000000000BE000000000000DC000000000000002D002D002D00002DBEBE00000000000000000000BEBE0000000000002D0000F5BEF5BE000000000000000000000000BE00BE00000000000000000000DC00F500000000000000F500
310
0000000000000000002D00000000280000000000000000000000280000000000002D0000F5F5F5F50000000000000000000000000000F50000000000000000000000F500F50000000000000000002D0000F5F5F5000000000000000000000000000000F50000002D00000000000000000000002D0000F500F5F50000000000
310
000000000000000000000000000000000000000000000000000000000000000000000000000000000000BE000000000000DC000000000000002D002D002D00002DBEBE28282828282828282828BEBE00000000002DF52D2DF5BE00BE000000000000000000000000BE00BE00000000000000000000DC00F500000000000000
310
F500000000000000000000F52D2D2D2D28282828282828282828282828000000000000F52D2DF5F500000000000000000000000000000000F50000000000000000000000F500F500000000000000002DF52D2DF5F500000000000000000000000000000000F50000002D0000000000000000000000F52D2DF5F500F5000000
310
0000000000000000000000000000000000000000000000000000000000000000000000000000000000000000BE000000000000DC000000000000002D002D002D00002DBEBE00000000000000000000BEBE00000000000000000000BE00BE000000000000000000000000BE00BE00000000000000000000DC00F50000000000
310
0000F5000000000000000000000000000000F50000000000000000000000F500000000000000000000F500000000000000000000000000000000F50000000000000000000000F500F500000000000000000000000000F500000000000000000000000000000000F50000002D0000000000000000000000000000000000F500
310
00000000000000000000000000000000000000000000000000000000000000000000000000000000000000000000BE000000000000DC000000000000002D002D002D00002DBEBE00000000000000000000BEBE00000000000000000000BE00BE000000000000000000000000BE00BE00000000000000000000DC00F5000000
310
00000000F5000000000000000000000000000000F50000000000000000000000F500000000000000000000F500000000000000000000000000000000F50000000000000000000000F500F500000000000000000000000000F500000000000000000000000000000000F50000002D0000000000000000000000000000000000
310
F50000000000000000000000000000000000000000000000000000000000000000000000000000000000000000000000BE000000000000DC000000000000002D002D002D00002DBEBE00000000000000000000F5BE00000000000000000000BE00BE000000000000000000000000BE00BE00000000000000000000DC00F500
310
000000000000F5000000000000000000000000000000F52D2D2D2D2D2D2D2D2D2D2DF500000000000000000000F500000000000000000000000000000000F50000000000000000000000F500F500000000000000000000000000F500000000000000000000000000000000F50000002D000000000000000000000000000000
310
0000F50000000000000000000000000000000000000000000000000000000000000000000000000000000000000000000000BE000000000000DC000000000000002D002D002D00002DBEF52D2D2D2DBEBE2D2D2D2DF5BE00000000000000000000BE00F52D2D2D2D2DBEBE2D2D2D2D2DF500BE00000000000000000000DC00
310
F500000000000000F5000000000000000000000000000000F500000000BEBE0000000000F500000000000000000000F500000000000000000000000000000000F50000000000000000000000F500F500000000000000000000000000F500000000000000000000000000000000F50000002D00000000000000000000000000
310
00000000F50000000000000000000000000000000000000000000000000000000000000000000000000000000000000000000000BE000000000000DC000000000000002D002D002D00002DBEBE00000000BEBE00000000BEBE00000000000000000000BE00BE0000000000BEBE0000000000BE00BE00000000000000000000
310
DC00F500000000000000F5000000000000000000000000000000F50000000000BEBE00000000F500000000000000000000F500000000000000000000000000000000F50000000000000000000000F500F500000000000000000000000000F500000000000000000000000000000000F50000002D0000000000000000000000
310
000000000000F50000000000000000000000000000000000000000000000000000000000000000000000000000000000000000000000BE000000000000DC000000000000002D002D002D00002DBEBE00000000000000000000BE0000000000000000000000BE00BE000000000000000000000000BE00BE0000000000000000
310
0000DC00F500000000000000F5000000000000000000000000000000F50000000000000000000000F500000000000000000000F500000000000000000000000000000000F50000000000000000000000F500F500000000000000000000000000F500000000000000000000000000000000F50000002D000000000000000000
310
0000000000000000F50000000000000000000000000000000000000000000000000000000000000000000000000000000000000000000000BE000000000000DC000000000000002D002D002D00002DBEBE00000000000000000000BEBE00000000000000000000BE00BE000000000000000000000000BE00BE000000000000
310
00000000DC00F500000000000000F5000000000000000000000000000000F50000000000000000000000F500000000000000000000F500000000000000000000000000000000F50000000000000000000000F500F500000000000000000000000000F500000000000000000000000000000000F50000002D00000000000000
310
00000000000000000000F50000000000000000000000000000000000000000000000000000000000000000000000000000000000000000000000BE000000000000DC000000000000002D002D002D00002DBEBE0000000000000000BEBEBEBE00000000000000000000BE00BE000000000000000000000000BE00BE00000000
310
000000000000DC00F500000000000000F5000000000000000000000000000000F50000000000000000000000F500000000000000000000F500000000000000000000000000000000F50000000000000000000000F500F500000000000000000000000000F500000000000000000000000000000000F50000002D0000000000
310
0000000000000000000000002D2D00000000000000000000000000000000000000000000000000000000000000000000000000000000000000000000BE000000000000DC000000000000002D002D002D00002DBEBE0000000000000000BE0000BE00000000000000000000BE00BE000000000000000000000000BE00BE0000
310
0000000000000000DC00F500000000000000F5000000000000000000000000000000F50000000000000000000000F500000000000000000000F500000000000000000000000000000000F50000000000000000000000F500F500000000000000000000000000F500000000000000000000000000000000F50000002D000000
310
0000000000000000000000000000F52D2D2D0000000000000000000000000000000000000000000000000000000000000000000000000000000000000000BE000000000000DC000000000000002D002D002D00002DBEBE0000000000000000BE0000BE00000000000000000000BE00BE000000000000000000000000BE00BE
310
00000000000000000000DC00F500000000000000F5000000000000000000000000000000F50000000000000000000000F500000000000000000000F500000000000000000000000000000000F50000000000000000000000F500F5000000000000000000000000002D000000000000000000000000000000002D0000002D00
310
00000000000000000000000000000000F50000000000000000000000000000000000000000000000000000000000000000000000000000000000000000000000BE000000000000DC000000000000002D002D002D00002DBEBE00BEBEBEBEBEBE00BE0000BE00000000000000000000BE00BE000000000000000000000000BE
310
00BE00000000000000000000DC00F500000000000000F5000000000000000000000000000000F50000000000000000000000F500000000000000000000F500000000000000000000000000000000F50000000000000000000000F500F5000000000000000000000000002D2D2D2D2D2D2D2DBEBE2D2D2D2D2D2D2DF5000000
310
2D0000000000000000000000000000000000F50000000000000000000000000000000000000000000000000000000000000000000000000000000000000000000000BE000000000000DC000000000000002D002D002D002D2DBEBEBEBEBEBEBEBEBE00BE0000BE00000000000000000000BE00BE0000000000000000000000
310
00BE00BE00000000000000000000DC00F500000000000000F5000000000000000000000000000000F500000000000000000000F5F500000000000000000000F500000000000000000000000000000000F50000000000000000000000F500F5000000000000000000000000002D00000000000000BEBE000000000000002D00
310
00002D0000000000000000000000000000000000F50000000000000000000000000000000000000000000000000000000000000000000000000000000000000000000000BE000000000000DC000000000000002D00F52D2D2D2D2D2D2DF5BEBE2DBEBEBEBE2D2D2DBE00000000000000000000F52D2D2D2D2D2D2D2D2D2D2D
310
2D2D2D2D2DF500000000000000000000DC00F500000000000000F5000000000000000000000000000000F5000000000000000000F5000000000000000000000000F500000000000000000000000000000000F50000000000000000000000F500F5000000000000000000000000002D00000000000000000000000000000000
310
2D0000002D0000000000000000000000000000000000F50000000000000000000000000000000000000000000000000000000000000000000000000000000000000000000000BE000000000000DC000000000000002D0000002D000000BE0000000000BEBE00000000BEBE00000000000000000000BE00000000000000BEBE
310
00000000000000BE00000000000000000000DC00F500000000000000F5000000000000000000000000000000F5000000000000000000F5000000000000000000000000F500000000000000000000000000000000F50000000000000000000000F500F5000000000000000000000000002D0000000000000000000000000000
310
00002D0000002D0000000000000000000000000000000000F50000000000000000000000000000000000000000000000000000000000000000000000000000000000000000000000BE000000000000DC000000000000002D0000002D000000BE0000000000BEBE000000BEBE0000000000000000000000BE00000000000000
310
BEBE00000000000000BE00000000000000000000DC00F500000000000000F5000000000000000000000000000000F5000000000000000000F5000000000000000000000000F500000000000000000000000000000000F50000000000000000000000F500F5000000000000000000000000002D000000000000000000000000
310
000000002D0000002D0000000000000000000000000000000000F50000000000000000000000000000000000000000000000000000000000000000000000000000000000000000000000BE000000000000DC000000000000002D0000002D000000BE00000000000000000000BE000000000000000000000000BE0000000000
310
0000000000000000000000BE00000000000000000000DC00F500000000000000F5000000000000000000000000000000F5000000000000000000F5000000000000000000000000F500000000000000000000000000000000F50000000000000000000000F500F500000000000000000000000000F500000000000000000000
310
000000000000F50000002D0000000000000000000000000000000000F50000000000000000000000000000000000000000000000000000000000000000000000000000000000000000000000BE000000000000DC000000000000002D0000002D000000BE00000000000000000000BE000000000000000000000000BE000000
310
00000000000000000000000000BE00000000000000000000DC00F500000000000000F5000000000000000000000000000000F5F5F5F5F5F5F5F5F5F5F5000000000000000000000000F5F5F5F5F5F5F5F5F5F5F5F5F5F5F5F5F5F50000000000000000000000F500F500000000000000000000000000F5F5F5F5F5F5F5F5F5
310
F5F5F5F5F5F5F5F52D2D2D2D2D2D00000000000000000000000000000000F5F5F5F50000000000000000000000000000000000000000000000000000000000000000000000000000000000000000BE000000000000DC000000000000002D0000002D000000BE000000BEBEBEBEBE0000BE000000000000000000000000BE00
310
000000000000000000000000000000BE00000000000000000000DC00F500000000000000F500000000000000000000000000000000000000000000000000000000000000000000000000000000000000000000000000000000000000000000000000000000000000F500F50000000000000000000000000000000000000000
310
0000000000000000000000000000000000000000000000000000000000000000000000000000000000000000000000000000000000000000000000000000000000000000000000000000000000000000BE000000000000DC000000000000002D0000002D2D0000BEBE00BEBEBEBEBEBE0000BE000000000000000000000000
310
BE000000000000000000000000000000BEBE00000000000000000000DC00F500000000000000F500000000000000000000000000000000000000000000000000000000000000000000000000000000000000000000000000000000000000000000000000000000000000F500F5000000000000000000000000000000000000
310
00000000000000000000000000000000000000000000000000000000000000000000000000000000000000000000000000000000000000000000000000000000000000000000000000000000000000000000BE000000000000DC0000000000002DF52D2D2D2D2D2D2D2DF5BEBEBEBEBEBEBEBEBE0000000000000000000000
310
0000BEBEBEBEBEBEBEBEBEBEBEBEBEBEBEBEBE0000000000000000000000DC00F500000000000000F500000000000000000000000000000000000000000000000000000000000000000000000000000000000000000000000000000000000000000000000000000000000000F500F500000000000000000000000000000000
310
000000000000000000000000000000000000000000000000000000000000000000000000000000000000000000000000000000000000000000000000000000000000000000000000000000000000000000000000BE000000000000DC0000000000000000000000000000000000000000000000000000000000000000000000
310
0000000000000000000000000000000000000000000000000000000000000000DC00F500000000000000F500000000000000000000000000000000000000000000000000000000000000000000000000000000000000000000000000000000000000000000000000000000000000F500F50000000000000000000000000000
310
BEBEBEBEBEBEBEBEBEBEBE00000000000000000000000000000000000000000000000000BEBEBEBEBEBE0000000000000000000000000000000000000000000000000000000000000000000000000000000000000000BE000000000000DC000000000000000000000000000000000000000000000000000000000000000000
310
00000000000000000000000000000000000000000000000000000000000000000000DC00F500000000000000F500000000000000000000000000000000000000000000000000000000000000000000000000000000000000000000000000000000000000000000000000000000000000F500F5000000000000000000000000
310
00BEBEBEBEBEBEBEBEBEBEBEBE00000000000000000000000000000000000000000000000000BEBEBEBEBEBE0000000000000000000000000000000000000000000000000000000000000000000000000000000000000000BE000000000000DC00000000000000000000000000000000000000000000000000000000000000
310
000000000000000000000000000000000000000000000000000000000000000000000000DC00F500000000000000F500000000000000000000000000000000000000000000000000000000000000000000000000000000000000000000000000000000000000000000000000000000000000F500F500000000000000000000
310
0000000000BE000000BE000000BE0000BEBE0000000000000000000000000000000000000000000000BE000000000000000000000000000000000000000000000000000000000000000000000000000000000000000000000000BE000000000000DCDCDCDCDCDCDCDCDCDCDCDCDCDCDCDCDCDCDCDCDCDCDCDCDCDCDCDCDCDC
310
DCDCDCDCDCDCDCDCDCDCDCDCDCDCDCDCDCDCDCDCDCDCDCDCDCDCDCDCDCDCDCDCDCDCDCDCDCDCDC00F500000000000000F5F5F5F5F5F5F5F5F5F5F5F5F5F5F5F5F5F5F5F5F5F5F5F5F5F5F5F5F5F5F5F5F5F5F5F5F5F5F5F5F5F5F5F5F5F5F5F5F5F5F5F5F5F5F5F5F5F5F5F5F5F5F5F5F5F5F5F5F500F50000000000000000
310
0000000000BE00BEBEBEBEBEBEBE00BEBEBEBEBEBE000000000000000000000000000000000000000000BEBEBEBEBEBE0000000000000000000000000000000000000000000000000000000000000000000000000000000000000000BE00000000000000000000000000000000000000000000000000000000000000000000
310
000000000000000000000000000000000000000000000000000000000000000000000000000000000000F50000000000000000000000000000000000000000000000000000000000000000000000000000000000000000000000000000000000000000000000000000000000000000000000000000000000F5000000000000
310
00000000000000BEBEBEBEBEBEBEBEBE00BEBEBEBEBEBE000000000000000000000000000000000000000000BEBEBEBEBEBE0000000000000000000000000000000000000000000000000000000000000000000000000000000000000000BEBEBEBEBEBEBEBEBEBEBEBEBEBEBEBEBEBEBEBEBEBEBEBEBEBEBEBEBEBEBEBEBE
310
BEBEBEBEBEBEBEBEBEBEBEBEBEBEBEBEBEBEBEBEBEBEBEBEBEBEBEBEBEBEBEBEBEBEBEBEBEBEBEBEBEBEBEBEF5F5F5F5F5F5F5F5F5F5F5F5F5F5F5F5F5F5F5F5F5F5F5F5F5F5F5F5F5F5F5F5F5F5F5F5F5F5F5F5F5F5F5F5F5F5F5F5F5F5F5F5F5F5F5F5F5F5F5F5F5F5F5F5F5F5F5F5F5F5F5F5F5F5F5F5F5F5F500000000
310
00000000000000000000000000000000000000000000000000000000000000000000000000000000000000000000000000000000000000000000000000000000000000000000000000000000000000000000000000000000000000000000000000000000000000000000000000000000000000000000000000000000000000
310
00000000000000000000000000000000000000000000000000000000000000000000000000000000000000000000000000000000000000000000000000000000000000000000000000000000000000000000000000000000000000000000000000000000000000000000000000000000000000000000000000000000000000
310
00000000000000000000000000000000000000000000000000000000000000000000000000000000000000000000000000000000000000000000000000000000000000000000000000000000000000000000000000000000000000000000000000000000000000000000000000000000000000000000000000000000000000
310
00000000000000000000000000000000000000000000000000000000000000000000000000000000000000000000000000000000000000000000000000000000000000000000000000000000000000000000000000000000000000000000000000000000000000000000000000000000000000000000000000000000000000
310
00000000000000000000000000000000000000000000000000000000000000000000000000000000000000000000000000000000000000000000000000000000000000000000000000000000000000000000000000000000000000000000000000000000000000000000000000000000000000000000000000000000000000
310
00000000000000000000000000000000000000000000000000000000000000000000000000000000000000000000000000000000000000000000000000000000000000000000000000000000000000000000000000000000000000000000000000000000000000000000000000000000000000000000000000000000000000
310
00000000000000000000000000000000000000000000000000000000000000000000000000000000000000000000000000000000000000000000000000000000000000000000000000000000000000000000000000000000000000000000000000000000000000000000000000000000000000000000000000000000000000
310
00000000000000000000000000000000000000000000000000000000000000000000000000000000000000000000000000000000000000000000000000000000000000000000000000000000000000000000000000000000000000000000000000000000000000000000000000000000000000000000000000000000000000
310
00000000000000000000000000000000000000000000000000000000000000000000000000000000000000000000000000000000000000000000000000000000000000000000000000000000000000000000000000000000000000000000000000000000000000000000000000000000000000000000000000000000000000
310
00000000000000000000000000000000000000000000000000000000000000000000000000000000000000000000000000000000000000000000000000000000000000000000000000000000000000000000000000000000000000000000000000000000000000000000000000000000000000000000000000000000000000
310
00000000000000000000000000000000000000000000000000000000000000000000000000000000000000000000000000000000000000000000000000000000000000000000000000000000000000000000000000000000000000000000000000000000000000000000000000000000000000000000000000000000000000
310
00000000000000000000000000000000000000000000000000000000000000000000000000000000000000000000000000000000000000000000000000000000000000000000000000000000000000000000000000000000000000000000000000000000000000000000000000000000000000000000000000000000000000
310
00000000000000000000000000000000000000000000000000000000000000000000000000000000000000000000000000000000000000000000000000000000000000000000000000000000000000000000000000000000000000000000000000000000000000000000000000000000000000000000000000000000000000
310
00000000000000000000000000000000000000000000000000000000000000000000000000000000000000000000000000000000000000000000000000000000000000000000000000000000000000000000000000000000000000000000000000000000000000000000000000000000000000000000000000000000000000
310
00000000000000000000000000000000000000000000000000000000000000000000000000000000000000000000000000000000000000000000000000000000000000000000000000000000000000000000000000000000000000000000000000000000000000000000000000000000000000000000000000000000000000
310
00000000000000000000000000000000000000000000000000000000000000000000000000000000000000000000000000000000000000000000000000000000000000000000000000000000000000000000000000000000000000000000000000000000000000000000000000000000000000000000000000000000000000
310
00000000000000000000000000000000000000000000000000000000000000000000000000000000000000000000000000000000000000000000000000000000000000000000000000000000000000000000000000000000000000000000000000000000000000000000000000000000000000000000000000000000000000
310
00000000000000000000000000000000000000000000000000000000000000000000000000000000000000000000000000000000000000000000000000000000000000000000000000000000000000000000000000000000000000000000000000000000000000000000000000000000000000000000000000000000000000
310
00000000000000000000000000000000000000000000000000000000000000000000000000000000000000000000000000000000000000000000000000000000000000000000000000000000000000000000000000000000000000000000000000000000000000000000000000000000000000000000000000000000000000
310
00000000000000000000000000000000000000000000000000000000000000000000000000000000000000000000000000000000000000000000000000000000000000000000000000000000000000000000000000000000000000000000000000000000000000000000000000000000000000000000000000000000000000
310
00000000000000000000000000000000000000000000000000000000000000000000000000000000000000000000000000000000000000000000000000000000000000000000000000000000000000000000000000000000000000000000000000000000000000000000000000000000000000000000000000000000000000
310
00000000000000000000000000000000000000000000000000000000000000000000000000000000000000000000000000000000000000000000000000000000000000000000000000000000000000000000000000000000000000000000000000000000000000000000000000000000000000000000000000000000000000
310
0000000000000000000000000000000000000000000000000000000000000000000000000000000000000000000000000000000000000000000000000000000000000000000000000000
  0
XRECORD
  5
F
102
{ACAD_REACTORS
330
E
102
}
330
E
100
AcDbXrecord
280
     1
270
     1
271
     1
  0
XRECORD
  5
10
102
{ACAD_REACTORS
330
E
102
}
330
E
100
AcDbXrecord
280
     1
270
     1
271
     1
  0
XRECORD
  5
11
102
{ACAD_REACTORS
330
E
102
}
330
E
100
AcDbXrecord
280
     1
270
     1
271
     1
  0
XRECORD
  5
12
102
{ACAD_REACTORS
330
E
102
}
330
E
100
AcDbXrecord
280
     1
270
     1
271
     1
  0
CELLSTYLEMAP
  5
3A4
102
{ACAD_REACTORS
330
46
102
}
330
46
100
AcDbCellStyleMap
 90
        3
300
CELLSTYLE
  1
TABLEFORMAT_BEGIN
 90
        5
170
     1
 91
        0
 92
    32768
 62
   257
 93
        1
300
CONTENTFORMAT
  1
CONTENTFORMAT_BEGIN
 90
        0
 91
        0
 92
      512
 93
        0
300

 40
0.0
140
1.0
 94
        5
 62
     0
340
25
144
6.0
309
CONTENTFORMAT_END
171
     1
301
MARGIN
  1
CELLMARGIN_BEGIN
 40
1.5
 40
1.5
 40
1.5
 40
1.5
 40
4.5
 40
4.5
309
CELLMARGIN_END
 94
        6
 95
        1
302
GRIDFORMAT
  1
GRIDFORMAT_BEGIN
 90
        0
 91
        1
 62
     0
 92
       -2
340
28
 93
        0
 40
1.125
309
GRIDFORMAT_END
 95
        2
302
GRIDFORMAT
  1
GRIDFORMAT_BEGIN
 90
        0
 91
        1
 62
     0
 92
       -2
340
28
 93
        0
 40
1.125
309
GRIDFORMAT_END
 95
        4
302
GRIDFORMAT
  1
GRIDFORMAT_BEGIN
 90
        0
 91
        1
 62
     0
 92
       -2
340
28
 93
        0
 40
1.125
309
GRIDFORMAT_END
 95
        8
302
GRIDFORMAT
  1
GRIDFORMAT_BEGIN
 90
        0
 91
        1
 62
     0
 92
       -2
340
28
 93
        0
 40
1.125
309
GRIDFORMAT_END
 95
       16
302
GRIDFORMAT
  1
GRIDFORMAT_BEGIN
 90
        0
 91
        1
 62
     0
 92
       -2
340
28
 93
        0
 40
1.125
309
GRIDFORMAT_END
 95
       32
302
GRIDFORMAT
  1
GRIDFORMAT_BEGIN
 90
        0
 91
        1
 62
     0
 92
       -2
340
28
 93
        0
 40
1.125
309
GRIDFORMAT_END
309
TABLEFORMAT_END
  1
CELLSTYLE_BEGIN
 90
        1
 91
        1
300
_TITLE
309
CELLSTYLE_END
300
CELLSTYLE
  1
TABLEFORMAT_BEGIN
 90
        5
170
     1
 91
        0
 92
        0
 62
   257
 93
        1
300
CONTENTFORMAT
  1
CONTENTFORMAT_BEGIN
 90
        0
 91
        0
 92
      512
 93
        0
300

 40
0.0
140
1.0
 94
        5
 62
     0
340
25
144
4.5
309
CONTENTFORMAT_END
171
     1
301
MARGIN
  1
CELLMARGIN_BEGIN
 40
1.5
 40
1.5
 40
1.5
 40
1.5
 40
4.5
 40
4.5
309
CELLMARGIN_END
 94
        6
 95
        1
302
GRIDFORMAT
  1
GRIDFORMAT_BEGIN
 90
        0
 91
        1
 62
     0
 92
       -2
340
28
 93
        0
 40
1.125
309
GRIDFORMAT_END
 95
        2
302
GRIDFORMAT
  1
GRIDFORMAT_BEGIN
 90
        0
 91
        1
 62
     0
 92
       -2
340
28
 93
        0
 40
1.125
309
GRIDFORMAT_END
 95
        4
302
GRIDFORMAT
  1
GRIDFORMAT_BEGIN
 90
        0
 91
        1
 62
     0
 92
       -2
340
28
 93
        0
 40
1.125
309
GRIDFORMAT_END
 95
        8
302
GRIDFORMAT
  1
GRIDFORMAT_BEGIN
 90
        0
 91
        1
 62
     0
 92
       -2
340
28
 93
        0
 40
1.125
309
GRIDFORMAT_END
 95
       16
302
GRIDFORMAT
  1
GRIDFORMAT_BEGIN
 90
        0
 91
        1
 62
     0
 92
       -2
340
28
 93
        0
 40
1.125
309
GRIDFORMAT_END
 95
       32
302
GRIDFORMAT
  1
GRIDFORMAT_BEGIN
 90
        0
 91
        1
 62
     0
 92
       -2
340
28
 93
        0
 40
1.125
309
GRIDFORMAT_END
309
TABLEFORMAT_END
  1
CELLSTYLE_BEGIN
 90
        2
 91
        1
300
_HEADER
309
CELLSTYLE_END
300
CELLSTYLE
  1
TABLEFORMAT_BEGIN
 90
        5
170
     1
 91
        0
 92
        0
 62
   257
 93
        1
300
CONTENTFORMAT
  1
CONTENTFORMAT_BEGIN
 90
        0
 91
        0
 92
      512
 93
        0
300

 40
0.0
140
1.0
 94
        2
 62
     0
340
25
144
4.5
309
CONTENTFORMAT_END
171
     1
301
MARGIN
  1
CELLMARGIN_BEGIN
 40
1.5
 40
1.5
 40
1.5
 40
1.5
 40
4.5
 40
4.5
309
CELLMARGIN_END
 94
        6
 95
        1
302
GRIDFORMAT
  1
GRIDFORMAT_BEGIN
 90
        0
 91
        1
 62
     0
 92
       -2
340
28
 93
        0
 40
1.125
309
GRIDFORMAT_END
 95
        2
302
GRIDFORMAT
  1
GRIDFORMAT_BEGIN
 90
        0
 91
        1
 62
     0
 92
       -2
340
28
 93
        0
 40
1.125
309
GRIDFORMAT_END
 95
        4
302
GRIDFORMAT
  1
GRIDFORMAT_BEGIN
 90
        0
 91
        1
 62
     0
 92
       -2
340
28
 93
        0
 40
1.125
309
GRIDFORMAT_END
 95
        8
302
GRIDFORMAT
  1
GRIDFORMAT_BEGIN
 90
        0
 91
        1
 62
     0
 92
       -2
340
28
 93
        0
 40
1.125
309
GRIDFORMAT_END
 95
       16
302
GRIDFORMAT
  1
GRIDFORMAT_BEGIN
 90
        0
 91
        1
 62
     0
 92
       -2
340
28
 93
        0
 40
1.125
309
GRIDFORMAT_END
 95
       32
302
GRIDFORMAT
  1
GRIDFORMAT_BEGIN
 90
        0
 91
        1
 62
     0
 92
       -2
340
28
 93
        0
 40
1.125
309
GRIDFORMAT_END
309
TABLEFORMAT_END
  1
CELLSTYLE_BEGIN
 90
        3
 91
        2
300
_DATA
309
CELLSTYLE_END
  0
ENDSEC
  0
EOF
