  0
SECTION
  2
HEADER
  9
$ACADVER
  1
AC1024
  9
$ACADMAINTVER
 70
     6
  9
$DWGCODEPAGE
  3
ANSI_1252
  9
$INSBASE
 10
0.0
 20
0.0
 30
0.0
  9
$EXTMIN
 10
0.0
 20
0.0
 30
0.0
  9
$EXTMAX
 10
525.0
 20
742.4999999999999
 30
0.0
  9
$LIMMIN
 10
0.0
 20
0.0
  9
$LIMMAX
 10
594.0
 20
420.0
  9
$ORTHOMODE
 70
     1
  9
$REGENMODE
 70
     1
  9
$FILLMODE
 70
     1
  9
$QTEXTMODE
 70
     0
  9
$MIRRTEXT
 70
     1
  9
$LTSCALE
 40
15.0
  9
$ATTMODE
 70
     1
  9
$TEXTSIZE
 40
5.0
  9
$TRACEWID
 40
1.0
  9
$TEXTSTYLE
  7
Standard
  9
$CLAYER
  8
0
  9
$CELTYPE
  6
ByLayer
  9
$CECOLOR
 62
   256
  9
$CELTSCALE
 40
1.0
  9
$DISPSILH
 70
     0
  9
$DIMSCALE
 40
2.0
  9
$DIMASZ
 40
2.5
  9
$DIMEXO
 40
0.625
  9
$DIMDLI
 40
0.0
  9
$DIMRND
 40
0.0
  9
$DIMDLE
 40
0.0
  9
$DIMEXE
 40
1.25
  9
$DIMTP
 40
0.0
  9
$DIMTM
 40
0.0
  9
$DIMTXT
 40
2.5
  9
$DIMCEN
 40
2.5
  9
$DIMTSZ
 40
0.0
  9
$DIMTOL
 70
     0
  9
$DIMLIM
 70
     0
  9
$DIMTIH
 70
     0
  9
$DIMTOH
 70
     0
  9
$DIMSE1
 70
     0
  9
$DIMSE2
 70
     0
  9
$DIMTAD
 70
     1
  9
$DIMZIN
 70
     8
  9
$DIMBLK
  1

  9
$DIMASO
 70
     1
  9
$DIMSHO
 70
     1
  9
$DIMPOST
  1

  9
$DIMAPOST
  1

  9
$DIMALT
 70
     0
  9
$DIMALTD
 70
     3
  9
$DIMALTF
 40
0.03937007874016
  9
$DIMLFAC
 40
1.0
  9
$DIMTOFL
 70
     1
  9
$DIMTVP
 40
0.0
  9
$DIMTIX
 70
     0
  9
$DIMSOXD
 70
     0
  9
$DIMSAH
 70
     0
  9
$DIMBLK1
  1

  9
$DIMBLK2
  1

  9
$DIMSTYLE
  2
Wagner
  9
$DIMCLRD
 70
     4
  9
$DIMCLRE
 70
     4
  9
$DIMCLRT
 70
     1
  9
$DIMTFAC
 40
1.0
  9
$DIMGAP
 40
0.625
  9
$DIMJUST
 70
     0
  9
$DIMSD1
 70
     0
  9
$DIMSD2
 70
     0
  9
$DIMTOLJ
 70
     0
  9
$DIMTZIN
 70
     8
  9
$DIMALTZ
 70
     0
  9
$DIMALTTZ
 70
     0
  9
$DIMUPT
 70
     0
  9
$DIMDEC
 70
     8
  9
$DIMTDEC
 70
     8
  9
$DIMALTU
 70
     2
  9
$DIMALTTD
 70
     3
  9
$DIMTXSTY
  7
ROMANS
  9
$DIMAUNIT
 70
     0
  9
$DIMADEC
 70
     2
  9
$DIMALTRND
 40
0.0
  9
$DIMAZIN
 70
     2
  9
$DIMDSEP
 70
    44
  9
$DIMATFIT
 70
     3
  9
$DIMFRAC
 70
     0
  9
$DIMLDRBLK
  1

  9
$DIMLUNIT
 70
     2
  9
$DIMLWD
 70
    -2
  9
$DIMLWE
 70
    -2
  9
$DIMTMOVE
 70
     2
  9
$DIMFXL
 40
1.0
  9
$DIMFXLON
 70
     0
  9
$DIMJOGANG
 40
0.7853981633974483
  9
$DIMTFILL
 70
     0
  9
$DIMTFILLCLR
 70
     0
  9
$DIMARCSYM
 70
     0
  9
$DIMLTYPE
  6

  9
$DIMLTEX1
  6

  9
$DIMLTEX2
  6

  9
$DIMTXTDIRECTION
 70
     0
  9
$LUNITS
 70
     2
  9
$LUPREC
 70
     2
  9
$SKETCHINC
 40
1.0
  9
$FILLETRAD
 40
0.0
  9
$AUNITS
 70
     0
  9
$AUPREC
 70
     0
  9
$MENU
  1
.
  9
$ELEVATION
 40
0.0
  9
$PELEVATION
 40
0.0
  9
$THICKNESS
 40
0.0
  9
$LIMCHECK
 70
     0
  9
$CHAMFERA
 40
0.0
  9
$CHAMFERB
 40
0.0
  9
$CHAMFERC
 40
20.0
  9
$CHAMFERD
 40
0.0
  9
$SKPOLY
 70
     0
  9
$TDCREATE
 40
2453780.467210278
  9
$TDUCREATE
 40
2453780.383876944
  9
$TDUPDATE
 40
2456881.528072720
  9
$TDUUPDATE
 40
2456881.444739387
  9
$TDINDWG
 40
1.1904097569
  9
$TDUSRTIMER
 40
1.1904097569
  9
$USRTIMER
 70
     1
  9
$ANGBASE
 50
0.0
  9
$ANGDIR
 70
     0
  9
$PDMODE
 70
     0
  9
$PDSIZE
 40
-1.0
  9
$PLINEWID
 40
0.0
  9
$SPLFRAME
 70
     0
  9
$SPLINETYPE
 70
     6
  9
$SPLINESEGS
 70
     8
  9
$HANDSEED
  5
4B2
  9
$SURFTAB1
 70
     6
  9
$SURFTAB2
 70
     6
  9
$SURFTYPE
 70
     6
  9
$SURFU
 70
     6
  9
$SURFV
 70
     6
  9
$UCSBASE
  2

  9
$UCSNAME
  2

  9
$UCSORG
 10
0.0
 20
0.0
 30
0.0
  9
$UCSXDIR
 10
1.0
 20
0.0
 30
0.0
  9
$UCSYDIR
 10
0.0
 20
1.0
 30
0.0
  9
$UCSORTHOREF
  2

  9
$UCSORTHOVIEW
 70
     0
  9
$UCSORGTOP
 10
0.0
 20
0.0
 30
0.0
  9
$UCSORGBOTTOM
 10
0.0
 20
0.0
 30
0.0
  9
$UCSORGLEFT
 10
0.0
 20
0.0
 30
0.0
  9
$UCSORGRIGHT
 10
0.0
 20
0.0
 30
0.0
  9
$UCSORGFRONT
 10
0.0
 20
0.0
 30
0.0
  9
$UCSORGBACK
 10
0.0
 20
0.0
 30
0.0
  9
$PUCSBASE
  2

  9
$PUCSNAME
  2

  9
$PUCSORG
 10
0.0
 20
0.0
 30
0.0
  9
$PUCSXDIR
 10
1.0
 20
0.0
 30
0.0
  9
$PUCSYDIR
 10
0.0
 20
1.0
 30
0.0
  9
$PUCSORTHOREF
  2

  9
$PUCSORTHOVIEW
 70
     0
  9
$PUCSORGTOP
 10
0.0
 20
0.0
 30
0.0
  9
$PUCSORGBOTTOM
 10
0.0
 20
0.0
 30
0.0
  9
$PUCSORGLEFT
 10
0.0
 20
0.0
 30
0.0
  9
$PUCSORGRIGHT
 10
0.0
 20
0.0
 30
0.0
  9
$PUCSORGFRONT
 10
0.0
 20
0.0
 30
0.0
  9
$PUCSORGBACK
 10
0.0
 20
0.0
 30
0.0
  9
$USERI1
 70
     0
  9
$USERI2
 70
     0
  9
$USERI3
 70
     0
  9
$USERI4
 70
     0
  9
$USERI5
 70
     0
  9
$USERR1
 40
0.0
  9
$USERR2
 40
0.0
  9
$USERR3
 40
0.0
  9
$USERR4
 40
0.0
  9
$USERR5
 40
0.0
  9
$WORLDVIEW
 70
     1
  9
$SHADEDGE
 70
     3
  9
$SHADEDIF
 70
    70
  9
$TILEMODE
 70
     1
  9
$MAXACTVP
 70
    64
  9
$PINSBASE
 10
0.0
 20
0.0
 30
0.0
  9
$PLIMCHECK
 70
     0
  9
$PEXTMIN
 10
1.000000000000000E+20
 20
1.000000000000000E+20
 30
1.000000000000000E+20
  9
$PEXTMAX
 10
-1.000000000000000E+20
 20
-1.000000000000000E+20
 30
-1.000000000000000E+20
  9
$PLIMMIN
 10
0.0
 20
0.0
  9
$PLIMMAX
 10
420.0
 20
297.0
  9
$UNITMODE
 70
     0
  9
$VISRETAIN
 70
     1
  9
$PLINEGEN
 70
     0
  9
$PSLTSCALE
 70
     1
  9
$TREEDEPTH
 70
  3020
  9
$CMLSTYLE
  2
Standard
  9
$CMLJUST
 70
     0
  9
$CMLSCALE
 40
20.0
  9
$PROXYGRAPHICS
 70
     1
  9
$MEASUREMENT
 70
     1
  9
$CELWEIGHT
370
    -1
  9
$ENDCAPS
280
     0
  9
$JOINSTYLE
280
     0
  9
$LWDISPLAY
290
     0
  9
$INSUNITS
 70
     4
  9
$HYPERLINKBASE
  1

  9
$STYLESHEET
  1

  9
$XEDIT
290
     1
  9
$CEPSNTYPE
380
     0
  9
$PSTYLEMODE
290
     1
  9
$FINGERPRINTGUID
  2
{F6BB807F-6C5B-41C0-96A5-3FD12C70B82B}
  9
$VERSIONGUID
  2
{AA634FDA-0CAB-4DFF-A993-F11CBB186D0A}
  9
$EXTNAMES
290
     1
  9
$PSVPSCALE
 40
0.0
  9
$OLESTARTUP
290
     0
  9
$SORTENTS
280
   127
  9
$INDEXCTL
280
     0
  9
$HIDETEXT
280
     1
  9
$XCLIPFRAME
280
     0
  9
$HALOGAP
280
     0
  9
$OBSCOLOR
 70
   257
  9
$OBSLTYPE
280
     0
  9
$INTERSECTIONDISPLAY
280
     0
  9
$INTERSECTIONCOLOR
 70
   257
  9
$DIMASSOC
280
     1
  9
$PROJECTNAME
  1

  9
$CAMERADISPLAY
290
     0
  9
$LENSLENGTH
 40
50.0
  9
$CAMERAHEIGHT
 40
0.0
  9
$STEPSPERSEC
 40
2.0
  9
$STEPSIZE
 40
6.0
  9
$3DDWFPREC
 40
2.0
  9
$PSOLWIDTH
 40
0.25
  9
$PSOLHEIGHT
 40
4.0
  9
$LOFTANG1
 40
1.570796326794896
  9
$LOFTANG2
 40
1.570796326794896
  9
$LOFTMAG1
 40
0.0
  9
$LOFTMAG2
 40
0.0
  9
$LOFTPARAM
 70
     7
  9
$LOFTNORMALS
280
     1
  9
$LATITUDE
 40
37.795
  9
$LONGITUDE
 40
-122.394
  9
$NORTHDIRECTION
 40
0.0
  9
$TIMEZONE
 70
 -8000
  9
$LIGHTGLYPHDISPLAY
280
     1
  9
$TILEMODELIGHTSYNCH
280
     1
  9
$CMATERIAL
347
3E
  9
$SOLIDHIST
280
     1
  9
$SHOWHIST
280
     1
  9
$DWFFRAME
280
     2
  9
$DGNFRAME
280
     0
  9
$REALWORLDSCALE
290
     1
  9
$INTERFERECOLOR
 62
     1
  9
$INTERFEREOBJVS
345
55
  9
$INTERFEREVPVS
346
56
  9
$CSHADOW
280
     0
  9
$SHADOWPLANELOCATION
 40
0.0
  0
ENDSEC
  0
SECTION
  2
CLASSES
  0
CLASS
  1
ACDBDICTIONARYWDFLT
  2
AcDbDictionaryWithDefault
  3
ObjectDBX Classes
 90
        0
 91
        1
280
     0
281
     0
  0
CLASS
  1
MATERIAL
  2
AcDbMaterial
  3
ObjectDBX Classes
 90
     1153
 91
        3
280
     0
281
     0
  0
CLASS
  1
VISUALSTYLE
  2
AcDbVisualStyle
  3
ObjectDBX Classes
 90
     4095
 91
        3
280
     0
281
     0
  0
CLASS
  1
TABLESTYLE
  2
AcDbTableStyle
  3
ObjectDBX Classes
 90
     4095
 91
        1
280
     0
281
     0
  0
CLASS
  1
SCALE
  2
AcDbScale
  3
ObjectDBX Classes
 90
     1153
 91
       33
280
     0
281
     0
  0
CLASS
  1
MLEADERSTYLE
  2
AcDbMLeaderStyle
  3
ACDB_MLEADERSTYLE_CLASS
 90
     4095
 91
        0
280
     0
281
     0
  0
CLASS
  1
SORTENTSTABLE
  2
AcDbSortentsTable
  3
ObjectDBX Classes
 90
        0
 91
        4
280
     0
281
     0
  0
CLASS
  1
CELLSTYLEMAP
  2
AcDbCellStyleMap
  3
ObjectDBX Classes
 90
     1152
 91
        1
280
     0
281
     0
  0
CLASS
  1
DICTIONARYVAR
  2
AcDbDictionaryVar
  3
ObjectDBX Classes
 90
        0
 91
        6
280
     0
281
     0
  0
CLASS
  1
SOLID_BACKGROUND
  2
AcDbSolidBackground
  3
SCENEOE
 90
     4095
 91
        0
280
     0
281
     0
  0
CLASS
  1
NPOCOLLECTION
  2
AcDbImpNonPersistentObjectsCollection
  3
ObjectDBX Classes
 90
     1153
 91
        0
280
     0
281
     0
  0
CLASS
  1
ACDB_DYNAMICBLOCKPURGEPREVENTER_VERSION
  2
AcDbDynamicBlockPurgePreventer
  3
ObjectDBX Classes
 90
     1153
 91
        0
280
     0
281
     0
  0
CLASS
  1
ACAD_TABLE
  2
AcDbTable
  3
ObjectDBX Classes
 90
     1025
 91
        0
280
     0
281
     1
  0
CLASS
  1
TABLECONTENT
  2
AcDbTableContent
  3
ObjectDBX Classes
 90
     1152
 91
        0
280
     0
281
     0
  0
CLASS
  1
TABLEGEOMETRY
  2
AcDbTableGeometry
  3
ObjectDBX Classes
 90
     1152
 91
        0
280
     0
281
     0
  0
CLASS
  1
DIMASSOC
  2
AcDbDimAssoc
  3
"AcDbDimAssoc|Product Desc:     AcDim ARX App For Dimension|Company:          Autodesk, Inc.|WEB Address:      www.autodesk.com"
 90
        0
 91
        0
280
     0
281
     0
  0
CLASS
  1
AEC_REFEDIT_STATUS_TRACKER
  2
AecDbRefEditStatusTracker
  3
AecArchBase60|Product Desc: Autodesk Architectural Desktop 2007 |Company: Autodesk,Inc. |WEB Address: www.autodesk.com
 90
      129
 91
        0
280
     0
281
     0
  0
CLASS
  1
ACDBASSOCNETWORK
  2
AcDbAssocNetwork
  3
ObjectDBX Classes
 90
     1025
 91
        0
280
     0
281
     0
  0
CLASS
  1
ACDBASSOC2DCONSTRAINTGROUP
  2
AcDbAssoc2dConstraintGroup
  3
ObjectDBX Classes
 90
     1025
 91
        0
280
     0
281
     0
  0
CLASS
  1
ACDBASSOCGEOMDEPENDENCY
  2
AcDbAssocGeomDependency
  3
ObjectDBX Classes
 90
     1025
 91
        0
280
     0
281
     0
  0
CLASS
  1
EXACXREFPANELOBJECT
  2
ExAcXREFPanelObject
  3
EXAC_ESW
 90
     1025
 91
        0
280
     1
281
     0
  0
ENDSEC
  0
SECTION
  2
TABLES
  0
TABLE
  2
VPORT
  5
2E
102
{ACAD_XDICTIONARY
360
32
102
}
330
0
100
AcDbSymbolTable
 70
     1
  0
VPORT
  5
2F
330
2E
100
AcDbSymbolTableRecord
100
AcDbViewportTableRecord
  2
*Active
 70
     0
 10
0.0
 20
0.0
 11
1.0
 21
1.0
 12
-514.0484163379626
 22
391.7679011230554
 13
0.0
 23
0.0
 14
10.0
 24
10.0
 15
10.0
 25
10.0
 16
0.0
 26
0.0
 36
1.0
 17
210.2026221644988
 27
148.4999782997198
 37
-0.0000000000006946
 40
1914.847900692184
 41
1.937738246505718
 42
50.0
 43
0.0
 44
0.0
 50
0.0
 51
0.0
 71
     0
 72
  1000
 73
     1
 74
     0
 75
     0
 76
     0
 77
     0
 78
     0
281
     0
 65
     1
110
0.0
120
0.0
130
0.0
111
1.0
121
0.0
131
0.0
112
0.0
122
1.0
132
0.0
 79
     0
146
0.0
348
30
 60
     3
 61
     5
292
     1
282
     1
141
0.0
142
0.0
 63
   250
421
  3355443
  0
ENDTAB
  0
TABLE
  2
LTYPE
  5
29
330
0
100
AcDbSymbolTable
 70
     4
  0
LTYPE
  5
2A
330
29
100
AcDbSymbolTableRecord
100
AcDbLinetypeTableRecord
  2
ByBlock
 70
     0
  3

 72
    65
 73
     0
 40
0.0
  0
LTYPE
  5
2B
330
29
100
AcDbSymbolTableRecord
100
AcDbLinetypeTableRecord
  2
ByLayer
 70
     0
  3

 72
    65
 73
     0
 40
0.0
  0
LTYPE
  5
15
330
29
100
AcDbSymbolTableRecord
100
AcDbLinetypeTableRecord
  2
Continuous
 70
     0
  3
Solid line
 72
    65
 73
     0
 40
0.0
  0
LTYPE
  5
255
330
29
100
AcDbSymbolTableRecord
100
AcDbLinetypeTableRecord
  2
AUSGEZOGEN
 70
     0
  3
Ausgezogene Linie
 72
    65
 73
     0
 40
0.0
  0
LTYPE
  5
149
330
29
100
AcDbSymbolTableRecord
100
AcDbLinetypeTableRecord
  2
STRICHPUNKT
 70
     0
  3
__ . __ . __ . __ . __ . __ . __ . __ . __ . __
 72
    65
 73
     4
 40
1.0
 49
0.5
 74
     0
 49
-0.25
 74
     0
 49
0.0
 74
     0
 49
-0.25
 74
     0
  0
LTYPE
  5
BC
330
29
100
AcDbSymbolTableRecord
100
AcDbLinetypeTableRecord
  2
VERDECKT
 70
     0
  3
__ __ __ __ __ __ __ __ __ __ __ __ __ __ __ __
 72
    65
 73
     2
 40
0.375
 49
0.25
 74
     0
 49
-0.125
 74
     0
  0
ENDTAB
  0
TABLE
  2
LAYER
  5
20
102
{ACAD_XDICTIONARY
360
21
102
}
330
0
100
AcDbSymbolTable
 70
     9
  0
LAYER
  5
6
102
{ACAD_XDICTIONARY
360
7
102
}
330
20
100
AcDbSymbolTableRecord
100
AcDbLayerTableRecord
  2
0
 70
     0
 62
     7
  6
Continuous
370
    -3
390
9
347
C
  0
LAYER
  5
84
330
20
100
AcDbSymbolTableRecord
100
AcDbLayerTableRecord
  2
Defpoints
 70
     0
 62
     7
  6
Continuous
290
     0
370
    -3
390
9
347
C
  0
LAYER
  5
24C
102
{ACAD_XDICTIONARY
360
24D
102
}
330
20
100
AcDbSymbolTableRecord
100
AcDbLayerTableRecord
  2
01-99
 70
     0
 62
     2
  6
Continuous
370
    -3
390
9
347
C
  0
LAYER
  5
28A
102
{ACAD_XDICTIONARY
360
28B
102
}
330
20
100
AcDbSymbolTableRecord
100
AcDbLayerTableRecord
  2
06-99
 70
     0
 62
     1
  6
AUSGEZOGEN
370
    -3
390
9
347
C
  0
LAYER
  5
252
102
{ACAD_XDICTIONARY
360
253
102
}
330
20
100
AcDbSymbolTableRecord
100
AcDbLayerTableRecord
  2
02-99
 70
     0
 62
     1
  6
AUSGEZOGEN
370
    -3
390
9
347
C
  0
LAYER
  5
274
102
{ACAD_XDICTIONARY
360
275
102
}
330
20
100
AcDbSymbolTableRecord
100
AcDbLayerTableRecord
  2
08-99
 70
     0
 62
     7
  6
Continuous
370
    -3
390
9
347
C
  0
LAYER
  5
450
102
{ACAD_XDICTIONARY
360
451
102
}
330
20
100
AcDbSymbolTableRecord
100
AcDbLayerTableRecord
  2
09-01
 70
     0
 62
     7
  6
Continuous
370
    -3
390
9
347
C
  0
LAYER
  5
147
102
{ACAD_XDICTIONARY
360
148
102
}
330
20
100
AcDbSymbolTableRecord
100
AcDbLayerTableRecord
  2
05-01
 70
     0
 62
     1
  6
STRICHPUNKT
370
    -3
390
9
347
C
  0
LAYER
  5
BA
102
{ACAD_XDICTIONARY
360
BB
102
}
330
20
100
AcDbSymbolTableRecord
100
AcDbLayerTableRecord
  2
03-01
 70
     0
 62
     3
  6
VERDECKT
370
    -3
390
9
347
C
  0
ENDTAB
  0
TABLE
  2
STYLE
  5
26
330
0
100
AcDbSymbolTable
 70
     4
  0
STYLE
  5
27
330
26
100
AcDbSymbolTableRecord
100
AcDbTextStyleTableRecord
  2
Standard
 70
     0
 40
0.0
 41
1.0
 50
0.0
 71
     0
 42
5.0
  3
txt
  4

  0
STYLE
  5
277
330
26
100
AcDbSymbolTableRecord
100
AcDbTextStyleTableRecord
  2
ROMANS8
 70
     0
 40
0.0
 41
1.0
 50
0.0
 71
     0
 42
2.5
  3
ROMANS8
  4

  0
STYLE
  5
36
330
26
100
AcDbSymbolTableRecord
100
AcDbTextStyleTableRecord
  2
ROMANS
 70
     0
 40
0.0
 41
1.0
 50
0.0
 71
     0
 42
18.0
  3
ROMANS.SHX
  4

  0
STYLE
  5
29D
330
26
100
AcDbSymbolTableRecord
100
AcDbTextStyleTableRecord
  2
ROMAND8
 70
     0
 40
0.0
 41
1.0
 50
0.0
 71
     0
 42
3.5
  3
ROMAND8
  4

  0
ENDTAB
  0
TABLE
  2
VIEW
  5
2C
330
0
100
AcDbSymbolTable
 70
     0
  0
ENDTAB
  0
TABLE
  2
UCS
  5
2D
330
0
100
AcDbSymbolTable
 70
     0
  0
ENDTAB
  0
TABLE
  2
APPID
  5
33
330
0
100
AcDbSymbolTable
 70
     6
  0
APPID
  5
25
330
33
100
AcDbSymbolTableRecord
100
AcDbRegAppTableRecord
  2
ACAD
 70
     0
  0
APPID
  5
38
330
33
100
AcDbSymbolTableRecord
100
AcDbRegAppTableRecord
  2
ACAD_DSTYLE_DIMJAG
 70
     0
  0
APPID
  5
37
330
33
100
AcDbSymbolTableRecord
100
AcDbRegAppTableRecord
  2
ACAD_DSTYLE_DIMBREAK
 70
     0
  0
APPID
  5
39
330
33
100
AcDbSymbolTableRecord
100
AcDbRegAppTableRecord
  2
ACAD_DSTYLE_DIMTALN
 70
     0
  0
APPID
  5
89
330
33
100
AcDbSymbolTableRecord
100
AcDbRegAppTableRecord
  2
ACAD_DSTYLE_DIMJOGGED_JOGANGLE_SYMBOL
 70
     0
  0
APPID
  5
1B
330
33
100
AcDbSymbolTableRecord
100
AcDbRegAppTableRecord
  2
ACAD_PSEXT
 70
     0
  0
ENDTAB
  0
TABLE
  2
DIMSTYLE
  5
34
330
0
100
AcDbSymbolTable
 70
     2
100
AcDbDimStyleTable
 71
     1
340
35
  0
DIMSTYLE
105
35
330
34
100
AcDbSymbolTableRecord
100
AcDbDimStyleTableRecord
  2
Wagner
 70
     0
 40
10.0
 41
2.5
 42
0.625
 43
0.0
 44
1.25
 73
     0
 74
     0
 77
     1
 78
     8
 79
     2
140
2.5
141
2.5
143
0.03937007874016
147
0.625
171
     3
172
     1
176
     4
177
     4
178
     1
179
     2
271
     8
272
     8
274
     3
278
    44
279
     2
283
     0
284
     8
340
36
1001
ACAD_DSTYLE_DIMBREAK
1070
   391
1040
3.75
1001
ACAD_DSTYLE_DIMJAG
1070
   388
1040
1.5
1001
ACAD_DSTYLE_DIMTALN
1070
   392
1070
     0
  0
DIMSTYLE
105
88
102
{ACAD_REACTORS
330
137
330
12A
330
11D
330
110
330
103
330
F6
330
E9
330
DC
330
CF
330
A4
330
97
330
8A
330
78
102
}
330
34
100
AcDbSymbolTableRecord
100
AcDbDimStyleTableRecord
  2
Wagner$0
 70
     0
 41
2.5
 42
1.0
 43
10.0
 44
1.0
 73
     0
 74
     0
 77
     1
 78
     8
 79
     2
140
2.5
141
0.0
143
0.03937007874016
147
1.0
171
     3
172
     1
174
     1
176
     4
177
     4
178
     1
179
     2
271
     8
272
     8
274
     3
279
     2
283
     0
284
     8
340
27
1001
ACAD_DSTYLE_DIMJOGGED_JOGANGLE_SYMBOL
1070
   384
1040
0.7853981633974483
1001
ACAD_DSTYLE_DIMJAG
1070
   388
1040
1.5
1001
ACAD_DSTYLE_DIMTALN
1070
   392
1070
     0
  0
ENDTAB
  0
TABLE
  2
BLOCK_RECORD
  5
1
330
0
100
AcDbSymbolTable
 70
    14
  0
BLOCK_RECORD
  5
2
102
{ACAD_XDICTIONARY
360
3
102
}
330
1
100
AcDbSymbolTableRecord
100
AcDbBlockTableRecord
  2
*Model_Space
340
17
 70
     0
280
     1
281
     0
  0
BLOCK_RECORD
  5
1C
330
1
100
AcDbSymbolTableRecord
100
AcDbBlockTableRecord
  2
*Paper_Space
340
1F
 70
     0
280
     1
281
     0
  0
BLOCK_RECORD
  5
247
102
{ACAD_XDICTIONARY
360
248
102
}
330
1
100
AcDbSymbolTableRecord
100
AcDbBlockTableRecord
  2
DIN A4
340
0
102
{BLKREFS
331
246
102
}
 70
     4
280
     1
281
     0
  0
BLOCK_RECORD
  5
138
330
1
100
AcDbSymbolTableRecord
100
AcDbBlockTableRecord
  2
*D1
340
0
 70
     0
280
     1
281
     0
  0
BLOCK_RECORD
  5
12B
330
1
100
AcDbSymbolTableRecord
100
AcDbBlockTableRecord
  2
*D2
340
0
 70
     0
280
     1
281
     0
  0
BLOCK_RECORD
  5
11E
330
1
100
AcDbSymbolTableRecord
100
AcDbBlockTableRecord
  2
*D3
340
0
 70
     0
280
     1
281
     0
  0
BLOCK_RECORD
  5
111
330
1
100
AcDbSymbolTableRecord
100
AcDbBlockTableRecord
  2
*D4
340
0
 70
     0
280
     1
281
     0
  0
BLOCK_RECORD
  5
104
330
1
100
AcDbSymbolTableRecord
100
AcDbBlockTableRecord
  2
*D5
340
0
 70
     0
280
     1
281
     0
  0
BLOCK_RECORD
  5
F7
330
1
100
AcDbSymbolTableRecord
100
AcDbBlockTableRecord
  2
*D6
340
0
 70
     0
280
     1
281
     0
  0
BLOCK_RECORD
  5
EA
330
1
100
AcDbSymbolTableRecord
100
AcDbBlockTableRecord
  2
*D7
340
0
 70
     0
280
     1
281
     0
  0
BLOCK_RECORD
  5
DD
330
1
100
AcDbSymbolTableRecord
100
AcDbBlockTableRecord
  2
*D8
340
0
 70
     0
280
     1
281
     0
  0
BLOCK_RECORD
  5
D0
330
1
100
AcDbSymbolTableRecord
100
AcDbBlockTableRecord
  2
*D9
340
0
 70
     0
280
     1
281
     0
  0
BLOCK_RECORD
  5
A5
330
1
100
AcDbSymbolTableRecord
100
AcDbBlockTableRecord
  2
*D10
340
0
 70
     0
280
     1
281
     0
  0
BLOCK_RECORD
  5
98
330
1
100
AcDbSymbolTableRecord
100
AcDbBlockTableRecord
  2
*D11
340
0
 70
     0
280
     1
281
     0
  0
BLOCK_RECORD
  5
8B
330
1
100
AcDbSymbolTableRecord
100
AcDbBlockTableRecord
  2
*D12
340
0
 70
     0
280
     1
281
     0
  0
BLOCK_RECORD
  5
79
330
1
100
AcDbSymbolTableRecord
100
AcDbBlockTableRecord
  2
*D13
340
0
 70
     0
280
     1
281
     0
  0
ENDTAB
  0
ENDSEC
  0
SECTION
  2
BLOCKS
  0
BLOCK
  5
5
330
2
100
AcDbEntity
  8
0
100
AcDbBlockBegin
  2
*Model_Space
 70
     0
 10
0.0
 20
0.0
 30
0.0
  3
*Model_Space
  1

  0
ENDBLK
  5
16
330
2
100
AcDbEntity
  8
0
100
AcDbBlockEnd
  0
BLOCK
  5
1D
330
1C
100
AcDbEntity
 67
     1
  8
0
100
AcDbBlockBegin
  2
*Paper_Space
 70
     0
 10
0.0
 20
0.0
 30
0.0
  3
*Paper_Space
  1

  0
ENDBLK
  5
1E
330
1C
100
AcDbEntity
 67
     1
  8
0
100
AcDbBlockEnd
  0
BLOCK
  5
24A
330
247
100
AcDbEntity
  8
0
100
AcDbBlockBegin
  2
DIN A4
 70
     2
 10
0.0
 20
0.0
 30
0.0
  3
DIN A4
  1

  0
LINE
  5
24B
330
247
100
AcDbEntity
  8
01-99
100
AcDbLine
 10
204.0000075739527
 20
290.9999979434973
 30
0.0
 11
20.0000075739529
 21
290.9999979434973
 31
0.0
  0
LINE
  5
24F
330
247
100
AcDbEntity
  8
01-99
100
AcDbLine
 10
204.0000075122353
 20
290.9999979871026
 30
0.0
 11
204.0000075122355
 21
5.999997987102574
 31
0.0
  0
LINE
  5
250
330
247
100
AcDbEntity
  8
01-99
100
AcDbLine
 10
20.0000075122355
 20
5.99999798710246
 30
0.0
 11
20.0000075122355
 21
290.9999979871026
 31
0.0
  0
LWPOLYLINE
  5
251
330
247
100
AcDbEntity
  8
02-99
100
AcDbPolyline
 90
        4
 70
     1
 43
0.0
 10
0.0000075122354986
 20
-0.0000020128974256
 10
210.0000075122355
 20
-0.0000020128974256
 10
210.0000075122355
 20
296.9999979871026
 10
0.0000075122354986
 20
296.9999979871026
  0
LINE
  5
256
330
247
100
AcDbEntity
  8
01-99
100
AcDbLine
 10
20.0000075122355
 20
5.99999798710246
 30
0.0
 11
204.0000075122355
 21
5.999997987102631
 31
0.0
  0
LINE
  5
257
330
247
100
AcDbEntity
  8
01-99
100
AcDbLine
 10
70.0000075122355
 20
11.11110909810247
 30
0.0
 11
20.0000075122355
 21
11.11110909810247
 31
0.0
  0
LINE
  5
258
330
247
100
AcDbEntity
  8
01-99
100
AcDbLine
 10
70.0000075122355
 20
16.22222020910249
 30
0.0
 11
20.0000075122355
 21
16.22222020910249
 31
0.0
  0
LINE
  5
259
330
247
100
AcDbEntity
  8
01-99
100
AcDbLine
 10
70.0000075122355
 20
21.3333313201025
 30
0.0
 11
20.0000075122355
 21
21.33333132010244
 31
0.0
  0
LINE
  5
25A
330
247
100
AcDbEntity
  8
01-99
100
AcDbLine
 10
115.0000075122355
 20
26.44444243110252
 30
0.0
 11
20.0000075122355
 21
26.44444243110246
 31
0.0
  0
LINE
  5
25B
330
247
100
AcDbEntity
  8
01-99
100
AcDbLine
 10
115.0000075122355
 20
31.55555354210253
 30
0.0
 11
20.0000075122355
 21
31.55555354210247
 31
0.0
  0
LINE
  5
25C
330
247
100
AcDbEntity
  8
01-99
100
AcDbLine
 10
45.0000075122355
 20
5.99999798710246
 30
0.0
 11
45.0000075122355
 21
11.11110909810247
 31
0.0
  0
LINE
  5
25D
330
247
100
AcDbEntity
  8
01-99
100
AcDbLine
 10
28.0000075122355
 20
11.11110909810247
 30
0.0
 11
28.0000075122355
 21
36.66666465376915
 31
0.0
  0
LINE
  5
25E
330
247
100
AcDbEntity
  8
01-99
100
AcDbLine
 10
70.0000075122355
 20
5.99999798710246
 30
0.0
 11
70.0000075122355
 21
51.99999798710246
 31
0.0
  0
LINE
  5
25F
330
247
100
AcDbEntity
  8
01-99
100
AcDbLine
 10
115.0000075122355
 20
5.99999798710246
 30
0.0
 11
115.0000075122355
 21
51.99999798710246
 31
0.0
  0
LINE
  5
260
330
247
100
AcDbEntity
  8
01-99
100
AcDbLine
 10
144.5000075122355
 20
5.99999798710246
 30
0.0
 11
144.5000075122355
 21
16.22222020910254
 31
0.0
  0
LINE
  5
261
330
247
100
AcDbEntity
  8
01-99
100
AcDbLine
 10
177.0000075122355
 20
5.99999798710246
 30
0.0
 11
177.0000075122355
 21
16.2222202091026
 31
0.0
  0
LINE
  5
262
330
247
100
AcDbEntity
  8
01-99
100
AcDbLine
 10
148.5000075122355
 20
36.6666646537692
 30
0.0
 11
148.5000075122355
 21
51.99999798710257
 31
0.0
  0
LINE
  5
263
330
247
100
AcDbEntity
  8
01-99
100
AcDbLine
 10
182.0000075122355
 20
36.6666646537692
 30
0.0
 11
182.0000075122355
 21
51.99999798710257
 31
0.0
  0
LINE
  5
264
330
247
100
AcDbEntity
  8
01-99
100
AcDbLine
 10
78.00000751223549
 20
21.33333132043583
 30
0.0
 11
78.00000751223549
 21
36.6666646537692
 31
0.0
  0
LINE
  5
265
330
247
100
AcDbEntity
  8
01-99
100
AcDbLine
 10
60.00319585166497
 20
11.11110909810247
 30
0.0
 11
60.00319585166497
 21
36.66666465376915
 31
0.0
  0
LINE
  5
266
330
247
100
AcDbEntity
  8
01-99
100
AcDbLine
 10
48.00319585166497
 20
11.11110909810247
 30
0.0
 11
48.00319585166497
 21
36.66666465376915
 31
0.0
  0
LINE
  5
267
330
247
100
AcDbEntity
  8
01-99
100
AcDbLine
 10
204.0000075122355
 20
51.99999798710257
 30
0.0
 11
20.00000751223368
 21
51.99999798710246
 31
0.0
  0
LINE
  5
268
330
247
100
AcDbEntity
  8
01-99
100
AcDbLine
 10
115.0000075122355
 20
21.33333132043583
 30
0.0
 11
70.0000075122355
 21
21.33333132043583
 31
0.0
  0
LINE
  5
269
330
247
100
AcDbEntity
  8
01-99
100
AcDbLine
 10
115.0000075122355
 20
36.6666646537692
 30
0.0
 11
20.0000075122355
 21
36.66666465376909
 31
0.0
  0
LINE
  5
26A
330
247
100
AcDbEntity
  8
01-99
100
AcDbLine
 10
92.0000075122355
 20
21.33333132043583
 30
0.0
 11
92.0000075122355
 21
51.99999798710251
 31
0.0
  0
LINE
  5
26B
330
247
100
AcDbEntity
  8
01-99
100
AcDbLine
 10
70.0000075122355
 20
36.66666465376915
 30
0.0
 11
78.00000751223549
 21
31.55555355376919
 31
0.0
  0
LINE
  5
26C
330
247
100
AcDbEntity
  8
01-99
100
AcDbLine
 10
70.0000075122355
 20
31.55555355376919
 30
0.0
 11
78.00000751223549
 21
36.6666646537692
 31
0.0
  0
LINE
  5
26D
330
247
100
AcDbEntity
  8
01-99
100
AcDbLine
 10
204.0000075122355
 20
44.33333132043583
 30
0.0
 11
115.0000075122355
 21
44.33333132043578
 31
0.0
  0
LINE
  5
26E
330
247
100
AcDbEntity
  8
01-99
100
AcDbLine
 10
115.0000075122355
 20
16.22222020910249
 30
0.0
 11
204.0000075122355
 21
16.2222202091026
 31
0.0
  0
LINE
  5
26F
330
247
100
AcDbEntity
  8
01-99
100
AcDbLine
 10
115.0000075122355
 20
36.6666646537692
 30
0.0
 11
204.0000075122355
 21
36.66666465376926
 31
0.0
  0
LINE
  5
270
330
247
100
AcDbEntity
  8
01-99
100
AcDbLine
 10
92.0000075122355
 20
41.77777576510249
 30
0.0
 11
70.0000075122355
 21
41.77777576510249
 31
0.0
  0
LINE
  5
271
330
247
100
AcDbEntity
  8
01-99
100
AcDbLine
 10
92.0000075122355
 20
46.8888868761025
 30
0.0
 11
70.0000075122355
 21
46.88888687610244
 31
0.0
  0
LINE
  5
272
330
247
100
AcDbEntity
  8
01-99
100
AcDbLine
 10
20.00000751223368
 20
51.99999798710246
 30
0.0
 11
20.00000751223368
 21
5.99999798710246
 31
0.0
  0
TEXT
  5
273
330
247
100
AcDbEntity
  8
08-99
100
AcDbText
 10
116.4997086805418
 20
32.66987169496042
 30
0.0
 40
2.5
  1
Benennung/Teil:
 51
15.0
  7
ROMANS8
100
AcDbText
  0
TEXT
  5
278
330
247
100
AcDbEntity
  8
08-99
100
AcDbText
 10
178.5028349598029
 20
12.01760068133313
 30
0.0
 40
2.7
  1
Ident-Nr.
 51
15.0
  7
ROMANS8
100
AcDbText
  0
TEXT
  5
279
330
247
100
AcDbEntity
  8
08-99
100
AcDbText
 10
93.50002924540357
 20
33.0555749488849
 30
0.0
 40
2.5
  1
Name:
 51
15.0
  7
ROMANS8
100
AcDbText
  0
TEXT
  5
27A
330
247
100
AcDbEntity
  8
08-99
100
AcDbText
 10
79.50777665478042
 20
33.04841594810694
 30
0.0
 40
2.5
  1
Datum:
 50
0.102528160689452
 41
0.8933771909280748
 51
15.0
  7
ROMANS8
 72
     5
 11
90.67497366186243
 21
33.06839915456692
 31
0.0
100
AcDbText
  0
TEXT
  5
27B
330
247
100
AcDbEntity
  8
08-99
100
AcDbText
 10
29.50001559397086
 20
33.05597508608236
 30
0.0
 40
1.6
  1
Änderung:
 51
15.0
  7
ROMANS8
100
AcDbText
  0
TEXT
  5
27C
330
247
100
AcDbEntity
  8
08-99
100
AcDbText
 10
46.49994558798837
 20
9.111117286264914
 30
0.0
 40
1.0
  1
ERSETZT.DURCH:
 51
15.0
  7
ROMANS8
100
AcDbText
  0
TEXT
  5
27D
330
247
100
AcDbEntity
  8
08-99
100
AcDbText
 10
21.49936832790721
 20
9.110852190038713
 30
0.0
 40
1.0
  1
ERSETZT.FÜR:
 51
15.0
  7
ROMANS8
100
AcDbText
  0
TEXT
  5
27E
330
247
100
AcDbEntity
  8
08-99
100
AcDbText
 10
145.9909143543897
 20
12.61295485116625
 30
0.0
 40
2.112
  1
AUFTRAGS.NR.:
 51
15.0
  7
ROMANS8
100
AcDbText
  0
TEXT
  5
27F
330
247
100
AcDbEntity
  8
08-99
100
AcDbText
 10
116.5034717172479
 20
12.61092664313281
 30
0.0
 40
2.112
  1
Sonder-Nr:
 51
15.0
  7
ROMANS8
100
AcDbText
  0
TEXT
  5
280
330
247
100
AcDbEntity
  8
08-99
100
AcDbText
 10
99.69631500731376
 20
49.92370649414477
 30
0.0
 40
1.349999999999999
  1
Format
 51
15.0
  7
ROMANS8
100
AcDbText
  0
TEXT
  5
281
330
247
100
AcDbEntity
  8
08-99
100
AcDbText
 10
98.30438725900334
 20
44.6416167802032
 30
0.0
 40
1.822499999999999
  1
Normen
 51
15.0
  7
ROMANS8
100
AcDbText
  0
TEXT
  5
282
330
247
100
AcDbEntity
  8
08-99
100
AcDbText
 10
21.50003711613706
 20
33.05556582266059
 30
0.0
 40
1.6
  1
Zust.
 51
15.0
  7
ROMANS8
100
AcDbText
  0
TEXT
  5
283
330
247
100
AcDbEntity
  8
08-99
100
AcDbText
 10
49.50318821340468
 20
33.05555723859902
 30
0.0
 40
1.6
  1
Datum:
 51
15.0
  7
ROMANS8
100
AcDbText
  0
TEXT
  5
284
330
247
100
AcDbEntity
  8
08-99
100
AcDbText
 10
61.50322112916754
 20
33.05556204504791
 30
0.0
 40
1.6
  1
Name:
 51
15.0
  7
ROMANS8
100
AcDbText
  0
TEXT
  5
285
330
247
100
AcDbEntity
  8
08-99
100
AcDbText
 10
71.1545619578267
 20
28.03813755505132
 30
0.0
 40
1.6
  1
Erst.
 51
15.0
  7
ROMANS8
100
AcDbText
  0
TEXT
  5
286
330
247
100
AcDbEntity
  8
08-99
100
AcDbText
 10
70.51718787454618
 20
23.1974490465235
 30
0.0
 40
1.6
  1
Bearb.
 51
15.0
  7
ROMANS8
100
AcDbText
  0
TEXT
  5
287
330
247
100
AcDbEntity
  8
08-99
100
AcDbText
 10
149.4308124240035
 20
41.61949547980938
 30
0.0
 40
2.0
  1
Zuschnittsbreite:
 51
15.0
  7
ROMANS8
100
AcDbText
  0
TEXT
  5
288
330
247
100
AcDbEntity
  8
08-99
100
AcDbText
 10
115.9850022862677
 20
41.73762161521608
 30
0.0
 40
2.0
  1
Zuschnittslänge:
 51
15.0
  7
ROMANS8
100
AcDbText
  0
LWPOLYLINE
  5
289
330
247
100
AcDbEntity
  8
06-99
100
AcDbPolyline
 90
      133
 70
     1
 43
0.010692
 10
93.76754732423549
 20
18.87656283643588
 10
94.00905465623557
 20
19.08724513243589
 10
93.92285931623556
 20
19.22625538843579
 10
93.82427194823552
 20
19.35180441643592
 10
93.71363469623569
 20
19.46393854843592
 10
93.59130396023548
 20
19.56271124443577
 10
93.45762188423558
 20
19.64816170843585
 10
93.31293417623559
 20
19.72033627243581
 10
93.15759367223554
 20
19.77928839643584
 10
92.99194251623569
 20
19.82505728443584
 10
92.81632998023557
 20
19.85768926843593
 10
92.63110533623573
 20
19.87723780843589
 10
92.43661429223564
 20
19.88374210843585
 10
92.27568900023554
 20
19.87767974443585
 10
92.11994932823543
 20
19.85975638843581
 10
91.96972672823566
 20
19.83036051643597
 10
91.82535621623562
 20
19.78988773243583
 10
91.68716924423554
 20
19.73873364043595
 10
91.55549013623559
 20
19.67729028043584
 10
91.43066103623565
 20
19.60594969243584
 10
91.31300626823557
 20
19.52510391643579
 10
91.20285728423553
 20
19.43514499243588
 10
91.10055266423561
 20
19.33647208843587
 10
91.00641316823569
 20
19.22947011643589
 10
90.92077737623563
 20
19.11454180843589
 10
90.84397674023561
 20
18.99207207643587
 10
90.77633914823563
 20
18.86245652443591
 10
90.71819961623559
 20
18.72608719243584
 10
90.66988603223562
 20
18.58336324843583
 10
90.63172984823566
 20
18.43466960443584
 10
90.60406964423547
 20
18.28040542843581
 10
90.5872261802356
 20
18.12095919643588
 10
90.58154160023562
 20
17.95672651243586
 10
90.58715490023557
 20
17.78762184043592
 10
90.60380590823573
 20
17.62428728443586
 10
90.63119524823539
 20
17.46704004043585
 10
90.66902354423545
 20
17.31619374043578
 10
90.71699498423553
 20
17.17206201643586
 10
90.77481375623566
 20
17.03495850043589
 10
90.84218404823563
 20
16.90519326043585
 10
90.91880648423559
 20
16.78308349243582
 10
91.00438525223561
 20
16.66893926443583
 10
91.09862810423559
 20
16.56307777243586
 10
91.2012285362355
 20
16.46580908443587
 10
91.31190142823554
 20
16.37745039643579
 10
91.43034027623562
 20
16.29831177643592
 10
91.55625283223551
 20
16.2287068564359
 10
91.6893397202355
 20
16.16895283243582
 10
91.82930869223552
 20
16.11935977243587
 10
91.9758568082357
 20
16.08024130843591
 10
92.1286953842355
 20
16.05191107243593
 10
92.28751791623555
 20
16.03468269643588
 10
92.45203572023561
 20
16.02886981243591
 10
92.61603318023563
 20
16.03412314843587
 10
92.77336596023557
 20
16.0497619804359
 10
92.92384516823554
 20
16.07559385243587
 10
93.06728191223546
 20
16.11142630843591
 10
93.20349086423565
 20
16.15707045643586
 10
93.33227956823547
 20
16.21233740443585
 10
93.45346269623556
 20
16.27703469643586
 10
93.56684422823562
 20
16.35097700443589
 10
93.67224596423559
 20
16.43397187243585
 10
93.76946832023557
 20
16.52582328043587
 10
93.85832953223555
 20
16.62635302843586
 10
93.93864070823568
 20
16.73535796843583
 10
94.01020939223556
 20
16.85265990043587
 10
94.07284669223557
 20
16.97805924043587
 10
94.12636728023565
 20
17.11137066043579
 10
94.17058226423549
 20
17.25240170443584
 10
94.20529562423556
 20
17.40096348043585
 10
94.23032916023558
 20
17.55686709643589
 10
94.2454868522357
 20
17.71992366043582
 10
94.25057980823547
 20
17.88993715243583
 10
94.25057980823547
 20
17.88993715243583
 10
94.25057980823547
 20
17.94131934043588
 10
92.6164715522356
 20
17.94131934043588
 10
92.6164715522356
 20
17.65354772443584
 10
93.88573312823544
 20
17.65354772443584
 10
93.87499479623548
 20
17.49100437643585
 10
93.84766248023552
 20
17.33635885243586
 10
93.80444185223566
 20
17.19027405643589
 10
93.74603858423554
 20
17.05341645643585
 10
93.67316547623572
 20
16.92644182843588
 10
93.58653176423562
 20
16.81002376843588
 10
93.4868359922356
 20
16.70481448843588
 10
93.37479452423556
 20
16.61148758443585
 10
93.2511130322355
 20
16.53069526843586
 10
93.11649718823563
 20
16.46310757243589
 10
92.9716562282355
 20
16.40938383643583
 10
92.81729938823563
 20
16.37019052843595
 10
92.65413234023563
 20
16.34618698843581
 10
92.48286432023567
 20
16.3380396844359
 10
92.31820395623563
 20
16.34599096843584
 10
92.15990889623553
 20
16.3693743724358
 10
92.00857076423554
 20
16.40748066043585
 10
91.86477762023541
 20
16.45960416043584
 10
91.7291103962356
 20
16.52503563643586
 10
91.60216071623555
 20
16.60306585243592
 10
91.48451307623558
 20
16.69299270043586
 10
91.37675910023554
 20
16.79410338043595
 10
91.27948328423569
 20
16.90569222043587
 10
91.19327012423552
 20
17.02705354843584
 10
91.11871124423558
 20
17.15747456443586
 10
91.05639114023555
 20
17.29625316043587
 10
91.00689787223556
 20
17.44268010043583
 10
90.97081950023541
 20
17.5960425844359
 10
90.94874052023547
 20
17.75564206843597
 10
90.94125255623557
 20
17.92076575243578
 10
90.94763924423572
 20
18.08913980443589
 10
90.96654270023558
 20
18.25115211643583
 10
90.99756375623568
 20
18.40630372843583
 10
91.04030680823555
 20
18.55409924443586
 10
91.09437981623548
 20
18.69404326843585
 10
91.15938361223554
 20
18.82564396843588
 10
91.23492259223556
 20
18.9483988204359
 10
91.32060471623564
 20
19.06181955643586
 10
91.41603081623546
 20
19.16540365243594
 10
91.52081241623548
 20
19.25865927643582
 10
91.63454322023566
 20
19.34108746843589
 10
91.75683831623567
 20
19.41219639643589
 10
91.88729497223542
 20
19.47148710043586
 10
92.02552114823564
 20
19.51846418443586
 10
92.17112480423569
 20
19.55263225243584
 10
92.32370320823568
 20
19.57349947243585
 10
92.48286432023567
 20
19.58056332043588
 10
92.66056892423561
 20
19.57164619243588
 10
92.83032224423564
 20
19.54500885643586
 10
92.99178570023562
 20
19.50081882043588
 10
93.14462071223559
 20
19.43924359243584
 10
93.28848870023561
 20
19.36045780843585
 10
93.42305464823565
 20
19.26462541243592
 10
93.54797997623554
 20
19.15192104043586
 10
93.66292254023566
 20
19.02250863643593
  0
LWPOLYLINE
  5
28D
330
247
100
AcDbEntity
  8
06-99
100
AcDbPolyline
 90
       12
 70
     1
 43
0.010692
 10
90.43900298423549
 20
12.25281181243593
 10
92.32227048023563
 20
12.25281181243593
 10
92.46760683623554
 20
13.00767770443588
 10
91.56487771223558
 20
13.00767770443588
 10
91.62106060823546
 20
13.29950515243581
 10
92.41872301223557
 20
13.29950515243581
 10
92.55580870823544
 20
14.01156027643583
 10
91.75814630423545
 20
14.01156027643583
 10
91.80985281623547
 20
14.28005421643581
 10
92.68923417623549
 20
14.28005421643581
 10
92.83455984023559
 20
15.03490585243588
 10
90.97464010823561
 20
15.03490585243588
  0
LWPOLYLINE
  5
28E
330
247
100
AcDbEntity
  8
06-99
100
AcDbPolyline
 90
        4
 70
     1
 43
0.010692
 10
76.60861942823558
 20
12.88042508443584
 10
89.06586862823544
 20
12.88042508443584
 10
88.94229049223557
 20
12.25209544843585
 10
76.48504485623553
 20
12.25209544843585
  0
SOLID
  5
28F
330
247
100
AcDbEntity
  8
06-99
100
AcDbTrace
 10
76.60861942823558
 20
12.88042508443584
 30
0.0
 11
89.06586862823544
 21
12.88042508443584
 31
0.0
 12
76.48504485623553
 22
12.25209544843585
 32
0.0
 13
88.94229049223557
 23
12.25209544843585
 33
0.0
  0
LWPOLYLINE
  5
290
330
247
100
AcDbEntity
  8
06-99
100
AcDbPolyline
 90
       10
 70
     1
 43
0.010692
 10
82.3458504002356
 20
16.02886981243591
 10
83.32219038023552
 20
19.10266656043586
 10
84.33965535623546
 20
16.02886981243591
 10
85.56780619223562
 20
19.80153132043585
 10
85.22351666423551
 20
19.80153132043585
 10
84.33965535623546
 20
16.89302932843583
 10
83.32219038023552
 20
19.9454100004358
 10
82.3458504002356
 20
16.86733645243589
 10
81.42601764023565
 20
19.80153132043585
 10
81.07658882423564
 20
19.80153132043585
  0
LWPOLYLINE
  5
291
330
247
100
AcDbEntity
  8
06-99
100
AcDbPolyline
 90
        3
 70
     1
 43
0.010692
 10
87.32442338423565
 20
17.65868344843591
 10
87.97704168023555
 20
19.25683094443582
 10
88.6039706642355
 20
17.65868344843591
  0
LWPOLYLINE
  5
292
330
247
100
AcDbEntity
  8
06-99
100
AcDbPolyline
 90
        7
 70
     1
 43
0.010692
 10
86.38318880423563
 20
16.12735738843582
 10
86.72320153223555
 20
16.12735738843582
 10
87.21136974023549
 20
17.37092608843585
 10
88.71187076423566
 20
17.37092608843585
 10
89.17949964023549
 20
16.12735738843582
 10
89.54434632023552
 20
16.12735738843582
 10
87.99759883223558
 20
19.9454100004358
  0
LWPOLYLINE
  5
293
330
247
100
AcDbEntity
  8
06-99
100
AcDbPolyline
 90
        8
 70
     1
 43
0.010692
 10
98.92981243223543
 20
12.25281181243593
 10
100.0043869442354
 20
12.25281181243593
 10
100.1574144122356
 20
12.60301045243585
 10
100.9122803042355
 20
12.60301045243585
 10
100.9343521562355
 20
12.25281181243593
 10
102.0082815842354
 20
12.25281181243593
 10
101.5711569842355
 20
15.03490585243588
 10
100.4583193682355
 20
15.03490585243588
  0
LWPOLYLINE
  5
294
330
247
100
AcDbEntity
  8
06-99
100
AcDbPolyline
 90
       34
 70
     1
 43
0.010692
 10
96.0434642642356
 20
13.66137589243584
 10
96.07848769223544
 20
13.66137589243584
 10
96.0642316922356
 20
13.48699650043591
 10
96.06380757623552
 20
13.33509882043586
 10
96.06790617623554
 20
13.20222577243589
 10
96.09523849223561
 20
12.25281181243593
 10
96.9668360762354
 20
12.25281181243593
 10
98.31569602823542
 20
15.03490585243588
 10
97.31181345623557
 20
15.03490585243588
 10
96.85792023623552
 20
13.80922843243581
 10
96.80781752423563
 20
13.66872486043581
 10
96.74884758023544
 20
13.48671138043579
 10
96.69003445223545
 20
13.26059696443593
 10
96.66670094423549
 20
13.26059696443593
 10
96.6884270882355
 20
13.45803187243587
 10
96.69298544423558
 20
13.61569254043581
 10
96.69194475623548
 20
13.73531107243588
 10
96.67756045223544
 20
15.03490585243588
 10
95.97329266823548
 20
15.03490585243588
 10
95.45849068823557
 20
13.73531107243588
 10
95.41138886423542
 20
13.61569254043581
 10
95.35523448023562
 20
13.45803187243587
 10
95.30092981223551
 20
13.26059696443593
 10
95.27759630423545
 20
13.26059696443593
 10
95.30585169623558
 20
13.48671138043579
 10
95.31697137623556
 20
13.66872486043581
 10
95.32096662023551
 20
13.80922843243581
 10
95.33903966423546
 20
15.03490585243588
 10
94.33451200823553
 20
15.03490585243588
 10
94.61274279623561
 20
12.25281181243593
 10
95.48433681623547
 20
12.25281181243593
 10
95.87724643223557
 20
13.20222577243589
 10
95.93252050823551
 20
13.33509882043586
 10
95.99058519623557
 20
13.48699650043591
  0
LWPOLYLINE
  5
295
330
247
100
AcDbEntity
  8
06-99
100
AcDbPolyline
 90
       10
 70
     1
 43
0.010692
 10
100.4520752402354
 20
13.26448172443588
 10
100.5983667482354
 20
13.57965693643587
 10
100.6731180842355
 20
13.74409276843596
 10
100.7541598802355
 20
13.94570824843589
 10
100.8288363722355
 20
14.19056217643595
 10
100.8482958122355
 20
14.19056217643595
 10
100.8286724282354
 20
13.94570824843589
 10
100.8320796122355
 20
13.74409276843596
 10
100.8435129242355
 20
13.57965693643587
 10
100.8684181562356
 20
13.26448172443588
  0
LWPOLYLINE
  5
296
330
247
100
AcDbEntity
  8
06-99
100
AcDbPolyline
 90
       23
 70
     1
 43
0.010692
 10
103.5867130322356
 20
12.25281181243593
 10
104.5672478402354
 20
12.25281181243593
 10
104.7440436242355
 20
13.17110136043584
 10
105.0536340482356
 20
12.25281181243593
 10
106.1742447482354
 20
12.25281181243593
 10
105.6490750922355
 20
13.38511243243585
 10
105.8084357882355
 20
13.42380678043588
 10
105.9537079922354
 20
13.49881472443587
 10
106.0813562162355
 20
13.60690015243585
 10
106.1878378442354
 20
13.74481626043587
 10
106.2696066962354
 20
13.90931980843584
 10
106.3231201562354
 20
14.09716755643586
 10
106.3446075122355
 20
14.26808986843588
 10
106.3403093282354
 20
14.42329850443593
 10
106.3102362962355
 20
14.56225886443587
 10
106.2543991082354
 20
14.68443278443578
 10
106.1728155842354
 20
14.78928566443591
 10
106.0654999802355
 20
14.87627577643587
 10
105.9324594242355
 20
14.94487208443587
 10
105.7737153002354
 20
14.99453286043592
 10
105.5892711722355
 20
15.02472350443588
 10
105.3791519882354
 20
15.03490585243588
 10
104.1223501562355
 20
15.03490585243588
  0
LWPOLYLINE
  5
297
330
247
100
AcDbEntity
  8
06-99
100
AcDbPolyline
 90
        9
 70
     1
 43
0.010692
 10
104.9650401362355
 20
14.31896240443586
 10
105.1206907082355
 20
14.31896240443586
 10
105.2773605842356
 20
14.28538239643581
 10
105.3582277442354
 20
14.19040892443593
 10
105.3632244722355
 20
14.04269894443587
 10
105.3008722922355
 20
13.89699906043591
 10
105.1832994962355
 20
13.80577848043589
 10
105.0158200082354
 20
13.77421926043581
 10
104.8601694362355
 20
13.77421926043581
  0
LWPOLYLINE
  5
298
330
247
100
AcDbEntity
  8
06-99
100
AcDbPolyline
 90
       12
 70
     1
 43
0.010692
 10
100.5798090002356
 20
16.12735738843582
 10
102.3989066762356
 20
16.12735738843582
 10
102.3989066762356
 20
16.4408218804358
 10
100.9138270802356
 20
16.4408218804358
 10
100.9138270802356
 20
18.02353012843594
 10
102.3989066762356
 20
18.02353012843594
 10
102.3989066762356
 20
18.33699462043592
 10
100.9138270802356
 20
18.33699462043592
 10
100.9138270802356
 20
19.48806682843587
 10
102.3989066762356
 20
19.48806682843587
 10
102.3989066762356
 20
19.80153132043585
 10
100.5798090002356
 20
19.80153132043585
  0
LWPOLYLINE
  5
299
330
247
100
AcDbEntity
  8
06-99
100
AcDbPolyline
 90
        8
 70
     1
 43
0.010692
 10
95.85303261623565
 20
16.12735738843582
 10
96.18705426023556
 20
16.12735738843582
 10
96.18705426023556
 20
19.09753083643585
 10
98.76667389623552
 20
16.01858410843584
 10
98.76667389623552
 20
19.80153132043585
 10
98.4326665082356
 20
19.80153132043585
 10
98.4326665082356
 20
16.88274362443587
 10
95.85303261623565
 20
19.95568144843582
  0
LWPOLYLINE
  5
29A
330
247
100
AcDbEntity
  8
06-99
100
AcDbPolyline
 90
       19
 70
     1
 43
0.010692
 10
104.4484312082357
 20
19.5086239804358
 10
104.7824385962356
 20
19.5086239804358
 10
104.9866237202355
 20
19.50030560443588
 10
105.1604542562355
 20
19.47385716043584
 10
105.3049031762356
 20
19.42705471243579
 10
105.4209256322356
 20
19.35767076043584
 10
105.5094874682356
 20
19.26347780443581
 10
105.5715509642355
 20
19.14224834443593
 10
105.6080855282355
 20
18.9917477524358
 10
105.6200498762355
 20
18.80975922043586
 10
105.6074547002355
 20
18.63100680043584
 10
105.5693840522356
 20
18.48585933643585
 10
105.5054245082356
 20
18.37130168443593
 10
105.4151448242355
 20
18.28432582843589
 10
105.2981315762356
 20
18.22192018843589
 10
105.1539570842356
 20
18.18106962043583
 10
104.9821972322354
 20
18.15876967243594
 10
104.7824385962356
 20
18.15200520043589
 10
104.4484312082357
 20
18.15200520043589
  0
LWPOLYLINE
  5
29B
330
247
100
AcDbEntity
  8
06-99
100
AcDbPolyline
 90
       29
 70
     1
 43
0.010692
 10
106.3446075122355
 20
16.12735738843582
 10
105.0239637482355
 20
17.87965144843588
 10
105.2123817362357
 20
17.89225018843592
 10
105.3829084442356
 20
17.92941914443582
 10
105.5344069562356
 20
17.99022811243594
 10
105.6657296642355
 20
18.07375401643588
 10
105.7757360882356
 20
18.17905596043584
 10
105.8632821842355
 20
18.30521443243589
 10
105.9272310362355
 20
18.45129210043592
 10
105.9664386002355
 20
18.6163587604359
 10
105.9797608322353
 20
18.79948777243589
 10
105.9699455762357
 20
18.97455145243589
 10
105.9404891162357
 20
19.13261485243589
 10
105.8913629402356
 20
19.27374568843589
 10
105.8225492282356
 20
19.39801167643577
 10
105.7340230322356
 20
19.50548409643591
 10
105.6257594042356
 20
19.59623422843589
 10
105.4977369602356
 20
19.67032622443582
 10
105.3499307522354
 20
19.72783136443587
 10
105.1823193962355
 20
19.76882449243589
 10
104.9948815082355
 20
19.79336619643589
 10
104.7875885762355
 20
19.80153132043585
 10
104.7875885762355
 20
19.80153132043585
 10
104.1144131282356
 20
19.80153132043585
 10
104.1144131282356
 20
16.12735738843582
 10
104.4484312082357
 20
16.12735738843582
 10
104.4484312082357
 20
17.87965144843588
 10
104.6488456202355
 20
17.87965144843588
 10
105.9386465282355
 20
16.12735738843582
  0
TEXT
  5
29C
330
247
100
AcDbEntity
  8
06-99
100
AcDbText
 10
85.6083656112951
 20
9.63320697282171
 30
0.0
 40
1.4256
  1
GmbH & Co KG
 41
1.199203187251
 51
15.0
  7
ROMAND8
 72
     5
 11
106.0419656112951
 21
9.63320697282171
 31
0.0
100
AcDbText
  0
TEXT
  5
29E
330
247
100
AcDbEntity
  8
06-99
100
AcDbText
 10
85.70982236587898
 20
7.391013700398161
 30
0.0
 40
1.4256
  1
72774 Reutlingen
 50
0.5663244663116128
 41
1.087840993687879
 51
15.0
  7
ROMAND8
 72
     5
 11
105.943422365879
 21
7.59101370039815
 31
0.0
100
AcDbText
  0
TEXT
  5
29F
330
247
100
AcDbEntity
  8
08-99
100
AcDbText
 10
73.414125712073
 20
48.45008961754581
 30
0.0
 40
2.25
  1
Zul. Abw.
 51
15.0
  7
ROMANS8
100
AcDbText
  0
TEXT
  5
2A0
330
247
100
AcDbEntity
  8
08-99
100
AcDbText
 10
123.2099338325191
 20
49.28616214647601
 30
0.0
 40
2.0
  1
Mat. Art.
 51
15.0
  7
ROMANS8
100
AcDbText
  0
TEXT
  5
2A1
330
247
100
AcDbEntity
  8
08-99
100
AcDbText
 10
155.4865384826082
 20
49.4043113704472
 30
0.0
 40
2.0
  1
Oberfläche:
 51
15.0
  7
ROMANS8
100
AcDbText
  0
TEXT
  5
2A2
330
247
100
AcDbEntity
  8
08-99
100
AcDbText
 10
184.762545350816
 20
41.73764470378046
 30
0.0
 40
2.0
  1
Blech Dicke:
 51
15.0
  7
ROMANS8
100
AcDbText
  0
TEXT
  5
2A3
330
247
100
AcDbEntity
  8
08-99
100
AcDbText
 10
187.4380355407932
 20
49.28616214647604
 30
0.0
 40
2.0
  1
Maßstab:
 51
15.0
  7
ROMANS8
100
AcDbText
  0
LINE
  5
2A4
330
247
100
AcDbEntity
  8
01-99
100
AcDbLine
 10
115.0000075122355
 20
46.8888868761025
 30
0.0
 11
92.0000075122355
 21
46.8888868761025
 31
0.0
  0
LINE
  5
2A5
330
247
100
AcDbEntity
  8
01-99
100
AcDbLine
 10
115.0000075122355
 20
44.33333132043578
 30
0.0
 11
92.0000075122355
 21
44.33333132043578
 31
0.0
  0
LINE
  5
2A6
330
247
100
AcDbEntity
  8
01-99
100
AcDbLine
 10
115.0000075122355
 20
40.49999798710246
 30
0.0
 11
92.00000751223544
 21
40.49999798710246
 31
0.0
  0
ATTDEF
  5
2A7
330
247
100
AcDbEntity
  8
06-99
100
AcDbText
 10
116.4954542514127
 20
26.18783668438471
 30
0.0
 40
4.0
  1

 41
0.9
  7
ROMANS8
100
AcDbAttributeDefinition
280
     0
  3
Benennung/Teil
  2
TEILE
 70
     0
280
     0
  0
ATTDEF
  5
2A8
330
247
100
AcDbEntity
  8
06-99
100
AcDbText
 10
116.4954542514127
 20
19.29547648609889
 30
0.0
 40
4.0
  1

 41
0.9
  7
ROMANS8
100
AcDbAttributeDefinition
280
     0
  3
Benennung/Teil2
  2
TEILE2
 70
     0
280
     0
  0
ATTDEF
  5
2A9
330
247
100
AcDbEntity
  8
06-99
100
AcDbText
 10
191.3473937239501
 20
45.33333132043583
 30
0.0
 40
3.375
  1

  7
ROMANS8
100
AcDbAttributeDefinition
280
     0
  3
Maßstab
  2
:
 70
     0
280
     0
  0
ATTDEF
  5
2AA
330
247
100
AcDbEntity
  8
06-99
100
AcDbText
 10
92.99707531160292
 20
27.44168345513378
 30
0.0
 40
2.5
  1

 41
0.9
  7
ROMANS8
100
AcDbAttributeDefinition
280
     0
  3
Name
  2
NAME
 70
     0
280
     0
  0
ATTDEF
  5
2AB
330
247
100
AcDbEntity
  8
06-99
100
AcDbText
 10
79.49315396412956
 20
27.46123316121373
 30
0.0
 40
2.5
  1

 50
359.9144597696142
 41
0.9542572414211148
  7
ROMANS8
 72
     5
 11
90.73974463267431
 21
27.44444245376917
 31
0.0
100
AcDbAttributeDefinition
280
     0
  3
Datum
  2
DATUM
 70
     0
280
     0
  0
ATTDEF
  5
2AC
330
247
100
AcDbEntity
  8
06-99
100
AcDbText
 10
178.5063514793938
 20
7.4928977873912
 30
0.0
 40
2.99376
  1

  7
ROMANS8
100
AcDbAttributeDefinition
280
     0
  3
Ident-Nummer
  2
ID.NR
 70
     0
280
     0
  0
ATTDEF
  5
2AD
330
247
100
AcDbEntity
  8
06-99
100
AcDbText
 10
116.731273767946
 20
37.66666463154695
 30
0.0
 40
3.0
  1

 41
0.9
  7
ROMANS8
100
AcDbAttributeDefinition
280
     0
  3
Zuschnitts.Länge
  2
LÄNGE
 70
     0
280
     0
  0
ATTDEF
  5
2AE
330
247
100
AcDbEntity
  8
06-99
100
AcDbText
 10
150.1808124240052
 20
37.67810185754732
 30
0.0
 40
3.0
  1

 41
0.9
  7
ROMANS8
100
AcDbAttributeDefinition
280
     0
  3
Zuschnitts Breite
  2
BREITE
 70
     0
280
     0
  0
ATTDEF
  5
2AF
330
247
100
AcDbEntity
  8
06-99
100
AcDbText
 10
190.6090996389673
 20
37.66666465376926
 30
0.0
 40
3.09375
  1

  7
ROMANS8
100
AcDbAttributeDefinition
280
     0
  3
Blech.Dicke
  2
1.0
 70
     0
280
     0
  0
ATTDEF
  5
2B0
330
247
100
AcDbEntity
  8
06-99
100
AcDbText
 10
164.1277931136382
 20
45.33333132043594
 30
0.0
 40
3.0
  1

  7
ROMANS8
 72
     1
 11
164.1277931136382
 21
45.33333132043594
 31
0.0
100
AcDbAttributeDefinition
280
     0
  3
Oberfläche
  2
IV
 70
     0
280
     0
  0
ATTDEF
  5
2B1
330
247
100
AcDbEntity
  8
06-99
100
AcDbText
 10
123.2747480483513
 20
45.3333313204358
 30
0.0
 40
3.375
  1
1.4301
  7
ROMANS8
100
AcDbAttributeDefinition
280
     0
  3
Mat.Art
  2
1.4301
 70
     0
280
     0
  0
ATTDEF
  5
2B2
330
247
100
AcDbEntity
  8
06-99
100
AcDbText
 10
146.0006413991156
 20
7.504394591457128
 30
0.0
 40
3.168
  1

 41
0.9
  7
ROMANS8
100
AcDbAttributeDefinition
280
     0
  3
Auftrags Nr.
  2
AUFTRAGS.NR.
 70
     0
280
     0
  0
ATTDEF
  5
2B3
330
247
100
AcDbEntity
  8
06-99
100
AcDbText
 10
116.5000075122355
 20
7.499997987102517
 30
0.0
 40
3.168
  1

 41
0.9
  7
ROMANS8
100
AcDbAttributeDefinition
280
     0
  3
Sonder-NR,WPS
  2
SONDER-NR
 70
     0
280
     0
  0
ATTDEF
  5
2B4
330
247
100
AcDbEntity
  8
06-99
100
AcDbText
 10
46.4997585072438
 20
6.601808056362358
 30
0.0
 40
1.5
  1

 41
0.9
  7
ROMANS8
100
AcDbAttributeDefinition
280
     0
  3
ERSETZT.Durch
  2
ERSETZT.DURCH
 70
     0
280
     0
  0
ATTDEF
  5
2B5
330
247
100
AcDbEntity
  8
06-99
100
AcDbText
 10
21.49947529243403
 20
6.597454384974923
 30
0.0
 40
1.5
  1

 41
0.9
  7
ROMANS8
100
AcDbAttributeDefinition
280
     0
  3
ERSETZT.Für
  2
ERSETZT.FÜR
 70
     0
280
     0
  0
ATTDEF
  5
2B6
330
247
100
AcDbEntity
  8
06-99
100
AcDbText
 10
99.97308015867309
 20
47.66850912711049
 30
0.0
 40
1.287
  1
DIN A4
  7
ROMANS8
 72
     1
 11
103.2518658729588
 21
47.66850912711049
 31
0.0
100
AcDbAttributeDefinition
280
     0
  3
Format
  2
FORMAT
 70
     0
280
     0
  0
ATTDEF
  5
2B7
330
247
100
AcDbEntity
  8
06-99
100
AcDbText
 10
95.9874465096418
 20
37.19696532096725
 30
0.0
 40
2.34
  1
DIN 2768
  7
ROMANS8
 72
     1
 11
104.0103036524989
 21
37.19696532096725
 31
0.0
100
AcDbAttributeDefinition
280
     0
  3
Norm / Kanten
  2
NORM2
 70
     0
280
     0
  0
ATTDEF
  5
2B8
330
247
100
AcDbEntity
  8
06-99
100
AcDbText
 10
92.81173222392748
 20
41.03029865430056
 30
0.0
 40
2.34
  1
DIN 6930-M
  7
ROMANS8
 72
     1
 11
103.5088750810703
 21
41.03029865430056
 31
0.0
100
AcDbAttributeDefinition
280
     0
  3
Norm / Fräsen
  2
NORM1
 70
     0
280
     0
  0
ENDBLK
  5
2B9
330
247
100
AcDbEntity
  8
0
100
AcDbBlockEnd
  0
BLOCK
  5
139
330
138
100
AcDbEntity
  8
0
100
AcDbBlockBegin
  2
*D1
 70
     1
 10
0.0
 20
0.0
 30
0.0
  3
*D1
  1

  0
LINE
  5
13A
330
138
100
AcDbEntity
  8
0
 62
     4
440
 16777216
370
    -2
100
AcDbLine
 10
163.5846337736154
 20
335.9549099702718
 30
0.0
 11
163.5846337736154
 21
347.1860773094083
 31
0.0
  0
LINE
  5
13B
330
138
100
AcDbEntity
  8
0
 62
     4
440
 16777216
370
    -2
100
AcDbLine
 10
232.5846337736154
 20
335.9549099702718
 30
0.0
 11
232.5846337736154
 21
347.1860773094083
 31
0.0
  0
LINE
  5
13C
330
138
100
AcDbEntity
  8
0
 62
     4
440
 16777216
370
    -2
100
AcDbLine
 10
168.5846337736154
 20
345.1860773094083
 30
0.0
 11
227.5846337736154
 21
345.1860773094083
 31
0.0
  0
SOLID
  5
13D
330
138
100
AcDbEntity
  8
0
 62
     4
440
 16777216
100
AcDbTrace
 10
168.5846337736154
 20
346.0194106427417
 30
0.0
 11
168.5846337736154
 21
344.352743976075
 31
0.0
 12
163.5846337736154
 22
345.1860773094083
 32
0.0
 13
163.5846337736154
 23
345.1860773094083
 33
0.0
  0
SOLID
  5
13E
330
138
100
AcDbEntity
  8
0
 62
     4
440
 16777216
100
AcDbTrace
 10
227.5846337736154
 20
346.0194106427417
 30
0.0
 11
227.5846337736154
 21
344.352743976075
 31
0.0
 12
232.5846337736154
 22
345.1860773094083
 32
0.0
 13
232.5846337736154
 23
345.1860773094083
 33
0.0
  0
MTEXT
  5
13F
330
138
100
AcDbEntity
  8
0
 62
     1
440
 16777216
100
AcDbMText
 10
198.0846337736154
 20
349.6860773094084
 30
0.0
 40
5.0
 41
0.0
 46
0.0
 71
     5
 72
     1
  1
69
 73
     1
 44
1.0
  0
POINT
  5
140
330
138
100
AcDbEntity
  8
Defpoints
 62
     0
440
 16777216
100
AcDbPoint
 10
163.5846337736154
 20
333.9549099702718
 30
0.0
  0
POINT
  5
141
330
138
100
AcDbEntity
  8
Defpoints
 62
     0
440
 16777216
100
AcDbPoint
 10
232.5846337736154
 20
333.9549099702718
 30
0.0
  0
POINT
  5
142
330
138
100
AcDbEntity
  8
Defpoints
 62
     0
440
 16777216
100
AcDbPoint
 10
232.5846337736154
 20
345.1860773094083
 30
0.0
  0
ENDBLK
  5
143
330
138
100
AcDbEntity
  8
0
100
AcDbBlockEnd
  0
BLOCK
  5
12C
330
12B
100
AcDbEntity
  8
0
100
AcDbBlockBegin
  2
*D2
 70
     1
 10
0.0
 20
0.0
 30
0.0
  3
*D2
  1

  0
LINE
  5
12D
330
12B
100
AcDbEntity
  8
0
 62
     4
440
 16777216
370
    -2
100
AcDbLine
 10
161.5846337736154
 20
333.9549099702718
 30
0.0
 11
150.6534993551007
 21
333.9549099702718
 31
0.0
  0
LINE
  5
12E
330
12B
100
AcDbEntity
  8
0
 62
     4
440
 16777216
370
    -2
100
AcDbLine
 10
161.5846337736155
 20
309.4549099702718
 30
0.0
 11
150.6534993551006
 21
309.4549099702718
 31
0.0
  0
LINE
  5
12F
330
12B
100
AcDbEntity
  8
0
 62
     4
440
 16777216
370
    -2
100
AcDbLine
 10
152.6534993551007
 20
328.9549099702719
 30
0.0
 11
152.6534993551006
 21
314.4549099702719
 31
0.0
  0
SOLID
  5
130
330
12B
100
AcDbEntity
  8
0
 62
     4
440
 16777216
100
AcDbTrace
 10
151.8201660217673
 20
328.9549099702719
 30
0.0
 11
153.486832688434
 21
328.9549099702719
 31
0.0
 12
152.6534993551007
 22
333.9549099702718
 32
0.0
 13
152.6534993551007
 23
333.9549099702718
 33
0.0
  0
SOLID
  5
131
330
12B
100
AcDbEntity
  8
0
 62
     4
440
 16777216
100
AcDbTrace
 10
151.8201660217673
 20
314.4549099702719
 30
0.0
 11
153.486832688434
 21
314.4549099702719
 31
0.0
 12
152.6534993551006
 22
309.4549099702718
 32
0.0
 13
152.6534993551006
 23
309.4549099702718
 33
0.0
  0
MTEXT
  5
132
330
12B
100
AcDbEntity
  8
0
 62
     1
440
 16777216
100
AcDbMText
 10
148.1534993551006
 20
321.7049099702719
 30
0.0
 40
5.0
 41
0.0
 46
0.0
 71
     5
 72
     1
  1
24.5
 11
0.0000000000000001
 21
1.0
 31
0.0
 73
     1
 44
1.0
  0
POINT
  5
133
330
12B
100
AcDbEntity
  8
Defpoints
 62
     0
440
 16777216
100
AcDbPoint
 10
163.5846337736154
 20
333.9549099702718
 30
0.0
  0
POINT
  5
134
330
12B
100
AcDbEntity
  8
Defpoints
 62
     0
440
 16777216
100
AcDbPoint
 10
163.5846337736155
 20
309.4549099702718
 30
0.0
  0
POINT
  5
135
330
12B
100
AcDbEntity
  8
Defpoints
 62
     0
440
 16777216
100
AcDbPoint
 10
152.6534993551006
 20
309.4549099702718
 30
0.0
  0
ENDBLK
  5
136
330
12B
100
AcDbEntity
  8
0
100
AcDbBlockEnd
  0
BLOCK
  5
11F
330
11E
100
AcDbEntity
  8
0
100
AcDbBlockBegin
  2
*D3
 70
     1
 10
0.0
 20
0.0
 30
0.0
  3
*D3
  1

  0
LINE
  5
120
330
11E
100
AcDbEntity
  8
0
 62
     4
440
 16777216
370
    -2
100
AcDbLine
 10
297.4022983606346
 20
431.7721713225439
 30
0.0
 11
297.4022983606346
 21
368.478029947895
 31
0.0
  0
LINE
  5
121
330
11E
100
AcDbEntity
  8
0
 62
     4
440
 16777216
370
    -2
100
AcDbLine
 10
423.8022983960215
 20
432.3721713081387
 30
0.0
 11
423.8022983960215
 21
368.478029947895
 31
0.0
  0
LINE
  5
122
330
11E
100
AcDbEntity
  8
0
 62
     4
440
 16777216
370
    -2
100
AcDbLine
 10
302.4022983606347
 20
370.478029947895
 30
0.0
 11
418.8022983960215
 21
370.478029947895
 31
0.0
  0
SOLID
  5
123
330
11E
100
AcDbEntity
  8
0
 62
     4
440
 16777216
100
AcDbTrace
 10
302.4022983606347
 20
371.3113632812284
 30
0.0
 11
302.4022983606347
 21
369.6446966145617
 31
0.0
 12
297.4022983606346
 22
370.478029947895
 32
0.0
 13
297.4022983606346
 23
370.478029947895
 33
0.0
  0
SOLID
  5
124
330
11E
100
AcDbEntity
  8
0
 62
     4
440
 16777216
100
AcDbTrace
 10
418.8022983960215
 20
371.3113632812284
 30
0.0
 11
418.8022983960215
 21
369.6446966145617
 31
0.0
 12
423.8022983960215
 22
370.478029947895
 32
0.0
 13
423.8022983960215
 23
370.478029947895
 33
0.0
  0
MTEXT
  5
125
330
11E
100
AcDbEntity
  8
0
 62
     1
440
 16777216
100
AcDbMText
 10
360.6022983783281
 20
374.978029947895
 30
0.0
 40
5.0
 41
0.0
 46
0.0
 71
     5
 72
     1
  1
126.4
 73
     1
 44
1.0
  0
POINT
  5
126
330
11E
100
AcDbEntity
  8
Defpoints
 62
     0
440
 16777216
100
AcDbPoint
 10
297.4022983606346
 20
433.7721713225439
 30
0.0
  0
POINT
  5
127
330
11E
100
AcDbEntity
  8
Defpoints
 62
     0
440
 16777216
100
AcDbPoint
 10
423.8022983960215
 20
434.3721713081387
 30
0.0
  0
POINT
  5
128
330
11E
100
AcDbEntity
  8
Defpoints
 62
     0
440
 16777216
100
AcDbPoint
 10
423.8022983960215
 20
370.478029947895
 30
0.0
  0
ENDBLK
  5
129
330
11E
100
AcDbEntity
  8
0
100
AcDbBlockEnd
  0
BLOCK
  5
112
330
111
100
AcDbEntity
  8
0
100
AcDbBlockBegin
  2
*D4
 70
     1
 10
0.0
 20
0.0
 30
0.0
  3
*D4
  1

  0
LINE
  5
113
330
111
100
AcDbEntity
  8
0
 62
     4
440
 16777216
370
    -2
100
AcDbLine
 10
295.4022983606346
 20
433.7721713225439
 30
0.0
 11
277.8023271754985
 21
433.7721713225439
 31
0.0
  0
LINE
  5
114
330
111
100
AcDbEntity
  8
0
 62
     4
440
 16777216
370
    -2
100
AcDbLine
 10
295.4022983606346
 20
622.2721713225437
 30
0.0
 11
277.8023271754985
 21
622.2721713225437
 31
0.0
  0
LINE
  5
115
330
111
100
AcDbEntity
  8
0
 62
     4
440
 16777216
370
    -2
100
AcDbLine
 10
279.8023271754985
 20
438.7721713225439
 30
0.0
 11
279.8023271754985
 21
617.2721713225437
 31
0.0
  0
MTEXT
  5
116
330
111
100
AcDbEntity
  8
0
 62
     1
440
 16777216
100
AcDbMText
 10
275.302327174677
 20
528.0221711558125
 30
0.0
 40
5.0
 41
0.0
 46
0.0
 71
     5
 72
     1
  1
188.5
 11
0.0000000000000001
 21
1.0
 31
0.0
 73
     1
 44
1.0
  0
SOLID
  5
117
330
111
100
AcDbEntity
  8
0
 62
     4
440
 16777216
100
AcDbTrace
 10
278.9689938421652
 20
438.7721713225439
 30
0.0
 11
280.6356605088318
 21
438.7721713225439
 31
0.0
 12
279.8023271754985
 22
433.7721713225439
 32
0.0
 13
279.8023271754985
 23
433.7721713225439
 33
0.0
  0
SOLID
  5
118
330
111
100
AcDbEntity
  8
0
 62
     4
440
 16777216
100
AcDbTrace
 10
278.9689938421652
 20
617.2721713225437
 30
0.0
 11
280.6356605088318
 21
617.2721713225437
 31
0.0
 12
279.8023271754985
 22
622.2721713225437
 32
0.0
 13
279.8023271754985
 23
622.2721713225437
 33
0.0
  0
POINT
  5
119
330
111
100
AcDbEntity
  8
Defpoints
 62
     0
440
 16777216
100
AcDbPoint
 10
297.4022983606346
 20
433.7721713225439
 30
0.0
  0
POINT
  5
11A
330
111
100
AcDbEntity
  8
Defpoints
 62
     0
440
 16777216
100
AcDbPoint
 10
297.4022983606346
 20
622.2721713225437
 30
0.0
  0
POINT
  5
11B
330
111
100
AcDbEntity
  8
Defpoints
 62
     0
440
 16777216
100
AcDbPoint
 10
279.8023271754985
 20
622.2721713225437
 30
0.0
  0
ENDBLK
  5
11C
330
111
100
AcDbEntity
  8
0
100
AcDbBlockEnd
  0
BLOCK
  5
105
330
104
100
AcDbEntity
  8
0
100
AcDbBlockBegin
  2
*D5
 70
     1
 10
0.0
 20
0.0
 30
0.0
  3
*D5
  1

  0
LINE
  5
106
330
104
100
AcDbEntity
  8
0
 62
     4
440
 16777216
370
    -2
100
AcDbLine
 10
295.4022983606346
 20
433.7721713225439
 30
0.0
 11
265.9460319416915
 21
433.7721713225439
 31
0.0
  0
LINE
  5
107
330
104
100
AcDbEntity
  8
0
 62
     4
440
 16777216
370
    -2
100
AcDbLine
 10
337.5522983960216
 20
682.9721713081387
 30
0.0
 11
265.9460319416916
 21
682.9721713081387
 31
0.0
  0
LINE
  5
108
330
104
100
AcDbEntity
  8
0
 62
     4
440
 16777216
370
    -2
100
AcDbLine
 10
267.9460319416915
 20
438.7721713225439
 30
0.0
 11
267.9460319416916
 21
677.9721713081387
 31
0.0
  0
MTEXT
  5
109
330
104
100
AcDbEntity
  8
0
 62
     1
440
 16777216
100
AcDbMText
 10
263.4460319416914
 20
559.4570191909365
 30
0.0
 40
5.0
 41
0.0
 46
0.0
 71
     5
 72
     1
  1
249.2
 11
0.0000000000000001
 21
1.0
 31
0.0
 73
     1
 44
1.0
  0
SOLID
  5
10A
330
104
100
AcDbEntity
  8
0
 62
     4
440
 16777216
100
AcDbTrace
 10
267.1126986083582
 20
438.7721713225439
 30
0.0
 11
268.7793652750248
 21
438.7721713225439
 31
0.0
 12
267.9460319416915
 22
433.7721713225439
 32
0.0
 13
267.9460319416915
 23
433.7721713225439
 33
0.0
  0
SOLID
  5
10B
330
104
100
AcDbEntity
  8
0
 62
     4
440
 16777216
100
AcDbTrace
 10
267.1126986083582
 20
677.9721713081387
 30
0.0
 11
268.7793652750249
 21
677.9721713081387
 31
0.0
 12
267.9460319416916
 22
682.9721713081387
 32
0.0
 13
267.9460319416916
 23
682.9721713081387
 33
0.0
  0
POINT
  5
10C
330
104
100
AcDbEntity
  8
Defpoints
 62
     0
440
 16777216
100
AcDbPoint
 10
297.4022983606346
 20
433.7721713225439
 30
0.0
  0
POINT
  5
10D
330
104
100
AcDbEntity
  8
Defpoints
 62
     0
440
 16777216
100
AcDbPoint
 10
339.5522983960216
 20
682.9721713081387
 30
0.0
  0
POINT
  5
10E
330
104
100
AcDbEntity
  8
Defpoints
 62
     0
440
 16777216
100
AcDbPoint
 10
267.9460319416916
 20
682.9721713081387
 30
0.0
  0
ENDBLK
  5
10F
330
104
100
AcDbEntity
  8
0
100
AcDbBlockEnd
  0
BLOCK
  5
F8
330
F7
100
AcDbEntity
  8
0
100
AcDbBlockBegin
  2
*D6
 70
     1
 10
0.0
 20
0.0
 30
0.0
  3
*D6
  1

  0
LINE
  5
F9
330
F7
100
AcDbEntity
  8
0
 62
     4
440
 16777216
370
    -2
100
AcDbLine
 10
295.4022983606346
 20
433.7721713225439
 30
0.0
 11
277.8023271754985
 21
433.7721713225439
 31
0.0
  0
LINE
  5
FA
330
F7
100
AcDbEntity
  8
0
 62
     4
440
 16777216
370
    -2
100
AcDbLine
 10
345.0724307292755
 20
392.4823499265772
 30
0.0
 11
277.8023271754985
 21
392.4823499265772
 31
0.0
  0
LINE
  5
FB
330
F7
100
AcDbEntity
  8
0
 62
     4
440
 16777216
370
    -2
100
AcDbLine
 10
279.8023271754985
 20
428.7721713225439
 30
0.0
 11
279.8023271754985
 21
397.4823499265772
 31
0.0
  0
SOLID
  5
FC
330
F7
100
AcDbEntity
  8
0
 62
     4
440
 16777216
100
AcDbTrace
 10
278.9689938421652
 20
428.7721713225439
 30
0.0
 11
280.6356605088318
 21
428.7721713225439
 31
0.0
 12
279.8023271754985
 22
433.7721713225439
 32
0.0
 13
279.8023271754985
 23
433.7721713225439
 33
0.0
  0
SOLID
  5
FD
330
F7
100
AcDbEntity
  8
0
 62
     4
440
 16777216
100
AcDbTrace
 10
278.9689938421652
 20
397.4823499265772
 30
0.0
 11
280.6356605088318
 21
397.4823499265772
 31
0.0
 12
279.8023271754985
 22
392.4823499265772
 32
0.0
 13
279.8023271754985
 23
392.4823499265772
 33
0.0
  0
MTEXT
  5
FE
330
F7
100
AcDbEntity
  8
0
 62
     1
440
 16777216
100
AcDbMText
 10
275.3023271754984
 20
413.1272606245606
 30
0.0
 40
5.0
 41
0.0
 46
0.0
 71
     5
 72
     1
  1
41.3
 11
0.0000000000000001
 21
1.0
 31
0.0
 73
     1
 44
1.0
  0
POINT
  5
FF
330
F7
100
AcDbEntity
  8
Defpoints
 62
     0
440
 16777216
100
AcDbPoint
 10
297.4022983606346
 20
433.7721713225439
 30
0.0
  0
POINT
  5
100
330
F7
100
AcDbEntity
  8
Defpoints
 62
     0
440
 16777216
100
AcDbPoint
 10
347.0724307292755
 20
392.4823499265772
 30
0.0
  0
POINT
  5
101
330
F7
100
AcDbEntity
  8
Defpoints
 62
     0
440
 16777216
100
AcDbPoint
 10
279.8023271754985
 20
392.4823499265772
 30
0.0
  0
ENDBLK
  5
102
330
F7
100
AcDbEntity
  8
0
100
AcDbBlockEnd
  0
BLOCK
  5
EB
330
EA
100
AcDbEntity
  8
0
100
AcDbBlockBegin
  2
*D7
 70
     1
 10
0.0
 20
0.0
 30
0.0
  3
*D7
  1

  0
LINE
  5
EC
330
EA
100
AcDbEntity
  8
0
 62
     4
440
 16777216
370
    -2
100
AcDbLine
 10
297.4022983606346
 20
431.7721713225439
 30
0.0
 11
297.4022983606346
 21
397.1805523094497
 31
0.0
  0
LINE
  5
ED
330
EA
100
AcDbEntity
  8
0
 62
     4
440
 16777216
370
    -2
100
AcDbLine
 10
331.9022983960176
 20
430.7721713076325
 30
0.0
 11
331.9022983960176
 21
397.1805523094497
 31
0.0
  0
LINE
  5
EE
330
EA
100
AcDbEntity
  8
0
 62
     4
440
 16777216
370
    -2
100
AcDbLine
 10
302.4022983606347
 20
399.1805523094497
 30
0.0
 11
326.9022983960176
 21
399.1805523094497
 31
0.0
  0
SOLID
  5
EF
330
EA
100
AcDbEntity
  8
0
 62
     4
440
 16777216
100
AcDbTrace
 10
302.4022983606347
 20
400.0138856427829
 30
0.0
 11
302.4022983606347
 21
398.3472189761164
 31
0.0
 12
297.4022983606346
 22
399.1805523094497
 32
0.0
 13
297.4022983606346
 23
399.1805523094497
 33
0.0
  0
SOLID
  5
F0
330
EA
100
AcDbEntity
  8
0
 62
     4
440
 16777216
100
AcDbTrace
 10
326.9022983960176
 20
400.0138856427829
 30
0.0
 11
326.9022983960176
 21
398.3472189761164
 31
0.0
 12
331.9022983960176
 22
399.1805523094497
 32
0.0
 13
331.9022983960176
 23
399.1805523094497
 33
0.0
  0
MTEXT
  5
F1
330
EA
100
AcDbEntity
  8
0
 62
     1
440
 16777216
100
AcDbMText
 10
314.6522983783261
 20
403.6805523094496
 30
0.0
 40
5.0
 41
0.0
 46
0.0
 71
     5
 72
     1
  1
34.5
 73
     1
 44
1.0
  0
POINT
  5
F2
330
EA
100
AcDbEntity
  8
Defpoints
 62
     0
440
 16777216
100
AcDbPoint
 10
297.4022983606346
 20
433.7721713225439
 30
0.0
  0
POINT
  5
F3
330
EA
100
AcDbEntity
  8
Defpoints
 62
     0
440
 16777216
100
AcDbPoint
 10
331.9022983960176
 20
432.7721713076325
 30
0.0
  0
POINT
  5
F4
330
EA
100
AcDbEntity
  8
Defpoints
 62
     0
440
 16777216
100
AcDbPoint
 10
331.9022983960176
 20
399.1805523094497
 30
0.0
  0
ENDBLK
  5
F5
330
EA
100
AcDbEntity
  8
0
100
AcDbBlockEnd
  0
BLOCK
  5
DE
330
DD
100
AcDbEntity
  8
0
100
AcDbBlockBegin
  2
*D8
 70
     1
 10
0.0
 20
0.0
 30
0.0
  3
*D8
  1

  0
LINE
  5
DF
330
DD
100
AcDbEntity
  8
0
 62
     4
440
 16777216
370
    -2
100
AcDbLine
 10
162.1846337736112
 20
432.7721712835454
 30
0.0
 11
147.8285469367158
 21
432.7721712835454
 31
0.0
  0
LINE
  5
E0
330
DD
100
AcDbEntity
  8
0
 62
     4
440
 16777216
370
    -2
100
AcDbLine
 10
176.5846337739353
 20
506.7721712800859
 30
0.0
 11
147.8285469367158
 21
506.7721712800859
 31
0.0
  0
LINE
  5
E1
330
DD
100
AcDbEntity
  8
0
 62
     4
440
 16777216
370
    -2
100
AcDbLine
 10
149.8285469367158
 20
437.7721712835453
 30
0.0
 11
149.8285469367159
 21
501.7721712800859
 31
0.0
  0
SOLID
  5
E2
330
DD
100
AcDbEntity
  8
0
 62
     4
440
 16777216
100
AcDbTrace
 10
148.9952136033825
 20
437.7721712835453
 30
0.0
 11
150.6618802700492
 21
437.7721712835453
 31
0.0
 12
149.8285469367158
 22
432.7721712835454
 32
0.0
 13
149.8285469367158
 23
432.7721712835454
 33
0.0
  0
SOLID
  5
E3
330
DD
100
AcDbEntity
  8
0
 62
     4
440
 16777216
100
AcDbTrace
 10
148.9952136033825
 20
501.7721712800859
 30
0.0
 11
150.6618802700492
 21
501.7721712800859
 31
0.0
 12
149.8285469367159
 22
506.7721712800859
 32
0.0
 13
149.8285469367159
 23
506.7721712800859
 33
0.0
  0
MTEXT
  5
E4
330
DD
100
AcDbEntity
  8
0
 62
     1
440
 16777216
100
AcDbMText
 10
145.3285469367157
 20
469.7721712818157
 30
0.0
 40
5.0
 41
0.0
 46
0.0
 71
     5
 72
     1
  1
74
 11
0.0000000000000001
 21
1.0
 31
0.0
 73
     1
 44
1.0
  0
POINT
  5
E5
330
DD
100
AcDbEntity
  8
Defpoints
 62
     0
440
 16777216
100
AcDbPoint
 10
164.1846337736112
 20
432.7721712835454
 30
0.0
  0
POINT
  5
E6
330
DD
100
AcDbEntity
  8
Defpoints
 62
     0
440
 16777216
100
AcDbPoint
 10
178.5846337739353
 20
506.7721712800859
 30
0.0
  0
POINT
  5
E7
330
DD
100
AcDbEntity
  8
Defpoints
 62
     0
440
 16777216
100
AcDbPoint
 10
149.8285469367159
 20
506.7721712800859
 30
0.0
  0
ENDBLK
  5
E8
330
DD
100
AcDbEntity
  8
0
100
AcDbBlockEnd
  0
BLOCK
  5
D1
330
D0
100
AcDbEntity
  8
0
100
AcDbBlockBegin
  2
*D9
 70
     1
 10
0.0
 20
0.0
 30
0.0
  3
*D9
  1

  0
LINE
  5
D2
330
D0
100
AcDbEntity
  8
0
 62
     4
440
 16777216
370
    -2
100
AcDbLine
 10
181.5846337731139
 20
518.2721711133545
 30
0.0
 11
181.5846337731139
 21
526.8771853331427
 31
0.0
  0
LINE
  5
D3
330
D0
100
AcDbEntity
  8
0
 62
     4
440
 16777216
370
    -2
100
AcDbLine
 10
214.5846337739353
 20
512.772171280086
 30
0.0
 11
214.5846337739353
 21
526.8771853331427
 31
0.0
  0
LINE
  5
D4
330
D0
100
AcDbEntity
  8
0
 62
     4
440
 16777216
370
    -2
100
AcDbLine
 10
186.5846337731139
 20
524.8771853331427
 30
0.0
 11
209.5846337739353
 21
524.8771853331427
 31
0.0
  0
SOLID
  5
D5
330
D0
100
AcDbEntity
  8
0
 62
     4
440
 16777216
100
AcDbTrace
 10
186.5846337731139
 20
525.7105186664761
 30
0.0
 11
186.5846337731139
 21
524.0438519998093
 31
0.0
 12
181.5846337731139
 22
524.8771853331427
 32
0.0
 13
181.5846337731139
 23
524.8771853331427
 33
0.0
  0
SOLID
  5
D6
330
D0
100
AcDbEntity
  8
0
 62
     4
440
 16777216
100
AcDbTrace
 10
209.5846337739353
 20
525.7105186664761
 30
0.0
 11
209.5846337739353
 21
524.0438519998093
 31
0.0
 12
214.5846337739353
 22
524.8771853331427
 32
0.0
 13
214.5846337739353
 23
524.8771853331427
 33
0.0
  0
MTEXT
  5
D7
330
D0
100
AcDbEntity
  8
0
 62
     1
440
 16777216
100
AcDbMText
 10
198.0846337735246
 20
529.3771853331427
 30
0.0
 40
5.0
 41
0.0
 46
0.0
 71
     5
 72
     1
  1
33
 73
     1
 44
1.0
  0
POINT
  5
D8
330
D0
100
AcDbEntity
  8
Defpoints
 62
     0
440
 16777216
100
AcDbPoint
 10
181.5846337731139
 20
516.2721711133546
 30
0.0
  0
POINT
  5
D9
330
D0
100
AcDbEntity
  8
Defpoints
 62
     0
440
 16777216
100
AcDbPoint
 10
214.5846337739353
 20
510.7721712800859
 30
0.0
  0
POINT
  5
DA
330
D0
100
AcDbEntity
  8
Defpoints
 62
     0
440
 16777216
100
AcDbPoint
 10
214.5846337739353
 20
524.8771853331427
 30
0.0
  0
ENDBLK
  5
DB
330
D0
100
AcDbEntity
  8
0
100
AcDbBlockEnd
  0
BLOCK
  5
A6
330
A5
100
AcDbEntity
  8
0
100
AcDbBlockBegin
  2
*D10
 70
     1
 10
0.0
 20
0.0
 30
0.0
  3
*D10
  1

  0
LINE
  5
A7
330
A5
100
AcDbEntity
  8
0
 62
     4
440
 16777216
370
    -2
100
AcDbLine
 10
163.5846337736153
 20
624.2721713225433
 30
0.0
 11
163.5846337736153
 21
635.5126217973444
 31
0.0
  0
LINE
  5
A8
330
A5
100
AcDbEntity
  8
0
 62
     4
440
 16777216
370
    -2
100
AcDbLine
 10
232.5846337736154
 20
624.2721713225435
 30
0.0
 11
232.5846337736154
 21
635.5126217973444
 31
0.0
  0
LINE
  5
A9
330
A5
100
AcDbEntity
  8
0
 62
     4
440
 16777216
370
    -2
100
AcDbLine
 10
168.5846337736153
 20
633.5126217973444
 30
0.0
 11
227.5846337736154
 21
633.5126217973444
 31
0.0
  0
SOLID
  5
AA
330
A5
100
AcDbEntity
  8
0
 62
     4
440
 16777216
100
AcDbTrace
 10
168.5846337736153
 20
634.3459551306778
 30
0.0
 11
168.5846337736153
 21
632.679288464011
 31
0.0
 12
163.5846337736153
 22
633.5126217973444
 32
0.0
 13
163.5846337736153
 23
633.5126217973444
 33
0.0
  0
SOLID
  5
AB
330
A5
100
AcDbEntity
  8
0
 62
     4
440
 16777216
100
AcDbTrace
 10
227.5846337736154
 20
634.3459551306778
 30
0.0
 11
227.5846337736154
 21
632.679288464011
 31
0.0
 12
232.5846337736154
 22
633.5126217973444
 32
0.0
 13
232.5846337736154
 23
633.5126217973444
 33
0.0
  0
MTEXT
  5
AC
330
A5
100
AcDbEntity
  8
0
 62
     1
440
 16777216
100
AcDbMText
 10
198.0846337736153
 20
638.0126217973444
 30
0.0
 40
5.0
 41
0.0
 46
0.0
 71
     5
 72
     1
  1
69
 73
     1
 44
1.0
  0
POINT
  5
AD
330
A5
100
AcDbEntity
  8
Defpoints
 62
     0
440
 16777216
100
AcDbPoint
 10
163.5846337736153
 20
622.2721713225434
 30
0.0
  0
POINT
  5
AE
330
A5
100
AcDbEntity
  8
Defpoints
 62
     0
440
 16777216
100
AcDbPoint
 10
232.5846337736154
 20
622.2721713225435
 30
0.0
  0
POINT
  5
AF
330
A5
100
AcDbEntity
  8
Defpoints
 62
     0
440
 16777216
100
AcDbPoint
 10
232.5846337736154
 20
633.5126217973444
 30
0.0
  0
ENDBLK
  5
B0
330
A5
100
AcDbEntity
  8
0
100
AcDbBlockEnd
  0
BLOCK
  5
99
330
98
100
AcDbEntity
  8
0
100
AcDbBlockBegin
  2
*D11
 70
     1
 10
0.0
 20
0.0
 30
0.0
  3
*D11
  1

  0
LINE
  5
9A
330
98
100
AcDbEntity
  8
0
 62
     4
440
 16777216
370
    -2
100
AcDbLine
 10
162.0846337736151
 20
431.7721713225456
 30
0.0
 11
162.0846337736151
 21
379.0000481057824
 31
0.0
  0
LINE
  5
9B
330
98
100
AcDbEntity
  8
0
 62
     4
440
 16777216
370
    -2
100
AcDbLine
 10
234.0846337736151
 20
431.7721713225456
 30
0.0
 11
234.0846337736151
 21
379.0000481057824
 31
0.0
  0
LINE
  5
9C
330
98
100
AcDbEntity
  8
0
 62
     4
440
 16777216
370
    -2
100
AcDbLine
 10
167.0846337736151
 20
381.0000481057824
 30
0.0
 11
229.0846337736151
 21
381.0000481057824
 31
0.0
  0
SOLID
  5
9D
330
98
100
AcDbEntity
  8
0
 62
     4
440
 16777216
100
AcDbTrace
 10
167.0846337736151
 20
381.8333814391157
 30
0.0
 11
167.0846337736151
 21
380.1667147724491
 31
0.0
 12
162.0846337736151
 22
381.0000481057824
 32
0.0
 13
162.0846337736151
 23
381.0000481057824
 33
0.0
  0
SOLID
  5
9E
330
98
100
AcDbEntity
  8
0
 62
     4
440
 16777216
100
AcDbTrace
 10
229.0846337736151
 20
381.8333814391157
 30
0.0
 11
229.0846337736151
 21
380.1667147724491
 31
0.0
 12
234.0846337736151
 22
381.0000481057824
 32
0.0
 13
234.0846337736151
 23
381.0000481057824
 33
0.0
  0
MTEXT
  5
9F
330
98
100
AcDbEntity
  8
0
 62
     1
440
 16777216
100
AcDbMText
 10
198.0846337736151
 20
385.5000481057824
 30
0.0
 40
5.0
 41
0.0
 46
0.0
 71
     5
 72
     1
  1
72
 73
     1
 44
1.0
  0
POINT
  5
A0
330
98
100
AcDbEntity
  8
Defpoints
 62
     0
440
 16777216
100
AcDbPoint
 10
162.0846337736151
 20
433.7721713225455
 30
0.0
  0
POINT
  5
A1
330
98
100
AcDbEntity
  8
Defpoints
 62
     0
440
 16777216
100
AcDbPoint
 10
234.0846337736151
 20
433.7721713225455
 30
0.0
  0
POINT
  5
A2
330
98
100
AcDbEntity
  8
Defpoints
 62
     0
440
 16777216
100
AcDbPoint
 10
234.0846337736151
 20
381.0000481057824
 30
0.0
  0
ENDBLK
  5
A3
330
98
100
AcDbEntity
  8
0
100
AcDbBlockEnd
  0
BLOCK
  5
8C
330
8B
100
AcDbEntity
  8
0
100
AcDbBlockBegin
  2
*D12
 70
     1
 10
0.0
 20
0.0
 30
0.0
  3
*D12
  1

  0
LINE
  5
8D
330
8B
100
AcDbEntity
  8
0
 62
     4
440
 16777216
370
    -2
100
AcDbLine
 10
341.0724307292755
 20
392.4823499265772
 30
0.0
 11
249.9549171083486
 21
392.4823499265772
 31
0.0
  0
LINE
  5
8E
330
8B
100
AcDbEntity
  8
0
 62
     4
440
 16777216
370
    -2
100
AcDbLine
 10
295.4022983606346
 20
622.2721713225437
 30
0.0
 11
249.9549171083486
 21
622.2721713225438
 31
0.0
  0
LINE
  5
8F
330
8B
100
AcDbEntity
  8
0
 62
     4
440
 16777216
370
    -2
100
AcDbLine
 10
251.9549171083486
 20
397.4823499265772
 30
0.0
 11
251.9549171083486
 21
617.2721713225438
 31
0.0
  0
SOLID
  5
90
330
8B
100
AcDbEntity
  8
0
 62
     4
440
 16777216
100
AcDbTrace
 10
251.1215837750153
 20
397.4823499265772
 30
0.0
 11
252.7882504416819
 21
397.4823499265772
 31
0.0
 12
251.9549171083486
 22
392.4823499265772
 32
0.0
 13
251.9549171083486
 23
392.4823499265772
 33
0.0
  0
SOLID
  5
91
330
8B
100
AcDbEntity
  8
0
 62
     4
440
 16777216
100
AcDbTrace
 10
251.1215837750153
 20
617.2721713225438
 30
0.0
 11
252.788250441682
 21
617.2721713225438
 31
0.0
 12
251.9549171083486
 22
622.2721713225438
 32
0.0
 13
251.9549171083486
 23
622.2721713225438
 33
0.0
  0
MTEXT
  5
92
330
8B
100
AcDbEntity
  8
0
 62
     1
440
 16777216
100
AcDbMText
 10
247.4549171083486
 20
507.3772606245605
 30
0.0
 40
5.0
 41
0.0
 46
0.0
 71
     5
 72
     1
  1
229.8
 11
0.0000000000000001
 21
1.0
 31
0.0
 73
     1
 44
1.0
  0
POINT
  5
93
330
8B
100
AcDbEntity
  8
Defpoints
 62
     0
440
 16777216
100
AcDbPoint
 10
343.0724307292755
 20
392.4823499265772
 30
0.0
  0
POINT
  5
94
330
8B
100
AcDbEntity
  8
Defpoints
 62
     0
440
 16777216
100
AcDbPoint
 10
297.4022983606346
 20
622.2721713225437
 30
0.0
  0
POINT
  5
95
330
8B
100
AcDbEntity
  8
Defpoints
 62
     0
440
 16777216
100
AcDbPoint
 10
251.9549171083486
 20
622.2721713225438
 30
0.0
  0
ENDBLK
  5
96
330
8B
100
AcDbEntity
  8
0
100
AcDbBlockEnd
  0
BLOCK
  5
7A
330
79
100
AcDbEntity
  8
0
100
AcDbBlockBegin
  2
*D13
 70
     1
 10
0.0
 20
0.0
 30
0.0
  3
*D13
  1

  0
LINE
  5
7B
330
79
100
AcDbEntity
  8
0
 62
     4
370
    -2
100
AcDbLine
 10
208.0846337736154
 20
509.4406013225438
 30
0.0
 11
199.7483258530524
 21
509.4406013225438
 31
0.0
  0
LINE
  5
7C
330
79
100
AcDbEntity
  8
0
 62
     4
370
    -2
100
AcDbLine
 10
208.0846337736154
 20
503.4406013225439
 30
0.0
 11
199.7483258530524
 21
503.4406013225439
 31
0.0
  0
LINE
  5
7D
330
79
100
AcDbEntity
  8
0
 62
     4
370
    -2
100
AcDbLine
 10
201.7483258530524
 20
514.4406013225439
 30
0.0
 11
201.7483258530524
 21
519.4406013225439
 31
0.0
  0
LINE
  5
7E
330
79
100
AcDbEntity
  8
0
 62
     4
370
    -2
100
AcDbLine
 10
201.7483258530524
 20
498.4406013225439
 30
0.0
 11
201.7483258530524
 21
493.4406013225439
 31
0.0
  0
LINE
  5
7F
330
79
100
AcDbEntity
  8
0
 62
     4
370
    -2
100
AcDbLine
 10
201.7483258530524
 20
509.4406013225438
 30
0.0
 11
201.7483258530524
 21
503.4406013225439
 31
0.0
  0
SOLID
  5
80
330
79
100
AcDbEntity
  8
0
 62
     4
100
AcDbTrace
 10
200.9149925197191
 20
514.4406013225439
 30
0.0
 11
202.5816591863858
 21
514.4406013225439
 31
0.0
 12
201.7483258530524
 22
509.4406013225438
 32
0.0
 13
201.7483258530524
 23
509.4406013225438
 33
0.0
  0
SOLID
  5
81
330
79
100
AcDbEntity
  8
0
 62
     4
100
AcDbTrace
 10
200.9149925197191
 20
498.4406013225439
 30
0.0
 11
202.5816591863858
 21
498.4406013225439
 31
0.0
 12
201.7483258530524
 22
503.4406013225439
 32
0.0
 13
201.7483258530524
 23
503.4406013225439
 33
0.0
  0
MTEXT
  5
82
330
79
100
AcDbEntity
  8
0
 62
     1
100
AcDbMText
 10
197.2483258530523
 20
506.4406013225439
 30
0.0
 40
5.0
 41
0.0
 46
0.0
 71
     5
 72
     1
  1
6
 11
0.0000000000000001
 21
1.0
 31
0.0
 73
     1
 44
1.0
  0
POINT
  5
83
330
79
100
AcDbEntity
  8
Defpoints
 62
     0
100
AcDbPoint
 10
210.0846337736154
 20
509.4406013225438
 30
0.0
  0
POINT
  5
85
330
79
100
AcDbEntity
  8
Defpoints
 62
     0
100
AcDbPoint
 10
210.0846337736154
 20
503.4406013225439
 30
0.0
  0
POINT
  5
86
330
79
100
AcDbEntity
  8
Defpoints
 62
     0
100
AcDbPoint
 10
201.7483258530524
 20
503.4406013225439
 30
0.0
  0
ENDBLK
  5
87
330
79
100
AcDbEntity
  8
0
100
AcDbBlockEnd
  0
ENDSEC
  0
SECTION
  2
ENTITIES
  0
DIMENSION
  5
78
330
2
100
AcDbEntity
  8
0
100
AcDbDimension
280
     0
  2
*D13
 10
201.7483258530524
 20
503.4406013225439
 30
0.0
 11
197.2483258530523
 21
506.4406013225439
 31
0.0
 71
     5
 42
6.0
 73
     0
 74
     0
 75
     0
  3
Wagner$0
100
AcDbAlignedDimension
 13
210.0846337736154
 23
509.4406013225438
 33
0.0
 14
210.0846337736154
 24
503.4406013225439
 34
0.0
 50
90.0
100
AcDbRotatedDimension
1001
ACAD
1000
DSTYLE
1002
{
1070
    40
1040
2.0
1002
}
  0
DIMENSION
  5
8A
330
2
100
AcDbEntity
  8
0
100
AcDbDimension
280
     0
  2
*D12
 10
251.9549171083486
 20
622.2721713225438
 30
0.0
 11
247.4549171083486
 21
507.3772606245605
 31
0.0
 71
     5
 42
229.7898213959666
 73
     0
 74
     0
 75
     0
  3
Wagner$0
100
AcDbAlignedDimension
 13
343.0724307292755
 23
392.4823499265772
 33
0.0
 14
297.4022983606346
 24
622.2721713225437
 34
0.0
 50
90.0
100
AcDbRotatedDimension
1001
ACAD
1000
DSTYLE
1002
{
1070
   271
1070
     1
1070
    40
1040
2.0
1002
}
  0
DIMENSION
  5
97
330
2
100
AcDbEntity
  8
0
100
AcDbDimension
280
     0
  2
*D11
 10
234.0846337736151
 20
381.0000481057824
 30
0.0
 11
198.0846337736151
 21
385.5000481057824
 31
0.0
 71
     5
 42
72.0
 73
     0
 74
     0
 75
     0
  3
Wagner$0
100
AcDbAlignedDimension
 13
162.0846337736151
 23
433.7721713225455
 33
0.0
 14
234.0846337736151
 24
433.7721713225455
 34
0.0
100
AcDbRotatedDimension
1001
ACAD
1000
DSTYLE
1002
{
1070
    40
1040
2.0
1002
}
  0
DIMENSION
  5
A4
330
2
100
AcDbEntity
  8
0
100
AcDbDimension
280
     0
  2
*D10
 10
232.5846337736154
 20
633.5126217973444
 30
0.0
 11
198.0846337736153
 21
638.0126217973444
 31
0.0
 71
     5
 42
69.00000000000011
 73
     0
 74
     0
 75
     0
  3
Wagner$0
100
AcDbAlignedDimension
 13
163.5846337736153
 23
622.2721713225434
 33
0.0
 14
232.5846337736154
 24
622.2721713225435
 34
0.0
100
AcDbRotatedDimension
1001
ACAD
1000
DSTYLE
1002
{
1070
    40
1040
2.0
1002
}
  0
ARC
  5
B1
330
2
100
AcDbEntity
  8
0
100
AcDbCircle
 10
229.1846337736224
 20
504.2721713077236
 30
0.0
 40
0.5
100
AcDbArc
 50
90.0
 51
180.0
  0
LINE
  5
B2
330
2
100
AcDbEntity
  8
0
100
AcDbLine
 10
229.1846337736224
 20
504.7721713077236
 30
0.0
 11
230.1846337736224
 21
504.7721713077239
 31
0.0
  0
ARC
  5
B3
330
2
100
AcDbEntity
  8
0
100
AcDbCircle
 10
230.1846337736224
 20
501.7721713077237
 30
0.0
 40
3.000000000000013
100
AcDbArc
 50
53.13010235423489
 51
90.0
  0
ARC
  5
B4
330
2
100
AcDbEntity
  8
0
100
AcDbCircle
 10
226.1846337736233
 20
486.2721713077236
 30
0.0
 40
0.5
100
AcDbArc
 50
180.000000000013
 51
270.0
  0
LINE
  5
B5
330
2
100
AcDbEntity
  8
0
100
AcDbLine
 10
228.1846337736233
 20
485.7721713077236
 30
0.0
 11
226.1846337736233
 21
485.7721713077236
 31
0.0
  0
ARC
  5
B6
330
2
100
AcDbEntity
  8
0
100
AcDbCircle
 10
228.1846337736233
 20
486.2721713077236
 30
0.0
 40
0.5
100
AcDbArc
 50
270.0
 51
0.0000000000130276
  0
LINE
  5
B7
330
2
100
AcDbEntity
  8
0
100
AcDbLine
 10
228.6846337736224
 20
504.2721713077236
 30
0.0
 11
228.6846337736242
 21
486.2721713077236
 31
0.0
  0
LINE
  5
B8
330
2
100
AcDbEntity
  8
0
100
AcDbLine
 10
231.9846337736196
 20
484.7721713099447
 30
0.0
 11
225.6846337736242
 21
484.7721713077234
 31
0.0
  0
LINE
  5
B9
330
2
100
AcDbEntity
  8
03-01
100
AcDbLine
 10
231.9846337736194
 20
492.4757275923924
 30
0.0
 11
230.4846337736255
 21
492.4757275923925
 31
0.0
  0
LINE
  5
BD
330
2
100
AcDbEntity
  8
0
100
AcDbLine
 10
230.4846337736196
 20
484.7721713094158
 30
0.0
 11
230.4846337736189
 21
504.7571336190438
 31
0.0
  0
ARC
  5
BE
330
2
100
AcDbEntity
  8
0
100
AcDbCircle
 10
166.9846337736089
 20
504.2721713077236
 30
0.0
 40
0.5
100
AcDbArc
 50
0.0
 51
90.0
  0
LINE
  5
BF
330
2
100
AcDbEntity
  8
0
100
AcDbLine
 10
166.9846337736089
 20
504.7721713077236
 30
0.0
 11
165.9846337736089
 21
504.7721713077239
 31
0.0
  0
ARC
  5
C0
330
2
100
AcDbEntity
  8
0
100
AcDbCircle
 10
165.9846337736089
 20
501.7721713077237
 30
0.0
 40
3.000000000000013
100
AcDbArc
 50
90.0
 51
126.8698976457633
  0
ARC
  5
C1
330
2
100
AcDbEntity
  8
0
100
AcDbCircle
 10
169.984633773608
 20
486.2721713077236
 30
0.0
 40
0.5
100
AcDbArc
 50
269.9999999999935
 51
359.999999999987
  0
LINE
  5
C2
330
2
100
AcDbEntity
  8
0
100
AcDbLine
 10
167.984633773608
 20
485.7721713077236
 30
0.0
 11
169.984633773608
 21
485.7721713077236
 31
0.0
  0
ARC
  5
C3
330
2
100
AcDbEntity
  8
0
100
AcDbCircle
 10
167.984633773608
 20
486.2721713077236
 30
0.0
 40
0.5
100
AcDbArc
 50
179.999999999987
 51
269.9999999999935
  0
LINE
  5
C4
330
2
100
AcDbEntity
  8
0
100
AcDbLine
 10
167.4846337736089
 20
504.2721713077236
 30
0.0
 11
167.4846337736071
 21
486.2721713077236
 31
0.0
  0
LINE
  5
C5
330
2
100
AcDbEntity
  8
0
100
AcDbLine
 10
164.1846337736117
 20
484.7721713099447
 30
0.0
 11
170.4846337736071
 21
484.7721713077234
 31
0.0
  0
LINE
  5
C6
330
2
100
AcDbEntity
  8
03-01
100
AcDbLine
 10
164.1846337736119
 20
492.4757275923924
 30
0.0
 11
165.6846337736058
 21
492.4757275923925
 31
0.0
  0
LINE
  5
C7
330
2
100
AcDbEntity
  8
0
100
AcDbLine
 10
165.6846337736117
 20
484.7721713094158
 30
0.0
 11
165.6846337736124
 21
504.7571336190438
 31
0.0
  0
LINE
  5
C8
330
2
100
AcDbEntity
  8
0
100
AcDbLine
 10
330.4022984069716
 20
485.7721713077236
 30
0.0
 11
331.9022984069714
 21
485.7721713077236
 31
0.0
  0
LINE
  5
C9
330
2
100
AcDbEntity
  8
0
100
AcDbLine
 10
331.9022984069732
 20
504.7721713077236
 30
0.0
 11
330.7022984069734
 21
504.7721713077236
 31
0.0
  0
ARC
  5
CA
330
2
100
AcDbEntity
  8
0
100
AcDbCircle
 10
330.702298406973
 20
501.7721713077237
 30
0.0
 40
3.000000000000014
100
AcDbArc
 50
89.99999999998697
 51
180.0
  0
ARC
  5
CB
330
2
100
AcDbEntity
  8
0
100
AcDbCircle
 10
328.2022984069716
 20
485.2721713101916
 30
0.0
 40
0.5
100
AcDbArc
 50
180.0
 51
269.9999999797943
  0
LINE
  5
CC
330
2
100
AcDbEntity
  8
0
100
AcDbLine
 10
327.7022984069729
 20
501.772171310368
 30
0.0
 11
327.7022984069716
 21
485.2721713101916
 31
0.0
  0
LINE
  5
CD
330
2
100
AcDbEntity
  8
0
100
AcDbLine
 10
328.2022984067952
 20
484.7721713101916
 30
0.0
 11
331.9022984069714
 21
484.7721713088869
 31
0.0
  0
LINE
  5
CE
330
2
100
AcDbEntity
  8
0
100
AcDbLine
 10
330.4022984069716
 20
485.7721713077236
 30
0.0
 11
330.4022984069732
 21
504.7571336190436
 31
0.0
  0
DIMENSION
  5
CF
330
2
100
AcDbEntity
  8
0
100
AcDbDimension
280
     0
  2
*D9
 10
214.5846337739353
 20
524.8771853331427
 30
0.0
 11
198.0846337735246
 21
529.3771853331427
 31
0.0
 71
     5
 42
33.00000000082139
 73
     0
 74
     0
 75
     0
  3
Wagner$0
100
AcDbAlignedDimension
 13
181.5846337731139
 23
516.2721711133546
 33
0.0
 14
214.5846337739353
 24
510.7721712800859
 34
0.0
100
AcDbRotatedDimension
1001
ACAD
1000
DSTYLE
1002
{
1070
    40
1040
2.0
1002
}
  0
DIMENSION
  5
DC
330
2
100
AcDbEntity
  8
0
100
AcDbDimension
280
     0
  2
*D8
 10
149.8285469367159
 20
506.7721712800859
 30
0.0
 11
145.3285469367157
 21
469.7721712818157
 31
0.0
 71
     5
 42
73.99999999654062
 73
     0
 74
     0
 75
     0
  3
Wagner$0
100
AcDbAlignedDimension
 13
164.1846337736112
 23
432.7721712835454
 33
0.0
 14
178.5846337739353
 24
506.7721712800859
 34
0.0
 50
90.0
100
AcDbRotatedDimension
1001
ACAD
1000
DSTYLE
1002
{
1070
    40
1040
2.0
1002
}
  0
DIMENSION
  5
E9
330
2
100
AcDbEntity
  8
0
100
AcDbDimension
280
     0
  2
*D7
 10
331.9022983960176
 20
399.1805523094497
 30
0.0
 11
314.6522983783261
 21
403.6805523094496
 31
0.0
 71
     5
 42
34.50000003538298
 73
     0
 74
     0
 75
     0
  3
Wagner$0
100
AcDbAlignedDimension
 13
297.4022983606346
 23
433.7721713225439
 33
0.0
 14
331.9022983960176
 24
432.7721713076325
 34
0.0
100
AcDbRotatedDimension
1001
ACAD
1000
DSTYLE
1002
{
1070
   271
1070
     1
1070
    40
1040
2.0
1002
}
  0
DIMENSION
  5
F6
330
2
100
AcDbEntity
  8
0
100
AcDbDimension
280
     0
  2
*D6
 10
279.8023271754985
 20
392.4823499265772
 30
0.0
 11
275.3023271754984
 21
413.1272606245606
 31
0.0
 71
     5
 42
41.28982139596678
 73
     0
 74
     0
 75
     0
  3
Wagner$0
100
AcDbAlignedDimension
 13
297.4022983606346
 23
433.7721713225439
 33
0.0
 14
347.0724307292755
 24
392.4823499265772
 34
0.0
 50
90.0
100
AcDbRotatedDimension
1001
ACAD
1000
DSTYLE
1002
{
1070
   271
1070
     1
1070
    40
1040
2.0
1002
}
  0
DIMENSION
  5
103
330
2
100
AcDbEntity
  8
0
100
AcDbDimension
280
     0
  2
*D5
 10
267.9460319416916
 20
682.9721713081387
 30
0.0
 11
263.4460319416914
 21
559.4570191909365
 31
0.0
 70
   128
 71
     5
 42
249.1999999855948
 73
     0
 74
     0
 75
     0
  3
Wagner$0
100
AcDbAlignedDimension
 13
297.4022983606346
 23
433.7721713225439
 33
0.0
 14
339.5522983960216
 24
682.9721713081387
 34
0.0
 50
90.0
100
AcDbRotatedDimension
1001
ACAD
1000
DSTYLE
1002
{
1070
   271
1070
     1
1070
    40
1040
2.0
1002
}
  0
DIMENSION
  5
110
330
2
100
AcDbEntity
  8
0
100
AcDbDimension
280
     0
  2
*D4
 10
279.8023271754985
 20
622.2721713225437
 30
0.0
 11
275.302327174677
 21
528.0221711558125
 31
0.0
 70
   128
 71
     5
 42
188.4999999999998
 73
     0
 74
     0
 75
     0
  3
Wagner$0
100
AcDbAlignedDimension
 13
297.4022983606346
 23
433.7721713225439
 33
0.0
 14
297.4022983606346
 24
622.2721713225437
 34
0.0
 50
90.0
100
AcDbRotatedDimension
1001
ACAD
1000
DSTYLE
1002
{
1070
   271
1070
     1
1070
    40
1040
2.0
1002
}
  0
DIMENSION
  5
11D
330
2
100
AcDbEntity
  8
0
100
AcDbDimension
280
     0
  2
*D3
 10
423.8022983960215
 20
370.478029947895
 30
0.0
 11
360.6022983783281
 21
374.978029947895
 31
0.0
 71
     5
 42
126.4000000353869
 73
     0
 74
     0
 75
     0
  3
Wagner$0
100
AcDbAlignedDimension
 13
297.4022983606346
 23
433.7721713225439
 33
0.0
 14
423.8022983960215
 24
434.3721713081387
 34
0.0
100
AcDbRotatedDimension
1001
ACAD
1000
DSTYLE
1002
{
1070
   271
1070
     1
1070
    40
1040
2.0
1002
}
  0
DIMENSION
  5
12A
330
2
100
AcDbEntity
  8
0
100
AcDbDimension
280
     0
  2
*D2
 10
152.6534993551006
 20
309.4549099702718
 30
0.0
 11
148.1534993551006
 21
321.7049099702719
 31
0.0
 71
     5
 42
24.5
 73
     0
 74
     0
 75
     0
  3
Wagner$0
100
AcDbAlignedDimension
 13
163.5846337736154
 23
333.9549099702718
 33
0.0
 14
163.5846337736155
 24
309.4549099702718
 34
0.0
 50
90.0
100
AcDbRotatedDimension
1001
ACAD
1000
DSTYLE
1002
{
1070
    40
1040
2.0
1002
}
  0
DIMENSION
  5
137
330
2
100
AcDbEntity
  8
0
100
AcDbDimension
280
     0
  2
*D1
 10
232.5846337736154
 20
345.1860773094083
 30
0.0
 11
198.0846337736154
 21
349.6860773094084
 31
0.0
 71
     5
 42
69.0
 73
     0
 74
     0
 75
     0
  3
Wagner$0
100
AcDbAlignedDimension
 13
163.5846337736154
 23
333.9549099702718
 33
0.0
 14
232.5846337736154
 24
333.9549099702718
 34
0.0
100
AcDbRotatedDimension
1001
ACAD
1000
DSTYLE
1002
{
1070
    40
1040
2.0
1002
}
  0
LINE
  5
144
330
2
100
AcDbEntity
  8
0
100
AcDbLine
 10
226.0846337736155
 20
309.4549099702718
 30
0.0
 11
226.0846337736157
 21
308.9549099702721
 31
0.0
  0
LINE
  5
145
330
2
100
AcDbEntity
  8
0
100
AcDbLine
 10
170.0846337736155
 20
309.4549099702718
 30
0.0
 11
170.0846337736156
 21
308.9549099702712
 31
0.0
  0
LINE
  5
146
330
2
100
AcDbEntity
  8
05-01
100
AcDbLine
 10
192.8346337736153
 20
324.2799099702716
 30
0.0
 11
203.3346337736153
 21
324.2799099702716
 31
0.0
  0
LINE
  5
14A
330
2
100
AcDbEntity
  8
05-01
100
AcDbLine
 10
198.0846337736153
 20
329.5299099702717
 30
0.0
 11
198.0846337736153
 21
319.0299099702717
 31
0.0
  0
CIRCLE
  5
14B
330
2
100
AcDbEntity
  8
03-01
100
AcDbCircle
 10
198.0846337736153
 20
324.2799099702716
 30
0.0
 40
4.25
  0
LINE
  5
14C
330
2
100
AcDbEntity
  8
0
100
AcDbLine
 10
170.0846337736156
 20
308.9549099702712
 30
0.0
 11
226.0846337736157
 21
308.9549099702721
 31
0.0
  0
LINE
  5
14D
330
2
100
AcDbEntity
  8
0
100
AcDbLine
 10
175.0846337736155
 20
310.4549099702714
 30
0.0
 11
221.0846337736153
 21
310.4549099702716
 31
0.0
  0
LINE
  5
14E
330
2
100
AcDbEntity
  8
0
100
AcDbLine
 10
231.0846337736152
 20
310.9549099702721
 30
0.0
 11
221.0846337736153
 21
310.9549099702718
 31
0.0
  0
LINE
  5
14F
330
2
100
AcDbEntity
  8
0
100
AcDbLine
 10
232.5846337736153
 20
309.4549099702718
 30
0.0
 11
221.0846337736153
 21
309.4549099702718
 31
0.0
  0
LINE
  5
150
330
2
100
AcDbEntity
  8
0
100
AcDbLine
 10
221.0846337736153
 20
310.9549099702718
 30
0.0
 11
221.0846337736153
 21
309.4549099702718
 31
0.0
  0
LINE
  5
151
330
2
100
AcDbEntity
  8
0
100
AcDbLine
 10
232.5846337736154
 20
333.9549099702718
 30
0.0
 11
232.5846337736153
 21
309.4549099702718
 31
0.0
  0
LINE
  5
152
330
2
100
AcDbEntity
  8
0
100
AcDbLine
 10
231.0846337736152
 20
333.9549099702718
 30
0.0
 11
231.0846337736152
 21
310.9549099702721
 31
0.0
  0
LINE
  5
153
330
2
100
AcDbEntity
  8
0
100
AcDbLine
 10
165.0846337736156
 20
310.9549099702721
 30
0.0
 11
175.0846337736155
 21
310.9549099702718
 31
0.0
  0
LINE
  5
154
330
2
100
AcDbEntity
  8
0
100
AcDbLine
 10
163.5846337736155
 20
309.4549099702718
 30
0.0
 11
175.0846337736155
 21
309.4549099702718
 31
0.0
  0
LINE
  5
155
330
2
100
AcDbEntity
  8
0
100
AcDbLine
 10
163.5846337736154
 20
333.9549099702718
 30
0.0
 11
232.5846337736154
 21
333.9549099702718
 31
0.0
  0
LINE
  5
156
330
2
100
AcDbEntity
  8
0
100
AcDbLine
 10
165.0846337736156
 20
317.6549099702717
 30
0.0
 11
231.0846337736152
 21
317.6549099702719
 31
0.0
  0
LINE
  5
157
330
2
100
AcDbEntity
  8
0
100
AcDbLine
 10
175.0846337736155
 20
310.9549099702718
 30
0.0
 11
175.0846337736155
 21
309.4549099702718
 31
0.0
  0
LINE
  5
158
330
2
100
AcDbEntity
  8
0
100
AcDbLine
 10
163.5846337736154
 20
333.9549099702718
 30
0.0
 11
163.5846337736155
 21
309.4549099702718
 31
0.0
  0
LINE
  5
159
330
2
100
AcDbEntity
  8
0
100
AcDbLine
 10
165.0846337736156
 20
333.9549099702718
 30
0.0
 11
165.0846337736156
 21
310.9549099702721
 31
0.0
  0
ARC
  5
15A
330
2
100
AcDbEntity
  8
0
100
AcDbCircle
 10
208.3230725698194
 20
545.9721713211775
 30
0.0
 40
5.0
100
AcDbArc
 50
270.0
 51
343.909183651146
  0
LINE
  5
15B
330
2
100
AcDbEntity
  8
0
100
AcDbLine
 10
213.127190525724
 20
544.5863680646666
 30
0.0
 11
222.5846337736154
 21
577.3721713240235
 31
0.0
  0
LINE
  5
15C
330
2
100
AcDbEntity
  8
0
100
AcDbLine
 10
183.0420770198647
 20
544.5863680646668
 30
0.0
 11
173.5846337736154
 21
577.3721713183309
 31
0.0
  0
LINE
  5
15D
330
2
100
AcDbEntity
  8
0
100
AcDbLine
 10
189.8846337727945
 20
540.9721713211772
 30
0.0
 11
189.8846337727945
 21
519.9721713211775
 31
0.0
  0
LINE
  5
15E
330
2
100
AcDbEntity
  8
0
100
AcDbLine
 10
206.2846337727942
 20
540.9721713211772
 30
0.0
 11
206.2846337727942
 21
519.9721713211775
 31
0.0
  0
ARC
  5
15F
330
2
100
AcDbEntity
  8
0
100
AcDbCircle
 10
222.0846337727944
 20
656.9721713211775
 30
0.0
 40
5.0
100
AcDbArc
 50
180.0
 51
270.0
  0
LINE
  5
160
330
2
100
AcDbEntity
  8
0
100
AcDbLine
 10
217.0846337727943
 20
677.9721713211772
 30
0.0
 11
217.0846337727943
 21
656.9721713211775
 31
0.0
  0
LINE
  5
161
330
2
100
AcDbEntity
  8
0
100
AcDbLine
 10
169.0846337727943
 20
677.9721713211772
 30
0.0
 11
169.0846337727943
 21
601.3406013225439
 31
0.0
  0
LINE
  5
162
330
2
100
AcDbEntity
  8
0
100
AcDbLine
 10
222.0846337727944
 20
651.9721713211774
 30
0.0
 11
222.0846337727944
 21
651.9721713211774
 31
0.0
  0
ARC
  5
163
330
2
100
AcDbEntity
  8
0
100
AcDbCircle
 10
174.0846337727943
 20
677.9721713211772
 30
0.0
 40
5.0
100
AcDbArc
 50
90.0
 51
180.0
  0
ARC
  5
164
330
2
100
AcDbEntity
  8
0
100
AcDbCircle
 10
212.0846337727944
 20
677.9721713211772
 30
0.0
 40
5.0
100
AcDbArc
 50
0.0
 51
90.0
  0
LINE
  5
165
330
2
100
AcDbEntity
  8
0
100
AcDbLine
 10
212.0846337727944
 20
682.9721713211772
 30
0.0
 11
174.0846337727943
 21
682.9721713211772
 31
0.0
  0
ARC
  5
166
330
2
100
AcDbEntity
  8
0
100
AcDbCircle
 10
222.0846337727944
 20
646.9721713211774
 30
0.0
 40
5.0
100
AcDbArc
 50
0.0
 51
90.0
  0
LINE
  5
167
330
2
100
AcDbEntity
  8
0
100
AcDbLine
 10
227.0846337727943
 20
601.340601322544
 30
0.0
 11
227.0846337727943
 21
646.9721713211774
 31
0.0
  0
LINE
  5
168
330
2
100
AcDbEntity
  8
0
100
AcDbLine
 10
189.8846337727945
 20
519.9721713211772
 30
0.0
 11
206.2846337727942
 21
519.9721713211772
 31
0.0
  0
ARC
  5
169
330
2
100
AcDbEntity
  8
0
100
AcDbCircle
 10
187.8461949757692
 20
545.9721713211776
 30
0.0
 40
5.0
100
AcDbArc
 50
196.0908163488539
 51
270.0
  0
LINE
  5
16A
330
2
100
AcDbEntity
  8
0
100
AcDbLine
 10
187.8461949757692
 20
540.9721713211776
 30
0.0
 11
208.3230725698194
 21
540.9721713211775
 31
0.0
  0
LINE
  5
16B
330
2
100
AcDbEntity
  8
0
100
AcDbLine
 10
203.5846337576838
 20
421.4750774542883
 30
0.0
 11
195.5513229960086
 21
421.4750774542883
 31
0.0
  0
LINE
  5
16C
330
2
100
AcDbEntity
  8
0
100
AcDbLine
 10
195.5513229960086
 20
421.4750774542883
 30
0.0
 11
192.5846335844578
 21
421.4750774542883
 31
0.0
  0
LINE
  5
16D
330
2
100
AcDbEntity
  8
0
100
AcDbLine
 10
206.0846337018044
 20
419.3750717084006
 30
0.0
 11
194.3998176039638
 21
419.3750717084006
 31
0.0
  0
LINE
  5
16E
330
2
100
AcDbEntity
  8
0
100
AcDbLine
 10
194.3998176039638
 20
419.3750717084006
 30
0.0
 11
190.0846341059984
 21
419.3750717084006
 31
0.0
  0
LWPOLYLINE
  5
16F
330
2
100
AcDbEntity
  8
0
100
AcDbPolyline
 90
        3
 70
   128
 43
0.0
 10
192.5008741573872
 20
429.5826800505713
 10
192.4943660752358
 20
429.5858390967444
 10
192.32076847865
 20
429.8250772397116
  0
LWPOLYLINE
  5
170
330
2
100
AcDbEntity
  8
0
100
AcDbPolyline
 90
        5
 70
   128
 43
0.0
 10
202.9281251498939
 20
429.3750770728186
 10
203.2910013705002
 20
429.4058032672003
 10
203.6535069247217
 20
429.5674659649924
 10
203.8152076321164
 20
429.7593035142019
 10
203.8492222100937
 20
429.8250772397116
  0
LINE
  5
171
330
2
100
AcDbEntity
  8
0
100
AcDbLine
 10
203.8492238399082
 20
429.8250772397116
 30
0.0
 11
203.8492238399082
 21
433.7721713225439
 31
0.0
  0
LWPOLYLINE
  5
172
330
2
100
AcDbEntity
  8
0
100
AcDbPolyline
 90
        4
 70
   128
 43
0.0
 10
201.2694954074429
 20
429.8204876820639
 10
201.3603675778465
 20
429.6723552386358
 10
201.5916823775949
 20
429.4837363402441
 10
202.1884682372653
 20
429.3750770728186
  0
ARC
  5
173
330
2
100
AcDbEntity
  8
0
100
AcDbCircle
 10
199.7435132236929
 20
431.9085346101659
 30
0.0
 40
2.586225357365953
100
AcDbArc
 50
258.4060819662655
 51
306.1600052082675
  0
LINE
  5
174
330
2
100
AcDbEntity
  8
0
100
AcDbLine
 10
201.2694954074429
 20
429.8204876820639
 30
0.0
 11
201.2694954074429
 21
433.7721713225439
 31
0.0
  0
ARC
  5
175
330
2
100
AcDbEntity
  8
0
100
AcDbCircle
 10
197.1733348968248
 20
432.5382043458778
 30
0.0
 40
3.186190444299553
100
AcDbArc
 50
238.5359050498013
 51
276.8980064202756
  0
ARC
  5
176
330
2
100
AcDbEntity
  8
0
100
AcDbCircle
 10
194.5791794760843
 20
430.5237110556562
 30
0.0
 40
1.166803246922431
100
AcDbArc
 50
259.8755214736545
 51
322.937033717335
  0
LINE
  5
177
330
2
100
AcDbEntity
  8
0
100
AcDbLine
 10
195.5102577240647
 20
429.8204876820639
 30
0.0
 11
195.5102577240647
 21
433.7721713225439
 31
0.0
  0
LINE
  5
178
330
2
100
AcDbEntity
  8
0
100
AcDbLine
 10
192.3207666160049
 20
429.8250772397116
 30
0.0
 11
192.3207666160049
 21
433.7721713225439
 31
0.0
  0
ARC
  5
179
330
2
100
AcDbEntity
  8
0
100
AcDbCircle
 10
193.3214036234615
 20
430.6913825657785
 30
0.0
 40
1.323538343674423
100
AcDbArc
 50
220.8845813185853
 51
275.9926938677888
  0
ARC
  5
17A
330
2
100
AcDbEntity
  8
0
100
AcDbCircle
 10
191.0927360417721
 20
417.4423391252694
 30
0.0
 40
1.001572789611644
100
AcDbArc
 50
179.8793908184753
 51
240.0411529866296
  0
ARC
  5
17B
330
2
100
AcDbEntity
  8
0
100
AcDbCircle
 10
205.0809189403513
 20
417.4408916798652
 30
0.0
 40
0.9983643590064806
100
AcDbArc
 50
299.8053805958238
 51
0.2040655394788781
  0
ARC
  5
17C
330
2
100
AcDbEntity
  8
0
100
AcDbCircle
 10
191.1987832308858
 20
417.4540257882901
 30
0.0
 40
0.9949943212535263
100
AcDbArc
 50
180.5515671268533
 51
242.1113025641907
  0
ARC
  5
17D
330
2
100
AcDbEntity
  8
0
100
AcDbCircle
 10
204.9832786219842
 20
417.449243233398
 30
0.0
 40
0.9873581753767435
100
AcDbArc
 50
297.6437181801713
 51
359.7217032692074
  0
ARC
  5
17E
330
2
100
AcDbEntity
  8
0
100
AcDbCircle
 10
204.8306116138764
 20
417.4190056820217
 30
0.0
 40
1.013425106723649
100
AcDbArc
 50
303.568294698859
 51
1.438547119138083
  0
ARC
  5
17F
330
2
100
AcDbEntity
  8
0
100
AcDbCircle
 10
191.3704606951624
 20
417.4309261755485
 30
0.0
 40
1.037506755816329
100
AcDbArc
 50
179.253272748764
 51
235.6267109271426
  0
ARC
  5
180
330
2
100
AcDbEntity
  8
0
100
AcDbCircle
 10
204.5331989104006
 20
417.45044693076
 30
0.0
 40
0.9853120752722103
100
AcDbArc
 50
297.2632775021617
 51
359.6511294408728
  0
ARC
  5
181
330
2
100
AcDbEntity
  8
0
100
AcDbCircle
 10
191.6567839289929
 20
417.4561363076561
 30
0.0
 40
0.9947444878778284
100
AcDbArc
 50
180.6732753546444
 51
242.3997519718798
  0
ARC
  5
182
330
2
100
AcDbEntity
  8
0
100
AcDbCircle
 10
204.2095879910934
 20
417.3921522729519
 30
0.0
 40
1.060750088061747
100
AcDbArc
 50
309.5798189632288
 51
2.825838740471025
  0
ARC
  5
183
330
2
100
AcDbEntity
  8
0
100
AcDbCircle
 10
203.7474575143734
 20
417.4457408189795
 30
0.0
 40
0.9940084777640612
100
AcDbArc
 50
298.788945789041
 51
359.9254490851805
  0
ARC
  5
184
330
2
100
AcDbEntity
  8
0
100
AcDbCircle
 10
192.0321904300589
 20
417.4169795105248
 30
0.0
 40
1.118828334202045
100
AcDbArc
 50
178.5932106188426
 51
228.8438846458773
  0
ARC
  5
185
330
2
100
AcDbEntity
  8
0
100
AcDbCircle
 10
192.4411930198717
 20
417.4468592175996
 30
0.0
 40
0.9964145725004332
100
AcDbArc
 50
180.1386808963091
 51
241.0930317577169
  0
ARC
  5
186
330
2
100
AcDbEntity
  8
0
100
AcDbCircle
 10
203.1928806084321
 20
417.3649737823195
 30
0.0
 40
1.190161605471662
100
AcDbArc
 50
318.3869868864121
 51
3.828805433485238
  0
ARC
  5
187
330
2
100
AcDbEntity
  8
0
100
AcDbCircle
 10
202.6541411321863
 20
417.435938639668
 30
0.0
 40
1.019396334409618
100
AcDbArc
 50
302.3326295156268
 51
0.478248985025634
  0
ARC
  5
188
330
2
100
AcDbEntity
  8
0
100
AcDbCircle
 10
193.1118648098398
 20
417.4029104023719
 30
0.0
 40
1.304764596035785
100
AcDbArc
 50
178.1756859578001
 51
219.4082020725179
  0
ARC
  5
189
330
2
100
AcDbEntity
  8
0
100
AcDbCircle
 10
193.5231387138381
 20
417.4277976174085
 30
0.0
 40
1.005628347894345
100
AcDbArc
 50
179.0513300418354
 51
238.0413354355851
  0
ARC
  5
18A
330
2
100
AcDbEntity
  8
0
100
AcDbCircle
 10
194.7608674677538
 20
417.3911507366212
 30
0.0
 40
1.785509874608444
100
AcDbArc
 50
178.2894907966076
 51
207.214638131953
  0
ARC
  5
18B
330
2
100
AcDbEntity
  8
0
100
AcDbCircle
 10
194.8705538367661
 20
417.4022515324713
 30
0.0
 40
1.037593768399719
100
AcDbArc
 50
177.6693040925778
 51
232.9083533423578
  0
ARC
  5
18C
330
2
100
AcDbEntity
  8
0
100
AcDbCircle
 10
201.6613549353603
 20
417.342170733196
 30
0.0
 40
1.558573364886454
100
AcDbArc
 50
330.4957630187573
 51
3.762568373484683
  0
ARC
  5
18D
330
2
100
AcDbEntity
  8
0
100
AcDbCircle
 10
201.283301554991
 20
417.4227355569264
 30
0.0
 40
1.078195476949251
100
AcDbArc
 50
308.1281016028027
 51
1.153858120177256
  0
LINE
  5
18E
330
2
100
AcDbEntity
  8
0
100
AcDbLine
 10
203.5846337576838
 20
429.3750770728186
 30
0.0
 11
195.5513229960086
 21
429.3750770728186
 31
0.0
  0
LINE
  5
18F
330
2
100
AcDbEntity
  8
0
100
AcDbLine
 10
195.5513229960086
 20
429.3750770728186
 30
0.0
 11
192.5846335844578
 21
429.3750770728186
 31
0.0
  0
ARC
  5
190
330
2
100
AcDbEntity
  8
0
100
AcDbCircle
 10
198.0644642947478
 20
417.3837415625246
 30
0.0
 40
3.697152802976501
100
AcDbArc
 50
179.0591819397659
 51
192.6419336231031
  0
ARC
  5
191
330
2
100
AcDbEntity
  8
0
100
AcDbCircle
 10
196.4613036829293
 20
417.3746308821478
 30
0.0
 40
1.127696708443426
100
AcDbArc
 50
176.4505037882022
 51
225.1897707081408
  0
LINE
  5
192
330
2
100
AcDbEntity
  8
0
100
AcDbLine
 10
200.3106658713402
 20
418.8750781457022
 30
0.0
 11
200.3106658713402
 21
416.3918741385534
 31
0.0
  0
LINE
  5
193
330
2
100
AcDbEntity
  8
0
100
AcDbLine
 10
195.8845911913993
 20
418.8750781457022
 30
0.0
 11
195.8845911913993
 21
416.3918741385534
 31
0.0
  0
ARC
  5
194
330
2
100
AcDbEntity
  8
0
100
AcDbCircle
 10
198.7463992359738
 20
417.3276856587466
 30
0.0
 40
3.084273403602644
100
AcDbArc
 50
345.8670879169156
 51
2.169573396091715
  0
ARC
  5
195
330
2
100
AcDbEntity
  8
0
100
AcDbCircle
 10
199.6520249449773
 20
417.4084147063332
 30
0.0
 40
1.210656436536612
100
AcDbArc
 50
316.4698738679202
 51
1.705545584058847
  0
LINE
  5
196
330
2
100
AcDbEntity
  8
0
100
AcDbLine
 10
198.8468069949628
 20
418.8750781457022
 30
0.0
 11
198.8468069949628
 21
416.3918741385534
 31
0.0
  0
LINE
  5
197
330
2
100
AcDbEntity
  8
0
100
AcDbLine
 10
197.3496375040592
 20
418.8750781457022
 30
0.0
 11
197.3496375040592
 21
416.3918741385534
 31
0.0
  0
ARC
  5
198
330
2
100
AcDbEntity
  8
0
100
AcDbCircle
 10
198.3291593624386
 20
417.3497163490724
 30
0.0
 40
1.374567177101083
100
AcDbArc
 50
176.0482115587188
 51
214.3262299222447
  0
ARC
  5
199
330
2
100
AcDbEntity
  8
0
100
AcDbCircle
 10
181.5079617102169
 20
417.3819314434513
 30
0.0
 40
14.41408361366765
100
AcDbArc
 50
356.7891574568452
 51
0.2485010722430421
  0
ARC
  5
19A
330
2
100
AcDbEntity
  8
0
100
AcDbCircle
 10
213.6632313030909
 20
417.3240305303763
 30
0.0
 40
13.38704162071933
100
AcDbArc
 50
179.4846154071591
 51
183.2092314758747
  0
ARC
  5
19B
330
2
100
AcDbEntity
  8
0
100
AcDbCircle
 10
197.7118568642281
 20
417.3954521090881
 30
0.0
 40
1.530548491546581
100
AcDbArc
 50
327.5666951776218
 51
1.834444717989225
  0
ARC
  5
19C
330
2
100
AcDbEntity
  8
0
100
AcDbCircle
 10
200.832314181559
 20
417.3318158729625
 30
0.0
 40
2.205995815761418
100
AcDbArc
 50
177.0733753436375
 51
200.0754380846617
  0
ARC
  5
19D
330
2
100
AcDbEntity
  8
0
100
AcDbCircle
 10
195.04357970914
 20
417.3860877205516
 30
0.0
 40
2.527625028473055
100
AcDbArc
 50
341.2735271090527
 51
1.323006375365891
  0
ARC
  5
19E
330
2
100
AcDbEntity
  8
0
100
AcDbCircle
 10
204.1833377111571
 20
419.6013817054661
 30
0.0
 40
10.18647268289344
100
AcDbArc
 50
197.2857938867316
 51
198.3653693072939
  0
ARC
  5
19F
330
2
100
AcDbEntity
  8
0
100
AcDbCircle
 10
200.4799998953202
 20
425.5270354816794
 30
0.0
 40
10.90981612802778
100
AcDbArc
 50
235.1435062122031
 51
236.8596713038677
  0
LINE
  5
1A0
330
2
100
AcDbEntity
  8
0
100
AcDbLine
 10
194.2447896481933
 20
416.5745921771124
 30
0.0
 11
193.1730143161
 21
416.5745921771124
 31
0.0
  0
ARC
  5
1A1
330
2
100
AcDbEntity
  8
0
100
AcDbCircle
 10
199.2249058186678
 20
420.7352499869294
 30
0.0
 40
7.344144890267657
100
AcDbArc
 50
214.5084098521682
 51
216.2568893240271
  0
ARC
  5
1A2
330
2
100
AcDbEntity
  8
0
100
AcDbCircle
 10
199.6296251695167
 20
427.550452299351
 30
0.0
 40
12.82742417400355
100
AcDbArc
 50
238.8322623992858
 51
240.4470378868607
  0
LINE
  5
1A3
330
2
100
AcDbEntity
  8
0
100
AcDbLine
 10
192.9908522771181
 20
416.5745921771124
 30
0.0
 11
192.1037479670228
 21
416.5745921771124
 31
0.0
  0
ARC
  5
1A4
330
2
100
AcDbEntity
  8
0
100
AcDbCircle
 10
197.8684302266836
 20
422.534683952786
 30
0.0
 40
8.291818589989858
100
AcDbArc
 50
225.9548247189623
 51
227.8019801738525
  0
ARC
  5
1A5
330
2
100
AcDbEntity
  8
0
100
AcDbCircle
 10
198.9033040137894
 20
429.0632139562108
 30
0.0
 40
14.28921165768406
100
AcDbArc
 50
240.9256147773465
 51
242.4709606397291
  0
LINE
  5
1A6
330
2
100
AcDbEntity
  8
0
100
AcDbLine
 10
191.9595373229565
 20
416.5745921771124
 30
0.0
 11
191.2958749936403
 21
416.5745921771124
 31
0.0
  0
ARC
  5
1A7
330
2
100
AcDbEntity
  8
0
100
AcDbCircle
 10
197.3702274360103
 20
424.6846155040766
 30
0.0
 40
10.13263223244731
100
AcDbArc
 50
233.1670383123254
 51
234.9268671650093
  0
ARC
  5
1A8
330
2
100
AcDbEntity
  8
0
100
AcDbCircle
 10
198.2840445660747
 20
429.7947714488546
 30
0.0
 40
15.00048882301292
100
AcDbArc
 50
241.8015898672102
 51
243.3160692616534
  0
LINE
  5
1A9
330
2
100
AcDbEntity
  8
0
100
AcDbLine
 10
191.1959189356746
 20
416.5745921771124
 30
0.0
 11
190.7847027660789
 21
416.5745921771124
 31
0.0
  0
ARC
  5
1AA
330
2
100
AcDbEntity
  8
0
100
AcDbCircle
 10
197.2751784191605
 20
426.8165374296876
 30
0.0
 40
12.1253336762335
100
AcDbArc
 50
237.6369464012458
 51
239.2876701653049
  0
ARC
  5
1AB
330
2
100
AcDbEntity
  8
0
100
AcDbCircle
 10
197.7890336955104
 20
429.6288730711398
 30
0.0
 40
14.83902460320363
100
AcDbArc
 50
241.6093703234836
 51
243.1306833115073
  0
ARC
  5
1AC
330
2
100
AcDbEntity
  8
0
100
AcDbCircle
 10
197.435807931377
 20
428.563099676111
 30
0.0
 40
13.80413631376308
100
AcDbArc
 50
240.2815722672738
 51
241.8491612124717
  0
ARC
  5
1AD
330
2
100
AcDbEntity
  8
0
100
AcDbCircle
 10
197.4414297786396
 20
428.5907590817443
 30
0.0
 40
13.83117857291922
100
AcDbArc
 50
240.3164695037744
 51
241.8826853866775
  0
ARC
  5
1AE
330
2
100
AcDbEntity
  8
0
100
AcDbCircle
 10
198.7289947974447
 20
428.5886798235431
 30
0.0
 40
13.82879921037075
100
AcDbArc
 50
298.117144914482
 51
299.6836319841575
  0
ARC
  5
1AF
330
2
100
AcDbEntity
  8
0
100
AcDbCircle
 10
198.3876834472731
 20
429.6179811456073
 30
0.0
 40
14.82850987505106
100
AcDbArc
 50
296.8822434432004
 51
298.4039688965292
  0
ARC
  5
1B0
330
2
100
AcDbEntity
  8
0
100
AcDbCircle
 10
198.8929987461368
 20
426.8531395057406
 30
0.0
 40
12.16026746517598
100
AcDbArc
 50
300.6516825543614
 51
302.300552344844
  0
LINE
  5
1B1
330
2
100
AcDbEntity
  8
0
100
AcDbLine
 10
205.3909653232874
 20
416.5745921771124
 30
0.0
 11
204.9845505872251
 21
416.5745921771124
 31
0.0
  0
ARC
  5
1B2
330
2
100
AcDbEntity
  8
0
100
AcDbCircle
 10
197.8947430037029
 20
429.8012388384275
 30
0.0
 40
15.00698349018383
100
AcDbArc
 50
296.6782813294102
 51
298.1924019205915
  0
ARC
  5
1B3
330
2
100
AcDbEntity
  8
0
100
AcDbCircle
 10
198.8033999693153
 20
424.7252364873099
 30
0.0
 40
10.16977415214039
100
AcDbArc
 50
304.9727721285443
 51
306.7304664282746
  0
LINE
  5
1B4
330
2
100
AcDbEntity
  8
0
100
AcDbLine
 10
204.8854476207377
 20
416.5745921771124
 30
0.0
 11
204.2261566867562
 21
416.5745921771124
 31
0.0
  0
ARC
  5
1B5
330
2
100
AcDbEntity
  8
0
100
AcDbCircle
 10
197.2789582567485
 20
429.0827641310356
 30
0.0
 40
14.30796741870804
100
AcDbArc
 50
297.503747182054
 51
299.0483521848924
  0
ARC
  5
1B6
330
2
100
AcDbEntity
  8
0
100
AcDbCircle
 10
198.3156509890669
 20
422.5713646780855
 30
0.0
 40
8.319865039047664
100
AcDbArc
 50
312.0347143469894
 51
313.8812806484928
  0
LINE
  5
1B7
330
2
100
AcDbEntity
  8
0
100
AcDbLine
 10
204.0827016945438
 20
416.5745921771124
 30
0.0
 11
203.1993485771561
 21
416.5745921771124
 31
0.0
  0
ARC
  5
1B8
330
2
100
AcDbEntity
  8
0
100
AcDbCircle
 10
196.5537415813188
 20
427.5838070279709
 30
0.0
 40
12.85950636593354
100
AcDbArc
 50
299.5037251163637
 51
301.1168780983779
  0
ARC
  5
1B9
330
2
100
AcDbEntity
  8
0
100
AcDbCircle
 10
196.9822480085261
 20
420.7640691600051
 30
0.0
 40
7.347090760009284
100
AcDbArc
 50
323.4808083086383
 51
325.2342522324894
  0
LINE
  5
1BA
330
2
100
AcDbEntity
  8
0
100
AcDbLine
 10
203.0178113828621
 20
416.5745921771124
 30
0.0
 11
201.9490029097976
 21
416.5745921771124
 31
0.0
  0
ARC
  5
1BB
330
2
100
AcDbEntity
  8
0
100
AcDbCircle
 10
195.7070101084916
 20
425.5651772297396
 30
0.0
 40
10.94500313933623
100
AcDbArc
 50
303.0571349668302
 51
304.7715148239317
  0
ARC
  5
1BC
330
2
100
AcDbEntity
  8
0
100
AcDbCircle
 10
192.1801387676078
 20
419.6159296171415
 30
0.0
 40
10.02942673242686
100
AcDbArc
 50
341.2487818712681
 51
342.3476062215452
  0
LINE
  5
1BD
330
2
100
AcDbEntity
  8
0
100
AcDbLine
 10
201.7373175959544
 20
416.5745921771124
 30
0.0
 11
200.5297657934459
 21
416.5745921771124
 31
0.0
  0
ARC
  5
1BE
330
2
100
AcDbEntity
  8
0
100
AcDbCircle
 10
194.6722479905115
 20
423.3757070283275
 30
0.0
 40
8.975838569801641
100
AcDbArc
 50
308.915773402859
 51
310.7369546100938
  0
ARC
  5
1BF
330
2
100
AcDbEntity
  8
0
100
AcDbCircle
 10
238.9008227906835
 20
419.331149198909
 30
0.0
 40
38.70193210861656
100
AcDbArc
 50
184.0843678639284
 51
184.3556060580672
  0
LINE
  5
1C0
330
2
100
AcDbEntity
  8
0
100
AcDbLine
 10
200.2971838129194
 20
416.5745921771124
 30
0.0
 11
199.0036647667618
 21
416.5745921771124
 31
0.0
  0
ARC
  5
1C1
330
2
100
AcDbEntity
  8
0
100
AcDbCircle
 10
193.2048486034381
 20
421.3940083021268
 30
0.0
 40
7.540095535341948
100
AcDbArc
 50
318.4399522155812
 51
320.2699126687817
  0
ARC
  5
1C2
330
2
100
AcDbEntity
  8
0
100
AcDbCircle
 10
206.1147742560082
 20
419.9426277762833
 30
0.0
 40
8.088955402490901
100
AcDbArc
 50
204.6059116880441
 51
206.0377470473381
  0
LINE
  5
1C3
330
2
100
AcDbEntity
  8
0
100
AcDbLine
 10
198.7603513890387
 20
416.5745921771124
 30
0.0
 11
197.4373974272491
 21
416.5745921771124
 31
0.0
  0
ARC
  5
1C4
330
2
100
AcDbEntity
  8
0
100
AcDbCircle
 10
190.1494370384681
 20
419.9625827988563
 30
0.0
 40
8.036967530198541
100
AcDbArc
 50
333.6223615191234
 51
335.0674610835425
  0
ARC
  5
1C5
330
2
100
AcDbEntity
  8
0
100
AcDbCircle
 10
202.9986353668772
 20
421.3617106833713
 30
0.0
 40
7.523991768757339
100
AcDbArc
 50
219.5125465886149
 51
221.3404507897392
  0
LINE
  5
1C6
330
2
100
AcDbEntity
  8
0
100
AcDbLine
 10
197.1939864934863
 20
416.5745921771124
 30
0.0
 11
195.8994178467871
 21
416.5745921771124
 31
0.0
  0
ARC
  5
1C7
330
2
100
AcDbEntity
  8
0
100
AcDbCircle
 10
160.733408324336
 20
419.3361774747343
 30
0.0
 40
35.2742764502571
100
AcDbArc
 50
355.2120163985397
 51
355.5097799619607
  0
ARC
  5
1C8
330
2
100
AcDbEntity
  8
0
100
AcDbCircle
 10
201.5183979173554
 20
423.3363581268058
 30
0.0
 40
8.942350702613666
100
AcDbArc
 50
229.1260290334852
 51
230.9488396905809
  0
LINE
  5
1C9
330
2
100
AcDbEntity
  8
0
100
AcDbLine
 10
195.6665471562626
 20
416.5745921771124
 30
0.0
 11
194.456942136723
 21
416.5745921771124
 31
0.0
  0
LINE
  5
1CA
330
2
100
AcDbEntity
  8
0
100
AcDbLine
 10
204.5846338051812
 20
420.875082198818
 30
0.0
 11
195.0907211185874
 21
420.875082198818
 31
0.0
  0
LINE
  5
1CB
330
2
100
AcDbEntity
  8
0
100
AcDbLine
 10
195.0907211185874
 20
420.875082198818
 30
0.0
 11
191.584633420545
 21
420.875082198818
 31
0.0
  0
LINE
  5
1CC
330
2
100
AcDbEntity
  8
0
100
AcDbLine
 10
192.976153212923
 20
417.4444474618033
 30
0.0
 11
193.8338184164347
 21
417.4444474618033
 31
0.0
  0
LINE
  5
1CD
330
2
100
AcDbEntity
  8
0
100
AcDbLine
 10
193.8338184164347
 20
418.8750781457022
 30
0.0
 11
193.8338184164347
 21
417.4444474618033
 31
0.0
  0
LINE
  5
1CE
330
2
100
AcDbEntity
  8
0
100
AcDbLine
 10
193.8338184164347
 20
418.8750781457022
 30
0.0
 11
194.3678099097194
 21
418.8750781457022
 31
0.0
  0
LINE
  5
1CF
330
2
100
AcDbEntity
  8
0
100
AcDbLine
 10
194.3678099097194
 20
418.8750781457022
 30
0.0
 11
194.3678099097194
 21
417.4444474618033
 31
0.0
  0
LINE
  5
1D0
330
2
100
AcDbEntity
  8
0
100
AcDbLine
 10
194.3678099097194
 20
417.4444474618033
 30
0.0
 11
195.3357702487589
 21
417.4444474618033
 31
0.0
  0
LINE
  5
1D1
330
2
100
AcDbEntity
  8
0
100
AcDbLine
 10
195.3357702487589
 20
418.8750781457022
 30
0.0
 11
195.3357702487589
 21
417.4444474618033
 31
0.0
  0
LINE
  5
1D2
330
2
100
AcDbEntity
  8
0
100
AcDbLine
 10
195.3357702487589
 20
418.8750781457022
 30
0.0
 11
195.9219097526254
 21
418.8750781457022
 31
0.0
  0
LINE
  5
1D3
330
2
100
AcDbEntity
  8
0
100
AcDbLine
 10
195.9219097526254
 20
418.8750781457022
 30
0.0
 11
195.9219097526254
 21
417.4444474618033
 31
0.0
  0
LINE
  5
1D4
330
2
100
AcDbEntity
  8
0
100
AcDbLine
 10
195.9219097526254
 20
417.4444474618033
 30
0.0
 11
196.9578603649022
 21
417.4444474618033
 31
0.0
  0
LINE
  5
1D5
330
2
100
AcDbEntity
  8
0
100
AcDbLine
 10
196.9578603649022
 20
418.8750781457022
 30
0.0
 11
196.9578603649022
 21
417.4444474618033
 31
0.0
  0
LINE
  5
1D6
330
2
100
AcDbEntity
  8
0
100
AcDbLine
 10
196.9578603649022
 20
418.8750781457022
 30
0.0
 11
197.570530920613
 21
418.8750781457022
 31
0.0
  0
LINE
  5
1D7
330
2
100
AcDbEntity
  8
0
100
AcDbLine
 10
197.570530920613
 20
418.8750781457022
 30
0.0
 11
197.570530920613
 21
417.4444474618033
 31
0.0
  0
LINE
  5
1D8
330
2
100
AcDbEntity
  8
0
100
AcDbLine
 10
197.570530920613
 20
417.4444474618033
 30
0.0
 11
198.6291955591621
 21
417.4444474618033
 31
0.0
  0
LINE
  5
1D9
330
2
100
AcDbEntity
  8
0
100
AcDbLine
 10
198.6291955591621
 20
418.8750781457022
 30
0.0
 11
198.6291955591621
 21
417.4444474618033
 31
0.0
  0
LINE
  5
1DA
330
2
100
AcDbEntity
  8
0
100
AcDbLine
 10
198.6291955591621
 20
418.8750781457022
 30
0.0
 11
199.2416209442051
 21
418.8750781457022
 31
0.0
  0
LINE
  5
1DB
330
2
100
AcDbEntity
  8
0
100
AcDbLine
 10
199.2416209442051
 20
418.8750781457022
 30
0.0
 11
199.2416209442051
 21
417.4444474618033
 31
0.0
  0
LINE
  5
1DC
330
2
100
AcDbEntity
  8
0
100
AcDbLine
 10
199.2416209442051
 20
417.4444474618033
 30
0.0
 11
200.2767312706889
 21
417.4444474618033
 31
0.0
  0
LINE
  5
1DD
330
2
100
AcDbEntity
  8
0
100
AcDbLine
 10
200.2767312706889
 20
418.8750781457022
 30
0.0
 11
200.2767312706889
 21
417.4444474618033
 31
0.0
  0
LINE
  5
1DE
330
2
100
AcDbEntity
  8
0
100
AcDbLine
 10
200.2767312706889
 20
418.8750781457022
 30
0.0
 11
200.8621450414391
 21
418.8750781457022
 31
0.0
  0
LINE
  5
1DF
330
2
100
AcDbEntity
  8
0
100
AcDbLine
 10
200.8621450414391
 20
418.8750781457022
 30
0.0
 11
200.8621450414391
 21
417.4444474618033
 31
0.0
  0
LINE
  5
1E0
330
2
100
AcDbEntity
  8
0
100
AcDbLine
 10
200.8621450414391
 20
417.4444474618033
 30
0.0
 11
201.8284617125498
 21
417.4444474618033
 31
0.0
  0
LINE
  5
1E1
330
2
100
AcDbEntity
  8
0
100
AcDbLine
 10
201.8284617125498
 20
418.8750781457022
 30
0.0
 11
201.8284617125498
 21
417.4444474618033
 31
0.0
  0
LINE
  5
1E2
330
2
100
AcDbEntity
  8
0
100
AcDbLine
 10
201.8284617125498
 20
418.8750781457022
 30
0.0
 11
202.3612784006143
 21
418.8750781457022
 31
0.0
  0
LINE
  5
1E3
330
2
100
AcDbEntity
  8
0
100
AcDbLine
 10
202.3612784006143
 20
418.8750781457022
 30
0.0
 11
202.3612784006143
 21
417.4444474618033
 31
0.0
  0
LINE
  5
1E4
330
2
100
AcDbEntity
  8
0
100
AcDbLine
 10
202.3612784006143
 20
417.4444474618033
 30
0.0
 11
203.2165688770799
 21
417.4444474618033
 31
0.0
  0
LINE
  5
1E5
330
2
100
AcDbEntity
  8
0
100
AcDbLine
 10
203.2165688770799
 20
418.8750781457022
 30
0.0
 11
203.2165688770799
 21
417.4444474618033
 31
0.0
  0
LINE
  5
1E6
330
2
100
AcDbEntity
  8
0
100
AcDbLine
 10
203.2165688770799
 20
418.8750781457022
 30
0.0
 11
203.6735019547375
 21
418.8750781457022
 31
0.0
  0
LINE
  5
1E7
330
2
100
AcDbEntity
  8
0
100
AcDbLine
 10
203.6735019547375
 20
418.8750781457022
 30
0.0
 11
203.6735019547375
 21
417.4444474618033
 31
0.0
  0
LINE
  5
1E8
330
2
100
AcDbEntity
  8
0
100
AcDbLine
 10
203.6735019547375
 20
417.4444474618033
 30
0.0
 11
204.3803858005883
 21
417.4444474618033
 31
0.0
  0
LINE
  5
1E9
330
2
100
AcDbEntity
  8
0
100
AcDbLine
 10
204.3803858005883
 20
418.8750781457022
 30
0.0
 11
204.3803858005883
 21
417.4444474618033
 31
0.0
  0
LINE
  5
1EA
330
2
100
AcDbEntity
  8
0
100
AcDbLine
 10
204.3803858005883
 20
418.8750781457022
 30
0.0
 11
204.7414651507021
 21
418.8750781457022
 31
0.0
  0
LINE
  5
1EB
330
2
100
AcDbEntity
  8
0
100
AcDbLine
 10
204.7414651507021
 20
418.8750781457022
 30
0.0
 11
204.7414651507021
 21
417.4444474618033
 31
0.0
  0
LINE
  5
1EC
330
2
100
AcDbEntity
  8
0
100
AcDbLine
 10
204.7414651507021
 20
417.4444474618033
 30
0.0
 11
205.2690482133509
 21
417.4444474618033
 31
0.0
  0
LINE
  5
1ED
330
2
100
AcDbEntity
  8
0
100
AcDbLine
 10
205.2690482133509
 20
418.8750781457022
 30
0.0
 11
205.2690482133509
 21
417.4444474618033
 31
0.0
  0
LINE
  5
1EE
330
2
100
AcDbEntity
  8
0
100
AcDbLine
 10
205.2690482133509
 20
418.8750781457022
 30
0.0
 11
205.5184927204134
 21
418.8750781457022
 31
0.0
  0
LINE
  5
1EF
330
2
100
AcDbEntity
  8
0
100
AcDbLine
 10
205.5184927204134
 20
418.8750781457022
 30
0.0
 11
205.5184927204134
 21
417.4444474618033
 31
0.0
  0
LINE
  5
1F0
330
2
100
AcDbEntity
  8
0
100
AcDbLine
 10
205.5184927204134
 20
417.4444474618033
 30
0.0
 11
205.8437173155577
 21
417.4444474618033
 31
0.0
  0
LINE
  5
1F1
330
2
100
AcDbEntity
  8
0
100
AcDbLine
 10
205.8437173155577
 20
418.8750781457022
 30
0.0
 11
205.8437173155577
 21
417.4444474618033
 31
0.0
  0
LINE
  5
1F2
330
2
100
AcDbEntity
  8
0
100
AcDbLine
 10
205.8437173155577
 20
418.8750781457022
 30
0.0
 11
205.9706251503409
 21
418.8750781457022
 31
0.0
  0
LINE
  5
1F3
330
2
100
AcDbEntity
  8
0
100
AcDbLine
 10
205.9706251503409
 20
418.8750781457022
 30
0.0
 11
205.9706251503409
 21
417.4444474618033
 31
0.0
  0
LINE
  5
1F4
330
2
100
AcDbEntity
  8
0
100
AcDbLine
 10
205.9706251503409
 20
417.4444474618033
 30
0.0
 11
206.0792769671859
 21
417.4444474618033
 31
0.0
  0
LINE
  5
1F5
330
2
100
AcDbEntity
  8
0
100
AcDbLine
 10
206.0792769671859
 20
418.8750781457022
 30
0.0
 11
206.0792769671859
 21
417.4444474618033
 31
0.0
  0
LINE
  5
1F6
330
2
100
AcDbEntity
  8
0
100
AcDbLine
 10
206.0792769671859
 20
418.8750781457022
 30
0.0
 11
206.0846337018044
 21
418.8750781457022
 31
0.0
  0
LINE
  5
1F7
330
2
100
AcDbEntity
  8
0
100
AcDbLine
 10
190.089990142125
 20
418.8750781457022
 30
0.0
 11
190.089990142125
 21
417.4444474618033
 31
0.0
  0
LINE
  5
1F8
330
2
100
AcDbEntity
  8
0
100
AcDbLine
 10
190.0846341059984
 20
418.8750781457022
 30
0.0
 11
190.0911654712142
 21
418.8750781457022
 31
0.0
  0
LINE
  5
1F9
330
2
100
AcDbEntity
  8
0
100
AcDbLine
 10
190.0911654712142
 20
418.8750781457022
 30
0.0
 11
190.0911654712142
 21
417.4444474618033
 31
0.0
  0
LINE
  5
1FA
330
2
100
AcDbEntity
  8
0
100
AcDbLine
 10
190.0911654712142
 20
417.4444474618033
 30
0.0
 11
190.203835013646
 21
417.4444474618033
 31
0.0
  0
LINE
  5
1FB
330
2
100
AcDbEntity
  8
0
100
AcDbLine
 10
190.203835013646
 20
418.8750781457022
 30
0.0
 11
190.203835013646
 21
417.4444474618033
 31
0.0
  0
LINE
  5
1FC
330
2
100
AcDbEntity
  8
0
100
AcDbLine
 10
190.203835013646
 20
418.8750781457022
 30
0.0
 11
190.3330420510353
 21
418.8750781457022
 31
0.0
  0
LINE
  5
1FD
330
2
100
AcDbEntity
  8
0
100
AcDbLine
 10
190.3330420510353
 20
418.8750781457022
 30
0.0
 11
190.3330420510353
 21
417.4444474618033
 31
0.0
  0
LINE
  5
1FE
330
2
100
AcDbEntity
  8
0
100
AcDbLine
 10
190.3330420510353
 20
417.4444474618033
 30
0.0
 11
190.6621081189694
 21
417.4444474618033
 31
0.0
  0
LINE
  5
1FF
330
2
100
AcDbEntity
  8
0
100
AcDbLine
 10
190.6621081189694
 20
418.8750781457022
 30
0.0
 11
190.6621081189694
 21
417.4444474618033
 31
0.0
  0
LINE
  5
200
330
2
100
AcDbEntity
  8
0
100
AcDbLine
 10
190.6621081189694
 20
418.8750781457022
 30
0.0
 11
190.9136993245663
 21
418.8750781457022
 31
0.0
  0
LINE
  5
201
330
2
100
AcDbEntity
  8
0
100
AcDbLine
 10
190.9136993245663
 20
418.8750781457022
 30
0.0
 11
190.9136993245663
 21
417.4444474618033
 31
0.0
  0
LINE
  5
202
330
2
100
AcDbEntity
  8
0
100
AcDbLine
 10
190.9136993245663
 20
417.4444474618033
 30
0.0
 11
191.4447813661279
 21
417.4444474618033
 31
0.0
  0
LINE
  5
203
330
2
100
AcDbEntity
  8
0
100
AcDbLine
 10
191.4447813661279
 20
418.8750781457022
 30
0.0
 11
191.4447813661279
 21
417.4444474618033
 31
0.0
  0
LINE
  5
204
330
2
100
AcDbEntity
  8
0
100
AcDbLine
 10
191.4447813661279
 20
418.8750781457022
 30
0.0
 11
191.8077615456165
 21
418.8750781457022
 31
0.0
  0
LINE
  5
205
330
2
100
AcDbEntity
  8
0
100
AcDbLine
 10
191.8077615456165
 20
418.8750781457022
 30
0.0
 11
191.8077615456165
 21
417.4444474618033
 31
0.0
  0
LINE
  5
206
330
2
100
AcDbEntity
  8
0
100
AcDbLine
 10
191.8077615456165
 20
417.4444474618033
 30
0.0
 11
192.5176482082786
 21
417.4444474618033
 31
0.0
  0
LINE
  5
207
330
2
100
AcDbEntity
  8
0
100
AcDbLine
 10
192.5176482082786
 20
418.8750781457022
 30
0.0
 11
192.5176482082786
 21
417.4444474618033
 31
0.0
  0
LINE
  5
208
330
2
100
AcDbEntity
  8
0
100
AcDbLine
 10
192.5176482082786
 20
418.8750781457022
 30
0.0
 11
192.976153212923
 21
418.8750781457022
 31
0.0
  0
LINE
  5
209
330
2
100
AcDbEntity
  8
0
100
AcDbLine
 10
192.976153212923
 20
418.8750781457022
 30
0.0
 11
192.976153212923
 21
417.4444474618033
 31
0.0
  0
ARC
  5
20A
330
2
100
AcDbEntity
  8
0
100
AcDbCircle
 10
203.1217908163977
 20
430.2038304302142
 30
0.0
 40
0.8293771438496701
100
AcDbArc
 50
305.0671398888616
 51
312.2794768339633
  0
ARC
  5
20B
330
2
100
AcDbEntity
  8
0
100
AcDbCircle
 10
203.1217908163977
 20
430.2038304302142
 30
0.0
 40
0.8293771438496539
100
AcDbArc
 50
272.2220587955063
 51
280.2165531009213
  0
ARC
  5
20C
330
2
100
AcDbEntity
  8
0
100
AcDbCircle
 10
193.047476730832
 20
430.2038304302142
 30
0.0
 40
0.8293771438497735
100
AcDbArc
 50
228.6670920610393
 51
267.7779412044872
  0
LINE
  5
20D
330
2
100
AcDbEntity
  8
0
100
AcDbLine
 10
192.5846335844578
 20
429.3750770728186
 30
0.0
 11
192.5846335844578
 21
421.4750774542883
 31
0.0
  0
LINE
  5
20E
330
2
100
AcDbEntity
  8
0
100
AcDbLine
 10
203.5846337576838
 20
421.4750774542883
 30
0.0
 11
203.5846337576838
 21
429.3750770728186
 31
0.0
  0
ARC
  5
20F
330
2
100
AcDbEntity
  8
0
100
AcDbCircle
 10
191.9846337736148
 20
421.4750769256425
 30
0.0
 40
0.6000000000000228
100
AcDbArc
 50
270.0
 51
0.0
  0
ARC
  5
210
330
2
100
AcDbEntity
  8
0
100
AcDbCircle
 10
204.1846337736147
 20
421.4750769256425
 30
0.0
 40
0.5999999999999659
100
AcDbArc
 50
180.0
 51
270.0
  0
ARC
  5
211
330
2
100
AcDbEntity
  8
0
100
AcDbCircle
 10
198.0846337736148
 20
429.7876563463754
 30
0.0
 40
15.18995415716375
100
AcDbArc
 50
241.7114979917172
 51
298.2885020082842
  0
ARC
  5
212
330
2
100
AcDbEntity
  8
0
100
AcDbCircle
 10
191.5846337736148
 20
419.3750769256426
 30
0.0
 40
1.5
100
AcDbArc
 50
90.0
 51
180.0
  0
ARC
  5
213
330
2
100
AcDbEntity
  8
0
100
AcDbCircle
 10
204.5846337736148
 20
419.3750769256426
 30
0.0
 40
1.5
100
AcDbArc
 50
0.0
 51
90.0
  0
LINE
  5
214
330
2
100
AcDbEntity
  8
0
100
AcDbLine
 10
190.0846341059984
 20
419.3750717084006
 30
0.0
 11
190.0846341059984
 21
418.8750781457022
 31
0.0
  0
LINE
  5
215
330
2
100
AcDbEntity
  8
0
100
AcDbLine
 10
206.0846337018044
 20
418.8750781457022
 30
0.0
 11
206.0846337018044
 21
419.3750717084006
 31
0.0
  0
LINE
  5
216
330
2
100
AcDbEntity
  8
0
100
AcDbLine
 10
168.584633773615
 20
438.2721713225451
 30
0.0
 11
168.584633773615
 21
433.7721713225455
 31
0.0
  0
ARC
  5
217
330
2
100
AcDbEntity
  8
0
100
AcDbCircle
 10
171.5846337736151
 20
438.2721713225451
 30
0.0
 40
3.0
100
AcDbArc
 50
90.0
 51
180.0
  0
LINE
  5
218
330
2
100
AcDbEntity
  8
0
100
AcDbLine
 10
224.5846337736151
 20
441.2721713225451
 30
0.0
 11
171.5846337736151
 21
441.2721713225451
 31
0.0
  0
ARC
  5
219
330
2
100
AcDbEntity
  8
0
100
AcDbCircle
 10
224.5846337736151
 20
438.2721713225451
 30
0.0
 40
3.0
100
AcDbArc
 50
0.0
 51
90.0
  0
LINE
  5
21A
330
2
100
AcDbEntity
  8
0
100
AcDbLine
 10
227.5846337736151
 20
433.7721713225455
 30
0.0
 11
227.5846337736151
 21
438.2721713225451
 31
0.0
  0
LINE
  5
21B
330
2
100
AcDbEntity
  8
0
100
AcDbLine
 10
234.084633773615
 20
449.2721713225455
 30
0.0
 11
232.584633773615
 21
449.2721713225455
 31
0.0
  0
LINE
  5
21C
330
2
100
AcDbEntity
  8
0
100
AcDbLine
 10
234.0846337736151
 20
433.7721713225455
 30
0.0
 11
234.084633773615
 21
449.2721713225455
 31
0.0
  0
ARC
  5
21D
330
2
100
AcDbEntity
  8
0
100
AcDbCircle
 10
225.5846337736154
 20
598.3406013225439
 30
0.0
 40
3.0
100
AcDbArc
 50
90.0
 51
180.0
  0
LINE
  5
21E
330
2
100
AcDbEntity
  8
0
100
AcDbLine
 10
222.5846337736154
 20
574.3406013225439
 30
0.0
 11
222.5846337736154
 21
598.3406013225439
 31
0.0
  0
ARC
  5
21F
330
2
100
AcDbEntity
  8
0
100
AcDbCircle
 10
225.5846337736154
 20
574.3406013225439
 30
0.0
 40
3.0
100
AcDbArc
 50
180.0
 51
270.0
  0
LINE
  5
220
330
2
100
AcDbEntity
  8
0
100
AcDbLine
 10
234.0846337736153
 20
601.340601322544
 30
0.0
 11
225.5846337736154
 21
601.340601322544
 31
0.0
  0
LINE
  5
221
330
2
100
AcDbEntity
  8
0
100
AcDbLine
 10
234.0846337736154
 20
571.340601322544
 30
0.0
 11
234.0846337736154
 21
601.3406013225437
 31
0.0
  0
LINE
  5
222
330
2
100
AcDbEntity
  8
0
100
AcDbLine
 10
225.5846337736154
 20
571.3406013225443
 30
0.0
 11
234.0846337736153
 21
571.3406013225442
 31
0.0
  0
ARC
  5
223
330
2
100
AcDbEntity
  8
0
100
AcDbCircle
 10
170.5846337736154
 20
598.3406013225439
 30
0.0
 40
3.0
100
AcDbArc
 50
0.0
 51
90.0
  0
LINE
  5
224
330
2
100
AcDbEntity
  8
0
100
AcDbLine
 10
173.5846337736154
 20
574.3406013225439
 30
0.0
 11
173.5846337736154
 21
598.3406013225439
 31
0.0
  0
ARC
  5
225
330
2
100
AcDbEntity
  8
0
100
AcDbCircle
 10
170.5846337736154
 20
574.3406013225439
 30
0.0
 40
3.0
100
AcDbArc
 50
270.0
 51
0.0
  0
ARC
  5
226
330
2
100
AcDbEntity
  8
0
100
AcDbCircle
 10
229.5846337736154
 20
615.2721713225433
 30
0.0
 40
3.0
100
AcDbArc
 50
270.0
 51
0.0
  0
LINE
  5
227
330
2
100
AcDbEntity
  8
0
100
AcDbLine
 10
166.5846337736154
 20
612.2721713225432
 30
0.0
 11
229.5846337736154
 21
612.2721713225432
 31
0.0
  0
ARC
  5
228
330
2
100
AcDbEntity
  8
0
100
AcDbCircle
 10
166.5846337736154
 20
615.2721713225433
 30
0.0
 40
3.0
100
AcDbArc
 50
180.0
 51
270.0
  0
LINE
  5
229
330
2
100
AcDbEntity
  8
05-01
100
AcDbLine
 10
198.0846337736151
 20
437.056936862183
 30
0.0
 11
198.0846337736151
 21
412.6746067673896
 31
0.0
  0
LINE
  5
22A
330
2
100
AcDbEntity
  8
05-01
100
AcDbLine
 10
210.0846337736154
 20
510.4406013225441
 30
0.0
 11
210.0846337736152
 21
502.4406013225441
 31
0.0
  0
LINE
  5
22B
330
2
100
AcDbEntity
  8
05-01
100
AcDbLine
 10
219.0846337736154
 20
510.4406013225441
 30
0.0
 11
219.0846337736154
 21
502.4406013225441
 31
0.0
  0
LINE
  5
22C
330
2
100
AcDbEntity
  8
05-01
100
AcDbLine
 10
223.0846337736154
 20
506.4406013225441
 30
0.0
 11
206.0846337736154
 21
506.4406013225441
 31
0.0
  0
LINE
  5
22D
330
2
100
AcDbEntity
  8
05-01
100
AcDbLine
 10
177.5846337736154
 20
501.9406013225439
 30
0.0
 11
185.5846337736153
 21
501.9406013225436
 31
0.0
  0
LINE
  5
22E
330
2
100
AcDbEntity
  8
05-01
100
AcDbLine
 10
177.5846337736154
 20
510.9406013225439
 30
0.0
 11
185.5846337736153
 21
510.9406013225439
 31
0.0
  0
LINE
  5
22F
330
2
100
AcDbEntity
  8
05-01
100
AcDbLine
 10
181.5846337736154
 20
514.9406013225439
 30
0.0
 11
181.5846337736154
 21
497.9406013225439
 31
0.0
  0
LINE
  5
230
330
2
100
AcDbEntity
  8
03-01
100
AcDbLine
 10
219.0846337736154
 20
509.4406013225438
 30
0.0
 11
210.0846337736154
 21
509.4406013225438
 31
0.0
  0
ARC
  5
231
330
2
100
AcDbEntity
  8
03-01
100
AcDbCircle
 10
219.0846337736154
 20
506.4406013225439
 30
0.0
 40
3.0
100
AcDbArc
 50
270.0
 51
90.0
  0
LINE
  5
232
330
2
100
AcDbEntity
  8
03-01
100
AcDbLine
 10
210.0846337736154
 20
503.4406013225439
 30
0.0
 11
219.0846337736154
 21
503.4406013225439
 31
0.0
  0
ARC
  5
233
330
2
100
AcDbEntity
  8
03-01
100
AcDbCircle
 10
210.0846337736154
 20
506.4406013225439
 30
0.0
 40
3.0
100
AcDbArc
 50
90.0
 51
270.0
  0
LINE
  5
234
330
2
100
AcDbEntity
  8
03-01
100
AcDbLine
 10
178.5846337736154
 20
510.9406013225439
 30
0.0
 11
178.5846337736154
 21
501.9406013225439
 31
0.0
  0
ARC
  5
235
330
2
100
AcDbEntity
  8
03-01
100
AcDbCircle
 10
181.5846337736154
 20
510.9406013225439
 30
0.0
 40
3.0
100
AcDbArc
 50
0.0
 51
180.0
  0
LINE
  5
236
330
2
100
AcDbEntity
  8
03-01
100
AcDbLine
 10
184.5846337736154
 20
501.9406013225439
 30
0.0
 11
184.5846337736154
 21
510.9406013225439
 31
0.0
  0
ARC
  5
237
330
2
100
AcDbEntity
  8
03-01
100
AcDbCircle
 10
181.5846337736154
 20
501.9406013225439
 30
0.0
 40
3.0
100
AcDbArc
 50
180.0
 51
0.0
  0
LINE
  5
238
330
2
100
AcDbEntity
  8
0
100
AcDbLine
 10
232.5846337736154
 20
571.3406013225437
 30
0.0
 11
232.5846337736151
 21
435.2721713225456
 31
0.0
  0
LINE
  5
239
330
2
100
AcDbEntity
  8
0
100
AcDbLine
 10
232.5846337736154
 20
622.2721713225435
 30
0.0
 11
232.5846337736154
 21
601.3406013225437
 31
0.0
  0
LINE
  5
23A
330
2
100
AcDbEntity
  8
0
100
AcDbLine
 10
162.0846337736152
 20
449.2721713225455
 30
0.0
 11
163.5846337736152
 21
449.2721713225455
 31
0.0
  0
LINE
  5
23B
330
2
100
AcDbEntity
  8
0
100
AcDbLine
 10
162.0846337736151
 20
433.7721713225455
 30
0.0
 11
234.0846337736151
 21
433.7721713225455
 31
0.0
  0
LINE
  5
23C
330
2
100
AcDbEntity
  8
0
100
AcDbLine
 10
227.584633773615
 20
435.2721713225456
 30
0.0
 11
232.5846337736152
 21
435.2721713225456
 31
0.0
  0
LINE
  5
23D
330
2
100
AcDbEntity
  8
0
100
AcDbLine
 10
163.5846337736152
 20
435.2721713225456
 30
0.0
 11
168.5846337736149
 21
435.2721713225456
 31
0.0
  0
LINE
  5
23E
330
2
100
AcDbEntity
  8
0
100
AcDbLine
 10
163.5846337736153
 20
622.2721713225434
 30
0.0
 11
232.5846337736154
 21
622.2721713225435
 31
0.0
  0
LINE
  5
23F
330
2
100
AcDbEntity
  8
0
100
AcDbLine
 10
163.5846337736153
 20
601.340601322544
 30
0.0
 11
163.5846337736153
 21
622.2721713225434
 31
0.0
  0
LINE
  5
240
330
2
100
AcDbEntity
  8
0
100
AcDbLine
 10
162.0846337736155
 20
601.340601322544
 30
0.0
 11
170.5846337736154
 21
601.340601322544
 31
0.0
  0
LINE
  5
241
330
2
100
AcDbEntity
  8
0
100
AcDbLine
 10
162.0846337736154
 20
571.340601322544
 30
0.0
 11
162.0846337736154
 21
601.3406013225437
 31
0.0
  0
LINE
  5
242
330
2
100
AcDbEntity
  8
0
100
AcDbLine
 10
170.5846337736154
 20
571.3406013225443
 30
0.0
 11
162.0846337736155
 21
571.3406013225442
 31
0.0
  0
LINE
  5
243
330
2
100
AcDbEntity
  8
0
100
AcDbLine
 10
162.0846337736151
 20
433.7721713225455
 30
0.0
 11
162.0846337736152
 21
449.2721713225455
 31
0.0
  0
LINE
  5
244
330
2
100
AcDbEntity
  8
0
100
AcDbLine
 10
163.5846337736151
 20
435.2721713225456
 30
0.0
 11
163.5846337736154
 21
571.3406013225442
 31
0.0
  0
LINE
  5
245
330
2
100
AcDbEntity
  8
05-01
100
AcDbLine
 10
307.166165242573
 20
437.056936862183
 30
0.0
 11
307.166165242573
 21
412.6746067673896
 31
0.0
  0
INSERT
  5
246
330
2
100
AcDbEntity
  8
0
100
AcDbBlockReference
 66
     1
  2
DIN A4
 10
-0.0000187805887464
 20
0.0000050322435641
 30
0.0
 41
2.5
 42
2.5
 43
2.5
  0
ATTRIB
  5
2BA
330
246
100
AcDbEntity
  8
06-99
100
AcDbText
 10
291.2386168479429
 20
65.46959674320532
 30
0.0
 40
10.0
  1
Seifenschaumspender
 41
0.9
  7
ROMANS8
100
AcDbAttribute
280
     0
  2
TEILE
 70
     0
280
     0
  0
ATTRIB
  5
2BB
330
246
100
AcDbEntity
  8
06-99
100
AcDbText
 10
291.2386168479429
 20
48.23869624749079
 30
0.0
 40
10.0
  1
hinter Spiegel WP 174-5
 41
0.9
  7
ROMANS8
100
AcDbAttribute
280
     0
  2
TEILE2
 70
     0
280
     0
  0
ATTRIB
  5
2BC
330
246
100
AcDbEntity
  8
06-99
100
AcDbText
 10
478.3684655292865
 20
113.3333333333331
 30
0.0
 40
8.4375
  1
1:2
  7
ROMANS8
100
AcDbAttribute
280
     0
  2
:
 70
     0
280
     0
  0
ATTRIB
  5
2BD
330
246
100
AcDbEntity
  8
06-99
100
AcDbText
 10
232.4926694984185
 20
68.60421367007802
 30
0.0
 40
6.25
  1
Pfrepper
 41
0.9
  7
ROMANS8
100
AcDbAttribute
280
     0
  2
NAME
 70
     0
280
     0
  0
ATTRIB
  5
2BE
330
246
100
AcDbEntity
  8
06-99
100
AcDbText
 10
198.7328661297351
 20
68.65308793527788
 30
0.0
 40
6.25
  1
13.05.2011
 50
359.9144597696142
 41
0.6017290885394293
  7
ROMANS8
 72
     5
 11
226.849342801097
 21
68.61111116666648
 31
0.0
100
AcDbAttribute
280
     0
  2
DATUM
 70
     0
280
     0
  0
ATTRIB
  5
2BF
330
246
100
AcDbEntity
  8
06-99
100
AcDbText
 10
446.2658599178957
 20
18.73224950072156
 30
0.0
 40
7.4844
  1
727048
  7
ROMANS8
100
AcDbAttribute
280
     0
  2
ID.NR
 70
     0
280
     0
  0
ATTRIB
  5
2C0
330
246
100
AcDbEntity
  8
06-99
100
AcDbText
 10
291.8281656392764
 20
94.16666661111094
 30
0.0
 40
7.5
  1

 41
0.9
  7
ROMANS8
100
AcDbAttribute
280
     0
  2
LÄNGE
 70
     0
280
     0
  0
ATTRIB
  5
2C1
330
246
100
AcDbEntity
  8
06-99
100
AcDbText
 10
375.4520122794243
 20
94.19525967611185
 30
0.0
 40
7.5
  1

 41
0.9
  7
ROMANS8
100
AcDbAttribute
280
     0
  2
BREITE
 70
     0
280
     0
  0
ATTRIB
  5
2C2
330
246
100
AcDbEntity
  8
06-99
100
AcDbText
 10
476.5227303168297
 20
94.16666666666671
 30
0.0
 40
7.734375000000001
  1

  7
ROMANS8
100
AcDbAttribute
280
     0
  2
1.0
 70
     0
280
     0
  0
ATTRIB
  5
2C3
330
246
100
AcDbEntity
  8
06-99
100
AcDbText
 10
410.3194640035066
 20
113.3333333333334
 30
0.0
 40
7.5
  1

  7
ROMANS8
 72
     1
 11
410.3194640035066
 21
113.3333333333334
 31
0.0
100
AcDbAttribute
280
     0
  2
IV
 70
     0
280
     0
  0
ATTRIB
  5
2C4
330
246
100
AcDbEntity
  8
06-99
100
AcDbText
 10
308.1868513402897
 20
113.3333333333331
 30
0.0
 40
8.4375
  1
1.4301
  7
ROMANS8
100
AcDbAttribute
280
     0
  2
1.4301
 70
     0
280
     0
  0
ATTRIB
  5
2C5
330
246
100
AcDbEntity
  8
06-99
100
AcDbText
 10
365.0015847172002
 20
18.76099151088638
 30
0.0
 40
7.919999999999999
  1

 41
0.9000000000000001
  7
ROMANS8
100
AcDbAttribute
280
     0
  2
AUFTRAGS.NR.
 70
     0
280
     0
  0
ATTRIB
  5
2C6
330
246
100
AcDbEntity
  8
06-99
100
AcDbText
 10
291.25
 20
18.74999999999985
 30
0.0
 40
7.919999999999999
  1

 41
0.9000000000000001
  7
ROMANS8
100
AcDbAttribute
280
     0
  2
SONDER-NR
 70
     0
280
     0
  0
ATTRIB
  5
2C7
330
246
100
AcDbEntity
  8
06-99
100
AcDbText
 10
116.2493774875207
 20
16.50452517314946
 30
0.0
 40
3.75
  1

 41
0.9
  7
ROMANS8
100
AcDbAttribute
280
     0
  2
ERSETZT.DURCH
 70
     0
280
     0
  0
ATTRIB
  5
2C8
330
246
100
AcDbEntity
  8
06-99
100
AcDbText
 10
53.74866945049632
 20
16.49364099468087
 30
0.0
 40
3.75
  1

 41
0.9
  7
ROMANS8
100
AcDbAttribute
280
     0
  2
ERSETZT.FÜR
 70
     0
280
     0
  0
ATTRIB
  5
2C9
330
246
100
AcDbEntity
  8
06-99
100
AcDbText
 10
249.9326816160939
 20
119.1712778500198
 30
0.0
 40
3.2175
  1
DIN A4
  7
ROMANS8
 72
     1
 11
258.1296459018082
 21
119.1712778500198
 31
0.0
100
AcDbAttribute
280
     0
  2
FORMAT
 70
     0
280
     0
  0
ATTRIB
  5
2CA
330
246
100
AcDbEntity
  8
06-99
100
AcDbText
 10
239.9685974935157
 20
92.99241833466169
 30
0.0
 40
5.85
  1
DIN 2768
  7
ROMANS8
 72
     1
 11
260.0257403506585
 21
92.99241833466169
 31
0.0
100
AcDbAttribute
280
     0
  2
NORM2
 70
     0
280
     0
  0
ATTRIB
  5
2CB
330
246
100
AcDbEntity
  8
06-99
100
AcDbText
 10
258.7721689220871
 20
102.5757516679949
 30
0.0
 40
5.85
  1

  7
ROMANS8
 72
     1
 11
258.7721689220871
 21
102.5757516679949
 31
0.0
100
AcDbAttribute
280
     0
  2
NORM1
 70
     0
280
     0
  0
SEQEND
  5
2CC
330
246
100
AcDbEntity
  8
0
  0
ARC
  5
2CD
330
2
100
AcDbEntity
  8
03-01
100
AcDbCircle
 10
198.0846337736156
 20
482.8765343760849
 30
0.0
 40
27.2
100
AcDbArc
 50
312.6543632413119
 51
313.1431545034768
  0
ARC
  5
2CE
330
2
100
AcDbEntity
  8
03-01
100
AcDbCircle
 10
198.0846337736156
 20
482.8765343760849
 30
0.0
 40
27.2
100
AcDbArc
 50
240.4852859423423
 51
299.5147140576577
  0
ARC
  5
2CF
330
2
100
AcDbEntity
  8
03-01
100
AcDbCircle
 10
198.0846337736156
 20
482.8765343760849
 30
0.0
 40
27.2
100
AcDbArc
 50
226.8568454965231
 51
227.3456367586869
  0
ARC
  5
2D0
330
2
100
AcDbEntity
  8
03-01
100
AcDbCircle
 10
198.0846337736156
 20
482.8765343760849
 30
0.0
 40
27.2
100
AcDbArc
 50
20.88278175087946
 51
159.1172182491205
  0
ARC
  5
2D1
330
2
100
AcDbEntity
  8
0
100
AcDbCircle
 10
198.0846337736156
 20
482.8765343760849
 30
0.0
 40
27.2
100
AcDbArc
 50
313.1431545034768
 51
20.88278175087946
  0
ARC
  5
2D2
330
2
100
AcDbEntity
  8
0
100
AcDbCircle
 10
198.0846337736156
 20
482.8765343760849
 30
0.0
 40
27.2
100
AcDbArc
 50
299.5147140576577
 51
312.6543632413119
  0
ARC
  5
2D3
330
2
100
AcDbEntity
  8
0
100
AcDbCircle
 10
198.0846337736156
 20
482.8765343760849
 30
0.0
 40
27.2
100
AcDbArc
 50
227.3456367586869
 51
240.4852859423423
  0
ARC
  5
2D4
330
2
100
AcDbEntity
  8
0
100
AcDbCircle
 10
198.0846337736156
 20
482.8765343760849
 30
0.0
 40
27.2
100
AcDbArc
 50
159.1172182491205
 51
226.8568454965231
  0
LINE
  5
2D5
330
2
100
AcDbEntity
  8
0
100
AcDbLine
 10
205.3346337736157
 20
549.4721713211772
 30
0.0
 11
207.0846337736156
 21
540.9721713211772
 31
0.0
  0
LINE
  5
2D6
330
2
100
AcDbEntity
  8
0
100
AcDbLine
 10
190.8346337736156
 20
549.4721713211772
 30
0.0
 11
205.3346337736157
 21
549.4721713211772
 31
0.0
  0
LINE
  5
2D7
330
2
100
AcDbEntity
  8
0
100
AcDbLine
 10
189.0846337736156
 20
540.9721713211772
 30
0.0
 11
190.8346337736156
 21
549.4721713211772
 31
0.0
  0
LINE
  5
2D8
330
2
100
AcDbEntity
  8
0
100
AcDbLine
 10
212.0846337736157
 20
453.0819568919729
 30
0.0
 11
212.0846337736157
 21
443.0819568919729
 31
0.0
  0
LINE
  5
2D9
330
2
100
AcDbEntity
  8
0
100
AcDbLine
 10
211.4846337736157
 20
453.0819568919729
 30
0.0
 11
212.0846337736157
 21
453.0819568919729
 31
0.0
  0
LINE
  5
2DA
330
2
100
AcDbEntity
  8
0
100
AcDbLine
 10
184.0846337736156
 20
453.0819568919729
 30
0.0
 11
184.6846337736155
 21
453.0819568919729
 31
0.0
  0
LINE
  5
2DB
330
2
100
AcDbEntity
  8
0
100
AcDbLine
 10
184.0846337736156
 20
443.0819568919729
 30
0.0
 11
184.0846337736156
 21
453.0819568919729
 31
0.0
  0
LINE
  5
2DC
330
2
100
AcDbEntity
  8
0
100
AcDbLine
 10
210.2346337736157
 20
444.9721713211772
 30
0.0
 11
210.2346337736157
 21
440.5819568919729
 31
0.0
  0
LINE
  5
2DD
330
2
100
AcDbEntity
  8
0
100
AcDbLine
 10
185.9346337736158
 20
444.9721713211772
 30
0.0
 11
185.9346337736158
 21
440.5819568919729
 31
0.0
  0
LINE
  5
2DE
330
2
100
AcDbEntity
  8
0
100
AcDbLine
 10
202.3846337736158
 20
432.881956891973
 30
0.0
 11
215.6346337736158
 21
432.881956891973
 31
0.0
  0
LINE
  5
2DF
330
2
100
AcDbEntity
  8
0
100
AcDbLine
 10
210.2346337736157
 20
440.5819568919729
 30
0.0
 11
223.3346337736156
 21
440.5819568919729
 31
0.0
  0
LINE
  5
2E0
330
2
100
AcDbEntity
  8
0
100
AcDbLine
 10
180.5346337736157
 20
432.881956891973
 30
0.0
 11
210.2346337736157
 21
432.881956891973
 31
0.0
  0
LINE
  5
2E1
330
2
100
AcDbEntity
  8
0
100
AcDbLine
 10
172.8346337736156
 20
440.5819568919729
 30
0.0
 11
185.9346337736158
 21
440.5819568919729
 31
0.0
  0
ARC
  5
2E2
330
2
100
AcDbEntity
  8
0
100
AcDbCircle
 10
198.0846337736156
 20
417.7323503500331
 30
0.0
 40
17.54999999999994
100
AcDbArc
 50
180.0
 51
0.0
  0
ARC
  5
2E3
330
2
100
AcDbEntity
  8
0
100
AcDbCircle
 10
198.0846337736156
 20
417.7323503500331
 30
0.0
 40
25.24999999999995
100
AcDbArc
 50
180.0
 51
0.0
  0
LINE
  5
2E4
330
2
100
AcDbEntity
  8
0
100
AcDbLine
 10
215.6346337736158
 20
432.881956891973
 30
0.0
 11
215.6346337736158
 21
417.7323503500331
 31
0.0
  0
LINE
  5
2E5
330
2
100
AcDbEntity
  8
0
100
AcDbLine
 10
223.3346337736156
 20
440.5819568919729
 30
0.0
 11
223.3346337736156
 21
417.7323503500331
 31
0.0
  0
LINE
  5
2E6
330
2
100
AcDbEntity
  8
0
100
AcDbLine
 10
180.5346337736157
 20
432.881956891973
 30
0.0
 11
180.5346337736157
 21
417.7323503500332
 31
0.0
  0
LINE
  5
2E7
330
2
100
AcDbEntity
  8
0
100
AcDbLine
 10
172.8346337736156
 20
440.5819568919729
 30
0.0
 11
172.8346337736156
 21
417.7323503500332
 31
0.0
  0
LINE
  5
2E8
330
2
100
AcDbEntity
  8
0
100
AcDbLine
 10
169.3346337736156
 20
513.7721713211772
 30
0.0
 11
169.3346337736156
 21
443.0819568919729
 31
0.0
  0
ARC
  5
2E9
330
2
100
AcDbEntity
  8
0
100
AcDbCircle
 10
176.3346337736156
 20
513.7721713211772
 30
0.0
 40
7.0
100
AcDbArc
 50
125.3501271405397
 51
180.0
  0
ARC
  5
2EA
330
2
100
AcDbEntity
  8
0
100
AcDbCircle
 10
219.8346337736157
 20
513.7721713211772
 30
0.0
 40
7.0
100
AcDbArc
 50
0.0
 51
54.64987285946025
  0
LINE
  5
2EB
330
2
100
AcDbEntity
  8
0
100
AcDbLine
 10
226.8346337736157
 20
443.0819568919729
 30
0.0
 11
226.8346337736157
 21
513.7721713211772
 31
0.0
  0
LINE
  5
2EC
330
2
100
AcDbEntity
  8
0
100
AcDbLine
 10
212.0846337736157
 20
443.0819568919729
 30
0.0
 11
226.8346337736157
 21
443.0819568919729
 31
0.0
  0
LINE
  5
2ED
330
2
100
AcDbEntity
  8
0
100
AcDbLine
 10
169.3346337736156
 20
443.0819568919729
 30
0.0
 11
184.0846337736156
 21
443.0819568919729
 31
0.0
  0
LINE
  5
2EE
330
2
100
AcDbEntity
  8
0
100
AcDbLine
 10
202.3846337736158
 20
438.3721713211772
 30
0.0
 11
193.7846337736159
 21
438.3721713211772
 31
0.0
  0
LINE
  5
2EF
330
2
100
AcDbEntity
  8
0
100
AcDbLine
 10
202.3846337736158
 20
462.8721713211772
 30
0.0
 11
202.3846337736158
 21
438.3721713211772
 31
0.0
  0
LINE
  5
2F0
330
2
100
AcDbEntity
  8
0
100
AcDbLine
 10
193.7846337736157
 20
462.8721713211772
 30
0.0
 11
193.7846337736157
 21
438.3721713211772
 31
0.0
  0
LINE
  5
2F1
330
2
100
AcDbEntity
  8
0
100
AcDbLine
 10
202.3846337736158
 20
444.9721713211772
 30
0.0
 11
211.4846337736157
 21
444.9721713211772
 31
0.0
  0
LINE
  5
2F2
330
2
100
AcDbEntity
  8
0
100
AcDbLine
 10
184.6846337736158
 20
444.9721713211772
 30
0.0
 11
193.7846337736157
 21
444.9721713211772
 31
0.0
  0
LINE
  5
2F3
330
2
100
AcDbEntity
  8
0
100
AcDbLine
 10
211.4846337736157
 20
462.8721713211772
 30
0.0
 11
211.4846337736157
 21
444.9721713211772
 31
0.0
  0
LINE
  5
2F4
330
2
100
AcDbEntity
  8
0
100
AcDbLine
 10
184.6846337736158
 20
462.8721713211772
 30
0.0
 11
184.6846337736155
 21
444.9721713211772
 31
0.0
  0
LINE
  5
2F5
330
2
100
AcDbEntity
  8
0
100
AcDbLine
 10
202.3846337736158
 20
462.8721713211772
 30
0.0
 11
216.6846337736158
 21
462.8721713211772
 31
0.0
  0
LINE
  5
2F6
330
2
100
AcDbEntity
  8
0
100
AcDbLine
 10
179.4846337736157
 20
462.8721713211772
 30
0.0
 11
193.7846337736157
 21
462.8721713211772
 31
0.0
  0
LINE
  5
2F7
330
2
100
AcDbEntity
  8
0
100
AcDbLine
 10
204.1346337736158
 20
492.5721713211772
 30
0.0
 11
223.8846337736158
 21
492.5721713211773
 31
0.0
  0
LINE
  5
2F8
330
2
100
AcDbEntity
  8
0
100
AcDbLine
 10
172.2846337736157
 20
492.5721713211772
 30
0.0
 11
192.0346337736157
 21
492.5721713211772
 31
0.0
  0
LINE
  5
2F9
330
2
100
AcDbEntity
  8
0
100
AcDbLine
 10
216.6846337736158
 20
475.5721713211772
 30
0.0
 11
216.6846337736158
 21
462.8721713211772
 31
0.0
  0
LINE
  5
2FA
330
2
100
AcDbEntity
  8
0
100
AcDbLine
 10
204.1346337736158
 20
475.5721713211772
 30
0.0
 11
216.6846337736158
 21
475.5721713211772
 31
0.0
  0
LINE
  5
2FB
330
2
100
AcDbEntity
  8
0
100
AcDbLine
 10
179.4846337736157
 20
475.5721713211772
 30
0.0
 11
179.4846337736157
 21
462.8721713211772
 31
0.0
  0
LINE
  5
2FC
330
2
100
AcDbEntity
  8
0
100
AcDbLine
 10
192.0346337736157
 20
475.5721713211772
 30
0.0
 11
179.4846337736157
 21
475.5721713211772
 31
0.0
  0
LINE
  5
2FD
330
2
100
AcDbEntity
  8
0
100
AcDbLine
 10
228.1846337736158
 20
532.0721713211773
 30
0.0
 11
223.8846337736158
 21
532.0721713211773
 31
0.0
  0
LINE
  5
2FE
330
2
100
AcDbEntity
  8
0
100
AcDbLine
 10
167.9846337736157
 20
532.0721713211773
 30
0.0
 11
172.2846337736159
 21
532.0721713211773
 31
0.0
  0
LINE
  5
2FF
330
2
100
AcDbEntity
  8
0
100
AcDbLine
 10
167.9846337736157
 20
540.9721713211772
 30
0.0
 11
228.1846337736158
 21
540.9721713211772
 31
0.0
  0
LINE
  5
300
330
2
100
AcDbEntity
  8
0
100
AcDbLine
 10
204.1346337736158
 20
492.5721713211772
 30
0.0
 11
204.1346337736158
 21
475.5721713211772
 31
0.0
  0
LINE
  5
301
330
2
100
AcDbEntity
  8
0
100
AcDbLine
 10
223.8846337736158
 20
531.7678082662696
 30
0.0
 11
223.8846337736158
 21
492.5721713211772
 31
0.0
  0
LINE
  5
302
330
2
100
AcDbEntity
  8
0
100
AcDbLine
 10
228.1846337736158
 20
540.9721713211772
 30
0.0
 11
228.1846337736158
 21
532.0721713211773
 31
0.0
  0
LINE
  5
303
330
2
100
AcDbEntity
  8
0
100
AcDbLine
 10
192.0346337736157
 20
492.5721713211772
 30
0.0
 11
192.0346337736157
 21
475.5721713211772
 31
0.0
  0
LINE
  5
304
330
2
100
AcDbEntity
  8
0
100
AcDbLine
 10
172.2846337736159
 20
531.7678082662696
 30
0.0
 11
172.2846337736157
 21
492.5721713211772
 31
0.0
  0
LINE
  5
305
330
2
100
AcDbEntity
  8
0
100
AcDbLine
 10
167.9846337736157
 20
540.9721713211772
 30
0.0
 11
167.9846337736157
 21
532.0721713211773
 31
0.0
  0
LINE
  5
306
330
2
100
AcDbEntity
  8
0
100
AcDbLine
 10
222.6846337744648
 20
434.7721712816234
 30
0.0
 11
222.6846337739603
 21
440.7721712813112
 31
0.0
  0
LINE
  5
307
330
2
100
AcDbEntity
  8
0
100
AcDbLine
 10
225.6846337739605
 20
440.7721712820318
 30
0.0
 11
222.6846337739603
 21
440.7721712813112
 31
0.0
  0
ARC
  5
308
330
2
100
AcDbEntity
  8
0
100
AcDbCircle
 10
224.6846337744648
 20
434.7721712817916
 30
0.0
 40
2.0
100
AcDbArc
 50
180.0000000048169
 51
270.0000000137571
  0
ARC
  5
309
330
2
100
AcDbEntity
  8
0
100
AcDbCircle
 10
229.1846337736224
 20
464.2721713198424
 30
0.0
 40
0.5
100
AcDbArc
 50
90.0
 51
180.0
  0
LINE
  5
30A
330
2
100
AcDbEntity
  8
0
100
AcDbLine
 10
229.1846337736224
 20
464.7721713198424
 30
0.0
 11
230.1846337736224
 21
464.7721713198426
 31
0.0
  0
ARC
  5
30B
330
2
100
AcDbEntity
  8
0
100
AcDbCircle
 10
230.1846337736224
 20
461.7721713198424
 30
0.0
 40
3.000000000000013
100
AcDbArc
 50
53.13010235423477
 51
90.0
  0
LINE
  5
30C
330
2
100
AcDbEntity
  8
0
100
AcDbLine
 10
227.6846337722462
 20
516.7721711536775
 30
0.0
 11
231.9846337727957
 21
516.772171154855
 31
0.0
  0
ARC
  5
30D
330
2
100
AcDbEntity
  8
0
100
AcDbCircle
 10
227.6846337727962
 20
514.7721711536773
 30
0.0
 40
2.0
100
AcDbArc
 50
90.00000001573729
 51
180.000000000013
  0
LINE
  5
30E
330
2
100
AcDbEntity
  8
0
100
AcDbLine
 10
225.6846337736204
 20
486.2721713077235
 30
0.0
 11
225.6846337727962
 21
514.7721711536773
 31
0.0
  0
LINE
  5
30F
330
2
100
AcDbEntity
  8
0
100
AcDbLine
 10
225.6846337736242
 20
446.2721713198422
 30
0.0
 11
225.6846337736205
 21
484.7721713077234
 31
0.0
  0
ARC
  5
310
330
2
100
AcDbEntity
  8
0
100
AcDbCircle
 10
226.1846337736233
 20
446.2721713198424
 30
0.0
 40
0.5
100
AcDbArc
 50
180.000000000013
 51
270.0
  0
LINE
  5
311
330
2
100
AcDbEntity
  8
0
100
AcDbLine
 10
228.1846337736233
 20
445.7721713198424
 30
0.0
 11
226.1846337736233
 21
445.7721713198424
 31
0.0
  0
ARC
  5
312
330
2
100
AcDbEntity
  8
0
100
AcDbCircle
 10
228.1846337736233
 20
446.2721713198424
 30
0.0
 40
0.5
100
AcDbArc
 50
270.0
 51
0.0000000000130276
  0
LINE
  5
313
330
2
100
AcDbEntity
  8
0
100
AcDbLine
 10
228.6846337736224
 20
464.2721713198424
 30
0.0
 11
228.6846337736242
 21
446.2721713198424
 31
0.0
  0
LINE
  5
314
330
2
100
AcDbEntity
  8
0
100
AcDbLine
 10
231.9846337736196
 20
444.7721713220635
 30
0.0
 11
225.6846337736242
 21
444.7721713198421
 31
0.0
  0
LINE
  5
315
330
2
100
AcDbEntity
  8
0
100
AcDbLine
 10
225.6846337739605
 20
440.7721712820318
 30
0.0
 11
225.6846337736242
 21
444.7721713198421
 31
0.0
  0
LINE
  5
316
330
2
100
AcDbEntity
  8
0
100
AcDbLine
 10
231.9846337736201
 20
432.7721712835454
 30
0.0
 11
224.6846337749452
 21
432.7721712817917
 31
0.0
  0
LINE
  5
317
330
2
100
AcDbEntity
  8
0
100
AcDbLine
 10
231.9846337727957
 20
518.272171297408
 30
0.0
 11
230.4846337727955
 21
518.272171297408
 31
0.0
  0
LINE
  5
318
330
2
100
AcDbEntity
  8
03-01
100
AcDbLine
 10
231.9846337727948
 20
539.2721712974082
 30
0.0
 11
230.4846337727948
 21
539.2721712974082
 31
0.0
  0
LINE
  5
319
330
2
100
AcDbEntity
  8
0
100
AcDbLine
 10
230.0846337736159
 20
559.9721713225433
 30
0.0
 11
230.0846337736159
 21
560.2721713225433
 31
0.0
  0
LINE
  5
31A
330
2
100
AcDbEntity
  8
0
100
AcDbLine
 10
230.4846337736158
 20
559.9721713225433
 30
0.0
 11
230.0846337736159
 21
559.9721713225433
 31
0.0
  0
LINE
  5
31B
330
2
100
AcDbEntity
  8
0
100
AcDbLine
 10
231.5846337736159
 20
560.2721713225433
 30
0.0
 11
230.0846337736159
 21
560.2721713225433
 31
0.0
  0
LINE
  5
31C
330
2
100
AcDbEntity
  8
0
100
AcDbLine
 10
230.4846337736158
 20
559.9721713225433
 30
0.0
 11
230.4846337727943
 21
553.2721712974093
 31
0.0
  0
LINE
  5
31D
330
2
100
AcDbEntity
  8
0
100
AcDbLine
 10
230.4846337727943
 20
553.2721712974093
 30
0.0
 11
231.9846337727943
 21
553.2721712974092
 31
0.0
  0
LINE
  5
31E
330
2
100
AcDbEntity
  8
0
100
AcDbLine
 10
231.5846337736158
 20
571.3406013225442
 30
0.0
 11
231.5846337736159
 21
560.2721713225433
 31
0.0
  0
LINE
  5
31F
330
2
100
AcDbEntity
  8
0
100
AcDbLine
 10
231.9846337736201
 20
432.7721712835454
 30
0.0
 11
231.9846337727943
 21
553.2721712974092
 31
0.0
  0
LINE
  5
320
330
2
100
AcDbEntity
  8
0
100
AcDbLine
 10
230.4846337727957
 20
516.7721711544442
 30
0.0
 11
230.4846337727943
 21
553.2721712974098
 31
0.0
  0
LINE
  5
321
330
2
100
AcDbEntity
  8
0
100
AcDbLine
 10
230.4846337736196
 20
444.7721713215346
 30
0.0
 11
230.4846337736189
 21
464.7571336311626
 31
0.0
  0
ARC
  5
322
330
2
100
AcDbEntity
  8
0
100
AcDbCircle
 10
198.0855276123067
 20
452.4757276045114
 30
0.0
 40
2.35
100
AcDbArc
 50
0.0
 51
180.0
  0
LINE
  5
323
330
2
100
AcDbEntity
  8
0
100
AcDbLine
 10
228.6846337736237
 20
450.9757276045288
 30
0.0
 11
230.4846337736166
 21
450.9757276045288
 31
0.0
  0
LINE
  5
324
330
2
100
AcDbEntity
  8
0
100
AcDbLine
 10
200.4355276123067
 20
450.9757276045288
 30
0.0
 11
225.6846337736237
 21
450.9757276045288
 31
0.0
  0
LINE
  5
325
330
2
100
AcDbEntity
  8
0
100
AcDbLine
 10
170.4846337736075
 20
450.9757276045288
 30
0.0
 11
195.7355276123069
 21
450.9757276045288
 31
0.0
  0
LINE
  5
326
330
2
100
AcDbEntity
  8
0
100
AcDbLine
 10
165.6846337736117
 20
450.9757276045288
 30
0.0
 11
167.4846337736073
 21
450.9757276045288
 31
0.0
  0
ARC
  5
327
330
2
100
AcDbEntity
  8
0
100
AcDbCircle
 10
166.9846337736089
 20
464.2721713198424
 30
0.0
 40
0.5
100
AcDbArc
 50
0.0
 51
90.0
  0
LINE
  5
328
330
2
100
AcDbEntity
  8
0
100
AcDbLine
 10
166.9846337736089
 20
464.7721713198424
 30
0.0
 11
165.9846337736089
 21
464.7721713198426
 31
0.0
  0
ARC
  5
329
330
2
100
AcDbEntity
  8
0
100
AcDbCircle
 10
165.9846337736089
 20
461.7721713198424
 30
0.0
 40
3.000000000000013
100
AcDbArc
 50
90.0
 51
126.8698976457632
  0
LINE
  5
32A
330
2
100
AcDbEntity
  8
0
100
AcDbLine
 10
168.4846337733423
 20
516.7721711536775
 30
0.0
 11
164.1846337727928
 21
516.772171154855
 31
0.0
  0
ARC
  5
32B
330
2
100
AcDbEntity
  8
0
100
AcDbCircle
 10
168.4846337727923
 20
514.7721711536773
 30
0.0
 40
2.0
100
AcDbArc
 50
359.999999999987
 51
89.99999998426272
  0
LINE
  5
32C
330
2
100
AcDbEntity
  8
0
100
AcDbLine
 10
170.4846337736109
 20
486.2721713077235
 30
0.0
 11
170.4846337727923
 21
514.7721711536773
 31
0.0
  0
LINE
  5
32D
330
2
100
AcDbEntity
  8
0
100
AcDbLine
 10
170.4846337736071
 20
446.2721713198422
 30
0.0
 11
170.4846337736108
 21
484.7721713077235
 31
0.0
  0
ARC
  5
32E
330
2
100
AcDbEntity
  8
0
100
AcDbCircle
 10
169.984633773608
 20
446.2721713198424
 30
0.0
 40
0.5
100
AcDbArc
 50
269.9999999999935
 51
359.999999999987
  0
LINE
  5
32F
330
2
100
AcDbEntity
  8
0
100
AcDbLine
 10
167.984633773608
 20
445.7721713198424
 30
0.0
 11
169.984633773608
 21
445.7721713198424
 31
0.0
  0
ARC
  5
330
330
2
100
AcDbEntity
  8
0
100
AcDbCircle
 10
167.984633773608
 20
446.2721713198424
 30
0.0
 40
0.5
100
AcDbArc
 50
179.999999999987
 51
269.9999999999935
  0
LINE
  5
331
330
2
100
AcDbEntity
  8
0
100
AcDbLine
 10
167.4846337736089
 20
464.2721713198424
 30
0.0
 11
167.4846337736071
 21
446.2721713198424
 31
0.0
  0
LINE
  5
332
330
2
100
AcDbEntity
  8
0
100
AcDbLine
 10
164.1846337736117
 20
444.7721713220635
 30
0.0
 11
170.4846337736071
 21
444.7721713198421
 31
0.0
  0
LINE
  5
333
330
2
100
AcDbEntity
  8
0
100
AcDbLine
 10
173.4846337727665
 20
434.7721712816234
 30
0.0
 11
173.484633773271
 21
440.7721712813112
 31
0.0
  0
LINE
  5
334
330
2
100
AcDbEntity
  8
0
100
AcDbLine
 10
170.4846337732708
 20
440.7721712820318
 30
0.0
 11
170.4846337736071
 21
444.7721713198421
 31
0.0
  0
LINE
  5
335
330
2
100
AcDbEntity
  8
0
100
AcDbLine
 10
170.4846337732708
 20
440.7721712820318
 30
0.0
 11
173.484633773271
 21
440.7721712813112
 31
0.0
  0
ARC
  5
336
330
2
100
AcDbEntity
  8
0
100
AcDbCircle
 10
171.4846337727665
 20
434.7721712817916
 30
0.0
 40
2.0
100
AcDbArc
 50
269.9999999862364
 51
359.9999999951831
  0
LINE
  5
337
330
2
100
AcDbEntity
  8
0
100
AcDbLine
 10
164.1846337736112
 20
432.7721712835454
 30
0.0
 11
171.484633772286
 21
432.7721712817917
 31
0.0
  0
LINE
  5
338
330
2
100
AcDbEntity
  8
0
100
AcDbLine
 10
164.1846337727927
 20
518.272171297408
 30
0.0
 11
165.684633772793
 21
518.272171297408
 31
0.0
  0
LINE
  5
339
330
2
100
AcDbEntity
  8
03-01
100
AcDbLine
 10
164.1846337727937
 20
539.2721712974082
 30
0.0
 11
165.6846337727937
 21
539.2721712974082
 31
0.0
  0
LINE
  5
33A
330
2
100
AcDbEntity
  8
0
100
AcDbLine
 10
200.4355276123067
 20
453.3056483308705
 30
0.0
 11
200.4355276123067
 21
450.975727604529
 31
0.0
  0
LINE
  5
33B
330
2
100
AcDbEntity
  8
0
100
AcDbLine
 10
195.7355276123069
 20
453.3056483308705
 30
0.0
 11
195.7355276123069
 21
450.9757276045289
 31
0.0
  0
ARC
  5
33C
330
2
100
AcDbEntity
  8
0
100
AcDbCircle
 10
198.0855276123067
 20
453.3056483308705
 30
0.0
 40
2.35
100
AcDbArc
 50
0.0
 51
180.0
  0
LINE
  5
33D
330
2
100
AcDbEntity
  8
0
100
AcDbLine
 10
166.0846337736154
 20
559.9721713225433
 30
0.0
 11
166.0846337736154
 21
560.2721713225433
 31
0.0
  0
LINE
  5
33E
330
2
100
AcDbEntity
  8
0
100
AcDbLine
 10
165.6846337736155
 20
559.9721713225433
 30
0.0
 11
166.0846337736154
 21
559.9721713225433
 31
0.0
  0
LINE
  5
33F
330
2
100
AcDbEntity
  8
0
100
AcDbLine
 10
164.5846337736154
 20
560.2721713225433
 30
0.0
 11
166.0846337736154
 21
560.2721713225433
 31
0.0
  0
LINE
  5
340
330
2
100
AcDbEntity
  8
0
100
AcDbLine
 10
165.6846337736155
 20
559.9721713225433
 30
0.0
 11
165.6846337727941
 21
553.2721712974093
 31
0.0
  0
LINE
  5
341
330
2
100
AcDbEntity
  8
0
100
AcDbLine
 10
165.6846337727941
 20
553.2721712974093
 30
0.0
 11
164.1846337727941
 21
553.2721712974092
 31
0.0
  0
LINE
  5
342
330
2
100
AcDbEntity
  8
0
100
AcDbLine
 10
164.5846337736155
 20
571.3406013225442
 30
0.0
 11
164.5846337736154
 21
560.2721713225433
 31
0.0
  0
LINE
  5
343
330
2
100
AcDbEntity
  8
0
100
AcDbLine
 10
164.1846337736112
 20
432.7721712835454
 30
0.0
 11
164.1846337727941
 21
553.2721712974092
 31
0.0
  0
LINE
  5
344
330
2
100
AcDbEntity
  8
0
100
AcDbLine
 10
165.6846337727928
 20
516.7721711544442
 30
0.0
 11
165.6846337727941
 21
553.2721712974098
 31
0.0
  0
LINE
  5
345
330
2
100
AcDbEntity
  8
0
100
AcDbLine
 10
165.6846337736117
 20
444.7721713215346
 30
0.0
 11
165.6846337736124
 21
464.7571336311626
 31
0.0
  0
LINE
  5
346
330
2
100
AcDbEntity
  8
0
100
AcDbLine
 10
312.666165226642
 20
421.4750774542883
 30
0.0
 11
304.6328544649667
 21
421.4750774542883
 31
0.0
  0
LINE
  5
347
330
2
100
AcDbEntity
  8
0
100
AcDbLine
 10
304.6328544649667
 20
421.4750774542883
 30
0.0
 11
301.666165053416
 21
421.4750774542883
 31
0.0
  0
LINE
  5
348
330
2
100
AcDbEntity
  8
0
100
AcDbLine
 10
315.1661651707626
 20
419.3750717084006
 30
0.0
 11
303.481349072922
 21
419.3750717084006
 31
0.0
  0
LINE
  5
349
330
2
100
AcDbEntity
  8
0
100
AcDbLine
 10
303.481349072922
 20
419.3750717084006
 30
0.0
 11
299.1661655749566
 21
419.3750717084006
 31
0.0
  0
LWPOLYLINE
  5
34A
330
2
100
AcDbEntity
  8
0
100
AcDbPolyline
 90
        3
 70
   128
 43
0.0
 10
301.5824056263454
 20
429.5826800505713
 10
301.575897544194
 20
429.5858390967444
 10
301.4022999476082
 20
429.8250772397116
  0
LWPOLYLINE
  5
34B
330
2
100
AcDbEntity
  8
0
100
AcDbPolyline
 90
        5
 70
   128
 43
0.0
 10
312.0096566188521
 20
429.3750770728186
 10
312.3725328394584
 20
429.4058032672003
 10
312.7350383936799
 20
429.5674659649924
 10
312.8967391010746
 20
429.7593035142019
 10
312.9307536790519
 20
429.8250772397116
  0
LINE
  5
34C
330
2
100
AcDbEntity
  8
0
100
AcDbLine
 10
312.9307553088664
 20
429.8250772397116
 30
0.0
 11
312.9307553088664
 21
433.7721713225439
 31
0.0
  0
LWPOLYLINE
  5
34D
330
2
100
AcDbEntity
  8
0
100
AcDbPolyline
 90
        4
 70
   128
 43
0.0
 10
310.3510268764011
 20
429.8204876820639
 10
310.4418990468047
 20
429.6723552386358
 10
310.6732138465531
 20
429.4837363402441
 10
311.2699997062235
 20
429.3750770728186
  0
ARC
  5
34E
330
2
100
AcDbEntity
  8
0
100
AcDbCircle
 10
308.8250446926511
 20
431.9085346101659
 30
0.0
 40
2.586225357365953
100
AcDbArc
 50
258.4060819662655
 51
306.1600052082675
  0
LINE
  5
34F
330
2
100
AcDbEntity
  8
0
100
AcDbLine
 10
310.3510268764011
 20
429.8204876820639
 30
0.0
 11
310.3510268764011
 21
433.7721713225439
 31
0.0
  0
ARC
  5
350
330
2
100
AcDbEntity
  8
0
100
AcDbCircle
 10
306.254866365783
 20
432.5382043458778
 30
0.0
 40
3.186190444299553
100
AcDbArc
 50
238.5359050498013
 51
276.8980064202756
  0
ARC
  5
351
330
2
100
AcDbEntity
  8
0
100
AcDbCircle
 10
303.6607109450425
 20
430.5237110556562
 30
0.0
 40
1.166803246922431
100
AcDbArc
 50
259.8755214736545
 51
322.937033717335
  0
LINE
  5
352
330
2
100
AcDbEntity
  8
0
100
AcDbLine
 10
304.5917891930229
 20
429.8204876820639
 30
0.0
 11
304.5917891930229
 21
433.7721713225439
 31
0.0
  0
LINE
  5
353
330
2
100
AcDbEntity
  8
0
100
AcDbLine
 10
301.4022980849631
 20
429.8250772397116
 30
0.0
 11
301.4022980849631
 21
433.7721713225439
 31
0.0
  0
ARC
  5
354
330
2
100
AcDbEntity
  8
0
100
AcDbCircle
 10
302.4029350924197
 20
430.6913825657785
 30
0.0
 40
1.323538343674423
100
AcDbArc
 50
220.8845813185867
 51
275.9926938677888
  0
ARC
  5
355
330
2
100
AcDbEntity
  8
0
100
AcDbCircle
 10
300.1742675107303
 20
417.4423391252694
 30
0.0
 40
1.001572789611644
100
AcDbArc
 50
179.8793908184753
 51
240.0411529866296
  0
ARC
  5
356
330
2
100
AcDbEntity
  8
0
100
AcDbCircle
 10
314.1624504093095
 20
417.4408916798652
 30
0.0
 40
0.9983643590064806
100
AcDbArc
 50
299.805380595824
 51
0.2040655394788724
  0
ARC
  5
357
330
2
100
AcDbEntity
  8
0
100
AcDbCircle
 10
300.280314699844
 20
417.4540257882901
 30
0.0
 40
0.9949943212535263
100
AcDbArc
 50
180.5515671268533
 51
242.1113025641907
  0
ARC
  5
358
330
2
100
AcDbEntity
  8
0
100
AcDbCircle
 10
314.0648100909424
 20
417.449243233398
 30
0.0
 40
0.9873581753767435
100
AcDbArc
 50
297.6437181801713
 51
359.7217032692074
  0
ARC
  5
359
330
2
100
AcDbEntity
  8
0
100
AcDbCircle
 10
313.9121430828345
 20
417.4190056820217
 30
0.0
 40
1.013425106723649
100
AcDbArc
 50
303.568294698859
 51
1.438547119138083
  0
ARC
  5
35A
330
2
100
AcDbEntity
  8
0
100
AcDbCircle
 10
300.4519921641206
 20
417.4309261755485
 30
0.0
 40
1.037506755816329
100
AcDbArc
 50
179.2532727487641
 51
235.6267109271432
  0
ARC
  5
35B
330
2
100
AcDbEntity
  8
0
100
AcDbCircle
 10
313.6147303793588
 20
417.45044693076
 30
0.0
 40
0.9853120752722103
100
AcDbArc
 50
297.2632775021617
 51
359.6511294408728
  0
ARC
  5
35C
330
2
100
AcDbEntity
  8
0
100
AcDbCircle
 10
300.7383153979511
 20
417.4561363076561
 30
0.0
 40
0.9947444878778284
100
AcDbArc
 50
180.6732753546444
 51
242.3997519718798
  0
ARC
  5
35D
330
2
100
AcDbEntity
  8
0
100
AcDbCircle
 10
313.2911194600515
 20
417.3921522729519
 30
0.0
 40
1.060750088061747
100
AcDbArc
 50
309.579818963228
 51
2.825838740470865
  0
ARC
  5
35E
330
2
100
AcDbEntity
  8
0
100
AcDbCircle
 10
312.8289889833316
 20
417.4457408189795
 30
0.0
 40
0.9940084777640612
100
AcDbArc
 50
298.788945789041
 51
359.9254490851805
  0
ARC
  5
35F
330
2
100
AcDbEntity
  8
0
100
AcDbCircle
 10
301.1137218990171
 20
417.4169795105248
 30
0.0
 40
1.118828334202045
100
AcDbArc
 50
178.5932106188426
 51
228.8438846458783
  0
ARC
  5
360
330
2
100
AcDbEntity
  8
0
100
AcDbCircle
 10
301.5227244888299
 20
417.4468592175996
 30
0.0
 40
0.9964145725004332
100
AcDbArc
 50
180.1386808963091
 51
241.0930317577169
  0
ARC
  5
361
330
2
100
AcDbEntity
  8
0
100
AcDbCircle
 10
312.2744120773902
 20
417.3649737823195
 30
0.0
 40
1.190161605471662
100
AcDbArc
 50
318.3869868864131
 51
3.828805433485346
  0
ARC
  5
362
330
2
100
AcDbEntity
  8
0
100
AcDbCircle
 10
311.7356726011444
 20
417.435938639668
 30
0.0
 40
1.019396334409618
100
AcDbArc
 50
302.3326295156268
 51
0.478248985025634
  0
ARC
  5
363
330
2
100
AcDbEntity
  8
0
100
AcDbCircle
 10
302.193396278798
 20
417.4029104023719
 30
0.0
 40
1.304764596035785
100
AcDbArc
 50
178.1756859578001
 51
219.4082020725179
  0
ARC
  5
364
330
2
100
AcDbEntity
  8
0
100
AcDbCircle
 10
302.6046701827963
 20
417.4277976174085
 30
0.0
 40
1.005628347894345
100
AcDbArc
 50
179.0513300418354
 51
238.0413354355851
  0
ARC
  5
365
330
2
100
AcDbEntity
  8
0
100
AcDbCircle
 10
303.842398936712
 20
417.3911507366212
 30
0.0
 40
1.785509874608444
100
AcDbArc
 50
178.2894907966075
 51
207.214638131953
  0
ARC
  5
366
330
2
100
AcDbEntity
  8
0
100
AcDbCircle
 10
303.9520853057243
 20
417.4022515324713
 30
0.0
 40
1.037593768399719
100
AcDbArc
 50
177.6693040925777
 51
232.9083533423578
  0
ARC
  5
367
330
2
100
AcDbEntity
  8
0
100
AcDbCircle
 10
310.7428864043185
 20
417.342170733196
 30
0.0
 40
1.558573364886454
100
AcDbArc
 50
330.4957630187573
 51
3.762568373484577
  0
ARC
  5
368
330
2
100
AcDbEntity
  8
0
100
AcDbCircle
 10
310.3648330239491
 20
417.4227355569264
 30
0.0
 40
1.078195476949251
100
AcDbArc
 50
308.1281016028027
 51
1.153858120177256
  0
LINE
  5
369
330
2
100
AcDbEntity
  8
0
100
AcDbLine
 10
312.666165226642
 20
429.3750770728186
 30
0.0
 11
304.6328544649667
 21
429.3750770728186
 31
0.0
  0
LINE
  5
36A
330
2
100
AcDbEntity
  8
0
100
AcDbLine
 10
304.6328544649667
 20
429.3750770728186
 30
0.0
 11
301.666165053416
 21
429.3750770728186
 31
0.0
  0
ARC
  5
36B
330
2
100
AcDbEntity
  8
0
100
AcDbCircle
 10
307.145995763706
 20
417.3837415625246
 30
0.0
 40
3.697152802976501
100
AcDbArc
 50
179.0591819397659
 51
192.6419336231031
  0
ARC
  5
36C
330
2
100
AcDbEntity
  8
0
100
AcDbCircle
 10
305.5428351518875
 20
417.3746308821478
 30
0.0
 40
1.127696708443426
100
AcDbArc
 50
176.450503788202
 51
225.1897707081408
  0
LINE
  5
36D
330
2
100
AcDbEntity
  8
0
100
AcDbLine
 10
309.3921973402984
 20
418.8750781457022
 30
0.0
 11
309.3921973402984
 21
416.3918741385534
 31
0.0
  0
LINE
  5
36E
330
2
100
AcDbEntity
  8
0
100
AcDbLine
 10
304.9661226603574
 20
418.8750781457022
 30
0.0
 11
304.9661226603574
 21
416.3918741385534
 31
0.0
  0
ARC
  5
36F
330
2
100
AcDbEntity
  8
0
100
AcDbCircle
 10
307.827930704932
 20
417.3276856587466
 30
0.0
 40
3.084273403602644
100
AcDbArc
 50
345.8670879169152
 51
2.169573396091591
  0
ARC
  5
370
330
2
100
AcDbEntity
  8
0
100
AcDbCircle
 10
308.7335564139355
 20
417.4084147063332
 30
0.0
 40
1.210656436536612
100
AcDbArc
 50
316.4698738679215
 51
1.705545584058896
  0
LINE
  5
371
330
2
100
AcDbEntity
  8
0
100
AcDbLine
 10
307.928338463921
 20
418.8750781457022
 30
0.0
 11
307.928338463921
 21
416.3918741385534
 31
0.0
  0
LINE
  5
372
330
2
100
AcDbEntity
  8
0
100
AcDbLine
 10
306.4311689730174
 20
418.8750781457022
 30
0.0
 11
306.4311689730174
 21
416.3918741385534
 31
0.0
  0
ARC
  5
373
330
2
100
AcDbEntity
  8
0
100
AcDbCircle
 10
307.4106908313968
 20
417.3497163490724
 30
0.0
 40
1.374567177101083
100
AcDbArc
 50
176.048211558719
 51
214.3262299222456
  0
ARC
  5
374
330
2
100
AcDbEntity
  8
0
100
AcDbCircle
 10
290.5894931791751
 20
417.3819314434513
 30
0.0
 40
14.41408361366765
100
AcDbArc
 50
356.7891574568454
 51
0.2485010722430351
  0
ARC
  5
375
330
2
100
AcDbEntity
  8
0
100
AcDbCircle
 10
322.744762772049
 20
417.3240305303763
 30
0.0
 40
13.38704162071933
100
AcDbArc
 50
179.4846154071591
 51
183.2092314758747
  0
ARC
  5
376
330
2
100
AcDbEntity
  8
0
100
AcDbCircle
 10
306.7933883331863
 20
417.3954521090881
 30
0.0
 40
1.530548491546581
100
AcDbArc
 50
327.5666951776218
 51
1.834444717989276
  0
ARC
  5
377
330
2
100
AcDbEntity
  8
0
100
AcDbCircle
 10
309.9138456505171
 20
417.3318158729625
 30
0.0
 40
2.205995815761418
100
AcDbArc
 50
177.0733753436374
 51
200.0754380846612
  0
ARC
  5
378
330
2
100
AcDbEntity
  8
0
100
AcDbCircle
 10
304.1251111780982
 20
417.3860877205516
 30
0.0
 40
2.527625028473055
100
AcDbArc
 50
341.2735271090517
 51
1.323006375365966
  0
ARC
  5
379
330
2
100
AcDbEntity
  8
0
100
AcDbCircle
 10
313.2648691801153
 20
419.6013817054661
 30
0.0
 40
10.18647268289344
100
AcDbArc
 50
197.2857938867316
 51
198.3653693072939
  0
ARC
  5
37A
330
2
100
AcDbEntity
  8
0
100
AcDbCircle
 10
309.5615313642784
 20
425.5270354816794
 30
0.0
 40
10.90981612802778
100
AcDbArc
 50
235.1435062122031
 51
236.8596713038682
  0
LINE
  5
37B
330
2
100
AcDbEntity
  8
0
100
AcDbLine
 10
303.3263211171515
 20
416.5745921771124
 30
0.0
 11
302.2545457850582
 21
416.5745921771124
 31
0.0
  0
ARC
  5
37C
330
2
100
AcDbEntity
  8
0
100
AcDbCircle
 10
308.3064372876259
 20
420.7352499869294
 30
0.0
 40
7.344144890267657
100
AcDbArc
 50
214.5084098521682
 51
216.2568893240287
  0
ARC
  5
37D
330
2
100
AcDbEntity
  8
0
100
AcDbCircle
 10
308.7111566384749
 20
427.550452299351
 30
0.0
 40
12.82742417400355
100
AcDbArc
 50
238.8322623992844
 51
240.4470378868607
  0
LINE
  5
37E
330
2
100
AcDbEntity
  8
0
100
AcDbLine
 10
302.0723837460763
 20
416.5745921771124
 30
0.0
 11
301.185279435981
 21
416.5745921771124
 31
0.0
  0
ARC
  5
37F
330
2
100
AcDbEntity
  8
0
100
AcDbCircle
 10
306.9499616956418
 20
422.534683952786
 30
0.0
 40
8.291818589989858
100
AcDbArc
 50
225.9548247189634
 51
227.8019801738515
  0
ARC
  5
380
330
2
100
AcDbEntity
  8
0
100
AcDbCircle
 10
307.9848354827476
 20
429.0632139562108
 30
0.0
 40
14.28921165768406
100
AcDbArc
 50
240.9256147773467
 51
242.4709606397291
  0
LINE
  5
381
330
2
100
AcDbEntity
  8
0
100
AcDbLine
 10
301.0410687919147
 20
416.5745921771124
 30
0.0
 11
300.3774064625985
 21
416.5745921771124
 31
0.0
  0
ARC
  5
382
330
2
100
AcDbEntity
  8
0
100
AcDbCircle
 10
306.4517589049685
 20
424.6846155040766
 30
0.0
 40
10.13263223244731
100
AcDbArc
 50
233.1670383123254
 51
234.9268671650093
  0
ARC
  5
383
330
2
100
AcDbEntity
  8
0
100
AcDbCircle
 10
307.3655760350328
 20
429.7947714488546
 30
0.0
 40
15.00048882301292
100
AcDbArc
 50
241.8015898672102
 51
243.3160692616534
  0
LINE
  5
384
330
2
100
AcDbEntity
  8
0
100
AcDbLine
 10
300.2774504046328
 20
416.5745921771124
 30
0.0
 11
299.8662342350371
 21
416.5745921771124
 31
0.0
  0
ARC
  5
385
330
2
100
AcDbEntity
  8
0
100
AcDbCircle
 10
306.3567098881187
 20
426.8165374296876
 30
0.0
 40
12.1253336762335
100
AcDbArc
 50
237.6369464012458
 51
239.2876701653049
  0
ARC
  5
386
330
2
100
AcDbEntity
  8
0
100
AcDbCircle
 10
306.8705651644685
 20
429.6288730711398
 30
0.0
 40
14.83902460320363
100
AcDbArc
 50
241.6093703234836
 51
243.1306833115073
  0
ARC
  5
387
330
2
100
AcDbEntity
  8
0
100
AcDbCircle
 10
306.5173394003352
 20
428.563099676111
 30
0.0
 40
13.80413631376308
100
AcDbArc
 50
240.2815722672752
 51
241.8491612124717
  0
ARC
  5
388
330
2
100
AcDbEntity
  8
0
100
AcDbCircle
 10
306.5229612475978
 20
428.5907590817443
 30
0.0
 40
13.83117857291922
100
AcDbArc
 50
240.3164695037744
 51
241.8826853866775
  0
ARC
  5
389
330
2
100
AcDbEntity
  8
0
100
AcDbCircle
 10
307.8105262664029
 20
428.5886798235431
 30
0.0
 40
13.82879921037075
100
AcDbArc
 50
298.1171449144821
 51
299.6836319841575
  0
ARC
  5
38A
330
2
100
AcDbEntity
  8
0
100
AcDbCircle
 10
307.4692149162313
 20
429.6179811456073
 30
0.0
 40
14.82850987505106
100
AcDbArc
 50
296.8822434432004
 51
298.4039688965292
  0
ARC
  5
38B
330
2
100
AcDbEntity
  8
0
100
AcDbCircle
 10
307.974530215095
 20
426.8531395057406
 30
0.0
 40
12.16026746517598
100
AcDbArc
 50
300.6516825543614
 51
302.300552344844
  0
LINE
  5
38C
330
2
100
AcDbEntity
  8
0
100
AcDbLine
 10
314.4724967922456
 20
416.5745921771124
 30
0.0
 11
314.0660820561833
 21
416.5745921771124
 31
0.0
  0
ARC
  5
38D
330
2
100
AcDbEntity
  8
0
100
AcDbCircle
 10
306.9762744726611
 20
429.8012388384275
 30
0.0
 40
15.00698349018383
100
AcDbArc
 50
296.6782813294102
 51
298.1924019205915
  0
ARC
  5
38E
330
2
100
AcDbEntity
  8
0
100
AcDbCircle
 10
307.8849314382735
 20
424.7252364873099
 30
0.0
 40
10.16977415214039
100
AcDbArc
 50
304.9727721285443
 51
306.7304664282765
  0
LINE
  5
38F
330
2
100
AcDbEntity
  8
0
100
AcDbLine
 10
313.9669790896959
 20
416.5745921771124
 30
0.0
 11
313.3076881557144
 21
416.5745921771124
 31
0.0
  0
ARC
  5
390
330
2
100
AcDbEntity
  8
0
100
AcDbCircle
 10
306.3604897257067
 20
429.0827641310356
 30
0.0
 40
14.30796741870804
100
AcDbArc
 50
297.503747182054
 51
299.0483521848924
  0
ARC
  5
391
330
2
100
AcDbEntity
  8
0
100
AcDbCircle
 10
307.3971824580251
 20
422.5713646780855
 30
0.0
 40
8.319865039047664
100
AcDbArc
 50
312.0347143469881
 51
313.8812806484928
  0
LINE
  5
392
330
2
100
AcDbEntity
  8
0
100
AcDbLine
 10
313.164233163502
 20
416.5745921771124
 30
0.0
 11
312.2808800461143
 21
416.5745921771124
 31
0.0
  0
ARC
  5
393
330
2
100
AcDbEntity
  8
0
100
AcDbCircle
 10
305.635273050277
 20
427.5838070279709
 30
0.0
 40
12.85950636593354
100
AcDbArc
 50
299.5037251163637
 51
301.1168780983779
  0
ARC
  5
394
330
2
100
AcDbEntity
  8
0
100
AcDbCircle
 10
306.0637794774843
 20
420.7640691600051
 30
0.0
 40
7.347090760009284
100
AcDbArc
 50
323.4808083086383
 51
325.2342522324884
  0
LINE
  5
395
330
2
100
AcDbEntity
  8
0
100
AcDbLine
 10
312.0993428518203
 20
416.5745921771124
 30
0.0
 11
311.0305343787558
 21
416.5745921771124
 31
0.0
  0
ARC
  5
396
330
2
100
AcDbEntity
  8
0
100
AcDbCircle
 10
304.7885415774498
 20
425.5651772297396
 30
0.0
 40
10.94500313933623
100
AcDbArc
 50
303.0571349668302
 51
304.7715148239317
  0
ARC
  5
397
330
2
100
AcDbEntity
  8
0
100
AcDbCircle
 10
301.261670236566
 20
419.6159296171415
 30
0.0
 40
10.02942673242686
100
AcDbArc
 50
341.2487818712676
 51
342.3476062215452
  0
LINE
  5
398
330
2
100
AcDbEntity
  8
0
100
AcDbLine
 10
310.8188490649126
 20
416.5745921771124
 30
0.0
 11
309.6112972624041
 21
416.5745921771124
 31
0.0
  0
ARC
  5
399
330
2
100
AcDbEntity
  8
0
100
AcDbCircle
 10
303.7537794594697
 20
423.3757070283275
 30
0.0
 40
8.975838569801641
100
AcDbArc
 50
308.915773402859
 51
310.7369546100925
  0
ARC
  5
39A
330
2
100
AcDbEntity
  8
0
100
AcDbCircle
 10
347.9823542596416
 20
419.331149198909
 30
0.0
 40
38.70193210861656
100
AcDbArc
 50
184.0843678639284
 51
184.3556060580671
  0
LINE
  5
39B
330
2
100
AcDbEntity
  8
0
100
AcDbLine
 10
309.3787152818776
 20
416.5745921771124
 30
0.0
 11
308.08519623572
 21
416.5745921771124
 31
0.0
  0
ARC
  5
39C
330
2
100
AcDbEntity
  8
0
100
AcDbCircle
 10
302.2863800723962
 20
421.3940083021268
 30
0.0
 40
7.540095535341948
100
AcDbArc
 50
318.4399522155812
 51
320.2699126687806
  0
ARC
  5
39D
330
2
100
AcDbEntity
  8
0
100
AcDbCircle
 10
315.1963057249663
 20
419.9426277762833
 30
0.0
 40
8.088955402490901
100
AcDbArc
 50
204.6059116880441
 51
206.0377470473388
  0
LINE
  5
39E
330
2
100
AcDbEntity
  8
0
100
AcDbLine
 10
307.8418828579969
 20
416.5745921771124
 30
0.0
 11
306.5189288962073
 21
416.5745921771124
 31
0.0
  0
ARC
  5
39F
330
2
100
AcDbEntity
  8
0
100
AcDbCircle
 10
299.2309685074263
 20
419.9625827988563
 30
0.0
 40
8.036967530198541
100
AcDbArc
 50
333.6223615191234
 51
335.0674610835411
  0
ARC
  5
3A0
330
2
100
AcDbEntity
  8
0
100
AcDbCircle
 10
312.0801668358354
 20
421.3617106833713
 30
0.0
 40
7.523991768757339
100
AcDbArc
 50
219.5125465886149
 51
221.3404507897378
  0
LINE
  5
3A1
330
2
100
AcDbEntity
  8
0
100
AcDbLine
 10
306.2755179624445
 20
416.5745921771124
 30
0.0
 11
304.9809493157453
 21
416.5745921771124
 31
0.0
  0
ARC
  5
3A2
330
2
100
AcDbEntity
  8
0
100
AcDbCircle
 10
269.8149397932942
 20
419.3361774747343
 30
0.0
 40
35.2742764502571
100
AcDbArc
 50
355.2120163985399
 51
355.5097799619607
  0
ARC
  5
3A3
330
2
100
AcDbEntity
  8
0
100
AcDbCircle
 10
310.5999293863135
 20
423.3363581268058
 30
0.0
 40
8.942350702613666
100
AcDbArc
 50
229.1260290334864
 51
230.9488396905816
  0
LINE
  5
3A4
330
2
100
AcDbEntity
  8
0
100
AcDbLine
 10
304.7480786252207
 20
416.5745921771124
 30
0.0
 11
303.5384736056812
 21
416.5745921771124
 31
0.0
  0
LINE
  5
3A5
330
2
100
AcDbEntity
  8
0
100
AcDbLine
 10
313.6661652741394
 20
420.875082198818
 30
0.0
 11
304.1722525875456
 21
420.875082198818
 31
0.0
  0
LINE
  5
3A6
330
2
100
AcDbEntity
  8
0
100
AcDbLine
 10
304.1722525875456
 20
420.875082198818
 30
0.0
 11
300.6661648895032
 21
420.875082198818
 31
0.0
  0
LINE
  5
3A7
330
2
100
AcDbEntity
  8
0
100
AcDbLine
 10
302.0576846818812
 20
417.4444474618033
 30
0.0
 11
302.9153498853929
 21
417.4444474618033
 31
0.0
  0
LINE
  5
3A8
330
2
100
AcDbEntity
  8
0
100
AcDbLine
 10
302.9153498853929
 20
418.8750781457022
 30
0.0
 11
302.9153498853929
 21
417.4444474618033
 31
0.0
  0
LINE
  5
3A9
330
2
100
AcDbEntity
  8
0
100
AcDbLine
 10
302.9153498853929
 20
418.8750781457022
 30
0.0
 11
303.4493413786776
 21
418.8750781457022
 31
0.0
  0
LINE
  5
3AA
330
2
100
AcDbEntity
  8
0
100
AcDbLine
 10
303.4493413786776
 20
418.8750781457022
 30
0.0
 11
303.4493413786776
 21
417.4444474618033
 31
0.0
  0
LINE
  5
3AB
330
2
100
AcDbEntity
  8
0
100
AcDbLine
 10
303.4493413786776
 20
417.4444474618033
 30
0.0
 11
304.4173017177171
 21
417.4444474618033
 31
0.0
  0
LINE
  5
3AC
330
2
100
AcDbEntity
  8
0
100
AcDbLine
 10
304.4173017177171
 20
418.8750781457022
 30
0.0
 11
304.4173017177171
 21
417.4444474618033
 31
0.0
  0
LINE
  5
3AD
330
2
100
AcDbEntity
  8
0
100
AcDbLine
 10
304.4173017177171
 20
418.8750781457022
 30
0.0
 11
305.0034412215836
 21
418.8750781457022
 31
0.0
  0
LINE
  5
3AE
330
2
100
AcDbEntity
  8
0
100
AcDbLine
 10
305.0034412215836
 20
418.8750781457022
 30
0.0
 11
305.0034412215836
 21
417.4444474618033
 31
0.0
  0
LINE
  5
3AF
330
2
100
AcDbEntity
  8
0
100
AcDbLine
 10
305.0034412215836
 20
417.4444474618033
 30
0.0
 11
306.0393918338604
 21
417.4444474618033
 31
0.0
  0
LINE
  5
3B0
330
2
100
AcDbEntity
  8
0
100
AcDbLine
 10
306.0393918338604
 20
418.8750781457022
 30
0.0
 11
306.0393918338604
 21
417.4444474618033
 31
0.0
  0
LINE
  5
3B1
330
2
100
AcDbEntity
  8
0
100
AcDbLine
 10
306.0393918338604
 20
418.8750781457022
 30
0.0
 11
306.6520623895712
 21
418.8750781457022
 31
0.0
  0
LINE
  5
3B2
330
2
100
AcDbEntity
  8
0
100
AcDbLine
 10
306.6520623895712
 20
418.8750781457022
 30
0.0
 11
306.6520623895712
 21
417.4444474618033
 31
0.0
  0
LINE
  5
3B3
330
2
100
AcDbEntity
  8
0
100
AcDbLine
 10
306.6520623895712
 20
417.4444474618033
 30
0.0
 11
307.7107270281203
 21
417.4444474618033
 31
0.0
  0
LINE
  5
3B4
330
2
100
AcDbEntity
  8
0
100
AcDbLine
 10
307.7107270281203
 20
418.8750781457022
 30
0.0
 11
307.7107270281203
 21
417.4444474618033
 31
0.0
  0
LINE
  5
3B5
330
2
100
AcDbEntity
  8
0
100
AcDbLine
 10
307.7107270281203
 20
418.8750781457022
 30
0.0
 11
308.3231524131633
 21
418.8750781457022
 31
0.0
  0
LINE
  5
3B6
330
2
100
AcDbEntity
  8
0
100
AcDbLine
 10
308.3231524131633
 20
418.8750781457022
 30
0.0
 11
308.3231524131633
 21
417.4444474618033
 31
0.0
  0
LINE
  5
3B7
330
2
100
AcDbEntity
  8
0
100
AcDbLine
 10
308.3231524131633
 20
417.4444474618033
 30
0.0
 11
309.3582627396471
 21
417.4444474618033
 31
0.0
  0
LINE
  5
3B8
330
2
100
AcDbEntity
  8
0
100
AcDbLine
 10
309.3582627396471
 20
418.8750781457022
 30
0.0
 11
309.3582627396471
 21
417.4444474618033
 31
0.0
  0
LINE
  5
3B9
330
2
100
AcDbEntity
  8
0
100
AcDbLine
 10
309.3582627396471
 20
418.8750781457022
 30
0.0
 11
309.9436765103973
 21
418.8750781457022
 31
0.0
  0
LINE
  5
3BA
330
2
100
AcDbEntity
  8
0
100
AcDbLine
 10
309.9436765103973
 20
418.8750781457022
 30
0.0
 11
309.9436765103973
 21
417.4444474618033
 31
0.0
  0
LINE
  5
3BB
330
2
100
AcDbEntity
  8
0
100
AcDbLine
 10
309.9436765103973
 20
417.4444474618033
 30
0.0
 11
310.909993181508
 21
417.4444474618033
 31
0.0
  0
LINE
  5
3BC
330
2
100
AcDbEntity
  8
0
100
AcDbLine
 10
310.909993181508
 20
418.8750781457022
 30
0.0
 11
310.909993181508
 21
417.4444474618033
 31
0.0
  0
LINE
  5
3BD
330
2
100
AcDbEntity
  8
0
100
AcDbLine
 10
310.909993181508
 20
418.8750781457022
 30
0.0
 11
311.4428098695725
 21
418.8750781457022
 31
0.0
  0
LINE
  5
3BE
330
2
100
AcDbEntity
  8
0
100
AcDbLine
 10
311.4428098695725
 20
418.8750781457022
 30
0.0
 11
311.4428098695725
 21
417.4444474618033
 31
0.0
  0
LINE
  5
3BF
330
2
100
AcDbEntity
  8
0
100
AcDbLine
 10
311.4428098695725
 20
417.4444474618033
 30
0.0
 11
312.2981003460381
 21
417.4444474618033
 31
0.0
  0
LINE
  5
3C0
330
2
100
AcDbEntity
  8
0
100
AcDbLine
 10
312.2981003460381
 20
418.8750781457022
 30
0.0
 11
312.2981003460381
 21
417.4444474618033
 31
0.0
  0
LINE
  5
3C1
330
2
100
AcDbEntity
  8
0
100
AcDbLine
 10
312.2981003460381
 20
418.8750781457022
 30
0.0
 11
312.7550334236957
 21
418.8750781457022
 31
0.0
  0
LINE
  5
3C2
330
2
100
AcDbEntity
  8
0
100
AcDbLine
 10
312.7550334236957
 20
418.8750781457022
 30
0.0
 11
312.7550334236957
 21
417.4444474618033
 31
0.0
  0
LINE
  5
3C3
330
2
100
AcDbEntity
  8
0
100
AcDbLine
 10
312.7550334236957
 20
417.4444474618033
 30
0.0
 11
313.4619172695465
 21
417.4444474618033
 31
0.0
  0
LINE
  5
3C4
330
2
100
AcDbEntity
  8
0
100
AcDbLine
 10
313.4619172695465
 20
418.8750781457022
 30
0.0
 11
313.4619172695465
 21
417.4444474618033
 31
0.0
  0
LINE
  5
3C5
330
2
100
AcDbEntity
  8
0
100
AcDbLine
 10
313.4619172695465
 20
418.8750781457022
 30
0.0
 11
313.8229966196603
 21
418.8750781457022
 31
0.0
  0
LINE
  5
3C6
330
2
100
AcDbEntity
  8
0
100
AcDbLine
 10
313.8229966196603
 20
418.8750781457022
 30
0.0
 11
313.8229966196603
 21
417.4444474618033
 31
0.0
  0
LINE
  5
3C7
330
2
100
AcDbEntity
  8
0
100
AcDbLine
 10
313.8229966196603
 20
417.4444474618033
 30
0.0
 11
314.3505796823091
 21
417.4444474618033
 31
0.0
  0
LINE
  5
3C8
330
2
100
AcDbEntity
  8
0
100
AcDbLine
 10
314.3505796823091
 20
418.8750781457022
 30
0.0
 11
314.3505796823091
 21
417.4444474618033
 31
0.0
  0
LINE
  5
3C9
330
2
100
AcDbEntity
  8
0
100
AcDbLine
 10
314.3505796823091
 20
418.8750781457022
 30
0.0
 11
314.6000241893716
 21
418.8750781457022
 31
0.0
  0
LINE
  5
3CA
330
2
100
AcDbEntity
  8
0
100
AcDbLine
 10
314.6000241893716
 20
418.8750781457022
 30
0.0
 11
314.6000241893716
 21
417.4444474618033
 31
0.0
  0
LINE
  5
3CB
330
2
100
AcDbEntity
  8
0
100
AcDbLine
 10
314.6000241893716
 20
417.4444474618033
 30
0.0
 11
314.9252487845159
 21
417.4444474618033
 31
0.0
  0
LINE
  5
3CC
330
2
100
AcDbEntity
  8
0
100
AcDbLine
 10
314.9252487845159
 20
418.8750781457022
 30
0.0
 11
314.9252487845159
 21
417.4444474618033
 31
0.0
  0
LINE
  5
3CD
330
2
100
AcDbEntity
  8
0
100
AcDbLine
 10
314.9252487845159
 20
418.8750781457022
 30
0.0
 11
315.0521566192991
 21
418.8750781457022
 31
0.0
  0
LINE
  5
3CE
330
2
100
AcDbEntity
  8
0
100
AcDbLine
 10
315.0521566192991
 20
418.8750781457022
 30
0.0
 11
315.0521566192991
 21
417.4444474618033
 31
0.0
  0
LINE
  5
3CF
330
2
100
AcDbEntity
  8
0
100
AcDbLine
 10
315.0521566192991
 20
417.4444474618033
 30
0.0
 11
315.1608084361441
 21
417.4444474618033
 31
0.0
  0
LINE
  5
3D0
330
2
100
AcDbEntity
  8
0
100
AcDbLine
 10
315.1608084361441
 20
418.8750781457022
 30
0.0
 11
315.1608084361441
 21
417.4444474618033
 31
0.0
  0
LINE
  5
3D1
330
2
100
AcDbEntity
  8
0
100
AcDbLine
 10
315.1608084361441
 20
418.8750781457022
 30
0.0
 11
315.1661651707626
 21
418.8750781457022
 31
0.0
  0
LINE
  5
3D2
330
2
100
AcDbEntity
  8
0
100
AcDbLine
 10
299.1715216110832
 20
418.8750781457022
 30
0.0
 11
299.1715216110832
 21
417.4444474618033
 31
0.0
  0
LINE
  5
3D3
330
2
100
AcDbEntity
  8
0
100
AcDbLine
 10
299.1661655749566
 20
418.8750781457022
 30
0.0
 11
299.1726969401724
 21
418.8750781457022
 31
0.0
  0
LINE
  5
3D4
330
2
100
AcDbEntity
  8
0
100
AcDbLine
 10
299.1726969401724
 20
418.8750781457022
 30
0.0
 11
299.1726969401724
 21
417.4444474618033
 31
0.0
  0
LINE
  5
3D5
330
2
100
AcDbEntity
  8
0
100
AcDbLine
 10
299.1726969401724
 20
417.4444474618033
 30
0.0
 11
299.2853664826042
 21
417.4444474618033
 31
0.0
  0
LINE
  5
3D6
330
2
100
AcDbEntity
  8
0
100
AcDbLine
 10
299.2853664826042
 20
418.8750781457022
 30
0.0
 11
299.2853664826042
 21
417.4444474618033
 31
0.0
  0
LINE
  5
3D7
330
2
100
AcDbEntity
  8
0
100
AcDbLine
 10
299.2853664826042
 20
418.8750781457022
 30
0.0
 11
299.4145735199935
 21
418.8750781457022
 31
0.0
  0
LINE
  5
3D8
330
2
100
AcDbEntity
  8
0
100
AcDbLine
 10
299.4145735199935
 20
418.8750781457022
 30
0.0
 11
299.4145735199935
 21
417.4444474618033
 31
0.0
  0
LINE
  5
3D9
330
2
100
AcDbEntity
  8
0
100
AcDbLine
 10
299.4145735199935
 20
417.4444474618033
 30
0.0
 11
299.7436395879276
 21
417.4444474618033
 31
0.0
  0
LINE
  5
3DA
330
2
100
AcDbEntity
  8
0
100
AcDbLine
 10
299.7436395879276
 20
418.8750781457022
 30
0.0
 11
299.7436395879276
 21
417.4444474618033
 31
0.0
  0
LINE
  5
3DB
330
2
100
AcDbEntity
  8
0
100
AcDbLine
 10
299.7436395879276
 20
418.8750781457022
 30
0.0
 11
299.9952307935245
 21
418.8750781457022
 31
0.0
  0
LINE
  5
3DC
330
2
100
AcDbEntity
  8
0
100
AcDbLine
 10
299.9952307935245
 20
418.8750781457022
 30
0.0
 11
299.9952307935245
 21
417.4444474618033
 31
0.0
  0
LINE
  5
3DD
330
2
100
AcDbEntity
  8
0
100
AcDbLine
 10
299.9952307935245
 20
417.4444474618033
 30
0.0
 11
300.5263128350861
 21
417.4444474618033
 31
0.0
  0
LINE
  5
3DE
330
2
100
AcDbEntity
  8
0
100
AcDbLine
 10
300.5263128350861
 20
418.8750781457022
 30
0.0
 11
300.5263128350861
 21
417.4444474618033
 31
0.0
  0
LINE
  5
3DF
330
2
100
AcDbEntity
  8
0
100
AcDbLine
 10
300.5263128350861
 20
418.8750781457022
 30
0.0
 11
300.8892930145747
 21
418.8750781457022
 31
0.0
  0
LINE
  5
3E0
330
2
100
AcDbEntity
  8
0
100
AcDbLine
 10
300.8892930145747
 20
418.8750781457022
 30
0.0
 11
300.8892930145747
 21
417.4444474618033
 31
0.0
  0
LINE
  5
3E1
330
2
100
AcDbEntity
  8
0
100
AcDbLine
 10
300.8892930145747
 20
417.4444474618033
 30
0.0
 11
301.5991796772368
 21
417.4444474618033
 31
0.0
  0
LINE
  5
3E2
330
2
100
AcDbEntity
  8
0
100
AcDbLine
 10
301.5991796772368
 20
418.8750781457022
 30
0.0
 11
301.5991796772368
 21
417.4444474618033
 31
0.0
  0
LINE
  5
3E3
330
2
100
AcDbEntity
  8
0
100
AcDbLine
 10
301.5991796772368
 20
418.8750781457022
 30
0.0
 11
302.0576846818812
 21
418.8750781457022
 31
0.0
  0
LINE
  5
3E4
330
2
100
AcDbEntity
  8
0
100
AcDbLine
 10
302.0576846818812
 20
418.8750781457022
 30
0.0
 11
302.0576846818812
 21
417.4444474618033
 31
0.0
  0
ARC
  5
3E5
330
2
100
AcDbEntity
  8
0
100
AcDbCircle
 10
312.2033222853559
 20
430.2038304302142
 30
0.0
 40
0.8293771438496701
100
AcDbArc
 50
305.0671398888616
 51
312.2794768339623
  0
ARC
  5
3E6
330
2
100
AcDbEntity
  8
0
100
AcDbCircle
 10
312.2033222853559
 20
430.2038304302142
 30
0.0
 40
0.8293771438496539
100
AcDbArc
 50
272.2220587955063
 51
280.2165531009213
  0
ARC
  5
3E7
330
2
100
AcDbEntity
  8
0
100
AcDbCircle
 10
302.1290081997902
 20
430.2038304302142
 30
0.0
 40
0.8293771438497735
100
AcDbArc
 50
228.6670920610381
 51
267.7779412044872
  0
LINE
  5
3E8
330
2
100
AcDbEntity
  8
0
100
AcDbLine
 10
301.666165053416
 20
429.3750770728186
 30
0.0
 11
301.666165053416
 21
421.4750774542883
 31
0.0
  0
LINE
  5
3E9
330
2
100
AcDbEntity
  8
0
100
AcDbLine
 10
312.666165226642
 20
421.4750774542883
 30
0.0
 11
312.666165226642
 21
429.3750770728186
 31
0.0
  0
ARC
  5
3EA
330
2
100
AcDbEntity
  8
0
100
AcDbCircle
 10
301.066165242573
 20
421.4750769256425
 30
0.0
 40
0.6000000000000228
100
AcDbArc
 50
270.0
 51
0.0
  0
ARC
  5
3EB
330
2
100
AcDbEntity
  8
0
100
AcDbCircle
 10
313.2661652425729
 20
421.4750769256425
 30
0.0
 40
0.5999999999999659
100
AcDbArc
 50
180.0
 51
270.0
  0
ARC
  5
3EC
330
2
100
AcDbEntity
  8
0
100
AcDbCircle
 10
307.166165242573
 20
429.7876563463754
 30
0.0
 40
15.18995415716375
100
AcDbArc
 50
241.7114979917174
 51
298.2885020082842
  0
ARC
  5
3ED
330
2
100
AcDbEntity
  8
0
100
AcDbCircle
 10
300.666165242573
 20
419.3750769256426
 30
0.0
 40
1.5
100
AcDbArc
 50
90.0
 51
180.0
  0
ARC
  5
3EE
330
2
100
AcDbEntity
  8
0
100
AcDbCircle
 10
313.666165242573
 20
419.3750769256426
 30
0.0
 40
1.5
100
AcDbArc
 50
0.0
 51
90.0
  0
LINE
  5
3EF
330
2
100
AcDbEntity
  8
0
100
AcDbLine
 10
299.1661655749566
 20
419.3750717084006
 30
0.0
 11
299.1661655749566
 21
418.8750781457022
 31
0.0
  0
LINE
  5
3F0
330
2
100
AcDbEntity
  8
0
100
AcDbLine
 10
315.1661651707626
 20
418.8750781457022
 30
0.0
 11
315.1661651707626
 21
419.3750717084006
 31
0.0
  0
LINE
  5
3F1
330
2
100
AcDbEntity
  8
0
100
AcDbLine
 10
229.1785438473148
 20
299.5034295868334
 30
0.0
 11
230.7673273146613
 21
299.406255523178
 31
0.0
  0
LINE
  5
3F2
330
2
100
AcDbEntity
  8
0
100
AcDbLine
 10
166.990723699916
 20
299.5034295868334
 30
0.0
 11
165.4019402325693
 21
299.406255523178
 31
0.0
  0
LINE
  5
3F3
330
2
100
AcDbEntity
  8
0
100
AcDbLine
 10
229.3616966044335
 20
300.9950305204416
 30
0.0
 11
224.6375911569489
 21
301.8705921932576
 31
0.0
  0
LINE
  5
3F4
330
2
100
AcDbEntity
  8
0
100
AcDbLine
 10
229.1785438473148
 20
299.5034295868334
 30
0.0
 11
224.3642368054284
 21
300.3957087859033
 31
0.0
  0
LINE
  5
3F5
330
2
100
AcDbEntity
  8
0
100
AcDbLine
 10
224.6375911569489
 20
301.8705921932576
 30
0.0
 11
224.3642368054284
 21
300.3957087859033
 31
0.0
  0
LINE
  5
3F6
330
2
100
AcDbEntity
  8
0
100
AcDbLine
 10
230.7673273146613
 20
299.406255523178
 30
0.0
 11
231.381928742081
 21
309.4549099702718
 31
0.0
  0
LINE
  5
3F7
330
2
100
AcDbEntity
  8
0
100
AcDbLine
 10
229.3616966044335
 20
300.9950305204416
 30
0.0
 11
229.8791244618663
 21
309.4549099702718
 31
0.0
  0
LINE
  5
3F8
330
2
100
AcDbEntity
  8
0
100
AcDbLine
 10
166.8075709427973
 20
300.9950305204416
 30
0.0
 11
171.5316763902817
 21
301.8705921932576
 31
0.0
  0
LINE
  5
3F9
330
2
100
AcDbEntity
  8
0
100
AcDbLine
 10
166.990723699916
 20
299.5034295868334
 30
0.0
 11
171.8050307418022
 21
300.3957087859033
 31
0.0
  0
LINE
  5
3FA
330
2
100
AcDbEntity
  8
0
100
AcDbLine
 10
171.5316763902817
 20
301.8705921932576
 30
0.0
 11
171.8050307418022
 21
300.3957087859033
 31
0.0
  0
LINE
  5
3FB
330
2
100
AcDbEntity
  8
0
100
AcDbLine
 10
165.4019402325693
 20
299.406255523178
 30
0.0
 11
164.7873388051497
 21
309.4549099702718
 31
0.0
  0
LINE
  5
3FC
330
2
100
AcDbEntity
  8
0
100
AcDbLine
 10
166.8075709427973
 20
300.9950305204416
 30
0.0
 11
166.2901430853644
 21
309.4549099702718
 31
0.0
  0
ARC
  5
3FD
330
2
100
AcDbEntity
  8
0
100
AcDbCircle
 10
301.9022983606345
 20
446.2721713225441
 30
0.0
 40
3.0
100
AcDbArc
 50
90.0
 51
180.0
  0
LINE
  5
3FE
330
2
100
AcDbEntity
  8
0
100
AcDbLine
 10
317.9022983606345
 20
449.2721713225441
 30
0.0
 11
301.9022983606345
 21
449.2721713225441
 31
0.0
  0
ARC
  5
3FF
330
2
100
AcDbEntity
  8
0
100
AcDbCircle
 10
317.9022983606345
 20
446.2721713225441
 30
0.0
 40
3.0
100
AcDbArc
 50
0.0
 51
90.0
  0
LINE
  5
400
330
2
100
AcDbEntity
  8
0
100
AcDbLine
 10
321.9022983606346
 20
601.3406013225444
 30
0.0
 11
297.4022983606346
 21
601.3406013225444
 31
0.0
  0
LINE
  5
401
330
2
100
AcDbEntity
  8
0
100
AcDbLine
 10
321.9022983606345
 20
571.3406013225444
 30
0.0
 11
321.9022983606346
 21
601.3406013225444
 31
0.0
  0
LINE
  5
402
330
2
100
AcDbEntity
  8
0
100
AcDbLine
 10
297.4022983606346
 20
571.3406013225449
 30
0.0
 11
321.9022983606345
 21
571.3406013225444
 31
0.0
  0
LINE
  5
403
330
2
100
AcDbEntity
  8
0
100
AcDbLine
 10
297.4022983606346
 20
433.7721713225439
 30
0.0
 11
322.4022983606348
 21
433.7721713225439
 31
0.0
  0
LINE
  5
404
330
2
100
AcDbEntity
  8
0
100
AcDbLine
 10
320.902298360635
 20
441.2721713225437
 30
0.0
 11
322.4022983606351
 21
441.2721713225439
 31
0.0
  0
LINE
  5
405
330
2
100
AcDbEntity
  8
0
100
AcDbLine
 10
297.4022983606346
 20
622.2721713225437
 30
0.0
 11
313.6508315228452
 21
622.2721713225435
 31
0.0
  0
LINE
  5
406
330
2
100
AcDbEntity
  8
0
100
AcDbLine
 10
312.4989440826059
 20
612.2773492928813
 30
0.0
 11
313.9980303231346
 21
612.3296985379349
 31
0.0
  0
LINE
  5
407
330
2
100
AcDbEntity
  8
0
100
AcDbLine
 10
298.9022983606349
 20
620.7721713225435
 30
0.0
 11
312.2022983606347
 21
620.7721713225435
 31
0.0
  0
LINE
  5
408
330
2
100
AcDbEntity
  8
0
100
AcDbLine
 10
297.4022983606346
 20
433.7721713225439
 30
0.0
 11
297.4022983606346
 21
622.2721713225437
 31
0.0
  0
LINE
  5
409
330
2
100
AcDbEntity
  8
0
100
AcDbLine
 10
313.9980303231346
 20
612.3296985379349
 30
0.0
 11
313.6508315228452
 21
622.2721713225435
 31
0.0
  0
LINE
  5
40A
330
2
100
AcDbEntity
  8
0
100
AcDbLine
 10
312.4989440826059
 20
612.2773492928813
 30
0.0
 11
312.2022983606347
 21
620.7721713225435
 31
0.0
  0
LINE
  5
40B
330
2
100
AcDbEntity
  8
0
100
AcDbLine
 10
322.4022983606348
 20
433.7721713225439
 30
0.0
 11
322.4022983606351
 21
441.2721713225439
 31
0.0
  0
LINE
  5
40C
330
2
100
AcDbEntity
  8
0
100
AcDbLine
 10
320.9022983606351
 20
433.7721713225441
 30
0.0
 11
320.902298360635
 21
446.2721713225441
 31
0.0
  0
LINE
  5
40D
330
2
100
AcDbEntity
  8
0
100
AcDbLine
 10
298.9022983606347
 20
601.3406013225441
 30
0.0
 11
298.9022983606349
 21
620.7721713225435
 31
0.0
  0
LINE
  5
40E
330
2
100
AcDbEntity
  8
0
100
AcDbLine
 10
298.9022983606349
 20
433.7721713225437
 30
0.0
 11
298.9022983606347
 21
571.3406013225444
 31
0.0
  0
CIRCLE
  5
40F
330
2
100
AcDbEntity
  8
0
100
AcDbCircle
 10
197.7816763902817
 20
220.0705921932574
 30
0.0
 40
5.0
  0
CIRCLE
  5
410
330
2
100
AcDbEntity
  8
0
100
AcDbCircle
 10
197.7816763902817
 20
220.0705921932574
 30
0.0
 40
8.89999999999995
  0
LINE
  5
411
330
2
100
AcDbEntity
  8
0
100
AcDbLine
 10
227.7816763902817
 20
248.1705921932577
 30
0.0
 11
227.7816763902817
 21
239.1705921932576
 31
0.0
  0
LINE
  5
412
330
2
100
AcDbEntity
  8
0
100
AcDbLine
 10
167.7816763902817
 20
248.1705921932577
 30
0.0
 11
167.7816763902817
 21
239.1705921932576
 31
0.0
  0
ARC
  5
413
330
2
100
AcDbEntity
  8
0
100
AcDbCircle
 10
197.7816763902817
 20
239.1705921932576
 30
0.0
 40
30.00000000000011
100
AcDbArc
 50
180.0
 51
0.0
  0
ARC
  5
414
330
2
100
AcDbEntity
  8
0
100
AcDbCircle
 10
197.7816763902817
 20
248.1705921932577
 30
0.0
 40
30.0
100
AcDbArc
 50
0.0
 51
180.0
  0
LINE
  5
415
330
2
100
AcDbEntity
  8
0
100
AcDbLine
 10
171.5316763902817
 20
301.8705921932576
 30
0.0
 11
171.5316763902817
 21
296.8705921932576
 31
0.0
  0
LINE
  5
416
330
2
100
AcDbEntity
  8
0
100
AcDbLine
 10
170.0316763902815
 20
278.1705921932577
 30
0.0
 11
170.0316763902816
 21
259.5696053084355
 31
0.0
  0
LINE
  5
417
330
2
100
AcDbEntity
  8
0
100
AcDbLine
 10
169.0316763902817
 20
296.8705921932576
 30
0.0
 11
169.0316763902817
 21
278.1705921932576
 31
0.0
  0
LINE
  5
418
330
2
100
AcDbEntity
  8
0
100
AcDbLine
 10
169.0316763902817
 20
310.1705921932576
 30
0.0
 11
169.0316763902817
 21
301.8705921932576
 31
0.0
  0
LINE
  5
419
330
2
100
AcDbEntity
  8
0
100
AcDbLine
 10
226.5316763902817
 20
307.8705921932576
 30
0.0
 11
169.0316763902817
 21
307.8705921932576
 31
0.0
  0
LINE
  5
41A
330
2
100
AcDbEntity
  8
0
100
AcDbLine
 10
171.5316763902817
 20
301.8705921932576
 30
0.0
 11
169.0316763902817
 21
301.8705921932576
 31
0.0
  0
LINE
  5
41B
330
2
100
AcDbEntity
  8
0
100
AcDbLine
 10
226.5316763902817
 20
301.8705921932576
 30
0.0
 11
224.0316763902817
 21
301.8705921932576
 31
0.0
  0
LINE
  5
41C
330
2
100
AcDbEntity
  8
0
100
AcDbLine
 10
171.5316763902817
 20
296.8705921932576
 30
0.0
 11
169.0316763902817
 21
296.8705921932576
 31
0.0
  0
LINE
  5
41D
330
2
100
AcDbEntity
  8
0
100
AcDbLine
 10
226.5316763902817
 20
296.8705921932576
 30
0.0
 11
224.0316763902817
 21
296.8705921932576
 31
0.0
  0
LINE
  5
41E
330
2
100
AcDbEntity
  8
0
100
AcDbLine
 10
226.5316763902817
 20
310.1705921932576
 30
0.0
 11
169.0316763902817
 21
310.1705921932576
 31
0.0
  0
LINE
  5
41F
330
2
100
AcDbEntity
  8
0
100
AcDbLine
 10
224.0316763902817
 20
296.8705921932576
 30
0.0
 11
224.0316763902817
 21
301.8705921932575
 31
0.0
  0
LINE
  5
420
330
2
100
AcDbEntity
  8
0
100
AcDbLine
 10
226.5316763902817
 20
301.8705921932575
 30
0.0
 11
226.5316763902817
 21
310.1705921932576
 31
0.0
  0
LINE
  5
421
330
2
100
AcDbEntity
  8
0
100
AcDbLine
 10
225.5316763902817
 20
259.5696053084357
 30
0.0
 11
225.5316763902817
 21
278.1705921932576
 31
0.0
  0
LINE
  5
422
330
2
100
AcDbEntity
  8
0
100
AcDbLine
 10
226.5316763902818
 20
278.1705921932576
 30
0.0
 11
226.5316763902817
 21
296.8705921932576
 31
0.0
  0
LINE
  5
423
330
2
100
AcDbEntity
  8
0
100
AcDbLine
 10
169.0316763902817
 20
278.1705921932576
 30
0.0
 11
226.5316763902817
 21
278.1705921932576
 31
0.0
  0
LINE
  5
424
330
2
100
AcDbEntity
  8
0
100
AcDbLine
 10
404.5522983960215
 20
519.972171308138
 30
0.0
 11
404.5522983960215
 21
540.972171308138
 31
0.0
  0
LINE
  5
425
330
2
100
AcDbEntity
  8
0
100
AcDbLine
 10
421.0522983960215
 20
519.972171308138
 30
0.0
 11
404.5522983960215
 21
519.972171308138
 31
0.0
  0
LINE
  5
426
330
2
100
AcDbEntity
  8
0
100
AcDbLine
 10
421.0522983960215
 20
541.6420442892165
 30
0.0
 11
421.0522983960215
 21
519.972171308138
 31
0.0
  0
LINE
  5
427
330
2
100
AcDbEntity
  8
03-01
100
AcDbLine
 10
334.5522983960216
 20
651.972171308139
 30
0.0
 11
423.5522983960215
 21
651.972171308139
 31
0.0
  0
ARC
  5
428
330
2
100
AcDbEntity
  8
0
100
AcDbCircle
 10
401.9254041240253
 20
545.9721713081387
 30
0.0
 40
5.0
100
AcDbArc
 50
201.9911299171736
 51
270.0
  0
ARC
  5
429
330
2
100
AcDbEntity
  8
0
100
AcDbCircle
 10
360.6867697560026
 20
567.9721713081387
 30
0.0
 40
25.0
100
AcDbArc
 50
21.99112991717358
 51
90.0
  0
LINE
  5
42A
330
2
100
AcDbEntity
  8
0
100
AcDbLine
 10
383.8678156837011
 20
577.3337475481707
 30
0.0
 11
397.2891949384855
 21
544.0998560601324
 31
0.0
  0
ARC
  5
42B
330
2
100
AcDbEntity
  8
0
100
AcDbCircle
 10
339.5522983960216
 20
597.9721713081387
 30
0.0
 40
5.0
100
AcDbArc
 50
180.0
 51
270.0
  0
LINE
  5
42C
330
2
100
AcDbEntity
  8
0
100
AcDbLine
 10
334.5522983960216
 20
677.9721713081387
 30
0.0
 11
334.5522983960216
 21
597.9721713081387
 31
0.0
  0
LINE
  5
42D
330
2
100
AcDbEntity
  8
0
100
AcDbLine
 10
360.6867697560026
 20
592.9721713081387
 30
0.0
 11
339.5522983960216
 21
592.9721713081387
 31
0.0
  0
ARC
  5
42E
330
2
100
AcDbEntity
  8
0
100
AcDbCircle
 10
339.5522983960216
 20
677.9721713081387
 30
0.0
 40
5.0
100
AcDbArc
 50
90.0
 51
180.0
  0
LINE
  5
42F
330
2
100
AcDbEntity
  8
0
100
AcDbLine
 10
418.5522983960216
 20
682.9721713081387
 30
0.0
 11
339.5522983960216
 21
682.9721713081387
 31
0.0
  0
ARC
  5
430
330
2
100
AcDbEntity
  8
0
100
AcDbCircle
 10
418.5522983960216
 20
677.9721713081387
 30
0.0
 40
5.0
100
AcDbArc
 50
0.0
 51
90.0
  0
LINE
  5
431
330
2
100
AcDbEntity
  8
0
100
AcDbLine
 10
423.5522983960215
 20
545.9721713081387
 30
0.0
 11
423.5522983960215
 21
677.9721713081387
 31
0.0
  0
ARC
  5
432
330
2
100
AcDbEntity
  8
0
100
AcDbCircle
 10
418.5522983960216
 20
545.9721713081387
 30
0.0
 40
5.0
100
AcDbArc
 50
270.0
 51
0.0
  0
LINE
  5
433
330
2
100
AcDbEntity
  8
0
100
AcDbLine
 10
401.9254041240253
 20
540.9721713081387
 30
0.0
 11
418.5522983960216
 21
540.9721713081387
 31
0.0
  0
LINE
  5
434
330
2
100
AcDbEntity
  8
0
100
AcDbLine
 10
311.9022983960251
 20
450.9757275914903
 30
0.0
 11
310.1378304518605
 21
450.9757275914903
 31
0.0
  0
ARC
  5
435
330
2
100
AcDbEntity
  8
0
100
AcDbCircle
 10
325.4022983952006
 20
517.7721711427722
 30
0.0
 40
1.0
100
AcDbArc
 50
180.0
 51
269.999999999987
  0
LINE
  5
436
330
2
100
AcDbEntity
  8
0
100
AcDbLine
 10
331.9022983952003
 20
516.7721711409923
 30
0.0
 11
325.4022983952003
 21
516.7721711427722
 31
0.0
  0
LINE
  5
437
330
2
100
AcDbEntity
  8
0
100
AcDbLine
 10
330.4022983960185
 20
445.7721713068187
 30
0.0
 11
331.9022983960183
 21
445.7721713068187
 31
0.0
  0
LINE
  5
438
330
2
100
AcDbEntity
  8
0
100
AcDbLine
 10
331.9022983960201
 20
464.7721713068188
 30
0.0
 11
330.7022983960203
 21
464.7721713068188
 31
0.0
  0
ARC
  5
439
330
2
100
AcDbEntity
  8
0
100
AcDbCircle
 10
330.7022983960199
 20
461.7721713068188
 30
0.0
 40
3.000000000000014
100
AcDbArc
 50
89.99999999998697
 51
180.0
  0
ARC
  5
43A
330
2
100
AcDbEntity
  8
0
100
AcDbCircle
 10
328.2022983960185
 20
445.2721713092866
 30
0.0
 40
0.5
100
AcDbArc
 50
180.0
 51
269.9999999797943
  0
LINE
  5
43B
330
2
100
AcDbEntity
  8
0
100
AcDbLine
 10
327.7022983960198
 20
461.7721713094631
 30
0.0
 11
327.7022983960185
 21
445.2721713092866
 31
0.0
  0
LINE
  5
43C
330
2
100
AcDbEntity
  8
0
100
AcDbLine
 10
328.202298395842
 20
444.7721713092867
 30
0.0
 11
331.9022983960183
 21
444.772171307982
 31
0.0
  0
ARC
  5
43D
330
2
100
AcDbEntity
  8
0
100
AcDbCircle
 10
323.7022983960251
 20
451.9757275914892
 30
0.0
 40
0.5
100
AcDbArc
 50
0.0
 51
89.99999999998697
  0
LINE
  5
43E
330
2
100
AcDbEntity
  8
0
100
AcDbLine
 10
324.2022983960178
 20
434.7721713073211
 30
0.0
 11
324.2022983960251
 21
451.9757275914892
 31
0.0
  0
LINE
  5
43F
330
2
100
AcDbEntity
  8
0
100
AcDbLine
 10
326.202298395516
 20
432.7721713090018
 30
0.0
 11
331.9022983960176
 21
432.7721713076325
 31
0.0
  0
ARC
  5
440
330
2
100
AcDbEntity
  8
0
100
AcDbCircle
 10
326.202298396018
 20
434.7721713090018
 30
0.0
 40
2.0
100
AcDbArc
 50
180.0
 51
269.9999999856176
  0
LINE
  5
441
330
2
100
AcDbEntity
  8
0
100
AcDbLine
 10
323.7022983960251
 20
452.4757275914891
 30
0.0
 11
310.4022983829857
 21
452.4757275914906
 31
0.0
  0
LINE
  5
442
330
2
100
AcDbEntity
  8
0
100
AcDbLine
 10
331.9022983960203
 20
485.7721713077236
 30
0.0
 11
331.9022983952003
 21
516.7721711409923
 31
0.0
  0
LINE
  5
443
330
2
100
AcDbEntity
  8
0
100
AcDbLine
 10
331.9022983960183
 20
445.7721713068187
 30
0.0
 11
331.9022983960202
 21
484.7721713088869
 31
0.0
  0
LINE
  5
444
330
2
100
AcDbEntity
  8
0
100
AcDbLine
 10
330.4022983960185
 20
445.7721713068187
 30
0.0
 11
330.4022983960201
 21
464.7571336181388
 31
0.0
  0
LINE
  5
445
330
2
100
AcDbEntity
  8
0
100
AcDbLine
 10
331.9022983960176
 20
432.7721713076325
 30
0.0
 11
331.9022983960183
 21
444.772171307982
 31
0.0
  0
LINE
  5
446
330
2
100
AcDbEntity
  8
0
100
AcDbLine
 10
324.4022983952037
 20
517.7721711427735
 30
0.0
 11
324.4022983952118
 21
538.7721712974098
 31
0.0
  0
ARC
  5
447
330
2
100
AcDbEntity
  8
0
100
AcDbCircle
 10
324.9022983952118
 20
538.7721712974098
 30
0.0
 40
0.5
100
AcDbArc
 50
0.0
 51
180.0
  0
LINE
  5
448
330
2
100
AcDbEntity
  8
0
100
AcDbLine
 10
325.4022983952118
 20
538.7721712974098
 30
0.0
 11
325.4022983952118
 21
519.2721712974098
 31
0.0
  0
ARC
  5
449
330
2
100
AcDbEntity
  8
0
100
AcDbCircle
 10
326.4022983952118
 20
519.2721712974098
 30
0.0
 40
1.0
100
AcDbArc
 50
180.0
 51
270.0
  0
LINE
  5
44A
330
2
100
AcDbEntity
  8
0
100
AcDbLine
 10
326.4022983952118
 20
518.2721712974098
 30
0.0
 11
327.4022983952118
 21
518.2721712974098
 31
0.0
  0
ARC
  5
44B
330
2
100
AcDbEntity
  8
0
100
AcDbCircle
 10
327.4022983952118
 20
519.2721712974098
 30
0.0
 40
1.0
100
AcDbArc
 50
270.0
 51
0.0
  0
LINE
  5
44C
330
2
100
AcDbEntity
  8
0
100
AcDbLine
 10
328.4022983952118
 20
519.2721712974098
 30
0.0
 11
328.4022983952118
 21
542.7721712974098
 31
0.0
  0
LINE
  5
44D
330
2
100
AcDbEntity
  8
0
100
AcDbLine
 10
328.4022983952118
 20
542.7721712974098
 30
0.0
 11
321.9022983952118
 21
553.2721712974098
 31
0.0
  0
LINE
  5
44E
330
2
100
AcDbEntity
  8
0
100
AcDbLine
 10
321.9022983952118
 20
553.2721712974098
 30
0.0
 11
310.4022983821729
 21
553.2721712974098
 31
0.0
  0
LINE
  5
44F
330
2
100
AcDbEntity
  8
09-01
100
AcDbLine
 10
310.1378304518605
 20
450.9757275914903
 30
0.0
 11
311.9022983960251
 21
450.9757275914903
 31
0.0
  0
LINE
  5
452
330
2
100
AcDbEntity
  8
0
  6
Continuous
 62
     7
370
    15
100
AcDbLine
 10
310.4022983829862
 20
560.272171650369
 30
0.0
 11
310.4022983829857
 21
452.4757275914906
 31
0.0
  0
LINE
  5
453
330
2
100
AcDbEntity
  8
0
  6
Continuous
 62
     7
370
    15
100
AcDbLine
 10
311.9022983960251
 20
620.7721713225435
 30
0.0
 11
311.9022983960251
 21
610.2721714641045
 31
0.0
  0
LINE
  5
454
330
2
100
AcDbEntity
  8
0
  6
Continuous
 62
     7
370
    15
100
AcDbLine
 10
310.4022983829857
 20
452.4757275914906
 30
0.0
 11
299.5958328615318
 21
456.4089631726585
 31
0.0
  0
LINE
  5
455
330
2
100
AcDbEntity
  8
0
  6
Continuous
 62
     7
370
    15
100
AcDbLine
 10
299.082802645434
 20
454.9994325330101
 30
0.0
 11
299.5958328615318
 21
456.4089631726585
 31
0.0
  0
LINE
  5
456
330
2
100
AcDbEntity
  8
0
  6
Continuous
 62
     7
370
    15
100
AcDbLine
 10
310.1378304518605
 20
450.9757275914903
 30
0.0
 11
299.082802645434
 21
454.9994325330101
 31
0.0
  0
LINE
  5
457
330
2
100
AcDbEntity
  8
0
  6
Continuous
 62
     7
370
    15
100
AcDbLine
 10
298.9022983606349
 20
620.7721713225435
 30
0.0
 11
298.9022983606349
 21
619.272171309505
 31
0.0
  0
LINE
  5
458
330
2
100
AcDbEntity
  8
0
  6
Continuous
 62
     7
370
    15
100
AcDbLine
 10
298.9022983606349
 20
620.7721713225435
 30
0.0
 11
311.9022983960251
 21
620.7721713225435
 31
0.0
  0
LINE
  5
459
330
2
100
AcDbEntity
  8
0
  6
Continuous
 62
     7
370
    15
100
AcDbLine
 10
311.9022983960251
 20
452.4757275914903
 30
0.0
 11
311.9022983960251
 21
450.9757275914903
 31
0.0
  0
LINE
  5
45A
330
2
100
AcDbEntity
  8
0
  6
Continuous
 62
     7
370
    15
100
AcDbLine
 10
311.9022983960251
 20
610.2721714641045
 30
0.0
 11
311.9022983952118
 21
553.2721712974098
 31
0.0
  0
LINE
  5
45B
330
2
100
AcDbEntity
  8
0
  6
Continuous
 62
     7
370
    15
100
AcDbLine
 10
298.9022983606349
 20
605.2721715758632
 30
0.0
 11
298.9022983606349
 21
565.2721706072878
 31
0.0
  0
ARC
  5
45C
330
2
100
AcDbEntity
  8
0
  6
Continuous
 62
     7
370
    15
100
AcDbCircle
 10
303.9022983829866
 20
605.2721713225435
 30
0.0
 40
5.000000000000056
100
AcDbArc
 50
90.0
 51
180.0
  0
ARC
  5
45D
330
2
100
AcDbEntity
  8
0
  6
Continuous
 62
     7
370
    15
100
AcDbCircle
 10
303.9022983829866
 20
565.2721713225434
 30
0.0
 40
5.0
100
AcDbArc
 50
180.0
 51
270.0
  0
LINE
  5
45E
330
2
100
AcDbEntity
  8
0
  6
Continuous
 62
     7
370
    15
100
AcDbLine
 10
303.9022982488762
 20
560.272171650369
 30
0.0
 11
311.9022983960251
 21
560.272171650369
 31
0.0
  0
LINE
  5
45F
330
2
100
AcDbEntity
  8
0
  6
Continuous
 62
     7
370
    15
100
AcDbLine
 10
311.9022983960251
 20
610.2721714641045
 30
0.0
 11
303.9022982488762
 21
610.2721714641045
 31
0.0
  0
LINE
  5
460
330
2
100
AcDbEntity
  8
0
100
AcDbLine
 10
387.2022983960217
 20
462.8721713081388
 30
0.0
 11
423.8022983960215
 21
462.8721713081388
 31
0.0
  0
LINE
  5
461
330
2
100
AcDbEntity
  8
0
 62
     4
100
AcDbLine
 10
372.4421728876205
 20
449.7479039917595
 30
0.0
 11
355.5022983960216
 21
448.3316081378085
 31
0.0
  0
LINE
  5
462
330
2
100
AcDbEntity
  8
0
 62
     4
100
AcDbLine
 10
367.7624871525652
 20
440.2831501623717
 30
0.0
 11
356.0506482682597
 21
439.3039558441251
 31
0.0
  0
ARC
  5
463
330
2
100
AcDbEntity
  8
0
 62
     4
100
AcDbCircle
 10
371.1092241664594
 20
443.6817202854705
 30
0.0
 40
3.650000000000034
100
AcDbArc
 50
5.367936223717709
 51
185.3679362237177
  0
ARC
  5
464
330
2
100
AcDbEntity
  8
0
 62
     4
100
AcDbCircle
 10
375.008238765012
 20
402.1866152447141
 30
0.0
 40
3.650000000000051
100
AcDbArc
 50
185.3679362237177
 51
5.367936223717709
  0
LINE
  5
465
330
2
100
AcDbEntity
  8
0
 62
     4
100
AcDbLine
 10
367.4752313383344
 20
443.340258537778
 30
0.0
 11
371.3742459368873
 21
401.8451534970217
 31
0.0
  0
LINE
  5
466
330
2
100
AcDbEntity
  8
0
 62
     4
100
AcDbLine
 10
374.3488254695517
 20
448.2204778741389
 30
0.0
 11
378.6422315931368
 21
402.5280769924065
 31
0.0
  0
ARC
  5
467
330
2
100
AcDbEntity
  8
0
 62
     4
100
AcDbCircle
 10
372.6562808646718
 20
448.0614408957617
 30
0.0
 40
1.7
100
AcDbArc
 50
5.367936223717709
 51
97.23538178383453
  0
ARC
  5
468
330
2
100
AcDbEntity
  8
0
100
AcDbCircle
 10
328.8532441212326
 20
439.4858729252393
 30
0.0
 40
2.0
100
AcDbArc
 50
197.880059774133
 51
262.4112895751999
  0
LINE
  5
469
330
2
100
AcDbEntity
  8
0
100
AcDbLine
 10
326.9498414946395
 20
438.871822079561
 30
0.0
 11
324.7022983960217
 21
445.8386383740069
 31
0.0
  0
LINE
  5
46A
330
2
100
AcDbEntity
  8
0
100
AcDbLine
 10
348.1546848020037
 20
434.8967100436182
 30
0.0
 11
328.5891219645832
 21
437.5033897635538
 31
0.0
  0
ARC
  5
46B
330
2
100
AcDbEntity
  8
0
100
AcDbCircle
 10
352.1516871489577
 20
437.4995738049841
 30
0.0
 40
3.650000000000034
100
AcDbArc
 50
353.0000000000005
 51
173.0000000000004
  0
ARC
  5
46C
330
2
100
AcDbEntity
  8
0
100
AcDbCircle
 10
347.0724307292755
 20
396.1323499265772
 30
0.0
 40
3.650000000000051
100
AcDbArc
 50
173.0000000000004
 51
353.0000000000005
  0
LINE
  5
46D
330
2
100
AcDbEntity
  8
0
100
AcDbLine
 10
348.5288936954669
 20
437.9443969084128
 30
0.0
 11
343.4496372757847
 21
396.5771730300059
 31
0.0
  0
LINE
  5
46E
330
2
100
AcDbEntity
  8
0
100
AcDbLine
 10
356.2882554639568
 20
441.239111159663
 30
0.0
 11
350.6952241827664
 21
395.6875268231485
 31
0.0
  0
ARC
  5
46F
330
2
100
AcDbEntity
  8
0
 62
     4
100
AcDbCircle
 10
354.6009270061668
 20
441.4462890434517
 30
0.0
 40
1.7
100
AcDbArc
 50
353.0000000000005
 51
84.86744556012716
  0
LINE
  5
470
330
2
100
AcDbEntity
  8
0
100
AcDbLine
 10
423.8022983960218
 20
475.5721713081388
 30
0.0
 11
387.2022983960219
 21
475.5721713081388
 31
0.0
  0
LINE
  5
471
330
2
100
AcDbEntity
  8
0
100
AcDbLine
 10
387.2022983960217
 20
492.5721713081387
 30
0.0
 11
365.5022983960216
 21
510.2765343630464
 31
0.0
  0
LINE
  5
472
330
2
100
AcDbEntity
  8
0
100
AcDbLine
 10
400.8022983960215
 20
549.4721713081387
 30
0.0
 11
400.8022983960215
 21
540.9721713081387
 31
0.0
  0
LINE
  5
473
330
2
100
AcDbEntity
  8
0
100
AcDbLine
 10
394.8022983960216
 20
549.4721713081387
 30
0.0
 11
400.8022983960215
 21
549.4721713081387
 31
0.0
  0
LINE
  5
474
330
2
100
AcDbEntity
  8
0
100
AcDbLine
 10
394.8022983960216
 20
540.9721713081387
 30
0.0
 11
394.8022983960216
 21
549.4721713081387
 31
0.0
  0
LINE
  5
475
330
2
100
AcDbEntity
  8
0
100
AcDbLine
 10
366.8022983960218
 20
545.9721713081387
 30
0.0
 11
366.8022983960218
 21
540.9721713081387
 31
0.0
  0
LINE
  5
476
330
2
100
AcDbEntity
  8
0
100
AcDbLine
 10
362.8022983960218
 20
545.9721713081387
 30
0.0
 11
366.8022983960218
 21
545.9721713081387
 31
0.0
  0
LINE
  5
477
330
2
100
AcDbEntity
  8
0
100
AcDbLine
 10
362.8022983960218
 20
540.9721713081387
 30
0.0
 11
362.8022983960218
 21
545.9721713081387
 31
0.0
  0
LINE
  5
478
330
2
100
AcDbEntity
  8
0
100
AcDbLine
 10
387.2022983960217
 20
492.5721713081387
 30
0.0
 11
423.8022983960215
 21
492.5721713081387
 31
0.0
  0
LINE
  5
479
330
2
100
AcDbEntity
  8
0
100
AcDbLine
 10
387.2022983960217
 20
445.1765343630464
 30
0.0
 11
387.2022983960217
 21
492.5721713081387
 31
0.0
  0
LINE
  5
47A
330
2
100
AcDbEntity
  8
0
100
AcDbLine
 10
377.7022983960216
 20
455.8765343630464
 30
0.0
 11
365.5022983960216
 21
455.8765343630464
 31
0.0
  0
LINE
  5
47B
330
2
100
AcDbEntity
  8
0
100
AcDbLine
 10
377.7022983960216
 20
445.1765343630464
 30
0.0
 11
377.7022983960216
 21
455.8765343630464
 31
0.0
  0
LINE
  5
47C
330
2
100
AcDbEntity
  8
0
100
AcDbLine
 10
393.7022983960217
 20
445.1765343630464
 30
0.0
 11
377.7022983960216
 21
445.1765343630464
 31
0.0
  0
LINE
  5
47D
330
2
100
AcDbEntity
  8
0
100
AcDbLine
 10
393.7022983960217
 20
442.1765343630465
 30
0.0
 11
393.7022983960217
 21
445.1765343630464
 31
0.0
  0
LINE
  5
47E
330
2
100
AcDbEntity
  8
0
100
AcDbLine
 10
415.2022983960216
 20
442.1765343630465
 30
0.0
 11
393.7022983960217
 21
442.1765343630465
 31
0.0
  0
LINE
  5
47F
330
2
100
AcDbEntity
  8
0
100
AcDbLine
 10
415.2022983960216
 20
440.6765343630464
 30
0.0
 11
415.2022983960216
 21
442.1765343630465
 31
0.0
  0
LINE
  5
480
330
2
100
AcDbEntity
  8
0
100
AcDbLine
 10
423.8022983960215
 20
438.3721713081387
 30
0.0
 11
415.2022983960216
 21
440.6765343630464
 31
0.0
  0
LINE
  5
481
330
2
100
AcDbEntity
  8
0
100
AcDbLine
 10
423.8022983960215
 20
438.3721713081387
 30
0.0
 11
423.8022983960215
 21
438.3721713081387
 31
0.0
  0
LINE
  5
482
330
2
100
AcDbEntity
  8
0
100
AcDbLine
 10
400.8022983960215
 20
540.9721713081387
 30
0.0
 11
423.8022983960215
 21
540.9721713081387
 31
0.0
  0
LINE
  5
483
330
2
100
AcDbEntity
  8
0
100
AcDbLine
 10
366.8022983960218
 20
540.9721713081387
 30
0.0
 11
394.8022983960216
 21
540.9721713081387
 31
0.0
  0
LINE
  5
484
330
2
100
AcDbEntity
  8
0
100
AcDbLine
 10
354.7022983960216
 20
540.9721713081387
 30
0.0
 11
362.8022983960218
 21
540.9721713081387
 31
0.0
  0
LINE
  5
485
330
2
100
AcDbEntity
  8
0
100
AcDbLine
 10
354.7022983960216
 20
532.0721713081387
 30
0.0
 11
354.7022983960216
 21
540.9721713081387
 31
0.0
  0
LINE
  5
486
330
2
100
AcDbEntity
  8
0
100
AcDbLine
 10
357.1022983960215
 20
532.0721713081387
 30
0.0
 11
354.7022983960216
 21
532.0721713081387
 31
0.0
  0
LINE
  5
487
330
2
100
AcDbEntity
  8
0
100
AcDbLine
 10
423.8022983960215
 20
540.9721713081387
 30
0.0
 11
423.8022983960215
 21
438.3721713081387
 31
0.0
  0
LINE
  5
488
330
2
100
AcDbEntity
  8
0
100
AcDbLine
 10
357.1022983960215
 20
512.5721713081388
 30
0.0
 11
357.1022983960215
 21
532.0721713081387
 31
0.0
  0
LINE
  5
489
330
2
100
AcDbEntity
  8
0
100
AcDbLine
 10
365.5022983960216
 20
453.2721713081387
 30
0.0
 11
355.5022983960216
 21
453.2721713081388
 31
0.0
  0
LINE
  5
48A
330
2
100
AcDbEntity
  8
0
100
AcDbLine
 10
365.5022983960216
 20
512.5721713081388
 30
0.0
 11
365.5022983960216
 21
453.2721713081387
 31
0.0
  0
LINE
  5
48B
330
2
100
AcDbEntity
  8
0
100
AcDbLine
 10
355.5022983960216
 20
512.5721713081388
 30
0.0
 11
365.5022983960216
 21
512.5721713081388
 31
0.0
  0
CIRCLE
  5
48C
330
2
100
AcDbEntity
  8
0
100
AcDbCircle
 10
333.1022983960215
 20
528.0721713081387
 30
0.0
 40
2.45
  0
LINE
  5
48D
330
2
100
AcDbEntity
  8
0
100
AcDbLine
 10
335.602756244888
 20
520.7721713081387
 30
0.0
 11
336.1948007850588
 21
444.8063776803809
 31
0.0
  0
LINE
  5
48E
330
2
100
AcDbEntity
  8
0
100
AcDbLine
 10
330.4022983960217
 20
520.7721713081387
 30
0.0
 11
329.4022983960217
 21
445.4164826853842
 31
0.0
  0
ARC
  5
48F
330
2
100
AcDbEntity
  8
0
100
AcDbCircle
 10
330.5839349975381
 20
528.2721713081387
 30
0.0
 40
6.5
100
AcDbArc
 50
90.0
 51
171.0000000000013
  0
LINE
  5
490
330
2
100
AcDbEntity
  8
0
100
AcDbLine
 10
330.5839349975381
 20
534.7721713081386
 30
0.0
 11
333.3333917759655
 21
534.7721713081386
 31
0.0
  0
ARC
  5
491
330
2
100
AcDbEntity
  8
0
100
AcDbCircle
 10
333.3333917759655
 20
528.2721713081387
 30
0.0
 40
6.5
100
AcDbArc
 50
8.999999999998701
 51
90.0
  0
LINE
  5
492
330
2
100
AcDbEntity
  8
0
100
AcDbLine
 10
341.1022983960215
 20
520.7721713081387
 30
0.0
 11
339.753365989834
 21
529.2889953309002
 31
0.0
  0
LINE
  5
493
330
2
100
AcDbEntity
  8
0
100
AcDbLine
 10
322.1022983960215
 20
516.2721713081388
 30
0.0
 11
324.1639607836696
 21
529.2889953309002
 31
0.0
  0
ARC
  5
494
330
2
100
AcDbEntity
  8
0
100
AcDbCircle
 10
337.1683814615235
 20
529.2721713081387
 30
0.0
 40
1.0
100
AcDbArc
 50
3.914137218614034
 51
90.0
  0
LINE
  5
495
330
2
100
AcDbEntity
  8
0
100
AcDbLine
 10
336.6022983960215
 20
530.2721713081386
 30
0.0
 11
337.1683814615235
 21
530.2721713081386
 31
0.0
  0
ARC
  5
496
330
2
100
AcDbEntity
  8
0
100
AcDbCircle
 10
329.6022983960215
 20
529.2721713081387
 30
0.0
 40
1.0
100
AcDbArc
 50
0.0
 51
90.0
  0
ARC
  5
497
330
2
100
AcDbEntity
  8
0
100
AcDbCircle
 10
329.0362153305198
 20
529.2721713081387
 30
0.0
 40
1.0
100
AcDbArc
 50
90.0
 51
176.085862781386
  0
LINE
  5
498
330
2
100
AcDbEntity
  8
0
100
AcDbLine
 10
329.0362153305198
 20
530.2721713081388
 30
0.0
 11
329.6022983960215
 21
530.2721713081388
 31
0.0
  0
ARC
  5
499
330
2
100
AcDbEntity
  8
0
100
AcDbCircle
 10
336.6022983960215
 20
529.2721713081387
 30
0.0
 40
1.0
100
AcDbArc
 50
90.0
 51
180.0
  0
LINE
  5
49A
330
2
100
AcDbEntity
  8
0
100
AcDbLine
 10
335.6022983960215
 20
529.2721713081387
 30
0.0
 11
335.6022983960215
 21
528.0721713081387
 31
0.0
  0
LINE
  5
49B
330
2
100
AcDbEntity
  8
0
100
AcDbLine
 10
330.6022983960215
 20
528.0721713081387
 30
0.0
 11
330.6022983960215
 21
529.2721713081387
 31
0.0
  0
ARC
  5
49C
330
2
100
AcDbEntity
  8
0
100
AcDbCircle
 10
333.1022983960215
 20
528.0721713081387
 30
0.0
 40
2.5
100
AcDbArc
 50
180.0
 51
0.0
  0
LINE
  5
49D
330
2
100
AcDbEntity
  8
0
100
AcDbLine
 10
328.0385478642156
 20
529.3404327663595
 30
0.0
 11
327.4522983960217
 21
520.7721713081387
 31
0.0
  0
LINE
  5
49E
330
2
100
AcDbEntity
  8
0
100
AcDbLine
 10
338.7522983960216
 20
520.7721713081387
 30
0.0
 11
338.1660489278277
 21
529.3404327663595
 31
0.0
  0
LINE
  5
49F
330
2
100
AcDbEntity
  8
0
100
AcDbLine
 10
322.1022983960215
 20
446.0721713081388
 30
0.0
 11
355.3933523744963
 21
443.0819568789344
 31
0.0
  0
LINE
  5
4A0
330
2
100
AcDbEntity
  8
0
100
AcDbLine
 10
324.6022983960215
 20
520.7721713081387
 30
0.0
 11
324.6022983960215
 21
516.2721713081388
 31
0.0
  0
LINE
  5
4A1
330
2
100
AcDbEntity
  8
0
100
AcDbLine
 10
322.1022983960215
 20
516.2721713081388
 30
0.0
 11
322.1022983960215
 21
446.0721713081388
 31
0.0
  0
LINE
  5
4A2
330
2
100
AcDbEntity
  8
0
100
AcDbLine
 10
324.6022983960215
 20
516.2721713081388
 30
0.0
 11
322.1022983960215
 21
516.2721713081387
 31
0.0
  0
LINE
  5
4A3
330
2
100
AcDbEntity
  8
0
100
AcDbLine
 10
355.5022983960216
 20
520.7721713081387
 30
0.0
 11
324.6022983960215
 21
520.7721713081387
 31
0.0
  0
ARC
  5
4A4
330
2
100
AcDbEntity
  8
0
 62
     4
100
AcDbCircle
 10
355.4022983960217
 20
443.1815559185827
 30
0.0
 40
0.1
100
AcDbArc
 50
264.8674455601271
 51
0.0
  0
LINE
  5
4A5
330
2
100
AcDbEntity
  8
0
100
AcDbLine
 10
355.5022983960216
 20
443.1815559185827
 30
0.0
 11
355.5022983960216
 21
520.7721713081387
 31
0.0
  0
ENDSEC
  0
SECTION
  2
OBJECTS
  0
DICTIONARY
  5
B
330
0
100
AcDbDictionary
281
     1
  3
ACAD_COLOR
350
4E
  3
ACAD_GROUP
350
3B
  3
ACAD_LAYOUT
350
18
  3
ACAD_MATERIAL
350
D
  3
ACAD_MLEADERSTYLE
350
51
  3
ACAD_MLINESTYLE
350
3C
  3
ACAD_PLOTSETTINGS
350
3D
  3
ACAD_PLOTSTYLENAME
350
A
  3
ACAD_SCALELIST
350
4F
  3
ACAD_TABLESTYLE
350
50
  3
ACAD_VISUALSTYLE
350
31
  3
ACDB_RECOMPOSE_DATA
350
4B1
  3
AcDbVariableDictionary
350
4A8
  0
DICTIONARY
  5
32
330
2E
100
AcDbDictionary
280
     1
281
     1
  0
DICTIONARY
  5
21
330
20
100
AcDbDictionary
280
     1
281
     1
  3
ACAD_LAYERFILTERS
360
22
  3
ACAD_LAYERSTATES
360
23
  3
ACLYDICTIONARY
360
24
  0
DICTIONARY
  5
7
330
6
100
AcDbDictionary
280
     1
281
     1
  3
ADSK_XREC_LAYER_RECONCILED
360
8
  0
DICTIONARY
  5
24D
330
24C
100
AcDbDictionary
280
     1
281
     1
  3
ADSK_XREC_LAYER_RECONCILED
360
24E
  0
DICTIONARY
  5
28B
330
28A
100
AcDbDictionary
280
     1
281
     1
  3
ADSK_XREC_LAYER_RECONCILED
360
28C
  0
DICTIONARY
  5
253
330
252
100
AcDbDictionary
280
     1
281
     1
  3
ADSK_XREC_LAYER_RECONCILED
360
254
  0
DICTIONARY
  5
275
330
274
100
AcDbDictionary
280
     1
281
     1
  3
ADSK_XREC_LAYER_RECONCILED
360
276
  0
DICTIONARY
  5
451
330
450
100
AcDbDictionary
280
     1
281
     1
  0
DICTIONARY
  5
148
330
147
100
AcDbDictionary
280
     1
281
     1
  0
DICTIONARY
  5
BB
330
BA
100
AcDbDictionary
280
     1
281
     1
  0
DICTIONARY
  5
3
330
2
100
AcDbDictionary
280
     1
281
     1
  3
ACAD_SORTENTS
360
4A7
  0
DICTIONARY
  5
248
330
247
100
AcDbDictionary
280
     1
281
     1
  3
ACAD_SORTENTS
360
4A6
  0
DICTIONARY
  5
4E
102
{ACAD_REACTORS
330
B
102
}
330
B
100
AcDbDictionary
281
     1
  0
DICTIONARY
  5
3B
102
{ACAD_REACTORS
330
B
102
}
330
B
100
AcDbDictionary
281
     1
  0
DICTIONARY
  5
18
102
{ACAD_REACTORS
330
B
102
}
330
B
100
AcDbDictionary
281
     1
  3
Layout1
350
1F
  3
Model
350
17
  0
DICTIONARY
  5
D
102
{ACAD_REACTORS
330
B
102
}
330
B
100
AcDbDictionary
281
     1
  3
ByBlock
350
46
  3
ByLayer
350
3E
  3
Global
350
C
  0
DICTIONARY
  5
51
102
{ACAD_REACTORS
330
B
102
}
330
B
100
AcDbDictionary
281
     1
  0
DICTIONARY
  5
3C
102
{ACAD_REACTORS
330
B
102
}
330
B
100
AcDbDictionary
281
     1
  3
Standard
350
52
  0
DICTIONARY
  5
3D
102
{ACAD_REACTORS
330
B
102
}
330
B
100
AcDbDictionary
281
     1
  0
ACDBDICTIONARYWDFLT
  5
A
102
{ACAD_REACTORS
330
B
102
}
330
B
100
AcDbDictionary
281
     1
  3
Normal
350
9
100
AcDbDictionaryWithDefault
340
9
  0
DICTIONARY
  5
4F
102
{ACAD_REACTORS
330
B
102
}
330
B
100
AcDbDictionary
281
     1
  3
A0
350
57
  3
A1
350
58
  3
A2
350
59
  3
A3
350
5A
  3
A4
350
5B
  3
A5
350
5C
  3
A6
350
5D
  3
A7
350
5E
  3
A8
350
5F
  3
A9
350
60
  3
B0
350
61
  3
B1
350
62
  3
B2
350
63
  3
B3
350
64
  3
B4
350
65
  3
B5
350
66
  3
B6
350
67
  3
B7
350
68
  3
B8
350
69
  3
B9
350
6A
  3
C0
350
6B
  3
C1
350
6C
  3
C2
350
6D
  3
C3
350
6E
  3
C4
350
6F
  3
C5
350
70
  3
C6
350
71
  3
C7
350
72
  3
C8
350
73
  3
C9
350
74
  3
D0
350
75
  3
D1
350
76
  3
D2
350
77
  0
DICTIONARY
  5
50
102
{ACAD_REACTORS
330
B
102
}
330
B
100
AcDbDictionary
281
     1
  3
Standard
350
53
  0
DICTIONARY
  5
31
102
{ACAD_REACTORS
330
B
102
}
330
B
100
AcDbDictionary
281
     1
  3
2dWireframe
350
30
  3
3dWireframe
350
56
  3
Realistic
350
55
  0
XRECORD
  5
4B1
102
{ACAD_REACTORS
330
B
102
}
330
B
100
AcDbXrecord
280
     1
 90
        1
330
53
  0
DICTIONARY
  5
4A8
102
{ACAD_REACTORS
330
B
102
}
330
B
100
AcDbDictionary
281
     1
  3
CANNOSCALE
350
4AB
  3
CMLEADERSTYLE
350
4AA
  3
CTABLESTYLE
350
4A9
  3
LAYEREVAL
350
4AD
  3
LAYERNOTIFY
350
4AE
  3
LIGHTINGUNITS
350
4AC
  0
DICTIONARY
  5
22
102
{ACAD_REACTORS
330
21
102
}
330
21
100
AcDbDictionary
281
     1
  0
DICTIONARY
  5
23
102
{ACAD_REACTORS
330
21
102
}
330
21
100
AcDbDictionary
281
     1
  0
DICTIONARY
  5
24
102
{ACAD_REACTORS
330
21
102
}
330
21
100
AcDbDictionary
281
     1
1001
ACAD
1000
<All
  0
XRECORD
  5
8
102
{ACAD_REACTORS
330
7
102
}
330
7
100
AcDbXrecord
280
     1
290
     1
  0
XRECORD
  5
24E
102
{ACAD_REACTORS
330
24D
102
}
330
24D
100
AcDbXrecord
280
     1
290
     1
  0
XRECORD
  5
28C
102
{ACAD_REACTORS
330
28B
102
}
330
28B
100
AcDbXrecord
280
     1
290
     1
  0
XRECORD
  5
254
102
{ACAD_REACTORS
330
253
102
}
330
253
100
AcDbXrecord
280
     1
290
     1
  0
XRECORD
  5
276
102
{ACAD_REACTORS
330
275
102
}
330
275
100
AcDbXrecord
280
     1
290
     1
  0
SORTENTSTABLE
  5
4A7
102
{ACAD_REACTORS
330
3
102
}
330
3
100
AcDbSortentsTable
330
2
331
474
  5
150
331
470
  5
154
331
46C
  5
158
331
468
  5
15C
331
386
  5
23C
331
B5
  5
49D
331
B1
  5
4A1
331
3FC
  5
1C6
331
382
  5
240
331
166
  5
45E
331
37E
  5
244
331
3BD
  5
205
331
3F8
  5
1CA
331
437
  5
18B
331
433
  5
18F
331
162
  5
462
331
37A
  5
2CE
331
3B9
  5
209
331
30D
  5
33B
331
1A7
  5
41B
331
3F4
  5
1CE
331
3F0
  5
1D2
331
2CE
  5
37A
331
1A3
  5
41F
331
21D
  5
3A5
331
309
  5
33F
331
305
  5
343
331
344
  5
304
331
19F
  5
423
331
1DE
  5
3E4
331
219
  5
3A9
331
301
  5
347
331
340
  5
308
331
19B
  5
427
331
1DA
  5
3E8
331
215
  5
3AD
331
211
  5
3B1
331
464
  5
160
331
4A3
  5
97
331
460
  5
164
331
49F
  5
B3
331
49B
  5
B7
331
45C
  5
168
331
458
  5
16C
331
42F
  5
193
331
15E
  5
466
331
376
  5
2D2
331
3B5
  5
20D
331
3B1
  5
211
331
3EC
  5
1D6
331
42B
  5
197
331
15A
  5
46A
331
372
  5
2D6
331
36E
  5
2DA
331
3AD
  5
215
331
DC
  5
485
331
3E8
  5
1DA
331
427
  5
19B
331
156
  5
46E
331
423
  5
19F
331
152
  5
472
331
36A
  5
2DE
331
3A9
  5
219
331
3E4
  5
1DE
331
1D6
  5
3EC
331
2FD
  5
34B
331
197
  5
42B
331
33C
  5
30C
331
3E0
  5
1E2
331
338
  5
310
331
1D2
  5
3F0
331
2F9
  5
34F
331
20D
  5
3B5
331
193
  5
42F
331
2F5
  5
353
331
334
  5
314
331
18F
  5
433
331
1CE
  5
3F4
331
209
  5
3B9
331
2F1
  5
357
331
330
  5
318
331
244
  5
37E
331
18B
  5
437
331
1CA
  5
3F8
331
205
  5
3BD
331
201
  5
3C1
331
240
  5
382
331
497
  5
BE
331
454
  5
170
331
493
  5
C2
331
48F
  5
C6
331
48B
  5
CA
331
44C
  5
176
331
448
  5
17A
331
41F
  5
1A3
331
14E
  5
476
331
366
  5
2E2
331
3A5
  5
21D
331
3A1
  5
221
331
3DC
  5
1E6
331
41B
  5
1A7
331
14A
  5
47A
331
362
  5
2E6
331
35E
  5
2EA
331
39D
  5
225
331
CC
  5
489
331
3D8
  5
1EA
331
417
  5
1AB
331
146
  5
47B
331
35A
  5
2EE
331
399
  5
229
331
C8
  5
48D
331
413
  5
1AF
331
3D4
  5
1EE
331
2ED
  5
35B
331
32C
  5
31C
331
103
  5
482
331
187
  5
43B
331
1C6
  5
3FC
331
328
  5
320
331
1C2
  5
400
331
2E9
  5
35F
331
1FD
  5
3C5
331
23C
  5
386
331
183
  5
43F
331
3D0
  5
1F2
331
2E5
  5
363
331
17F
  5
443
331
1BE
  5
404
331
1F9
  5
3C9
331
238
  5
38A
331
2E1
  5
367
331
320
  5
328
331
234
  5
38E
331
17B
  5
447
331
1BA
  5
408
331
1F5
  5
3CD
331
1F1
  5
3D1
331
230
  5
392
331
487
  5
CE
331
444
  5
17E
331
483
  5
F6
331
440
  5
182
331
47F
  5
12A
331
47B
  5
146
331
43C
  5
186
331
438
  5
18A
331
40F
  5
1B3
331
356
  5
2F2
331
395
  5
22D
331
C4
  5
491
331
391
  5
231
331
C0
  5
495
331
3CC
  5
1F6
331
40B
  5
1B7
331
352
  5
2F6
331
34E
  5
2FA
331
38D
  5
235
331
3C8
  5
1FA
331
407
  5
1BB
331
34A
  5
2FE
331
389
  5
239
331
B8
  5
49A
331
3C4
  5
1FE
331
2DD
  5
36B
331
31C
  5
32C
331
177
  5
44B
331
1B6
  5
40C
331
403
  5
1BF
331
318
  5
330
331
1B2
  5
410
331
2D9
  5
36F
331
1ED
  5
3D5
331
22C
  5
396
331
173
  5
44F
331
3C0
  5
202
331
314
  5
334
331
16F
  5
455
331
1AE
  5
414
331
1E9
  5
3D9
331
228
  5
39A
331
2D5
  5
373
331
2D1
  5
377
331
310
  5
338
331
224
  5
39E
331
16B
  5
459
331
1AA
  5
418
331
1E5
  5
3DD
331
220
  5
3A2
331
1E1
  5
3E1
331
477
  5
14D
331
473
  5
151
331
46F
  5
155
331
46B
  5
159
331
3FF
  5
1C3
331
385
  5
23D
331
B4
  5
49E
331
381
  5
241
331
3FB
  5
1C7
331
12A
  5
47F
331
165
  5
45F
331
37D
  5
245
331
3BC
  5
206
331
3F7
  5
1CB
331
436
  5
18C
331
432
  5
190
331
161
  5
463
331
379
  5
2CF
331
3B8
  5
20A
331
30C
  5
33C
331
1A6
  5
41C
331
3F3
  5
1CF
331
347
  5
301
331
2CD
  5
37B
331
1A2
  5
420
331
21C
  5
3A6
331
308
  5
340
331
304
  5
344
331
343
  5
305
331
19E
  5
424
331
1DD
  5
3E5
331
218
  5
3AA
331
300
  5
348
331
19A
  5
428
331
1D9
  5
3E9
331
214
  5
3AE
331
210
  5
3B2
331
467
  5
15D
331
463
  5
161
331
4A2
  5
A4
331
45F
  5
165
331
49E
  5
B4
331
49A
  5
B8
331
45B
  5
169
331
3B4
  5
20E
331
3EF
  5
1D3
331
42E
  5
194
331
15D
  5
467
331
375
  5
2D3
331
A4
  5
4A2
331
3B0
  5
212
331
3EB
  5
1D7
331
42A
  5
198
331
159
  5
46B
331
371
  5
2D7
331
155
  5
46F
331
36D
  5
2DB
331
3AC
  5
216
331
3E7
  5
1DB
331
33F
  5
309
331
426
  5
19C
331
422
  5
1A0
331
151
  5
473
331
369
  5
2DF
331
3A8
  5
21A
331
3E3
  5
1DF
331
1D5
  5
3ED
331
2FC
  5
34C
331
196
  5
42C
331
33B
  5
30D
331
337
  5
311
331
192
  5
430
331
1D1
  5
3F1
331
20C
  5
3B6
331
2F8
  5
350
331
2F4
  5
354
331
333
  5
315
331
18E
  5
434
331
1CD
  5
3F5
331
208
  5
3BA
331
2F0
  5
358
331
243
  5
37F
331
18A
  5
438
331
1C9
  5
3F9
331
204
  5
3BE
331
200
  5
3C2
331
457
  5
16D
331
496
  5
BF
331
453
  5
171
331
492
  5
C3
331
44F
  5
173
331
48E
  5
C7
331
48A
  5
CB
331
44B
  5
177
331
3DF
  5
1E3
331
41E
  5
1A4
331
14D
  5
477
331
365
  5
2E3
331
3A4
  5
21E
331
3A0
  5
222
331
CF
  5
486
331
3DB
  5
1E7
331
41A
  5
1A8
331
361
  5
2E7
331
35D
  5
2EB
331
39C
  5
226
331
CB
  5
48A
331
3D7
  5
1EB
331
32F
  5
319
331
416
  5
1AC
331
145
  5
47C
331
412
  5
1B0
331
359
  5
2EF
331
398
  5
22A
331
3D3
  5
1EF
331
1C5
  5
3FD
331
2EC
  5
35C
331
23F
  5
383
331
186
  5
43C
331
32B
  5
31D
331
327
  5
321
331
1C1
  5
401
331
2E8
  5
360
331
1FC
  5
3C6
331
23B
  5
387
331
182
  5
440
331
2E4
  5
364
331
323
  5
325
331
17E
  5
444
331
1BD
  5
405
331
1F8
  5
3CA
331
237
  5
38B
331
2E0
  5
368
331
233
  5
38F
331
17A
  5
448
331
1B9
  5
409
331
1F4
  5
3CE
331
1F0
  5
3D2
331
447
  5
17B
331
486
  5
CF
331
443
  5
17F
331
482
  5
103
331
43F
  5
183
331
47E
  5
137
331
47A
  5
14A
331
43B
  5
187
331
C7
  5
48E
331
C3
  5
492
331
3CF
  5
1F3
331
40E
  5
1B4
331
355
  5
2F3
331
394
  5
22E
331
390
  5
232
331
BF
  5
496
331
3CB
  5
1F7
331
40A
  5
1B8
331
351
  5
2F7
331
34D
  5
2FB
331
38C
  5
236
331
F6
  5
483
331
3C7
  5
1FB
331
31F
  5
329
331
406
  5
1BC
331
78
  5
4A5
331
402
  5
1C0
331
349
  5
2FF
331
388
  5
23A
331
3C3
  5
1FF
331
2DC
  5
36C
331
31B
  5
32D
331
22F
  5
393
331
176
  5
44C
331
1B5
  5
40D
331
317
  5
331
331
1B1
  5
411
331
2D8
  5
370
331
1EC
  5
3D6
331
22B
  5
397
331
172
  5
452
331
2D4
  5
374
331
313
  5
335
331
16E
  5
456
331
1AD
  5
415
331
1E8
  5
3DA
331
227
  5
39B
331
2D0
  5
378
331
223
  5
39F
331
16A
  5
45A
331
1A9
  5
419
331
1E4
  5
3DE
331
1E0
  5
3E2
331
476
  5
14E
331
472
  5
152
331
46E
  5
156
331
46A
  5
15A
331
B7
  5
49B
331
3FE
  5
1C4
331
384
  5
23E
331
B3
  5
49F
331
380
  5
242
331
3BF
  5
203
331
3FA
  5
1C8
331
435
  5
18D
331
164
  5
460
331
37C
  5
246
331
3BB
  5
207
331
30F
  5
339
331
3F6
  5
1CC
331
431
  5
191
331
160
  5
464
331
378
  5
2D0
331
30B
  5
33D
331
21F
  5
3A3
331
1A5
  5
41D
331
3F2
  5
1D0
331
307
  5
341
331
1A1
  5
421
331
346
  5
302
331
21B
  5
3A7
331
303
  5
345
331
342
  5
306
331
19D
  5
425
331
1DC
  5
3E6
331
217
  5
3AB
331
213
  5
3AF
331
199
  5
429
331
1D8
  5
3EA
331
466
  5
15E
331
4A5
  5
78
331
462
  5
162
331
4A1
  5
B1
331
49D
  5
B5
331
45E
  5
166
331
499
  5
B9
331
45A
  5
16A
331
3B7
  5
20B
331
3B3
  5
20F
331
11D
  5
480
331
3EE
  5
1D4
331
42D
  5
195
331
15C
  5
468
331
374
  5
2D4
331
370
  5
2D8
331
3AF
  5
213
331
3EA
  5
1D8
331
429
  5
199
331
158
  5
46C
331
154
  5
470
331
36C
  5
2DC
331
3AB
  5
217
331
3E6
  5
1DC
331
2FF
  5
349
331
33E
  5
30A
331
425
  5
19D
331
421
  5
1A1
331
150
  5
474
331
368
  5
2E0
331
33A
  5
30E
331
1D4
  5
3EE
331
2FB
  5
34D
331
20F
  5
3B3
331
195
  5
42D
331
3E2
  5
1E0
331
336
  5
312
331
191
  5
431
331
1D0
  5
3F2
331
20B
  5
3B7
331
2F7
  5
351
331
2F3
  5
355
331
332
  5
316
331
246
  5
37C
331
18D
  5
435
331
1CC
  5
3F6
331
207
  5
3BB
331
242
  5
380
331
189
  5
439
331
1C8
  5
3FA
331
203
  5
3BF
331
456
  5
16E
331
495
  5
C0
331
452
  5
172
331
491
  5
C4
331
44E
  5
174
331
48D
  5
C8
331
489
  5
CC
331
44A
  5
178
331
97
  5
4A3
331
3A7
  5
21B
331
3A3
  5
21F
331
3DE
  5
1E4
331
41D
  5
1A5
331
14C
  5
478
331
364
  5
2E4
331
39F
  5
223
331
CE
  5
487
331
3DA
  5
1E8
331
419
  5
1A9
331
360
  5
2E8
331
144
  5
47D
331
35C
  5
2EC
331
39B
  5
227
331
CA
  5
48B
331
3D6
  5
1EC
331
2EF
  5
359
331
32E
  5
31A
331
415
  5
1AD
331
411
  5
1B1
331
358
  5
2F0
331
3D2
  5
1F0
331
1C4
  5
3FE
331
2EB
  5
35D
331
1FF
  5
3C3
331
23E
  5
384
331
185
  5
43D
331
32A
  5
31E
331
326
  5
322
331
181
  5
441
331
1C0
  5
402
331
1FB
  5
3C7
331
23A
  5
388
331
2E7
  5
361
331
2E3
  5
365
331
322
  5
326
331
17D
  5
445
331
1BC
  5
406
331
1F7
  5
3CB
331
236
  5
38C
331
232
  5
390
331
179
  5
449
331
1B8
  5
40A
331
1F3
  5
3CF
331
446
  5
17C
331
485
  5
DC
331
442
  5
180
331
481
  5
110
331
43E
  5
184
331
47D
  5
144
331
479
  5
14B
331
43A
  5
188
331
397
  5
22B
331
C6
  5
48F
331
C2
  5
493
331
3CE
  5
1F4
331
40D
  5
1B5
331
354
  5
2F4
331
393
  5
22F
331
38F
  5
233
331
BE
  5
497
331
3CA
  5
1F8
331
409
  5
1B9
331
350
  5
2F8
331
34C
  5
2FC
331
38B
  5
237
331
3C6
  5
1FC
331
2DF
  5
369
331
31E
  5
32A
331
405
  5
1BD
331
401
  5
1C1
331
348
  5
300
331
3C2
  5
200
331
1B4
  5
40E
331
2DB
  5
36D
331
1EF
  5
3D3
331
22E
  5
394
331
175
  5
44D
331
31A
  5
32E
331
316
  5
332
331
1B0
  5
412
331
2D7
  5
371
331
1EB
  5
3D7
331
22A
  5
398
331
171
  5
453
331
2D3
  5
375
331
312
  5
336
331
16D
  5
457
331
1AC
  5
416
331
1E7
  5
3DB
331
226
  5
39C
331
222
  5
3A0
331
169
  5
45B
331
1A8
  5
41A
331
1E3
  5
3DF
331
475
  5
14F
331
471
  5
153
331
46D
  5
157
331
469
  5
15B
331
387
  5
23B
331
B6
  5
49C
331
B2
  5
4A0
331
3FD
  5
1C5
331
383
  5
23F
331
37F
  5
243
331
3BE
  5
204
331
3F9
  5
1C9
331
167
  5
45D
331
434
  5
18E
331
163
  5
461
331
37B
  5
2CD
331
3BA
  5
208
331
30E
  5
33A
331
3F5
  5
1CD
331
E9
  5
484
331
3F1
  5
1D1
331
430
  5
192
331
2CF
  5
379
331
30A
  5
33E
331
21E
  5
3A4
331
1A4
  5
41E
331
306
  5
342
331
345
  5
303
331
1A0
  5
422
331
1DF
  5
3E3
331
21A
  5
3A8
331
302
  5
346
331
341
  5
307
331
19C
  5
426
331
1DB
  5
3E7
331
216
  5
3AC
331
212
  5
3B0
331
198
  5
42A
331
465
  5
15F
331
4A4
  5
8A
331
461
  5
163
331
4A0
  5
B2
331
49C
  5
B6
331
45D
  5
167
331
459
  5
16B
331
498
  5
BD
331
15F
  5
465
331
377
  5
2D1
331
3B6
  5
20C
331
3B2
  5
210
331
3ED
  5
1D5
331
42C
  5
196
331
15B
  5
469
331
373
  5
2D5
331
36F
  5
2D9
331
3AE
  5
214
331
3E9
  5
1D9
331
428
  5
19A
331
157
  5
46D
331
424
  5
19E
331
153
  5
471
331
36B
  5
2DD
331
3AA
  5
218
331
3E5
  5
1DD
331
2FE
  5
34A
331
33D
  5
30B
331
1D7
  5
3EB
331
110
  5
481
331
420
  5
1A2
331
339
  5
30F
331
1D3
  5
3EF
331
2FA
  5
34E
331
20E
  5
3B4
331
194
  5
42E
331
3E1
  5
1E1
331
2F6
  5
352
331
335
  5
313
331
190
  5
432
331
1CF
  5
3F3
331
20A
  5
3B8
331
2F2
  5
356
331
331
  5
317
331
245
  5
37D
331
18C
  5
436
331
1CB
  5
3F7
331
206
  5
3BC
331
202
  5
3C0
331
241
  5
381
331
188
  5
43A
331
455
  5
16F
331
494
  5
C1
331
490
  5
C5
331
48C
  5
C9
331
44D
  5
175
331
488
  5
CD
331
449
  5
179
331
14F
  5
475
331
367
  5
2E1
331
3A6
  5
21C
331
3A2
  5
220
331
3DD
  5
1E5
331
41C
  5
1A6
331
14B
  5
479
331
363
  5
2E5
331
35F
  5
2E9
331
39E
  5
224
331
CD
  5
488
331
3D9
  5
1E9
331
418
  5
1AA
331
8A
  5
4A4
331
35B
  5
2ED
331
39A
  5
228
331
C9
  5
48C
331
3D5
  5
1ED
331
2EE
  5
35A
331
32D
  5
31B
331
1C7
  5
3FB
331
414
  5
1AE
331
410
  5
1B2
331
329
  5
31F
331
1C3
  5
3FF
331
2EA
  5
35E
331
1FE
  5
3C4
331
23D
  5
385
331
184
  5
43E
331
3D1
  5
1F1
331
325
  5
323
331
180
  5
442
331
1BF
  5
403
331
1FA
  5
3C8
331
239
  5
389
331
2E6
  5
362
331
2E2
  5
366
331
321
  5
327
331
235
  5
38D
331
17C
  5
446
331
1BB
  5
407
331
1F6
  5
3CC
331
231
  5
391
331
178
  5
44A
331
1F2
  5
3D0
331
445
  5
17D
331
484
  5
E9
331
441
  5
181
331
480
  5
11D
331
43D
  5
185
331
47C
  5
145
331
478
  5
14C
331
439
  5
189
331
357
  5
2F1
331
396
  5
22C
331
C5
  5
490
331
392
  5
230
331
C1
  5
494
331
3CD
  5
1F5
331
40C
  5
1B6
331
353
  5
2F5
331
38E
  5
234
331
BD
  5
498
331
3C9
  5
1F9
331
408
  5
1BA
331
137
  5
47E
331
34F
  5
2F9
331
34B
  5
2FD
331
38A
  5
238
331
B9
  5
499
331
3C5
  5
1FD
331
2DE
  5
36A
331
31D
  5
32B
331
1B7
  5
40B
331
404
  5
1BE
331
400
  5
1C2
331
3C1
  5
201
331
1B3
  5
40F
331
2DA
  5
36E
331
1EE
  5
3D4
331
22D
  5
395
331
174
  5
44E
331
319
  5
32F
331
315
  5
333
331
170
  5
454
331
1AF
  5
413
331
1EA
  5
3D8
331
229
  5
399
331
2D6
  5
372
331
2D2
  5
376
331
311
  5
337
331
16C
  5
458
331
1AB
  5
417
331
1E6
  5
3DC
331
225
  5
39D
331
221
  5
3A1
331
168
  5
45C
331
1E2
  5
3E0
  0
SORTENTSTABLE
  5
4A6
102
{ACAD_REACTORS
330
248
102
}
330
248
100
AcDbSortentsTable
330
247
  0
LAYOUT
  5
1F
102
{ACAD_REACTORS
330
18
102
}
330
18
100
AcDbPlotSettings
  1

  2

  4

  6

 40
0.0
 41
0.0
 42
0.0
 43
0.0
 44
0.0
 45
0.0
 46
0.0
 47
0.0
 48
0.0
 49
0.0
140
0.0
141
0.0
142
1.0
143
1.0
 70
   688
 72
     0
 73
     0
 74
     5
  7

 75
    16
147
1.0
 76
     0
 77
     2
 78
   300
148
0.0
149
0.0
100
AcDbLayout
  1
Layout1
 70
     1
 71
     1
 10
0.0
 20
0.0
 11
420.0
 21
297.0
 12
0.0
 22
0.0
 32
0.0
 14
1.000000000000000E+20
 24
1.000000000000000E+20
 34
1.000000000000000E+20
 15
-1.000000000000000E+20
 25
-1.000000000000000E+20
 35
-1.000000000000000E+20
146
0.0
 13
0.0
 23
0.0
 33
0.0
 16
1.0
 26
0.0
 36
0.0
 17
0.0
 27
1.0
 37
0.0
 76
     0
330
1C
  0
LAYOUT
  5
17
102
{ACAD_XDICTIONARY
360
19
102
}
102
{ACAD_REACTORS
330
18
102
}
330
18
100
AcDbPlotSettings
  1

  2
DWG To PDF.pc3
  4
ISO_expand_A4_(210.00_x_297.00_MM)
  6

 40
5.793749809265136
 41
10.79374980926513
 42
5.793746948242187
 43
10.79376220703125
 44
210.0
 45
297.0
 46
0.0
 47
0.0
 48
-735.2026221644987
 49
-148.4999782997198
140
-210.202622164499
141
594.0000217002801
142
1.0
143
2.695956183526196
 70
  3760
 72
     1
 73
     0
 74
     4
  7
monochrome.ctb
 75
     0
147
0.3709259097423618
 76
     1
 77
     2
 78
   300
148
735.2026221644987
149
148.4999782997198
100
AcDbLayout
  1
Model
 70
     1
 71
     0
 10
0.0
 20
0.0
 11
0.0
 21
0.0
 12
0.0
 22
0.0
 32
0.0
 14
0.0
 24
0.0
 34
0.0
 15
420.0
 25
297.0
 35
0.0
146
0.0
 13
0.0
 23
0.0
 33
0.0
 16
1.0
 26
0.0
 36
0.0
 17
0.0
 27
1.0
 37
0.0
 76
     0
330
2
331
2F
1001
ACAD_PSEXT
1000
DWG To PDF.pc3
1000
DWG To PDF
1000
Datei
1000

1070
     0
  0
MATERIAL
  5
46
102
{ACAD_XDICTIONARY
360
47
102
}
102
{ACAD_REACTORS
330
D
102
}
330
D
100
AcDbMaterial
  1
ByBlock
 72
     0
 43
0.0008202099737533
 43
0.0
 43
0.0
 43
0.0
 43
0.0
 43
0.0008202099737533
 43
0.0
 43
0.0
 43
0.0
 43
0.0
 43
1.0
 43
0.0
 43
0.0
 43
0.0
 43
0.0
 43
1.0
 77
     0
 47
0.0008202099737533
 47
0.0
 47
0.0
 47
0.0
 47
0.0
 47
0.0008202099737533
 47
0.0
 47
0.0
 47
0.0
 47
0.0
 47
1.0
 47
0.0
 47
0.0
 47
0.0
 47
0.0
 47
1.0
171
     0
 49
0.0008202099737533
 49
0.0
 49
0.0
 49
0.0
 49
0.0
 49
0.0008202099737533
 49
0.0
 49
0.0
 49
0.0
 49
0.0
 49
1.0
 49
0.0
 49
0.0
 49
0.0
 49
0.0
 49
1.0
175
     0
142
0.0008202099737533
142
0.0
142
0.0
142
0.0
142
0.0
142
0.0008202099737533
142
0.0
142
0.0
142
0.0
142
0.0
142
1.0
142
0.0
142
0.0
142
0.0
142
0.0
142
1.0
179
     0
144
0.0008202099737533
144
0.0
144
0.0
144
0.0
144
0.0
144
0.0008202099737533
144
0.0
144
0.0
144
0.0
144
0.0
144
1.0
144
0.0
144
0.0
144
0.0
144
0.0
144
1.0
147
0.0008202099737533
147
0.0
147
0.0
147
0.0
147
0.0
147
0.0008202099737533
147
0.0
147
0.0
147
0.0
147
0.0
147
1.0
147
0.0
147
0.0
147
0.0
147
0.0
147
1.0
  0
MATERIAL
  5
3E
102
{ACAD_XDICTIONARY
360
3F
102
}
102
{ACAD_REACTORS
330
D
102
}
330
D
100
AcDbMaterial
  1
ByLayer
 72
     0
 43
0.0008202099737533
 43
0.0
 43
0.0
 43
0.0
 43
0.0
 43
0.0008202099737533
 43
0.0
 43
0.0
 43
0.0
 43
0.0
 43
1.0
 43
0.0
 43
0.0
 43
0.0
 43
0.0
 43
1.0
 77
     0
 47
0.0008202099737533
 47
0.0
 47
0.0
 47
0.0
 47
0.0
 47
0.0008202099737533
 47
0.0
 47
0.0
 47
0.0
 47
0.0
 47
1.0
 47
0.0
 47
0.0
 47
0.0
 47
0.0
 47
1.0
171
     0
 49
0.0008202099737533
 49
0.0
 49
0.0
 49
0.0
 49
0.0
 49
0.0008202099737533
 49
0.0
 49
0.0
 49
0.0
 49
0.0
 49
1.0
 49
0.0
 49
0.0
 49
0.0
 49
0.0
 49
1.0
175
     0
142
0.0008202099737533
142
0.0
142
0.0
142
0.0
142
0.0
142
0.0008202099737533
142
0.0
142
0.0
142
0.0
142
0.0
142
1.0
142
0.0
142
0.0
142
0.0
142
0.0
142
1.0
179
     0
144
0.0008202099737533
144
0.0
144
0.0
144
0.0
144
0.0
144
0.0008202099737533
144
0.0
144
0.0
144
0.0
144
0.0
144
1.0
144
0.0
144
0.0
144
0.0
144
0.0
144
1.0
147
0.0008202099737533
147
0.0
147
0.0
147
0.0
147
0.0
147
0.0008202099737533
147
0.0
147
0.0
147
0.0
147
0.0
147
1.0
147
0.0
147
0.0
147
0.0
147
0.0
147
1.0
  0
MATERIAL
  5
C
102
{ACAD_XDICTIONARY
360
E
102
}
102
{ACAD_REACTORS
330
D
102
}
330
D
100
AcDbMaterial
  1
Global
 72
     0
 43
0.0008202099737533
 43
0.0
 43
0.0
 43
0.0
 43
0.0
 43
0.0008202099737533
 43
0.0
 43
0.0
 43
0.0
 43
0.0
 43
1.0
 43
0.0
 43
0.0
 43
0.0
 43
0.0
 43
1.0
 77
     0
 47
0.0008202099737533
 47
0.0
 47
0.0
 47
0.0
 47
0.0
 47
0.0008202099737533
 47
0.0
 47
0.0
 47
0.0
 47
0.0
 47
1.0
 47
0.0
 47
0.0
 47
0.0
 47
0.0
 47
1.0
171
     0
 49
0.0008202099737533
 49
0.0
 49
0.0
 49
0.0
 49
0.0
 49
0.0008202099737533
 49
0.0
 49
0.0
 49
0.0
 49
0.0
 49
1.0
 49
0.0
 49
0.0
 49
0.0
 49
0.0
 49
1.0
175
     0
142
0.0008202099737533
142
0.0
142
0.0
142
0.0
142
0.0
142
0.0008202099737533
142
0.0
142
0.0
142
0.0
142
0.0
142
1.0
142
0.0
142
0.0
142
0.0
142
0.0
142
1.0
179
     0
144
0.0008202099737533
144
0.0
144
0.0
144
0.0
144
0.0
144
0.0008202099737533
144
0.0
144
0.0
144
0.0
144
0.0
144
1.0
144
0.0
144
0.0
144
0.0
144
0.0
144
1.0
147
0.0008202099737533
147
0.0
147
0.0
147
0.0
147
0.0
147
0.0008202099737533
147
0.0
147
0.0
147
0.0
147
0.0
147
1.0
147
0.0
147
0.0
147
0.0
147
0.0
147
1.0
  0
MLINESTYLE
  5
52
102
{ACAD_REACTORS
330
3C
102
}
330
3C
100
AcDbMlineStyle
  2
STANDARD
 70
     0
  3

 62
   256
 51
90.0
 52
90.0
 71
     2
 49
0.5
 62
   256
  6
BYLAYER
 49
-0.5
 62
   256
  6
BYLAYER
  0
ACDBPLACEHOLDER
  5
9
102
{ACAD_REACTORS
330
A
102
}
330
A
  0
SCALE
  5
57
102
{ACAD_REACTORS
330
4F
102
}
330
4F
100
AcDbScale
 70
     0
300
1:1
140
1.0
141
1.0
290
     1
  0
SCALE
  5
58
102
{ACAD_REACTORS
330
4F
102
}
330
4F
100
AcDbScale
 70
     0
300
1:2
140
1.0
141
2.0
290
     0
  0
SCALE
  5
59
102
{ACAD_REACTORS
330
4F
102
}
330
4F
100
AcDbScale
 70
     0
300
1:4
140
1.0
141
4.0
290
     0
  0
SCALE
  5
5A
102
{ACAD_REACTORS
330
4F
102
}
330
4F
100
AcDbScale
 70
     0
300
1:5
140
1.0
141
5.0
290
     0
  0
SCALE
  5
5B
102
{ACAD_REACTORS
330
4F
102
}
330
4F
100
AcDbScale
 70
     0
300
1:8
140
1.0
141
8.0
290
     0
  0
SCALE
  5
5C
102
{ACAD_REACTORS
330
4F
102
}
330
4F
100
AcDbScale
 70
     0
300
1:10
140
1.0
141
10.0
290
     0
  0
SCALE
  5
5D
102
{ACAD_REACTORS
330
4F
102
}
330
4F
100
AcDbScale
 70
     0
300
1:16
140
1.0
141
16.0
290
     0
  0
SCALE
  5
5E
102
{ACAD_REACTORS
330
4F
102
}
330
4F
100
AcDbScale
 70
     0
300
1:20
140
1.0
141
20.0
290
     0
  0
SCALE
  5
5F
102
{ACAD_REACTORS
330
4F
102
}
330
4F
100
AcDbScale
 70
     0
300
1:30
140
1.0
141
30.0
290
     0
  0
SCALE
  5
60
102
{ACAD_REACTORS
330
4F
102
}
330
4F
100
AcDbScale
 70
     0
300
1:40
140
1.0
141
40.0
290
     0
  0
SCALE
  5
61
102
{ACAD_REACTORS
330
4F
102
}
330
4F
100
AcDbScale
 70
     0
300
1:50
140
1.0
141
50.0
290
     0
  0
SCALE
  5
62
102
{ACAD_REACTORS
330
4F
102
}
330
4F
100
AcDbScale
 70
     0
300
1:100
140
1.0
141
100.0
290
     0
  0
SCALE
  5
63
102
{ACAD_REACTORS
330
4F
102
}
330
4F
100
AcDbScale
 70
     0
300
2:1
140
2.0
141
1.0
290
     0
  0
SCALE
  5
64
102
{ACAD_REACTORS
330
4F
102
}
330
4F
100
AcDbScale
 70
     0
300
4:1
140
4.0
141
1.0
290
     0
  0
SCALE
  5
65
102
{ACAD_REACTORS
330
4F
102
}
330
4F
100
AcDbScale
 70
     0
300
8:1
140
8.0
141
1.0
290
     0
  0
SCALE
  5
66
102
{ACAD_REACTORS
330
4F
102
}
330
4F
100
AcDbScale
 70
     0
300
10:1
140
10.0
141
1.0
290
     0
  0
SCALE
  5
67
102
{ACAD_REACTORS
330
4F
102
}
330
4F
100
AcDbScale
 70
     0
300
100:1
140
100.0
141
1.0
290
     0
  0
SCALE
  5
68
102
{ACAD_REACTORS
330
4F
102
}
330
4F
100
AcDbScale
 70
     0
300
1/128" = 1'-0"
140
0.0078125
141
12.0
290
     0
  0
SCALE
  5
69
102
{ACAD_REACTORS
330
4F
102
}
330
4F
100
AcDbScale
 70
     0
300
1/64" = 1'-0"
140
0.015625
141
12.0
290
     0
  0
SCALE
  5
6A
102
{ACAD_REACTORS
330
4F
102
}
330
4F
100
AcDbScale
 70
     0
300
1/32" = 1'-0"
140
0.03125
141
12.0
290
     0
  0
SCALE
  5
6B
102
{ACAD_REACTORS
330
4F
102
}
330
4F
100
AcDbScale
 70
     0
300
1/16" = 1'-0"
140
0.0625
141
12.0
290
     0
  0
SCALE
  5
6C
102
{ACAD_REACTORS
330
4F
102
}
330
4F
100
AcDbScale
 70
     0
300
3/32" = 1'-0"
140
0.09375
141
12.0
290
     0
  0
SCALE
  5
6D
102
{ACAD_REACTORS
330
4F
102
}
330
4F
100
AcDbScale
 70
     0
300
1/8" = 1'-0"
140
0.125
141
12.0
290
     0
  0
SCALE
  5
6E
102
{ACAD_REACTORS
330
4F
102
}
330
4F
100
AcDbScale
 70
     0
300
3/16" = 1'-0"
140
0.1875
141
12.0
290
     0
  0
SCALE
  5
6F
102
{ACAD_REACTORS
330
4F
102
}
330
4F
100
AcDbScale
 70
     0
300
1/4" = 1'-0"
140
0.25
141
12.0
290
     0
  0
SCALE
  5
70
102
{ACAD_REACTORS
330
4F
102
}
330
4F
100
AcDbScale
 70
     0
300
3/8" = 1'-0"
140
0.375
141
12.0
290
     0
  0
SCALE
  5
71
102
{ACAD_REACTORS
330
4F
102
}
330
4F
100
AcDbScale
 70
     0
300
1/2" = 1'-0"
140
0.5
141
12.0
290
     0
  0
SCALE
  5
72
102
{ACAD_REACTORS
330
4F
102
}
330
4F
100
AcDbScale
 70
     0
300
3/4" = 1'-0"
140
0.75
141
12.0
290
     0
  0
SCALE
  5
73
102
{ACAD_REACTORS
330
4F
102
}
330
4F
100
AcDbScale
 70
     0
300
1" = 1'-0"
140
1.0
141
12.0
290
     0
  0
SCALE
  5
74
102
{ACAD_REACTORS
330
4F
102
}
330
4F
100
AcDbScale
 70
     0
300
1-1/2" = 1'-0"
140
1.5
141
12.0
290
     0
  0
SCALE
  5
75
102
{ACAD_REACTORS
330
4F
102
}
330
4F
100
AcDbScale
 70
     0
300
3" = 1'-0"
140
3.0
141
12.0
290
     0
  0
SCALE
  5
76
102
{ACAD_REACTORS
330
4F
102
}
330
4F
100
AcDbScale
 70
     0
300
6" = 1'-0"
140
6.0
141
12.0
290
     0
  0
SCALE
  5
77
102
{ACAD_REACTORS
330
4F
102
}
330
4F
100
AcDbScale
 70
     0
300
1'-0" = 1'-0"
140
12.0
141
12.0
290
     0
  0
TABLESTYLE
  5
53
102
{ACAD_XDICTIONARY
360
54
102
}
102
{ACAD_REACTORS
330
50
102
}
330
50
100
AcDbTableStyle
280
     0
  3
Standard
 70
     0
 71
     0
 40
1.5
 41
1.5
280
     0
281
     0
  7
Standard
140
4.5
170
     2
 62
     0
 63
     7
283
     0
 90
      512
 91
        0
  1

274
    -2
284
     1
 64
     0
275
    -2
285
     1
 65
     0
276
    -2
286
     1
 66
     0
277
    -2
287
     1
 67
     0
278
    -2
288
     1
 68
     0
279
    -2
289
     1
 69
     0
  7
Standard
140
6.0
170
     5
 62
     0
 63
     7
283
     0
 90
      512
 91
        0
  1

274
    -2
284
     1
 64
     0
275
    -2
285
     1
 65
     0
276
    -2
286
     1
 66
     0
277
    -2
287
     1
 67
     0
278
    -2
288
     1
 68
     0
279
    -2
289
     1
 69
     0
  7
Standard
140
4.5
170
     5
 62
     0
 63
     7
283
     0
 90
      512
 91
        0
  1

274
    -2
284
     1
 64
     0
275
    -2
285
     1
 65
     0
276
    -2
286
     1
 66
     0
277
    -2
287
     1
 67
     0
278
    -2
288
     1
 68
     0
279
    -2
289
     1
 69
     0
  0
VISUALSTYLE
  5
30
102
{ACAD_REACTORS
330
31
102
}
330
31
100
AcDbVisualStyle
  2
2dWireframe
 70
     4
177
     2
291
     0
 71
     0
176
     1
 72
     2
176
     1
 73
     0
176
     1
 90
        0
176
     1
 40
0.6
176
     1
 41
30.0
176
     1
 63
     7
176
     1
 74
     1
176
     1
 91
        4
176
     1
 64
     7
176
     1
 65
   257
176
     1
 75
     1
176
     1
175
     1
176
     1
 42
1.0
176
     1
 92
        0
176
     1
 66
   257
176
     1
 43
1.0
176
     1
 76
     1
176
     1
 77
     6
176
     1
 78
     2
176
     1
 67
     7
176
     1
 79
     5
176
     1
170
     0
176
     1
171
     0
176
     1
290
     0
176
     1
 93
        1
176
     1
 44
0.0
176
     1
173
     0
176
     1
  0
VISUALSTYLE
  5
56
102
{ACAD_REACTORS
330
31
102
}
330
31
100
AcDbVisualStyle
  2
3dWireframe
 70
     5
177
     2
291
     0
 71
     0
176
     1
 72
     2
176
     1
 73
     0
176
     1
 90
        0
176
     1
 40
0.6
176
     1
 41
30.0
176
     1
 63
     7
176
     1
 74
     1
176
     1
 91
        4
176
     1
 64
     7
176
     1
 65
   257
176
     1
 75
     1
176
     1
175
     1
176
     1
 42
1.0
176
     1
 92
        0
176
     1
 66
   257
176
     1
 43
1.0
176
     1
 76
     1
176
     1
 77
     6
176
     1
 78
     2
176
     1
 67
     7
176
     1
 79
     5
176
     1
170
     0
176
     1
171
     0
176
     1
290
     0
176
     1
 93
        1
176
     1
 44
0.0
176
     1
173
     0
176
     1
  0
VISUALSTYLE
  5
55
102
{ACAD_REACTORS
330
31
102
}
330
31
100
AcDbVisualStyle
  2
Realistic
 70
     8
177
     2
291
     0
 71
     2
176
     1
 72
     2
176
     1
 73
     0
176
     1
 90
        0
176
     1
 40
0.6
176
     1
 41
30.0
176
     1
 63
     7
176
     1
 74
     1
176
     1
 91
        0
176
     1
 64
     7
176
     1
 65
   257
176
     1
 75
     1
176
     1
175
     1
176
     1
 42
1.0
176
     1
 92
        8
176
     1
 66
     8
176
     1
 43
1.0
176
     1
 76
     1
176
     1
 77
     6
176
     1
 78
     2
176
     1
 67
     7
176
     1
 79
     5
176
     1
170
     0
176
     1
171
     0
176
     1
290
     0
176
     1
 93
       13
176
     1
 44
0.0
176
     1
173
     0
176
     1
  0
DICTIONARYVAR
  5
4AB
102
{ACAD_REACTORS
330
4A8
102
}
330
4A8
100
DictionaryVariables
280
     0
  1
1:1
  0
DICTIONARYVAR
  5
4AA
102
{ACAD_REACTORS
330
4A8
102
}
330
4A8
100
DictionaryVariables
280
     0
  1
STANDARD
  0
DICTIONARYVAR
  5
4A9
102
{ACAD_REACTORS
330
4A8
102
}
330
4A8
100
DictionaryVariables
280
     0
  1
STANDARD
  0
DICTIONARYVAR
  5
4AD
102
{ACAD_REACTORS
330
4A8
102
}
330
4A8
100
DictionaryVariables
280
     0
  1
1
  0
DICTIONARYVAR
  5
4AE
102
{ACAD_REACTORS
330
4A8
102
}
330
4A8
100
DictionaryVariables
280
     0
  1
15
  0
DICTIONARYVAR
  5
4AC
102
{ACAD_REACTORS
330
4A8
102
}
330
4A8
100
DictionaryVariables
280
     0
  1
0
  0
DICTIONARY
  5
19
330
17
100
AcDbDictionary
280
     1
281
     1
  3
ADSK_XREC_LAYOUTTHUMBNAIL
360
1A
  0
DICTIONARY
  5
47
330
46
100
AcDbDictionary
280
     1
281
     1
  3
BUMPTILE
360
48
  3
DIFFUSETILE
360
49
  3
OPACITYTILE
360
4A
  3
REFLECTIONTILE
360
4B
  3
REFRACTIONTILE
360
4C
  3
SPECULARTILE
360
4D
  0
DICTIONARY
  5
3F
330
3E
100
AcDbDictionary
280
     1
281
     1
  3
BUMPTILE
360
40
  3
DIFFUSETILE
360
41
  3
OPACITYTILE
360
42
  3
REFLECTIONTILE
360
43
  3
REFRACTIONTILE
360
44
  3
SPECULARTILE
360
45
  0
DICTIONARY
  5
E
330
C
100
AcDbDictionary
280
     1
281
     1
  3
BUMPTILE
360
F
  3
DIFFUSETILE
360
10
  3
OPACITYTILE
360
11
  3
REFLECTIONTILE
360
12
  3
REFRACTIONTILE
360
13
  3
SPECULARTILE
360
14
  0
DICTIONARY
  5
54
330
53
100
AcDbDictionary
280
     1
281
     1
  3
ACAD_ROUNDTRIP_2008_TABLESTYLE_CELLSTYLEMAP
360
4AF
  0
XRECORD
  5
1A
102
{ACAD_REACTORS
330
19
102
}
330
19
100
AcDbXrecord
280
     1
310
280000000001000084000000010008000000000000840000000000000000000000010000000000000000000000000000FFFFFF000000000000000000000000000000000000000000000000000000000000000000330000006600000099000000CC000000FF00000000330000333300006633000099330000CC330000FF3300
310
0000660000336600006666000099660000CC660000FF66000000990000339900006699000099990000CC990000FF99000000CC000033CC000066CC000099CC0000CCCC0000FFCC000000FF000033FF000066FF000099FF0000CCFF0000FFFF000000003300330033006600330099003300CC003300FF003300003333003333
310
33006633330099333300CC333300FF33330000663300336633006666330099663300CC663300FF66330000993300339933006699330099993300CC993300FF99330000CC330033CC330066CC330099CC3300CCCC3300FFCC330000FF330033FF330066FF330099FF3300CCFF3300FFFF330000006600330066006600660099
310
006600CC006600FF00660000336600333366006633660099336600CC336600FF33660000666600336666006666660099666600CC666600FF66660000996600339966006699660099996600CC996600FF99660000CC660033CC660066CC660099CC6600CCCC6600FFCC660000FF660033FF660066FF660099FF6600CCFF6600
310
FFFF660000009900330099006600990099009900CC009900FF00990000339900333399006633990099339900CC339900FF33990000669900336699006666990099669900CC669900FF66990000999900339999006699990099999900CC999900FF99990000CC990033CC990066CC990099CC9900CCCC9900FFCC990000FF99
310
0033FF990066FF990099FF9900CCFF9900FFFF99000000CC003300CC006600CC009900CC00CC00CC00FF00CC000033CC003333CC006633CC009933CC00CC33CC00FF33CC000066CC003366CC006666CC009966CC00CC66CC00FF66CC000099CC003399CC006699CC009999CC00CC99CC00FF99CC0000CCCC0033CCCC0066CC
310
CC0099CCCC00CCCCCC00FFCCCC0000FFCC0033FFCC0066FFCC0099FFCC00CCFFCC00FFFFCC000000FF003300FF006600FF009900FF00CC00FF00FF00FF000033FF003333FF006633FF009933FF00CC33FF00FF33FF000066FF003366FF006666FF009966FF00CC66FF00FF66FF000099FF003399FF006699FF009999FF00CC
310
99FF00FF99FF0000CCFF0033CCFF0066CCFF0099CCFF00CCCCFF00FFCCFF0000FFFF0033FFFF0066FFFF0099FFFF00CCFFFF00FFFFFF00000000000D0D0D001A1A1A00282828003535350043434300505050005D5D5D006B6B6B00787878008686860093939300A1A1A100AEAEAE00BBBBBB00C9C9C900D6D6D600E4E4E400
310
F1F1F100FFFFFF0000000000000000000000000000000000000000000000000000000000000000000000000000000000E2E2E2E2E2E2E2E2E2E2E2E2E2E2E2E2E2E2E2E2E2E2E2E2E2E2E2E2E2E2E2E2E2E2E2E2E2E2E2E2E2E2E2E2E2E2E2E2E2E2E2E2E2E2E2E2E2E2E2E2E2E2E2E2E2E2E2E2E2E2E2E2E2E2E2E2E2E2E2
310
E2E2E2E2E2E2E2E2E2E2E2E2E2E2E2E2E2E2E2E2E2E2E2E2E2E2E2E2E2E2E2E2E2E2E2E2E2E2E2E2E2E2E2E2E2E2E2E2E2E2E2E2E2E2E2E2E2E2E2E2E2E2E2E2E2E2E2E2E2E2E2E2E2E2E2E2E2E2E2E2E2E2E2E2E2E2E2E2E2E2E2E2E2E2E2E2E2E2E2E2E2E2E2E2E2E2E2E2E2E2E2E2E2E2E2E2E2E2E2E2E2E2E2E2E2E2E2
310
E2E2E2E2E2E2E2E2E2E2E2E2E2E2E2E2E2E2E2E2E2E2E2E2E2E2E2E2E2E2E2E2E2E2E2E2E2E2E2E2E2E2E2E2E2E2E2E2E2E2E2E2E2E2E2E2E2E2E2E2E2E2E2E2E2E2E2E2E2E2E2E2E2E2E2E2E2E2E2E2E2E2E2E2E2E2E2E2E2E2E2E2E2E2E2E2E2E2E2E2E2E2E2E2E2E2E2E2E2E2E2E2E2E2E2E2E2E2E2E2E2E2E2E2E2BEBE
310
BEBEBEBEBEBEBEBEBEBEBEBEBEBEBEBEBEBEBEBEBEBEBEBEBEBEBEBEBEBEBEBEBEBEBEBEBEBEBEBEBEBEBEBEBEBEBEBEBEBEBEBEBEBEBEBEBEBEBEBEBEBEBEBEBEBEBEBEBEBEBEBEBEBEBEBEBEBEBEBEBEBEBEBEBEBEBEBEBEBEBEBEE2E2E2E2E2E2E2E2E2E2E2E2E2E2E2E2E2E2E2E2E2E2E2E2E2E2E2E2E2E2E2E2E2E2E2
310
E2E2E2E2E2E2E2E2E2E2E2E2E2E2E2E2E2E2E2E2E2E2E2E2E2E2E2E2E2E2E2E2E2E2E2E2E2E2E2E2E2E2E2E2E2E2E2E2E2E2E2E2E2E2E2E2E2E2E2E2E2E2E2E2E2E2E2E2E2E2E2E2E2E2E2E2E2E2E2E2E2E2E2E2E2E2E2E2E2E2E2E2E2E2E2E2E2E2E2E2E2E2E2E2E2E2E2E2E2E2E2E2E2E2E2E2E2E2E2E2E2E2E2E2E2E2E2
310
BEE2E2E2E2E2E2E2E2E2E2E2E2E2E2E2E2E2E2E2E2E2E2E2E2E2E2E2E2E2E2E2E2E2E2E2E2E2E2E2E2E2E2E2E2E2E2E2E2E2E2E2E2E2E2E2E2E2E2E2E2E2E2E2E2E2E2E2E2E2E2E2E2E2E2E2E2E2E2E2E2E2E2E2E2E2E2E2E2E2E2E2E2BEE2E2E2E2E2E2E2E2E2E2E2E2E2E2E2E2E2E2E2E2E2E2E2E2E2E2E2E2E2E2E2E2E2
310
E2E2E2E2E2E2E2E2E2E2E2E2E2E2E2E2E2E2E2E2E2E2E2E2E2E2E2E2E2E2E2E2E2E2E2E2E2E2E2E2E2E2E2E2E2E2E2E2E2E2E2E2E2E2E2E2E2E2E2E2E2E2E2E2E2E2E2E2E2E2E2E2E2E2E2E2E2E2E2E2E2E2E2E2E2E2E2E2E2E2E2E2E2E2E2E2E2E2E2E2E2E2E2E2E2E2E2E2E2E2E2E2E2E2E2E2E2E2E2E2E2E2E2E2E2E2E2
310
E2E2BEE2E2E2E2E2E2E2E2DCDCDCDCDCDCDCDCDCDCDCDCDCDCDCDCDCDCDCDCDCDCDCDCDCDCDCDCDCDCDCDCDCDCDCDCDCDCDCDCDCDCDCDCDCDCDCDCDCDCDCDCDCDCDCDCDCDCDCDCDCDCDCDCDCDCDCDCDCDCDCDCDCDCDCDCDCDCDCDCDCDCE2E2BEE2E2E2E2E2E2E2E2E2E2E2E2E2E2E2E2E2E2E2E2E2E2E2E2E2E2E2E2E2E2E2
310
E2E2E2E2E2E2E2E2E2E2E2E2E2E2E2E2E2E2E2E2E2E2E2E2E2E2E2E2E2E2E2E2E2E2E2E2E2E2E2E2E2E2E2E2E2E2E2E2E2E2E2E2E2E2E2E2E2E2E2E2E2E2E2E2E2E2E2E2E2E2E2E2E2E2E2E2E2E2E2E2E2E2E2E2E2E2E2E2E2E2E2E2E2E2E2E2E2E2E2E2E2E2E2E2E2E2E2E2E2E2E2E2E2E2E2E2E2E2E2E2E2E2E2E2E2E2E2
310
E2E2E2E2BEE2E2E2E2E2E2E2E2DCF5F5F5F5F5E2E2E2E2E2DCF5F5F5F5F5F5E2E2E2E2DCE2E2E2E2E2E2BEBEBEBEBEBEBEBEBEBEE2E2E2DCE2E2E2E2E2E2E2E2E2E2E2E2DCE2E2E2E2E2E2E2E2E2E2E2E2E2DCBEBEBEBEBEBEBEBEE2E2E2DCE2E2BEE2E2E2E2E2E2E2E2E2E2E2E2E2E2E2E2E2E2E2E2E2E2E2E2E2E2E2E2E2
310
E2E2E2E2E2E2E2E2E2E2E2E2E2E2E2E2E2E2E2E2E2E2E2E2E2E2E2E2E2E2E2E2E2E2E2E2E2E2E2E2E2E2E2E2E2E2E2E2E2E2E2E2E2E2E2E2E2E2E2E2E2E2E2E2E2E2E2E2E2E2E2E2E2E2E2E2E2E2E2E2E2E2E2E2E2E2E2E2E2E2E2E2E2E2E2E2E2E2E2E2E2E2E2E2E2E2E2E2E2E2E2E2E2E2E2E2E2E2E2E2E2E2E2E2E2E2E2
310
E2E2E2E2E2E2BEE2E2E2E2E2E2E2E2DCF5F5F5F5F5DCDCDCDCDCDCF5F5F5F5F5F5DCDCDCDCDCE2E2E2E2E2E2BEBEBEBEBEBEBEBEBEBEE2E2E2DCE2E2E2E2E2E2E2E2E2E2E2E2DCE2E2E2E2E2E2E2E2E2E2E2E2E2DCBEBEBEBEBEBEBEBEE2E2E2DCE2E2BEE2E2E2E2E2E2E2E2E2E2E2E2E2E2E2E2E2E2E2E2E2E2E2E2E2E2E2
310
E2E2E2E2E2E2E2E2E2E2E2E2E2E2E2E2E2E2E2E2E2E2E2E2E2E2E2E2E2E2E2E2E2E2E2E2E2E2E2E2E2E2E2E2E2E2E2E2E2E2E2E2E2E2E2E2E2E2E2E2E2E2E2E2E2E2E2E2E2E2E2E2E2E2E2E2E2E2E2E2E2E2E2E2E2E2E2E2E2E2E2E2E2E2E2E2E2E2E2E2E2E2E2E2E2E2E2E2E2E2E2E2E2E2E2E2E2E2E2E2E2E2E2E2E2E2E2
310
E2E2E2E2E2E2E2E2BEE2E2E2E2E2E2E2E2DCE2E2E2DCE2E2E2E2E2E2E2DCE2E2E2E2E2DCE2E2E2DCE2E2BEBEBEBEBEBEBEBEBEBEBEBEBEBEE2E2E2DCF5F5F5F5F5F5F5F5E2E2E2E2F5F5F5E2F5F5F5F5F5F5F5F5E2E2DCF5F5F5F5F5F5F5F5F5E2E2DCE2E2BEE2E2E2E2E2E2E2E2E2E2E2E2E2E2E2E2E2E2E2E2E2E2E2E2E2
310
E2E2E2E2E2E2E2E2E2E2E2E2E2E2E2E2E2E2E2E2E2E2E2E2E2E2E2E2E2E2E2E2E2E2E2E2E2E2E2E2E2E2E2E2E2E2E2E2E2E2E2E2E2E2E2E2E2E2E2E2E2E2E2E2E2E2E2E2E2E2E2E2E2E2E2E2E2E2E2E2E2E2E2E2E2E2E2E2E2E2E2E2E2E2E2E2E2E2E2E2E2E2E2E2E2E2E2E2E2E2E2E2E2E2E2E2E2E2E2E2E2E2E2E2E2E2E2
310
E2E2E2E2E2E2E2E2E2E2BEE2E2E2E2E2E2E2E2DCE2E2E2DCE2E2E2E2E2E2E2DCE2E2E2E2E2DCE2E2E2DCE2E2E2E2E2E2E2E2BEBEBEBEBEBEBEBEE2E2E2DCF5F5F5F5F5E2F5F5E2E2E2E2DCF5F5F5F5F5F5F5F5F5F5F5E2E2DCF5F5F5F5F5E2F5F5F5E2E2DCE2E2BEE2E2E2E2E2E2E2E2E2E2E2E2E2E2E2E2E2E2E2E2E2E2E2
310
E2E2E2E2E2E2E2E2E2E2E2E2E2E2E2E2E2E2E2E2E2E2E2E2E2E2E2E2E2E2E2E2E2E2E2E2E2E2E2E2E2E2E2E2E2E2E2E2E2E2E2E2E2E2E2E2E2E2E2E2E2E2E2E2E2E2E2E2E2E2E2E2E2E2E2E2E2E2E2E2E2E2E2E2E2E2E2E2E2E2E2E2E2E2E2E2E2E2E2E2E2E2E2E2E2E2E2E2E2E2E2E2E2E2E2E2E2E2E2E2E2E2E2E2E2E2E2
310
E2E2E2E2E2E2E2E2E2E2E2E2BEE2E2E2E2E2E2E2E2DCDCDCDCDCDCDCDCDCDCDCDCDCDCDCDCDCDCDCDCDCDCDCE2E2E2E2BEBEBEBEBEBEBEBEBEBEBEBEE2E2E2DCDCDCDCDCDCDCDCDCDCBEDCDCDCBEDCDCDCDCDCDCDCDCDCDCDCDCDCDCDCDCDCDCDCDCDCDCDCDCDCE2E2BEE2E2E2E2E2E2E2E2E2E2E2E2E2E2E2E2E2E2E2E2E2
310
E2E2E2E2E2E2E2E2E2E2E2E2E2E2E2E2E2E2E2E2E2E2E2E2E2E2E2E2E2E2E2E2E2E2E2E2E2E2E2E2E2E2E2E2E2E2E2E2E2E2E2E2E2E2E2E2E2E2E2E2E2E2E2E2E2E2E2E2E2E2E2E2E2E2E2E2E2E2E2E2E2E2E2E2E2E2E2E2E2E2E2E2E2E2E2E2E2E2E2E2E2E2E2E2E2E2E2E2E2E2E2E2E2E2E2E2E2E2E2E2E2E2E2E2E2E2E2
310
E2E2E2E2E2E2E2E2E2E2E2E2E2E2BEE2E2E2E2E2E2E2E2DCE2E2E2DCE2E2E2E2E2E2E2DCE2E2E2E2E2DCE2E2E2DCE2E2E2E2BEBEBEBEBEBEBEBEBEBEBEBEE2E2E2BEBEBEBEBEBEBEE2E2BEBEBEBEBEBEBEBEE2E2BEBEE2E2E2BEBEE2BEE2E2BEBEE2E2E2E2E2E2E2DCE2E2BEE2E2E2E2E2E2E2E2E2E2E2E2E2E2E2E2E2E2E2
310
E2E2E2E2E2E2E2E2E2E2E2E2E2E2E2E2E2E2E2E2E2E2E2E2E2E2E2E2E2E2E2E2E2E2E2E2E2E2E2E2E2E2E2E2E2E2E2E2E2E2E2E2E2E2E2E2E2E2E2E2E2E2E2E2E2E2E2E2E2E2E2E2E2E2E2E2E2E2E2E2E2E2E2E2E2E2E2E2E2E2E2E2E2E2E2E2E2E2E2E2E2E2E2E2E2E2E2E2E2E2E2E2E2E2E2E2E2E2E2E2E2E2E2E2E2E2E2
310
E2E2E2E2E2E2E2E2E2E2E2E2E2E2E2E2BEE2E2E2E2E2E2E2E2DCDCDCDCDCDCDCDCDCDCDCDCDCDCDCDCDCDCDCDCDCDCDCDCDCDCDCDCDCDCDCDCDCDCDCDCDCDCDCDCDCDCBEBEBEBEBEBEBEBEE2BEBEBEBEBEBEBEBEE2E2BEBEBEE2BEBEE2BEBEBEBEBEBEE2E2E2E2E2E2E2DCE2E2BEE2E2E2E2E2E2E2E2E2E2E2E2E2E2E2E2E2
310
E2E2E2E2E2E2E2E2E2E2E2E2E2E2E2E2E2E2E2E2E2E2E2E2E2E2E2E2E2E2E2E2E2E2E2E2E2E2E2E2E2E2E2E2E2E2E2E2E2E2E2E2E2E2E2E2E2E2E2E2E2E2E2E2E2E2E2E2E2E2E2E2E2E2E2E2E2E2E2E2E2E2E2E2E2E2E2E2E2E2E2E2E2E2E2E2E2E2E2E2E2E2E2E2E2E2E2E2E2E2E2E2E2E2E2E2E2E2E2E2E2E2E2E2E2E2E2
310
E2E2E2E2E2E2E2E2E2E2E2E2E2E2E2E2E2E2BEE2E2E2E2E2E2E2E2DCE2E2E2DCE2E2E2E2E2E2E2DCE2E2E2E2E2DCE2E2E2F5F5F5F5DCE2E2E2E2E2DCE2E2E2E2E2E2E2E2E2BEE2BEE2BEE2E2E2E2BEBEE2BEE2E2E2BEE2BEBEBEBEE2E2BEBEBEBEE2E2BEE2E2E2E2E2E2E2E2DCE2E2BEE2E2E2E2E2E2E2E2E2E2E2E2E2E2E2
310
E2E2E2E2E2E2E2E2E2E2E2E2E2E2E2E2E2E2E2E2E2E2E2E2E2E2E2E2E2E2E2E2E2E2E2E2E2E2E2E2E2E2E2E2E2E2E2E2E2E2E2E2E2E2E2E2E2E2E2E2E2E2E2E2E2E2E2E2E2E2E2E2E2E2E2E2E2E2E2E2E2E2E2E2E2E2E2E2E2E2E2E2E2E2E2E2E2E2E2E2E2E2E2E2E2E2E2E2E2E2E2E2E2E2E2E2E2E2E2E2E2E2E2E2E2E2E2
310
E2E2E2E2E2E2E2E2E2E2E2E2E2E2E2E2E2E2E2E2BEE2E2E2E2E2E2E2E2DCDCDCDCDCDCDCDCDCDCDCDCDCDCDCDCDCDCDCDCDCDCDCDCDCDCDCDCDCDCDCDCDCDCDCBEBEDCDCDCDCDCBEBEBEBEBEBEBEBEBEBEBEBEBEBEBEBEBEBEBEBEBEBEBEBEBEBEE2E2E2E2E2E2E2E2E2E2E2E2E2DCE2E2BEE2E2E2E2E2E2E2E2E2E2E2E2E2
310
E2E2E2E2E2E2E2E2E2E2E2E2E2E2E2E2E2E2E2E2E2E2E2E2E2E2E2E2E2E2E2E2E2E2E2E2E2E2E2E2E2E2E2E2E2E2E2E2E2E2E2E2E2E2E2E2E2E2E2E2E2E2E2E2E2E2E2E2E2E2E2E2E2E2E2E2E2E2E2E2E2E2E2E2E2E2E2E2E2E2E2E2E2E2E2E2E2E2E2E2E2E2E2E2E2E2E2E2E2E2E2E2E2E2E2E2E2E2E2E2E2E2E2E2E2E2E2
310
E2E2E2E2E2E2E2E2E2E2E2E2E2E2E2E2E2E2E2E2E2E2BEE2E2E2E2E2E2E2E2DCE2E2E2DCE2E2E2E2E2E2E2DCE2E2E2E2E2DCE2E2E2DCF5F5F5BEBEBEBEBEBEBEBEBEBEBEBEBEE2E2E2BEBEBEBEBEBEBEBEBEBEBEBEBEBEBEBEBEBEBEBEBEBEBEBEBEBEBEE2E2E2E2E2E2E2E2E2E2E2E2DCE2E2BEE2E2E2E2E2E2E2E2E2E2E2
310
E2E2E2E2E2E2E2E2E2E2E2E2E2E2E2E2E2E2E2E2E2E2E2E2E2E2E2E2E2E2E2E2E2E2E2E2E2E2E2E2E2E2E2E2E2E2E2E2E2E2E2E2E2E2E2E2E2E2E2E2E2E2E2E2E2E2E2E2E2E2E2E2E2E2E2E2E2E2E2E2E2E2E2E2E2E2E2E2E2E2E2E2E2E2E2E2E2E2E2E2E2E2E2E2E2E2E2E2E2E2E2E2E2E2E2E2E2E2E2E2E2E2E2E2E2E2E2
310
E2E2E2E2E2E2E2E2E2E2E2E2E2E2E2E2E2E2E2E2E2E2E2E2BEE2E2E2E2E2E2E2E2DCDCDCDCDCDCDCDCDCDCDCDCDCDCDCDCDCDCDCDCDCDCDCDCDCDCBEBEBEBEBEBEBEBEBEDCDCDCDCDCDCDCDCBEE2BEBEBEE2E2E2F5BEE2E2E2E2E2E2E2E2E2E2E2E2BEE2E2E2E2E2E2E2E2E2E2E2E2E2E2E2DCE2E2BEE2E2E2E2E2E2E2E2E2
310
E2E2E2E2E2E2E2E2E2E2E2E2E2E2E2E2E2E2E2E2E2E2E2E2E2E2E2E2E2E2E2E2E2E2E2E2E2E2E2E2E2E2E2E2E2E2E2E2E2E2E2E2E2E2E2E2E2E2E2E2E2E2E2E2E2E2E2E2E2E2E2E2E2E2E2E2E2E2E2E2E2E2E2E2E2E2E2E2E2E2E2E2E2E2E2E2E2E2E2E2E2E2E2E2E2E2E2E2E2E2E2E2E2E2E2E2E2E2E2E2E2E2E2E2E2E2E2
310
E2E2E2E2E2E2E2E2E2E2E2E2E2E2E2E2E2E2E2E2E2E2E2E2E2E2BEE2E2E2E2E2E2E2E2DCF5F5F5F5F5F5F5F5F5E2E2DCF5F5F5F5F5F5F5F5F5DCDCDCDCF5F5F5F5F5F5F5F5F5F5F5F5E2E2E2E2F5F5F5F5F5F5F5F5F5F5F5F5F5F5F5E2E2E2E2E2E2E2E2E2E2E2E2E2E2E2E2E2E2E2E2E2E2E2E2DCE2E2BEE2E2E2E2E2E2E2
310
E2E2E2E2E2E2E2E2E2E2E2E2E2E2E2E2E2E2E2E2E2E2E2E2E2E2E2E2E2E2E2E2E2E2E2E2E2E2E2E2E2E2E2E2E2E2E2E2E2E2E2E2E2E2E2E2E2E2E2E2E2E2E2E2E2E2E2E2E2E2E2E2E2E2E2E2E2E2E2E2E2E2E2E2E2E2E2E2E2E2E2E2E2E2E2E2E2E2E2E2E2E2E2E2E2E2E2E2E2E2E2E2E2E2E2E2E2E2E2E2E2E2E2E2E2E2E2
310
E2E2E2E2E2E2E2E2E2E2E2E2E2E2E2E2E2E2E2E2E2E2E2E2E2E2E2E2BEE2E2E2E2E2E2E2E2DCF5E2F5DCF5F5E2E2E2E2E2DCF5F5F5E2E2DCF5E2E2DCDCDCDCDCF5F5F5F5F5DCF5F5F5F5F5E2E2E2E2DCF5F5F5F5F5F5F5F5F5E2F5F5F5F5E2E2E2E2E2E2E2E2E2E2E2E2E2E2E2E2E2E2E2E2E2E2E2E2DCE2E2BEE2E2E2E2E2
310
E2E2E2E2E2E2E2E2E2E2E2E2E2E2E2E2E2E2E2E2E2E2E2E2E2E2E2E2E2E2E2E2E2E2E2E2E2E2E2E2E2E2E2E2E2E2E2E2E2E2E2E2E2E2E2E2E2E2E2E2E2E2E2E2E2E2E2E2E2E2E2E2E2E2E2E2E2E2E2E2E2E2E2E2E2E2E2E2E2E2E2E2E2E2E2E2E2E2E2E2E2E2E2E2E2E2E2E2E2E2E2E2E2E2E2E2E2E2E2E2E2E2E2E2E2E2E2
310
E2E2E2E2E2E2E2E2E2E2E2E2E2E2E2E2E2E2E2E2E2E2E2E2E2E2E2E2E2E2BEE2E2E2E2E2E2E2E2DCDCDCDCDCDCDCDCDCDCDCDCDCDCDCDCDCDCDCDCDCDCDCDCDCDCDCDCDCDCDCDCDCBEBEBEBEBEBEBEBEBEDCDCDCDCDCDCDCDCDCDCDCDCDCDCDCDCDCDCDCDCDCDCDCDCDCDCDCDCDCDCDCDCDCDCDCDCDCDCDCDCE2E2BEE2E2E2
310
E2E2E2E2E2E2E2E2E2E2E2E2E2E2E2E2E2E2E2E2E2E2E2E2E2E2E2E2E2E2E2E2E2E2E2E2E2E2E2E2E2E2E2E2E2E2E2E2E2E2E2E2E2E2E2E2E2E2E2E2E2E2E2E2E2E2E2E2E2E2E2E2E2E2E2E2E2E2E2E2E2E2E2E2E2E2E2E2E2E2E2E2E2E2E2E2E2E2E2E2E2E2E2E2E2E2E2E2E2E2E2E2E2E2E2E2E2E2E2E2E2E2E2E2E2E2E2
310
E2E2E2E2E2E2E2E2E2E2E2E2E2E2E2E2E2E2E2E2E2E2E2E2E2E2E2E2E2E2E2E2BEE2E2E2E2E2E2E2E2DCE2E2E2E2E2E2E2E2E2E2E2E2E2E2E2E2E2E2E2E2E2DCE2E2E2E2E2E2E2E2E2DCBEBEBEBEBEBEBEBEDCDCE2E2E2E2E2E2E2E2F5E2E2E2E2E2DCE2E2E2E2E2E2E2E2E2E2E2E2E2DCE2E2E2E2E2E2E2E2E2DCE2E2BEE2
310
E2E2E2E2E2E2E2E2E2E2E2E2E2E2E2E2E2E2E2E2E2E2E2E2E2E2E2E2E2E2E2E2E2E2E2E2E2E2E2E2E2E2E2E2E2E2E2E2E2E2E2E2E2E2E2E2E2E2E2E2E2E2E2E2E2E2E2E2E2E2E2E2E2E2E2E2E2E2E2E2E2E2E2E2E2E2E2E2E2E2E2E2E2E2E2E2E2E2E2E2E2E2E2E2E2E2E2E2E2E2E2E2E2E2E2E2E2E2E2E2E2E2E2E2E2E2E2
310
E2E2E2E2E2E2E2E2E2E2E2E2E2E2E2E2E2E2E2E2E2E2E2E2E2E2E2E2E2E2E2E2E2E2BEE2E2E2E2E2E2E2E2DCE2E2E2E2E2E2E2E2E2E2E2E2E2E2E2E2E2E2E2E2E2DCDCDCDCDCDCDCDCDCDCDCE2E2E2E2E2E2E2E2E2F5F5F5F5F5F5F5F5F5F5F5F5E2E2E2F5F5F5F5F5F5F5F5F5F5F5F5E2E2DCE2F5F5F5F5F5F5F5F5DCE2E2
310
BEE2E2E2E2E2E2E2E2E2E2E2E2E2E2E2E2E2E2E2E2E2E2E2E2E2E2E2E2E2E2E2E2E2E2E2E2E2E2E2E2E2E2E2E2E2E2E2E2E2E2E2E2E2E2E2E2E2E2E2E2E2E2E2E2E2E2E2E2E2E2E2E2E2E2E2E2E2E2E2E2E2E2E2E2E2E2E2E2E2E2E2E2E2E2E2E2E2E2E2E2E2E2E2E2E2E2E2E2E2E2E2E2E2E2E2E2E2E2E2E2E2E2E2E2E2E2
310
E2E2E2E2E2E2E2E2E2E2E2E2E2E2E2E2E2E2E2E2E2E2E2E2E2E2E2E2E2E2E2E2E2E2E2E2BEE2E2E2E2E2E2E2E2DCE2E2E2E2E2E2E2E2E2E2E2E2E2E2E2E2E2E2E2E2E2DCE2E2E2E2E2E2E2E2E2DCDCDCDCDCDCDCDCDCDCDCF5DCDCBEBEBEBEBEBEBEDCDCDCDCF5F5DCF5DCF5F5F5DCF5F5DCDCDCDCDCF5F5F5BEBEBEBEDCDC
310
E2E2BEE2E2E2E2E2E2E2E2E2E2E2E2E2E2E2E2E2E2E2E2E2E2E2E2E2E2E2E2E2E2E2E2E2E2E2E2E2E2E2E2E2E2E2E2E2E2E2E2E2E2E2E2E2E2E2E2E2E2E2E2E2E2E2E2E2E2E2E2E2E2E2E2E2E2E2E2E2E2E2E2E2E2E2E2E2E2E2E2E2E2E2E2E2E2E2E2E2E2E2E2E2E2E2E2E2E2E2E2E2E2E2E2E2E2E2E2E2E2E2E2E2E2E2E2
310
E2E2E2E2E2E2E2E2E2E2E2E2E2E2E2E2E2E2E2E2E2E2E2E2E2E2E2E2E2E2E2E2E2E2E2E2E2E2BEE2E2E2E2E2E2E2E2DCE2E2E2E2E2E2E2E2E2E2E2E2E2E2E2E2E2E2E2E2E2DCDCDCDCDCDCDCDCDCDCDCDCDCBEBEBEBEDCDCDCDCE2E2E2BEBEBEBEBEBEBEE2E2E2E2DCE2E2E2E2E2E2E2E2E2E2E2E2E2DCE2E2E2E2BEBEBEBE
310
E2DCE2E2BEE2E2E2E2E2E2E2E2E2E2E2E2E2E2E2E2E2E2E2E2E2E2E2E2E2E2E2E2E2E2E2E2E2E2E2E2E2E2E2E2E2E2E2E2E2E2E2E2E2E2E2E2E2E2E2E2E2E2E2E2E2E2E2E2E2E2E2E2E2E2E2E2E2E2E2E2E2E2E2E2E2E2E2E2E2E2E2E2E2E2E2E2E2E2E2E2E2E2E2E2E2E2E2E2E2E2E2E2E2E2E2E2E2E2E2E2E2E2E2E2E2E2
310
E2E2E2E2E2E2E2E2E2E2E2E2E2E2E2E2E2E2E2E2E2E2E2E2E2E2E2E2E2E2E2E2E2E2E2E2E2E2E2E2BEE2E2E2E2E2E2E2E2DCE2E2E2E2E2E2E2E2E2E2E2E2E2E2E2E2E2E2E2E2E2DCE2F5F5F5F5F5F5F5E2DCE2E2BEBEBEBEE2E2E2DCE2E2BEBEF5BEBEBEBEBEE2E2E2E2DCE2E2F5F5F5F5F5F5F5F5E2E2E2DCE2E2F5BEBEF5
310
BEBEE2DCE2E2BEE2E2E2E2E2E2E2E2E2E2E2E2E2E2E2E2E2E2E2E2E2E2E2E2E2E2E2E2E2E2E2E2E2E2E2E2E2E2E2E2E2E2E2E2E2E2E2E2E2E2E2E2E2E2E2E2E2E2E2E2E2E2E2E2E2E2E2E2E2E2E2E2E2E2E2E2E2E2E2E2E2E2E2E2E2E2E2E2E2E2E2E2E2E2E2E2E2E2E2E2E2E2E2E2E2E2E2E2E2E2E2E2E2E2E2E2E2E2E2E2
310
E2E2E2E2E2E2E2E2E2E2E2E2E2E2E2E2E2E2E2E2E2E2E2E2E2E2E2E2E2E2E2E2E2E2E2E2E2E2E2E2E2E2BEE2E2E2E2E2E2E2E2DCDCDCDCDCDCDCDCDCDCDCDCDCDCDCDCDCDCDCDCDCDCDCDCF5DCF5DCF5DCDCDCDCDCDCF5F5F5F5DCDCDCDCDCDCDCF5F5F5DCF5F5DCDCDCDCDCDCDCDCF5F5F5F5F5F5F5F5DCDCDCDCDCDCF5F5
310
F5F5F5F5DCDCE2E2BEE2E2E2E2E2E2E2E2E2E2E2E2E2E2E2E2E2E2E2E2E2E2E2E2E2E2E2E2E2E2E2E2E2E2E2E2E2E2E2E2E2E2E2E2E2E2E2E2E2E2E2E2E2E2E2E2E2E2E2E2E2E2E2E2E2E2E2E2E2E2E2E2E2E2E2E2E2E2E2E2E2E2E2E2E2E2E2E2E2E2E2E2E2E2E2E2E2E2E2E2E2E2E2E2E2E2E2E2E2E2E2E2E2E2E2E2E2E2
310
E2E2E2E2E2E2E2E2E2E2E2E2E2E2E2E2E2E2E2E2E2E2E2E2E2E2E2E2E2E2E2E2E2E2E2E2E2E2E2E2E2E2E2E2BEE2E2E2E2E2E2E2E2DCE2E2E2E2E2E2E2E2E2E2E2E2E2E2E2E2E2E2E2E2E2E2E2E2E2E2E2E2E2E2E2E2E2E2E2E2E2E2E2E2E2E2E2E2E2E2E2E2E2E2E2E2E2E2E2E2E2E2E2E2E2E2E2E2E2E2E2E2E2E2E2E2E2
310
E2E2E2E2E2E2E2DCE2E2BEE2E2E2E2E2E2E2E2E2E2E2E2E2E2E2E2E2E2E2E2E2E2E2E2E2E2E2E2E2E2E2E2E2E2E2E2E2E2E2E2E2E2E2E2E2E2E2E2E2E2E2E2E2E2E2E2E2E2E2E2E2E2E2E2E2E2E2E2E2E2E2E2E2E2E2E2E2E2E2E2E2E2E2E2E2E2E2E2E2E2E2E2E2E2E2E2E2E2E2E2E2E2E2E2E2E2E2E2E2E2E2E2E2E2E2E2
310
E2E2E2E2E2E2E2E2E2E2E2E2E2E2E2E2E2E2E2E2E2E2E2E2E2E2E2E2E2E2E2E2E2E2E2E2E2E2E2E2E2E2E2E2E2E2BEE2E2E2E2E2E2E2E2DCE2E2E2E2E2E2E2E2E2E2E2E2E2E2E2E2E2E2E2E2E2E2E2E2E2E2E2E2E2E2E2E2E2E2E2E2E2E2E2E2E2E2E2E2E2E2E2E2E2E2E2E2E2E2E2E2E2E2E2E2E2E2E2E2E2E2E2E2E2E2E2
310
E2E2E2E2E2E2E2E2E2DCE2E2BEE2E2E2E2E2E2E2E2E2E2E2E2E2E2E2E2E2E2E2E2E2E2E2E2E2E2E2E2E2E2E2E2E2E2E2E2E2E2E2E2E2E2E2E2E2E2E2E2E2E2E2E2E2E2E2E2E2E2E2E2E2E2E2E2E2E2E2E2E2E2E2E2E2E2E2E2E2E2E2E2E2E2E2E2E2E2E2E2E2E2E2E2E2E2E2E2E2E2E2E2E2E2E2E2E2E2E2E2E2E2E2E2E2E2
310
E2E2E2E2E2E2E2E2E2E2E2E2E2E2E2E2E2E2E2E2E2E2E2E2E2E2E2E2E2E2E2E2E2E2E2E2E2E2E2E2E2E2E2E2E2E2E2E2BEE2E2E2E2E2E2E2E2DCE2E2E2E2E2E2E2E2E2E2E2E2E2E2E2E2E2E2E2E2E2E2E2E2E2E2E2E2E2E2E2E2E2E2E2E2E2E2E2E2E2E2E2E2E2E2E2E2E2E2E2E2E2E2E2E2E2E2E2E2E2E2E2E2E2E2E2E2E2
310
E2E2E2E2E2E2E2E2E2E2E2DCE2E2BEE2E2E2E2E2E2E2E2E2E2E2E2E2E2E2E2E2E2E2E2E2E2E2E2E2E2E2E2E2E2E2E2E2E2E2E2E2E2E2E2E2E2E2E2E2E2E2E2E2E2E2E2E2E2E2E2E2E2E2E2E2E2E2E2E2E2E2E2E2E2E2E2E2E2E2E2E2E2E2E2E2E2E2E2E2E2E2E2E2E2E2E2E2E2E2E2E2E2E2E2E2E2E2E2E2E2E2E2E2E2E2E2
310
E2E2E2E2E2E2E2E2E2E2E2E2E2E2E2E2E2E2E2E2E2E2E2E2E2E2E2E2E2E2E2E2E2E2E2E2E2E2E2E2E2E2E2E2E2E2E2E2E2E2BEE2E2E2E2E2E2E2E2DCE2E2E2E2E2E2E2E2E2E2E2E2E2E2E2E2E2E2E2E2E2E2E2E2E2E2E2E2E2E2E2E2E2E2E2E2E2E2E2E2E2E2E2E2E2E2E2E2E2E2E2E2E2E2E2E2E2E2E2E2E2E2E2E2E2E2E2
310
E2E2E2E2E2E2E2E2E2E2E2E2E2DCE2E2BEE2E2E2E2E2E2E2E2E2E2E2E2E2E2E2E2E2E2E2E2E2E2E2E2E2E2E2E2E2E2E2E2E2E2E2E2E2E2E2E2E2E2E2E2E2E2E2E2E2E2E2E2E2E2E2E2E2E2E2E2E2E2E2E2E2E2E2E2E2E2E2E2E2E2E2E2E2E2E2E2E2E2E2E2E2E2E2E2E2E2E2E2E2E2E2E2E2E2E2E2E2E2E2E2E2E2E2E2E2E2
310
E2E2E2E2E2E2E2E2E2E2E2E2E2E2E2E2E2E2E2E2E2E2E2E2E2E2E2E2E2E2E2E2E2E2E2E2E2E2E2E2E2E2E2E2E2E2E2E2E2E2E2E2BEE2E2E2E2E2E2E2E2DCE2E2E2E2E2E2E2E2E2E2E2E2E2E2E2E2E2E2E2E2E2E2E2E2E2E2E2E2E2E2E2E2E2E2E2E2E2E2E2E2E2E2E2E2E2E2E2E2E2E2E2E2E2E2E2E2E2E2E2E2E2E2E2E2E2
310
E2E2E2E2E2E2E2E2E2E2E2E2E2E2E2DCE2E2BEE2E2E2E2E2E2E2E2E2E2E2E2E2E2E2E2E2E2E2E2E2E2E2E2E2E2E2E2E2E2E2E2E2E2E2E2E2E2E2E2E2E2E2E2E2E2E2E2E2E2E2E2E2E2E2E2E2E2E2E2E2E2E2E2E2E2E2E2E2E2E2E2E2E2E2E2E2E2E2E2E2E2E2E2E2E2E2E2E2E2E2E2E2E2E2E2E2E2E2E2E2E2E2E2E2E2E2E2
310
E2E2E2E2E2E2E2E2E2E2E2E2E2E2E2E2E2E2E2E2E2E2E2E2E2E2E2E2E2E2E2E2E2E2E2E2E2E2E2E2E2E2E2E2E2E2E2E2E2E2E2E2E2E2BEE2E2E2E2E2E2E2E2DCE2E2E2E2E2E2E2E2E2E2E2E2E2E2E2E2E2E2E2E2E2E2E2E2E2E2E2E2E2E2E2E2E2E2E2E2E2E2E2E2E2E2E2E2E2E2E2E2E2E2E2E2E2E2E2E2E2E2E2E2E2E2E2
310
E2E2E2E2E2E2E2E2E2E2E2E2E2E2E2E2E2DCE2E2BEE2E2E2E2E2E2E2E2E2E2E2E2E2E2E2E2E2E2E2E2E2E2E2E2E2E2E2E2E2E2E2E2E2E2E2E2E2E2E2E2E2E2E2E2E2E2E2E2E2E2E2E2E2E2E2E2E2E2E2E2E2E2E2E2E2E2E2E2E2E2E2E2E2E2E2E2E2E2E2E2E2E2E2E2E2E2E2E2E2E2E2E2E2E2E2E2E2E2E2E2E2E2E2E2E2E2
310
E2E2E2E2E2E2E2E2E2E2E2E2E2E2E2E2E2E2E2E2E2E2E2E2E2E2E2E2E2E2E2E2E2E2E2E2E2E2E2E2E2E2E2E2E2E2E2E2E2E2E2E2E2E2E2E2BEE2E2E2E2E2E2E2E2DCE2E2E2E2E2E2E2E2E2E2E2E2E2E2E2E2E2E2E2E2E2E2E2E2E2E2E2E2E2E2E2E2E2E2E2E2E2E2E2E2E2E2E2E2E2E2E2E2E2E2E2E2E2E2E2E2E2E2E2E2E2
310
E2E2E2E2E2E2E2E2E2E2E2E2E2E2E2E2E2E2E2DCE2E2BEE2E2E2E2E2E2E2E2E2E2E2E2E2E2E2E2E2E2E2E2E2E2E2E2E2E2E2E2E2E2E2E2E2E2E2E2E2E2E2E2E2E2E2E2E2E2E2E2E2E2E2E2E2E2E2E2E2E2E2E2E2E2E2E2E2E2E2E2E2E2E2E2E2E2E2E2E2E2E2E2E2E2E2E2E2E2E2E2E2E2E2E2E2E2E2E2E2E2E2E2E2E2E2E2
310
E2E2E2E2E2E2E2E2E2E2E2E2E2E2E2E2E2E2E2E2E2E2E2E2E2E2E2E2E2E2E2E2E2E2E2E2E2E2E2E2E2E2E2E2E2E2E2E2E2E2E2E2E2E2E2E2E2E2BEE2E2E2E2E2E2E2E2DCE2E2E2E2E2E2E2E2E2E2E2E2E2E2E2E2E2E2E2E2E2E2E2E2E2E2E2E2E2E2E2E2E2E2E2E2E2E2E2E2E2E2E2E2E2E2E2E2E2E2E2E2E2E2E2E2E2E2E2
310
E2E2E2E2E2E2E2E2E2E2E2E2E2E2E2E2E2E2E2E2E2DCE2E2BEE2E2E2E2E2E2E2E2E2E2E2E2E2E2E2E2E2E2E2E2E2E2E2E2E2E2E2E2E2E2E2E2E2E2E2E2E2E2E2E2E2E2E2E2E2E2E2E2E2E2E2E2E2E2E2E2E2E2E2E2E2E2E2E2E2E2E2E2E2E2E2E2E2E2E2E2E2E2E2E2E2E2E2E2E2E2E2E2E2E2E2E2E2E2E2E2E2E2E2E2E2E2
310
E2E2E2E2E2E2E2E2E2E2E2E2E2E2E2E2E2E2E2E2E2E2E2E2E2E2E2E2E2E2E2E2E2E2E2E2E2E2E2E2E2E2E2E2E2E2E2E2E2E2E2E2E2E2E2E2E2E2E2E2BEE2E2E2E2E2E2E2E2DCE2E2E2E2E2E2E2E2E2E2E2E2E2E2E2E2E2E2E2E2E2E2E2E2E2E2E2E2E2E2E2E2E2E2E2E2E2E2E2E2E2E2E2E2E2E2E2E2E2E2E2E2E2E2E2E2E2
310
E2E2E2E2E2E2E2E2E2E2E2E2E2E2E2E2E2E2E2E2E2E2E2DCE2E2BEE2E2E2E2E2E2E2E2E2E2E2E2E2E2E2E2E2E2E2E2E2E2E2E2E2E2E2E2E2E2E2E2E2E2E2E2E2E2E2E2E2E2E2E2E2E2E2E2E2E2E2E2E2E2E2E2E2E2E2E2E2E2E2E2E2E2E2E2E2E2E2E2E2E2E2E2E2E2E2E2E2E2E2E2E2E2E2E2E2E2E2E2E2E2E2E2E2E2E2E2
310
E2E2E2E2E2E2E2E2E2E2E2E2E2E2E2E2E2E2E2E2E2E2E2E2E2E2E2E2E2E2E2E2E2E2E2E2E2E2E2E2E2E2E2E2E2E2E2E2E2E2E2E2E2E2E2E2E2E2E2E2E2E2BEE2E2E2E2E2E2E2E2DCE2E2E2E2E2E2E2E2E2E2E2E2E2E2E2E2E2E2E2E2E2E2E2E2E2E2E2E2E2E2E2E2E2E2E2E2E2E2E2E2E2E2E2E2E2E2E2E2E2E2E2E2E2E2E2
310
E2E2E2E2E2E2E2E2E2E2E2E2E2E2E2E2E2E2E2E2E2E2E2E2E2DCE2E2BEE2E2E2E2E2E2E2E2E2E2E2E2E2E2E2E2E2E2E2E2E2E2E2E2E2E2E2E2E2E2E2E2E2E2E2E2E2E2E2E2E2E2E2E2E2E2E2E2E2E2E2E2E2E2E2E2E2E2E2E2E2E2E2E2E2E2E2E2E2E2E2E2E2E2E2E2E2E2E2E2E2E2E2E2E2E2E2E2E2E2E2E2E2E2E2E2E2E2
310
E2E2E2E2E2E2E2E2E2E2E2E2E2E2E2E2E2E2E2E2E2E2E2E2E2E2E2E2E2E2E2E2E2E2E2E2E2E2E2E2E2E2E2E2E2E2E2E2E2E2E2E2E2E2E2E2E2E2E2E2E2E2E2E2BEE2E2E2E2E2E2E2E2DCE2E2E2E2E2E2E2E2E2E2E2E2E2E2E2E2E2E2E2E2E2E2E2E2E2E2E2E2E2E2E2E2E2E2E2E2E2E2E2E2E2E2E2E2E2E2E2E2E2E2E2E2E2
310
E2E2E2E2E2E2E2E2E2E2E2E2E2E2E2E2E2E2E2E2E2E2E2E2E2E2E2DCE2E2BEE2E2E2E2E2E2E2E2E2E2E2E2E2E2E2E2E2E2E2E2E2E2E2E2E2E2E2E2E2E2E2E2E2E2E2E2E2E2E2E2E2E2E2E2E2E2E2E2E2E2E2E2E2E2E2E2E2E2E2E2E2E2E2E2E2E2E2E2E2E2E2E2E2E2E2E2E2E2E2E2E2E2E2E2E2E2E2E2E2E2E2E2E2E2E2E2
310
E2E2E2E2E2E2E2E2E2E2E2E2E2E2E2E2E2E2E2E2E2E2E2E2E2E2E2E2E2E2E2E2E2E2E2E2E2E2E2E2E2E2E2E2E2E2E2E2E2E2E2E2E2E2E2E2E2E2E2E2E2E2E2E2E2E2BEE2E2E2E2E2E2E2E2DCE2E2E2E2E2E2E2E2E2E2E2E2E2E2E2E2E2E2E2E2E2E2E2E2E2E2E2E2E2E2E2E2E2E2E2E2E2E2E2E2E2E2E2E2E2E2E2E2E2E2E2
310
E2E2E2E2E2E2E2E2E2E2E2E2E2E2E2E2E2E2E2E2E2E2E2E2E2E2E2E2E2DCE2E2BEE2E2E2E2E2E2E2E2E2E2E2E2E2E2E2E2E2E2E2E2E2E2E2E2E2E2E2E2E2E2E2E2E2E2E2E2E2E2E2E2E2E2E2E2E2E2E2E2E2E2E2E2E2E2E2E2E2E2E2E2E2E2E2E2E2E2E2E2E2E2E2E2E2E2E2E2E2E2E2E2E2E2E2E2E2E2E2E2E2E2E2E2E2E2
310
E2E2E2E2E2E2E2E2E2E2E2E2E2E2E2E2E2E2E2E2E2E2E2E2E2E2E2E2E2E2E2E2E2E2E2E2E2E2E2E2E2E2E2E2E2E2E2E2E2E2E2E2E2E2E2E2E2E2E2E2E2E2E2E2E2E2E2E2BEE2E2E2E2E2E2E2E2DCE2E2E2E2E2E2E2E2E2E2E2E2E2E2E2E2E2E2E2E2E2E2E2E2E2E2E2E2E2E2E2E2E2E2E2E2E2E2E2E2E2E2E2E2E2E2E2E2E2
310
E2E2E2E2E2E2E2E2E2E2E2E2E2E2E2E2E2E2E2E2E2E2E2E2E2E2E2E2E2E2E2DCE2E2BEE2E2E2E2E2E2E2E2E2E2E2E2E2E2E2E2E2E2E2E2E2E2E2E2E2E2E2E2E2E2E2E2E2E2E2E2E2E2E2E2E2E2E2E2E2E2E2E2E2E2E2E2E2E2E2E2E2E2E2E2E2E2E2E2E2E2E2E2E2E2E2E2E2E2E2E2E2E2E2E2E2E2E2E2E2E2E2E2E2E2E2E2
310
E2E2E2E2E2E2E2E2E2E2E2E2E2E2E2E2E2E2E2E2E2E2E2E2E2E2E2E2E2E2E2E2E2E2E2E2E2E2E2E2E2E2E2E2E2E2E2E2E2E2E2E2E2E2E2E2E2E2E2E2E2E2E2E2E2E2E2E2E2E2BEE2E2E2E2E2E2E2E2DCE2E2E2E2E2E2E2E2E2E2E2E2E2E2E2E2E2E2E2E2E2E2E2F5F5F5F5F5E2E2E2E2E2E2E2E2E2E2E2E2E2E2E2E2E2E2E2
310
E2E2E2E2E2E2E2E2E2E2E2E2E2E2E2E2E2E2E2E2E2E2E2E2E2E2E2E2E2E2E2E2E2DCE2E2BEE2E2E2E2E2E2E2E2E2E2E2E2E2E2E2E2E2E2E2E2E2E2E2E2E2E2E2E2E2E2E2E2E2E2E2E2E2E2E2E2E2E2E2E2E2E2E2E2E2E2E2E2E2E2E2E2E2E2E2E2E2E2E2E2E2E2E2E2E2E2E2E2E2E2E2E2E2E2E2E2E2E2E2E2E2E2E2E2E2E2
310
E2E2E2E2E2E2E2E2E2E2E2E2E2E2E2E2E2E2E2E2E2E2E2E2E2E2E2E2E2E2E2E2E2E2E2E2E2E2E2E2E2E2E2E2E2E2E2E2E2E2E2E2E2E2E2E2E2E2E2E2E2E2E2E2E2E2E2E2E2E2E2E2BEE2E2E2E2E2E2E2E2DCE2E2E2E2E2E2E2E2E2E2E2E2E2E2E2E2E2E2E2E2E2E2F5F5F5F5F5F5F5E2E2E2E2E2E2E2E2E2E2E2E2E2E2E2E2
310
E2E2E2E2E2E2E2E2E2E2E2E2E2E2E2E2E2E2E2E2E2E2E2E2E2E2E2E2E2E2E2E2E2E2E2DCE2E2BEE2E2E2E2E2E2E2E2E2E2E2E2E2E2E2E2E2E2E2E2E2E2E2E2E2E2E2E2E2E2E2E2E2E2E2E2E2E2E2E2E2E2E2E2E2E2E2E2E2E2E2E2E2E2E2E2E2E2E2E2E2E2E2E2E2E2E2E2E2E2E2E2E2E2E2E2E2E2E2E2E2E2E2E2E2E2E2E2
310
E2E2E2E2E2E2E2E2E2E2E2E2E2E2E2E2E2E2E2E2E2E2E2E2E2E2E2E2E2E2E2E2E2E2E2E2E2E2E2E2E2E2E2E2E2E2E2E2E2E2E2E2E2E2E2E2E2E2E2E2E2E2E2E2E2E2E2E2E2E2E2E2E2E2BEE2E2E2E2E2E2E2E2DCE2E2E2E2E2E2E2E2E2E2E2E2E2E2E2E2E2E2E2E2E2F5E2F5F5E2F5F5E2F5E2E2E2E2E2E2E2E2E2E2E2E2E2
310
E2E2E2E2E2E2E2E2E2E2E2E2E2E2E2E2E2E2E2E2E2E2E2E2E2E2E2E2E2E2E2E2E2E2E2E2E2DCE2E2BEE2E2E2E2E2E2E2E2E2E2E2E2E2E2E2E2E2E2E2E2E2E2E2E2E2E2E2E2E2E2E2E2E2E2E2E2E2E2E2E2E2E2E2E2E2E2E2E2E2E2E2E2E2E2E2E2E2E2E2E2E2E2E2E2E2E2E2E2E2E2E2E2E2E2E2E2E2E2E2E2E2E2E2E2E2E2
310
E2E2E2E2E2E2E2E2E2E2E2E2E2E2E2E2E2E2E2E2E2E2E2E2E2E2E2E2E2E2E2E2E2E2E2E2E2E2E2E2E2E2E2E2E2E2E2E2E2E2E2E2E2E2E2E2E2E2E2E2E2E2E2E2E2E2E2E2E2E2E2E2E2E2E2E2BEE2E2E2E2E2E2E2E2DCE2E2E2E2E2E2E2E2E2E2E2E2E2E2E2E2E2E2E2E2F5E2E2E2F5F5F5E2E2E2F5E2E2E2E2E2E2E2E2E2E2
310
E2E2E2E2E2E2E2E2E2E2E2E2E2E2E2E2E2E2E2E2E2E2E2E2E2E2E2E2E2E2E2E2E2E2E2E2E2E2E2DCE2E2BEE2E2E2E2E2E2E2E2E2E2E2E2E2E2E2E2E2E2E2E2E2E2E2E2E2E2E2E2E2E2E2E2E2E2E2E2E2E2E2E2E2E2E2E2E2E2E2E2E2E2E2E2E2E2E2E2E2E2E2E2E2E2E2E2E2E2E2E2E2E2E2E2E2E2E2E2E2E2E2E2E2E2E2E2
310
E2E2E2E2E2E2E2E2E2E2E2E2E2E2E2E2E2E2E2E2E2E2E2E2E2E2E2E2E2E2E2E2E2E2E2E2E2E2E2E2E2E2E2E2E2E2E2E2E2E2E2E2E2E2E2E2E2E2E2E2E2E2E2E2E2E2E2E2E2E2E2E2E2E2E2E2E2E2BEE2E2E2E2E2E2E2E2DCE2E2E2E2E2E2E2E2E2E2E2E2E2E2E2E2E2E2E2E2F5E2E2E2E2F5E2E2E2E2F5E2E2E2E2E2E2E2E2
310
E2E2E2E2E2E2E2E2E2E2E2E2E2E2E2E2E2E2E2E2E2E2E2E2E2E2E2E2E2E2E2E2E2E2E2E2E2E2E2E2E2DCE2E2BEE2E2E2E2E2E2E2E2E2E2E2E2E2E2E2E2E2E2E2E2E2E2E2E2E2E2E2E2E2E2E2E2E2E2E2E2E2E2E2E2E2E2E2E2E2E2E2E2E2E2E2E2E2E2E2E2E2E2E2E2E2E2E2E2E2E2E2E2E2E2E2E2E2E2E2E2E2E2E2E2E2E2
310
E2E2E2E2E2E2E2E2E2E2E2E2E2E2E2E2E2E2E2E2E2E2E2E2E2E2E2E2E2E2E2E2E2E2E2E2E2E2E2E2E2E2E2E2E2E2E2E2E2E2E2E2E2E2E2E2E2E2E2E2E2E2E2E2E2E2E2E2E2E2E2E2E2E2E2E2E2E2E2E2BEE2E2E2E2E2E2E2E2DCE2E2E2E2E2E2E2E2E2E2E2E2E2E2E2E2E2E2E2E2F5E2E2E2E2E2E2E2E2E2F5E2E2E2E2E2E2
310
E2E2E2E2E2E2E2E2E2E2E2E2E2E2E2E2E2E2E2E2E2E2E2E2E2E2E2E2E2E2E2E2E2E2E2E2E2E2E2E2E2E2E2DCE2E2BEE2E2E2E2E2E2E2E2E2E2E2E2E2E2E2E2E2E2E2E2E2E2E2E2E2E2E2E2E2E2E2E2E2E2E2E2E2E2E2E2E2E2E2E2E2E2E2E2E2E2E2E2E2E2E2E2E2E2E2E2E2E2E2E2E2E2E2E2E2E2E2E2E2E2E2E2E2E2E2E2
310
E2E2E2E2E2E2E2E2E2E2E2E2E2E2E2E2E2E2E2E2E2E2E2E2E2E2E2E2E2E2E2E2E2E2E2E2E2E2E2E2E2E2E2E2E2E2E2E2E2E2E2E2E2E2E2E2E2E2E2E2E2E2E2E2E2E2E2E2E2E2E2E2E2E2E2E2E2E2E2E2E2E2BEE2E2E2E2E2E2E2E2DCE2E2E2E2E2E2E2E2E2E2E2E2E2E2E2E2E2E2E2E2F5E2E2E2E2E2E2E2E2E2F5E2E2E2E2
310
E2E2E2E2E2E2E2E2E2E2E2E2E2E2E2E2E2E2E2E2E2E2E2E2E2E2E2E2E2E2E2E2E2E2E2E2E2E2E2E2E2E2E2E2E2DCE2E2BEE2E2E2E2E2E2E2E2E2E2E2E2E2E2E2E2E2E2E2E2E2E2E2E2E2E2E2E2E2E2E2E2E2E2E2E2E2E2E2E2E2E2E2E2E2E2E2E2E2E2E2E2E2E2E2E2E2E2E2E2E2E2E2E2E2E2E2E2E2E2E2E2E2E2E2E2E2E2
310
E2E2E2E2E2E2E2E2E2E2E2E2E2E2E2E2E2E2E2E2E2E2E2E2E2E2E2E2E2E2E2E2E2E2E2E2E2E2E2E2E2E2E2E2E2E2E2E2E2E2E2E2E2E2E2E2E2E2E2E2E2E2E2E2E2E2E2E2E2E2E2E2E2E2E2E2E2E2E2E2E2E2E2E2BEE2E2E2E2E2E2E2E2DCE2E2E2E2E2E2E2E2E2E2E2E2E2E2E2E2E2E2E2E2F5E2E2E2E2E2E2E2E2E2F5E2E2
310
E2E2E2E2E2E2E2E2E2E2E2E2E2E2E2E2E2E2E2E2E2E2E2E2E2E2E2E2E2E2E2E2E2E2E2E2E2E2E2E2E2E2E2E2E2E2E2DCE2E2BEE2E2E2E2E2E2E2E2E2E2E2E2E2E2E2E2E2E2E2E2E2E2E2E2E2E2E2E2E2E2E2E2E2E2E2E2E2E2E2E2E2E2E2E2E2E2E2E2E2E2E2E2E2E2E2E2E2E2E2E2E2E2E2E2E2E2E2E2E2E2E2E2E2E2E2E2
310
E2E2E2E2E2E2E2E2E2E2E2E2E2E2E2E2E2E2E2E2E2E2E2E2E2E2E2E2E2E2E2E2E2E2E2E2E2E2E2E2E2E2E2E2E2E2E2E2E2E2E2E2E2E2E2E2E2E2E2E2E2E2E2E2E2E2E2E2E2E2E2E2E2E2E2E2E2E2E2E2E2E2E2E2E2E2BEE2E2E2E2E2E2E2E2DCE2E2E2E2E2E2E2E2E2E2E2E2E2E2E2E2E2E2E2E2F5E2E2E2E2E2E2E2E2E2F5
310
E2E2E2E2E2E2E2E2E2E2E2E2E2E2E2E2E2E2E2E2E2E2E2E2E2E2E2E2E2E2E2E2E2E2E2E2E2E2E2E2E2E2E2E2E2E2E2E2E2DCE2E2BEE2E2E2E2E2E2E2E2E2E2E2E2E2E2E2E2E2E2E2E2E2E2E2E2E2E2E2E2E2E2E2E2E2E2E2E2E2E2E2E2E2E2E2E2E2E2E2E2E2E2E2E2E2E2E2E2E2E2E2E2E2E2E2E2E2E2E2E2E2E2E2E2E2E2
310
E2E2E2E2E2E2E2E2E2E2E2E2E2E2E2E2E2E2E2E2E2E2E2E2E2E2E2E2E2E2E2E2E2E2E2E2E2E2E2E2E2E2E2E2E2E2E2E2E2E2E2E2E2E2E2E2E2E2E2E2E2E2E2E2E2E2E2E2E2E2E2E2E2E2E2E2E2E2E2E2E2E2E2E2E2E2E2E2BEE2E2E2E2E2E2E2E2DCE2E2E2E2E2E2E2E2E2E2E2E2E2E2E2E2E2E2E2E2F5E2E2E2E2E2E2E2E2
310
E2F5E2E2E2E2E2E2E2E2E2E2E2E2E2E2E2E2E2E2E2E2E2E2E2E2E2E2E2E2E2E2E2E2E2E2E2E2E2E2E2E2E2E2E2E2E2E2E2E2E2DCE2E2BEE2E2E2E2E2E2E2E2E2E2E2E2E2E2E2E2E2E2E2E2E2E2E2E2E2E2E2E2E2E2E2E2E2E2E2E2E2E2E2E2E2E2E2E2E2E2E2E2E2E2E2E2E2E2E2E2E2E2E2E2E2E2E2E2E2E2E2E2E2E2E2E2
310
E2E2E2E2E2E2E2E2E2E2E2E2E2E2E2E2E2E2E2E2E2E2E2E2E2E2E2E2E2E2E2E2E2E2E2E2E2E2E2E2E2E2E2E2E2E2E2E2E2E2E2E2E2E2E2E2E2E2E2E2E2E2E2E2E2E2E2E2E2E2E2E2E2E2E2E2E2E2E2E2E2E2E2E2E2E2E2E2E2E2BEE2E2E2E2E2E2E2E2DCE2E2E2E2E2E2E2E2E2E2E2E2E2E2E2E2E2E2E2E2F5F5E2E2E2E2E2
310
E2E2F5F5E2E2E2E2E2E2E2E2E2E2E2E2E2E2E2E2E2E2E2E2E2E2E2E2E2E2E2E2E2E2E2E2E2E2E2E2E2E2E2E2E2E2E2E2E2E2E2E2E2DCE2E2BEE2E2E2E2E2E2E2E2E2E2E2E2E2E2E2E2E2E2E2E2E2E2E2E2E2E2E2E2E2E2E2E2E2E2E2E2E2E2E2E2E2E2E2E2E2E2E2E2E2E2E2E2E2E2E2E2E2E2E2E2E2E2E2E2E2E2E2E2E2E2
310
E2E2E2E2E2E2E2E2E2E2E2E2E2E2E2E2E2E2E2E2E2E2E2E2E2E2E2E2E2E2E2E2E2E2E2E2E2E2E2E2E2E2E2E2E2E2E2E2E2E2E2E2E2E2E2E2E2E2E2E2E2E2E2E2E2E2E2E2E2E2E2E2E2E2E2E2E2E2E2E2E2E2E2E2E2E2E2E2E2E2E2E2BEE2E2E2E2E2E2E2E2DCE2E2E2E2E2E2E2E2E2E2E2E2E2E2E2E2E2E2E2E2F5F5F5E2E2
310
E2E2E2F5F5F5E2E2E2E2E2E2E2E2E2E2E2E2E2E2E2E2E2E2E2E2E2E2E2E2E2E2E2E2E2E2E2E2E2E2E2E2E2E2E2E2E2E2E2E2E2E2E2E2E2DCE2E2BEE2E2E2E2E2E2E2E2E2E2E2E2E2E2E2E2E2E2E2E2E2E2E2E2E2E2E2E2E2E2E2E2E2E2E2E2E2E2E2E2E2E2E2E2E2E2E2E2E2E2E2E2E2E2E2E2E2E2E2E2E2E2E2E2E2E2E2E2
310
E2E2E2E2E2E2E2E2E2E2E2E2E2E2E2E2E2E2E2E2E2E2E2E2E2E2E2E2E2E2E2E2E2E2E2E2E2E2E2E2E2E2E2E2E2E2E2E2E2E2E2E2E2E2E2E2E2E2E2E2E2E2E2E2E2E2E2E2E2E2E2E2E2E2E2E2E2E2E2E2E2E2E2E2E2E2E2E2E2E2E2E2E2E2BEE2E2E2E2E2E2E2E2DCE2E2E2E2E2E2E2E2E2E2E2E2E2E2E2E2E2E2E2E2F5F5F5
310
F5F5F5F5F5F5F5F5E2E2E2E2E2E2E2E2E2E2E2E2E2E2E2E2E2E2E2E2E2E2E2E2E2E2E2E2E2E2E2E2E2E2E2E2E2E2E2E2E2E2E2E2E2E2E2E2E2DCE2E2BEE2E2E2E2E2E2E2E2E2E2E2E2E2E2E2E2E2E2E2E2E2E2E2E2E2E2E2E2E2E2E2E2E2E2E2E2E2E2E2E2E2E2E2E2E2E2E2E2E2E2E2E2E2E2E2E2E2E2E2E2E2E2E2E2E2E2
310
E2E2E2E2E2E2E2E2E2E2E2E2E2E2E2E2E2E2E2E2E2E2E2E2E2E2E2E2E2E2E2E2E2E2E2E2E2E2E2E2E2E2E2E2E2E2E2E2E2E2E2E2E2E2E2E2E2E2E2E2E2E2E2E2E2E2E2E2E2E2E2E2E2E2E2E2E2E2E2E2E2E2E2E2E2E2E2E2E2E2E2E2E2E2E2E2BEE2E2E2E2E2E2E2E2DCE2E2E2E2E2E2E2E2E2E2E2E2E2E2E2E2E2E2E2E2F5
310
E2E2E2E2E2E2E2E2E2F5E2E2E2E2E2E2E2E2E2E2E2E2E2E2E2E2E2E2E2E2E2E2E2E2E2E2E2E2E2E2E2E2E2E2E2E2E2E2E2E2E2E2E2E2E2E2E2E2E2DCE2E2BEE2E2E2E2E2E2E2E2E2E2E2E2E2E2E2E2E2E2E2E2E2E2E2E2E2E2E2E2E2E2E2E2E2E2E2E2E2E2E2E2E2E2E2E2E2E2E2E2E2E2E2E2E2E2E2E2E2E2E2E2E2E2E2E2
310
E2E2E2E2E2E2E2E2E2E2E2E2E2E2E2E2E2E2E2E2E2E2E2E2E2E2E2E2E2E2E2E2E2E2E2E2E2E2E2E2E2E2E2E2E2E2E2E2E2E2E2E2E2E2E2E2E2E2E2E2E2E2E2E2E2E2E2E2E2E2E2E2E2E2E2E2E2E2E2E2E2E2E2E2E2E2E2E2E2E2E2E2E2E2E2E2E2E2BEE2E2E2E2E2E2E2E2DCE2E2E2E2E2E2E2E2E2E2E2E2E2E2E2E2E2E2E2
310
E2F5E2E2E2E2E2E2E2E2E2F5E2E2E2E2E2E2E2E2E2E2E2E2E2E2E2E2E2E2E2E2E2E2E2E2E2E2E2E2E2E2E2E2E2E2E2E2E2E2E2E2E2E2E2E2E2E2E2E2E2DCE2E2BEE2E2E2E2E2E2E2E2E2E2E2E2E2E2E2E2E2E2E2E2E2E2E2E2E2E2E2E2E2E2E2E2E2E2E2E2E2E2E2E2E2E2E2E2E2E2E2E2E2E2E2E2E2E2E2E2E2E2E2E2E2E2
310
E2E2E2E2E2E2E2E2E2E2E2E2E2E2E2E2E2E2E2E2E2E2E2E2E2E2E2E2E2E2E2E2E2E2E2E2E2E2E2E2E2E2E2E2E2E2E2E2E2E2E2E2E2E2E2E2E2E2E2E2E2E2E2E2E2E2E2E2E2E2E2E2E2E2E2E2E2E2E2E2E2E2E2E2E2E2E2E2E2E2E2E2E2E2E2E2E2E2E2E2BEE2E2E2E2E2E2E2E2DCE2E2E2E2E2E2E2E2E2E2E2E2E2E2E2E2E2
310
E2E2E2F5E2E2E2E2E2E2E2E2E2F5E2E2E2E2E2E2E2E2E2E2E2E2E2E2E2E2E2E2E2E2E2E2E2E2E2E2E2E2E2E2E2E2E2E2E2E2E2E2E2E2E2E2E2E2E2E2E2E2E2DCE2E2BEE2E2E2E2E2E2E2E2E2E2E2E2E2E2E2E2E2E2E2E2E2E2E2E2E2E2E2E2E2E2E2E2E2E2E2E2E2E2E2E2E2E2E2E2E2E2E2E2E2E2E2E2E2E2E2E2E2E2E2E2
310
E2E2E2E2E2E2E2E2E2E2E2E2E2E2E2E2E2E2E2E2E2E2E2E2E2E2E2E2E2E2E2E2E2E2E2E2E2E2E2E2E2E2E2E2E2E2E2E2E2E2E2E2E2E2E2E2E2E2E2E2E2E2E2E2E2E2E2E2E2E2E2E2E2E2E2E2E2E2E2E2E2E2E2E2E2E2E2E2E2E2E2E2E2E2E2E2E2E2E2E2E2E2BEE2E2E2E2E2E2E2E2DCE2E2E2E2E2E2E2E2E2E2E2E2E2E2E2
310
E2E2E2E2F5F5E2E2E2E2E2E2E2E2E2F5F5E2E2E2E2E2E2E2E2E2E2E2E2E2E2E2E2E2E2E2E2E2E2E2E2E2E2E2E2E2E2E2E2E2E2E2E2E2E2E2E2E2E2E2E2E2E2E2E2DCE2E2BEE2E2E2E2E2E2E2E2E2E2E2E2E2E2E2E2E2E2E2E2E2E2E2E2E2E2E2E2E2E2E2E2E2E2E2E2E2E2E2E2E2E2E2E2E2E2E2E2E2E2E2E2E2E2E2E2E2E2
310
E2E2E2E2E2E2E2E2E2E2E2E2E2E2E2E2E2E2E2E2E2E2E2E2E2E2E2E2E2E2E2E2E2E2E2E2E2E2E2E2E2E2E2E2E2E2E2E2E2E2E2E2E2E2E2E2E2E2E2E2E2E2E2E2E2E2E2E2E2E2E2E2E2E2E2E2E2E2E2E2E2E2E2E2E2E2E2E2E2E2E2E2E2E2E2E2E2E2E2E2E2E2E2E2BEE2E2E2E2E2E2E2E2DCE2E2E2E2E2E2E2E2E2E2E2E2E2
310
E2E2E2E2E2E2F5F5F5F5F5F5F5F5F5F5F5F5F5E2E2E2E2E2E2E2E2E2E2E2E2E2E2E2E2E2E2E2E2E2E2E2E2E2E2E2E2E2E2E2E2E2E2E2E2E2E2E2E2E2E2E2E2E2E2E2E2DCE2E2BEE2E2E2E2E2E2E2E2E2E2E2E2E2E2E2E2E2E2E2E2E2E2E2E2E2E2E2E2E2E2E2E2E2E2E2E2E2E2E2E2E2E2E2E2E2E2E2E2E2E2E2E2E2E2E2E2
310
E2E2E2E2E2E2E2E2E2E2E2E2E2E2E2E2E2E2E2E2E2E2E2E2E2E2E2E2E2E2E2E2E2E2E2E2E2E2E2E2E2E2E2E2E2E2E2E2E2E2E2E2E2E2E2E2E2E2E2E2E2E2E2E2E2E2E2E2E2E2E2E2E2E2E2E2E2E2E2E2E2E2E2E2E2E2E2E2E2E2E2E2E2E2E2E2E2E2E2E2E2E2E2E2E2E2BEE2E2E2E2E2E2E2E2DCE2E2E2E2E2E2E2E2E2E2E2
310
E2E2E2E2E2E2F52DF5F5F5F5F5F5F5F5F5F5F5F5F5E2E2E2E2E2E2E2E2E2E2E2E2E2E2E2E2E2E2E2E2E2E2E2E2E2E2E2E2E2E2E2E2E2E2E2E2E2E2E2E2E2E2E2E2E2E2E2E2DCE2E2BEE2E2E2E2E2E2E2E2E2E2E2E2E2E2E2E2E2E2E2E2E2E2E2E2E2E2E2E2E2E2E2E2E2E2E2E2E2E2E2E2E2E2E2E2E2E2E2E2E2E2E2E2E2E2
310
E2E2E2E2E2E2E2E2E2E2E2E2E2E2E2E2E2E2E2E2E2E2E2E2E2E2E2E2E2E2E2E2E2E2E2E2E2E2E2E2E2E2E2E2E2E2E2E2E2E2E2E2E2E2E2E2E2E2E2E2E2E2E2E2E2E2E2E2E2E2E2E2E2E2E2E2E2E2E2E2E2E2E2E2E2E2E2E2E2E2E2E2E2E2E2E2E2E2E2E2E2E2E2E2E2E2E2E2BEE2E2E2E2E2E2E2E2DCE2E2E2E2E2E2E2E2E2
310
E2E2E2E2E2E2E2BEBEE2F5F5F5F5F5F5BEF5F5F5F5F5F5E2E2E2E2E2E2E2E2E2E2E2E2E2E2E2E2E2E2E2E2E2E2E2E2E2E2E2E2E2E2E2E2E2E2E2E2E2E2E2E2E2E2E2E2E2E2E2E2DCE2E2BEE2E2E2E2E2E2E2E2E2E2E2E2E2E2E2E2E2E2E2E2E2E2E2E2E2E2E2E2E2E2E2E2E2E2E2E2E2E2E2E2E2E2E2E2E2E2E2E2E2E2E2E2
310
E2E2E2E2E2E2E2E2E2E2E2E2E2E2E2E2E2E2E2E2E2E2E2E2E2E2E2E2E2E2E2E2E2E2E2E2E2E2E2E2E2E2E2E2E2E2E2E2E2E2E2E2E2E2E2E2E2E2E2E2E2E2E2E2E2E2E2E2E2E2E2E2E2E2E2E2E2E2E2E2E2E2E2E2E2E2E2E2E2E2E2E2E2E2E2E2E2E2E2E2E2E2E2E2E2E2E2E2E2E2BEE2E2E2E2E2E2E2E2DCE2E2E2E2E2E2E2
310
E2E2E2E2E2E2E2E2E2BEBEE2F5E2E2E2E2BEBEBEE2E2E2E2F5E2E2E2E2E2E2E2E2E2E2E2E2E2E2E2E2E2E2E2E2E2E2E2E2E2E2E2E2E2E2E2E2E2E2E2E2E2E2E2E2E2E2E2E2E2E2E2E2DCE2E2BEE2E2E2E2E2E2E2E2E2E2E2E2E2E2E2E2E2E2E2E2E2E2E2E2E2E2E2E2E2E2E2E2E2E2E2E2E2E2E2E2E2E2E2E2E2E2E2E2E2E2
310
E2E2E2E2E2E2E2E2E2E2E2E2E2E2E2E2E2E2E2E2E2E2E2E2E2E2E2E2E2E2E2E2E2E2E2E2E2E2E2E2E2E2E2E2E2E2E2E2E2E2E2E2E2E2E2E2E2E2E2E2E2E2E2E2E2E2E2E2E2E2E2E2E2E2E2E2E2E2E2E2E2E2E2E2E2E2E2E2E2E2E2E2E2E2E2E2E2E2E2E2E2E2E2E2E2E2E2E2E2E2E2E2BEE2E2E2E2E2E2E2E2DCE2E2E2E2E2
310
E2E2E2E2E2E2E2E2E2E2E2BEBEE2F5E2E2E2E228BE28E2E2E2E2F5E2E2E2E2E2E2E2E2E2E2E2E2E2E2E2E2E2E2E2E2E2E2E2E2E2E2E2E2E2E2E2E2E2E2E2E2E2E2E2E2E2E2E2E2E2E2E2E2DCE2E2BEE2E2E2E2E2E2E2E2E2E2E2E2E2E2E2E2E2E2E2E2E2E2E2E2E2E2E2E2E2E2E2E2E2E2E2E2E2E2E2E2E2E2E2E2E2E2E2E2
310
E2E2E2E2E2E2E2E2E2E2E2E2E2E2E2E2E2E2E2E2E2E2E2E2E2E2E2E2E2E2E2E2E2E2E2E2E2E2E2E2E2E2E2E2E2E2E2E2E2E2E2E2E2E2E2E2E2E2E2E2E2E2E2E2E2E2E2E2E2E2E2E2E2E2E2E2E2E2E2E2E2E2E2E2E2E2E2E2E2E2E2E2E2E2E2E2E2E2E2E2E2E2E2E2E2E2E2E2E2E2E2E2E2E2BEE2E2E2E2E2E2E2E2DCE2E2E2
310
E2E2E2E2E2E2E2E2E2E2E2E2E2E22D2DF5F5F5F5F5F5F5F5F5F5F5F5F5E2E2E2E2E2E2E2E2E2E2E2E2E2E2E2E2E2E2E2E2E2E2E2E2E2E2E2E2E2E2E2E2E2E2E2E2E2E2E2E2E2E2E2E2E2E2E2E2DCE2E2BEE2E2E2E2E2E2E2E2E2E2E2E2E2E2E2E2E2E2E2E2E2E2E2E2E2E2E2E2E2E2E2E2E2E2E2E2E2E2E2E2E2E2E2E2E2E2
310
E2E2E2E2E2E2E2E2E2E2E2E2E2E2E2E2E2E2E2E2E2E2E2E2E2E2E2E2E2E2E2E2E2E2E2E2E2E2E2E2E2E2E2E2E2E2E2E2E2E2E2E2E2E2E2E2E2E2E2E2E2E2E2E2E2E2E2E2E2E2E2E2E2E2E2E2E2E2E2E2E2E2E2E2E2E2E2E2E2E2E2E2E2E2E2E2E2E2E2E2E2E2E2E2E2E2E2E2E2E2E2E2E2E2E2E2BEE2E2E2E2E2E2E2E2DCE2
310
E2E2E2E2E2E2E2E2E2E2E2E2E2E2E2E2E2E22DE2E2E2E2E2E2E2E2E2E2E22DE2E2E2E2E2E2E2E2E2E2E2E2E2E2E2E2E2E2E2E2E2E2E2E2E2E2E2E2E2E2E2E2E2E2E2E2E2E2E2E2E2E2E2E2E2E2E2E2DCE2E2BEE2E2E2E2E2E2E2E2E2E2E2E2E2E2E2E2E2E2E2E2E2E2E2E2E2E2E2E2E2E2E2E2E2E2E2E2E2E2E2E2E2E2E2E2
310
E2E2E2E2E2E2E2E2E2E2E2E2E2E2E2E2E2E2E2E2E2E2E2E2E2E2E2E2E2E2E2E2E2E2E2E2E2E2E2E2E2E2E2E2E2E2E2E2E2E2E2E2E2E2E2E2E2E2E2E2E2E2E2E2E2E2E2E2E2E2E2E2E2E2E2E2E2E2E2E2E2E2E2E2E2E2E2E2E2E2E2E2E2E2E2E2E2E2E2E2E2E2E2E2E2E2E2E2E2E2E2E2E2E2E2E2E2E2BEE2E2E2E2E2E2E2E2
310
DCE2E2E2E2E2E2E2E2E2E2E2E2E2E2E2E2E2E2E22D2D2D2D2DBEBEBE2D2D2D2DF5E2E2E2E2E2E2E2E2E2E2E2E2E2E2E2E2E2E2E2E2E2E2E2E2E2E2E2E2E2E2E2E2E2E2E2E2E2E2E2E2E2E2E2E2E2E2E2E2DCE2E2BEE2E2E2E2E2E2E2E2E2E2E2E2E2E2E2E2E2E2E2E2E2E2E2E2E2E2E2E2E2E2E2E2E2E2E2E2E2E2E2E2E2E2
310
E2E2E2E2E2E2E2E2E2E2E2E2E2E2E2E2E2E2E2E2E2E2E2E2E2E2E2E2E2E2E2E2E2E2E2E2E2E2E2E2E2E2E2E2E2E2E2E2E2E2E2E2E2E2E2E2E2E2E2E2E2E2E2E2E2E2E2E2E2E2E2E2E2E2E2E2E2E2E2E2E2E2E2E2E2E2E2E2E2E2E2E2E2E2E2E2E2E2E2E2E2E2E2E2E2E2E2E2E2E2E2E2E2E2E2E2E2E2E2E2BEE2E2E2E2E2E2
310
E2E2DCE2E2E2E2E2E2E2E2E2E2E2E2E2E2E2E2E2E2E2E2E2E2E2E2BEBEBEE2E2E2E2E2E2E2E2E2E2E2E2E2E2E2E2E2E2E2E2E2E2E2E2E2E2E2E2E2E2E2E2E2E2E2E2E2E2E2E2E2E2E2E2E2E2E2E2E2E2E2E2E2DCE2E2BEE2E2E2E2E2E2E2E2E2E2E2E2E2E2E2E2E2E2E2E2E2E2E2E2E2E2E2E2E2E2E2E2E2E2E2E2E2E2E2E2
310
E2E2E2E2E2E2E2E2E2E2E2E2E2E2E2E2E2E2E2E2E2E2E2E2E2E2E2E2E2E2E2E2E2E2E2E2E2E2E2E2E2E2E2E2E2E2E2E2E2E2E2E2E2E2E2E2E2E2E2E2E2E2E2E2E2E2E2E2E2E2E2E2E2E2E2E2E2E2E2E2E2E2E2E2E2E2E2E2E2E2E2E2E2E2E2E2E2E2E2E2E2E2E2E2E2E2E2E2E2E2E2E2E2E2E2E2E2E2E2E2E2E2BEE2E2E2E2
310
E2E2E2E2DCE2E2E2E2E2E2E2E2E2E2E2E2E2E2E2E2E2E2E2E2E2E2E2E2E2E2E2E2E2E2E2E2E2E2E2E2E2E2E2E2E2E2E2E2E2E2E2E2E2E2E2E2E2E2E2E2E2E2E2E2E2E2E2E2E2E2E2E2E2E2E2E2E2E2E2E2E2E2E2E2DCE2E2BEE2E2E2E2E2E2E2E2E2E2E2E2E2E2E2E2E2E2E2E2E2E2E2E2E2E2E2E2E2E2E2E2E2E2E2E2E2E2
310
E2E2E2E2E2E2E2E2E2E2E2E2E2E2E2E2E2E2E2E2E2E2E2E2E2E2E2E2E2E2E2E2E2E2E2E2E2E2E2E2E2E2E2E2E2E2E2E2E2E2E2E2E2E2E2E2E2E2E2E2E2E2E2E2E2E2E2E2E2E2E2E2E2E2E2E2E2E2E2E2E2E2E2E2E2E2E2E2E2E2E2E2E2E2E2E2E2E2E2E2E2E2E2E2E2E2E2E2E2E2E2E2E2E2E2E2E2E2E2E2E2E2E2E2BEE2E2
310
E2E2E2E2E2E2DCE2E2E2E2E2E2E2E2E2E2E2E2E2E2E2E2E2E2E2E2E2E2E2E2E2E2E2E2E2E2E2E2E2E2E2E2E2E2E2E2E2E2E2E2E2E2E2E2E2E2E2E2E2E2E2E2E2E2E2E2E2E2E2E2E2E2E2E2E2E2E2E2E2E2E2E2E2E2E2E2DCE2E2BEE2E2E2E2E2E2E2E2E2E2E2E2E2E2E2E2E2E2E2E2E2E2E2E2E2E2E2E2E2E2E2E2E2E2E2E2
310
E2E2E2E2E2E2E2E2E2E2E2E2E2E2E2E2E2E2E2E2E2E2E2E2E2E2E2E2E2E2E2E2E2E2E2E2E2E2E2E2E2E2E2E2E2E2E2E2E2E2E2E2E2E2E2E2E2E2E2E2E2E2E2E2E2E2E2E2E2E2E2E2E2E2E2E2E2E2E2E2E2E2E2E2E2E2E2E2E2E2E2E2E2E2E2E2E2E2E2E2E2E2E2E2E2E2E2E2E2E2E2E2E2E2E2E2E2E2E2E2E2E2E2E2E2E2BE
310
E2E2E2E2E2E2E2E2DCE2E2E2E2E2E2E2E2E2E2E2E2E2E2E2E2E2E2E2E2E2E2E2E2E2E2E2E2E2E2E2E2E2E2E2E2E2E2E2E2E2E2E22D2D2D2D2D2D2D2D2D2D2D2D2D2D2D2D2D2D2D2D2D2DF5E2E2E2E2E2E2E2E2E2E2E2E2E2E2DCE2E2BEE2E2E2E2E2E2E2E2E2E2E2E2E2E2E2E2E2E2E2E2E2E2E2E2E2E2E2E2E2E2E2E2E2E2
310
E2E2E2E2E2E2E2E2E2E2E2E2E2E2E2E2E2E2E2E2E2E2E2E2E2E2E2E2E2E2E2E2E2E2E2E2E2E2E2E2E2E2E2E2E2E2E2E2E2E2E2E2E2E2E2E2E2E2E2E2E2E2E2E2E2E2E2E2E2E2E2E2E2E2E2E2E2E2E2E2E2E2E2E2E2E2E2E2E2E2E2E2E2E2E2E2E2E2E2E2E2E2E2E2E2E2E2E2E2E2E2E2E2E2E2E2E2E2E2E2E2E2E2E2E2E2E2
310
E2BEE2E2E2E2E2E2E2E2DCE2E2E2E2E2E2E2E2E2E2E2E2E2E2E2E2E2E2E2E2E2E2E2E2E2E2E2E2E2E2E2E2E2E2E2E2E2E2E2E2E2E2E22DE2E2E2E2E2E2E2E2BEBEBEBEE2E2E2E2E2E2E2E22D2DE2E2E2E2E2E2E2E2E2E2E2E2E2E2DCE2E2BEE2E2E2E2E2E2E2E2E2E2E2E2E2E2E2E2E2E2E2E2E2E2E2E2E2E2E2E2E2E2E2E2
310
E2E2E2E2E2E2E2E2E2E2E2E2E2E2E2E2E2E2E2E2E2E2E2E2E2E2E2E2E2E2E2E2E2E2E2E2E2E2E2E2E2E2E2E2E2E2E2E2E2E2E2E2E2E2E2E2E2E2E2E2E2E2E2E2E2E2E2E2E2E2E2E2E2E2E2E2E2E2E2E2E2E2E2E2E2E2E2E2E2E2E2E2E2E2E2E2E2E2E2E2E2E2E2E2E2E2E2E2E2E2E2E2E2E2E2E2E2E2E2E2E2E2E2E2E2E2E2
310
E2E2E2BEE2E2E2E2E2E2E2E2DCE2E2E2E2E2E2E2E2E2E2E2E2E2E2E2E2E2E2E22D2D2D2D2D2D2D2D2D2D2D2DF5E2E2E2E2E2E2E2E2E2E2E22DE2E2E2E2E2E2E2E2BEBEBEBEE2E2E2E2E2E2E2E2E22DE2E2E2E2E2E2E2E2E2E2E2E2E2E2DCE2E2BEE2E2E2E2E2E2E2E2E2E2E2E2E2E2E2E2E2E2E2E2E2E2E2E2E2E2E2E2E2E2
310
E2E2E2E2E2E2E2E2E2E2E2E2E2E2E2E2E2E2E2E2E2E2E2E2E2E2E2E2E2E2E2E2E2E2E2E2E2E2E2E2E2E2E2E2E2E2E2E2E2E2E2E2E2E2E2E2E2E2E2E2E2E2E2E2E2E2E2E2E2E2E2E2E2E2E2E2E2E2E2E2E2E2E2E2E2E2E2E2E2E2E2E2E2E2E2E2E2E2E2E2E2E2E2E2E2E2E2E2E2E2E2E2E2E2E2E2E2E2E2E2E2E2E2E2E2E2E2
310
E2E2E2E2E2BEE2E2E2E2E2E2E2E2DCE2E2E2E2E2E2E2E2E2E2E2E2E2E2E2E2E2E2E22DE2E2E2E2BEBEBEE2E2E2E22DE2E2E2E2E2E2E2E2E2E2E22DE2E2E2E2E2E2E2E2E2E2E2E2E2E2E2E2E2E2E2E2E22DE2E2E2E2E2E2E2E2E2E2E2E2E2E2DCE2E2BEE2E2E2E2E2E2E2E2E2E2E2E2E2E2E2E2E2E2E2E2E2E2E2E2E2E2E2E2
310
E2E2E2E2E2E2E2E2E2E2E2E2E2E2E2E2E2E2E2E2E2E2E2E2E2E2E2E2E2E2E2E2E2E2E2E2E2E2E2E2E2E2E2E2E2E2E2E2E2E2E2E2E2E2E2E2E2E2E2E2E2E2E2E2E2E2E2E2E2E2E2E2E2E2E2E2E2E2E2E2E2E2E2E2E2E2E2E2E2E2E2E2E2E2E2E2E2E2E2E2E2E2E2E2E2E2E2E2E2E2E2E2E2E2E2E2E2E2E2E2E2E2E2E2E2E2E2
310
E2E2E2E2E2E2E2BEE2E2E2E2E2E2E2E2DCE2E2E2E2E2E2E2E2E2E2E2E2E2E2E2E2E2E2E22DE2E2E2E2F5F5F5E2E2E2E22DE2E22D2D2D2D2D2D2D2D2D2D2D2D2D2D2D2D2DF5F5E2E2E2E2E2E2E2E2E2E2E2E22DE2E2E2E2E2E2E2E2E2E2E2E2E2E2DCE2E2BEE2E2E2E2E2E2E2E2E2E2E2E2E2E2E2E2E2E2E2E2E2E2E2E2E2E2
310
E2E2E2E2E2E2E2E2E2E2E2E2E2E2E2E2E2E2E2E2E2E2E2E2E2E2E2E2E2E2E2E2E2E2E2E2E2E2E2E2E2E2E2E2E2E2E2E2E2E2E2E2E2E2E2E2E2E2E2E2E2E2E2E2E2E2E2E2E2E2E2E2E2E2E2E2E2E2E2E2E2E2E2E2E2E2E2E2E2E2E2E2E2E2E2E2E2E2E2E2E2E2E2E2E2E2E2E2E2E2E2E2E2E2E2E2E2E2E2E2E2E2E2E2E2E2E2
310
E2E2E2E2E2E2E2E2E2BEE2E2E2E2E2E2E2E2DCE2E2E2E2E2E2E2E2E2E2E2E2E2E2E2E2E2E2E22DE2E2F5F5E2E2E2F5F5E2E22DE2E22D2DE2E2E22D2DE2E22D2D2D2D2D2DF5E2F5F5E2E2E22D2DE2E2E2E2E2E2E22DE2E2E2E2E2E2E2E2E2E2E2E2E2E2DCE2E2BEE2E2E2E2E2E2E2E2E2E2E2E2E2E2E2E2E2E2E2E2E2E2E2E2
310
E2E2E2E2E2E2E2E2E2E2E2E2E2E2E2E2E2E2E2E2E2E2E2E2E2E2E2E2E2E2E2E2E2E2E2E2E2E2E2E2E2E2E2E2E2E2E2E2E2E2E2E2E2E2E2E2E2E2E2E2E2E2E2E2E2E2E2E2E2E2E2E2E2E2E2E2E2E2E2E2E2E2E2E2E2E2E2E2E2E2E2E2E2E2E2E2E2E2E2E2E2E2E2E2E2E2E2E2E2E2E2E2E2E2E2E2E2E2E2E2E2E2E2E2E2E2E2
310
E2E2E2E2E2E2E2E2E2E2E2BEE2E2E2E2E2E2E2E2DCE2E2E2E2E2E2E2E2E2E2E2E2E2E2E2E2E2E2E22DE2F5F5F5F5F5F5F5F5F5E22DE2E2E22DE2E2E22DE2E2E22DBEBEBEBE2D2DE2F5F5E2E2E22D2DE2E2E2E2E2E2E22DE2E2E2E2E2E2E2E2E2E2E2E2E2E2DCE2E2BEE2E2E2E2E2E2E2E2E2E2E2E2E2E2E2E2E2E2E2E2E2E2
310
E2E2E2E2E2E2E2E2E2E2E2E2E2E2E2E2E2E2E2E2E2E2E2E2E2E2E2E2E2E2E2E2E2E2E2E2E2E2E2E2E2E2E2E2E2E2E2E2E2E2E2E2E2E2E2E2E2E2E2E2E2E2E2E2E2E2E2E2E2E2E2E2E2E2E2E2E2E2E2E2E2E2E2E2E2E2E2E2E2E2E2E2E2E2E2E2E2E2E2E2E2E2E2E2E2E2E2E2E2E2E2E2E2E2E2E2E2E2E2E2E2E2E2E2E2E2E2
310
E2E2E2E2E2E2E2E2E2E2E2E2E2BEE2E2E2E2E2E2E2E2DCE2E2E2E2E2E2E2E2E2E2E2E2E2E2E2E2E2E2E22DE2F5F5F5E2E2E2F5F5F5E22DE2E2E22DE2E2BEBEE2E2E22DBEBEBEBEE22DE2F5F5E2E2E22D2DE2E2E2E2E2E2E22DE2E2E2E2E2E2E2E2E2E2E2E2E2E2DCE2E2BEE2E2E2E2E2E2E2E2E2E2E2E2E2E2E2E2E2E2E2E2
310
E2E2E2E2E2E2E2E2E2E2E2E2E2E2E2E2E2E2E2E2E2E2E2E2E2E2E2E2E2E2E2E2E2E2E2E2E2E2E2E2E2E2E2E2E2E2E2E2E2E2E2E2E2E2E2E2E2E2E2E2E2E2E2E2E2E2E2E2E2E2E2E2E2E2E2E2E2E2E2E2E2E2E2E2E2E2E2E2E2E2E2E2E2E2E2E2E2E2E2E2E2E2E2E2E2E2E2E2E2E2E2E2E2E2E2E2E2E2E2E2E2E2E2E2E2E2E2
310
E2E2E2E2E2E2E2E2E2E2E2E2E2E2E2BEE2E2E2E2E2E2E2E2DCE2E2E2E2E2E2E2E2E2E2E2E2E2E2E2E2E2E2E22DE2F5F5E2F5F5F5E2F5F5F52DE2E2E22DE2E2BEBEE2E2E22DBEF5F5E2E22DE2F5F5E2E2E22D2DE2E2E2E2E2E2E22DE2E2E2E2E2E2E2E2E2E2E2E2E2E2DCE2E2BEE2E2E2E2E2E2E2E2E2E2E2E2E2E2E2E2E2E2
310
E2E2E2E2E2E2E2E2E2E2E2E2E2E2E2E2E2E2E2E2E2E2E2E2E2E2E2E2E2E2E2E2E2E2E2E2E2E2E2E2E2E2E2E2E2E2E2E2E2E2E2E2E2E2E2E2E2E2E2E2E2E2E2E2E2E2E2E2E2E2E2E2E2E2E2E2E2E2E2E2E2E2E2E2E2E2E2E2E2E2E2E2E2E2E2E2E2E2E2E2E2E2E2E2E2E2E2E2E2E2E2E2E2E2E2E2E2E2E2E2E2E2E2E2E2E2E2
310
E2E2E2E2E2E2E2E2E2E2E2E2E2E2E2E2E2BEE2E2E2E2E2E2E2E2DCE2E2E2E2E2E2E2E2E2E2E2E2E2E2E2E2E2E2E22DE2F5F5E2F5F5F5F5F5E2F52DE2E2E22DE2E2BEBEE2E2E22DBEF5F5E2E22DE2E2F5F5E2E22D2DE2E2E2E2E2E2E22DE2E2E2E2E2E2E2E2E2E2E2E2E2E2DCE2E2BEE2E2E2E2E2E2E2E2E2E2E2E2E2E2E2E2
310
E2E2E2E2E2E2E2E2E2E2E2E2E2E2E2E2E2E2E2E2E2E2E2E2E2E2E2E2E2E2E2E2E2E2E2E2E2E2E2E2E2E2E2E2E2E2E2E2E2E2E2E2E2E2E2E2E2E2E2E2E2E2E2E2E2E2E2E2E2E2E2E2E2E2E2E2E2E2E2E2E2E2E2E2E2E2E2E2E2E2E2E2E2E2E2E2E2E2E2E2E2E2E2E2E2E2E2E2E2E2E2E2E2E2E2E2E2E2E2E2E2E2E2E2E2E2E2
310
E2E2E2E2E2E2E2E2E2E2E2E2E2E2E2E2E2E2E2BEE2E2E2E2E2E2E2E2DCE2E2E2E2E2E2E2E2E2E2E2E2E2E2E2E2E2E2E22DE2F5F5E2F5BEF5E2F5E2F52DE2E2E22DE2E2E22DE2E2E22DBEF5E2E2E22DE2E2F5F5E22DE22DE2E2E2E2E2E2E22DE2E2E2E2E2E2E2E2E2E2E2E2E2E2DCE2E2BEE2E2E2E2E2E2E2E2E2E2E2E2E2E2
310
E2E2E2E2E2E2E2E2E2E2E2E2E2E2E2E2E2E2E2E2E2E2E2E2E2E2E2E2E2E2E2E2E2E2E2E2E2E2E2E2E2E2E2E2E2E2E2E2E2E2E2E2E2E2E2E2E2E2E2E2E2E2E2E2E2E2E2E2E2E2E2E2E2E2E2E2E2E2E2E2E2E2E2E2E2E2E2E2E2E2E2E2E2E2E2E2E2E2E2E2E2E2E2E2E2E2E2E2E2E2E2E2E2E2E2E2E2E2E2E2E2E2E2E2E2E2E2
310
E2E2E2E2E2E2E2E2E2E2E2E2E2E2E2E2E2E2E2E2E2BEE2E2E2E2E2E2E2E2DCE2E2E2E2E2E2E2E2E2E2E2E2E2E2E2E22D2D2DF5F5F5F5F5F5F5F5F5F5F5F5F5E2E2E22DE22D2D2D2D2D2DF5BEF5F5F5F5F5E2E2F5F5E22D2DE2E2E2E2E2E2E2E22DE2E2E2E2E2E2E2E2E2E2E2E2E2E2DCE2E2BEE2E2E2E2E2E2E2E2E2E2E2E2
310
E2E2E2E2E2E2E2E2E2E2E2E2E2E2E2E2E2E2E2E2E2E2E2E2E2E2E2E2E2E2E2E2E2E2E2E2E2E2E2E2E2E2E2E2E2E2E2E2E2E2E2E2E2E2E2E2E2E2E2E2E2E2E2E2E2E2E2E2E2E2E2E2E2E2E2E2E2E2E2E2E2E2E2E2E2E2E2E2E2E2E2E2E2E2E2E2E2E2E2E2E2E2E2E2E2E2E2E2E2E2E2E2E2E2E2E2E2E2E2E2E2E2E2E2E2E2E2
310
E2E2E2E2E2E2E2E2E2E2E2E2E2E2E2E2E2E2E2E2E2E2E2BEE2E2E2E2E2E2E2E2DCE2E2E2E2E2E2E2E2E2E2E2E2E2E2E2E22D2DE2F5F5F5E2E2F5BEF5E2E2F5F5F5E2E2E22DE22D2D2D2DE2E2F5BEE2E2F5F5F5F5F5F52DE22D2DE2E2E2E2E2E2E2E2F5E2E2E2E2E2E2E2E2E2E2E2E2E2E2DCE2E2BEE2E2E2E2E2E2E2E2E2E2
310
E2E2E2E2E2E2E2E2E2E2E2E2E2E2E2E2E2E2E2E2E2E2E2E2E2E2E2E2E2E2E2E2E2E2E2E2E2E2E2E2E2E2E2E2E2E2E2E2E2E2E2E2E2E2E2E2E2E2E2E2E2E2E2E2E2E2E2E2E2E2E2E2E2E2E2E2E2E2E2E2E2E2E2E2E2E2E2E2E2E2E2E2E2E2E2E2E2E2E2E2E2E2E2E2E2E2E2E2E2E2E2E2E2E2E2E2E2E2E2E2E2E2E2E2E2E2E2
310
E2E2E2E2E2E2E2E2E2E2E2E2E2E2E2E2E2E2E2E2E2E2E2E2E2BEE2E2E2E2E2E2E2E2DCE2E2E2E2E2E2E2E2E2E2E2E2E2E2E2E2E22DE2F5F5F5F5F5F5F5F5F5F5F5F5F5E2E2E22DE22DE22DE2E2E2F5E2E2E2F5F5F5E2F5F5F52D2D2DF5F5F5F5F5F5F5F5F5E2E2E2E2E2E2E2E2E2E2E2E2E2E2DCE2E2BEE2E2E2E2E2E2E2E2
310
E2E2E2E2E2E2E2E2E2E2E2E2E2E2E2E2E2E2E2E2E2E2E2E2E2E2E2E2E2E2E2E2E2E2E2E2E2E2E2E2E2E2E2E2E2E2E2E2E2E2E2E2E2E2E2E2E2E2E2E2E2E2E2E2E2E2E2E2E2E2E2E2E2E2E2E2E2E2E2E2E2E2E2E2E2E2E2E2E2E2E2E2E2E2E2E2E2E2E2E2E2E2E2E2E2E2E2E2E2E2E2E2E2E2E2E2E2E2E2E2E2E2E2E2E2E2E2
310
E2E2E2E2E2E2E2E2E2E2E2E2E2E2E2E2E2E2E2E2E2E2E2E2E2E2E2BEE2E2E2E2E2E2E2E2DCE2E2E2E2E2E2E2E2E2E2E2E2E2E2E2E2E22DE2F5F5F5F5F5F5F5F5F5F5F5F5F5E2E2E22DE22DE22DE2E2E2F5F5F5F5F5F5F5F5E2E22D2D2D2DF5F5E2E2E2E2E2E2F5E2E2E2E2E2E2E2E2E2E2E2E2E2E2DCE2E2BEE2E2E2E2E2E2
310
E2E2E2E2E2E2E2E2E2E2E2E2E2E2E2E2E2E2E2E2E2E2E2E2E2E2E2E2E2E2E2E2E2E2E2E2E2E2E2E2E2E2E2E2E2E2E2E2E2E2E2E2E2E2E2E2E2E2E2E2E2E2E2E2E2E2E2E2E2E2E2E2E2E2E2E2E2E2E2E2E2E2E2E2E2E2E2E2E2E2E2E2E2E2E2E2E2E2E2E2E2E2E2E2E2E2E2E2E2E2E2E2E2E2E2E2E2E2E2E2E2E2E2E2E2E2E2
310
E2E2E2E2E2E2E2E2E2E2E2E2E2E2E2E2E2E2E2E2E2E2E2E2E2E2E2E2E2BEE2E2E2E2E2E2E2E2DCE2E2E2E2E2E2E2E2E2E2E2E2E2E2E2E2E22DE2F5F5E2E2F5282828F5F5E2F5F5E2E2E22DE22DE22DE2E2E2F5F5F5F5F5F5F5E2E2E2F5F5F5F5F5F5E2E2E2E2E2E2F5E2E2E2E2E2E2E2E2E2E2E2E2E2E2DCE2E2BEE2E2E2E2
310
E2E2E2E2E2E2E2E2E2E2E2E2E2E2E2E2E2E2E2E2E2E2E2E2E2E2E2E2E2E2E2E2E2E2E2E2E2E2E2E2E2E2E2E2E2E2E2E2E2E2E2E2E2E2E2E2E2E2E2E2E2E2E2E2E2E2E2E2E2E2E2E2E2E2E2E2E2E2E2E2E2E2E2E2E2E2E2E2E2E2E2E2E2E2E2E2E2E2E2E2E2E2E2E2E2E2E2E2E2E2E2E2E2E2E2E2E2E2E2E2E2E2E2E2E2E2E2
310
E2E2E2E2E2E2E2E2E2E2E2E2E2E2E2E2E2E2E2E2E2E2E2E2E2E2E2E2E2E2E2BEE2E2E2E2E2E2E2E2DCE2E2E2E2E2E2E2E2E2E2E2E2E2E2E2E2E22DE2F5F5E2F528F5E2F528F5E2F5F5E2E2E22DE22DE22DE2E2E2F5E2F5E2F5F5F5E2E2E2F5E2F5E2E2F5E2E2E2E2E2E2F5E2E2E2E2E2E2E2E2E2E2E2E2E2E2DCE2E2BEE2E2
310
E2E2E2E2E2E2E2E2E2E2E2E2E2E2E2E2E2E2E2E2E2E2E2E2E2E2E2E2E2E2E2E2E2E2E2E2E2E2E2E2E2E2E2E2E2E2E2E2E2E2E2E2E2E2E2E2E2E2E2E2E2E2E2E2E2E2E2E2E2E2E2E2E2E2E2E2E2E2E2E2E2E2E2E2E2E2E2E2E2E2E2E2E2E2E2E2E2E2E2E2E2E2E2E2E2E2E2E2E2E2E2E2E2E2E2E2E2E2E2E2E2E2E2E2E2E2E2
310
E2E2E2E2E2E2E2E2E2E2E2E2E2E2E2E2E2E2E2E2E2E2E2E2E2E2E2E2E2E2E2E2E2BEE2E2E2E2E2E2E2E2DCE2E2E2E2E2E2E2E2E2E2E2E2E2E2E2BEBE2DE2F5F5F528F5F5E2F5F528F5F5F5E2E2E22DE22DE22DE2E2E2F5E2F5E2F5F5F5E2E2E2F5E2F5E2E2F5F5F5F5F5F5F5F5E2E2E2E2E2E2E2E2E2E2E2E2E2E2DCE2E2BE
310
E2E2E2E2E2E2E2E2E2E2E2E2E2E2E2E2E2E2E2E2E2E2E2E2E2E2E2E2E2E2E2E2E2E2E2E2E2E2E2E2E2E2E2E2E2E2E2E2E2E2E2E2E2E2E2E2E2E2E2E2E2E2E2E2E2E2E2E2E2E2E2E2E2E2E2E2E2E2E2E2E2E2E2E2E2E2E2E2E2E2E2E2E2E2E2E2E2E2E2E2E2E2E2E2E2E2E2E2E2E2E2E2E2E2E2E2E2E2E2E2E2E2E2E2E2E2E2
310
E2E2E2E2E2E2E2E2E2E2E2E2E2E2E2E2E2E2E2E2E2E2E2E2E2E2E2E2E2E2E2E2E2E2E2BEE2E2E2E2E2E2E2E2DCE2E2E2E2E2E2E2E2E2E2E2E2E2E2E2BEBE2DE2F5F5F5F5E2E2E2E2E2F5F5F5F5E2E2E22DE22DE22DE2E2E2F5E2F5E2F5F5F5E2E2E2F5E2F5E2E2F5E2E2E2E2E2E2F5E2E2E2E2E2E2E2E2E2E2E2E2E2E2DCE2
310
E2BEE2E2E2E2E2E2E2E2E2E2E2E2E2E2E2E2E2E2E2E2E2E2E2E2E2E2E2E2E2E2E2E2E2E2E2E2E2E2E2E2E2E2E2E2E2E2E2E2E2E2E2E2E2E2E2E2E2E2E2E2E2E2E2E2E2E2E2E2E2E2E2E2E2E2E2E2E2E2E2E2E2E2E2E2E2E2E2E2E2E2E2E2E2E2E2E2E2E2E2E2E2E2E2E2E2E2E2E2E2E2E2E2E2E2E2E2E2E2E2E2E2E2E2E2E2
310
E2E2E2E2E2E2E2E2E2E2E2E2E2E2E2E2E2E2E2E2E2E2E2E2E2E2E2E2E2E2E2E2E2E2E2E2E2BEE2E2E2E2E2E2E2E2DCE2E2E2E2E2E2E2E2E2E2E2E2E2E2E2E2E22DE2F5F5F5F5F5F5E2F5F5F5E2F5F5E2E2E22DE22DE22DE2E2E2F5E2F5E2F5F5F5E2E2E2F5E2F5E2E2F5F5F5F5F5F5F5F5E2E2E2E2E2E2E2E2E2E2E2E2E2E2
310
DCE2E2BEE2E2E2E2E2E2E2E2E2E2E2E2E2E2E2E2E2E2E2E2E2E2E2E2E2E2E2E2E2E2E2E2E2E2E2E2E2E2E2E2E2E2E2E2E2E2E2E2E2E2E2E2E2E2E2E2E2E2E2E2E2E2E2E2E2E2E2E2E2E2E2E2E2E2E2E2E2E2E2E2E2E2E2E2E2E2E2E2E2E2E2E2E2E2E2E2E2E2E2E2E2E2E2E2E2E2E2E2E2E2E2E2E2E2E2E2E2E2E2E2E2E2E2
310
E2E2E2E2E2E2E2E2E2E2E2E2E2E2E2E2E2E2E2E2E2E2E2E2E2E2E2E2E2E2E2E2E2E2E2E2E2E2E2BEE2E2E2E2E2E2E2E2DCE2E2E2E2E2E2E2E2E2E2E2E2E2E2E2E2E22DE2F5F5E2E2E2F5E2F5E2E2E2F5F5E2E2E22DE22DE22DE2E2E2F5E2F5E2F5F5F5E2E2E2F5E2F5E2E2F5E2E2E2E2E2E2F5E2E2E2E2E2E2E2E2E2E2E2E2
310
E2E2DCE2E2BEE2E2E2E2E2E2E2E2E2E2E2E2E2E2E2E2E2E2E2E2E2E2E2E2E2E2E2E2E2E2E2E2E2E2E2E2E2E2E2E2E2E2E2E2E2E2E2E2E2E2E2E2E2E2E2E2E2E2E2E2E2E2E2E2E2E2E2E2E2E2E2E2E2E2E2E2E2E2E2E2E2E2E2E2E2E2E2E2E2E2E2E2E2E2E2E2E2E2E2E2E2E2E2E2E2E2E2E2E2E2E2E2E2E2E2E2E2E2E2E2E2
310
E2E2E2E2E2E2E2E2E2E2E2E2E2E2E2E2E2E2E2E2E2E2E2E2E2E2E2E2E2E2E2E2E2E2E2E2E2E2E2E2E2BEE2E2E2E2E2E2E2E2DCE2E2E2E2E2E2E2E2E2E2E2E2E2E2E2E2E22DE2F5F5F5E2E2F5E2F5E2E2E2F5F5E2E2E22DE22DE22DE2E2E2F5E2F5E2F5F5F5E2E2E2F5E2F5E2E2F5E2E2E2E2E2E2F5E2E2E2E2E2E2E2E2E2E2
310
E2E2E2E2DCE2E2BEE2E2E2E2E2E2E2E2E2E2E2E2E2E2E2E2E2E2E2E2E2E2E2E2E2E2E2E2E2E2E2E2E2E2E2E2E2E2E2E2E2E2E2E2E2E2E2E2E2E2E2E2E2E2E2E2E2E2E2E2E2E2E2E2E2E2E2E2E2E2E2E2E2E2E2E2E2E2E2E2E2E2E2E2E2E2E2E2E2E2E2E2E2E2E2E2E2E2E2E2E2E2E2E2E2E2E2E2E2E2E2E2E2E2E2E2E2E2E2
310
E2E2E2E2E2E2E2E2E2E2E2E2E2E2E2E2E2E2E2E2E2E2E2E2E2E2E2E2E2E2E2E2E2E2E2E2E2E2E2E2E2E2E2BEE2E2E2E2E2E2E2E2DCE2E2E2E2E2E2E2E2E2E2E2E2E2E2E2E2E22DE228F528F5F5F5E22DF5F528F528E2E2E22DE22DE22DE2E2E2F5E2F5E2F5F5F5E2E2E2F5E2F5E2E2F5F5F5F5F5F5F5F5E2E2E2E2E2E2E2E2
310
E2E2E2E2E2E2DCE2E2BEE2E2E2E2E2E2E2E2E2E2E2E2E2E2E2E2E2E2E2E2E2E2E2E2E2E2E2E2E2E2E2E2E2E2E2E2E2E2E2E2E2E2E2E2E2E2E2E2E2E2E2E2E2E2E2E2E2E2E2E2E2E2E2E2E2E2E2E2E2E2E2E2E2E2E2E2E2E2E2E2E2E2E2E2E2E2E2E2E2E2E2E2E2E2E2E2E2E2E2E2E2E2E2E2E2E2E2E2E2E2E2E2E2E2E2E2E2
310
E2E2E2E2E2E2E2E2E2E2E2E2E2E2E2E2E2E2E2E2E2E2E2E2E2E2E2E2E2E2E2E2E2E2E2E2E2E2E2E2E2E2E2E2E2BEE2E2E2E2E2E2E2E2DCE2E2E2E2E2E2E2E2E2E2E2E2E2E2E2E22D2DE2F5F528BEBEE2E22DBEE2BEF5F5E2BEBE2DE22DE22DE2E2E2F5E2F5E2F5F5F5E2E2E2F5E2F5E2F5E2E2E2E2E2E2E2F5E2E2E2E2E2E2
310
E2E2E2E2E2E2E2E2DCE2E2BEE2E2E2E2E2E2E2E2E2E2E2E2E2E2E2E2E2E2E2E2E2E2E2E2E2E2E2E2E2E2E2E2E2E2E2E2E2E2E2E2E2E2E2E2E2E2E2E2E2E2E2E2E2E2E2E2E2E2E2E2E2E2E2E2E2E2E2E2E2E2E2E2E2E2E2E2E2E2E2E2E2E2E2E2E2E2E2E2E2E2E2E2E2E2E2E2E2E2E2E2E2E2E2E2E2E2E2E2E2E2E2E2E2E2E2
310
E2E2E2E2E2E2E2E2E2E2E2E2E2E2E2E2E2E2E2E2E2E2E2E2E2E2E2E2E2E2E2E2E2E2E2E2E2E2E2E2E2E2E2E2E2E2E2BEE2E2E2E2E2E2E2E2DCE2E2E2E2E2E2E2E2E2E2E2E2E2E2E2E22DF52DF5F52DF528E2BEF5F5BEBEF5F5E2BEBE2DE22DE22DE2E2E2F5E2F5E2F5F5F5E2E2E2F5E2F5F5E2E2E2E2E2E2E2E2F5E2E2E2E2
310
E2E2E2E2E2E2E2E2E2E2DCE2E2BEE2E2E2E2E2E2E2E2E2E2E2E2E2E2E2E2E2E2E2E2E2E2E2E2E2E2E2E2E2E2E2E2E2E2E2E2E2E2E2E2E2E2E2E2E2E2E2E2E2E2E2E2E2E2E2E2E2E2E2E2E2E2E2E2E2E2E2E2E2E2E2E2E2E2E2E2E2E2E2E2E2E2E2E2E2E2E2E2E2E2E2E2E2E2E2E2E2E2E2E2E2E2E2E2E2E2E2E2E2E2E2E2E2
310
E2E2E2E2E2E2E2E2E2E2E2E2E2E2E2E2E2E2E2E2E2E2E2E2E2E2E2E2E2E2E2E2E2E2E2E2E2E2E2E2E2E2E2E2E2E2E2E2E2BEE2E2E2E2E2E2E2E2DCE2E2E2E2E2E2E2E2E2E2E2E2E2E2E2E2E2E2E2F5F5F5BEBE282D2DF5F5BEF5F5E2BEBE2DE22DE22DE2E2E2F5E2F5E2F5F5F5E2E2E2F5F5F5E2E2E2E2E2E2E2E2E2F5E2E2
310
E2E2E2E2E2E2E2E2E2E2E2E2DCE2E2BEE2E2E2E2E2E2E2E2E2E2E2E2E2E2E2E2E2E2E2E2E2E2E2E2E2E2E2E2E2E2E2E2E2E2E2E2E2E2E2E2E2E2E2E2E2E2E2E2E2E2E2E2E2E2E2E2E2E2E2E2E2E2E2E2E2E2E2E2E2E2E2E2E2E2E2E2E2E2E2E2E2E2E2E2E2E2E2E2E2E2E2E2E2E2E2E2E2E2E2E2E2E2E2E2E2E2E2E2E2E2E2
310
E2E2E2E2E2E2E2E2E2E2E2E2E2E2E2E2E2E2E2E2E2E2E2E2E2E2E2E2E2E2E2E2E2E2E2E2E2E2E2E2E2E2E2E2E2E2E2E2E2E2E2BEE2E2E2E2E2E2E2E2DCE2E2E2E2E2E2E2E2E2E2E2E2E2E2E2E2E2E2E2F5F5F5F5E2E2E22DE22DE2F5F5E2BEBE2DE22DBEBEE2E2E2F5E2F5E2F5F5F5E2E2E2F5E2E2E2E2E2E2E2E2E2E2E2F5
310
E2E2E2E2E2E2E2E2E2E2E2E2E2E2DCE2E2BEE2E2E2E2E2E2E2E2E2E2E2E2E2E2E2E2E2E2E2E2E2E2E2E2E2E2E2E2E2E2E2E2E2E2E2E2E2E2E2E2E2E2E2E2E2E2E2E2E2E2E2E2E2E2E2E2E2E2E2E2E2E2E2E2E2E2E2E2E2E2E2E2E2E2E2E2E2E2E2E2E2E2E2E2E2E2E2E2E2E2E2E2E2E2E2E2E2E2E2E2E2E2E2E2E2E2E2E2E2
310
E2E2E2E2E2E2E2E2E2E2E2E2E2E2E2E2E2E2E2E2E2E2E2E2E2E2E2E2E2E2E2E2E2E2E2E2E2E2E2E2E2E2E2E2E2E2E2E2E2E2E2E2E2BEE2E2E2E2E2E2E2E2DCE2E2E2E2E2E2E2E2E2E2E2E2E2E2E2E2E2E2E2F5E2F52D2D2D2D2D2DF5E2F5F5E2E2E22DE22DBEBEE2E2E2F5E2F5E2F5F5F5F5F5F5F5E2E2E2E2E2E2E2F5F5F5
310
F5F5E2E2E2E2E2E2E2E2E2E2E2E2E2E2DCE2E2BEE2E2E2E2E2E2E2E2E2E2E2E2E2E2E2E2E2E2E2E2E2E2E2E2E2E2E2E2E2E2E2E2E2E2E2E2E2E2E2E2E2E2E2E2E2E2E2E2E2E2E2E2E2E2E2E2E2E2E2E2E2E2E2E2E2E2E2E2E2E2E2E2E2E2E2E2E2E2E2E2E2E2E2E2E2E2E2E2E2E2E2E2E2E2E2E2E2E2E2E2E2E2E2E2E2E2E2
310
E2E2E2E2E2E2E2E2E2E2E2E2E2E2E2E2E2E2E2E2E2E2E2E2E2E2E2E2E2E2E2E2E2E2E2E2E2E2E2E2E2E2E2E2E2E2E2E2E2E2E2E2E2E2E2BEE2E2E2E2E2E2E2E2DCE2E2E2E2E2E2E2E2E2E2E2E2E2E2E2E2E2E2E2F5E2F52D2DBEBEBE2D2DE2F5F5E2E2E22DE22DBEBEE2E2E2F5E2F5E2F5F5F5F5E2E2F5E2E2E2E2E2E2E2F5
310
E2E2F5F5E2E2E2E2E2E2E2E2E2E2E2E2E2E2DCE2E2BEE2E2E2E2E2E2E2E2E2E2E2E2E2E2E2E2E2E2E2E2E2E2E2E2E2E2E2E2E2E2E2E2E2E2E2E2E2E2E2E2E2E2E2E2E2E2E2E2E2E2E2E2E2E2E2E2E2E2E2E2E2E2E2E2E2E2E2E2E2E2E2E2E2E2E2E2E2E2E2E2E2E2E2E2E2E2E2E2E2E2E2E2E2E2E2E2E2E2E2E2E2E2E2E2E2
310
E2E2E2E2E2E2E2E2E2E2E2E2E2E2E2E2E2E2E2E2E2E2E2E2E2E2E2E2E2E2E2E2E2E2E2E2E2E2E2E2E2E2E2E2E2E2E2E2E2E2E2E2E2E2E2E2E2BEE2E2E2E2E2E2E2E2DCE2E2E2E2E2E2E2E2E2E2E2E2E2E2E2E2E2E2E2F5F5F5E2E2F5BEBEF5E2E2F5F5E2E2E22DE22DBEBEE2E2E2F5E2F5E2F5F5F5F5E2E2F5E2E2E2E2E2E2
310
E2F5E2E2F5F5E2E2E2E2E2E2E2E2E2E2E2E2E2E2DCE2E2BEE2E2E2E2E2E2E2E2E2E2E2E2E2E2E2E2E2E2E2E2E2E2E2E2E2E2E2E2E2E2E2E2E2E2E2E2E2E2E2E2E2E2E2E2E2E2E2E2E2E2E2E2E2E2E2E2E2E2E2E2E2E2E2E2E2E2E2E2E2E2E2E2E2E2E2E2E2E2E2E2E2E2E2E2E2E2E2E2E2E2E2E2E2E2E2E2E2E2E2E2E2E2E2
310
E2E2E2E2E2E2E2E2E2E2E2E2E2E2E2E2E2E2E2E2E2E2E2E2E2E2E2E2E2E2E2E2E2E2E2E2E2E2E2E2E2E2E2E2E2E2E2E2E2E2E2E2E2E2E2E2E2E2E2BEE2E2E2E2E2E2E2E2DCE2E2E2E2E2E2E2E2E2E2E2E2E2E2E2E2E2E2E2F5F5F5F5F5F5F5F5F5F5F5F5F5E2E2E22DE22DBEBEE2E2E2F5E2F5E2F5F5E2E2E2E2F5F5F5F5F5
310
F5F5F5F5F5F5F5F5E2E2E2E2E2E2E2E2E2E2E2E2E2E2DCE2E2BEE2E2E2E2E2E2E2E2E2E2E2E2E2E2E2E2E2E2E2E2E2E2E2E2E2E2E2E2E2E2E2E2E2E2E2E2E2E2E2E2E2E2E2E2E2E2E2E2E2E2E2E2E2E2E2E2E2E2E2E2E2E2E2E2E2E2E2E2E2E2E2E2E2E2E2E2E2E2E2E2E2E2E2E2E2E2E2E2E2E2E2E2E2E2E2E2E2E2E2E2E2
310
E2E2E2E2E2E2E2E2E2E2E2E2E2E2E2E2E2E2E2E2E2E2E2E2E2E2E2E2E2E2E2E2E2E2E2E2E2E2E2E2E2E2E2E2E2E2E2E2E2E2E2E2E2E2E2E2E2E2E2E2E2BEE2E2E2E2E2E2E2E2DCE2E2E2E2E2E2E2E2E2E2E2E2E2E2E2E2E2E2E2F5E2E2F5F5F5E2E2F5F5E2E2F5E2E2E22DE22DE22DE2E2E2F5E2F5E2E2F5E2E2E2E2E2F5F5
310
E2E2E2E2F5F5E2E2E2F5E2E2E2E2E2E2E2E2E2E2E2E2E2E2DCE2E2BEE2E2E2E2E2E2E2E2E2E2E2E2E2E2E2E2E2E2E2E2E2E2E2E2E2E2E2E2E2E2E2E2E2E2E2E2E2E2E2E2E2E2E2E2E2E2E2E2E2E2E2E2E2E2E2E2E2E2E2E2E2E2E2E2E2E2E2E2E2E2E2E2E2E2E2E2E2E2E2E2E2E2E2E2E2E2E2E2E2E2E2E2E2E2E2E2E2E2E2
310
E2E2E2E2E2E2E2E2E2E2E2E2E2E2E2E2E2E2E2E2E2E2E2E2E2E2E2E2E2E2E2E2E2E2E2E2E2E2E2E2E2E2E2E2E2E2E2E2E2E2E2E2E2E2E2E2E2E2E2E2E2E2E2BEE2E2E2E2E2E2E2E2DCE2E2E2E2E2E2E2E2E2E2E2E2E2E2E2E2E2E2E2F5E2E2F5E2F5F5F5E2F5E2E2F5E2E2E22DBEBEE22DE2E2E2F5E2F5F5F5E2E2E2E2E2E2
310
E2E2E2E2E2E2F5F5E2E2E2F5E2E2E2E2E2E2E2E2E2E2E2E2E2E2DCE2E2BEE2E2E2E2E2E2E2E2E2E2E2E2E2E2E2E2E2E2E2E2E2E2E2E2E2E2E2E2E2E2E2E2E2E2E2E2E2E2E2E2E2E2E2E2E2E2E2E2E2E2E2E2E2E2E2E2E2E2E2E2E2E2E2E2E2E2E2E2E2E2E2E2E2E2E2E2E2E2E2E2E2E2E2E2E2E2E2E2E2E2E2E2E2E2E2E2E2
310
E2E2E2E2E2E2E2E2E2E2E2E2E2E2E2E2E2E2E2E2E2E2E2E2E2E2E2E2E2E2E2E2E2E2E2E2E2E2E2E2E2E2E2E2E2E2E2E2E2E2E2E2E2E2E2E2E2E2E2E2E2E2E2E2E2BEE2E2E2E2E2E2E2E2DCE2E2E2E2E2E2E2E2E2E2E2E2E2E2E2E2E2E2E2F5E2E2F5E2E2E2E2E2F5E2E2F5E2E2E22DBEBEE22DE2E2E2F5E2F5E2E2E2E2E2E2
310
E2E2E2E2E2E2E2F5E2E2E2E2E2F5E2E2E2E2E2E2E2E2E2E2E2E2E2E2DCE2E2BEE2E2E2E2E2E2E2E2E2E2E2E2E2E2E2E2E2E2E2E2E2E2E2E2E2E2E2E2E2E2E2E2E2E2E2E2E2E2E2E2E2E2E2E2E2E2E2E2E2E2E2E2E2E2E2E2E2E2E2E2E2E2E2E2E2E2E2E2E2E2E2E2E2E2E2E2E2E2E2E2E2E2E2E2E2E2E2E2E2E2E2E2E2E2E2
310
E2E2E2E2E2E2E2E2E2E2E2E2E2E2E2E2E2E2E2E2E2E2E2E2E2E2E2E2E2E2E2E2E2E2E2E2E2E2E2E2E2E2E2E2E2E2E2E2E2E2E2E2E2E2E2E2E2E2E2E2E2E2E2E2E2E2E2BEE2E2E2E2E2E2E2E2DCE2E2E2E2E2E2E2E2E2E2E2E2E2E2E2E2E2E2E2F5E2E2F5E2E2E2E2E2F5E2E2F5E2E2E22DBEBEE22DE2E2E2F5F5F5E2E2E2E2
310
E2E2E2E2E2E2E2E2E2F5E2E2E2E2E2F5E2E2E2E2E2E2E2E2E2E2E2E2E2E2DCE2E2BEE2E2E2E2E2E2E2E2E2E2E2E2E2E2E2E2E2E2E2E2E2E2E2E2E2E2E2E2E2E2E2E2E2E2E2E2E2E2E2E2E2E2E2E2E2E2E2E2E2E2E2E2E2E2E2E2E2E2E2E2E2E2E2E2E2E2E2E2E2E2E2E2E2E2E2E2E2E2E2E2E2E2E2E2E2E2E2E2E2E2E2E2E2
310
E2E2E2E2E2E2E2E2E2E2E2E2E2E2E2E2E2E2E2E2E2E2E2E2E2E2E2E2E2E2E2E2E2E2E2E2E2E2E2E2E2E2E2E2E2E2E2E2E2E2E2E2E2E2E2E2E2E2E2E2E2E2E2E2E2E2E2E2E2BEE2E2E2E2E2E2E2E2DCE2E2E2E2E2E2E2E2E2E2E2E2E2E2E2E2E2E2E2F5E2F5E2E2E2E2E2E2E2F5E2F5E2E2E22DBEBEE22DE2E2E2F5E2F5E2E2
310
E2E2E2E2E2E2E2E2E2E2E2F5E2E2E2E2E2F5E2E2E2E2E2E2E2E2E2E2E2E2E2E2DCE2E2BEE2E2E2E2E2E2E2E2E2E2E2E2E2E2E2E2E2E2E2E2E2E2E2E2E2E2E2E2E2E2E2E2E2E2E2E2E2E2E2E2E2E2E2E2E2E2E2E2E2E2E2E2E2E2E2E2E2E2E2E2E2E2E2E2E2E2E2E2E2E2E2E2E2E2E2E2E2E2E2E2E2E2E2E2E2E2E2E2E2E2E2
310
E2E2E2E2E2E2E2E2E2E2E2E2E2E2E2E2E2E2E2E2E2E2E2E2E2E2E2E2E2E2E2E2E2E2E2E2E2E2E2E2E2E2E2E2E2E2E2E2E2E2E2E2E2E2E2E2E2E2E2E2E2E2E2E2E2E2E2E2E2E2E2BEE2E2E2E2E2E2E2E2DCE2E2E2E2E2E2E2E2E2E2E2E2E2E2E2E2E2E2E2F5F5F5E2E2E2E2E2E2E2F5F5F5E2E2E22DE22DE22DE2E2E2F5F5F5
310
F5F5E2E2E2E2E2E2E2E2E2E2F5E2E2E2E2E2E2F5E2E2E2E2E2E2E2E2E2E2E2E2E2E2DCE2E2BEE2E2E2E2E2E2E2E2E2E2E2E2E2E2E2E2E2E2E2E2E2E2E2E2E2E2E2E2E2E2E2E2E2E2E2E2E2E2E2E2E2E2E2E2E2E2E2E2E2E2E2E2E2E2E2E2E2E2E2E2E2E2E2E2E2E2E2E2E2E2E2E2E2E2E2E2E2E2E2E2E2E2E2E2E2E2E2E2E2
310
E2E2E2E2E2E2E2E2E2E2E2E2E2E2E2E2E2E2E2E2E2E2E2E2E2E2E2E2E2E2E2E2E2E2E2E2E2E2E2E2E2E2E2E2E2E2E2E2E2E2E2E2E2E2E2E2E2E2E2E2E2E2E2E2E2E2E2E2E2E2E2E2E2BEE2E2E2E2E2E2E2E2DCE2E2E2E2E2E2E2E2E2E2E2E2E2E2E2E2E2E2E2F5E2F5E2E2E2E2E2E2E2F5E2F5E2E2E22DE22DE22DE2E2E2F5
310
E2F5E2F5E2E2E2E2E2E2E2E2E2F5F5E2E2E2E2E2E2F5E2E2E2E2E2E2E2E2E2E2E2E2E2E2DCE2E2BEE2E2E2E2E2E2E2E2E2E2E2E2E2E2E2E2E2E2E2E2E2E2E2E2E2E2E2E2E2E2E2E2E2E2E2E2E2E2E2E2E2E2E2E2E2E2E2E2E2E2E2E2E2E2E2E2E2E2E2E2E2E2E2E2E2E2E2E2E2E2E2E2E2E2E2E2E2E2E2E2E2E2E2E2E2E2E2
310
E2E2E2E2E2E2E2E2E2E2E2E2E2E2E2E2E2E2E2E2E2E2E2E2E2E2E2E2E2E2E2E2E2E2E2E2E2E2E2E2E2E2E2E2E2E2E2E2E2E2E2E2E2E2E2E2E2E2E2E2E2E2E2E2E2E2E2E2E2E2E2E2E2E2E2BEE2E2E2E2E2E2E2E2DCE2E2E2E2E2E2E2E2E2E2E2E2E2E2E2E2E2E2E2F5E2F5E2E2E2E2E2E2E2F5E2F5E2E2E22DE22DE22DE2E2
310
E2F5E2F5E2F5E2E2E2E2E2E2E2E2F5F5E2E2E2E2E2E2E2F5E2E2E2E2E2E2E2E2E2E2E2E2E2E2DCE2E2BEE2E2E2E2E2E2E2E2E2E2E2E2E2E2E2E2E2E2E2E2E2E2E2E2E2E2E2E2E2E2E2E2E2E2E2E2E2E2E2E2E2E2E2E2E2E2E2E2E2E2E2E2E2E2E2E2E2E2E2E2E2E2E2E2E2E2E2E2E2E2E2E2E2E2E2E2E2E2E2E2E2E2E2E2E2
310
E2E2E2E2E2E2E2E2E2E2E2E2E2E2E2E2E2E2E2E2E2E2E2E2E2E2E2E2E2E2E2E2E2E2E2E2E2E2E2E2E2E2E2E2E2E2E2E2E2E2E2E2E2E2E2E2E2E2E2E2E2E2E2E2E2E2E2E2E2E2E2E2E2E2E2E2E2BEE2E2E2E2E2E2E2E2DCE2E2E2E2E2E2E2E2E2E2E2E2E2E2E2E2E2E2E2F5E2F5E2E2E2E2E2E2E2F5E2F5E2E2E22DE22DE22D
310
E2E2E2F5E2F5E2F5E2E2F5F5F5F5F5F5F5E2E2E2E2E2E2E2E2F5E2E2E2E2E2E2E2E2E2E2E2E2E2E2DCE2E2BEE2E2E2E2E2E2E2E2E2E2E2E2E2E2E2E2E2E2E2E2E2E2E2E2E2E2E2E2E2E2E2E2E2E2E2E2E2E2E2E2E2E2E2E2E2E2E2E2E2E2E2E2E2E2E2E2E2E2E2E2E2E2E2E2E2E2E2E2E2E2E2E2E2E2E2E2E2E2E2E2E2E2E2
310
E2E2E2E2E2E2E2E2E2E2E2E2E2E2E2E2E2E2E2E2E2E2E2E2E2E2E2E2E2E2E2E2E2E2E2E2E2E2E2E2E2E2E2E2E2E2E2E2E2E2E2E2E2E2E2E2E2E2E2E2E2E2E2E2E2E2E2E2E2E2E2E2E2E2E2E2E2E2E2BEE2E2E2E2E2E2E2E2DCE2E2E2E2E2E2E2E2E2E2E2E2E2E2E2E2E2E2E2F5E2F5E2E2E2E2E2E2E2F5E2F5E2E2E22DE22D
310
E22DE2E2E2F5E2F5E2F5E2F5E2E2E2E2E2E2E2E2E2E2E2E2E2E2E2F5E2E2E2E2E2E2E2E2E2E2E2E2E2E2DCE2E2BEE2E2E2E2E2E2E2E2E2E2E2E2E2E2E2E2E2E2E2E2E2E2E2E2E2E2E2E2E2E2E2E2E2E2E2E2E2E2E2E2E2E2E2E2E2E2E2E2E2E2E2E2E2E2E2E2E2E2E2E2E2E2E2E2E2E2E2E2E2E2E2E2E2E2E2E2E2E2E2E2E2
310
E2E2E2E2E2E2E2E2E2E2E2E2E2E2E2E2E2E2E2E2E2E2E2E2E2E2E2E2E2E2E2E2E2E2E2E2E2E2E2E2E2E2E2E2E2E2E2E2E2E2E2E2E2E2E2E2E2E2E2E2E2E2E2E2E2E2E2E2E2E2E2E2E2E2E2E2E2E2E2E2E2BEE2E2E2E2E2E2E2E2DCE2E2E2E2E2E2E2E2E2E2E2E2E2E2E2E2E2E2E2F5F5F5E2E2E2E2E2E2E2E2F5F5E2E2E22D
310
E22DE22DE2E2E2F5F5F5F5F5E2F5E2E2E2E2E2E2E2E2E2E2E2E2E2E2E2F5E2E2E2E2E2E2E2E2E2E2E2E2E2E2DCE2E2BEE2E2E2E2E2E2E2E2E2E2E2E2E2E2E2E2E2E2E2E2E2E2E2E2E2E2E2E2E2E2E2E2E2E2E2E2E2E2E2E2E2E2E2E2E2E2E2E2E2E2E2E2E2E2E2E2E2E2E2E2E2E2E2E2E2E2E2E2E2E2E2E2E2E2E2E2E2E2E2
310
E2E2E2E2E2E2E2E2E2E2E2E2E2E2E2E2E2E2E2E2E2E2E2E2E2E2E2E2E2E2E2E2E2E2E2E2E2E2E2E2E2E2E2E2E2E2E2E2E2E2E2E2E2E2E2E2E2E2E2E2E2E2E2E2E2E2E2E2E2E2E2E2E2E2E2E2E2E2E2E2E2E2E2BEE2E2E2E2E2E2E2E2DCE2E2E2E2E2E2E2E2E2E2E2E2E2E2E2E2E2E2E2F5F5E2E2E2E2E2E2E2E2E2F5F5E2E2
310
E22DE22DE22DE2E2E2F5F5F5E2E2E2F5E2E2E2E2E2E2E2E2E2E2E2E2E2E2E2F5E2E2E2E2E2E2E2E2E2E2E2E2E2E2DCE2E2BEE2E2E2E2E2E2E2E2E2E2E2E2E2E2E2E2E2E2E2E2E2E2E2E2E2E2E2E2E2E2E2E2E2E2E2E2E2E2E2E2E2E2E2E2E2E2E2E2E2E2E2E2E2E2E2E2E2E2E2E2E2E2E2E2E2E2E2E2E2E2E2E2E2E2E2E2E2
310
E2E2E2E2E2E2E2E2E2E2E2E2E2E2E2E2E2E2E2E2E2E2E2E2E2E2E2E2E2E2E2E2E2E2E2E2E2E2E2E2E2E2E2E2E2E2E2E2E2E2E2E2E2E2E2E2E2E2E2E2E2E2E2E2E2E2E2E2E2E2E2E2E2E2E2E2E2E2E2E2E2E2E2E2E2BEE2E2E2E2E2E2E2E2DCE2E2E2E2E2E2E2E2E2E2E2E2E2E2E2E2E2E2E2F5F5F5F5F5F5F5F5F5F5F5F5F5
310
E2E2E22DE22DE22DE2E2E2F5E2F5E2E2E2F5E2E2E2E2E2E2E2E2E2E2E2E2E2E2E2F5E2E2E2E2E2E2E2E2E2E2E2E2E2E2DCE2E2BEE2E2E2E2E2E2E2E2E2E2E2E2E2E2E2E2E2E2E2E2E2E2E2E2E2E2E2E2E2E2E2E2E2E2E2E2E2E2E2E2E2E2E2E2E2E2E2E2E2E2E2E2E2E2E2E2E2E2E2E2E2E2E2E2E2E2E2E2E2E2E2E2E2E2E2
310
E2E2E2E2E2E2E2E2E2E2E2E2E2E2E2E2E2E2E2E2E2E2E2E2E2E2E2E2E2E2E2E2E2E2E2E2E2E2E2E2E2E2E2E2E2E2E2E2E2E2E2E2E2E2E2E2E2E2E2E2E2E2E2E2E2E2E2E2E2E2E2E2E2E2E2E2E2E2E2E2E2E2E2E2E2E2E2BEE2E2E2E2E2E2E2E2DCE2E2E2E2E2E2E2E2E2E2E2E2E2E2E2E2E2E2E2F5F5F5F5F5F5F5F5F5F5F5
310
F5F5E2E22DF52D2D2D2D2D2D2DF5F5F5E2E2E2F5E2E2E2E2E2E2E2E2E2E2E2E2E2E2E2F5E2E2E2E2E2E2E2E2E2E2E2E2E2E2DCE2E2BEE2E2E2E2E2E2E2E2E2E2E2E2E2E2E2E2E2E2E2E2E2E2E2E2E2E2E2E2E2E2E2E2E2E2E2E2E2E2E2E2E2E2E2E2E2E2E2E2E2E2E2E2E2E2E2E2E2E2E2E2E2E2E2E2E2E2E2E2E2E2E2E2E2
310
E2E2E2E2E2E2E2E2E2E2E2E2E2E2E2E2E2E2E2E2E2E2E2E2E2E2E2E2E2E2E2E2E2E2E2E2E2E2E2E2E2E2E2E2E2E2E2E2E2E2E2E2E2E2E2E2E2E2E2E2E2E2E2E2E2E2E2E2E2E2E2E2E2E2E2E2E2E2E2E2E2E2E2E2E2E2E2E2E2BEE2E2E2E2E2E2E2E2DCE2E2E2E2E2E2E2E2E2E2E2E2E2E2E2E2E2E2E22DF5E2E2E2E2E2E2E2
310
E2E2F52DE2E2E2E2E22DE2E2E2E2E2E2E2E2E2E2E2F5E2E2E2E2E2E2E2E2E2E2E2E2E2E2E2F5E2E2E2E2E2E2E2E2E2E2E2E2E2E2DCE2E2BEE2E2E2E2E2E2E2E2E2E2E2E2E2E2E2E2E2E2E2E2E2E2E2E2E2E2E2E2E2E2E2E2E2E2E2E2E2E2E2E2E2E2E2E2E2E2E2E2E2E2E2E2E2E2E2E2E2E2E2E2E2E2E2E2E2E2E2E2E2E2E2
310
E2E2E2E2E2E2E2E2E2E2E2E2E2E2E2E2E2E2E2E2E2E2E2E2E2E2E2E2E2E2E2E2E2E2E2E2E2E2E2E2E2E2E2E2E2E2E2E2E2E2E2E2E2E2E2E2E2E2E2E2E2E2E2E2E2E2E2E2E2E2E2E2E2E2E2E2E2E2E2E2E2E2E2E2E2E2E2E2E2E2E2BEE2E2E2E2E2E2E2E2DCE2E2E2E2E2E2E2E2E2E2E2E2E2E2E2E2E2E2E22D2D2D2D2D2D2D
310
2D2D2D2D2DF5E2E2E2E2E22DE2E2E2E2E2E2E2E2E2E2E2F5E2E2E2E2E2E2E2E2E2E2E2E2E2E2E2F5E2E2E2E2E2E2E2E2E2E2E2E2E2E2DCE2E2BEE2E2E2E2E2E2E2E2E2E2E2E2E2E2E2E2E2E2E2E2E2E2E2E2E2E2E2E2E2E2E2E2E2E2E2E2E2E2E2E2E2E2E2E2E2E2E2E2E2E2E2E2E2E2E2E2E2E2E2E2E2E2E2E2E2E2E2E2E2
310
E2E2E2E2E2E2E2E2E2E2E2E2E2E2E2E2E2E2E2E2E2E2E2E2E2E2E2E2E2E2E2E2E2E2E2E2E2E2E2E2E2E2E2E2E2E2E2E2E2E2E2E2E2E2E2E2E2E2E2E2E2E2E2E2E2E2E2E2E2E2E2E2E2E2E2E2E2E2E2E2E2E2E2E2E2E2E2E2E2E2E2E2E2BEE2E2E2E2E2E2E2E2DCE2E2E2E2E2E2E2E2E2E2E2E2E2E2E2E2E2E2E22D2DE2E2E2
310
BEBEBEE2E2E22D2DE2E2E2E2E22DE2E2E2E2E2E2E2E2E2E2E2F5E2E2E2E2E2E2E2E2E2E2E2E2E2E2E2F5E2E2E2E2E2E2E2E2E2E2E2E2E2E2DCE2E2BEE2E2E2E2E2E2E2E2E2E2E2E2E2E2E2E2E2E2E2E2E2E2E2E2E2E2E2E2E2E2E2E2E2E2E2E2E2E2E2E2E2E2E2E2E2E2E2E2E2E2E2E2E2E2E2E2E2E2E2E2E2E2E2E2E2E2E2
310
E2E2E2E2E2E2E2E2E2E2E2E2E2E2E2E2E2E2E2E2E2E2E2E2E2E2E2E2E2E2E2E2E2E2E2E2E2E2E2E2E2E2E2E2E2E2E2E2E2E2E2E2E2E2E2E2E2E2E2E2E2E2E2E2E2E2E2E2E2E2E2E2E2E2E2E2E2E2E2E2E2E2E2E2E2E2E2E2E2E2E2E2E2E2E2BEE2E2E2E2E2E2E2E2DCE2E2E2E2E2E2E2E2E2E2E2E2E2E2E2E2E2E2E2E2F5E2
310
E2E2E2BEBEE2E2E2F5E2E2E2E2E2E22DE2E2E2E2E2E2E2E2E2E2E2F5E2E2E2E2E2E2E2E2E2E2E2E2E2E2E2F5E2E2E2E2E2E2E2E2E2E2E2E2E2E2DCE2E2BEE2E2E2E2E2E2E2E2E2E2E2E2E2E2E2E2E2E2E2E2E2E2E2E2E2E2E2E2E2E2E2E2E2E2E2E2E2E2E2E2E2E2E2E2E2E2E2E2E2E2E2E2E2E2E2E2E2E2E2E2E2E2E2E2E2
310
E2E2E2E2E2E2E2E2E2E2E2E2E2E2E2E2E2E2E2E2E2E2E2E2E2E2E2E2E2E2E2E2E2E2E2E2E2E2E2E2E2E2E2E2E2E2E2E2E2E2E2E2E2E2E2E2E2E2E2E2E2E2E2E2E2E2E2E2E2E2E2E2E2E2E2E2E2E2E2E2E2E2E2E2E2E2E2E2E2E2E2E2E2E2E2E2E2BEE2E2E2E2E2E2E2E2DCE2E2E2E2E2E2E2E2E2E2E2E2E2E2E2E2E2E2E2E2
310
F5E2E2E2E2E2E2E2E2E2F5E2E2E2E2E2E22DE2E2E2E2E2E2E2E2E2E2E2F5E2E2E2E2E2E2E2E2E2E2E2E2E2E2E2F5E2E2E2E2E2E2E2E2E2E2E2E2E2E2DCE2E2BEE2E2E2E2E2E2E2E2E2E2E2E2E2E2E2E2E2E2E2E2E2E2E2E2E2E2E2E2E2E2E2E2E2E2E2E2E2E2E2E2E2E2E2E2E2E2E2E2E2E2E2E2E2E2E2E2E2E2E2E2E2E2E2
310
E2E2E2E2E2E2E2E2E2E2E2E2E2E2E2E2E2E2E2E2E2E2E2E2E2E2E2E2E2E2E2E2E2E2E2E2E2E2E2E2E2E2E2E2E2E2E2E2E2E2E2E2E2E2E2E2E2E2E2E2E2E2E2E2E2E2E2E2E2E2E2E2E2E2E2E2E2E2E2E2E2E2E2E2E2E2E2E2E2E2E2E2E2E2E2E2E2E2E2BEE2E2E2E2E2E2E2E2DCE2E2E2E2E2E2E2E2E2E2E2E2E2E2E2E2E2E2
310
E2E2F5E2E2E2E2E2E2E2F5F5F5E2E2E2E2E2E22DE2E2E2E2E2E2E2E2E2E2E22828282828282828282828282828282828E2E2E2E2E2E2E2E2E2E2E2E2E2E2DCE2E2BEE2E2E2E2E2E2E2E2E2E2E2E2E2E2E2E2E2E2E2E2E2E2E2E2E2E2E2E2E2E2E2E2E2E2E2E2E2E2E2E2E2E2E2E2E2E2E2E2E2E2E2E2E2E2E2E2E2E2E2E2E2
310
E2E2E2E2E2E2E2E2E2E2E2E2E2E2E2E2E2E2E2E2E2E2E2E2E2E2E2E2E2E2E2E2E2E2E2E2E2E2E2E2E2E2E2E2E2E2E2E2E2E2E2E2E2E2E2E2E2E2E2E2E2E2E2E2E2E2E2E2E2E2E2E2E2E2E2E2E2E2E2E2E2E2E2E2E2E2E2E2E2E2E2E2E2E2E2E2E2E2E2E2E2BEE2E2E2E2E2E2E2E2DCE2E2E2E2E2E2E2E2E2E2E2E2E2E2E2E2
310
E2E2E2E2F5E2E2E2E2E2E2E2F5E2E2E2E2E2E2E2E22DE2E2E2E2E2E2E2E2E2E2E2F5E2E2E2E2E2E2E2E2E2E2E2E2E2E2E2F5E2E2E2E2E2E2E2E2E2E2E2E2E2E2DCE2E2BEE2E2E2E2E2E2E2E2E2E2E2E2E2E2E2E2E2E2E2E2E2E2E2E2E2E2E2E2E2E2E2E2E2E2E2E2E2E2E2E2E2E2E2E2E2E2E2E2E2E2E2E2E2E2E2E2E2E2E2
310
E2E2E2E2E2E2E2E2E2E2E2E2E2E2E2E2E2E2E2E2E2E2E2E2E2E2E2E2E2E2E2E2E2E2E2E2E2E2E2E2E2E2E2E2E2E2E2E2E2E2E2E2E2E2E2E2E2E2E2E2E2E2E2E2E2E2E2E2E2E2E2E2E2E2E2E2E2E2E2E2E2E2E2E2E2E2E2E2E2E2E2E2E2E2E2E2E2E2E2E2E2E2E2BEE2E2E2E2E2E2E2E2DCE2E2E2E2E2E2E2E2E2E2E2E2E2E2
310
E2E2E2E2E2E2F5E2E2E2E2E2E2E2F5E2E2E2E2E2E2E2E22DE2E2E2E2E2E2E2E2E2E2E2F5E2E2E2E2E2E2E2E2E2E2E2E2E2E2E2F5E2E2E2E2E2E2E2E2E2E2E2E2E2E2DCE2E2BEE2E2E2E2E2E2E2E2E2E2E2E2E2E2E2E2E2E2E2E2E2E2E2E2E2E2E2E2E2E2E2E2E2E2E2E2E2E2E2E2E2E2E2E2E2E2E2E2E2E2E2E2E2E2E2E2E2
310
E2E2E2E2E2E2E2E2E2E2E2E2E2E2E2E2E2E2E2E2E2E2E2E2E2E2E2E2E2E2E2E2E2E2E2E2E2E2E2E2E2E2E2E2E2E2E2E2E2E2E2E2E2E2E2E2E2E2E2E2E2E2E2E2E2E2E2E2E2E2E2E2E2E2E2E2E2E2E2E2E2E2E2E2E2E2E2E2E2E2E2E2E2E2E2E2E2E2E2E2E2E2E2E2E2BEE2E2E2E2E2E2E2E2DCE2E2E2E2E2E2E2E2E2E2E2E2
310
E2E2E2E2E2E2E2E2F5E2E2E2E2E2E2E2F5E2E2E2E2E2E2E2E22DE2E2E2E2E2E2E2E2E2E2E2F5E2E2E2E2E2E2E2E2E2E2E2E2E2E2E2F5E2E2E2E2E2E2E2E2E2E2E2E2E2E2DCE2E2BEE2E2E2E2E2E2E2E2E2E2E2E2E2E2E2E2E2E2E2E2E2E2E2E2E2E2E2E2E2E2E2E2E2E2E2E2E2E2E2E2E2E2E2E2E2E2E2E2E2E2E2E2E2E2E2
310
E2E2E2E2E2E2E2E2E2E2E2E2E2E2E2E2E2E2E2E2E2E2E2E2E2E2E2E2E2E2E2E2E2E2E2E2E2E2E2E2E2E2E2E2E2E2E2E2E2E2E2E2E2E2E2E2E2E2E2E2E2E2E2E2E2E2E2E2E2E2E2E2E2E2E2E2E2E2E2E2E2E2E2E2E2E2E2E2E2E2E2E2E2E2E2E2E2E2E2E2E2E2E2E2E2E2E2BEE2E2E2E2E2E2E2E2DCE2E2E2E2E2E2E2E2E2E2
310
E2E2E2E2E2E2E2E2E2E2F5E2E2E2E2E2E2E2F5E2E2E2E2E2E2E2E22D2DE2E2E2E2E2E2E2E2E2E2F5E2E2E2E2E2E2E2E2E2E2E2E2E2E2E2F5E2E2E2E2E2E2E2E2E2E2E2E2E2E2DCE2E2BEE2E2E2E2E2E2E2E2E2E2E2E2E2E2E2E2E2E2E2E2E2E2E2E2E2E2E2E2E2E2E2E2E2E2E2E2E2E2E2E2E2E2E2E2E2E2E2E2E2E2E2E2E2
310
E2E2E2E2E2E2E2E2E2E2E2E2E2E2E2E2E2E2E2E2E2E2E2E2E2E2E2E2E2E2E2E2E2E2E2E2E2E2E2E2E2E2E2E2E2E2E2E2E2E2E2E2E2E2E2E2E2E2E2E2E2E2E2E2E2E2E2E2E2E2E2E2E2E2E2E2E2E2E2E2E2E2E2E2E2E2E2E2E2E2E2E2E2E2E2E2E2E2E2E2E2E2E2E2E2E2E2E2E2BEE2E2E2E2E2E2E2E2DCE2E2E2E2E2E2E2E2
310
E2E2E2E2E2E2E2E2E2E2E2E2F5F5F5F5F5F5F5F5F5E2E2E2E2E2E2E2E2F52D2D2D2D2D2D2D2D2D2D2D2DF5F5F5F5F5F5F5F5F5F5F5F5F5F5F5F5E2E2E2E2E2E2E2E2E2E2E2E2E2E2DCE2E2BEE2E2E2E2E2E2E2E2E2E2E2E2E2E2E2E2E2E2E2E2E2E2E2E2E2E2E2E2E2E2E2E2E2E2E2E2E2E2E2E2E2E2E2E2E2E2E2E2E2E2E2
310
E2E2E2E2E2E2E2E2E2E2E2E2E2E2E2E2E2E2E2E2E2E2E2E2E2E2E2E2E2E2E2E2E2E2E2E2E2E2E2E2E2E2E2E2E2E2E2E2E2E2E2E2E2E2E2E2E2E2E2E2E2E2E2E2E2E2E2E2E2E2E2E2E2E2E2E2E2E2E2E2E2E2E2E2E2E2E2E2E2E2E2E2E2E2E2E2E2E2E2E2E2E2E2E2E2E2E2E2E2E2E2BEE2E2E2E2E2E2E2E2DCE2E2E2E2E2E2
310
E2E2E2E2E2E2E2E2E2E2E2E2E2E2E2E2E2E2E2E2E2E2E2E2E2E2E2E2E2E2E2E2E2E2E2E2E2E2E2E2E2E2E2E2E2E2E2E2E2E2E2E2E2E2E2E2E2E2E2E2E2E2E2E2E2E2E2E2E2E2E2E2E2E2DCE2E2BEE2E2E2E2E2E2E2E2E2E2E2E2E2E2E2E2E2E2E2E2E2E2E2E2E2E2E2E2E2E2E2E2E2E2E2E2E2E2E2E2E2E2E2E2E2E2E2E2E2
310
E2E2E2E2E2E2E2E2E2E2E2E2E2E2E2E2E2E2E2E2E2E2E2E2E2E2E2E2E2E2E2E2E2E2E2E2E2E2E2E2E2E2E2E2E2E2E2E2E2E2E2E2E2E2E2E2E2E2E2E2E2E2E2E2E2E2E2E2E2E2E2E2E2E2E2E2E2E2E2E2E2E2E2E2E2E2E2E2E2E2E2E2E2E2E2E2E2E2E2E2E2E2E2E2E2E2E2E2E2E2E2E2E2BEE2E2E2E2E2E2E2E2DCE2E2E2E2
310
E2E2E2E2E2E2E2E2E2E2E2E2E2E2E2E2E2E2E2E2E2E2E2E2E2E2E2E2E2E2E2E2E2E2E2E2E2E2E2E2E2E2E2E2E2E2E2E2E2E2E2E2E2E2E2E2E2E2E2E2E2E2E2E2E2E2E2E2E2E2E2E2E2E2E2E2DCE2E2BEE2E2E2E2E2E2E2E2E2E2E2E2E2E2E2E2E2E2E2E2E2E2E2E2E2E2E2E2E2E2E2E2E2E2E2E2E2E2E2E2E2E2E2E2E2E2E2
310
E2E2E2E2E2E2E2E2E2E2E2E2E2E2E2E2E2E2E2E2E2E2E2E2E2E2E2E2E2E2E2E2E2E2E2E2E2E2E2E2E2E2E2E2E2E2E2E2E2E2E2E2E2E2E2E2E2E2E2E2E2E2E2E2E2E2E2E2E2E2E2E2E2E2E2E2E2E2E2E2E2E2E2E2E2E2E2E2E2E2E2E2E2E2E2E2E2E2E2E2E2E2E2E2E2E2E2E2E2E2E2E2E2E2E2BEE2E2E2E2E2E2E2E2DCE2E2
310
E2E2E2E2E2E2E2E2E2E2E2E2E2E2E2E2E2E2E2E2E2E2E2E2E2E2E2E2E2E2E2E2E2E2E2E2E2E2E2E2E2E2E2E2E2E2E2E2E2E2E2E2E2E2E2E2E2E2E2E2E2E2E2E2E2E2E2E2E2E2E2E2E2E2E2E2E2E2DCE2E2BEE2E2E2E2E2E2E2E2E2E2E2E2E2E2E2E2E2E2E2E2E2E2E2E2E2E2E2E2E2E2E2E2E2E2E2E2E2E2E2E2E2E2E2E2E2
310
E2E2E2E2E2E2E2E2E2E2E2E2E2E2E2E2E2E2E2E2E2E2E2E2E2E2E2E2E2E2E2E2E2E2E2E2E2E2E2E2E2E2E2E2E2E2E2E2E2E2E2E2E2E2E2E2E2E2E2E2E2E2E2E2E2E2E2E2E2E2E2E2E2E2E2E2E2E2E2E2E2E2E2E2E2E2E2E2E2E2E2E2E2E2E2E2E2E2E2E2E2E2E2E2E2E2E2E2E2E2E2E2E2E2E2E2E2BEE2E2E2E2E2E2E2E2DC
310
E2E2E2E2E2E2E2E2E2E2E2E2E2E2E2E2E2E2E2E2E2E2E2E2E2E2E2E2E2E2E2E2E2E2E2E2E2E2E2E2E2E2E2E2E2E2E2E2E2E2E2E2E2E2E2E2E2E2E2E2E2E2E2E2E2E2E2E2E2E2E2E2E2E2E2E2E2E2E2E2DCE2E2BEE2E2E2E2E2E2E2E2E2E2E2E2E2E2E2E2E2E2E2E2E2E2E2E2E2E2E2E2E2E2E2E2E2E2E2E2E2E2E2E2E2E2E2
310
E2E2E2E2E2E2E2E2E2E2E2E2E2E2E2E2E2E2E2E2E2E2E2E2E2E2E2E2E2E2E2E2E2E2E2E2E2E2E2E2E2E2E2E2E2E2E2E2E2E2E2E2E2E2E2E2E2E2E2E2E2E2E2E2E2E2E2E2E2E2E2E2E2E2E2E2E2E2E2E2E2E2E2E2E2E2E2E2E2E2E2E2E2E2E2E2E2E2E2E2E2E2E2E2E2E2E2E2E2E2E2E2E2E2E2E2E2E2E2BEE2E2E2E2E2E2E2
310
E2DCE2E2E2E2E2E2E2E2E2E2E2E2E2E2E2E2E2E2E2E2E2E2E2E2E2E2E2E2E2E2E2E2E2E2E2E2E2E2E2E2E2E2E2E2E2E2E2E2E2E2E2E2E2E2E2E2E2E2E2E2E2E2E2E2E2E2E2E2E2E2E2E2E2E2E2E2E2E2E2E2DCE2E2BEE2E2E2E2E2E2E2E2E2E2E2E2E2E2E2E2E2E2E2E2E2E2E2E2E2E2E2E2E2E2E2E2E2E2E2E2E2E2E2E2E2
310
E2E2E2E2E2E2E2E2E2E2E2E2E2E2E2E2E2E2E2E2E2E2E2E2E2E2E2E2E2E2E2E2E2E2E2E2E2E2E2E2E2E2E2E2E2E2E2E2E2E2E2E2E2E2E2E2E2E2E2E2E2E2E2E2E2E2E2E2E2E2E2E2E2E2E2E2E2E2E2E2E2E2E2E2E2E2E2E2E2E2E2E2E2E2E2E2E2E2E2E2E2E2E2E2E2E2E2E2E2E2E2E2E2E2E2E2E2E2E2E2E2BEE2E2E2E2E2
310
E2E2E2DCE2E2E2E2E2E2E2E2E2E2E2E2E2E2E2E2E2E2E2E2E2E2E2E2E2E2E2E2E2E2E2E2E2E2E2E2E2E2E2E2E2E2E2E2E2E2E2E2E2E2E2E2E2E2E2E2E2E2E2E2E2E2E2E2E2E2E2E2E2E2E2E2E2E2E2E2E2E2E2E2DCE2E2BEE2E2E2E2E2E2E2E2E2E2E2E2E2E2E2E2E2E2E2E2E2E2E2E2E2E2E2E2E2E2E2E2E2E2E2E2E2E2E2
310
E2E2E2E2E2E2E2E2E2E2E2E2E2E2E2E2E2E2E2E2E2E2E2E2E2E2E2E2E2E2E2E2E2E2E2E2E2E2E2E2E2E2E2E2E2E2E2E2E2E2E2E2E2E2E2E2E2E2E2E2E2E2E2E2E2E2E2E2E2E2E2E2E2E2E2E2E2E2E2E2E2E2E2E2E2E2E2E2E2E2E2E2E2E2E2E2E2E2E2E2E2E2E2E2E2E2E2E2E2E2E2E2E2E2E2E2E2E2E2E2E2E2E2BEE2E2E2
310
E2E2E2E2E2DCE2E2E2E2E2E2E2E2E2E2E2E2E2E2E2E2E2E2E2E2E2E2E2E2E2E2E2E2E2E2E2E2E2E2E2E2E2E2E2E2E2E2E2E2E2E2E2E2E2E2E2E2E2E2E2E2E2E2E2E2E2E2E2E2E2E2E2E2E2E2E2E2E2E2E2E2E2E2E2E2DCE2E2BEE2E2E2E2E2E2E2E2E2E2E2E2E2E2E2E2E2E2E2E2E2E2E2E2E2E2E2E2E2E2E2E2E2E2E2E2E2
310
E2E2E2E2E2E2E2E2E2E2E2E2E2E2E2E2E2E2E2E2E2E2E2E2E2E2E2E2E2E2E2E2E2E2E2E2E2E2E2E2E2E2E2E2E2E2E2E2E2E2E2E2E2E2E2E2E2E2E2E2E2E2E2E2E2E2E2E2E2E2E2E2E2E2E2E2E2E2E2E2E2E2E2E2E2E2E2E2E2E2E2E2E2E2E2E2E2E2E2E2E2E2E2E2E2E2E2E2E2E2E2E2E2E2E2E2E2E2E2E2E2E2E2E2E2BEE2
310
E2E2E2E2E2E2E2DCDCDCDCDCDCDCDCDCDCDCDCDCDCDCDCDCDCDCDCDCDCDCDCDCDCDCDCDCDCDCDCDCDCDCDCDCDCDCDCDCDCDCDCDCDCDCDCDCDCDCDCDCDCDCDCDCDCDCDCDCDCDCDCDCDCDCDCDCDCDCDCDCDCDCDCDCDCDCDCDCDCE2E2BEE2E2E2E2E2E2E2E2E2E2E2E2E2E2E2E2E2E2E2E2E2E2E2E2E2E2E2E2E2E2E2E2E2E2E2
310
E2E2E2E2E2E2E2E2E2E2E2E2E2E2E2E2E2E2E2E2E2E2E2E2E2E2E2E2E2E2E2E2E2E2E2E2E2E2E2E2E2E2E2E2E2E2E2E2E2E2E2E2E2E2E2E2E2E2E2E2E2E2E2E2E2E2E2E2E2E2E2E2E2E2E2E2E2E2E2E2E2E2E2E2E2E2E2E2E2E2E2E2E2E2E2E2E2E2E2E2E2E2E2E2E2E2E2E2E2E2E2E2E2E2E2E2E2E2E2E2E2E2E2E2E2E2E2
310
BEE2E2E2E2E2E2E2E2E2E2E2E2E2E2E2E2E2E2E2E2E2E2E2E2E2E2E2E2E2E2E2E2E2E2E2E2E2E2E2E2E2E2E2E2E2E2E2E2E2E2E2E2E2E2E2E2E2E2E2E2E2E2E2E2E2E2E2E2E2E2E2E2E2E2E2E2E2E2E2E2E2E2E2E2E2E2E2E2E2E2E2E2BEE2E2E2E2E2E2E2E2E2E2E2E2E2E2E2E2E2E2E2E2E2E2E2E2E2E2E2E2E2E2E2E2E2
310
E2E2E2E2E2E2E2E2E2E2E2E2E2E2E2E2E2E2E2E2E2E2E2E2E2E2E2E2E2E2E2E2E2E2E2E2E2E2E2E2E2E2E2E2E2E2E2E2E2E2E2E2E2E2E2E2E2E2E2E2E2E2E2E2E2E2E2E2E2E2E2E2E2E2E2E2E2E2E2E2E2E2E2E2E2E2E2E2E2E2E2E2E2E2E2E2E2E2E2E2E2E2E2E2E2E2E2E2E2E2E2E2E2E2E2E2E2E2E2E2E2E2E2E2E2E2E2
310
E2E2BEBEBEBEBEBEBEBEBEBEBEBEBEBEBEBEBEBEBEBEBEBEBEBEBEBEBEBEBEBEBEBEBEBEBEBEBEBEBEBEBEBEBEBEBEBEBEBEBEBEBEBEBEBEBEBEBEBEBEBEBEBEBEBEBEBEBEBEBEBEBEBEBEBEBEBEBEBEBEBEBEBEBEBEBEBEBEBEBEBEBEBEBEBEE2E2E2E2E2E2E2E2E2E2E2E2E2E2E2E2E2E2E2E2E2E2E2E2E2E2E2E2E2E2E2
310
E2E2E2E2E2E2E2E2E2E2E2E2E2E2E2E2E2E2E2E2E2E2E2E2E2E2E2E2E2E2E2E2E2E2E2E2E2E2E2E2E2E2E2E2E2E2E2E2E2E2E2E2E2E2E2E2E2E2E2E2E2E2E2E2E2E2E2E2E2E2E2E2E2E2E2E2E2E2E2E2E2E2E2E2E2E2E2E2E2E2E2E2E2E2E2E2E2E2E2E2E2E2E2E2E2E2E2E2E2E2E2E2E2E2E2E2E2E2E2E2E2E2E2E2E2E2E2
310
E2E2E2E2E2E2E2E2E2E2E2E2E2E2E2E2E2E2E2E2E2E2E2E2E2E2E2E2E2E2E2E2E2E2E2E2E2E2E2E2E2E2E2E2E2E2E2E2E2E2E2E2E2E2E2E2E2E2E2E2E2E2E2E2E2E2E2E2E2E2E2E2E2E2E2E2E2E2E2E2E2E2E2E2E2E2E2E2E2E2E2E2E2E2E2E2E2E2E2E2E2E2E2E2E2E2E2E2E2E2E2E2E2E2E2E2E2E2E2E2E2E2E2E2E2E2E2
310
E2E2E2E2E2E2E2E2E2E2E2E2E2E2E2E2E2E2E2E2E2E2E2E2E2E2E2E2E2E2E2E2E2E2E2E2E2E2E2E2E2E2E2E2E2E2E2E2E2E2E2E2E2E2E2E2E2E2
  0
XRECORD
  5
48
102
{ACAD_REACTORS
330
47
102
}
330
47
100
AcDbXrecord
280
     1
270
     1
271
     1
  0
XRECORD
  5
49
102
{ACAD_REACTORS
330
47
102
}
330
47
100
AcDbXrecord
280
     1
270
     1
271
     1
  0
XRECORD
  5
4A
102
{ACAD_REACTORS
330
47
102
}
330
47
100
AcDbXrecord
280
     1
270
     1
271
     1
  0
XRECORD
  5
4B
102
{ACAD_REACTORS
330
47
102
}
330
47
100
AcDbXrecord
280
     1
270
     1
271
     1
  0
XRECORD
  5
4C
102
{ACAD_REACTORS
330
47
102
}
330
47
100
AcDbXrecord
280
     1
270
     1
271
     1
  0
XRECORD
  5
4D
102
{ACAD_REACTORS
330
47
102
}
330
47
100
AcDbXrecord
280
     1
270
     1
271
     1
  0
XRECORD
  5
40
102
{ACAD_REACTORS
330
3F
102
}
330
3F
100
AcDbXrecord
280
     1
270
     1
271
     1
  0
XRECORD
  5
41
102
{ACAD_REACTORS
330
3F
102
}
330
3F
100
AcDbXrecord
280
     1
270
     1
271
     1
  0
XRECORD
  5
42
102
{ACAD_REACTORS
330
3F
102
}
330
3F
100
AcDbXrecord
280
     1
270
     1
271
     1
  0
XRECORD
  5
43
102
{ACAD_REACTORS
330
3F
102
}
330
3F
100
AcDbXrecord
280
     1
270
     1
271
     1
  0
XRECORD
  5
44
102
{ACAD_REACTORS
330
3F
102
}
330
3F
100
AcDbXrecord
280
     1
270
     1
271
     1
  0
XRECORD
  5
45
102
{ACAD_REACTORS
330
3F
102
}
330
3F
100
AcDbXrecord
280
     1
270
     1
271
     1
  0
XRECORD
  5
F
102
{ACAD_REACTORS
330
E
102
}
330
E
100
AcDbXrecord
280
     1
270
     1
271
     1
  0
XRECORD
  5
10
102
{ACAD_REACTORS
330
E
102
}
330
E
100
AcDbXrecord
280
     1
270
     1
271
     1
  0
XRECORD
  5
11
102
{ACAD_REACTORS
330
E
102
}
330
E
100
AcDbXrecord
280
     1
270
     1
271
     1
  0
XRECORD
  5
12
102
{ACAD_REACTORS
330
E
102
}
330
E
100
AcDbXrecord
280
     1
270
     1
271
     1
  0
XRECORD
  5
13
102
{ACAD_REACTORS
330
E
102
}
330
E
100
AcDbXrecord
280
     1
270
     1
271
     1
  0
XRECORD
  5
14
102
{ACAD_REACTORS
330
E
102
}
330
E
100
AcDbXrecord
280
     1
270
     1
271
     1
  0
CELLSTYLEMAP
  5
4AF
102
{ACAD_REACTORS
330
54
102
}
330
54
100
AcDbCellStyleMap
 90
        3
300
CELLSTYLE
  1
TABLEFORMAT_BEGIN
 90
        5
170
     1
 91
        0
 92
    32768
 62
   257
 93
        1
300
CONTENTFORMAT
  1
CONTENTFORMAT_BEGIN
 90
        0
 91
        0
 92
      512
 93
        0
300

 40
0.0
140
1.0
 94
        5
 62
     0
340
27
144
6.0
309
CONTENTFORMAT_END
171
     1
301
MARGIN
  1
CELLMARGIN_BEGIN
 40
1.5
 40
1.5
 40
1.5
 40
1.5
 40
4.5
 40
4.5
309
CELLMARGIN_END
 94
        6
 95
        1
302
GRIDFORMAT
  1
GRIDFORMAT_BEGIN
 90
        0
 91
        1
 62
     0
 92
       -2
340
0
 93
        0
 40
1.125
309
GRIDFORMAT_END
 95
        2
302
GRIDFORMAT
  1
GRIDFORMAT_BEGIN
 90
        0
 91
        1
 62
     0
 92
       -2
340
0
 93
        0
 40
1.125
309
GRIDFORMAT_END
 95
        4
302
GRIDFORMAT
  1
GRIDFORMAT_BEGIN
 90
        0
 91
        1
 62
     0
 92
       -2
340
0
 93
        0
 40
1.125
309
GRIDFORMAT_END
 95
        8
302
GRIDFORMAT
  1
GRIDFORMAT_BEGIN
 90
        0
 91
        1
 62
     0
 92
       -2
340
0
 93
        0
 40
1.125
309
GRIDFORMAT_END
 95
       16
302
GRIDFORMAT
  1
GRIDFORMAT_BEGIN
 90
        0
 91
        1
 62
     0
 92
       -2
340
0
 93
        0
 40
1.125
309
GRIDFORMAT_END
 95
       32
302
GRIDFORMAT
  1
GRIDFORMAT_BEGIN
 90
        0
 91
        1
 62
     0
 92
       -2
340
0
 93
        0
 40
1.125
309
GRIDFORMAT_END
309
TABLEFORMAT_END
  1
CELLSTYLE_BEGIN
 90
        1
 91
        1
300
_TITLE
309
CELLSTYLE_END
300
CELLSTYLE
  1
TABLEFORMAT_BEGIN
 90
        5
170
     1
 91
        0
 92
        0
 62
   257
 93
        1
300
CONTENTFORMAT
  1
CONTENTFORMAT_BEGIN
 90
        0
 91
        0
 92
      512
 93
        0
300

 40
0.0
140
1.0
 94
        5
 62
     0
340
27
144
4.5
309
CONTENTFORMAT_END
171
     1
301
MARGIN
  1
CELLMARGIN_BEGIN
 40
1.5
 40
1.5
 40
1.5
 40
1.5
 40
4.5
 40
4.5
309
CELLMARGIN_END
 94
        6
 95
        1
302
GRIDFORMAT
  1
GRIDFORMAT_BEGIN
 90
        0
 91
        1
 62
     0
 92
       -2
340
0
 93
        0
 40
1.125
309
GRIDFORMAT_END
 95
        2
302
GRIDFORMAT
  1
GRIDFORMAT_BEGIN
 90
        0
 91
        1
 62
     0
 92
       -2
340
0
 93
        0
 40
1.125
309
GRIDFORMAT_END
 95
        4
302
GRIDFORMAT
  1
GRIDFORMAT_BEGIN
 90
        0
 91
        1
 62
     0
 92
       -2
340
0
 93
        0
 40
1.125
309
GRIDFORMAT_END
 95
        8
302
GRIDFORMAT
  1
GRIDFORMAT_BEGIN
 90
        0
 91
        1
 62
     0
 92
       -2
340
0
 93
        0
 40
1.125
309
GRIDFORMAT_END
 95
       16
302
GRIDFORMAT
  1
GRIDFORMAT_BEGIN
 90
        0
 91
        1
 62
     0
 92
       -2
340
0
 93
        0
 40
1.125
309
GRIDFORMAT_END
 95
       32
302
GRIDFORMAT
  1
GRIDFORMAT_BEGIN
 90
        0
 91
        1
 62
     0
 92
       -2
340
0
 93
        0
 40
1.125
309
GRIDFORMAT_END
309
TABLEFORMAT_END
  1
CELLSTYLE_BEGIN
 90
        2
 91
        1
300
_HEADER
309
CELLSTYLE_END
300
CELLSTYLE
  1
TABLEFORMAT_BEGIN
 90
        5
170
     1
 91
        0
 92
        0
 62
   257
 93
        1
300
CONTENTFORMAT
  1
CONTENTFORMAT_BEGIN
 90
        0
 91
        0
 92
      512
 93
        0
300

 40
0.0
140
1.0
 94
        2
 62
     0
340
27
144
4.5
309
CONTENTFORMAT_END
171
     1
301
MARGIN
  1
CELLMARGIN_BEGIN
 40
1.5
 40
1.5
 40
1.5
 40
1.5
 40
4.5
 40
4.5
309
CELLMARGIN_END
 94
        6
 95
        1
302
GRIDFORMAT
  1
GRIDFORMAT_BEGIN
 90
        0
 91
        1
 62
     0
 92
       -2
340
0
 93
        0
 40
1.125
309
GRIDFORMAT_END
 95
        2
302
GRIDFORMAT
  1
GRIDFORMAT_BEGIN
 90
        0
 91
        1
 62
     0
 92
       -2
340
0
 93
        0
 40
1.125
309
GRIDFORMAT_END
 95
        4
302
GRIDFORMAT
  1
GRIDFORMAT_BEGIN
 90
        0
 91
        1
 62
     0
 92
       -2
340
0
 93
        0
 40
1.125
309
GRIDFORMAT_END
 95
        8
302
GRIDFORMAT
  1
GRIDFORMAT_BEGIN
 90
        0
 91
        1
 62
     0
 92
       -2
340
0
 93
        0
 40
1.125
309
GRIDFORMAT_END
 95
       16
302
GRIDFORMAT
  1
GRIDFORMAT_BEGIN
 90
        0
 91
        1
 62
     0
 92
       -2
340
0
 93
        0
 40
1.125
309
GRIDFORMAT_END
 95
       32
302
GRIDFORMAT
  1
GRIDFORMAT_BEGIN
 90
        0
 91
        1
 62
     0
 92
       -2
340
0
 93
        0
 40
1.125
309
GRIDFORMAT_END
309
TABLEFORMAT_END
  1
CELLSTYLE_BEGIN
 90
        3
 91
        2
300
_DATA
309
CELLSTYLE_END
  0
ENDSEC
  0
EOF
