  0
SECTION
  2
HEADER
  9
$ACADVER
  1
AC1024
  9
$ACADMAINTVER
 70
     6
  9
$DWGCODEPAGE
  3
ANSI_1252
  9
$INSBASE
 10
0.0
 20
0.0
 30
0.0
  9
$EXTMIN
 10
0.0
 20
0.0000000000000284
 30
0.0
  9
$EXTMAX
 10
5388.36333246625
 20
2010.0
 30
0.0
  9
$LIMMIN
 10
0.0
 20
0.0
  9
$LIMMAX
 10
594.0
 20
420.0
  9
$ORTHOMODE
 70
     0
  9
$REGENMODE
 70
     1
  9
$FILLMODE
 70
     1
  9
$QTEXTMODE
 70
     0
  9
$MIRRTEXT
 70
     1
  9
$LTSCALE
 40
15.0
  9
$ATTMODE
 70
     1
  9
$TEXTSIZE
 40
50.0
  9
$TRACEWID
 40
1.0
  9
$TEXTSTYLE
  7
Standard
  9
$CLAYER
  8
0
  9
$CELTYPE
  6
ByLayer
  9
$CECOLOR
 62
   256
  9
$CELTSCALE
 40
1.0
  9
$DISPSILH
 70
     0
  9
$DIMSCALE
 40
9.0
  9
$DIMASZ
 40
2.5
  9
$DIMEXO
 40
0.625
  9
$DIMDLI
 40
0.0
  9
$DIMRND
 40
0.0
  9
$DIMDLE
 40
0.0
  9
$DIMEXE
 40
1.25
  9
$DIMTP
 40
0.0
  9
$DIMTM
 40
0.0
  9
$DIMTXT
 40
2.5
  9
$DIMCEN
 40
2.5
  9
$DIMTSZ
 40
0.0
  9
$DIMTOL
 70
     0
  9
$DIMLIM
 70
     0
  9
$DIMTIH
 70
     0
  9
$DIMTOH
 70
     0
  9
$DIMSE1
 70
     0
  9
$DIMSE2
 70
     0
  9
$DIMTAD
 70
     1
  9
$DIMZIN
 70
     8
  9
$DIMBLK
  1

  9
$DIMASO
 70
     1
  9
$DIMSHO
 70
     1
  9
$DIMPOST
  1

  9
$DIMAPOST
  1

  9
$DIMALT
 70
     0
  9
$DIMALTD
 70
     3
  9
$DIMALTF
 40
0.03937007874016
  9
$DIMLFAC
 40
1.0
  9
$DIMTOFL
 70
     1
  9
$DIMTVP
 40
0.0
  9
$DIMTIX
 70
     0
  9
$DIMSOXD
 70
     0
  9
$DIMSAH
 70
     0
  9
$DIMBLK1
  1

  9
$DIMBLK2
  1

  9
$DIMSTYLE
  2
Wagner
  9
$DIMCLRD
 70
     4
  9
$DIMCLRE
 70
     4
  9
$DIMCLRT
 70
     1
  9
$DIMTFAC
 40
1.0
  9
$DIMGAP
 40
0.625
  9
$DIMJUST
 70
     0
  9
$DIMSD1
 70
     0
  9
$DIMSD2
 70
     0
  9
$DIMTOLJ
 70
     0
  9
$DIMTZIN
 70
     8
  9
$DIMALTZ
 70
     0
  9
$DIMALTTZ
 70
     0
  9
$DIMUPT
 70
     0
  9
$DIMDEC
 70
     8
  9
$DIMTDEC
 70
     8
  9
$DIMALTU
 70
     2
  9
$DIMALTTD
 70
     3
  9
$DIMTXSTY
  7
ROMANS
  9
$DIMAUNIT
 70
     0
  9
$DIMADEC
 70
     2
  9
$DIMALTRND
 40
0.0
  9
$DIMAZIN
 70
     2
  9
$DIMDSEP
 70
    44
  9
$DIMATFIT
 70
     3
  9
$DIMFRAC
 70
     0
  9
$DIMLDRBLK
  1

  9
$DIMLUNIT
 70
     2
  9
$DIMLWD
 70
    -2
  9
$DIMLWE
 70
    -2
  9
$DIMTMOVE
 70
     2
  9
$DIMFXL
 40
1.0
  9
$DIMFXLON
 70
     0
  9
$DIMJOGANG
 40
0.7853981633974483
  9
$DIMTFILL
 70
     0
  9
$DIMTFILLCLR
 70
     0
  9
$DIMARCSYM
 70
     0
  9
$DIMLTYPE
  6

  9
$DIMLTEX1
  6

  9
$DIMLTEX2
  6

  9
$DIMTXTDIRECTION
 70
     0
  9
$LUNITS
 70
     2
  9
$LUPREC
 70
     2
  9
$SKETCHINC
 40
1.0
  9
$FILLETRAD
 40
0.0
  9
$AUNITS
 70
     0
  9
$AUPREC
 70
     0
  9
$MENU
  1
.
  9
$ELEVATION
 40
0.0
  9
$PELEVATION
 40
0.0
  9
$THICKNESS
 40
0.0
  9
$LIMCHECK
 70
     0
  9
$CHAMFERA
 40
0.0
  9
$CHAMFERB
 40
0.0
  9
$CHAMFERC
 40
20.0
  9
$CHAMFERD
 40
0.0
  9
$SKPOLY
 70
     0
  9
$TDCREATE
 40
2453780.425543611
  9
$TDUCREATE
 40
2453780.383876944
  9
$TDUPDATE
 40
2457736.755838797
  9
$TDUUPDATE
 40
2457736.714172130
  9
$TDINDWG
 40
2.6452733565
  9
$TDUSRTIMER
 40
2.6452733565
  9
$USRTIMER
 70
     1
  9
$ANGBASE
 50
0.0
  9
$ANGDIR
 70
     0
  9
$PDMODE
 70
     0
  9
$PDSIZE
 40
-1.0
  9
$PLINEWID
 40
0.0
  9
$SPLFRAME
 70
     0
  9
$SPLINETYPE
 70
     6
  9
$SPLINESEGS
 70
     8
  9
$HANDSEED
  5
52E
  9
$SURFTAB1
 70
     6
  9
$SURFTAB2
 70
     6
  9
$SURFTYPE
 70
     6
  9
$SURFU
 70
     6
  9
$SURFV
 70
     6
  9
$UCSBASE
  2

  9
$UCSNAME
  2

  9
$UCSORG
 10
0.0
 20
0.0
 30
0.0
  9
$UCSXDIR
 10
1.0
 20
0.0
 30
0.0
  9
$UCSYDIR
 10
0.0
 20
1.0
 30
0.0
  9
$UCSORTHOREF
  2

  9
$UCSORTHOVIEW
 70
     0
  9
$UCSORGTOP
 10
0.0
 20
0.0
 30
0.0
  9
$UCSORGBOTTOM
 10
0.0
 20
0.0
 30
0.0
  9
$UCSORGLEFT
 10
0.0
 20
0.0
 30
0.0
  9
$UCSORGRIGHT
 10
0.0
 20
0.0
 30
0.0
  9
$UCSORGFRONT
 10
0.0
 20
0.0
 30
0.0
  9
$UCSORGBACK
 10
0.0
 20
0.0
 30
0.0
  9
$PUCSBASE
  2

  9
$PUCSNAME
  2

  9
$PUCSORG
 10
0.0
 20
0.0
 30
0.0
  9
$PUCSXDIR
 10
1.0
 20
0.0
 30
0.0
  9
$PUCSYDIR
 10
0.0
 20
1.0
 30
0.0
  9
$PUCSORTHOREF
  2

  9
$PUCSORTHOVIEW
 70
     0
  9
$PUCSORGTOP
 10
0.0
 20
0.0
 30
0.0
  9
$PUCSORGBOTTOM
 10
0.0
 20
0.0
 30
0.0
  9
$PUCSORGLEFT
 10
0.0
 20
0.0
 30
0.0
  9
$PUCSORGRIGHT
 10
0.0
 20
0.0
 30
0.0
  9
$PUCSORGFRONT
 10
0.0
 20
0.0
 30
0.0
  9
$PUCSORGBACK
 10
0.0
 20
0.0
 30
0.0
  9
$USERI1
 70
     0
  9
$USERI2
 70
     0
  9
$USERI3
 70
     0
  9
$USERI4
 70
     0
  9
$USERI5
 70
     0
  9
$USERR1
 40
0.0
  9
$USERR2
 40
0.0
  9
$USERR3
 40
0.0
  9
$USERR4
 40
0.0
  9
$USERR5
 40
0.0
  9
$WORLDVIEW
 70
     1
  9
$SHADEDGE
 70
     3
  9
$SHADEDIF
 70
    70
  9
$TILEMODE
 70
     1
  9
$MAXACTVP
 70
    64
  9
$PINSBASE
 10
0.0
 20
0.0
 30
0.0
  9
$PLIMCHECK
 70
     0
  9
$PEXTMIN
 10
1.000000000000000E+20
 20
1.000000000000000E+20
 30
1.000000000000000E+20
  9
$PEXTMAX
 10
-1.000000000000000E+20
 20
-1.000000000000000E+20
 30
-1.000000000000000E+20
  9
$PLIMMIN
 10
0.0
 20
0.0
  9
$PLIMMAX
 10
420.0
 20
297.0
  9
$UNITMODE
 70
     0
  9
$VISRETAIN
 70
     1
  9
$PLINEGEN
 70
     0
  9
$PSLTSCALE
 70
     1
  9
$TREEDEPTH
 70
  3020
  9
$CMLSTYLE
  2
Standard
  9
$CMLJUST
 70
     0
  9
$CMLSCALE
 40
20.0
  9
$PROXYGRAPHICS
 70
     1
  9
$MEASUREMENT
 70
     1
  9
$CELWEIGHT
370
    -1
  9
$ENDCAPS
280
     0
  9
$JOINSTYLE
280
     0
  9
$LWDISPLAY
290
     0
  9
$INSUNITS
 70
     4
  9
$HYPERLINKBASE
  1

  9
$STYLESHEET
  1

  9
$XEDIT
290
     1
  9
$CEPSNTYPE
380
     0
  9
$PSTYLEMODE
290
     1
  9
$FINGERPRINTGUID
  2
{39F50A40-EB01-49DA-A3BA-FE08ED782007}
  9
$VERSIONGUID
  2
{5CD84BEF-63CC-46A6-8C54-197006B97801}
  9
$EXTNAMES
290
     1
  9
$PSVPSCALE
 40
0.0
  9
$OLESTARTUP
290
     0
  9
$SORTENTS
280
   127
  9
$INDEXCTL
280
     0
  9
$HIDETEXT
280
     1
  9
$XCLIPFRAME
280
     0
  9
$HALOGAP
280
     0
  9
$OBSCOLOR
 70
   257
  9
$OBSLTYPE
280
     0
  9
$INTERSECTIONDISPLAY
280
     0
  9
$INTERSECTIONCOLOR
 70
   257
  9
$DIMASSOC
280
     1
  9
$PROJECTNAME
  1

  9
$CAMERADISPLAY
290
     0
  9
$LENSLENGTH
 40
50.0
  9
$CAMERAHEIGHT
 40
0.0
  9
$STEPSPERSEC
 40
2.0
  9
$STEPSIZE
 40
6.0
  9
$3DDWFPREC
 40
2.0
  9
$PSOLWIDTH
 40
0.25
  9
$PSOLHEIGHT
 40
4.0
  9
$LOFTANG1
 40
1.570796326794896
  9
$LOFTANG2
 40
1.570796326794896
  9
$LOFTMAG1
 40
0.0
  9
$LOFTMAG2
 40
0.0
  9
$LOFTPARAM
 70
     7
  9
$LOFTNORMALS
280
     1
  9
$LATITUDE
 40
37.795
  9
$LONGITUDE
 40
-122.394
  9
$NORTHDIRECTION
 40
0.0
  9
$TIMEZONE
 70
 -8000
  9
$LIGHTGLYPHDISPLAY
280
     1
  9
$TILEMODELIGHTSYNCH
280
     1
  9
$CMATERIAL
347
3D
  9
$SOLIDHIST
280
     1
  9
$SHOWHIST
280
     1
  9
$DWFFRAME
280
     2
  9
$DGNFRAME
280
     0
  9
$REALWORLDSCALE
290
     1
  9
$INTERFERECOLOR
 62
     1
  9
$INTERFEREOBJVS
345
54
  9
$INTERFEREVPVS
346
55
  9
$CSHADOW
280
     0
  9
$SHADOWPLANELOCATION
 40
0.0
  0
ENDSEC
  0
SECTION
  2
CLASSES
  0
CLASS
  1
ACDBDICTIONARYWDFLT
  2
AcDbDictionaryWithDefault
  3
ObjectDBX Classes
 90
        0
 91
        1
280
     0
281
     0
  0
CLASS
  1
MATERIAL
  2
AcDbMaterial
  3
ObjectDBX Classes
 90
     1153
 91
        3
280
     0
281
     0
  0
CLASS
  1
VISUALSTYLE
  2
AcDbVisualStyle
  3
ObjectDBX Classes
 90
     4095
 91
        3
280
     0
281
     0
  0
CLASS
  1
TABLESTYLE
  2
AcDbTableStyle
  3
ObjectDBX Classes
 90
     4095
 91
        1
280
     0
281
     0
  0
CLASS
  1
SCALE
  2
AcDbScale
  3
ObjectDBX Classes
 90
     1153
 91
       33
280
     0
281
     0
  0
CLASS
  1
MLEADERSTYLE
  2
AcDbMLeaderStyle
  3
ACDB_MLEADERSTYLE_CLASS
 90
     4095
 91
        0
280
     0
281
     0
  0
CLASS
  1
SORTENTSTABLE
  2
AcDbSortentsTable
  3
ObjectDBX Classes
 90
        0
 91
       10
280
     0
281
     0
  0
CLASS
  1
CELLSTYLEMAP
  2
AcDbCellStyleMap
  3
ObjectDBX Classes
 90
     1152
 91
        1
280
     0
281
     0
  0
CLASS
  1
DICTIONARYVAR
  2
AcDbDictionaryVar
  3
ObjectDBX Classes
 90
        0
 91
        7
280
     0
281
     0
  0
CLASS
  1
SOLID_BACKGROUND
  2
AcDbSolidBackground
  3
SCENEOE
 90
     4095
 91
        0
280
     0
281
     0
  0
CLASS
  1
NPOCOLLECTION
  2
AcDbImpNonPersistentObjectsCollection
  3
ObjectDBX Classes
 90
     1153
 91
        0
280
     0
281
     0
  0
CLASS
  1
ACDB_DYNAMICBLOCKPURGEPREVENTER_VERSION
  2
AcDbDynamicBlockPurgePreventer
  3
ObjectDBX Classes
 90
     1153
 91
        0
280
     0
281
     0
  0
CLASS
  1
ACAD_TABLE
  2
AcDbTable
  3
ObjectDBX Classes
 90
     1025
 91
        0
280
     0
281
     1
  0
CLASS
  1
TABLECONTENT
  2
AcDbTableContent
  3
ObjectDBX Classes
 90
     1152
 91
        0
280
     0
281
     0
  0
CLASS
  1
TABLEGEOMETRY
  2
AcDbTableGeometry
  3
ObjectDBX Classes
 90
     1152
 91
        0
280
     0
281
     0
  0
CLASS
  1
DIMASSOC
  2
AcDbDimAssoc
  3
"AcDbDimAssoc|Product Desc:     AcDim ARX App For Dimension|Company:          Autodesk, Inc.|WEB Address:      www.autodesk.com"
 90
        0
 91
        0
280
     0
281
     0
  0
CLASS
  1
EXACXREFPANELOBJECT
  2
ExAcXREFPanelObject
  3
EXAC_ESW
 90
     1025
 91
        0
280
     1
281
     0
  0
CLASS
  1
AEC_REFEDIT_STATUS_TRACKER
  2
AecDbRefEditStatusTracker
  3
AecArchBase60|Product Desc: Autodesk Architectural Desktop 2007 |Company: Autodesk,Inc. |WEB Address: www.autodesk.com
 90
      129
 91
        0
280
     0
281
     0
  0
CLASS
  1
ACDBASSOCNETWORK
  2
AcDbAssocNetwork
  3
ObjectDBX Classes
 90
     1025
 91
        0
280
     0
281
     0
  0
CLASS
  1
ACDBASSOC2DCONSTRAINTGROUP
  2
AcDbAssoc2dConstraintGroup
  3
ObjectDBX Classes
 90
     1025
 91
        0
280
     0
281
     0
  0
CLASS
  1
ACDBASSOCGEOMDEPENDENCY
  2
AcDbAssocGeomDependency
  3
ObjectDBX Classes
 90
     1025
 91
        0
280
     0
281
     0
  0
ENDSEC
  0
SECTION
  2
TABLES
  0
TABLE
  2
VPORT
  5
2D
102
{ACAD_XDICTIONARY
360
31
102
}
330
0
100
AcDbSymbolTable
 70
     1
  0
VPORT
  5
2E
330
2D
100
AcDbSymbolTableRecord
100
AcDbViewportTableRecord
  2
*Active
 70
     0
 10
0.0
 20
0.0
 11
1.0
 21
1.0
 12
319.9141898659927
 22
198.1285854072004
 13
0.0
 23
0.0
 14
10.0
 24
10.0
 15
10.0
 25
10.0
 16
0.0
 26
0.0
 36
1.0
 17
210.2026221644988
 27
148.4999782997198
 37
-0.0000000000006946
 40
930.7089651821227
 41
1.98076923076923
 42
50.0
 43
0.0
 44
0.0
 50
0.0
 51
0.0
 71
     0
 72
  1000
 73
     1
 74
     0
 75
     0
 76
     0
 77
     0
 78
     0
281
     0
 65
     1
110
0.0
120
0.0
130
0.0
111
1.0
121
0.0
131
0.0
112
0.0
122
1.0
132
0.0
 79
     0
146
0.0
348
2F
 60
     3
 61
     5
292
     1
282
     1
141
0.0
142
0.0
 63
   250
421
  3355443
  0
ENDTAB
  0
TABLE
  2
LTYPE
  5
28
330
0
100
AcDbSymbolTable
 70
     4
  0
LTYPE
  5
29
330
28
100
AcDbSymbolTableRecord
100
AcDbLinetypeTableRecord
  2
ByBlock
 70
     0
  3

 72
    65
 73
     0
 40
0.0
  0
LTYPE
  5
2A
330
28
100
AcDbSymbolTableRecord
100
AcDbLinetypeTableRecord
  2
ByLayer
 70
     0
  3

 72
    65
 73
     0
 40
0.0
  0
LTYPE
  5
15
330
28
100
AcDbSymbolTableRecord
100
AcDbLinetypeTableRecord
  2
Continuous
 70
     0
  3
Solid line
 72
    65
 73
     0
 40
0.0
  0
LTYPE
  5
4DD
330
28
100
AcDbSymbolTableRecord
100
AcDbLinetypeTableRecord
  2
AUSGEZOGEN
 70
     0
  3
Ausgezogene Linie
 72
    65
 73
     0
 40
0.0
  0
LTYPE
  5
97
330
28
100
AcDbSymbolTableRecord
100
AcDbLinetypeTableRecord
  2
VERDECKT
 70
     0
  3
__ __ __ __ __ __ __ __ __ __ __ __ __ __ __ __
 72
    65
 73
     2
 40
0.375
 49
0.25
 74
     0
 49
-0.125
 74
     0
  0
LTYPE
  5
1B0
330
28
100
AcDbSymbolTableRecord
100
AcDbLinetypeTableRecord
  2
STRICHPUNKT
 70
     0
  3
Strichpunkt __ . __ . __ . __ . __ . __ . __ . 
 72
    65
 73
     4
 40
1.0
 49
0.5
 74
     0
 49
-0.25
 74
     0
 49
0.0
 74
     0
 49
-0.25
 74
     0
  0
ENDTAB
  0
TABLE
  2
LAYER
  5
1F
102
{ACAD_XDICTIONARY
360
20
102
}
330
0
100
AcDbSymbolTable
 70
     9
  0
LAYER
  5
6
102
{ACAD_XDICTIONARY
360
7
102
}
330
1F
100
AcDbSymbolTableRecord
100
AcDbLayerTableRecord
  2
0
 70
     0
 62
     7
  6
Continuous
370
    -3
390
9
347
C
  0
LAYER
  5
81
330
1F
100
AcDbSymbolTableRecord
100
AcDbLayerTableRecord
  2
Defpoints
 70
     0
 62
     7
  6
Continuous
290
     0
370
    -3
390
9
347
C
  0
LAYER
  5
49D
102
{ACAD_XDICTIONARY
360
49E
102
}
330
1F
100
AcDbSymbolTableRecord
100
AcDbLayerTableRecord
  2
01-99
 70
     0
 62
     2
  6
Continuous
370
    -3
390
9
347
C
  0
LAYER
  5
4DA
102
{ACAD_XDICTIONARY
360
4DB
102
}
330
1F
100
AcDbSymbolTableRecord
100
AcDbLayerTableRecord
  2
06-99
 70
     0
 62
     1
  6
AUSGEZOGEN
370
    -3
390
9
347
C
  0
LAYER
  5
4C4
102
{ACAD_XDICTIONARY
360
4C5
102
}
330
1F
100
AcDbSymbolTableRecord
100
AcDbLayerTableRecord
  2
08-99
 70
     0
 62
     7
  6
Continuous
370
    -3
390
9
347
C
  0
LAYER
  5
10F
102
{ACAD_XDICTIONARY
360
110
102
}
330
1F
100
AcDbSymbolTableRecord
100
AcDbLayerTableRecord
  2
02-01
 70
     0
 62
     1
  6
Continuous
370
    -3
390
9
347
C
  0
LAYER
  5
95
102
{ACAD_XDICTIONARY
360
96
102
}
330
1F
100
AcDbSymbolTableRecord
100
AcDbLayerTableRecord
  2
03-01
 70
     0
 62
     3
  6
VERDECKT
370
    -3
390
9
347
C
  0
LAYER
  5
1AE
102
{ACAD_XDICTIONARY
360
1AF
102
}
330
1F
100
AcDbSymbolTableRecord
100
AcDbLayerTableRecord
  2
05-01
 70
     0
 62
     1
  6
STRICHPUNKT
370
    -3
390
9
347
C
  0
LAYER
  5
18F
102
{ACAD_XDICTIONARY
360
190
102
}
330
1F
100
AcDbSymbolTableRecord
100
AcDbLayerTableRecord
  2
09-01
 70
     0
 62
     7
  6
Continuous
370
    -3
390
9
347
C
  0
ENDTAB
  0
TABLE
  2
STYLE
  5
25
330
0
100
AcDbSymbolTable
 70
     4
  0
STYLE
  5
26
330
25
100
AcDbSymbolTableRecord
100
AcDbTextStyleTableRecord
  2
Standard
 70
     0
 40
0.0
 41
1.0
 50
0.0
 71
     0
 42
50.0
  3
txt
  4

  0
STYLE
  5
4C7
330
25
100
AcDbSymbolTableRecord
100
AcDbTextStyleTableRecord
  2
ROMANS8
 70
     0
 40
0.0
 41
1.0
 50
0.0
 71
     0
 42
2.5
  3
ROMANS8
  4

  0
STYLE
  5
35
330
25
100
AcDbSymbolTableRecord
100
AcDbTextStyleTableRecord
  2
ROMANS
 70
     0
 40
0.0
 41
1.0
 50
0.0
 71
     0
 42
18.0
  3
ROMANS.SHX
  4

  0
STYLE
  5
4EE
330
25
100
AcDbSymbolTableRecord
100
AcDbTextStyleTableRecord
  2
ROMAND8
 70
     0
 40
0.0
 41
1.0
 50
0.0
 71
     0
 42
3.5
  3
ROMAND8
  4

  0
ENDTAB
  0
TABLE
  2
VIEW
  5
2B
330
0
100
AcDbSymbolTable
 70
     0
  0
ENDTAB
  0
TABLE
  2
UCS
  5
2C
330
0
100
AcDbSymbolTable
 70
     0
  0
ENDTAB
  0
TABLE
  2
APPID
  5
32
330
0
100
AcDbSymbolTable
 70
     5
  0
APPID
  5
24
330
32
100
AcDbSymbolTableRecord
100
AcDbRegAppTableRecord
  2
ACAD
 70
     0
  0
APPID
  5
37
330
32
100
AcDbSymbolTableRecord
100
AcDbRegAppTableRecord
  2
ACAD_DSTYLE_DIMJAG
 70
     0
  0
APPID
  5
36
330
32
100
AcDbSymbolTableRecord
100
AcDbRegAppTableRecord
  2
ACAD_DSTYLE_DIMBREAK
 70
     0
  0
APPID
  5
38
330
32
100
AcDbSymbolTableRecord
100
AcDbRegAppTableRecord
  2
ACAD_DSTYLE_DIMTALN
 70
     0
  0
APPID
  5
86
330
32
100
AcDbSymbolTableRecord
100
AcDbRegAppTableRecord
  2
ACAD_DSTYLE_DIMJOGGED_JOGANGLE_SYMBOL
 70
     0
  0
ENDTAB
  0
TABLE
  2
DIMSTYLE
  5
33
330
0
100
AcDbSymbolTable
 70
     2
100
AcDbDimStyleTable
 71
     1
340
34
  0
DIMSTYLE
105
34
330
33
100
AcDbSymbolTableRecord
100
AcDbDimStyleTableRecord
  2
Wagner
 70
     0
 40
10.0
 41
2.5
 42
0.625
 43
0.0
 44
1.25
 73
     0
 74
     0
 77
     1
 78
     8
 79
     2
140
2.5
141
2.5
143
0.03937007874016
147
0.625
171
     3
172
     1
176
     4
177
     4
178
     1
179
     2
271
     8
272
     8
274
     3
278
    44
279
     2
283
     0
284
     8
340
35
1001
ACAD_DSTYLE_DIMBREAK
1070
   391
1040
3.75
1001
ACAD_DSTYLE_DIMJAG
1070
   388
1040
1.5
1001
ACAD_DSTYLE_DIMTALN
1070
   392
1070
     0
  0
DIMSTYLE
105
85
102
{ACAD_REACTORS
330
3EC
330
291
330
284
330
225
330
218
330
20B
330
1FE
330
1EF
330
1E0
330
1D1
330
101
330
F4
330
E7
330
87
330
77
102
}
330
33
100
AcDbSymbolTableRecord
100
AcDbDimStyleTableRecord
  2
Wagner$0
 70
     0
 41
2.5
 42
1.0
 43
10.0
 44
1.0
 73
     0
 74
     0
 77
     1
 78
     8
 79
     2
140
2.5
141
0.0
143
0.03937007874016
147
1.0
171
     3
172
     1
174
     1
176
     4
177
     4
178
     1
179
     2
271
     8
272
     8
274
     3
279
     2
283
     0
284
     8
340
26
1001
ACAD_DSTYLE_DIMJOGGED_JOGANGLE_SYMBOL
1070
   384
1040
0.7853981633974483
1001
ACAD_DSTYLE_DIMJAG
1070
   388
1040
1.5
1001
ACAD_DSTYLE_DIMTALN
1070
   392
1070
     0
  0
ENDTAB
  0
TABLE
  2
BLOCK_RECORD
  5
1
330
0
100
AcDbSymbolTable
 70
    20
  0
BLOCK_RECORD
  5
2
102
{ACAD_XDICTIONARY
360
3
102
}
330
1
100
AcDbSymbolTableRecord
100
AcDbBlockTableRecord
  2
*Model_Space
340
17
 70
     0
280
     1
281
     0
  0
BLOCK_RECORD
  5
1B
330
1
100
AcDbSymbolTableRecord
100
AcDbBlockTableRecord
  2
*Paper_Space
340
1E
 70
     0
280
     1
281
     0
  0
BLOCK_RECORD
  5
498
102
{ACAD_XDICTIONARY
360
499
102
}
330
1
100
AcDbSymbolTableRecord
100
AcDbBlockTableRecord
  2
DIN A4 Quer
340
0
102
{BLKREFS
331
497
102
}
 70
     4
280
     1
281
     0
  0
BLOCK_RECORD
  5
2F1
330
1
100
AcDbSymbolTableRecord
100
AcDbBlockTableRecord
  2
Pumpe 037021-V
340
0
310
2800000020000000200000000100080000000000000400000000000000000000000000000000000000000000000080000080000000808000800000008000800080800000C0C0C000C0DCC000F0CAA6000020400000206000002080000020A0000020C0000020E00000400000004020000040400000406000004080000040A0
310
000040C0000040E00000600000006020000060400000606000006080000060A0000060C0000060E00000800000008020000080400000806000008080000080A0000080C0000080E00000A0000000A0200000A0400000A0600000A0800000A0A00000A0C00000A0E00000C0000000C0200000C0400000C0600000C0800000C0
310
A00000C0C00000C0E00000E0000000E0200000E0400000E0600000E0800000E0A00000E0C00000E0E00040000000400020004000400040006000400080004000A0004000C0004000E00040200000402020004020400040206000402080004020A0004020C0004020E000404000004040200040404000404060004040800040
310
40A0004040C0004040E00040600000406020004060400040606000406080004060A0004060C0004060E00040800000408020004080400040806000408080004080A0004080C0004080E00040A0000040A0200040A0400040A0600040A0800040A0A00040A0C00040A0E00040C0000040C0200040C0400040C0600040C08000
310
40C0A00040C0C00040C0E00040E0000040E0200040E0400040E0600040E0800040E0A00040E0C00040E0E00080000000800020008000400080006000800080008000A0008000C0008000E00080200000802020008020400080206000802080008020A0008020C0008020E00080400000804020008040400080406000804080
310
008040A0008040C0008040E00080600000806020008060400080606000806080008060A0008060C0008060E00080800000808020008080400080806000808080008080A0008080C0008080E00080A0000080A0200080A0400080A0600080A0800080A0A00080A0C00080A0E00080C0000080C0200080C0400080C0600080C0
310
800080C0A00080C0C00080C0E00080E0000080E0200080E0400080E0600080E0800080E0A00080E0C00080E0E000C0000000C0002000C0004000C0006000C0008000C000A000C000C000C000E000C0200000C0202000C0204000C0206000C0208000C020A000C020C000C020E000C0400000C0402000C0404000C0406000C0
310
408000C040A000C040C000C040E000C0600000C0602000C0604000C0606000C0608000C060A000C060C000C060E000C0800000C0802000C0804000C0806000C0808000C080A000C080C000C080E000C0A00000C0A02000C0A04000C0A06000C0A08000C0A0A000C0A0C000C0A0E000C0C00000C0C02000C0C04000C0C06000
310
C0C08000C0C0A000F0FBFF00A4A0A000808080000000FF0000FF000000FFFF00FF000000FF00FF00FFFF0000FFFFFF00000000000000000000000000000000000000000000000000000000000000000000000000000000000000000000FFFFFFFFFFFF0000000000000000000000000000000000000000000000000000FF00
310
000000FF0000000000000000000000000000000000000000000000000000FF00000000FF0000000000000000000000000000000000000000000000000000FF00000000FF0000000000000000000000000000000000000000000000000000FFFFFFFFFFFF0000000000000000000000000000000000000000000000000000FF
310
00000000FF0000000000000000000000000000000000000000000000000000FFFFFFFFFFFF0000000000000000000000000000000000000000000000000000FFFF0000FFFF0000000000000000000000000000000000000000000000FFFFFFFAFAFFFFFAFAFFFFFF0000000000000000000000000000000000000000FF0000
310
FAFA0000FAFA0000FF0000000000000000000000000000000000000000FF00FAFAFA0000FAFAFA00FF0000000000000000000000000000000000000000FF00FAFAFAFAFAFAFAFA00FF0000000000000000000000000000000000000000FF0000FAFA0000FAFA0000FF0000000000000000000000000000000000000000FF00
310
00FAFA0000FAFA0000FF0000000000000000000000000000000000000000FF0000FAFA0000FAFA0000FF0000000000000000000000000000000000000000FF0000FAFA0000FAFA0000FF0000000000000000000000000000000000000000FF00FAFAFA0000FAFAFA00FF0000000000000000000000000000000000000000FF
310
0000FAFA0000FAFA0000FF0000000000000000000000000000000000000000FFFFFFFFFFFFFFFFFFFFFFFA0000000000000000000000000000000000000000FA00000000000000000000FA0000000000000000000000000000000000000000FA00000000000000000000FA0000000000000000000000000000000000000000
310
FA00000000000000000000FA0000000000000000000000000000000000000000FA00000000000000000000FA0000000000000000000000000000000000000000FA00000000000000000000FA0000000000000000000000000000000000000000FA00000000000000000000FA00000000000000000000000000000000000000
310
00FA00000000000000000000FA0000000000000000000000000000000000000000FAFAFAFAFAFAFAFAFAFAFAFA0000000000000000000000000000000000000000FAFAFAFAFAFAFAFAFAFAFAFA0000000000000000000000000000000000000000FFFFFFFFFFFFFFFFFFFFFFFF000000000000000000000000000000000000
310
000000FFFFFFFFFFFFFFFFFFFF00000000000000000000000000000000000000000000000000000000000000000000000000000000000000
102
{BLKREFS
331
2F0
102
}
 70
     4
280
     1
281
     1
  0
BLOCK_RECORD
  5
3ED
330
1
100
AcDbSymbolTableRecord
100
AcDbBlockTableRecord
  2
*D2
340
0
 70
     0
280
     1
281
     0
  0
BLOCK_RECORD
  5
292
330
1
100
AcDbSymbolTableRecord
100
AcDbBlockTableRecord
  2
*D3
340
0
 70
     0
280
     1
281
     0
  0
BLOCK_RECORD
  5
285
330
1
100
AcDbSymbolTableRecord
100
AcDbBlockTableRecord
  2
*D4
340
0
 70
     0
280
     1
281
     0
  0
BLOCK_RECORD
  5
226
330
1
100
AcDbSymbolTableRecord
100
AcDbBlockTableRecord
  2
*D5
340
0
 70
     0
280
     1
281
     0
  0
BLOCK_RECORD
  5
219
330
1
100
AcDbSymbolTableRecord
100
AcDbBlockTableRecord
  2
*D6
340
0
 70
     0
280
     1
281
     0
  0
BLOCK_RECORD
  5
20C
330
1
100
AcDbSymbolTableRecord
100
AcDbBlockTableRecord
  2
*D7
340
0
 70
     0
280
     1
281
     0
  0
BLOCK_RECORD
  5
1FF
330
1
100
AcDbSymbolTableRecord
100
AcDbBlockTableRecord
  2
*D8
340
0
 70
     0
280
     1
281
     0
  0
BLOCK_RECORD
  5
1F0
330
1
100
AcDbSymbolTableRecord
100
AcDbBlockTableRecord
  2
*D9
340
0
 70
     0
280
     1
281
     0
  0
BLOCK_RECORD
  5
1E1
330
1
100
AcDbSymbolTableRecord
100
AcDbBlockTableRecord
  2
*D10
340
0
 70
     0
280
     1
281
     0
  0
BLOCK_RECORD
  5
1D2
330
1
100
AcDbSymbolTableRecord
100
AcDbBlockTableRecord
  2
*D11
340
0
 70
     0
280
     1
281
     0
  0
BLOCK_RECORD
  5
112
102
{ACAD_XDICTIONARY
360
113
102
}
330
1
100
AcDbSymbolTableRecord
100
AcDbBlockTableRecord
  2
desipumpe_sa
340
0
102
{BLKREFS
331
10E
102
}
 70
     0
280
     1
281
     0
  0
BLOCK_RECORD
  5
98
102
{ACAD_XDICTIONARY
360
99
102
}
330
1
100
AcDbSymbolTableRecord
100
AcDbBlockTableRecord
  2
desipumpe_dr
340
0
102
{BLKREFS
331
94
102
}
 70
     0
280
     1
281
     0
  0
BLOCK_RECORD
  5
16D
102
{ACAD_XDICTIONARY
360
16E
102
}
330
1
100
AcDbSymbolTableRecord
100
AcDbBlockTableRecord
  2
zughebel
340
0
102
{BLKREFS
331
16C
102
}
 70
     0
280
     1
281
     0
  0
BLOCK_RECORD
  5
102
330
1
100
AcDbSymbolTableRecord
100
AcDbBlockTableRecord
  2
*D15
340
0
 70
     0
280
     1
281
     0
  0
BLOCK_RECORD
  5
F5
330
1
100
AcDbSymbolTableRecord
100
AcDbBlockTableRecord
  2
*D16
340
0
 70
     0
280
     1
281
     0
  0
BLOCK_RECORD
  5
E8
330
1
100
AcDbSymbolTableRecord
100
AcDbBlockTableRecord
  2
*D17
340
0
 70
     0
280
     1
281
     0
  0
BLOCK_RECORD
  5
88
330
1
100
AcDbSymbolTableRecord
100
AcDbBlockTableRecord
  2
*D18
340
0
 70
     0
280
     1
281
     0
  0
BLOCK_RECORD
  5
78
330
1
100
AcDbSymbolTableRecord
100
AcDbBlockTableRecord
  2
*D19
340
0
 70
     0
280
     1
281
     0
  0
ENDTAB
  0
ENDSEC
  0
SECTION
  2
BLOCKS
  0
BLOCK
  5
5
330
2
100
AcDbEntity
  8
0
100
AcDbBlockBegin
  2
*Model_Space
 70
     0
 10
0.0
 20
0.0
 30
0.0
  3
*Model_Space
  1

  0
ENDBLK
  5
16
330
2
100
AcDbEntity
  8
0
100
AcDbBlockEnd
  0
BLOCK
  5
1C
330
1B
100
AcDbEntity
 67
     1
  8
0
100
AcDbBlockBegin
  2
*Paper_Space
 70
     0
 10
0.0
 20
0.0
 30
0.0
  3
*Paper_Space
  1

  0
ENDBLK
  5
1D
330
1B
100
AcDbEntity
 67
     1
  8
0
100
AcDbBlockEnd
  0
BLOCK
  5
49B
330
498
100
AcDbEntity
  8
0
100
AcDbBlockBegin
  2
DIN A4 Quer
 70
     2
 10
0.0
 20
0.0
 30
0.0
  3
DIN A4 Quer
  1

  0
LINE
  5
49C
330
498
100
AcDbEntity
  8
01-99
100
AcDbLine
 10
6.000001890710336
 20
6.000000518749175
 30
0.0
 11
6.000001890710223
 21
204.0000005187492
 31
0.0
  0
LINE
  5
4A0
330
498
100
AcDbEntity
  8
01-99
100
AcDbLine
 10
6.000001890710223
 20
204.0000005187492
 30
0.0
 11
291.0000018907103
 21
204.0000005187492
 31
0.0
  0
LINE
  5
4A1
330
498
100
AcDbEntity
  8
02-01
100
AcDbLine
 10
297.0000018907104
 20
210.0000005187492
 30
0.0
 11
0.0000018907103367
 21
210.0000005187492
 31
0.0
  0
LINE
  5
4A2
330
498
100
AcDbEntity
  8
02-01
100
AcDbLine
 10
0.0000018907103367
 20
210.0000005187492
 30
0.0
 11
0.0000018907103367
 21
0.0000005187491752
 31
0.0
  0
LINE
  5
4A3
330
498
100
AcDbEntity
  8
01-99
100
AcDbLine
 10
291.0000018907103
 20
6.000000518749288
 30
0.0
 11
291.0000018907103
 21
204.0000005187492
 31
0.0
  0
LINE
  5
4A4
330
498
100
AcDbEntity
  8
01-99
100
AcDbLine
 10
291.0000018907103
 20
6.000000518749288
 30
0.0
 11
6.000001890710336
 21
6.000000518749175
 31
0.0
  0
LINE
  5
4A5
330
498
100
AcDbEntity
  8
02-01
100
AcDbLine
 10
0.0000018907103367
 20
0.0000005187491752
 30
0.0
 11
297.0000018907104
 21
0.0000005187491752
 31
0.0
  0
LINE
  5
4A6
330
498
100
AcDbEntity
  8
02-01
100
AcDbLine
 10
297.0000018907104
 20
0.0000005187491752
 30
0.0
 11
297.0000018907104
 21
210.0000005187492
 31
0.0
  0
LINE
  5
4A7
330
498
100
AcDbEntity
  8
01-99
100
AcDbLine
 10
157.0000018907103
 20
11.11111162974919
 30
0.0
 11
107.0000018907103
 21
11.11111162974919
 31
0.0
  0
LINE
  5
4A8
330
498
100
AcDbEntity
  8
01-99
100
AcDbLine
 10
157.0000018907103
 20
16.2222227407492
 30
0.0
 11
107.0000018907103
 21
16.2222227407492
 31
0.0
  0
LINE
  5
4A9
330
498
100
AcDbEntity
  8
01-99
100
AcDbLine
 10
157.0000018907103
 20
21.33333385174922
 30
0.0
 11
107.0000018907103
 21
21.33333385174916
 31
0.0
  0
LINE
  5
4AA
330
498
100
AcDbEntity
  8
01-99
100
AcDbLine
 10
202.0000018907103
 20
26.44444496274923
 30
0.0
 11
107.0000018907103
 21
26.44444496274918
 31
0.0
  0
LINE
  5
4AB
330
498
100
AcDbEntity
  8
01-99
100
AcDbLine
 10
202.0000018907103
 20
31.55555607374925
 30
0.0
 11
107.0000018907103
 21
31.55555607374919
 31
0.0
  0
LINE
  5
4AC
330
498
100
AcDbEntity
  8
01-99
100
AcDbLine
 10
132.0000018907103
 20
6.000000518749175
 30
0.0
 11
132.0000018907103
 21
11.11111162974919
 31
0.0
  0
LINE
  5
4AD
330
498
100
AcDbEntity
  8
01-99
100
AcDbLine
 10
115.0000018907103
 20
11.11111162974919
 30
0.0
 11
115.0000018907103
 21
36.66666718541586
 31
0.0
  0
LINE
  5
4AE
330
498
100
AcDbEntity
  8
01-99
100
AcDbLine
 10
157.0000018907103
 20
6.000000518749175
 30
0.0
 11
157.0000018907103
 21
52.00000051874917
 31
0.0
  0
LINE
  5
4AF
330
498
100
AcDbEntity
  8
01-99
100
AcDbLine
 10
202.0000018907103
 20
6.000000518749175
 30
0.0
 11
202.0000018907103
 21
52.00000051874917
 31
0.0
  0
LINE
  5
4B0
330
498
100
AcDbEntity
  8
01-99
100
AcDbLine
 10
231.5000018907103
 20
6.000000518749175
 30
0.0
 11
231.5000018907103
 21
16.22222274074926
 31
0.0
  0
LINE
  5
4B1
330
498
100
AcDbEntity
  8
01-99
100
AcDbLine
 10
264.0000018907104
 20
6.000000518749175
 30
0.0
 11
264.0000018907104
 21
16.22222274074931
 31
0.0
  0
LINE
  5
4B2
330
498
100
AcDbEntity
  8
01-99
100
AcDbLine
 10
235.5000018907103
 20
36.66666718541592
 30
0.0
 11
235.5000018907103
 21
52.00000051874929
 31
0.0
  0
LINE
  5
4B3
330
498
100
AcDbEntity
  8
01-99
100
AcDbLine
 10
269.0000018907103
 20
36.66666718541592
 30
0.0
 11
269.0000018907103
 21
52.00000051874929
 31
0.0
  0
LINE
  5
4B4
330
498
100
AcDbEntity
  8
01-99
100
AcDbLine
 10
165.0000018907103
 20
21.33333385208254
 30
0.0
 11
165.0000018907103
 21
36.66666718541592
 31
0.0
  0
LINE
  5
4B5
330
498
100
AcDbEntity
  8
01-99
100
AcDbLine
 10
147.0031902301398
 20
11.11111162974919
 30
0.0
 11
147.0031902301398
 21
36.66666718541586
 31
0.0
  0
LINE
  5
4B6
330
498
100
AcDbEntity
  8
01-99
100
AcDbLine
 10
135.0031902301398
 20
11.11111162974919
 30
0.0
 11
135.0031902301398
 21
36.66666718541586
 31
0.0
  0
LINE
  5
4B7
330
498
100
AcDbEntity
  8
01-99
100
AcDbLine
 10
291.0000018907103
 20
52.00000051874929
 30
0.0
 11
107.0000018907085
 21
52.00000051874917
 31
0.0
  0
LINE
  5
4B8
330
498
100
AcDbEntity
  8
01-99
100
AcDbLine
 10
202.0000018907103
 20
21.33333385208254
 30
0.0
 11
157.0000018907103
 21
21.33333385208254
 31
0.0
  0
LINE
  5
4B9
330
498
100
AcDbEntity
  8
01-99
100
AcDbLine
 10
202.0000018907103
 20
36.66666718541592
 30
0.0
 11
107.0000018907103
 21
36.66666718541581
 31
0.0
  0
LINE
  5
4BA
330
498
100
AcDbEntity
  8
01-99
100
AcDbLine
 10
179.0000018907103
 20
21.33333385208254
 30
0.0
 11
179.0000018907103
 21
52.00000051874923
 31
0.0
  0
LINE
  5
4BB
330
498
100
AcDbEntity
  8
01-99
100
AcDbLine
 10
157.0000018907103
 20
36.66666718541586
 30
0.0
 11
165.0000018907103
 21
31.5555560854159
 31
0.0
  0
LINE
  5
4BC
330
498
100
AcDbEntity
  8
01-99
100
AcDbLine
 10
157.0000018907103
 20
31.5555560854159
 30
0.0
 11
165.0000018907103
 21
36.66666718541592
 31
0.0
  0
LINE
  5
4BD
330
498
100
AcDbEntity
  8
01-99
100
AcDbLine
 10
291.0000018907103
 20
44.33333385208254
 30
0.0
 11
202.0000018907103
 21
44.33333385208249
 31
0.0
  0
LINE
  5
4BE
330
498
100
AcDbEntity
  8
01-99
100
AcDbLine
 10
202.0000018907103
 20
16.2222227407492
 30
0.0
 11
291.0000018907103
 21
16.22222274074931
 31
0.0
  0
LINE
  5
4BF
330
498
100
AcDbEntity
  8
01-99
100
AcDbLine
 10
202.0000018907103
 20
36.66666718541592
 30
0.0
 11
291.0000018907103
 21
36.66666718541597
 31
0.0
  0
LINE
  5
4C0
330
498
100
AcDbEntity
  8
01-99
100
AcDbLine
 10
179.0000018907103
 20
41.7777782967492
 30
0.0
 11
157.0000018907103
 21
41.7777782967492
 31
0.0
  0
LINE
  5
4C1
330
498
100
AcDbEntity
  8
01-99
100
AcDbLine
 10
179.0000018907103
 20
46.88888940774922
 30
0.0
 11
157.0000018907103
 21
46.88888940774916
 31
0.0
  0
LINE
  5
4C2
330
498
100
AcDbEntity
  8
01-99
100
AcDbLine
 10
107.0000018907085
 20
52.00000051874917
 30
0.0
 11
107.0000018907085
 21
6.000000518749175
 31
0.0
  0
TEXT
  5
4C3
330
498
100
AcDbEntity
  8
08-99
100
AcDbText
 10
203.4997030590166
 20
32.66987422660714
 30
0.0
 40
2.5
  1
Benennung/Teil:
 51
15.0
  7
ROMANS8
100
AcDbText
  0
TEXT
  5
4C8
330
498
100
AcDbEntity
  8
08-99
100
AcDbText
 10
265.5028293382777
 20
12.01760321297985
 30
0.0
 40
2.7
  1
Ident-Nr.
 51
15.0
  7
ROMANS8
100
AcDbText
  0
TEXT
  5
4C9
330
498
100
AcDbEntity
  8
08-99
100
AcDbText
 10
180.5000236238784
 20
33.05557748053161
 30
0.0
 40
2.5
  1
Name:
 51
15.0
  7
ROMANS8
100
AcDbText
  0
TEXT
  5
4CA
330
498
100
AcDbEntity
  8
08-99
100
AcDbText
 10
166.5077710332552
 20
33.04841847975365
 30
0.0
 40
2.5
  1
Datum:
 50
0.102528160689452
 41
0.8933771909280748
 51
15.0
  7
ROMANS8
 72
     5
 11
177.6749680403372
 21
33.06840168621363
 31
0.0
100
AcDbText
  0
TEXT
  5
4CB
330
498
100
AcDbEntity
  8
08-99
100
AcDbText
 10
116.5000099724457
 20
33.05597761772907
 30
0.0
 40
1.6
  1
Änderung:
 51
15.0
  7
ROMANS8
100
AcDbText
  0
TEXT
  5
4CC
330
498
100
AcDbEntity
  8
08-99
100
AcDbText
 10
133.4999399664632
 20
9.111119817911628
 30
0.0
 40
1.0
  1
ERSETZT.DURCH:
 51
15.0
  7
ROMANS8
100
AcDbText
  0
TEXT
  5
4CD
330
498
100
AcDbEntity
  8
08-99
100
AcDbText
 10
108.499362706382
 20
9.110854721685427
 30
0.0
 40
1.0
  1
ERSETZT.FÜR:
 51
15.0
  7
ROMANS8
100
AcDbText
  0
TEXT
  5
4CE
330
498
100
AcDbEntity
  8
08-99
100
AcDbText
 10
232.9909087328646
 20
12.61295738281296
 30
0.0
 40
2.112
  1
AUFTRAGS.NR.:
 51
15.0
  7
ROMANS8
100
AcDbText
  0
TEXT
  5
4CF
330
498
100
AcDbEntity
  8
08-99
100
AcDbText
 10
203.5034660957227
 20
12.61092917477953
 30
0.0
 40
2.112
  1
Sonder-Nr:
 51
15.0
  7
ROMANS8
100
AcDbText
  0
TEXT
  5
4D0
330
498
100
AcDbEntity
  8
08-99
100
AcDbText
 10
186.6963093857886
 20
49.92370902579148
 30
0.0
 40
1.349999999999999
  1
Format
 51
15.0
  7
ROMANS8
100
AcDbText
  0
TEXT
  5
4D1
330
498
100
AcDbEntity
  8
08-99
100
AcDbText
 10
185.3043816374782
 20
44.64161931184992
 30
0.0
 40
1.822499999999999
  1
Normen
 51
15.0
  7
ROMANS8
100
AcDbText
  0
TEXT
  5
4D2
330
498
100
AcDbEntity
  8
08-99
100
AcDbText
 10
108.5000314946119
 20
33.0555683543073
 30
0.0
 40
1.6
  1
Zust.
 51
15.0
  7
ROMANS8
100
AcDbText
  0
TEXT
  5
4D3
330
498
100
AcDbEntity
  8
08-99
100
AcDbText
 10
136.5031825918795
 20
33.05555977024574
 30
0.0
 40
1.6
  1
Datum:
 51
15.0
  7
ROMANS8
100
AcDbText
  0
TEXT
  5
4D4
330
498
100
AcDbEntity
  8
08-99
100
AcDbText
 10
148.5032155076424
 20
33.05556457669462
 30
0.0
 40
1.6
  1
Name:
 51
15.0
  7
ROMANS8
100
AcDbText
  0
TEXT
  5
4D5
330
498
100
AcDbEntity
  8
08-99
100
AcDbText
 10
158.1545563363015
 20
28.03814008669803
 30
0.0
 40
1.6
  1
Erst.
 51
15.0
  7
ROMANS8
100
AcDbText
  0
TEXT
  5
4D6
330
498
100
AcDbEntity
  8
08-99
100
AcDbText
 10
157.517182253021
 20
23.19745157817022
 30
0.0
 40
1.6
  1
Bearb.
 51
15.0
  7
ROMANS8
100
AcDbText
  0
TEXT
  5
4D7
330
498
100
AcDbEntity
  8
08-99
100
AcDbText
 10
236.4308068024784
 20
41.61949801145603
 30
0.0
 40
2.0
  1
Zuschnittsbreite:
 51
15.0
  7
ROMANS8
100
AcDbText
  0
TEXT
  5
4D8
330
498
100
AcDbEntity
  8
08-99
100
AcDbText
 10
202.9849966647425
 20
41.73762414686279
 30
0.0
 40
2.0
  1
Zuschnittslänge:
 51
15.0
  7
ROMANS8
100
AcDbText
  0
LWPOLYLINE
  5
4D9
330
498
100
AcDbEntity
  8
06-99
100
AcDbPolyline
 90
      133
 70
     1
 43
0.010692
 10
180.7675417027103
 20
18.87656536808259
 10
181.0090490347104
 20
19.08724766408261
 10
180.9228536947104
 20
19.2262579200825
 10
180.8242663267103
 20
19.35180694808264
 10
180.7136290747105
 20
19.46394108008263
 10
180.5912983387103
 20
19.56271377608249
 10
180.4576162627104
 20
19.64816424008256
 10
180.3129285547104
 20
19.72033880408253
 10
180.1575880507104
 20
19.77929092808256
 10
179.9919368947105
 20
19.82505981608255
 10
179.8163243587104
 20
19.85769180008265
 10
179.6310997147105
 20
19.87724034008261
 10
179.4366086707105
 20
19.88374464008257
 10
179.2756833787104
 20
19.87768227608256
 10
179.1199437067102
 20
19.85975892008253
 10
178.9697211067105
 20
19.83036304808269
 10
178.8253505947104
 20
19.78989026408254
 10
178.6871636227104
 20
19.73873617208267
 10
178.5554845147104
 20
19.67729281208255
 10
178.4306554147105
 20
19.60595222408256
 10
178.3130006467104
 20
19.52510644808251
 10
178.2028516627103
 20
19.43514752408259
 10
178.1005470427104
 20
19.33647462008258
 10
178.0064075467105
 20
19.2294726480826
 10
177.9207717547105
 20
19.1145443400826
 10
177.8439711187104
 20
18.99207460808259
 10
177.7763335267104
 20
18.86245905608262
 10
177.7181939947104
 20
18.72608972408255
 10
177.6698804107104
 20
18.58336578008254
 10
177.6317242267105
 20
18.43467213608255
 10
177.6040640227103
 20
18.28040796008252
 10
177.5872205587104
 20
18.12096172808259
 10
177.5815359787104
 20
17.95672904408258
 10
177.5871492787104
 20
17.78762437208263
 10
177.6038002867105
 20
17.62428981608258
 10
177.6311896267102
 20
17.46704257208256
 10
177.6690179227102
 20
17.31619627208249
 10
177.7169893627103
 20
17.17206454808257
 10
177.7748081347105
 20
17.0349610320826
 10
177.8421784267104
 20
16.90519579208256
 10
177.9188008627104
 20
16.78308602408253
 10
178.0043796307104
 20
16.66894179608255
 10
178.0986224827104
 20
16.56308030408257
 10
178.2012229147103
 20
16.46581161608259
 10
178.3118958067103
 20
16.3774529280825
 10
178.4303346547105
 20
16.29831430808264
 10
178.5562472107103
 20
16.22870938808262
 10
178.6893340987103
 20
16.16895536408253
 10
178.8293030707103
 20
16.11936230408258
 10
178.9758511867105
 20
16.08024384008263
 10
179.1286897627103
 20
16.05191360408264
 10
179.2875122947104
 20
16.03468522808259
 10
179.4520300987104
 20
16.02887234408263
 10
179.6160275587104
 20
16.03412568008258
 10
179.7733603387104
 20
16.04976451208262
 10
179.9238395467104
 20
16.07559638408259
 10
180.0672762907103
 20
16.11142884008262
 10
180.2034852427104
 20
16.15707298808257
 10
180.3322739467103
 20
16.21233993608257
 10
180.4534570747104
 20
16.27703722808258
 10
180.5668386067104
 20
16.3509795360826
 10
180.6722403427104
 20
16.43397440408256
 10
180.7694626987104
 20
16.52582581208259
 10
180.8583239107104
 20
16.62635556008257
 10
180.9386350867105
 20
16.73536050008255
 10
181.0102037707104
 20
16.85266243208258
 10
181.0728410707104
 20
16.97806177208258
 10
181.1263616587105
 20
17.11137319208251
 10
181.1705766427103
 20
17.25240423608255
 10
181.2052900027104
 20
17.40096601208256
 10
181.2303235387104
 20
17.55686962808261
 10
181.2454812307105
 20
17.71992619208254
 10
181.2505741867103
 20
17.88993968408255
 10
181.2505741867103
 20
17.88993968408255
 10
181.2505741867103
 20
17.9413218720826
 10
179.6164659307104
 20
17.9413218720826
 10
179.6164659307104
 20
17.65355025608255
 10
180.8857275067103
 20
17.65355025608255
 10
180.8749891747103
 20
17.49100690808257
 10
180.8476568587103
 20
17.33636138408258
 10
180.8044362307105
 20
17.19027658808261
 10
180.7460329627104
 20
17.05341898808257
 10
180.6731598547105
 20
16.9264443600826
 10
180.5865261427104
 20
16.8100263000826
 10
180.4868303707104
 20
16.7048170200826
 10
180.3747889027104
 20
16.61149011608256
 10
180.2511074107103
 20
16.53069780008258
 10
180.1164915667104
 20
16.4631101040826
 10
179.9716506067103
 20
16.40938636808255
 10
179.8172937667104
 20
16.37019306008267
 10
179.6541267187105
 20
16.34618952008253
 10
179.4828586987105
 20
16.33804221608261
 10
179.3181983347104
 20
16.34599350008256
 10
179.1599032747103
 20
16.36937690408251
 10
179.0085651427103
 20
16.40748319208256
 10
178.8647719987102
 20
16.45960669208256
 10
178.7291047747104
 20
16.52503816808257
 10
178.6021550947103
 20
16.60306838408263
 10
178.4845074547104
 20
16.69299523208258
 10
178.3767534787104
 20
16.79410591208267
 10
178.2794776627105
 20
16.90569475208258
 10
178.1932645027103
 20
17.02705608008256
 10
178.1187056227104
 20
17.15747709608257
 10
178.0563855187104
 20
17.29625569208258
 10
178.0068922507104
 20
17.44268263208255
 10
177.9708138787102
 20
17.59604511608262
 10
177.9487348987103
 20
17.75564460008269
 10
177.9412469347104
 20
17.9207682840825
 10
177.9476336227105
 20
18.0891423360826
 10
177.9665370787104
 20
18.25115464808255
 10
177.9975581347105
 20
18.40630626008254
 10
178.0403011867104
 20
18.55410177608257
 10
178.0943741947103
 20
18.69404580008256
 10
178.1593779907104
 20
18.8256465000826
 10
178.2349169707104
 20
18.94840135208261
 10
178.3205990947104
 20
19.06182208808258
 10
178.4160251947103
 20
19.16540618408265
 10
178.5208067947103
 20
19.25866180808253
 10
178.6345375987105
 20
19.3410900000826
 10
178.7568326947105
 20
19.4121989280826
 10
178.8872893507102
 20
19.47148963208258
 10
179.0255155267105
 20
19.51846671608257
 10
179.1711191827105
 20
19.55263478408255
 10
179.3236975867105
 20
19.57350200408257
 10
179.4828586987105
 20
19.5805658520826
 10
179.6605633027104
 20
19.57164872408259
 10
179.8303166227105
 20
19.54501138808257
 10
179.9917800787104
 20
19.50082135208259
 10
180.1446150907104
 20
19.43924612408256
 10
180.2884830787104
 20
19.36046034008256
 10
180.4230490267105
 20
19.26462794408263
 10
180.5479743547104
 20
19.15192357208258
 10
180.6629169187105
 20
19.02251116808264
  0
LWPOLYLINE
  5
4DE
330
498
100
AcDbEntity
  8
06-99
100
AcDbPolyline
 90
       12
 70
     1
 43
0.010692
 10
177.4389973627103
 20
12.25281434408265
 10
179.3222648587105
 20
12.25281434408265
 10
179.4676012147104
 20
13.00768023608259
 10
178.5648720907104
 20
13.00768023608259
 10
178.6210549867103
 20
13.29950768408252
 10
179.4187173907104
 20
13.29950768408252
 10
179.5558030867103
 20
14.01156280808254
 10
178.7581406827103
 20
14.01156280808254
 10
178.8098471947103
 20
14.28005674808253
 10
179.6892285547103
 20
14.28005674808253
 10
179.8345542187104
 20
15.0349083840826
 10
177.9746344867104
 20
15.0349083840826
  0
LWPOLYLINE
  5
4DF
330
498
100
AcDbEntity
  8
06-99
100
AcDbPolyline
 90
        4
 70
     1
 43
0.010692
 10
163.6086138067104
 20
12.88042761608255
 10
176.0658630067103
 20
12.88042761608255
 10
175.9422848707104
 20
12.25209798008257
 10
163.4850392347104
 20
12.25209798008257
  0
SOLID
  5
4E0
330
498
100
AcDbEntity
  8
06-99
100
AcDbTrace
 10
163.6086138067104
 20
12.88042761608255
 30
0.0
 11
176.0658630067103
 21
12.88042761608255
 31
0.0
 12
163.4850392347104
 22
12.25209798008257
 32
0.0
 13
175.9422848707104
 23
12.25209798008257
 33
0.0
  0
LWPOLYLINE
  5
4E1
330
498
100
AcDbEntity
  8
06-99
100
AcDbPolyline
 90
       10
 70
     1
 43
0.010692
 10
169.3458447787104
 20
16.02887234408263
 10
170.3221847587103
 20
19.10266909208258
 10
171.3396497347103
 20
16.02887234408263
 10
172.5678005707104
 20
19.80153385208257
 10
172.2235110427103
 20
19.80153385208257
 10
171.3396497347103
 20
16.89303186008254
 10
170.3221847587103
 20
19.94541253208251
 10
169.3458447787104
 20
16.86733898408261
 10
168.4260120187104
 20
19.80153385208257
 10
168.0765832027105
 20
19.80153385208257
  0
LWPOLYLINE
  5
4E2
330
498
100
AcDbEntity
  8
06-99
100
AcDbPolyline
 90
        3
 70
     1
 43
0.010692
 10
174.3244177627104
 20
17.65868598008262
 10
174.9770360587104
 20
19.25683347608253
 10
175.6039650427103
 20
17.65868598008262
  0
LWPOLYLINE
  5
4E3
330
498
100
AcDbEntity
  8
06-99
100
AcDbPolyline
 90
        7
 70
     1
 43
0.010692
 10
173.3831831827104
 20
16.12735992008254
 10
173.7231959107104
 20
16.12735992008254
 10
174.2113641187103
 20
17.37092862008256
 10
175.7118651427105
 20
17.37092862008256
 10
176.1794940187103
 20
16.12735992008254
 10
176.5443406987103
 20
16.12735992008254
 10
174.9975932107104
 20
19.94541253208251
  0
LWPOLYLINE
  5
4E4
330
498
100
AcDbEntity
  8
06-99
100
AcDbPolyline
 90
        8
 70
     1
 43
0.010692
 10
185.9298068107102
 20
12.25281434408265
 10
187.0043813227103
 20
12.25281434408265
 10
187.1574087907104
 20
12.60301298408257
 10
187.9122746827104
 20
12.60301298408257
 10
187.9343465347103
 20
12.25281434408265
 10
189.0082759627103
 20
12.25281434408265
 10
188.5711513627103
 20
15.0349083840826
 10
187.4583137467103
 20
15.0349083840826
  0
LWPOLYLINE
  5
4E5
330
498
100
AcDbEntity
  8
06-99
100
AcDbPolyline
 90
       34
 70
     1
 43
0.010692
 10
183.0434586427104
 20
13.66137842408255
 10
183.0784820707102
 20
13.66137842408255
 10
183.0642260707104
 20
13.48699903208262
 10
183.0638019547103
 20
13.33510135208257
 10
183.0679005547104
 20
13.20222830408261
 10
183.0952328707104
 20
12.25281434408265
 10
183.9668304547102
 20
12.25281434408265
 10
185.3156904067102
 20
15.0349083840826
 10
184.3118078347104
 20
15.0349083840826
 10
183.8579146147103
 20
13.80923096408253
 10
183.8078119027104
 20
13.66872739208253
 10
183.7488419587103
 20
13.48671391208251
 10
183.6900288307102
 20
13.26059949608265
 10
183.6666953227103
 20
13.26059949608265
 10
183.6884214667103
 20
13.45803440408258
 10
183.6929798227104
 20
13.61569507208253
 10
183.6919391347103
 20
13.73531360408259
 10
183.6775548307103
 20
15.0349083840826
 10
182.9732870467103
 20
15.0349083840826
 10
182.4584850667104
 20
13.73531360408259
 10
182.4113832427102
 20
13.61569507208253
 10
182.3552288587104
 20
13.45803440408258
 10
182.3009241907103
 20
13.26059949608265
 10
182.2775906827103
 20
13.26059949608265
 10
182.3058460747104
 20
13.48671391208251
 10
182.3169657547104
 20
13.66872739208253
 10
182.3209609987103
 20
13.80923096408253
 10
182.3390340427103
 20
15.0349083840826
 10
181.3345063867103
 20
15.0349083840826
 10
181.6127371747104
 20
12.25281434408265
 10
182.4843311947103
 20
12.25281434408265
 10
182.8772408107104
 20
13.20222830408261
 10
182.9325148867103
 20
13.33510135208257
 10
182.9905795747104
 20
13.48699903208262
  0
LWPOLYLINE
  5
4E6
330
498
100
AcDbEntity
  8
06-99
100
AcDbPolyline
 90
       10
 70
     1
 43
0.010692
 10
187.4520696187103
 20
13.2644842560826
 10
187.5983611267103
 20
13.57965946808258
 10
187.6731124627104
 20
13.74409530008267
 10
187.7541542587104
 20
13.9457107800826
 10
187.8288307507103
 20
14.19056470808266
 10
187.8482901907103
 20
14.19056470808266
 10
187.8286668067103
 20
13.9457107800826
 10
187.8320739907103
 20
13.74409530008267
 10
187.8435073027103
 20
13.57965946808258
 10
187.8684125347105
 20
13.2644842560826
  0
LWPOLYLINE
  5
4E7
330
498
100
AcDbEntity
  8
06-99
100
AcDbPolyline
 90
       23
 70
     1
 43
0.010692
 10
190.5867074107104
 20
12.25281434408265
 10
191.5672422187102
 20
12.25281434408265
 10
191.7440380027103
 20
13.17110389208255
 10
192.0536284267105
 20
12.25281434408265
 10
193.1742391267103
 20
12.25281434408265
 10
192.6490694707104
 20
13.38511496408256
 10
192.8084301667104
 20
13.42380931208259
 10
192.9537023707103
 20
13.49881725608259
 10
193.0813505947103
 20
13.60690268408257
 10
193.1878322227103
 20
13.74481879208258
 10
193.2696010747103
 20
13.90932234008255
 10
193.3231145347102
 20
14.09717008808257
 10
193.3446018907103
 20
14.26809240008259
 10
193.3403037067103
 20
14.42330103608265
 10
193.3102306747104
 20
14.56226139608259
 10
193.2543934867102
 20
14.6844353160825
 10
193.1728099627103
 20
14.78928819608262
 10
193.0654943587103
 20
14.87627830808259
 10
192.9324538027104
 20
14.94487461608258
 10
192.7737096787102
 20
14.99453539208264
 10
192.5892655507103
 20
15.0247260360826
 10
192.3791463667103
 20
15.0349083840826
 10
191.1223445347103
 20
15.0349083840826
  0
LWPOLYLINE
  5
4E8
330
498
100
AcDbEntity
  8
06-99
100
AcDbPolyline
 90
        9
 70
     1
 43
0.010692
 10
191.9650345147104
 20
14.31896493608258
 10
192.1206850867104
 20
14.31896493608258
 10
192.2773549627104
 20
14.28538492808252
 10
192.3582221227102
 20
14.19041145608264
 10
192.3632188507104
 20
14.04270147608258
 10
192.3008666707103
 20
13.89700159208263
 10
192.1832938747103
 20
13.8057810120826
 10
192.0158143867103
 20
13.77422179208253
 10
191.8601638147104
 20
13.77422179208253
  0
LWPOLYLINE
  5
4E9
330
498
100
AcDbEntity
  8
06-99
100
AcDbPolyline
 90
       12
 70
     1
 43
0.010692
 10
187.5798033787105
 20
16.12735992008254
 10
189.3989010547104
 20
16.12735992008254
 10
189.3989010547104
 20
16.44082441208252
 10
187.9138214587104
 20
16.44082441208252
 10
187.9138214587104
 20
18.02353266008265
 10
189.3989010547104
 20
18.02353266008265
 10
189.3989010547104
 20
18.33699715208263
 10
187.9138214587104
 20
18.33699715208263
 10
187.9138214587104
 20
19.48806936008259
 10
189.3989010547104
 20
19.48806936008259
 10
189.3989010547104
 20
19.80153385208257
 10
187.5798033787105
 20
19.80153385208257
  0
LWPOLYLINE
  5
4EA
330
498
100
AcDbEntity
  8
06-99
100
AcDbPolyline
 90
        8
 70
     1
 43
0.010692
 10
182.8530269947105
 20
16.12735992008254
 10
183.1870486387104
 20
16.12735992008254
 10
183.1870486387104
 20
19.09753336808256
 10
185.7666682747103
 20
16.01858664008256
 10
185.7666682747103
 20
19.80153385208257
 10
185.4326608867104
 20
19.80153385208257
 10
185.4326608867104
 20
16.88274615608259
 10
182.8530269947105
 20
19.95568398008254
  0
LWPOLYLINE
  5
4EB
330
498
100
AcDbEntity
  8
06-99
100
AcDbPolyline
 90
       19
 70
     1
 43
0.010692
 10
191.4484255867105
 20
19.50862651208251
 10
191.7824329747104
 20
19.50862651208251
 10
191.9866180987103
 20
19.50030813608259
 10
192.1604486347104
 20
19.47385969208255
 10
192.3048975547104
 20
19.4270572440825
 10
192.4209200107105
 20
19.35767329208255
 10
192.5094818467105
 20
19.26348033608252
 10
192.5715453427103
 20
19.14225087608264
 10
192.6080799067104
 20
18.99175028408251
 10
192.6200442547104
 20
18.80976175208258
 10
192.6074490787103
 20
18.63100933208255
 10
192.5693784307105
 20
18.48586186808256
 10
192.5054188867104
 20
18.37130421608265
 10
192.4151392027104
 20
18.28432836008261
 10
192.2981259547105
 20
18.2219227200826
 10
192.1539514627104
 20
18.18107215208255
 10
191.9821916107103
 20
18.15877220408265
 10
191.7824329747104
 20
18.15200773208261
 10
191.4484255867105
 20
18.15200773208261
  0
LWPOLYLINE
  5
4EC
330
498
100
AcDbEntity
  8
06-99
100
AcDbPolyline
 90
       29
 70
     1
 43
0.010692
 10
193.3446018907103
 20
16.12735992008254
 10
192.0239581267103
 20
17.87965398008259
 10
192.2123761147105
 20
17.89225272008264
 10
192.3829028227104
 20
17.92942167608254
 10
192.5344013347104
 20
17.99023064408266
 10
192.6657240427104
 20
18.0737565480826
 10
192.7757304667104
 20
18.17905849208256
 10
192.8632765627103
 20
18.3052169640826
 10
192.9272254147104
 20
18.45129463208263
 10
192.9664329787103
 20
18.61636129208261
 10
192.9797552107102
 20
18.79949030408261
 10
192.9699399547105
 20
18.9745539840826
 10
192.9404834947105
 20
19.13261738408261
 10
192.8913573187104
 20
19.27374822008261
 10
192.8225436067105
 20
19.39801420808248
 10
192.7340174107104
 20
19.50548662808262
 10
192.6257537827105
 20
19.5962367600826
 10
192.4977313387104
 20
19.67032875608254
 10
192.3499251307103
 20
19.72783389608258
 10
192.1823137747103
 20
19.76882702408261
 10
191.9948758867103
 20
19.79336872808261
 10
191.7875829547104
 20
19.80153385208257
 10
191.7875829547104
 20
19.80153385208257
 10
191.1144075067104
 20
19.80153385208257
 10
191.1144075067104
 20
16.12735992008254
 10
191.4484255867105
 20
16.12735992008254
 10
191.4484255867105
 20
17.87965398008259
 10
191.6488399987104
 20
17.87965398008259
 10
192.9386409067103
 20
16.12735992008254
  0
TEXT
  5
4ED
330
498
100
AcDbEntity
  8
06-99
100
AcDbText
 10
172.6083599897699
 20
9.633209504468425
 30
0.0
 40
1.4256
  1
GmbH & Co KG
 41
1.199203187251
 51
15.0
  7
ROMAND8
 72
     5
 11
193.04195998977
 21
9.633209504468425
 31
0.0
100
AcDbText
  0
TEXT
  5
4EF
330
498
100
AcDbEntity
  8
06-99
100
AcDbText
 10
172.7098167443538
 20
7.391016232044876
 30
0.0
 40
1.4256
  1
72774 Reutlingen
 50
0.5663244663116128
 41
1.087840993687879
 51
15.0
  7
ROMAND8
 72
     5
 11
192.9434167443538
 21
7.591016232044864
 31
0.0
100
AcDbText
  0
TEXT
  5
4F0
330
498
100
AcDbEntity
  8
08-99
100
AcDbText
 10
160.4141200905478
 20
48.45009214919253
 30
0.0
 40
2.25
  1
Zul. Abw.
 51
15.0
  7
ROMANS8
100
AcDbText
  0
TEXT
  5
4F1
330
498
100
AcDbEntity
  8
08-99
100
AcDbText
 10
210.2099282109939
 20
49.2861646781227
 30
0.0
 40
2.0
  1
Mat. Art.
 51
15.0
  7
ROMANS8
100
AcDbText
  0
TEXT
  5
4F2
330
498
100
AcDbEntity
  8
08-99
100
AcDbText
 10
242.4865328610831
 20
49.40431390209392
 30
0.0
 40
2.0
  1
Oberfläche:
 51
15.0
  7
ROMANS8
100
AcDbText
  0
TEXT
  5
4F3
330
498
100
AcDbEntity
  8
08-99
100
AcDbText
 10
270.2625397292909
 20
41.73764723542717
 30
0.0
 40
2.0
  1
Blech Dicke:
 51
15.0
  7
ROMANS8
100
AcDbText
  0
TEXT
  5
4F4
330
498
100
AcDbEntity
  8
08-99
100
AcDbText
 10
274.438029919268
 20
49.28616467812275
 30
0.0
 40
2.0
  1
Maßstab:
 51
15.0
  7
ROMANS8
100
AcDbText
  0
LINE
  5
4F5
330
498
100
AcDbEntity
  8
01-99
100
AcDbLine
 10
202.0000018907103
 20
46.88888940774922
 30
0.0
 11
179.0000018907103
 21
46.88888940774922
 31
0.0
  0
LINE
  5
4F6
330
498
100
AcDbEntity
  8
01-99
100
AcDbLine
 10
202.0000018907103
 20
44.33333385208249
 30
0.0
 11
179.0000018907103
 21
44.33333385208249
 31
0.0
  0
LINE
  5
4F7
330
498
100
AcDbEntity
  8
01-99
100
AcDbLine
 10
202.0000018907103
 20
40.50000051874917
 30
0.0
 11
179.0000018907103
 21
40.50000051874917
 31
0.0
  0
ATTDEF
  5
4F8
330
498
100
AcDbEntity
  8
06-99
100
AcDbText
 10
203.4954486298875
 20
26.18783921603142
 30
0.0
 40
4.5
  1

 41
0.9
  7
ROMANS8
100
AcDbAttributeDefinition
280
     0
  3
Benennung/Teil
  2
TEILE
 70
     0
280
     0
  0
ATTDEF
  5
4F9
330
498
100
AcDbEntity
  8
06-99
100
AcDbText
 10
203.4954486298875
 20
18.95060400366537
 30
0.0
 40
4.5
  1

 41
0.9
  7
ROMANS8
100
AcDbAttributeDefinition
280
     0
  3
Benennung/Teil2
  2
TEILE2
 70
     0
280
     0
  0
ATTDEF
  5
4FA
330
498
100
AcDbEntity
  8
06-99
100
AcDbText
 10
278.3473881024249
 20
45.33333385208254
 30
0.0
 40
3.375
  1

  7
ROMANS8
100
AcDbAttributeDefinition
280
     0
  3
Maßstab
  2
:
 70
     0
280
     0
  0
ATTDEF
  5
4FB
330
498
100
AcDbEntity
  8
06-99
100
AcDbText
 10
179.9970696900777
 20
27.4416859867805
 30
0.0
 40
2.5
  1

 41
0.9
  7
ROMANS8
100
AcDbAttributeDefinition
280
     0
  3
Name
  2
NAME
 70
     0
280
     0
  0
ATTDEF
  5
4FC
330
498
100
AcDbEntity
  8
06-99
100
AcDbText
 10
166.4931483426044
 20
27.46123569286044
 30
0.0
 40
2.5
  1

 50
359.9144597696142
 41
0.9542572414211148
  7
ROMANS8
 72
     5
 11
177.7397390111491
 21
27.44444498541589
 31
0.0
100
AcDbAttributeDefinition
280
     0
  3
Datum
  2
DATUM
 70
     0
280
     0
  0
ATTDEF
  5
4FD
330
498
100
AcDbEntity
  8
06-99
100
AcDbText
 10
265.5063458578686
 20
7.492900319037914
 30
0.0
 40
2.99376
  1

  7
ROMANS8
100
AcDbAttributeDefinition
280
     0
  3
Ident-Nummer
  2
ID.NR
 70
     0
280
     0
  0
ATTDEF
  5
4FE
330
498
100
AcDbEntity
  8
06-99
100
AcDbText
 10
203.7312681464209
 20
37.66666716319367
 30
0.0
 40
3.0
  1

 41
0.9
  7
ROMANS8
100
AcDbAttributeDefinition
280
     0
  3
Zuschnitts.Länge
  2
LÄNGE
 70
     0
280
     0
  0
ATTDEF
  5
4FF
330
498
100
AcDbEntity
  8
06-99
100
AcDbText
 10
237.1808068024801
 20
37.67810438919398
 30
0.0
 40
3.0
  1

 41
0.9
  7
ROMANS8
100
AcDbAttributeDefinition
280
     0
  3
Zuschnitts Breite
  2
BREITE
 70
     0
280
     0
  0
ATTDEF
  5
500
330
498
100
AcDbEntity
  8
06-99
100
AcDbText
 10
277.6090940174422
 20
37.66666718541598
 30
0.0
 40
3.09375
  1

  7
ROMANS8
100
AcDbAttributeDefinition
280
     0
  3
Blech.Dicke
  2
1.0
 70
     0
280
     0
  0
ATTDEF
  5
501
330
498
100
AcDbEntity
  8
06-99
100
AcDbText
 10
251.127787492113
 20
45.33333385208266
 30
0.0
 40
3.0
  1

  7
ROMANS8
 72
     1
 11
251.127787492113
 21
45.33333385208266
 31
0.0
100
AcDbAttributeDefinition
280
     0
  3
Oberfläche
  2
IV
 70
     0
280
     0
  0
ATTDEF
  5
502
330
498
100
AcDbEntity
  8
06-99
100
AcDbText
 10
210.2747424268261
 20
45.33333385208249
 30
0.0
 40
3.375
  1
1.4301
  7
ROMANS8
100
AcDbAttributeDefinition
280
     0
  3
Mat.Art
  2
1.4301
 70
     0
280
     0
  0
ATTDEF
  5
503
330
498
100
AcDbEntity
  8
06-99
100
AcDbText
 10
233.0006357775904
 20
7.504397123103842
 30
0.0
 40
3.168
  1

 41
0.9
  7
ROMANS8
100
AcDbAttributeDefinition
280
     0
  3
Auftrags Nr.
  2
AUFTRAGS.NR.
 70
     0
280
     0
  0
ATTDEF
  5
504
330
498
100
AcDbEntity
  8
06-99
100
AcDbText
 10
203.5000018907104
 20
7.500000518749232
 30
0.0
 40
3.168
  1

 41
0.9
  7
ROMANS8
100
AcDbAttributeDefinition
280
     0
  3
Sonder-NR,WPS
  2
SONDER-NR
 70
     0
280
     0
  0
ATTDEF
  5
505
330
498
100
AcDbEntity
  8
06-99
100
AcDbText
 10
133.4997528857186
 20
6.601810588009072
 30
0.0
 40
1.5
  1

 41
0.9
  7
ROMANS8
100
AcDbAttributeDefinition
280
     0
  3
ERSETZT.Durch
  2
ERSETZT.DURCH
 70
     0
280
     0
  0
ATTDEF
  5
506
330
498
100
AcDbEntity
  8
06-99
100
AcDbText
 10
108.4994696709088
 20
6.597456916621638
 30
0.0
 40
1.5
  1

 41
0.9
  7
ROMANS8
100
AcDbAttributeDefinition
280
     0
  3
ERSETZT.Für
  2
ERSETZT.FÜR
 70
     0
280
     0
  0
ATTDEF
  5
507
330
498
100
AcDbEntity
  8
06-99
100
AcDbText
 10
186.9730745371479
 20
47.66851165875721
 30
0.0
 40
1.287
  1
DIN A4
  7
ROMANS8
 72
     1
 11
190.2518602514336
 21
47.66851165875721
 31
0.0
100
AcDbAttributeDefinition
280
     0
  3
Format
  2
FORMAT
 70
     0
280
     0
  0
ATTDEF
  5
508
330
498
100
AcDbEntity
  8
06-99
100
AcDbText
 10
182.9908211122643
 20
37.31860869812611
 30
0.0
 40
2.34
  1
DIN 2768
  7
ROMANS8
 72
     1
 11
191.0136782551214
 21
37.31860869812611
 31
0.0
100
AcDbAttributeDefinition
280
     0
  3
Norm / Kanten
  2
NORM2
 70
     0
280
     0
  0
ATTDEF
  5
509
330
498
100
AcDbEntity
  8
06-99
100
AcDbText
 10
179.8151068265501
 20
41.15194203145941
 30
0.0
 40
2.34
  1
DIN 6930-M
  7
ROMANS8
 72
     1
 11
190.5122496836929
 21
41.15194203145941
 31
0.0
100
AcDbAttributeDefinition
280
     0
  3
Norm / Fräsen
  2
NORM1
 70
     0
280
     0
  0
ENDBLK
  5
50A
330
498
100
AcDbEntity
  8
0
100
AcDbBlockEnd
  0
BLOCK
  5
2F2
330
2F1
100
AcDbEntity
  8
0
100
AcDbBlockBegin
  2
Pumpe 037021-V
 70
     0
 10
0.0
 20
0.0
 30
0.0
  3
Pumpe 037021-V
  1

  0
LINE
  5
2F3
330
2F1
100
AcDbEntity
  8
0
100
AcDbLine
 10
-3.000082349783497
 20
-50.04251900086035
 30
0.0
 11
-2.150322809892259
 21
-52.54247177239051
 31
0.0
  0
LINE
  5
2F4
330
2F1
100
AcDbEntity
  8
0
100
AcDbLine
 10
-2.150322809892259
 20
-52.54247177239051
 30
0.0
 11
-1.513236057261792
 21
-54.99149557392605
 31
0.0
  0
LINE
  5
2F5
330
2F1
100
AcDbEntity
  8
0
100
AcDbLine
 10
-1.513236057261792
 20
-54.99149557392605
 30
0.0
 11
1.513236057261792
 21
-54.99149557392605
 31
0.0
  0
LINE
  5
2F6
330
2F1
100
AcDbEntity
  8
0
100
AcDbLine
 10
1.513236057261792
 20
-54.99149557392605
 30
0.0
 11
2.150150143953624
 21
-52.54228266096186
 31
0.0
  0
LINE
  5
2F7
330
2F1
100
AcDbEntity
  8
0
100
AcDbLine
 10
2.150150143953624
 20
-52.54228266096186
 30
0.0
 11
2.999697533570497
 21
-50.04225008209539
 31
0.0
  0
LINE
  5
2F8
330
2F1
100
AcDbEntity
  8
0
100
AcDbLine
 10
-30.0
 20
-49.99999999999989
 30
0.0
 11
-30.0
 21
-1.500000000000113
 31
0.0
  0
LINE
  5
2F9
330
2F1
100
AcDbEntity
  8
03-01
100
AcDbLine
 10
-30.0
 20
-1.500000000000113
 30
0.0
 11
-30.0
 21
0.0000000000001137
 31
0.0
  0
LINE
  5
2FA
330
2F1
100
AcDbEntity
  8
0
100
AcDbLine
 10
-10.0
 20
-49.99999999999989
 30
0.0
 11
-30.0
 21
-49.99999999999989
 31
0.0
  0
LINE
  5
2FB
330
2F1
100
AcDbEntity
  8
0
100
AcDbLine
 10
-10.0
 20
-49.99999999999989
 30
0.0
 11
10.0
 21
-49.99999999999989
 31
0.0
  0
LINE
  5
2FC
330
2F1
100
AcDbEntity
  8
03-01
100
AcDbLine
 10
30.0
 20
0.0000000000001137
 30
0.0
 11
30.0
 21
-1.500000000000568
 31
0.0
  0
LINE
  5
2FD
330
2F1
100
AcDbEntity
  8
0
100
AcDbLine
 10
30.0
 20
-1.500000000000568
 30
0.0
 11
30.0
 21
-49.99999999999989
 31
0.0
  0
LINE
  5
2FE
330
2F1
100
AcDbEntity
  8
0
100
AcDbLine
 10
30.0
 20
-49.99999999999989
 30
0.0
 11
10.0
 21
-49.99999999999989
 31
0.0
  0
LINE
  5
2FF
330
2F1
100
AcDbEntity
  8
0
100
AcDbLine
 10
-27.00000101120463
 20
56.49999999999993
 30
0.0
 11
-26.99999883770875
 21
55.49999904632743
 31
0.0
  0
LINE
  5
300
330
2F1
100
AcDbEntity
  8
0
100
AcDbLine
 10
26.99999883771011
 20
55.49999904632743
 30
0.0
 11
26.99999898879537
 21
56.49999999999993
 31
0.0
  0
LINE
  5
301
330
2F1
100
AcDbEntity
  8
0
100
AcDbLine
 10
-27.00000101120463
 20
56.49999999999993
 30
0.0
 11
26.99999898879537
 21
56.49999999999993
 31
0.0
  0
LINE
  5
302
330
2F1
100
AcDbEntity
  8
0
100
AcDbLine
 10
-25.50000101120463
 20
56.99999999999993
 30
0.0
 11
25.49999898879537
 21
56.99999999999993
 31
0.0
  0
LINE
  5
303
330
2F1
100
AcDbEntity
  8
0
100
AcDbLine
 10
-26.99999883770875
 20
55.49999904632743
 30
0.0
 11
26.99999883771011
 21
55.49999904632743
 31
0.0
  0
LINE
  5
304
330
2F1
100
AcDbEntity
  8
0
100
AcDbLine
 10
31.29999999999995
 20
-1.500000000000568
 30
0.0
 11
-31.29999999999995
 21
-1.500000000000341
 31
0.0
  0
LINE
  5
305
330
2F1
100
AcDbEntity
  8
03-01
100
AcDbLine
 10
-26.50000101120463
 20
52.99999999999993
 30
0.0
 11
26.49999898879537
 21
52.99999999999993
 31
0.0
  0
LINE
  5
306
330
2F1
100
AcDbEntity
  8
03-01
100
AcDbLine
 10
-26.50000101120463
 20
52.69999999999974
 30
0.0
 11
26.49999898879537
 21
52.69999999999974
 31
0.0
  0
LINE
  5
307
330
2F1
100
AcDbEntity
  8
03-01
100
AcDbLine
 10
-26.50000101120463
 20
50.69999999999975
 30
0.0
 11
26.49999898879537
 21
50.69999999999975
 31
0.0
  0
LINE
  5
308
330
2F1
100
AcDbEntity
  8
03-01
100
AcDbLine
 10
-26.50000101120463
 20
50.39999999999956
 30
0.0
 11
26.49999898879537
 21
50.39999999999956
 31
0.0
  0
LINE
  5
309
330
2F1
100
AcDbEntity
  8
03-01
100
AcDbLine
 10
-0.0000010112046311
 20
44.9999999999997
 30
0.0
 11
-21.00000101120463
 21
44.9999999999997
 31
0.0
  0
LINE
  5
30A
330
2F1
100
AcDbEntity
  8
03-01
100
AcDbLine
 10
20.99999898879537
 20
44.9999999999997
 30
0.0
 11
-0.0000010112046311
 21
44.9999999999997
 31
0.0
  0
LINE
  5
30B
330
2F1
100
AcDbEntity
  8
03-01
100
AcDbLine
 10
-24.50000101120463
 20
55.99999999999993
 30
0.0
 11
24.49999898879537
 21
55.99999999999993
 31
0.0
  0
LINE
  5
30C
330
2F1
100
AcDbEntity
  8
03-01
100
AcDbLine
 10
-24.50000101120463
 20
47.99999999999992
 30
0.0
 11
24.49999898879537
 21
47.9999999999997
 31
0.0
  0
LINE
  5
30D
330
2F1
100
AcDbEntity
  8
03-01
100
AcDbLine
 10
-22.50000101120463
 20
45.9999999999997
 30
0.0
 11
22.49999898879537
 21
45.9999999999997
 31
0.0
  0
LINE
  5
30E
330
2F1
100
AcDbEntity
  8
03-01
100
AcDbLine
 10
-13.57272321259938
 20
50.99999999999993
 30
0.0
 11
13.57272119019012
 21
50.99999999999993
 31
0.0
  0
LINE
  5
30F
330
2F1
100
AcDbEntity
  8
03-01
100
AcDbLine
 10
-30.50000000000023
 20
-0.0000000000001137
 30
0.0
 11
-30.50000000000023
 21
-1.300000000000522
 31
0.0
  0
LINE
  5
310
330
2F1
100
AcDbEntity
  8
03-01
100
AcDbLine
 10
30.50000000000023
 20
0.0000000000001137
 30
0.0
 11
-30.50000000000023
 21
-0.0000000000001137
 31
0.0
  0
LINE
  5
311
330
2F1
100
AcDbEntity
  8
03-01
100
AcDbLine
 10
-26.50000101120463
 20
52.99999999999993
 30
0.0
 11
-26.50000101120463
 21
52.69999999999974
 31
0.0
  0
LINE
  5
312
330
2F1
100
AcDbEntity
  8
03-01
100
AcDbLine
 10
26.49999898879537
 20
52.69999999999974
 30
0.0
 11
26.49999898879537
 21
52.99999999999993
 31
0.0
  0
LINE
  5
313
330
2F1
100
AcDbEntity
  8
03-01
100
AcDbLine
 10
-26.50000101120463
 20
50.69999999999975
 30
0.0
 11
-26.50000101120463
 21
50.39999999999956
 31
0.0
  0
LINE
  5
314
330
2F1
100
AcDbEntity
  8
03-01
100
AcDbLine
 10
26.49999898879537
 20
50.39999999999956
 30
0.0
 11
26.49999898879537
 21
50.69999999999975
 31
0.0
  0
LINE
  5
315
330
2F1
100
AcDbEntity
  8
03-01
100
AcDbLine
 10
-26.00880470769084
 20
55.49999999999993
 30
0.0
 11
-26.00000426173142
 21
53.00000143051322
 31
0.0
  0
LINE
  5
316
330
2F1
100
AcDbEntity
  8
03-01
100
AcDbLine
 10
26.00000053644249
 20
53.00000143051322
 30
0.0
 11
26.00880268528158
 21
55.49999999999993
 31
0.0
  0
LINE
  5
317
330
2F1
100
AcDbEntity
  8
03-01
100
AcDbLine
 10
-26.00000426173142
 20
52.69999635219749
 30
0.0
 11
-26.00000426173142
 21
50.69999974966224
 31
0.0
  0
LINE
  5
318
330
2F1
100
AcDbEntity
  8
03-01
100
AcDbLine
 10
26.00000053644249
 20
50.69999974966224
 30
0.0
 11
26.00000053644249
 21
52.69999635219749
 31
0.0
  0
LINE
  5
319
330
2F1
100
AcDbEntity
  8
03-01
100
AcDbLine
 10
-26.00000426173142
 20
50.4000021219271
 30
0.0
 11
-26.00000101120463
 21
49.9999999999997
 31
0.0
  0
LINE
  5
31A
330
2F1
100
AcDbEntity
  8
03-01
100
AcDbLine
 10
25.99999898879537
 20
49.9999999999997
 30
0.0
 11
26.00000053644249
 21
50.4000021219271
 31
0.0
  0
LINE
  5
31B
330
2F1
100
AcDbEntity
  8
03-01
100
AcDbLine
 10
-24.50000101120463
 20
55.99999999999993
 30
0.0
 11
-24.50000101120463
 21
47.99999999999992
 31
0.0
  0
LINE
  5
31C
330
2F1
100
AcDbEntity
  8
03-01
100
AcDbLine
 10
24.49999898879537
 20
47.9999999999997
 30
0.0
 11
24.49999898879537
 21
55.99999999999993
 31
0.0
  0
LINE
  5
31D
330
2F1
100
AcDbEntity
  8
03-01
100
AcDbLine
 10
-23.49999919533662
 20
57.00000208616431
 30
0.0
 11
-23.49999919533662
 21
56.00000005960639
 31
0.0
  0
LINE
  5
31E
330
2F1
100
AcDbEntity
  8
03-01
100
AcDbLine
 10
23.49999919533798
 20
56.00000005960639
 30
0.0
 11
23.49999919533798
 21
57.00000208616431
 31
0.0
  0
LINE
  5
31F
330
2F1
100
AcDbEntity
  8
03-01
100
AcDbLine
 10
16.56676828861305
 20
46.00000214576873
 30
0.0
 11
13.57272119019012
 21
50.99999999999993
 31
0.0
  0
LINE
  5
320
330
2F1
100
AcDbEntity
  8
03-01
100
AcDbLine
 10
-13.57272321259938
 20
50.99999999999993
 30
0.0
 11
-16.56677201390198
 21
46.00000214576873
 31
0.0
  0
LINE
  5
321
330
2F1
100
AcDbEntity
  8
03-01
100
AcDbLine
 10
15.99999889731475
 20
45.00000011921081
 30
0.0
 11
13.00595229315127
 21
49.9999999999997
 31
0.0
  0
LINE
  5
322
330
2F1
100
AcDbEntity
  8
03-01
100
AcDbLine
 10
-13.00595431556007
 20
49.9999999999997
 30
0.0
 11
-15.99999889731339
 21
45.00000011921081
 31
0.0
  0
LINE
  5
323
330
2F1
100
AcDbEntity
  8
03-01
100
AcDbLine
 10
-0.0000010112046311
 20
49.9999999999997
 30
0.0
 11
13.00595229315127
 21
49.9999999999997
 31
0.0
  0
LINE
  5
324
330
2F1
100
AcDbEntity
  8
03-01
100
AcDbLine
 10
-0.0000010112046311
 20
49.9999999999997
 30
0.0
 11
-13.00595431556007
 21
49.9999999999997
 31
0.0
  0
LINE
  5
325
330
2F1
100
AcDbEntity
  8
0
100
AcDbLine
 10
-31.50000000000023
 20
-1.299999999993701
 30
0.0
 11
-31.50000000000023
 21
-0.0000000000001137
 31
0.0
  0
LINE
  5
326
330
2F1
100
AcDbEntity
  8
0
100
AcDbLine
 10
29.49999999999977
 20
1.999999999999886
 30
0.0
 11
-29.50000000000023
 21
1.999999999999886
 31
0.0
  0
LINE
  5
327
330
2F1
100
AcDbEntity
  8
0
100
AcDbLine
 10
31.49999999999977
 20
-1.300000000000068
 30
0.0
 11
31.49999999999977
 21
-0.0000000000001137
 31
0.0
  0
LINE
  5
328
330
2F1
100
AcDbEntity
  8
0
100
AcDbLine
 10
-29.50000000000023
 20
1.999999999999886
 30
0.0
 11
-29.50000000000023
 21
46.99999999999947
 31
0.0
  0
LINE
  5
329
330
2F1
100
AcDbEntity
  8
0
100
AcDbLine
 10
29.49999999999977
 20
1.999999999999886
 30
0.0
 11
29.49999999999977
 21
47.00000000000016
 31
0.0
  0
LINE
  5
32A
330
2F1
100
AcDbEntity
  8
0
100
AcDbLine
 10
27.49999898879537
 20
55.49999999999993
 30
0.0
 11
-27.50000101120463
 21
55.49999999999993
 31
0.0
  0
LINE
  5
32B
330
2F1
100
AcDbEntity
  8
0
100
AcDbLine
 10
27.99999999999978
 20
48.50000000000015
 30
0.0
 11
-28.00000000000023
 21
48.49999999999948
 31
0.0
  0
LINE
  5
32C
330
2F1
100
AcDbEntity
  8
0
100
AcDbLine
 10
-28.00000101120463
 20
54.99999999999992
 30
0.0
 11
-28.00000000000023
 21
48.49999999999948
 31
0.0
  0
LINE
  5
32D
330
2F1
100
AcDbEntity
  8
0
100
AcDbLine
 10
27.99999898879537
 20
54.99999999999992
 30
0.0
 11
27.99999999999978
 21
48.50000000000015
 31
0.0
  0
LINE
  5
32E
330
2F1
100
AcDbEntity
  8
03-01
100
AcDbLine
 10
-27.00000000000023
 20
0.1999999999997044
 30
0.0
 11
-27.00000000000023
 21
45.4999999999997
 31
0.0
  0
LINE
  5
32F
330
2F1
100
AcDbEntity
  8
03-01
100
AcDbLine
 10
26.99999999999977
 20
1.999999999999658
 30
0.0
 11
26.99999999999977
 21
45.50000000000015
 31
0.0
  0
LINE
  5
330
330
2F1
100
AcDbEntity
  8
03-01
100
AcDbLine
 10
26.49999999999977
 20
46.00000000000015
 30
0.0
 11
-26.50000000000023
 21
45.9999999999997
 31
0.0
  0
ARC
  5
331
330
2F1
100
AcDbEntity
  8
0
100
AcDbCircle
 10
-26.36602641498871
 20
57.49999999999992
 30
0.0
 40
0.9999999999998699
100
AcDbArc
 50
270.0
 51
330.0000000000134
  0
ARC
  5
332
330
2F1
100
AcDbEntity
  8
0
100
AcDbCircle
 10
26.3660243925799
 20
57.49999999999992
 30
0.0
 40
1.0
100
AcDbArc
 50
209.9999999999866
 51
270.0
  0
ARC
  5
333
330
2F1
100
AcDbEntity
  8
0
100
AcDbCircle
 10
-31.29999999999995
 20
-1.299999999993701
 30
0.0
 40
0.2000000000066393
100
AcDbArc
 50
180.0
 51
270.0
  0
ARC
  5
334
330
2F1
100
AcDbEntity
  8
03-01
100
AcDbCircle
 10
-30.70000000000005
 20
-1.300000000000522
 30
0.0
 40
0.2000000000001592
100
AcDbArc
 50
270.0
 51
0.0
  0
ARC
  5
335
330
2F1
100
AcDbEntity
  8
03-01
100
AcDbCircle
 10
20.99999898879537
 20
49.9999999999997
 30
0.0
 40
5.0
100
AcDbArc
 50
270.0
 51
0.0
  0
ARC
  5
336
330
2F1
100
AcDbEntity
  8
03-01
100
AcDbCircle
 10
-21.00000101120463
 20
49.9999999999997
 30
0.0
 40
5.0
100
AcDbArc
 50
180.0
 51
270.0
  0
ARC
  5
337
330
2F1
100
AcDbEntity
  8
03-01
100
AcDbCircle
 10
-22.50000101120463
 20
47.9999999999997
 30
0.0
 40
2.0
100
AcDbArc
 50
179.999999999987
 51
270.0
  0
ARC
  5
338
330
2F1
100
AcDbEntity
  8
03-01
100
AcDbCircle
 10
22.49999898879537
 20
47.9999999999997
 30
0.0
 40
2.0
100
AcDbArc
 50
270.0
 51
0.0
  0
ARC
  5
339
330
2F1
100
AcDbEntity
  8
0
100
AcDbCircle
 10
-29.50000000000023
 20
-0.0000000000001137
 30
0.0
 40
2.0
100
AcDbArc
 50
90.0
 51
180.0
  0
ARC
  5
33A
330
2F1
100
AcDbEntity
  8
0
100
AcDbCircle
 10
29.49999999999977
 20
-0.0000000000001137
 30
0.0
 40
2.0
100
AcDbArc
 50
0.0
 51
90.0
  0
ARC
  5
33B
330
2F1
100
AcDbEntity
  8
0
100
AcDbCircle
 10
31.29999999999995
 20
-1.299999999993701
 30
0.0
 40
0.2000000000066393
100
AcDbArc
 50
270.0
 51
359.9999999981761
  0
ARC
  5
33C
330
2F1
100
AcDbEntity
  8
03-01
100
AcDbCircle
 10
30.7000000000005
 20
-1.300000000000522
 30
0.0
 40
0.2000000000002728
100
AcDbArc
 50
180.0
 51
270.0
  0
ARC
  5
33D
330
2F1
100
AcDbEntity
  8
0
100
AcDbCircle
 10
-28.00000000000023
 20
46.99999999999947
 30
0.0
 40
1.5
100
AcDbArc
 50
90.0
 51
180.0
  0
ARC
  5
33E
330
2F1
100
AcDbEntity
  8
0
100
AcDbCircle
 10
27.99999999999978
 20
47.00000000000016
 30
0.0
 40
1.5
100
AcDbArc
 50
0.0
 51
90.0
  0
ARC
  5
33F
330
2F1
100
AcDbEntity
  8
0
100
AcDbCircle
 10
-27.50000101120463
 20
54.99999999999992
 30
0.0
 40
0.5
100
AcDbArc
 50
90.0
 51
180.0
  0
ARC
  5
340
330
2F1
100
AcDbEntity
  8
0
100
AcDbCircle
 10
27.49999898879537
 20
54.99999999999992
 30
0.0
 40
0.5
100
AcDbArc
 50
0.0
 51
90.0
  0
ARC
  5
341
330
2F1
100
AcDbEntity
  8
03-01
100
AcDbCircle
 10
-26.50000000000023
 20
45.4999999999997
 30
0.0
 40
0.5
100
AcDbArc
 50
90.0
 51
180.0
  0
ARC
  5
342
330
2F1
100
AcDbEntity
  8
03-01
100
AcDbCircle
 10
26.49999999999977
 20
45.50000000000015
 30
0.0
 40
0.5
100
AcDbArc
 50
0.0
 51
90.0
  0
LINE
  5
343
330
2F1
100
AcDbEntity
  8
03-01
100
AcDbLine
 10
30.50000000000023
 20
-0.0000000000001137
 30
0.0
 11
30.50000000000023
 21
-1.300000000000522
 31
0.0
  0
LINE
  5
344
330
2F1
100
AcDbEntity
  8
03-01
100
AcDbLine
 10
12.49999999999977
 20
-6.509499926561829
 30
0.0
 11
10.0
 21
-6.509499926561829
 31
0.0
  0
ARC
  5
345
330
2F1
100
AcDbEntity
  8
03-01
100
AcDbCircle
 10
12.49999999999977
 20
-7.009499926561829
 30
0.0
 40
0.5
100
AcDbArc
 50
0.0
 51
90.0
  0
LINE
  5
346
330
2F1
100
AcDbEntity
  8
03-01
100
AcDbLine
 10
12.99999999999977
 20
-42.4094999265618
 30
0.0
 11
16.99999999999977
 21
-42.4094999265618
 31
0.0
  0
LINE
  5
347
330
2F1
100
AcDbEntity
  8
03-01
100
AcDbLine
 10
16.99999999999977
 20
-37.60949992656185
 30
0.0
 11
12.99999999999977
 21
-37.60949992656185
 31
0.0
  0
ARC
  5
348
330
2F1
100
AcDbEntity
  8
03-01
100
AcDbCircle
 10
16.99999999999977
 20
-40.00949992656183
 30
0.0
 40
2.400000000000028
100
AcDbArc
 50
270.0
 51
90.0
  0
LINE
  5
349
330
2F1
100
AcDbEntity
  8
03-01
100
AcDbLine
 10
12.99999999999977
 20
-12.40949992656181
 30
0.0
 11
16.99999999999977
 21
-12.40949992656181
 31
0.0
  0
LINE
  5
34A
330
2F1
100
AcDbEntity
  8
03-01
100
AcDbLine
 10
16.99999999999977
 20
-8.609499926561852
 30
0.0
 11
12.99999999999977
 21
-8.609499926561852
 31
0.0
  0
ARC
  5
34B
330
2F1
100
AcDbEntity
  8
03-01
100
AcDbCircle
 10
16.99999999999977
 20
-10.50949992656183
 30
0.0
 40
1.900000000000028
100
AcDbArc
 50
270.0
 51
90.0
  0
LINE
  5
34C
330
2F1
100
AcDbEntity
  8
0
100
AcDbLine
 10
14.31564555134264
 20
-77.73448071292921
 30
0.0
 11
14.36031983909493
 21
-77.81393654759654
 31
0.0
  0
LINE
  5
34D
330
2F1
100
AcDbEntity
  8
0
100
AcDbLine
 10
14.36031983909493
 20
-77.81393654759654
 30
0.0
 11
14.42364547943293
 21
-77.88887244799934
 31
0.0
  0
LINE
  5
34E
330
2F1
100
AcDbEntity
  8
0
100
AcDbLine
 10
14.42364547943293
 20
-77.88887244799934
 30
0.0
 11
14.45764755558525
 21
-77.91097952227506
 31
0.0
  0
LINE
  5
34F
330
2F1
100
AcDbEntity
  8
0
100
AcDbLine
 10
14.45764755558525
 20
-77.91097952227506
 30
0.0
 11
14.48972784744433
 21
-77.92022787082226
 31
0.0
  0
LINE
  5
350
330
2F1
100
AcDbEntity
  8
0
100
AcDbLine
 10
14.48972784744433
 20
-77.92022787082226
 30
0.0
 11
14.5
 21
-77.92080596246603
 31
0.0
  0
LINE
  5
351
330
2F1
100
AcDbEntity
  8
0
100
AcDbLine
 10
14.31564555134264
 20
-77.73448071292921
 30
0.0
 11
14.05828095087963
 21
-77.25905655433496
 31
0.0
  0
LINE
  5
352
330
2F1
100
AcDbEntity
  8
0
100
AcDbLine
 10
14.05828095087963
 20
-77.25905655433496
 30
0.0
 11
13.76596847853534
 21
-76.8030517498081
 31
0.0
  0
LINE
  5
353
330
2F1
100
AcDbEntity
  8
0
100
AcDbLine
 10
13.76596847853534
 20
-76.8030517498081
 30
0.0
 11
13.32076023233026
 21
-76.22047239047367
 31
0.0
  0
LINE
  5
354
330
2F1
100
AcDbEntity
  8
0
100
AcDbLine
 10
13.32076023233026
 20
-76.22047239047367
 30
0.0
 11
12.82745306753145
 21
-75.68116529815188
 31
0.0
  0
LINE
  5
355
330
2F1
100
AcDbEntity
  8
0
100
AcDbLine
 10
12.82745306753145
 20
-75.68116529815188
 30
0.0
 11
11.69095873235278
 21
-74.70592324346774
 31
0.0
  0
LINE
  5
356
330
2F1
100
AcDbEntity
  8
0
100
AcDbLine
 10
11.69095873235278
 20
-74.70592324346774
 30
0.0
 11
10.78018354071469
 21
-74.10074627949018
 31
0.0
  0
LINE
  5
357
330
2F1
100
AcDbEntity
  8
0
100
AcDbLine
 10
10.78018354071469
 20
-74.10074627949018
 30
0.0
 11
9.816809948288209
 21
-73.57734168904688
 31
0.0
  0
LINE
  5
358
330
2F1
100
AcDbEntity
  8
0
100
AcDbLine
 10
9.816809948288209
 20
-73.57734168904688
 30
0.0
 11
8.785010451355901
 21
-73.11762707499406
 31
0.0
  0
LINE
  5
359
330
2F1
100
AcDbEntity
  8
0
100
AcDbLine
 10
8.785010451355901
 20
-73.11762707499406
 30
0.0
 11
7.718873527689765
 21
-72.72937244056118
 31
0.0
  0
LINE
  5
35A
330
2F1
100
AcDbEntity
  8
0
100
AcDbLine
 10
7.718873527689765
 20
-72.72937244056118
 30
0.0
 11
6.110405410338444
 21
-72.27638573288834
 31
0.0
  0
LINE
  5
35B
330
2F1
100
AcDbEntity
  8
0
100
AcDbLine
 10
6.110405410338444
 20
-72.27638573288834
 30
0.0
 11
4.461599402452975
 21
-71.9471672579715
 31
0.0
  0
LINE
  5
35C
330
2F1
100
AcDbEntity
  8
0
100
AcDbLine
 10
4.461599402452975
 20
-71.9471672579715
 30
0.0
 11
2.739901413947563
 21
-71.72480031825557
 31
0.0
  0
LINE
  5
35D
330
2F1
100
AcDbEntity
  8
0
100
AcDbLine
 10
2.739901413947563
 20
-71.72480031825557
 30
0.0
 11
1.0020592160256
 21
-71.61205255821835
 31
0.0
  0
LINE
  5
35E
330
2F1
100
AcDbEntity
  8
0
100
AcDbLine
 10
1.0020592160256
 20
-71.61205255821835
 30
0.0
 11
-0.7500945235503878
 21
-71.60435873113272
 31
0.0
  0
LINE
  5
35F
330
2F1
100
AcDbEntity
  8
0
100
AcDbLine
 10
-0.7500945235503878
 20
-71.60435873113272
 30
0.0
 11
-2.497947581974358
 21
-71.70273508201137
 31
0.0
  0
LINE
  5
360
330
2F1
100
AcDbEntity
  8
0
100
AcDbLine
 10
-2.497947581974358
 20
-71.70273508201137
 30
0.0
 11
-4.274252983220549
 21
-71.91712760216524
 31
0.0
  0
LINE
  5
361
330
2F1
100
AcDbEntity
  8
0
100
AcDbLine
 10
-4.274252983220549
 20
-71.91712760216524
 30
0.0
 11
-6.022172908256379
 21
-72.25569289119596
 31
0.0
  0
LINE
  5
362
330
2F1
100
AcDbEntity
  8
0
100
AcDbLine
 10
-6.022172908256379
 20
-72.25569289119596
 30
0.0
 11
-7.171647957952018
 21
-72.55886321730542
 31
0.0
  0
LINE
  5
363
330
2F1
100
AcDbEntity
  8
0
100
AcDbLine
 10
-7.171647957952018
 20
-72.55886321730542
 30
0.0
 11
-8.295335222482663
 21
-72.9294750472776
 31
0.0
  0
LINE
  5
364
330
2F1
100
AcDbEntity
  8
0
100
AcDbLine
 10
-8.295335222482663
 20
-72.9294750472776
 30
0.0
 11
-9.407667077728774
 21
-73.38392345911256
 31
0.0
  0
LINE
  5
365
330
2F1
100
AcDbEntity
  8
0
100
AcDbLine
 10
-9.407667077728774
 20
-73.38392345911256
 30
0.0
 11
-10.47521564145267
 21
-73.92368836030584
 31
0.0
  0
LINE
  5
366
330
2F1
100
AcDbEntity
  8
0
100
AcDbLine
 10
-10.47521564145267
 20
-73.92368836030584
 30
0.0
 11
-11.82581584519107
 21
-74.8069436893677
 31
0.0
  0
LINE
  5
367
330
2F1
100
AcDbEntity
  8
0
100
AcDbLine
 10
-11.82581584519107
 20
-74.8069436893677
 30
0.0
 11
-12.46107732504401
 21
-75.33274664758403
 31
0.0
  0
LINE
  5
368
330
2F1
100
AcDbEntity
  8
0
100
AcDbLine
 10
-12.46107732504401
 20
-75.33274664758403
 30
0.0
 11
-13.04915158883159
 21
-75.91220595403218
 31
0.0
  0
LINE
  5
369
330
2F1
100
AcDbEntity
  8
0
100
AcDbLine
 10
-13.04915158883159
 20
-75.91220595403218
 30
0.0
 11
-13.73966007153626
 21
-76.76531865922311
 31
0.0
  0
LINE
  5
36A
330
2F1
100
AcDbEntity
  8
0
100
AcDbLine
 10
-13.73966007153626
 20
-76.76531865922311
 30
0.0
 11
-14.31564555134264
 21
-77.73448071292921
 31
0.0
  0
LINE
  5
36B
330
2F1
100
AcDbEntity
  8
0
100
AcDbLine
 10
-14.5
 20
-77.92080596246603
 30
0.0
 11
-14.46725481293401
 21
-77.91493176774008
 31
0.0
  0
LINE
  5
36C
330
2F1
100
AcDbEntity
  8
0
100
AcDbLine
 10
-14.46725481293401
 20
-77.91493176774008
 30
0.0
 11
-14.4293741345607
 21
-77.89348378377439
 31
0.0
  0
LINE
  5
36D
330
2F1
100
AcDbEntity
  8
0
100
AcDbLine
 10
-14.4293741345607
 20
-77.89348378377439
 30
0.0
 11
-14.37464513549844
 21
-77.83474016575929
 31
0.0
  0
LINE
  5
36E
330
2F1
100
AcDbEntity
  8
0
100
AcDbLine
 10
-14.37464513549844
 20
-77.83474016575929
 30
0.0
 11
-14.31564555134264
 21
-77.73448071292932
 31
0.0
  0
LINE
  5
36F
330
2F1
100
AcDbEntity
  8
0
100
AcDbLine
 10
-14.96359111576453
 20
-93.00949992656184
 30
0.0
 11
-15.0
 21
-93.00949992656184
 31
0.0
  0
LINE
  5
370
330
2F1
100
AcDbEntity
  8
0
100
AcDbLine
 10
-15.0
 20
-93.00949992656184
 30
0.0
 11
-14.99999999999977
 21
-65.50949992656183
 31
0.0
  0
ARC
  5
371
330
2F1
100
AcDbEntity
  8
0
100
AcDbCircle
 10
-14.63307361771126
 20
-79.22447081342659
 30
0.0
 40
1.310439098684448
100
AcDbArc
 50
84.17163136696087
 51
106.2603611376256
  0
LINE
  5
372
330
2F1
100
AcDbEntity
  8
0
100
AcDbLine
 10
14.9635911157643
 20
-93.00949992656184
 30
0.0
 11
-14.96359111576453
 21
-93.00949992656184
 31
0.0
  0
ARC
  5
373
330
2F1
100
AcDbEntity
  8
0
100
AcDbCircle
 10
14.63335216118366
 20
-79.22141957414044
 30
0.0
 40
1.307432050152177
100
AcDbArc
 50
73.71391671635288
 51
95.85409077905239
  0
LINE
  5
374
330
2F1
100
AcDbEntity
  8
0
100
AcDbLine
 10
15.00000000000023
 20
-65.50949992656183
 30
0.0
 11
15.0
 21
-93.00949992656184
 31
0.0
  0
LINE
  5
375
330
2F1
100
AcDbEntity
  8
0
100
AcDbLine
 10
12.67224582217568
 20
-62.29197026494796
 30
0.0
 11
-12.67224582217591
 21
-62.29197026494796
 31
0.0
  0
ARC
  5
376
330
2F1
100
AcDbEntity
  8
0
100
AcDbCircle
 10
-18.00000000000023
 20
-61.26685923944262
 30
0.0
 40
5.00000000000002
100
AcDbArc
 50
309.5211963586479
 51
345.622922509621
  0
ARC
  5
377
330
2F1
100
AcDbEntity
  8
0
100
AcDbCircle
 10
-14.50000000000023
 20
-65.50949992656183
 30
0.0
 40
0.5
100
AcDbArc
 50
129.5211963586479
 51
180.0
  0
ARC
  5
378
330
2F1
100
AcDbEntity
  8
0
100
AcDbCircle
 10
17.99999999999977
 20
-61.26685923944262
 30
0.0
 40
5.000000000000001
100
AcDbArc
 50
194.377077490379
 51
230.4788036413521
  0
ARC
  5
379
330
2F1
100
AcDbEntity
  8
0
100
AcDbCircle
 10
14.49999999999977
 20
-65.50949992656183
 30
0.0
 40
0.5
100
AcDbArc
 50
0.0
 51
50.4788036413521
  0
LINE
  5
37A
330
2F1
100
AcDbEntity
  8
0
100
AcDbLine
 10
-13.15658711106903
 20
-62.50837105466439
 30
0.0
 11
-13.04152866534218
 21
-61.90994712097733
 31
0.0
  0
LINE
  5
37B
330
2F1
100
AcDbEntity
  8
0
100
AcDbLine
 10
-13.04152866534218
 20
-61.90994712097733
 30
0.0
 11
-13.00000000000023
 21
-61.26685923944262
 31
0.0
  0
LINE
  5
37C
330
2F1
100
AcDbEntity
  8
0
100
AcDbLine
 10
12.99999999999977
 20
-61.26685923944262
 30
0.0
 11
13.04063029909207
 21
-61.90298200252925
 31
0.0
  0
LINE
  5
37D
330
2F1
100
AcDbEntity
  8
0
100
AcDbLine
 10
13.04063029909207
 20
-61.90298200252925
 30
0.0
 11
13.1565871110688
 21
-62.50837105466439
 31
0.0
  0
LINE
  5
37E
330
2F1
100
AcDbEntity
  8
03-01
100
AcDbLine
 10
10.0
 20
-6.509499926561829
 30
0.0
 11
9.999999999999772
 21
-35.20949992656182
 31
0.0
  0
LINE
  5
37F
330
2F1
100
AcDbEntity
  8
0
100
AcDbLine
 10
9.999999999999772
 20
-49.99999999999983
 30
0.0
 11
9.999999999999772
 21
-55.51003564345285
 31
0.0
  0
LINE
  5
380
330
2F1
100
AcDbEntity
  8
03-01
100
AcDbLine
 10
13.00000000000023
 20
-7.009499926561829
 30
0.0
 11
12.99999999999977
 21
-42.4094999265618
 31
0.0
  0
LINE
  5
381
330
2F1
100
AcDbEntity
  8
0
100
AcDbLine
 10
12.99999999999977
 20
-49.99999999999983
 30
0.0
 11
12.99999999999977
 21
-61.26685923944137
 31
0.0
  0
ARC
  5
382
330
2F1
100
AcDbEntity
  8
03-01
100
AcDbCircle
 10
-9.000000000000227
 20
-35.20949992656182
 30
0.0
 40
1.0
100
AcDbArc
 50
180.0
 51
270.0
  0
LINE
  5
383
330
2F1
100
AcDbEntity
  8
03-01
100
AcDbLine
 10
8.999999999999772
 20
-36.20949992656182
 30
0.0
 11
-9.000000000000227
 21
-36.20949992656182
 31
0.0
  0
ARC
  5
384
330
2F1
100
AcDbEntity
  8
03-01
100
AcDbCircle
 10
8.999999999999772
 20
-35.20949992656182
 30
0.0
 40
1.0
100
AcDbArc
 50
270.0
 51
0.0
  0
LINE
  5
385
330
2F1
100
AcDbEntity
  8
03-01
100
AcDbLine
 10
-12.50000000000023
 20
-6.509499926561829
 30
0.0
 11
-10.00000000000023
 21
-6.509499926561829
 31
0.0
  0
ARC
  5
386
330
2F1
100
AcDbEntity
  8
03-01
100
AcDbCircle
 10
-12.50000000000023
 20
-7.009499926561829
 30
0.0
 40
0.5
100
AcDbArc
 50
90.0
 51
180.0
  0
LINE
  5
387
330
2F1
100
AcDbEntity
  8
03-01
100
AcDbLine
 10
-13.00000000000023
 20
-42.4094999265618
 30
0.0
 11
-17.00000000000023
 21
-42.4094999265618
 31
0.0
  0
LINE
  5
388
330
2F1
100
AcDbEntity
  8
03-01
100
AcDbLine
 10
-17.00000000000023
 20
-37.60949992656185
 30
0.0
 11
-13.00000000000023
 21
-37.60949992656185
 31
0.0
  0
ARC
  5
389
330
2F1
100
AcDbEntity
  8
03-01
100
AcDbCircle
 10
-17.00000000000023
 20
-40.00949992656183
 30
0.0
 40
2.400000000000028
100
AcDbArc
 50
90.0
 51
270.0
  0
LINE
  5
38A
330
2F1
100
AcDbEntity
  8
03-01
100
AcDbLine
 10
-13.00000000000023
 20
-12.40949992656181
 30
0.0
 11
-17.00000000000023
 21
-12.40949992656181
 31
0.0
  0
LINE
  5
38B
330
2F1
100
AcDbEntity
  8
03-01
100
AcDbLine
 10
-17.00000000000023
 20
-8.609499926561852
 30
0.0
 11
-13.00000000000023
 21
-8.609499926561852
 31
0.0
  0
ARC
  5
38C
330
2F1
100
AcDbEntity
  8
03-01
100
AcDbCircle
 10
-17.00000000000023
 20
-10.50949992656183
 30
0.0
 40
1.900000000000028
100
AcDbArc
 50
90.0
 51
270.0
  0
LINE
  5
38D
330
2F1
100
AcDbEntity
  8
03-01
100
AcDbLine
 10
-10.00000000000023
 20
-6.509499926561829
 30
0.0
 11
-10.00000000000023
 21
-35.20949992656182
 31
0.0
  0
LINE
  5
38E
330
2F1
100
AcDbEntity
  8
0
100
AcDbLine
 10
-10.00000000000023
 20
-49.99999999999983
 30
0.0
 11
-10.00000000000023
 21
-55.51003564345285
 31
0.0
  0
LINE
  5
38F
330
2F1
100
AcDbEntity
  8
03-01
100
AcDbLine
 10
-13.00000000000023
 20
-7.009499926561829
 30
0.0
 11
-13.00000000000023
 21
-42.4094999265618
 31
0.0
  0
LINE
  5
390
330
2F1
100
AcDbEntity
  8
0
100
AcDbLine
 10
-13.0
 20
-49.99999999999983
 30
0.0
 11
-13.0
 21
-61.26685923944137
 31
0.0
  0
LINE
  5
391
330
2F1
100
AcDbEntity
  8
0
100
AcDbLine
 10
-13.00000000000023
 20
-55.51003564345285
 30
0.0
 11
-10.00000000000023
 21
-55.51003564345285
 31
0.0
  0
LINE
  5
392
330
2F1
100
AcDbEntity
  8
0
100
AcDbLine
 10
10.0
 20
-55.51003564345279
 30
0.0
 11
12.99999999999977
 21
-55.51003564345279
 31
0.0
  0
LINE
  5
393
330
2F1
100
AcDbEntity
  8
03-01
100
AcDbLine
 10
-13.00000000000023
 20
-42.4094999265618
 30
0.0
 11
-13.0
 21
-49.99999999999989
 31
0.0
  0
LINE
  5
394
330
2F1
100
AcDbEntity
  8
03-01
100
AcDbLine
 10
-10.00000000000023
 20
-35.20949992656182
 30
0.0
 11
-10.0
 21
-49.99999999999989
 31
0.0
  0
LINE
  5
395
330
2F1
100
AcDbEntity
  8
03-01
100
AcDbLine
 10
9.999999999999772
 20
-35.20949992656182
 30
0.0
 11
9.999999999999772
 21
-49.99999999999983
 31
0.0
  0
LINE
  5
396
330
2F1
100
AcDbEntity
  8
03-01
100
AcDbLine
 10
12.99999999999977
 20
-42.4094999265618
 30
0.0
 11
12.99999999999977
 21
-49.99999999999983
 31
0.0
  0
ENDBLK
  5
397
330
2F1
100
AcDbEntity
  8
0
100
AcDbBlockEnd
  0
BLOCK
  5
3EE
330
3ED
100
AcDbEntity
  8
0
100
AcDbBlockBegin
  2
*D2
 70
     1
 10
0.0
 20
0.0
 30
0.0
  3
*D2
  1

  0
LINE
  5
3EF
330
3ED
100
AcDbEntity
  8
09-01
 62
     4
440
 16777216
370
    -2
100
AcDbLine
 10
270.9427468872714
 20
243.2929331735646
 30
0.0
 11
249.8067103420785
 21
243.2929331735646
 31
0.0
  0
LINE
  5
3F0
330
3ED
100
AcDbEntity
  8
09-01
 62
     4
440
 16777216
370
    -2
100
AcDbLine
 10
270.9427468872714
 20
395.7929331735646
 30
0.0
 11
249.8067103420785
 21
395.7929331735646
 31
0.0
  0
LINE
  5
3F1
330
3ED
100
AcDbEntity
  8
09-01
 62
     4
440
 16777216
370
    -2
100
AcDbLine
 10
251.8067103420785
 20
248.2929331735646
 30
0.0
 11
251.8067103420785
 21
390.7929331735646
 31
0.0
  0
SOLID
  5
3F2
330
3ED
100
AcDbEntity
  8
09-01
 62
     4
440
 16777216
100
AcDbTrace
 10
250.9733770087452
 20
248.2929331735646
 30
0.0
 11
252.6400436754118
 21
248.2929331735646
 31
0.0
 12
251.8067103420785
 22
243.2929331735646
 32
0.0
 13
251.8067103420785
 23
243.2929331735646
 33
0.0
  0
SOLID
  5
3F3
330
3ED
100
AcDbEntity
  8
09-01
 62
     4
440
 16777216
100
AcDbTrace
 10
250.9733770087452
 20
390.7929331735646
 30
0.0
 11
252.6400436754119
 21
390.7929331735646
 31
0.0
 12
251.8067103420785
 22
395.7929331735646
 32
0.0
 13
251.8067103420785
 23
395.7929331735646
 33
0.0
  0
MTEXT
  5
3F4
330
3ED
100
AcDbEntity
  8
09-01
 62
     1
440
 16777216
100
AcDbMText
 10
247.3067103420785
 20
319.5429331735647
 30
0.0
 40
5.0
 41
0.0
 46
0.0
 71
     5
 72
     1
  1
152.5
 11
0.0000000000000001
 21
1.0
 31
0.0
 73
     1
 44
1.0
  0
POINT
  5
3F5
330
3ED
100
AcDbEntity
  8
Defpoints
 62
     0
440
 16777216
100
AcDbPoint
 10
272.9427468872714
 20
243.2929331735646
 30
0.0
  0
POINT
  5
3F6
330
3ED
100
AcDbEntity
  8
Defpoints
 62
     0
440
 16777216
100
AcDbPoint
 10
272.9427468872714
 20
395.7929331735646
 30
0.0
  0
POINT
  5
3F7
330
3ED
100
AcDbEntity
  8
Defpoints
 62
     0
440
 16777216
100
AcDbPoint
 10
251.8067103420785
 20
395.7929331735646
 30
0.0
  0
ENDBLK
  5
3F8
330
3ED
100
AcDbEntity
  8
0
100
AcDbBlockEnd
  0
BLOCK
  5
293
330
292
100
AcDbEntity
  8
0
100
AcDbBlockBegin
  2
*D3
 70
     1
 10
0.0
 20
0.0
 30
0.0
  3
*D3
  1

  0
LINE
  5
294
330
292
100
AcDbEntity
  8
0
 62
     4
440
 16777216
370
    -2
100
AcDbLine
 10
272.9427468872714
 20
241.2929331735646
 30
0.0
 11
272.9427468872714
 21
176.7411840347161
 31
0.0
  0
LINE
  5
295
330
292
100
AcDbEntity
  8
0
 62
     4
440
 16777216
370
    -2
100
AcDbLine
 10
377.3682104203053
 20
233.2960582545597
 30
0.0
 11
377.3682104203053
 21
176.7411840347161
 31
0.0
  0
LINE
  5
296
330
292
100
AcDbEntity
  8
0
 62
     4
440
 16777216
370
    -2
100
AcDbLine
 10
277.9427468872714
 20
178.7411840347161
 30
0.0
 11
372.3682104203053
 21
178.7411840347161
 31
0.0
  0
SOLID
  5
297
330
292
100
AcDbEntity
  8
0
 62
     4
440
 16777216
100
AcDbTrace
 10
277.9427468872714
 20
179.5745173680495
 30
0.0
 11
277.9427468872714
 21
177.9078507013828
 31
0.0
 12
272.9427468872714
 22
178.7411840347161
 32
0.0
 13
272.9427468872714
 23
178.7411840347161
 33
0.0
  0
SOLID
  5
298
330
292
100
AcDbEntity
  8
0
 62
     4
440
 16777216
100
AcDbTrace
 10
372.3682104203053
 20
179.5745173680495
 30
0.0
 11
372.3682104203053
 21
177.9078507013828
 31
0.0
 12
377.3682104203053
 22
178.7411840347161
 32
0.0
 13
377.3682104203053
 23
178.7411840347161
 33
0.0
  0
MTEXT
  5
299
330
292
100
AcDbEntity
  8
0
 62
     1
440
 16777216
100
AcDbMText
 10
325.1554786537884
 20
183.2411840347161
 30
0.0
 40
5.0
 41
0.0
 46
0.0
 71
     5
 72
     1
  1
104.4
 73
     1
 44
1.0
  0
POINT
  5
29A
330
292
100
AcDbEntity
  8
Defpoints
 62
     0
440
 16777216
100
AcDbPoint
 10
272.9427468872714
 20
243.2929331735646
 30
0.0
  0
POINT
  5
29B
330
292
100
AcDbEntity
  8
Defpoints
 62
     0
440
 16777216
100
AcDbPoint
 10
377.3682104203053
 20
235.2960582545597
 30
0.0
  0
POINT
  5
29C
330
292
100
AcDbEntity
  8
Defpoints
 62
     0
440
 16777216
100
AcDbPoint
 10
377.3682104203053
 20
178.7411840347161
 30
0.0
  0
ENDBLK
  5
29D
330
292
100
AcDbEntity
  8
0
100
AcDbBlockEnd
  0
BLOCK
  5
286
330
285
100
AcDbEntity
  8
0
100
AcDbBlockBegin
  2
*D4
 70
     1
 10
0.0
 20
0.0
 30
0.0
  3
*D4
  1

  0
LINE
  5
287
330
285
100
AcDbEntity
  8
0
 62
     4
440
 16777216
370
    -2
100
AcDbLine
 10
79.67278840511335
 20
249.7929331735652
 30
0.0
 11
79.67278840511335
 21
165.0404201623517
 31
0.0
  0
LINE
  5
288
330
285
100
AcDbEntity
  8
0
 62
     4
440
 16777216
370
    -2
100
AcDbLine
 10
147.1727884051138
 20
249.7929331735652
 30
0.0
 11
147.1727884051138
 21
165.0404201623517
 31
0.0
  0
LINE
  5
289
330
285
100
AcDbEntity
  8
0
 62
     4
440
 16777216
370
    -2
100
AcDbLine
 10
84.67278840511335
 20
167.0404201623517
 30
0.0
 11
142.1727884051138
 21
167.0404201623517
 31
0.0
  0
SOLID
  5
28A
330
285
100
AcDbEntity
  8
0
 62
     4
440
 16777216
100
AcDbTrace
 10
84.67278840511335
 20
167.8737534956851
 30
0.0
 11
84.67278840511335
 21
166.2070868290184
 31
0.0
 12
79.67278840511335
 22
167.0404201623517
 32
0.0
 13
79.67278840511335
 23
167.0404201623517
 33
0.0
  0
SOLID
  5
28B
330
285
100
AcDbEntity
  8
0
 62
     4
440
 16777216
100
AcDbTrace
 10
142.1727884051138
 20
167.8737534956851
 30
0.0
 11
142.1727884051138
 21
166.2070868290184
 31
0.0
 12
147.1727884051138
 22
167.0404201623517
 32
0.0
 13
147.1727884051138
 23
167.0404201623517
 33
0.0
  0
MTEXT
  5
28C
330
285
100
AcDbEntity
  8
0
 62
     1
440
 16777216
100
AcDbMText
 10
113.4227884051135
 20
171.5404201623517
 30
0.0
 40
5.0
 41
0.0
 46
0.0
 71
     5
 72
     1
  1
67.5
 73
     1
 44
1.0
  0
POINT
  5
28D
330
285
100
AcDbEntity
  8
Defpoints
 62
     0
440
 16777216
100
AcDbPoint
 10
79.67278840511335
 20
251.7929331735652
 30
0.0
  0
POINT
  5
28E
330
285
100
AcDbEntity
  8
Defpoints
 62
     0
440
 16777216
100
AcDbPoint
 10
147.1727884051138
 20
251.7929331735652
 30
0.0
  0
POINT
  5
28F
330
285
100
AcDbEntity
  8
Defpoints
 62
     0
440
 16777216
100
AcDbPoint
 10
147.1727884051138
 20
167.0404201623517
 30
0.0
  0
ENDBLK
  5
290
330
285
100
AcDbEntity
  8
0
100
AcDbBlockEnd
  0
BLOCK
  5
227
330
226
100
AcDbEntity
  8
0
100
AcDbBlockBegin
  2
*D5
 70
     1
 10
0.0
 20
0.0
 30
0.0
  3
*D5
  1

  0
LINE
  5
228
330
226
100
AcDbEntity
  8
0
 62
     4
440
 16777216
370
    -2
100
AcDbLine
 10
98.45919728934859
 20
198.7865570162782
 30
0.0
 11
98.45919728934859
 21
183.4496879836918
 31
0.0
  0
LINE
  5
229
330
226
100
AcDbEntity
  8
0
 62
     4
440
 16777216
370
    -2
100
AcDbLine
 10
128.3863795208772
 20
198.7865570162782
 30
0.0
 11
128.3863795208772
 21
183.4496879836918
 31
0.0
  0
LINE
  5
22A
330
226
100
AcDbEntity
  8
0
 62
     4
440
 16777216
370
    -2
100
AcDbLine
 10
103.4591972893486
 20
185.4496879836918
 30
0.0
 11
123.3863795208772
 21
185.4496879836918
 31
0.0
  0
SOLID
  5
22B
330
226
100
AcDbEntity
  8
0
 62
     4
440
 16777216
100
AcDbTrace
 10
103.4591972893486
 20
186.2830213170252
 30
0.0
 11
103.4591972893486
 21
184.6163546503585
 31
0.0
 12
98.45919728934859
 22
185.4496879836918
 32
0.0
 13
98.45919728934859
 23
185.4496879836918
 33
0.0
  0
SOLID
  5
22C
330
226
100
AcDbEntity
  8
0
 62
     4
440
 16777216
100
AcDbTrace
 10
123.3863795208772
 20
186.2830213170252
 30
0.0
 11
123.3863795208772
 21
184.6163546503585
 31
0.0
 12
128.3863795208772
 22
185.4496879836918
 32
0.0
 13
128.3863795208772
 23
185.4496879836918
 33
0.0
  0
MTEXT
  5
22D
330
226
100
AcDbEntity
  8
0
 62
     1
440
 16777216
100
AcDbMText
 10
113.4227884051129
 20
189.9496879836918
 30
0.0
 40
5.0
 41
0.0
 46
0.0
 71
     5
 72
     1
  1
29.9
 73
     1
 44
1.0
  0
POINT
  5
22E
330
226
100
AcDbEntity
  8
Defpoints
 62
     0
440
 16777216
100
AcDbPoint
 10
98.45919728934859
 20
200.7865570162782
 30
0.0
  0
POINT
  5
22F
330
226
100
AcDbEntity
  8
Defpoints
 62
     0
440
 16777216
100
AcDbPoint
 10
128.3863795208772
 20
200.7865570162782
 30
0.0
  0
POINT
  5
230
330
226
100
AcDbEntity
  8
Defpoints
 62
     0
440
 16777216
100
AcDbPoint
 10
128.3863795208772
 20
185.4496879836918
 30
0.0
  0
ENDBLK
  5
231
330
226
100
AcDbEntity
  8
0
100
AcDbBlockEnd
  0
BLOCK
  5
21A
330
219
100
AcDbEntity
  8
0
100
AcDbBlockBegin
  2
*D6
 70
     1
 10
0.0
 20
0.0
 30
0.0
  3
*D6
  1

  0
LINE
  5
21B
330
219
100
AcDbEntity
  8
0
 62
     4
440
 16777216
370
    -2
100
AcDbLine
 10
270.9427468872714
 20
395.7929331735646
 30
0.0
 11
239.1503049012013
 21
395.7929331735646
 31
0.0
  0
LINE
  5
21C
330
219
100
AcDbEntity
  8
0
 62
     4
440
 16777216
370
    -2
100
AcDbLine
 10
337.5648201474242
 20
202.6916054801638
 30
0.0
 11
239.1503049012012
 21
202.6916054801638
 31
0.0
  0
LINE
  5
21D
330
219
100
AcDbEntity
  8
0
 62
     4
440
 16777216
370
    -2
100
AcDbLine
 10
241.1503049012013
 20
390.7929331735646
 30
0.0
 11
241.1503049012012
 21
207.6916054801638
 31
0.0
  0
SOLID
  5
21E
330
219
100
AcDbEntity
  8
0
 62
     4
440
 16777216
100
AcDbTrace
 10
240.3169715678679
 20
390.7929331735646
 30
0.0
 11
241.9836382345346
 21
390.7929331735646
 31
0.0
 12
241.1503049012013
 22
395.7929331735646
 32
0.0
 13
241.1503049012013
 23
395.7929331735646
 33
0.0
  0
SOLID
  5
21F
330
219
100
AcDbEntity
  8
0
 62
     4
440
 16777216
100
AcDbTrace
 10
240.3169715678679
 20
207.6916054801638
 30
0.0
 11
241.9836382345346
 21
207.6916054801638
 31
0.0
 12
241.1503049012012
 22
202.6916054801638
 32
0.0
 13
241.1503049012012
 23
202.6916054801638
 33
0.0
  0
MTEXT
  5
220
330
219
100
AcDbEntity
  8
0
 62
     1
440
 16777216
100
AcDbMText
 10
236.6503049012012
 20
299.2422693268643
 30
0.0
 40
5.0
 41
0.0
 46
0.0
 71
     5
 72
     1
  1
193.1
 11
0.0000000000000001
 21
1.0
 31
0.0
 73
     1
 44
1.0
  0
POINT
  5
221
330
219
100
AcDbEntity
  8
Defpoints
 62
     0
440
 16777216
100
AcDbPoint
 10
272.9427468872714
 20
395.7929331735646
 30
0.0
  0
POINT
  5
222
330
219
100
AcDbEntity
  8
Defpoints
 62
     0
440
 16777216
100
AcDbPoint
 10
339.5648201474241
 20
202.6916054801638
 30
0.0
  0
POINT
  5
223
330
219
100
AcDbEntity
  8
Defpoints
 62
     0
440
 16777216
100
AcDbPoint
 10
241.1503049012012
 20
202.6916054801638
 30
0.0
  0
ENDBLK
  5
224
330
219
100
AcDbEntity
  8
0
100
AcDbBlockEnd
  0
BLOCK
  5
20D
330
20C
100
AcDbEntity
  8
0
100
AcDbBlockBegin
  2
*D7
 70
     1
 10
0.0
 20
0.0
 30
0.0
  3
*D7
  1

  0
LINE
  5
20E
330
20C
100
AcDbEntity
  8
0
 62
     4
440
 16777216
370
    -2
100
AcDbLine
 10
79.17278840511426
 20
243.2929331735648
 30
0.0
 11
63.5271894351922
 21
243.2929331735649
 31
0.0
  0
LINE
  5
20F
330
20C
100
AcDbEntity
  8
0
 62
     4
440
 16777216
370
    -2
100
AcDbLine
 10
96.42278840511336
 20
289.7929331735651
 30
0.0
 11
63.52718943519221
 21
289.7929331735651
 31
0.0
  0
LINE
  5
210
330
20C
100
AcDbEntity
  8
0
 62
     4
440
 16777216
370
    -2
100
AcDbLine
 10
65.5271894351922
 20
248.2929331735649
 30
0.0
 11
65.5271894351922
 21
284.7929331735651
 31
0.0
  0
SOLID
  5
211
330
20C
100
AcDbEntity
  8
0
 62
     4
440
 16777216
100
AcDbTrace
 10
64.69385610185887
 20
248.2929331735649
 30
0.0
 11
66.36052276852552
 21
248.2929331735649
 31
0.0
 12
65.5271894351922
 22
243.2929331735648
 32
0.0
 13
65.5271894351922
 23
243.2929331735648
 33
0.0
  0
SOLID
  5
212
330
20C
100
AcDbEntity
  8
0
 62
     4
440
 16777216
100
AcDbTrace
 10
64.69385610185887
 20
284.7929331735651
 30
0.0
 11
66.36052276852552
 21
284.7929331735651
 31
0.0
 12
65.52718943519221
 22
289.7929331735651
 32
0.0
 13
65.52718943519221
 23
289.7929331735651
 33
0.0
  0
MTEXT
  5
213
330
20C
100
AcDbEntity
  8
0
 62
     1
440
 16777216
100
AcDbMText
 10
61.02718943519215
 20
266.542933173565
 30
0.0
 40
5.0
 41
0.0
 46
0.0
 71
     5
 72
     1
  1
46.5
 11
0.0000000000000001
 21
1.0
 31
0.0
 73
     1
 44
1.0
  0
POINT
  5
214
330
20C
100
AcDbEntity
  8
Defpoints
 62
     0
440
 16777216
100
AcDbPoint
 10
81.17278840511426
 20
243.2929331735648
 30
0.0
  0
POINT
  5
215
330
20C
100
AcDbEntity
  8
Defpoints
 62
     0
440
 16777216
100
AcDbPoint
 10
98.42278840511335
 20
289.7929331735651
 30
0.0
  0
POINT
  5
216
330
20C
100
AcDbEntity
  8
Defpoints
 62
     0
440
 16777216
100
AcDbPoint
 10
65.52718943519221
 20
289.7929331735651
 30
0.0
  0
ENDBLK
  5
217
330
20C
100
AcDbEntity
  8
0
100
AcDbBlockEnd
  0
BLOCK
  5
200
330
1FF
100
AcDbEntity
  8
0
100
AcDbBlockBegin
  2
*D8
 70
     1
 10
0.0
 20
0.0
 30
0.0
  3
*D8
  1

  0
LINE
  5
201
330
1FF
100
AcDbEntity
  8
0
 62
     4
440
 16777216
370
    -2
100
AcDbLine
 10
98.42278840511335
 20
295.2929331735651
 30
0.0
 11
98.42278840511335
 21
305.1988331260129
 31
0.0
  0
LINE
  5
202
330
1FF
100
AcDbEntity
  8
0
 62
     4
440
 16777216
370
    -2
100
AcDbLine
 10
128.4227884051129
 20
295.2929331735648
 30
0.0
 11
128.4227884051129
 21
305.1988331260129
 31
0.0
  0
LINE
  5
203
330
1FF
100
AcDbEntity
  8
0
 62
     4
440
 16777216
370
    -2
100
AcDbLine
 10
103.4227884051133
 20
303.1988331260129
 30
0.0
 11
123.4227884051129
 21
303.1988331260129
 31
0.0
  0
SOLID
  5
204
330
1FF
100
AcDbEntity
  8
0
 62
     4
440
 16777216
100
AcDbTrace
 10
103.4227884051133
 20
304.0321664593462
 30
0.0
 11
103.4227884051133
 21
302.3654997926796
 31
0.0
 12
98.42278840511335
 22
303.1988331260129
 32
0.0
 13
98.42278840511335
 23
303.1988331260129
 33
0.0
  0
SOLID
  5
205
330
1FF
100
AcDbEntity
  8
0
 62
     4
440
 16777216
100
AcDbTrace
 10
123.4227884051129
 20
304.0321664593462
 30
0.0
 11
123.4227884051129
 21
302.3654997926796
 31
0.0
 12
128.4227884051129
 22
303.1988331260129
 32
0.0
 13
128.4227884051129
 23
303.1988331260129
 33
0.0
  0
MTEXT
  5
206
330
1FF
100
AcDbEntity
  8
0
 62
     1
440
 16777216
100
AcDbMText
 10
113.4227884051131
 20
307.6988331260129
 30
0.0
 40
5.0
 41
0.0
 46
0.0
 71
     5
 72
     1
  1
30
 73
     1
 44
1.0
  0
POINT
  5
207
330
1FF
100
AcDbEntity
  8
Defpoints
 62
     0
440
 16777216
100
AcDbPoint
 10
98.42278840511335
 20
293.2929331735651
 30
0.0
  0
POINT
  5
208
330
1FF
100
AcDbEntity
  8
Defpoints
 62
     0
440
 16777216
100
AcDbPoint
 10
128.4227884051129
 20
293.2929331735648
 30
0.0
  0
POINT
  5
209
330
1FF
100
AcDbEntity
  8
Defpoints
 62
     0
440
 16777216
100
AcDbPoint
 10
128.4227884051129
 20
303.1988331260129
 30
0.0
  0
ENDBLK
  5
20A
330
1FF
100
AcDbEntity
  8
0
100
AcDbBlockEnd
  0
BLOCK
  5
1F1
330
1F0
100
AcDbEntity
  8
0
100
AcDbBlockBegin
  2
*D9
 70
     1
 10
0.0
 20
0.0
 30
0.0
  3
*D9
  1

  0
LINE
  5
1F2
330
1F0
100
AcDbEntity
  8
0
 62
     4
440
 16777216
370
    -2
100
AcDbLine
 10
92.17278840511335
 20
275.7929331735651
 30
0.0
 11
92.17278840511335
 21
260.7103199638079
 31
0.0
  0
LINE
  5
1F3
330
1F0
100
AcDbEntity
  8
0
 62
     4
440
 16777216
370
    -2
100
AcDbLine
 10
104.6727884051133
 20
275.7929331402364
 30
0.0
 11
104.6727884051133
 21
260.7103199638079
 31
0.0
  0
LINE
  5
1F4
330
1F0
100
AcDbEntity
  8
0
 62
     4
440
 16777216
370
    -2
100
AcDbLine
 10
87.17278840511335
 20
262.7103199638079
 30
0.0
 11
82.17278840511335
 21
262.7103199638079
 31
0.0
  0
LINE
  5
1F5
330
1F0
100
AcDbEntity
  8
0
 62
     4
440
 16777216
370
    -2
100
AcDbLine
 10
109.6727884051133
 20
262.7103199638079
 30
0.0
 11
114.6727884051133
 21
262.7103199638079
 31
0.0
  0
LINE
  5
1F6
330
1F0
100
AcDbEntity
  8
0
 62
     4
440
 16777216
370
    -2
100
AcDbLine
 10
92.17278840511335
 20
262.7103199638079
 30
0.0
 11
104.6727884051133
 21
262.7103199638079
 31
0.0
  0
SOLID
  5
1F7
330
1F0
100
AcDbEntity
  8
0
 62
     4
440
 16777216
100
AcDbTrace
 10
87.17278840511335
 20
263.5436532971413
 30
0.0
 11
87.17278840511335
 21
261.8769866304746
 31
0.0
 12
92.17278840511335
 22
262.7103199638079
 32
0.0
 13
92.17278840511335
 23
262.7103199638079
 33
0.0
  0
SOLID
  5
1F8
330
1F0
100
AcDbEntity
  8
0
 62
     4
440
 16777216
100
AcDbTrace
 10
109.6727884051133
 20
263.5436532971413
 30
0.0
 11
109.6727884051133
 21
261.8769866304746
 31
0.0
 12
104.6727884051133
 22
262.7103199638079
 32
0.0
 13
104.6727884051133
 23
262.7103199638079
 33
0.0
  0
MTEXT
  5
1F9
330
1F0
100
AcDbEntity
  8
0
 62
     1
440
 16777216
100
AcDbMText
 10
98.42278840511335
 20
267.2103199638079
 30
0.0
 40
5.0
 41
0.0
 46
0.0
 71
     5
 72
     1
  1
12.5
 73
     1
 44
1.0
  0
POINT
  5
1FA
330
1F0
100
AcDbEntity
  8
Defpoints
 62
     0
440
 16777216
100
AcDbPoint
 10
92.17278840511335
 20
277.7929331735651
 30
0.0
  0
POINT
  5
1FB
330
1F0
100
AcDbEntity
  8
Defpoints
 62
     0
440
 16777216
100
AcDbPoint
 10
104.6727884051133
 20
277.7929331402364
 30
0.0
  0
POINT
  5
1FC
330
1F0
100
AcDbEntity
  8
Defpoints
 62
     0
440
 16777216
100
AcDbPoint
 10
104.6727884051133
 20
262.7103199638079
 30
0.0
  0
ENDBLK
  5
1FD
330
1F0
100
AcDbEntity
  8
0
100
AcDbBlockEnd
  0
BLOCK
  5
1E2
330
1E1
100
AcDbEntity
  8
0
100
AcDbBlockBegin
  2
*D10
 70
     1
 10
0.0
 20
0.0
 30
0.0
  3
*D10
  1

  0
LINE
  5
1E3
330
1E1
100
AcDbEntity
  8
0
 62
     4
440
 16777216
370
    -2
100
AcDbLine
 10
125.6727884051129
 20
291.7929331735649
 30
0.0
 11
125.6727884051129
 21
295.7960569428401
 31
0.0
  0
LINE
  5
1E4
330
1E1
100
AcDbEntity
  8
0
 62
     4
440
 16777216
370
    -2
100
AcDbLine
 10
131.1727884051129
 20
291.7929331735649
 30
0.0
 11
131.1727884051129
 21
295.7960569428401
 31
0.0
  0
LINE
  5
1E5
330
1E1
100
AcDbEntity
  8
0
 62
     4
440
 16777216
370
    -2
100
AcDbLine
 10
120.6727884051129
 20
293.7960569428401
 30
0.0
 11
115.6727884051129
 21
293.7960569428401
 31
0.0
  0
LINE
  5
1E6
330
1E1
100
AcDbEntity
  8
0
 62
     4
440
 16777216
370
    -2
100
AcDbLine
 10
136.1727884051129
 20
293.7960569428401
 30
0.0
 11
141.1727884051129
 21
293.7960569428401
 31
0.0
  0
MTEXT
  5
1E7
330
1E1
100
AcDbEntity
  8
0
 62
     1
440
 16777216
100
AcDbMText
 10
118.4226433463286
 20
298.5166262785572
 30
0.0
 40
5.0
 41
0.0
 46
0.0
 71
     5
 72
     1
  1
5.5
 73
     1
 44
1.0
  0
LINE
  5
1E8
330
1E1
100
AcDbEntity
  8
0
 62
     4
440
 16777216
370
    -2
100
AcDbLine
 10
125.6727884051129
 20
293.7960569428401
 30
0.0
 11
131.1727884051129
 21
293.7960569428401
 31
0.0
  0
SOLID
  5
1E9
330
1E1
100
AcDbEntity
  8
0
 62
     4
440
 16777216
100
AcDbTrace
 10
120.6727884051129
 20
294.6293902761734
 30
0.0
 11
120.6727884051129
 21
292.9627236095068
 31
0.0
 12
125.6727884051129
 22
293.7960569428401
 32
0.0
 13
125.6727884051129
 23
293.7960569428401
 33
0.0
  0
SOLID
  5
1EA
330
1E1
100
AcDbEntity
  8
0
 62
     4
440
 16777216
100
AcDbTrace
 10
136.1727884051129
 20
294.6293902761734
 30
0.0
 11
136.1727884051129
 21
292.9627236095068
 31
0.0
 12
131.1727884051129
 22
293.7960569428401
 32
0.0
 13
131.1727884051129
 23
293.7960569428401
 33
0.0
  0
POINT
  5
1EB
330
1E1
100
AcDbEntity
  8
Defpoints
 62
     0
440
 16777216
100
AcDbPoint
 10
125.6727884051129
 20
289.7929331735649
 30
0.0
  0
POINT
  5
1EC
330
1E1
100
AcDbEntity
  8
Defpoints
 62
     0
440
 16777216
100
AcDbPoint
 10
131.1727884051129
 20
289.7929331735649
 30
0.0
  0
POINT
  5
1ED
330
1E1
100
AcDbEntity
  8
Defpoints
 62
     0
440
 16777216
100
AcDbPoint
 10
131.1727884051129
 20
293.7960569428401
 30
0.0
  0
ENDBLK
  5
1EE
330
1E1
100
AcDbEntity
  8
0
100
AcDbBlockEnd
  0
BLOCK
  5
1D3
330
1D2
100
AcDbEntity
  8
0
100
AcDbBlockBegin
  2
*D11
 70
     1
 10
0.0
 20
0.0
 30
0.0
  3
*D11
  1

  0
LINE
  5
1D4
330
1D2
100
AcDbEntity
  8
0
 62
     4
440
 16777216
370
    -2
100
AcDbLine
 10
92.42278840511335
 20
289.7929331735651
 30
0.0
 11
74.20251193573723
 21
289.7929331735651
 31
0.0
  0
LINE
  5
1D5
330
1D2
100
AcDbEntity
  8
0
 62
     4
440
 16777216
370
    -2
100
AcDbLine
 10
89.17278840511334
 20
277.7929331735651
 30
0.0
 11
74.20251193573722
 21
277.7929331735651
 31
0.0
  0
LINE
  5
1D6
330
1D2
100
AcDbEntity
  8
0
 62
     4
440
 16777216
370
    -2
100
AcDbLine
 10
76.20251193573723
 20
294.7929331735651
 30
0.0
 11
76.20251193573723
 21
299.7929331735651
 31
0.0
  0
LINE
  5
1D7
330
1D2
100
AcDbEntity
  8
0
 62
     4
440
 16777216
370
    -2
100
AcDbLine
 10
76.20251193573722
 20
272.7929331735651
 30
0.0
 11
76.20251193573722
 21
267.7929331735651
 31
0.0
  0
LINE
  5
1D8
330
1D2
100
AcDbEntity
  8
0
 62
     4
440
 16777216
370
    -2
100
AcDbLine
 10
76.20251193573723
 20
289.7929331735651
 30
0.0
 11
76.20251193573722
 21
277.7929331735651
 31
0.0
  0
SOLID
  5
1D9
330
1D2
100
AcDbEntity
  8
0
 62
     4
440
 16777216
100
AcDbTrace
 10
75.3691786024039
 20
294.7929331735651
 30
0.0
 11
77.03584526907056
 21
294.7929331735651
 31
0.0
 12
76.20251193573723
 22
289.7929331735651
 32
0.0
 13
76.20251193573723
 23
289.7929331735651
 33
0.0
  0
SOLID
  5
1DA
330
1D2
100
AcDbEntity
  8
0
 62
     4
440
 16777216
100
AcDbTrace
 10
75.36917860240389
 20
272.7929331735651
 30
0.0
 11
77.03584526907055
 21
272.7929331735651
 31
0.0
 12
76.20251193573722
 22
277.7929331735651
 32
0.0
 13
76.20251193573722
 23
277.7929331735651
 33
0.0
  0
MTEXT
  5
1DB
330
1D2
100
AcDbEntity
  8
0
 62
     1
440
 16777216
100
AcDbMText
 10
71.70251193573718
 20
283.7929331735651
 30
0.0
 40
5.0
 41
0.0
 46
0.0
 71
     5
 72
     1
  1
12
 11
0.0000000000000001
 21
1.0
 31
0.0
 73
     1
 44
1.0
  0
POINT
  5
1DC
330
1D2
100
AcDbEntity
  8
Defpoints
 62
     0
440
 16777216
100
AcDbPoint
 10
94.42278840511335
 20
289.7929331735651
 30
0.0
  0
POINT
  5
1DD
330
1D2
100
AcDbEntity
  8
Defpoints
 62
     0
440
 16777216
100
AcDbPoint
 10
91.17278840511335
 20
277.7929331735651
 30
0.0
  0
POINT
  5
1DE
330
1D2
100
AcDbEntity
  8
Defpoints
 62
     0
440
 16777216
100
AcDbPoint
 10
76.20251193573722
 20
277.7929331735651
 30
0.0
  0
ENDBLK
  5
1DF
330
1D2
100
AcDbEntity
  8
0
100
AcDbBlockEnd
  0
BLOCK
  5
115
330
112
100
AcDbEntity
  8
0
100
AcDbBlockBegin
  2
desipumpe_sa
 70
     0
 10
0.0
 20
0.0
 30
0.0
  3
desipumpe_sa
  1

  0
LINE
  5
116
330
112
100
AcDbEntity
  8
02-01
100
AcDbLine
 10
-471.6264859821973
 20
284.7525377736129
 30
0.0
 11
-472.8081861567311
 21
284.7525377736129
 31
0.0
  0
LINE
  5
117
330
112
100
AcDbEntity
  8
02-01
100
AcDbLine
 10
-459.9481303285899
 20
284.7525377736129
 30
0.0
 11
-461.0655953225074
 21
284.7525377736129
 31
0.0
  0
LINE
  5
118
330
112
100
AcDbEntity
  8
02-01
100
AcDbLine
 10
-473.8080338514107
 20
285.7350853398624
 30
0.0
 11
-473.8755405929265
 21
289.602537916664
 31
0.0
  0
ARC
  5
119
330
112
100
AcDbEntity
  8
02-01
100
AcDbCircle
 10
-472.8081861567311
 20
285.7525377736129
 30
0.0
 40
1.0
100
AcDbArc
 50
181.0000015651706
 51
270.0
  0
LINE
  5
11A
330
112
100
AcDbEntity
  8
02-01
100
AcDbLine
 10
-458.8807758923945
 20
289.602537916664
 30
0.0
 11
-458.9482826339104
 21
285.7350853398624
 31
0.0
  0
ARC
  5
11B
330
112
100
AcDbEntity
  8
02-01
100
AcDbCircle
 10
-459.9481303285899
 20
285.7525377736129
 30
0.0
 40
1.0
100
AcDbArc
 50
270.0
 51
358.9999984348292
  0
LINE
  5
11C
330
112
100
AcDbEntity
  8
02-01
100
AcDbLine
 10
-461.0560772057948
 20
284.754162000183
 30
0.0
 11
-461.5542509641824
 21
281.9288869366683
 31
0.0
  0
LINE
  5
11D
330
112
100
AcDbEntity
  8
02-01
100
AcDbLine
 10
-471.2020673837838
 20
281.9288869366683
 30
0.0
 11
-471.7023775961576
 21
284.7662915453948
 31
0.0
  0
ARC
  5
11E
330
112
100
AcDbEntity
  8
02-01
100
AcDbCircle
 10
-462.5390587154916
 20
282.1025319561996
 30
0.0
 40
1.000000000000002
100
AcDbArc
 50
270.0
 51
349.9999999999951
  0
ARC
  5
11F
330
112
100
AcDbEntity
  8
02-01
100
AcDbCircle
 10
-470.2172579778461
 20
282.1025319561996
 30
0.0
 40
1.000000000000002
100
AcDbArc
 50
190.0000000000047
 51
270.0
  0
SPLINE
  5
120
330
112
100
AcDbEntity
  8
02-01
100
AcDbSpline
210
0.0
220
0.0
230
1.0
 70
     8
 71
     3
 72
    17
 73
    13
 74
     0
 42
0.0000000001
 43
0.0000000001
 40
0.0
 40
0.0
 40
0.0
 40
0.0
 40
0.0600543499638597
 40
0.1648234495280559
 40
0.2723661016691685
 40
0.3832407533501493
 40
0.4895330601902239
 40
0.5863420781005051
 40
0.6814648365672097
 40
0.7837911670314727
 40
0.8936449548470841
 40
1.0
 40
1.0
 40
1.0
 40
1.0
 10
-471.6264859821973
 20
284.7796727881469
 30
0.0
 10
-471.6370128615283
 20
284.7758500418412
 30
0.0
 10
-471.6659046331504
 20
284.7653582417779
 30
0.0
 10
-471.0726026996435
 20
284.981844030737
 30
0.0
 10
-469.9632830534035
 20
285.3241845057823
 30
0.0
 10
-468.3941433252543
 20
285.6648759317654
 30
0.0
 10
-466.614263203426
 20
285.8177945253291
 30
0.0
 10
-464.8998360222553
 20
285.7293638555414
 30
0.0
 10
-463.380418479364
 20
285.4676208749781
 30
0.0
 10
-462.1229494439294
 20
285.127582740213
 30
0.0
 10
-461.2279154873069
 20
284.8178399794289
 30
0.0
 10
-461.1191151665675
 20
284.7763163680852
 30
0.0
 10
-461.0655953225074
 20
284.7558905348815
 30
0.0
  0
LINE
  5
121
330
112
100
AcDbEntity
  8
02-01
100
AcDbLine
 10
-470.217257091063
 20
281.1025281415023
 30
0.0
 11
-462.539059394258
 21
281.1025281415023
 31
0.0
  0
LINE
  5
122
330
112
100
AcDbEntity
  8
03-01
100
AcDbLine
 10
-385.0871699531199
 20
516.1374323526403
 30
0.0
 11
-385.0335685807211
 21
514.6025319561995
 31
0.0
  0
ARC
  5
123
330
112
100
AcDbEntity
  8
03-01
100
AcDbCircle
 10
-386.0865607467676
 20
516.1025319003202
 30
0.0
 40
1.0
100
AcDbArc
 50
2.000054786234668
 51
90.0
  0
LINE
  5
124
330
112
100
AcDbEntity
  8
03-01
100
AcDbLine
 10
-482.5799705336565
 20
516.1374298336384
 30
0.0
 11
-482.6335679446024
 21
514.6025319561995
 31
0.0
  0
LINE
  5
125
330
112
100
AcDbEntity
  8
03-01
100
AcDbLine
 10
-402.9895038196873
 20
517.1025319003201
 30
0.0
 11
-386.0865607467676
 21
517.1025319003201
 31
0.0
  0
LINE
  5
126
330
112
100
AcDbEntity
  8
03-01
100
AcDbLine
 10
-407.0776346822476
 20
517.1025319003201
 30
0.0
 11
-479.573372104424
 21
517.1025319003201
 31
0.0
  0
SPLINE
  5
127
330
112
100
AcDbEntity
  8
03-01
100
AcDbSpline
210
0.0
220
0.0
230
1.0
 70
    24
 71
     3
 72
     9
 73
     5
 74
     0
 42
0.0000000001
 43
0.0000000001
 40
0.0
 40
0.0
 40
0.0
 40
0.0
 40
0.5000826474199004
 40
1.0
 40
1.0
 40
1.0
 40
1.0
 10
-479.573372104424
 20
517.1025319003201
 30
0.0
 10
-479.8711985299103
 20
517.1025319003201
 30
0.0
 10
-480.4667529388121
 20
517.1025319003201
 30
0.0
 10
-480.9313170410178
 20
517.1025319003201
 30
0.0
 10
-481.1635606970964
 20
517.1025319003201
 30
0.0
  0
SPLINE
  5
128
330
112
100
AcDbEntity
  8
03-01
100
AcDbSpline
210
0.0
220
0.0
230
1.0
 70
    24
 71
     3
 72
     8
 73
     4
 74
     0
 42
0.0000000001
 43
0.0000000001
 40
0.0
 40
0.0
 40
0.0
 40
0.0
 40
0.4052512809765209
 40
0.4052512809765209
 40
0.4052512809765209
 40
0.4052512809765209
 10
-481.1635606970964
 20
517.1025319003201
 30
0.0
 10
-481.3166040420949
 20
517.1025319003201
 30
0.0
 10
-481.4696473870931
 20
517.1025319003201
 30
0.0
 10
-481.5805787886888
 20
517.1025319003201
 30
0.0
  0
LINE
  5
129
330
112
100
AcDbEntity
  8
03-01
100
AcDbLine
 10
-385.3335746612724
 20
503.4469825193919
 30
0.0
 11
-386.7897682097189
 21
503.396131451406
 31
0.0
  0
ARC
  5
12A
330
112
100
AcDbEntity
  8
03-01
100
AcDbCircle
 10
-385.3440459175165
 20
503.7467995768476
 30
0.0
 40
0.3000000000000114
100
AcDbArc
 50
271.9999999999906
 51
0.0
  0
LINE
  5
12B
330
112
100
AcDbEntity
  8
03-01
100
AcDbLine
 10
-385.044045099276
 20
503.7467994705475
 30
0.0
 11
-385.044045099276
 21
506.6025315762199
 31
0.0
  0
LINE
  5
12C
330
112
100
AcDbEntity
  8
03-01
100
AcDbLine
 10
-386.6435692694363
 20
514.6025319561996
 30
0.0
 11
-482.6435701039014
 21
514.6025319561995
 31
0.0
  0
LINE
  5
12D
330
112
100
AcDbEntity
  8
03-01
100
AcDbLine
 10
-388.1684348967252
 20
397.7189560399093
 30
0.0
 11
-386.6435692694364
 21
514.6025319561995
 31
0.0
  0
LINE
  5
12E
330
112
100
AcDbEntity
  8
03-01
100
AcDbLine
 10
-390.2682562109271
 20
397.7463503536131
 30
0.0
 11
-388.7437479704397
 21
514.6025319561995
 31
0.0
  0
ARC
  5
12F
330
112
100
AcDbEntity
  8
03-01
100
AcDbCircle
 10
-393.1680097581
 20
397.784178266454
 30
0.0
 40
5.000000000000079
100
AcDbArc
 50
295.3789003297122
 51
359.252560509999
  0
ARC
  5
130
330
112
100
AcDbEntity
  8
03-01
100
AcDbCircle
 10
-393.1680097581
 20
397.784178266454
 30
0.0
 40
2.900000000000078
100
AcDbArc
 50
295.3789003297122
 51
359.252560509999
  0
LINE
  5
131
330
112
100
AcDbEntity
  8
03-01
100
AcDbLine
 10
-391.6193948176084
 20
392.9847379193343
 30
0.0
 11
-391.0249986734567
 21
393.2667125926055
 31
0.0
  0
LINE
  5
132
330
112
100
AcDbEntity
  8
03-01
100
AcDbLine
 10
-481.0592339511083
 20
393.5751964316405
 30
0.0
 11
-390.4690336718386
 21
393.5751964316405
 31
0.0
  0
LWPOLYLINE
  5
133
330
112
100
AcDbEntity
  8
03-01
100
AcDbPolyline
 90
        4
 70
   128
 43
0.0
 10
-394.6896226194082
 20
391.5282760725058
 10
-393.675550171393
 20
392.0093302593268
 10
-392.6504694905458
 20
392.4956147537269
 10
-391.6193948176084
 20
392.9847379193343
  0
LINE
  5
134
330
112
100
AcDbEntity
  8
03-01
100
AcDbLine
 10
-417.0132999357162
 20
380.9382815823592
 30
0.0
 11
-394.6896226194082
 21
391.5282760725058
 31
0.0
  0
LINE
  5
135
330
112
100
AcDbEntity
  8
03-01
100
AcDbLine
 10
-417.9133654713227
 20
382.835617090806
 30
0.0
 11
-391.9214084260423
 21
395.1657846522485
 31
0.0
  0
ARC
  5
136
330
112
100
AcDbEntity
  8
03-01
100
AcDbCircle
 10
-414.8702880199452
 20
376.4208191563309
 30
0.0
 40
5.000000000000079
100
AcDbArc
 50
115.3789003297266
 51
142.4760722372706
  0
ARC
  5
137
330
112
100
AcDbEntity
  8
03-01
100
AcDbCircle
 10
-414.8702880199452
 20
376.4208191563309
 30
0.0
 40
7.100000000000079
100
AcDbArc
 50
115.3789003297266
 51
142.4760722372706
  0
SPLINE
  5
138
330
112
100
AcDbEntity
  8
03-01
100
AcDbSpline
210
0.0
220
0.0
230
1.0
 70
     8
 71
     3
 72
    10
 73
     6
 74
     0
 42
0.0000000001
 43
0.0000000001
 40
0.0
 40
0.0
 40
0.0
 40
0.0
 40
0.5
 40
0.5
 40
1.0
 40
1.0
 40
1.0
 40
1.0
 10
-419.6832722280118
 20
377.7755084243557
 30
0.0
 10
-419.5948565650678
 20
378.0896344749116
 30
0.0
 10
-419.4785474248017
 20
378.386375049089
 30
0.0
 10
-419.1950476056652
 20
378.9498346240035
 30
0.0
 10
-419.0262575331066
 20
379.2182662089845
 30
0.0
 10
-418.8357832261367
 20
379.4662826300362
 30
0.0
  0
SPLINE
  5
139
330
112
100
AcDbEntity
  8
03-01
100
AcDbSpline
210
0.0
220
0.0
230
1.0
 70
     8
 71
     3
 72
    12
 73
     8
 74
     0
 42
0.0000000001
 43
0.0000000001
 40
0.0
 40
0.0
 40
0.0
 40
0.0
 40
0.4970186212892235
 40
0.4970186212892235
 40
0.9135240146987644
 40
0.9135240146987644
 40
1.0
 40
1.0
 40
1.0
 40
1.0
 10
-421.7047255953997
 20
378.3444779169267
 30
0.0
 10
-421.5803713531595
 20
378.7862877239683
 30
0.0
 10
-421.4152718212962
 20
379.2083030811138
 30
0.0
 10
-421.0495884976317
 20
379.9371258501827
 30
0.0
 10
-420.8553819593896
 20
380.2582015301804
 30
0.0
 10
-420.5941307908399
 20
380.622418943811
 30
0.0
 10
-420.5482091196914
 20
380.6842855252205
 30
0.0
 10
-420.5012912127374
 20
380.7453772889921
 30
0.0
  0
LINE
  5
13A
330
112
100
AcDbEntity
  8
03-01
100
AcDbLine
 10
-480.8625311639485
 20
378.5490591988601
 30
0.0
 11
-419.3947498149186
 21
378.5490591988601
 31
0.0
  0
LINE
  5
13B
330
112
100
AcDbEntity
  8
03-01
100
AcDbLine
 10
-417.3526943710027
 20
335.6025268302001
 30
0.0
 11
-414.9526947226701
 21
335.6025268302001
 31
0.0
  0
LINE
  5
13C
330
112
100
AcDbEntity
  8
03-01
100
AcDbLine
 10
-414.9526947226701
 20
335.6025268302001
 30
0.0
 11
-414.2526940491376
 21
289.602537916664
 31
0.0
  0
LINE
  5
13D
330
112
100
AcDbEntity
  8
03-01
100
AcDbLine
 10
-412.982413381682
 20
337.5706814585218
 30
0.0
 11
-412.2529255784824
 21
289.632969212615
 31
0.0
  0
LINE
  5
13E
330
112
100
AcDbEntity
  8
03-01
100
AcDbLine
 10
-417.3526943710027
 20
289.602537916664
 30
0.0
 11
-417.3526943710027
 21
335.6025268302001
 31
0.0
  0
LINE
  5
13F
330
112
100
AcDbEntity
  8
03-01
100
AcDbLine
 10
-419.3526943710026
 20
289.602537916664
 30
0.0
 11
-419.3526943710026
 21
335.1025308833159
 31
0.0
  0
ARC
  5
140
330
112
100
AcDbEntity
  8
03-01
100
AcDbCircle
 10
-414.8702880199452
 20
376.4208191563309
 30
0.0
 40
5.000000000000039
100
AcDbArc
 50
164.2799177816294
 51
179.2500000000009
  0
ARC
  5
141
330
112
100
AcDbEntity
  8
03-01
100
AcDbCircle
 10
-414.8702880199452
 20
376.4208191563309
 30
0.0
 40
7.100000000000038
100
AcDbArc
 50
164.2799177816294
 51
179.2500000000009
  0
LINE
  5
142
330
112
100
AcDbEntity
  8
03-01
100
AcDbLine
 10
-479.6981581535516
 20
289.602537916664
 30
0.0
 11
-411.0072304543434
 21
289.602537916664
 31
0.0
  0
LINE
  5
143
330
112
100
AcDbEntity
  8
03-01
100
AcDbLine
 10
-482.6435675593666
 20
514.6025319561995
 30
0.0
 11
-479.6981581535516
 21
289.602537916664
 31
0.0
  0
LINE
  5
144
330
112
100
AcDbEntity
  8
03-01
100
AcDbLine
 10
-480.5433876320844
 20
514.6025319561994
 30
0.0
 11
-477.598338065419
 21
289.630026050006
 31
0.0
  0
LINE
  5
145
330
112
100
AcDbEntity
  8
03-01
100
AcDbLine
 10
-420.3788753817202
 20
337.6025308833159
 30
0.0
 11
-419.8698599871574
 21
376.4862616524733
 31
0.0
  0
LINE
  5
146
330
112
100
AcDbEntity
  8
03-01
100
AcDbLine
 10
-422.4226214283638
 20
341.9135199788812
 30
0.0
 11
-421.9696800754332
 21
376.5137497748732
 31
0.0
  0
LINE
  5
147
330
112
100
AcDbEntity
  8
03-01
100
AcDbLine
 10
-413.4184041109262
 20
337.6025308833159
 30
0.0
 11
-420.3788753817202
 21
337.6025308833159
 31
0.0
  0
ARC
  5
148
330
112
100
AcDbEntity
  8
03-01
100
AcDbCircle
 10
-413.4184048172232
 20
334.6025319561996
 30
0.0
 40
3.000000000000047
100
AcDbArc
 50
359.2499999999977
 51
90.0
  0
LINE
  5
149
330
112
100
AcDbEntity
  8
03-01
100
AcDbLine
 10
-411.0072304543433
 20
289.602537916664
 30
0.0
 11
-410.4186625268636
 21
334.5632602438964
 31
0.0
  0
LINE
  5
14A
330
112
100
AcDbEntity
  8
03-01
100
AcDbLine
 10
-383.2946338739571
 20
507.0938056313134
 30
0.0
 11
-383.1635707106766
 21
514.6025319561995
 31
0.0
  0
LINE
  5
14B
330
112
100
AcDbEntity
  8
03-01
100
AcDbLine
 10
-383.1635707106766
 20
514.6025319561995
 30
0.0
 11
-386.6435692694364
 21
514.6025319561995
 31
0.0
  0
LINE
  5
14C
330
112
100
AcDbEntity
  8
03-01
100
AcDbLine
 10
-386.7479374452224
 20
506.60253157622
 30
0.0
 11
-383.7945603814301
 21
506.6025315762199
 31
0.0
  0
ARC
  5
14D
330
112
100
AcDbEntity
  8
03-01
100
AcDbCircle
 10
-383.7945588376527
 20
507.1025319561996
 30
0.0
 40
0.5000000000001137
100
AcDbArc
 50
270.0
 51
358.9999999999852
  0
LINE
  5
14E
330
112
100
AcDbEntity
  8
02-01
100
AcDbLine
 10
-461.5542509641824
 20
281.9288869366683
 30
0.0
 11
-471.2020673837838
 21
281.9288869366683
 31
0.0
  0
LINE
  5
14F
330
112
100
AcDbEntity
  8
03-01
100
AcDbLine
 10
-403.7199591290943
 20
508.0938055414833
 30
0.0
 11
-403.8335693117557
 21
514.6025319561995
 31
0.0
  0
LINE
  5
150
330
112
100
AcDbEntity
  8
03-01
100
AcDbLine
 10
-388.8350701227336
 20
507.6025317401326
 30
0.0
 11
-403.2200352814364
 21
507.6025317401327
 31
0.0
  0
ARC
  5
151
330
112
100
AcDbEntity
  8
03-01
100
AcDbCircle
 10
-403.2200352814364
 20
508.1025317401326
 30
0.0
 40
0.5
100
AcDbArc
 50
180.9999994763193
 51
270.0
  0
LINE
  5
152
330
112
100
AcDbEntity
  8
03-01
100
AcDbLine
 10
-434.0891826889627
 20
315.3986001477278
 30
0.0
 11
-422.4226214283638
 21
341.9135199788812
 31
0.0
  0
LINE
  5
153
330
112
100
AcDbEntity
  8
03-01
100
AcDbLine
 10
-431.8053623363271
 20
311.8986001477278
 30
0.0
 11
-421.5956358450794
 21
335.1025308833159
 31
0.0
  0
LINE
  5
154
330
112
100
AcDbEntity
  8
03-01
100
AcDbLine
 10
-477.9291216111548
 20
315.3986001477279
 30
0.0
 11
-434.0891826889627
 21
315.3986001477278
 31
0.0
  0
LINE
  5
155
330
112
100
AcDbEntity
  8
03-01
100
AcDbLine
 10
-477.8833041302951
 20
311.8986001477278
 30
0.0
 11
-431.8053623363271
 21
311.8986001477278
 31
0.0
  0
LINE
  5
156
330
112
100
AcDbEntity
  8
03-01
100
AcDbLine
 10
-467.1281569686112
 20
281.1025281415023
 30
0.0
 11
-466.8281593408761
 21
282.6025386319198
 31
0.0
  0
LINE
  5
157
330
112
100
AcDbEntity
  8
03-01
100
AcDbLine
 10
-465.9281590070901
 20
282.6025386319198
 30
0.0
 11
-465.6281576540647
 21
281.1025281415023
 31
0.0
  0
ARC
  5
158
330
112
100
AcDbEntity
  8
03-01
100
AcDbCircle
 10
-481.5805792203666
 20
516.1025319003202
 30
0.0
 40
1.0
100
AcDbArc
 50
89.99997526668449
 51
178.0000904930563
  0
LINE
  5
159
330
112
100
AcDbEntity
  8
03-01
100
AcDbLine
 10
-405.0335692509674
 20
515.6025319692379
 30
0.0
 11
-405.0335692509674
 21
516.102531969238
 31
0.0
  0
ARC
  5
15A
330
112
100
AcDbEntity
  8
03-01
100
AcDbCircle
 10
-405.0335692509674
 20
518.6916338224327
 30
0.0
 40
2.589101853194733
100
AcDbArc
 50
217.8622888067958
 51
322.1377111932042
  0
LINE
  5
15B
330
112
100
AcDbEntity
  8
03-01
100
AcDbLine
 10
-419.3526943710026
 20
335.1025308833159
 30
0.0
 11
-421.5956358450794
 21
335.1025308833159
 31
0.0
  0
LINE
  5
15C
330
112
100
AcDbEntity
  8
03-01
100
AcDbLine
 10
-405.0335692509674
 20
516.102531969238
 30
0.0
 11
-405.0335692509674
 21
515.602531969238
 31
0.0
  0
LINE
  5
15D
330
112
100
AcDbEntity
  8
03-01
100
AcDbLine
 10
-405.0335692509674
 20
515.602531969238
 30
0.0
 11
-403.8335693117557
 21
514.6025319561995
 31
0.0
  0
LINE
  5
15E
330
112
100
AcDbEntity
  8
03-01
100
AcDbLine
 10
-406.0335692640057
 20
514.6025319561996
 30
0.0
 11
-408.033569264006
 21
512.6025319561996
 31
0.0
  0
LINE
  5
15F
330
112
100
AcDbEntity
  8
03-01
100
AcDbLine
 10
-408.033569264006
 20
512.6025319561996
 30
0.0
 11
-480.4172062144503
 21
512.6025319561996
 31
0.0
  0
LINE
  5
160
330
112
100
AcDbEntity
  8
03-01
100
AcDbLine
 10
-406.0335692640057
 20
514.6025319561996
 30
0.0
 11
-405.0335692509674
 21
515.6025319692379
 31
0.0
  0
LINE
  5
161
330
112
100
AcDbEntity
  8
03-01
100
AcDbLine
 10
-480.4433876320845
 20
514.6025319561994
 30
0.0
 11
-480.4172062144503
 21
512.6025319561996
 31
0.0
  0
LINE
  5
162
330
112
100
AcDbEntity
  8
03-01
100
AcDbLine
 10
-466.8281593408761
 20
282.6025386319198
 30
0.0
 11
-466.8281593408761
 21
289.602537916664
 31
0.0
  0
LINE
  5
163
330
112
100
AcDbEntity
  8
03-01
100
AcDbLine
 10
-466.8281593408761
 20
282.6025386319198
 30
0.0
 11
-465.9281590070901
 21
282.6025386319198
 31
0.0
  0
LINE
  5
164
330
112
100
AcDbEntity
  8
03-01
100
AcDbLine
 10
-465.9281590070901
 20
282.6025386319198
 30
0.0
 11
-465.9281590070901
 21
289.602537916664
 31
0.0
  0
LINE
  5
165
330
112
100
AcDbEntity
  8
03-01
100
AcDbLine
 10
-473.3784473796642
 20
517.6374341340751
 30
0.0
 11
-473.38027568304
 21
517.5850822009778
 31
0.0
  0
ARC
  5
166
330
112
100
AcDbEntity
  8
03-01
100
AcDbCircle
 10
-473.8799705336567
 20
517.6025319003201
 30
0.0
 40
0.4999999999999858
100
AcDbArc
 50
270.0
 51
358.0000000000749
  0
ARC
  5
167
330
112
100
AcDbEntity
  8
03-01
100
AcDbCircle
 10
-472.3790521754712
 20
517.6025320903098
 30
0.0
 40
1.0
100
AcDbArc
 50
89.99974411002318
 51
177.9998629061357
  0
LINE
  5
168
330
112
100
AcDbEntity
  8
03-01
100
AcDbLine
 10
-412.881493687649
 20
517.6374341340751
 30
0.0
 11
-412.8796653842732
 21
517.5850822009778
 31
0.0
  0
ARC
  5
169
330
112
100
AcDbEntity
  8
03-01
100
AcDbCircle
 10
-412.3799705336566
 20
517.6025319003201
 30
0.0
 40
0.4999999999999858
100
AcDbArc
 50
181.9999999999249
 51
270.0
  0
ARC
  5
16A
330
112
100
AcDbEntity
  8
03-01
100
AcDbCircle
 10
-413.8808888918419
 20
517.6025320903098
 30
0.0
 40
1.0
100
AcDbArc
 50
2.000137093864191
 51
90.00025588996379
  0
LINE
  5
16B
330
112
100
AcDbEntity
  8
03-01
100
AcDbLine
 10
-472.3790477093486
 20
518.6025320902998
 30
0.0
 11
-413.8808933579644
 21
518.6025320902998
 31
0.0
  0
INSERT
  5
16C
330
112
100
AcDbEntity
  8
02-01
100
AcDbBlockReference
  2
zughebel
 10
-417.5292743135389
 20
331.4744728302874
 30
0.0
 41
-1.0
 50
4.180765920318254
  0
ENDBLK
  5
186
330
112
100
AcDbEntity
  8
0
100
AcDbBlockEnd
  0
BLOCK
  5
9B
330
98
100
AcDbEntity
  8
0
100
AcDbBlockBegin
  2
desipumpe_dr
 70
     0
 10
0.0
 20
0.0
 30
0.0
  3
desipumpe_dr
  1

  0
LINE
  5
9C
330
98
100
AcDbEntity
  8
03-01
100
AcDbLine
 10
-351.2335693789804
 20
199.527899906843
 30
0.0
 11
-351.2335693789804
 21
198.027899906843
 31
0.0
  0
LINE
  5
9D
330
98
100
AcDbEntity
  8
03-01
100
AcDbLine
 10
-351.2335693789804
 20
194.1278999068431
 30
0.0
 11
-351.2335693789812
 21
146.2369719841174
 31
0.0
  0
LINE
  5
9E
330
98
100
AcDbEntity
  8
03-01
100
AcDbLine
 10
-351.2335693789804
 20
142.3369719841173
 30
0.0
 11
-351.2335693789804
 21
140.8369719841173
 31
0.0
  0
LINE
  5
9F
330
98
100
AcDbEntity
  8
03-01
100
AcDbLine
 10
-351.2335693789804
 20
199.527899906843
 30
0.0
 11
-354.8335693789803
 21
199.527899906843
 31
0.0
  0
LINE
  5
A0
330
98
100
AcDbEntity
  8
03-01
100
AcDbLine
 10
-351.2335693789804
 20
198.027899906843
 30
0.0
 11
-353.3335693789803
 21
198.027899906843
 31
0.0
  0
LINE
  5
A1
330
98
100
AcDbEntity
  8
03-01
100
AcDbLine
 10
-358.0335693789804
 20
199.527899906843
 30
0.0
 11
-420.2335693789803
 21
199.527899906843
 31
0.0
  0
LINE
  5
A2
330
98
100
AcDbEntity
  8
03-01
100
AcDbLine
 10
-353.2335693789805
 20
183.527899906843
 30
0.0
 11
-377.2335693789806
 21
183.527899906843
 31
0.0
  0
LINE
  5
A3
330
98
100
AcDbEntity
  8
03-01
100
AcDbLine
 10
-353.2335693789804
 20
186.027899906843
 30
0.0
 11
-377.2335693789805
 21
186.027899906843
 31
0.0
  0
LINE
  5
A4
330
98
100
AcDbEntity
  8
03-01
100
AcDbLine
 10
-354.8335693789803
 20
194.8278999068429
 30
0.0
 11
-358.0335693789804
 21
194.8278999068429
 31
0.0
  0
LINE
  5
A5
330
98
100
AcDbEntity
  8
03-01
100
AcDbLine
 10
-351.2335693789804
 20
194.1278999068431
 30
0.0
 11
-353.3335693789803
 21
194.1278999068431
 31
0.0
  0
LINE
  5
A6
330
98
100
AcDbEntity
  8
03-01
100
AcDbLine
 10
-360.1335693789803
 20
197.727899906843
 30
0.0
 11
-418.4335693789803
 21
197.727899906843
 31
0.0
  0
LINE
  5
A7
330
98
100
AcDbEntity
  8
03-01
100
AcDbLine
 10
-351.2335693789804
 20
140.8369719841173
 30
0.0
 11
-354.8335693789803
 21
140.8369719841173
 31
0.0
  0
LINE
  5
A8
330
98
100
AcDbEntity
  8
03-01
100
AcDbLine
 10
-351.2335693789804
 20
142.3369719841173
 30
0.0
 11
-353.3335693789803
 21
142.3369719841173
 31
0.0
  0
LINE
  5
A9
330
98
100
AcDbEntity
  8
03-01
100
AcDbLine
 10
-358.0335693789804
 20
140.8369719841173
 30
0.0
 11
-420.2335693789803
 21
140.8369719841173
 31
0.0
  0
LINE
  5
AA
330
98
100
AcDbEntity
  8
03-01
100
AcDbLine
 10
-353.2335693789811
 20
156.8369719841173
 30
0.0
 11
-377.2335693789811
 21
156.8369719841173
 31
0.0
  0
LINE
  5
AB
330
98
100
AcDbEntity
  8
03-01
100
AcDbLine
 10
-353.2335693789811
 20
154.3369719841173
 30
0.0
 11
-377.2335693789811
 21
154.3369719841173
 31
0.0
  0
LINE
  5
AC
330
98
100
AcDbEntity
  8
03-01
100
AcDbLine
 10
-354.8335693789803
 20
145.5369719841173
 30
0.0
 11
-358.0335693789804
 21
145.5369719841173
 31
0.0
  0
LINE
  5
AD
330
98
100
AcDbEntity
  8
03-01
100
AcDbLine
 10
-351.2335693789812
 20
146.2369719841174
 30
0.0
 11
-353.3335693789803
 21
146.2369719841174
 31
0.0
  0
LINE
  5
AE
330
98
100
AcDbEntity
  8
03-01
100
AcDbLine
 10
-360.1335693789804
 20
142.6369719841173
 30
0.0
 11
-418.4335693789803
 21
142.6369719841173
 31
0.0
  0
LINE
  5
AF
330
98
100
AcDbEntity
  8
03-01
100
AcDbLine
 10
-420.2335693789803
 20
199.527899906843
 30
0.0
 11
-420.2335693789803
 21
140.8369719841173
 31
0.0
  0
LINE
  5
B0
330
98
100
AcDbEntity
  8
03-01
100
AcDbLine
 10
-418.4335693789803
 20
197.727899906843
 30
0.0
 11
-418.4335693789803
 21
142.6369719841173
 31
0.0
  0
LINE
  5
B1
330
98
100
AcDbEntity
  8
03-01
100
AcDbLine
 10
-354.8335693789803
 20
199.527899906843
 30
0.0
 11
-354.8335693789803
 21
194.8278999068429
 31
0.0
  0
LINE
  5
B2
330
98
100
AcDbEntity
  8
03-01
100
AcDbLine
 10
-354.8335693789803
 20
145.5369719841171
 30
0.0
 11
-354.8335693789803
 21
140.8369719841173
 31
0.0
  0
LINE
  5
B3
330
98
100
AcDbEntity
  8
03-01
100
AcDbLine
 10
-353.3335693789803
 20
198.027899906843
 30
0.0
 11
-353.3335693789803
 21
194.1278999068433
 31
0.0
  0
LINE
  5
B4
330
98
100
AcDbEntity
  8
03-01
100
AcDbLine
 10
-353.3335693789803
 20
146.2369719841174
 30
0.0
 11
-353.3335693789803
 21
142.3369719841173
 31
0.0
  0
LINE
  5
B5
330
98
100
AcDbEntity
  8
03-01
100
AcDbLine
 10
-358.0335693789804
 20
199.527899906843
 30
0.0
 11
-358.0335693789804
 21
194.8278999068429
 31
0.0
  0
LINE
  5
B6
330
98
100
AcDbEntity
  8
03-01
100
AcDbLine
 10
-360.1335693789803
 20
197.727899906843
 30
0.0
 11
-360.1335693789803
 21
192.527899906843
 31
0.0
  0
LINE
  5
B7
330
98
100
AcDbEntity
  8
03-01
100
AcDbLine
 10
-360.1335693789804
 20
147.8369719841173
 30
0.0
 11
-360.1335693789804
 21
142.6369719841173
 31
0.0
  0
LINE
  5
B8
330
98
100
AcDbEntity
  8
03-01
100
AcDbLine
 10
-358.0335693789804
 20
140.8369719841173
 30
0.0
 11
-358.0335693789804
 21
145.5369719841173
 31
0.0
  0
LINE
  5
B9
330
98
100
AcDbEntity
  8
03-01
100
AcDbLine
 10
-353.2335693789804
 20
192.527899906843
 30
0.0
 11
-353.2335693789804
 21
186.027899906843
 31
0.0
  0
LINE
  5
BA
330
98
100
AcDbEntity
  8
03-01
100
AcDbLine
 10
-353.2335693789805
 20
183.527899906843
 30
0.0
 11
-353.233569378981
 21
156.8369719841175
 31
0.0
  0
LINE
  5
BB
330
98
100
AcDbEntity
  8
03-01
100
AcDbLine
 10
-353.2335693789811
 20
154.3369719841173
 30
0.0
 11
-353.2335693789812
 21
147.8369719841173
 31
0.0
  0
LINE
  5
BC
330
98
100
AcDbEntity
  8
03-01
100
AcDbLine
 10
-360.1335693789803
 20
192.527899906843
 30
0.0
 11
-353.2335693789804
 21
192.527899906843
 31
0.0
  0
LINE
  5
BD
330
98
100
AcDbEntity
  8
03-01
100
AcDbLine
 10
-360.1335693789804
 20
147.8369719841173
 30
0.0
 11
-353.2335693789812
 21
147.8369719841173
 31
0.0
  0
LINE
  5
BE
330
98
100
AcDbEntity
  8
03-01
100
AcDbLine
 10
-354.2335693789805
 20
186.027899906843
 30
0.0
 11
-354.2335693789805
 21
183.527899906843
 31
0.0
  0
LINE
  5
BF
330
98
100
AcDbEntity
  8
03-01
100
AcDbLine
 10
-354.2335693789811
 20
156.8369719841173
 30
0.0
 11
-354.2335693789811
 21
154.3369719841173
 31
0.0
  0
LINE
  5
C0
330
98
100
AcDbEntity
  8
03-01
100
AcDbLine
 10
-377.2335693789805
 20
186.027899906843
 30
0.0
 11
-377.2335693789806
 21
183.527899906843
 31
0.0
  0
LINE
  5
C1
330
98
100
AcDbEntity
  8
03-01
100
AcDbLine
 10
-377.2335693789811
 20
156.8369719841173
 30
0.0
 11
-377.2335693789811
 21
154.3369719841173
 31
0.0
  0
LINE
  5
C2
330
98
100
AcDbEntity
  8
03-01
100
AcDbLine
 10
-354.2361770821899
 20
154.1824351855223
 30
0.0
 11
-358.2205240680068
 21
154.1824351855223
 31
0.0
  0
ARC
  5
C3
330
98
100
AcDbEntity
  8
03-01
100
AcDbCircle
 10
-356.2335625840514
 20
154.1824359454817
 30
0.0
 40
2.0
100
AcDbArc
 50
180.0
 51
0.0
  0
LINE
  5
C4
330
98
100
AcDbEntity
  8
03-01
100
AcDbLine
 10
-358.2335625840515
 20
157.1824356772606
 30
0.0
 11
-358.2335625840515
 21
154.1824351855223
 31
0.0
  0
LINE
  5
C5
330
98
100
AcDbEntity
  8
03-01
100
AcDbLine
 10
-354.233569378981
 20
154.1824351855223
 30
0.0
 11
-354.233569378981
 21
157.1824356772606
 31
0.0
  0
LINE
  5
C6
330
98
100
AcDbEntity
  8
03-01
100
AcDbLine
 10
-354.233569378981
 20
183.1824362137024
 30
0.0
 11
-354.233569378981
 21
186.1824367054407
 31
0.0
  0
LINE
  5
C7
330
98
100
AcDbEntity
  8
03-01
100
AcDbLine
 10
-358.2335625840515
 20
186.1824367054407
 30
0.0
 11
-358.2335625840515
 21
183.1824362137024
 31
0.0
  0
ARC
  5
C8
330
98
100
AcDbEntity
  8
03-01
100
AcDbCircle
 10
-356.2335625840514
 20
186.1824359454817
 30
0.0
 40
2.0
100
AcDbArc
 50
0.0
 51
180.0
  0
LINE
  5
C9
330
98
100
AcDbEntity
  8
03-01
100
AcDbLine
 10
-358.2335625840515
 20
186.1824359454817
 30
0.0
 11
-354.233569378981
 21
186.1824367054407
 31
0.0
  0
LINE
  5
CA
330
98
100
AcDbEntity
  8
03-01
100
AcDbLine
 10
-375.1493839159526
 20
183.1824362137024
 30
0.0
 11
-350.2335693789806
 21
183.1824362137024
 31
0.0
  0
LINE
  5
CB
330
98
100
AcDbEntity
  8
03-01
100
AcDbLine
 10
-375.1493839159531
 20
157.1824356772606
 30
0.0
 11
-350.2335693789811
 21
157.1824356772606
 31
0.0
  0
LINE
  5
CC
330
98
100
AcDbEntity
  8
03-01
100
AcDbLine
 10
-350.2335693789806
 20
183.1824362137024
 30
0.0
 11
-350.2335693789811
 21
157.1824356772606
 31
0.0
  0
ARC
  5
CD
330
98
100
AcDbEntity
  8
03-01
100
AcDbCircle
 10
-390.6335700763551
 20
170.182435945482
 30
0.0
 40
19.40000069737442
100
AcDbArc
 50
321.0869207880793
 51
38.91307921192072
  0
ARC
  5
CE
330
98
100
AcDbEntity
  8
03-01
100
AcDbCircle
 10
-375.1493839159531
 20
157.6824356772606
 30
0.0
 40
0.5
100
AcDbArc
 50
141.0869207880793
 51
270.0
  0
ARC
  5
CF
330
98
100
AcDbEntity
  8
03-01
100
AcDbCircle
 10
-375.1493839159526
 20
182.6824362137024
 30
0.0
 40
0.5
100
AcDbArc
 50
90.0
 51
218.9130792119065
  0
ARC
  5
D0
330
98
100
AcDbEntity
  8
03-01
100
AcDbCircle
 10
-387.0335700763552
 20
170.1824359454815
 30
0.0
 40
19.40000069737442
100
AcDbArc
 50
321.0869207880793
 51
38.91307921192072
  0
ARC
  5
D1
330
98
100
AcDbEntity
  8
03-01
100
AcDbCircle
 10
-371.5493839159529
 20
157.6824356772606
 30
0.0
 40
0.5
100
AcDbArc
 50
141.0869207880793
 51
270.0
  0
ARC
  5
D2
330
98
100
AcDbEntity
  8
03-01
100
AcDbCircle
 10
-371.5493839159529
 20
182.6824362137024
 30
0.0
 40
0.5
100
AcDbArc
 50
90.0
 51
218.9130792119207
  0
LINE
  5
D3
330
98
100
AcDbEntity
  8
03-01
100
AcDbLine
 10
-421.4614561965119
 20
202.6824373564518
 30
0.0
 11
-421.4614561965119
 21
137.6929142734802
 31
0.0
  0
ARC
  5
D4
330
98
100
AcDbEntity
  8
03-01
100
AcDbCircle
 10
-418.461456196512
 20
137.6929142734802
 30
0.0
 40
3.0
100
AcDbArc
 50
180.0
 51
270.0
  0
LINE
  5
D5
330
98
100
AcDbEntity
  8
03-01
100
AcDbLine
 10
-323.9418569105022
 20
202.6824373564521
 30
0.0
 11
-323.9418569105022
 21
137.6929142734802
 31
0.0
  0
ARC
  5
D6
330
98
100
AcDbEntity
  8
03-01
100
AcDbCircle
 10
-326.9418569105022
 20
202.6824373564521
 30
0.0
 40
3.0
100
AcDbArc
 50
0.0
 51
90.0
  0
LINE
  5
D7
330
98
100
AcDbEntity
  8
03-01
100
AcDbLine
 10
-326.9418569105022
 20
205.6824373564518
 30
0.0
 11
-418.461456196512
 21
205.6824373564518
 31
0.0
  0
ARC
  5
D8
330
98
100
AcDbEntity
  8
03-01
100
AcDbCircle
 10
-418.461456196512
 20
202.6824373564518
 30
0.0
 40
3.0
100
AcDbArc
 50
90.0
 51
180.0
  0
LINE
  5
D9
330
98
100
AcDbEntity
  8
03-01
100
AcDbLine
 10
-326.9418569105022
 20
134.6929142734802
 30
0.0
 11
-418.461456196512
 21
134.6929142734802
 31
0.0
  0
ARC
  5
DA
330
98
100
AcDbEntity
  8
03-01
100
AcDbCircle
 10
-326.9418569105022
 20
137.6929142734802
 30
0.0
 40
3.0
100
AcDbArc
 50
270.0
 51
0.0
  0
LINE
  5
DB
330
98
100
AcDbEntity
  8
03-01
100
AcDbLine
 10
-343.8882562083501
 20
134.6929142734802
 30
0.0
 11
-343.88825620835
 21
205.682437356452
 31
0.0
  0
LINE
  5
DC
330
98
100
AcDbEntity
  8
03-01
100
AcDbLine
 10
-345.93232163963
 20
134.6929142734802
 30
0.0
 11
-345.9323216396301
 21
205.6824373564518
 31
0.0
  0
LINE
  5
DD
330
98
100
AcDbEntity
  8
03-01
100
AcDbLine
 10
-341.8441907770698
 20
134.6929142734802
 30
0.0
 11
-341.8441907770698
 21
205.6824373564518
 31
0.0
  0
LINE
  5
DE
330
98
100
AcDbEntity
  8
03-01
100
AcDbLine
 10
-412.2331298763644
 20
144.4534961149877
 30
0.0
 11
-412.2331298763644
 21
195.9113718126527
 31
0.0
  0
LINE
  5
DF
330
98
100
AcDbEntity
  8
03-01
100
AcDbLine
 10
-351.7361806450315
 20
144.4534961149877
 30
0.0
 11
-351.7361806450315
 21
195.9113718126527
 31
0.0
  0
ARC
  5
E0
330
98
100
AcDbEntity
  8
03-01
100
AcDbCircle
 10
-352.7361806450315
 20
144.4534961149877
 30
0.0
 40
1.0
100
AcDbArc
 50
270.0
 51
0.0
  0
LINE
  5
E1
330
98
100
AcDbEntity
  8
03-01
100
AcDbLine
 10
-411.2331298763645
 20
196.9113718126527
 30
0.0
 11
-352.7361806450315
 21
196.9113718126527
 31
0.0
  0
ARC
  5
E2
330
98
100
AcDbEntity
  8
03-01
100
AcDbCircle
 10
-352.7361806450315
 20
195.9113718126527
 30
0.0
 40
1.0
100
AcDbArc
 50
0.0
 51
90.0
  0
ARC
  5
E3
330
98
100
AcDbEntity
  8
03-01
100
AcDbCircle
 10
-411.2331298763645
 20
195.9113718126527
 30
0.0
 40
1.0
100
AcDbArc
 50
90.0
 51
180.0
  0
LINE
  5
E4
330
98
100
AcDbEntity
  8
03-01
100
AcDbLine
 10
-411.2331298763645
 20
143.4534961149877
 30
0.0
 11
-352.7361806450315
 21
143.4534961149877
 31
0.0
  0
ARC
  5
E5
330
98
100
AcDbEntity
  8
03-01
100
AcDbCircle
 10
-411.2331298763645
 20
144.4534961149877
 30
0.0
 40
1.0
100
AcDbArc
 50
180.0
 51
270.0
  0
ENDBLK
  5
E6
330
98
100
AcDbEntity
  8
0
100
AcDbBlockEnd
  0
BLOCK
  5
170
330
16D
100
AcDbEntity
  8
0
100
AcDbBlockBegin
  2
zughebel
 70
     0
 10
0.0
 20
0.0
 30
0.0
  3
zughebel
  1

  0
LINE
  5
171
330
16D
100
AcDbEntity
  8
02-01
100
AcDbLine
 10
-4.119653316495941
 20
0.0
 30
0.0
 11
-4.119653316495941
 21
-40.40054807145179
 31
0.0
  0
CIRCLE
  5
172
330
16D
100
AcDbEntity
  8
02-01
100
AcDbCircle
 10
-0.1196533164959419
 20
0.1196533164959419
 30
0.0
 40
1.9
  0
CIRCLE
  5
173
330
16D
100
AcDbEntity
  8
02-01
100
AcDbCircle
 10
1.880346683504058
 20
-29.28034668350392
 30
0.0
 40
2.5
  0
LINE
  5
174
330
16D
100
AcDbEntity
  8
02-01
100
AcDbLine
 10
5.880346683504058
 20
-29.28034668350392
 30
0.0
 11
5.880346683504058
 21
-42.31319651884791
 31
0.0
  0
LINE
  5
175
330
16D
100
AcDbEntity
  8
02-01
100
AcDbLine
 10
4.112287316259767
 20
0.2462447494765456
 30
0.0
 11
5.880346683504058
 21
-29.28034668350392
 31
0.0
  0
LINE
  5
176
330
16D
100
AcDbEntity
  8
02-01
100
AcDbLine
 10
20.01700732526081
 20
-79.48680918840387
 30
0.0
 11
23.02503237225119
 21
-62.93658747346853
 31
0.0
  0
ARC
  5
177
330
16D
100
AcDbEntity
  8
02-01
100
AcDbCircle
 10
13.18621755409106
 20
-61.14836965285667
 30
0.0
 40
10.0
100
AcDbArc
 50
349.6988605321369
 51
55.16363786565052
  0
ARC
  5
178
330
16D
100
AcDbEntity
  8
02-01
100
AcDbCircle
 10
17.06536287981282
 20
-78.95034384222026
 30
0.0
 40
3.0
100
AcDbArc
 50
259.6988605321369
 51
349.6988605321369
  0
LINE
  5
179
330
16D
100
AcDbEntity
  8
02-01
100
AcDbLine
 10
15.00782734467088
 20
-73.49447108695653
 30
0.0
 11
16.62864834151651
 21
-64.57667737215365
 31
0.0
  0
ARC
  5
17A
330
16D
100
AcDbEntity
  8
02-01
100
AcDbCircle
 10
6.789833523356492
 20
-62.78845955154179
 30
0.0
 40
10.0
100
AcDbArc
 50
349.6988605321369
 51
55.16363786565052
  0
LINE
  5
17B
330
16D
100
AcDbEntity
  8
02-01
100
AcDbLine
 10
12.32477725279409
 20
-77.07235345009826
 30
0.0
 11
14.82413853887317
 21
-63.32081123081912
 31
0.0
  0
ARC
  5
17C
330
16D
100
AcDbEntity
  8
02-01
100
AcDbCircle
 10
4.985323720713154
 20
-61.53259341020725
 30
0.0
 40
10.0
100
AcDbArc
 50
349.6988605321369
 51
55.16363786565052
  0
LINE
  5
17D
330
16D
100
AcDbEntity
  8
02-01
100
AcDbLine
 10
7.166642925493647
 20
-44.77555705901681
 30
0.0
 11
18.89856341412587
 21
-52.940501185627
 31
0.0
  0
ARC
  5
17E
330
16D
100
AcDbEntity
  8
02-01
100
AcDbCircle
 10
8.880346683504058
 20
-42.31319651884791
 30
0.0
 40
3.0
100
AcDbArc
 50
180.0
 51
235.1636378656505
  0
LINE
  5
17F
330
16D
100
AcDbEntity
  8
02-01
100
AcDbLine
 10
-1.975826246513292
 20
-44.50448230506663
 30
0.0
 11
12.50217938339119
 21
-54.58059108431212
 31
0.0
  0
ARC
  5
180
330
16D
100
AcDbEntity
  8
02-01
100
AcDbCircle
 10
0.880346683504058
 20
-40.40054807145179
 30
0.0
 40
5.0
100
AcDbArc
 50
180.0
 51
235.1636378656505
  0
ARC
  5
181
330
16D
100
AcDbEntity
  8
02-01
100
AcDbCircle
 10
16.26030318005803
 20
-77.78764057834314
 30
0.0
 40
4.0
100
AcDbArc
 50
116.5687581779788
 51
259.6988605321369
  0
ARC
  5
182
330
16D
100
AcDbEntity
  8
02-01
100
AcDbCircle
 10
14.02394586285481
 20
-73.31564930489548
 30
0.0
 40
1.0
100
AcDbArc
 50
296.5687581779788
 51
349.6988605321432
  0
ARC
  5
183
330
16D
100
AcDbEntity
  8
02-01
100
AcDbCircle
 10
0.0
 20
0.0
 30
0.0
 40
4.119653316495944
100
AcDbArc
 50
3.426793157291224
 51
180.0
  0
LINE
  5
184
330
16D
100
AcDbEntity
  8
02-01
100
AcDbLine
 10
16.52889753362922
 20
-81.90198828766824
 30
0.0
 11
15.54501605181326
 21
-81.7231665056072
 31
0.0
  0
ENDBLK
  5
185
330
16D
100
AcDbEntity
  8
0
100
AcDbBlockEnd
  0
BLOCK
  5
103
330
102
100
AcDbEntity
  8
0
100
AcDbBlockBegin
  2
*D15
 70
     1
 10
0.0
 20
0.0
 30
0.0
  3
*D15
  1

  0
LINE
  5
104
330
102
100
AcDbEntity
  8
0
 62
     4
440
 16777216
370
    -2
100
AcDbLine
 10
272.9427468872714
 20
397.7929331735646
 30
0.0
 11
272.9427468872714
 21
485.6455658500807
 31
0.0
  0
LINE
  5
105
330
102
100
AcDbEntity
  8
0
 62
     4
440
 16777216
370
    -2
100
AcDbLine
 10
393.5700227113016
 20
472.3309599466957
 30
0.0
 11
393.5700227113016
 21
485.6455658500807
 31
0.0
  0
LINE
  5
106
330
102
100
AcDbEntity
  8
0
 62
     4
440
 16777216
370
    -2
100
AcDbLine
 10
277.9427468872714
 20
483.6455658500807
 30
0.0
 11
388.5700227113016
 21
483.6455658500807
 31
0.0
  0
SOLID
  5
107
330
102
100
AcDbEntity
  8
0
 62
     4
440
 16777216
100
AcDbTrace
 10
277.9427468872714
 20
484.478899183414
 30
0.0
 11
277.9427468872714
 21
482.8122325167474
 31
0.0
 12
272.9427468872714
 22
483.6455658500807
 32
0.0
 13
272.9427468872714
 23
483.6455658500807
 33
0.0
  0
SOLID
  5
108
330
102
100
AcDbEntity
  8
0
 62
     4
440
 16777216
100
AcDbTrace
 10
388.5700227113016
 20
484.478899183414
 30
0.0
 11
388.5700227113016
 21
482.8122325167474
 31
0.0
 12
393.5700227113016
 22
483.6455658500807
 32
0.0
 13
393.5700227113016
 23
483.6455658500807
 33
0.0
  0
MTEXT
  5
109
330
102
100
AcDbEntity
  8
0
 62
     1
440
 16777216
100
AcDbMText
 10
333.2563847992865
 20
488.1455658500807
 30
0.0
 40
5.0
 41
0.0
 46
0.0
 71
     5
 72
     1
  1
120.6
 73
     1
 44
1.0
  0
POINT
  5
10A
330
102
100
AcDbEntity
  8
Defpoints
 62
     0
440
 16777216
100
AcDbPoint
 10
272.9427468872714
 20
395.7929331735646
 30
0.0
  0
POINT
  5
10B
330
102
100
AcDbEntity
  8
Defpoints
 62
     0
440
 16777216
100
AcDbPoint
 10
393.5700227113016
 20
470.3309599466957
 30
0.0
  0
POINT
  5
10C
330
102
100
AcDbEntity
  8
Defpoints
 62
     0
440
 16777216
100
AcDbPoint
 10
393.5700227113016
 20
483.6455658500807
 30
0.0
  0
ENDBLK
  5
10D
330
102
100
AcDbEntity
  8
0
100
AcDbBlockEnd
  0
BLOCK
  5
F6
330
F5
100
AcDbEntity
  8
0
100
AcDbBlockBegin
  2
*D16
 70
     1
 10
0.0
 20
0.0
 30
0.0
  3
*D16
  1

  0
LINE
  5
F7
330
F5
100
AcDbEntity
  8
0
 62
     4
440
 16777216
370
    -2
100
AcDbLine
 10
322.8709455356093
 20
472.7960622033572
 30
0.0
 11
228.4521001559256
 21
472.7960622033572
 31
0.0
  0
LINE
  5
F8
330
F5
100
AcDbEntity
  8
0
 62
     4
440
 16777216
370
    -2
100
AcDbLine
 10
270.9427468872714
 20
243.2929331735646
 30
0.0
 11
228.4521001559256
 21
243.2929331735646
 31
0.0
  0
LINE
  5
F9
330
F5
100
AcDbEntity
  8
0
 62
     4
440
 16777216
370
    -2
100
AcDbLine
 10
230.4521001559256
 20
467.7960622033572
 30
0.0
 11
230.4521001559256
 21
248.2929331735646
 31
0.0
  0
SOLID
  5
FA
330
F5
100
AcDbEntity
  8
0
 62
     4
440
 16777216
100
AcDbTrace
 10
229.6187668225923
 20
467.7960622033572
 30
0.0
 11
231.285433489259
 21
467.7960622033572
 31
0.0
 12
230.4521001559256
 22
472.7960622033572
 32
0.0
 13
230.4521001559256
 23
472.7960622033572
 33
0.0
  0
SOLID
  5
FB
330
F5
100
AcDbEntity
  8
0
 62
     4
440
 16777216
100
AcDbTrace
 10
229.6187668225922
 20
248.2929331735646
 30
0.0
 11
231.2854334892589
 21
248.2929331735646
 31
0.0
 12
230.4521001559256
 22
243.2929331735646
 32
0.0
 13
230.4521001559256
 23
243.2929331735646
 33
0.0
  0
MTEXT
  5
FC
330
F5
100
AcDbEntity
  8
0
 62
     1
440
 16777216
100
AcDbMText
 10
225.9521001559255
 20
358.044497688461
 30
0.0
 40
5.0
 41
0.0
 46
0.0
 71
     5
 72
     1
  1
229.5
 11
0.0000000000000001
 21
1.0
 31
0.0
 73
     1
 44
1.0
  0
POINT
  5
FD
330
F5
100
AcDbEntity
  8
Defpoints
 62
     0
440
 16777216
100
AcDbPoint
 10
324.8709455356093
 20
472.7960622033572
 30
0.0
  0
POINT
  5
FE
330
F5
100
AcDbEntity
  8
Defpoints
 62
     0
440
 16777216
100
AcDbPoint
 10
272.9427468872714
 20
243.2929331735646
 30
0.0
  0
POINT
  5
FF
330
F5
100
AcDbEntity
  8
Defpoints
 62
     0
440
 16777216
100
AcDbPoint
 10
230.4521001559256
 20
243.2929331735646
 30
0.0
  0
ENDBLK
  5
100
330
F5
100
AcDbEntity
  8
0
100
AcDbBlockEnd
  0
BLOCK
  5
E9
330
E8
100
AcDbEntity
  8
0
100
AcDbBlockBegin
  2
*D17
 70
     1
 10
0.0
 20
0.0
 30
0.0
  3
*D17
  1

  0
LINE
  5
EA
330
E8
100
AcDbEntity
  8
0
 62
     4
440
 16777216
370
    -2
100
AcDbLine
 10
270.9427468872714
 20
243.2929331735646
 30
0.0
 11
249.8067103420785
 21
243.2929331735646
 31
0.0
  0
LINE
  5
EB
330
E8
100
AcDbEntity
  8
0
 62
     4
440
 16777216
370
    -2
100
AcDbLine
 10
270.9427468872714
 20
202.6916054801638
 30
0.0
 11
249.8067103420785
 21
202.6916054801638
 31
0.0
  0
LINE
  5
EC
330
E8
100
AcDbEntity
  8
0
 62
     4
440
 16777216
370
    -2
100
AcDbLine
 10
251.8067103420785
 20
238.2929331735646
 30
0.0
 11
251.8067103420785
 21
207.6916054801638
 31
0.0
  0
SOLID
  5
ED
330
E8
100
AcDbEntity
  8
0
 62
     4
440
 16777216
100
AcDbTrace
 10
250.9733770087452
 20
238.2929331735646
 30
0.0
 11
252.6400436754119
 21
238.2929331735646
 31
0.0
 12
251.8067103420785
 22
243.2929331735646
 32
0.0
 13
251.8067103420785
 23
243.2929331735646
 33
0.0
  0
SOLID
  5
EE
330
E8
100
AcDbEntity
  8
0
 62
     4
440
 16777216
100
AcDbTrace
 10
250.9733770087452
 20
207.6916054801638
 30
0.0
 11
252.6400436754119
 21
207.6916054801638
 31
0.0
 12
251.8067103420785
 22
202.6916054801638
 32
0.0
 13
251.8067103420785
 23
202.6916054801638
 33
0.0
  0
MTEXT
  5
EF
330
E8
100
AcDbEntity
  8
0
 62
     1
440
 16777216
100
AcDbMText
 10
247.3067103420785
 20
222.9922693268643
 30
0.0
 40
5.0
 41
0.0
 46
0.0
 71
     5
 72
     1
  1
40.6
 11
0.0000000000000001
 21
1.0
 31
0.0
 73
     1
 44
1.0
  0
POINT
  5
F0
330
E8
100
AcDbEntity
  8
Defpoints
 62
     0
440
 16777216
100
AcDbPoint
 10
272.9427468872714
 20
243.2929331735646
 30
0.0
  0
POINT
  5
F1
330
E8
100
AcDbEntity
  8
Defpoints
 62
     0
440
 16777216
100
AcDbPoint
 10
272.9427468872714
 20
202.6916054801638
 30
0.0
  0
POINT
  5
F2
330
E8
100
AcDbEntity
  8
Defpoints
 62
     0
440
 16777216
100
AcDbPoint
 10
251.8067103420785
 20
202.6916054801638
 30
0.0
  0
ENDBLK
  5
F3
330
E8
100
AcDbEntity
  8
0
100
AcDbBlockEnd
  0
BLOCK
  5
89
330
88
100
AcDbEntity
  8
0
100
AcDbBlockBegin
  2
*D18
 70
     1
 10
0.0
 20
0.0
 30
0.0
  3
*D18
  1

  0
LINE
  5
8A
330
88
100
AcDbEntity
  8
0
 62
     4
440
 16777216
370
    -2
100
AcDbLine
 10
77.92802686362847
 20
113.394634023826
 30
0.0
 11
77.92802686362847
 21
143.9008211020817
 31
0.0
  0
LINE
  5
8B
330
88
100
AcDbEntity
  8
0
 62
     4
440
 16777216
370
    -2
100
AcDbLine
 10
148.9175499466002
 20
113.394634023826
 30
0.0
 11
148.9175499466002
 21
143.9008211020817
 31
0.0
  0
LINE
  5
8C
330
88
100
AcDbEntity
  8
0
 62
     4
440
 16777216
370
    -2
100
AcDbLine
 10
82.92802686362847
 20
141.9008211020817
 30
0.0
 11
143.9175499466003
 21
141.9008211020817
 31
0.0
  0
SOLID
  5
8D
330
88
100
AcDbEntity
  8
0
 62
     4
440
 16777216
100
AcDbTrace
 10
82.92802686362847
 20
142.7341544354151
 30
0.0
 11
82.92802686362847
 21
141.0674877687484
 31
0.0
 12
77.92802686362847
 22
141.9008211020817
 32
0.0
 13
77.92802686362847
 23
141.9008211020817
 33
0.0
  0
SOLID
  5
8E
330
88
100
AcDbEntity
  8
0
 62
     4
440
 16777216
100
AcDbTrace
 10
143.9175499466003
 20
142.7341544354151
 30
0.0
 11
143.9175499466003
 21
141.0674877687484
 31
0.0
 12
148.9175499466002
 22
141.9008211020817
 32
0.0
 13
148.9175499466002
 23
141.9008211020817
 33
0.0
  0
MTEXT
  5
8F
330
88
100
AcDbEntity
  8
0
 62
     1
440
 16777216
100
AcDbMText
 10
113.4227884051143
 20
146.4008211020818
 30
0.0
 40
5.0
 41
0.0
 46
0.0
 71
     5
 72
     1
  1
71
 73
     1
 44
1.0
  0
POINT
  5
90
330
88
100
AcDbEntity
  8
Defpoints
 62
     0
440
 16777216
100
AcDbPoint
 10
77.92802686362847
 20
111.394634023826
 30
0.0
  0
POINT
  5
91
330
88
100
AcDbEntity
  8
Defpoints
 62
     0
440
 16777216
100
AcDbPoint
 10
148.9175499466002
 20
111.394634023826
 30
0.0
  0
POINT
  5
92
330
88
100
AcDbEntity
  8
Defpoints
 62
     0
440
 16777216
100
AcDbPoint
 10
148.9175499466002
 20
141.9008211020817
 30
0.0
  0
ENDBLK
  5
93
330
88
100
AcDbEntity
  8
0
100
AcDbBlockEnd
  0
BLOCK
  5
79
330
78
100
AcDbEntity
  8
0
100
AcDbBlockBegin
  2
*D19
 70
     1
 10
0.0
 20
0.0
 30
0.0
  3
*D19
  1

  0
LINE
  5
7A
330
78
100
AcDbEntity
  8
0
 62
     4
440
 16777216
370
    -2
100
AcDbLine
 10
275.9427469003099
 20
390.79605695766
 30
0.0
 11
275.9427469003099
 21
412.4940529211893
 31
0.0
  0
LINE
  5
7B
330
78
100
AcDbEntity
  8
0
 62
     4
440
 16777216
370
    -2
100
AcDbLine
 10
325.942746900315
 20
291.7960569432574
 30
0.0
 11
325.942746900315
 21
412.4940529211893
 31
0.0
  0
LINE
  5
7C
330
78
100
AcDbEntity
  8
0
 62
     4
440
 16777216
370
    -2
100
AcDbLine
 10
280.9427469003099
 20
410.4940529211893
 30
0.0
 11
320.942746900315
 21
410.4940529211893
 31
0.0
  0
SOLID
  5
7D
330
78
100
AcDbEntity
  8
0
 62
     4
440
 16777216
100
AcDbTrace
 10
280.9427469003099
 20
411.3273862545226
 30
0.0
 11
280.9427469003099
 21
409.660719587856
 31
0.0
 12
275.9427469003099
 22
410.4940529211893
 32
0.0
 13
275.9427469003099
 23
410.4940529211893
 33
0.0
  0
SOLID
  5
7E
330
78
100
AcDbEntity
  8
0
 62
     4
440
 16777216
100
AcDbTrace
 10
320.942746900315
 20
411.3273862545226
 30
0.0
 11
320.942746900315
 21
409.660719587856
 31
0.0
 12
325.942746900315
 22
410.4940529211893
 32
0.0
 13
325.942746900315
 23
410.4940529211893
 33
0.0
  0
MTEXT
  5
7F
330
78
100
AcDbEntity
  8
0
 62
     1
440
 16777216
100
AcDbMText
 10
300.9427469003124
 20
414.9940529211893
 30
0.0
 40
5.0
 41
0.0
 46
0.0
 71
     5
 72
     1
  1
50
 73
     1
 44
1.0
  0
POINT
  5
80
330
78
100
AcDbEntity
  8
Defpoints
 62
     0
440
 16777216
100
AcDbPoint
 10
275.9427469003099
 20
388.79605695766
 30
0.0
  0
POINT
  5
82
330
78
100
AcDbEntity
  8
Defpoints
 62
     0
440
 16777216
100
AcDbPoint
 10
325.942746900315
 20
289.7960569432574
 30
0.0
  0
POINT
  5
83
330
78
100
AcDbEntity
  8
Defpoints
 62
     0
440
 16777216
100
AcDbPoint
 10
325.942746900315
 20
410.4940529211893
 30
0.0
  0
ENDBLK
  5
84
330
78
100
AcDbEntity
  8
0
100
AcDbBlockEnd
  0
ENDSEC
  0
SECTION
  2
ENTITIES
  0
DIMENSION
  5
77
330
2
100
AcDbEntity
  8
0
100
AcDbDimension
280
     0
  2
*D19
 10
325.942746900315
 20
410.4940529211893
 30
0.0
 11
300.9427469003124
 21
414.9940529211893
 31
0.0
 71
     5
 42
50.00000000000511
 73
     0
 74
     0
 75
     0
  3
Wagner$0
100
AcDbAlignedDimension
 13
275.9427469003099
 23
388.79605695766
 33
0.0
 14
325.942746900315
 24
289.7960569432574
 34
0.0
100
AcDbRotatedDimension
1001
ACAD
1000
DSTYLE
1002
{
1070
    40
1040
2.0
1002
}
  0
DIMENSION
  5
87
330
2
100
AcDbEntity
  8
0
100
AcDbDimension
280
     0
  2
*D18
 10
148.9175499466002
 20
141.9008211020817
 30
0.0
 11
113.4227884051143
 21
146.4008211020818
 31
0.0
 71
     5
 42
70.9895230829718
 73
     0
 74
     0
 75
     0
  3
Wagner$0
100
AcDbAlignedDimension
 13
77.92802686362847
 23
111.394634023826
 33
0.0
 14
148.9175499466002
 24
111.394634023826
 34
0.0
100
AcDbRotatedDimension
1001
ACAD
1000
DSTYLE
1002
{
1070
   271
1070
     1
1070
    40
1040
2.0
1002
}
  0
INSERT
  5
94
330
2
100
AcDbEntity
  8
03-01
100
AcDbBlockReference
  2
desipumpe_dr
 10
283.6104642200803
 20
438.3364909343282
 30
0.0
 50
90.0
  0
DIMENSION
  5
E7
330
2
100
AcDbEntity
  8
0
100
AcDbDimension
280
     0
  2
*D17
 10
251.8067103420785
 20
202.6916054801638
 30
0.0
 11
247.3067103420785
 21
222.9922693268643
 31
0.0
 71
     5
 42
40.60132769340078
 73
     0
 74
     0
 75
     0
  3
Wagner$0
100
AcDbAlignedDimension
 13
272.9427468872714
 23
243.2929331735646
 33
0.0
 14
272.9427468872714
 24
202.6916054801638
 34
0.0
 50
90.0
100
AcDbRotatedDimension
1001
ACAD
1000
DSTYLE
1002
{
1070
   271
1070
     1
1070
    40
1040
2.0
1002
}
  0
DIMENSION
  5
F4
330
2
100
AcDbEntity
  8
0
100
AcDbDimension
280
     0
  2
*D16
 10
230.4521001559256
 20
243.2929331735646
 30
0.0
 11
225.9521001559255
 21
358.044497688461
 31
0.0
 71
     5
 42
229.5031290297926
 73
     0
 74
     0
 75
     0
  3
Wagner$0
100
AcDbAlignedDimension
 13
324.8709455356093
 23
472.7960622033572
 33
0.0
 14
272.9427468872714
 24
243.2929331735646
 34
0.0
 50
90.0
100
AcDbRotatedDimension
1001
ACAD
1000
DSTYLE
1002
{
1070
   271
1070
     1
1070
    40
1040
2.0
1002
}
  0
DIMENSION
  5
101
330
2
100
AcDbEntity
  8
0
100
AcDbDimension
280
     0
  2
*D15
 10
393.5700227113016
 20
483.6455658500807
 30
0.0
 11
333.2563847992865
 21
488.1455658500807
 31
0.0
 71
     5
 42
120.6272758240302
 73
     0
 74
     0
 75
     0
  3
Wagner$0
100
AcDbAlignedDimension
 13
272.9427468872714
 23
395.7929331735646
 33
0.0
 14
393.5700227113016
 24
470.3309599466957
 34
0.0
100
AcDbRotatedDimension
1001
ACAD
1000
DSTYLE
1002
{
1070
   271
1070
     1
1070
    40
1040
2.0
1002
}
  0
INSERT
  5
10E
330
2
100
AcDbEntity
  8
02-01
100
AcDbBlockReference
  2
desipumpe_sa
 10
-89.00994782235512
 20
-45.80646988694261
 30
0.0
 41
-1.0
  0
LINE
  5
187
330
2
100
AcDbEntity
  8
03-01
100
AcDbLine
 10
89.42278840511425
 20
127.397514297126
 30
0.0
 11
89.42278840511425
 21
131.9235142971261
 31
0.0
  0
ARC
  5
188
330
2
100
AcDbEntity
  8
03-01
100
AcDbCircle
 10
132.4227884051142
 20
127.397514297126
 30
0.0
 40
5.0
100
AcDbArc
 50
292.8868550600216
 51
0.0
  0
ARC
  5
189
330
2
100
AcDbEntity
  8
0
100
AcDbCircle
 10
132.4227884051142
 20
127.397514297126
 30
0.0
 40
5.0
100
AcDbArc
 50
270.0
 51
292.8868550600216
  0
LINE
  5
18A
330
2
100
AcDbEntity
  8
03-01
100
AcDbLine
 10
137.4227884051142
 20
127.397514297126
 30
0.0
 11
137.4227884051142
 21
131.9235142971256
 31
0.0
  0
ARC
  5
18B
330
2
100
AcDbEntity
  8
0
100
AcDbCircle
 10
94.42278840511425
 20
127.397514297126
 30
0.0
 40
5.0
100
AcDbArc
 50
247.1131449399644
 51
270.0
  0
ARC
  5
18C
330
2
100
AcDbEntity
  8
03-01
100
AcDbCircle
 10
94.42278840511425
 20
127.397514297126
 30
0.0
 40
5.0
100
AcDbArc
 50
180.0
 51
247.1131449399644
  0
LINE
  5
18D
330
2
100
AcDbEntity
  8
0
100
AcDbLine
 10
132.4227884051142
 20
122.397514297126
 30
0.0
 11
94.42278840511425
 21
122.397514297126
 31
0.0
  0
LINE
  5
18E
330
2
100
AcDbEntity
  8
09-01
100
AcDbLine
 10
143.9227884051147
 20
81.92351429712587
 30
0.0
 11
138.1227884051145
 21
81.92351429712587
 31
0.0
  0
LINE
  5
191
330
2
100
AcDbEntity
  8
09-01
100
AcDbLine
 10
145.4227884051147
 20
80.42351429712566
 30
0.0
 11
138.1227884051145
 21
80.42351429712566
 31
0.0
  0
LINE
  5
192
330
2
100
AcDbEntity
  8
09-01
100
AcDbLine
 10
138.1227884051145
 20
81.92351429712587
 30
0.0
 11
138.1227884051145
 21
80.42351429712566
 31
0.0
  0
LINE
  5
193
330
2
100
AcDbEntity
  8
03-01
100
AcDbLine
 10
81.42278840511426
 20
133.4235142971261
 30
0.0
 11
145.4227884051142
 21
133.4235142971256
 31
0.0
  0
LINE
  5
194
330
2
100
AcDbEntity
  8
03-01
100
AcDbLine
 10
82.92278840511471
 20
131.9235142971261
 30
0.0
 11
143.9227884051142
 21
131.9235142971256
 31
0.0
  0
LINE
  5
195
330
2
100
AcDbEntity
  8
09-01
100
AcDbLine
 10
82.92278840511427
 20
81.92351429712587
 30
0.0
 11
88.72278840511444
 21
81.92351429712587
 31
0.0
  0
LINE
  5
196
330
2
100
AcDbEntity
  8
09-01
100
AcDbLine
 10
81.42278840511426
 20
80.42351429712566
 30
0.0
 11
88.72278840511444
 21
80.42351429712566
 31
0.0
  0
LINE
  5
197
330
2
100
AcDbEntity
  8
09-01
100
AcDbLine
 10
81.42278840511403
 20
110.4235142971257
 30
0.0
 11
81.42278840511426
 21
80.42351429712566
 31
0.0
  0
LINE
  5
198
330
2
100
AcDbEntity
  8
03-01
100
AcDbLine
 10
81.42278840511403
 20
111.9235142971257
 30
0.0
 11
81.42278840511403
 21
110.4235142971257
 31
0.0
  0
LINE
  5
199
330
2
100
AcDbEntity
  8
09-01
100
AcDbLine
 10
81.42278840511403
 20
118.3235142971258
 30
0.0
 11
81.42278840511403
 21
111.9235142971257
 31
0.0
  0
LINE
  5
19A
330
2
100
AcDbEntity
  8
03-01
100
AcDbLine
 10
81.42278840511426
 20
133.4235142971261
 30
0.0
 11
81.42278840511403
 21
118.3235142971258
 31
0.0
  0
LINE
  5
19B
330
2
100
AcDbEntity
  8
09-01
100
AcDbLine
 10
82.92278840511427
 20
109.9235142971257
 30
0.0
 11
82.92278840511427
 21
81.92351429712587
 31
0.0
  0
LINE
  5
19C
330
2
100
AcDbEntity
  8
03-01
100
AcDbLine
 10
82.92278840511427
 20
111.9235142971257
 30
0.0
 11
82.92278840511427
 21
109.9235142971257
 31
0.0
  0
LINE
  5
19D
330
2
100
AcDbEntity
  8
09-01
100
AcDbLine
 10
82.92278840511427
 20
118.3235142971258
 30
0.0
 11
82.92278840511427
 21
111.9235142971257
 31
0.0
  0
LINE
  5
19E
330
2
100
AcDbEntity
  8
03-01
100
AcDbLine
 10
82.92278840511471
 20
131.9235142971261
 30
0.0
 11
82.92278840511427
 21
118.3235142971258
 31
0.0
  0
LINE
  5
19F
330
2
100
AcDbEntity
  8
09-01
100
AcDbLine
 10
88.72278840511444
 20
81.92351429712587
 30
0.0
 11
88.72278840511444
 21
80.42351429712566
 31
0.0
  0
LINE
  5
1A0
330
2
100
AcDbEntity
  8
09-01
100
AcDbLine
 10
145.422788405114
 20
110.423514297126
 30
0.0
 11
145.4227884051142
 21
80.42351429712566
 31
0.0
  0
LINE
  5
1A1
330
2
100
AcDbEntity
  8
03-01
100
AcDbLine
 10
145.422788405114
 20
111.923514297126
 30
0.0
 11
145.422788405114
 21
110.423514297126
 31
0.0
  0
LINE
  5
1A2
330
2
100
AcDbEntity
  8
09-01
100
AcDbLine
 10
145.422788405114
 20
118.3235142971259
 30
0.0
 11
145.422788405114
 21
111.923514297126
 31
0.0
  0
LINE
  5
1A3
330
2
100
AcDbEntity
  8
03-01
100
AcDbLine
 10
145.4227884051142
 20
133.4235142971256
 30
0.0
 11
145.422788405114
 21
118.3235142971259
 31
0.0
  0
LINE
  5
1A4
330
2
100
AcDbEntity
  8
09-01
100
AcDbLine
 10
143.922788405114
 20
109.9235142971256
 30
0.0
 11
143.9227884051142
 21
81.92351429712587
 31
0.0
  0
LINE
  5
1A5
330
2
100
AcDbEntity
  8
03-01
100
AcDbLine
 10
143.922788405114
 20
111.923514297126
 30
0.0
 11
143.922788405114
 21
109.9235142971256
 31
0.0
  0
LINE
  5
1A6
330
2
100
AcDbEntity
  8
09-01
100
AcDbLine
 10
143.922788405114
 20
118.3235142971259
 30
0.0
 11
143.922788405114
 21
111.923514297126
 31
0.0
  0
LINE
  5
1A7
330
2
100
AcDbEntity
  8
03-01
100
AcDbLine
 10
143.9227884051142
 20
131.9235142971256
 30
0.0
 11
143.922788405114
 21
118.3235142971259
 31
0.0
  0
LINE
  5
1A8
330
2
100
AcDbEntity
  8
0
100
AcDbLine
 10
85.42278840511334
 20
109.9235142971257
 30
0.0
 11
85.42278840511334
 21
108.423514297126
 31
0.0
  0
ARC
  5
1A9
330
2
100
AcDbEntity
  8
0
100
AcDbCircle
 10
82.67278840511721
 20
111.4235142971257
 30
0.0
 40
1.5
100
AcDbArc
 50
221.8103148957758
 51
270.0
  0
ARC
  5
1AA
330
2
100
AcDbEntity
  8
03-01
100
AcDbCircle
 10
82.67278840511721
 20
111.4235142971257
 30
0.0
 40
1.5
100
AcDbArc
 50
180.0000000000065
 51
221.8103148957758
  0
LINE
  5
1AB
330
2
100
AcDbEntity
  8
0
100
AcDbLine
 10
82.67278840511721
 20
109.9235142971257
 30
0.0
 11
85.42278840511334
 21
109.9235142971257
 31
0.0
  0
CIRCLE
  5
1AC
330
2
100
AcDbEntity
  8
03-01
100
AcDbCircle
 10
113.4227884051133
 20
119.0735142971256
 30
0.0
 40
4.0
  0
LINE
  5
1AD
330
2
100
AcDbEntity
  8
05-01
100
AcDbLine
 10
113.4227884051133
 20
124.0735142971256
 30
0.0
 11
113.4227884051133
 21
114.0735142971256
 31
0.0
  0
LINE
  5
1B1
330
2
100
AcDbEntity
  8
0
100
AcDbLine
 10
141.4227884051133
 20
109.9235142971255
 30
0.0
 11
141.4227884051133
 21
108.4235142971261
 31
0.0
  0
LINE
  5
1B2
330
2
100
AcDbEntity
  8
05-01
100
AcDbLine
 10
118.4227884051133
 20
119.0735142971256
 30
0.0
 11
108.4227884051133
 21
119.0735142971256
 31
0.0
  0
ARC
  5
1B3
330
2
100
AcDbEntity
  8
03-01
100
AcDbCircle
 10
144.172788405109
 20
111.4235142971255
 30
0.0
 40
1.5
100
AcDbArc
 50
318.1896851042448
 51
359.9999999999935
  0
ARC
  5
1B4
330
2
100
AcDbEntity
  8
0
100
AcDbCircle
 10
144.172788405109
 20
111.4235142971255
 30
0.0
 40
1.5
100
AcDbArc
 50
270.0
 51
318.1896851042448
  0
LINE
  5
1B5
330
2
100
AcDbEntity
  8
0
100
AcDbLine
 10
144.172788405109
 20
109.9235142971255
 30
0.0
 11
141.4227884051133
 21
109.9235142971255
 31
0.0
  0
ARC
  5
1B6
330
2
100
AcDbEntity
  8
0
100
AcDbCircle
 10
94.42278840511381
 20
122.3235142971257
 30
0.0
 40
2.0
100
AcDbArc
 50
90.0
 51
180.0
  0
LINE
  5
1B7
330
2
100
AcDbEntity
  8
0
100
AcDbLine
 10
92.4227884051138
 20
118.3235142971259
 30
0.0
 11
92.4227884051138
 21
122.3235142971257
 31
0.0
  0
ARC
  5
1B8
330
2
100
AcDbEntity
  8
0
100
AcDbCircle
 10
132.4227884051142
 20
122.323514297126
 30
0.0
 40
2.0
100
AcDbArc
 50
0.0
 51
90.0
  0
LINE
  5
1B9
330
2
100
AcDbEntity
  8
0
100
AcDbLine
 10
134.422788405114
 20
118.3235142971258
 30
0.0
 11
134.4227884051142
 21
122.323514297126
 31
0.0
  0
LINE
  5
1BA
330
2
100
AcDbEntity
  8
0
100
AcDbLine
 10
132.4227884051142
 20
124.323514297126
 30
0.0
 11
94.42278840511381
 21
124.3235142971257
 31
0.0
  0
LINE
  5
1BB
330
2
100
AcDbEntity
  8
0
100
AcDbLine
 10
147.1727884051142
 20
110.423514297126
 30
0.0
 11
139.1727884051142
 21
110.4235142971262
 31
0.0
  0
LINE
  5
1BC
330
2
100
AcDbEntity
  8
0
100
AcDbLine
 10
145.6727884051142
 20
111.923514297126
 30
0.0
 11
139.1727884051142
 21
111.923514297126
 31
0.0
  0
LINE
  5
1BD
330
2
100
AcDbEntity
  8
0
100
AcDbLine
 10
147.1727884051142
 20
134.923514297126
 30
0.0
 11
147.1727884051142
 21
110.423514297126
 31
0.0
  0
LINE
  5
1BE
330
2
100
AcDbEntity
  8
0
100
AcDbLine
 10
139.1727884051142
 20
111.923514297126
 30
0.0
 11
139.1727884051142
 21
110.4235142971262
 31
0.0
  0
LINE
  5
1BF
330
2
100
AcDbEntity
  8
03-01
100
AcDbLine
 10
145.6727884051142
 20
111.923514297126
 30
0.0
 11
145.6727884051142
 21
111.4235142971253
 31
0.0
  0
LINE
  5
1C0
330
2
100
AcDbEntity
  8
0
100
AcDbLine
 10
145.6727884051142
 20
134.9235142971261
 30
0.0
 11
145.6727884051142
 21
111.923514297126
 31
0.0
  0
LINE
  5
1C1
330
2
100
AcDbEntity
  8
03-01
100
AcDbLine
 10
134.4227884051142
 20
119.8235142971258
 30
0.0
 11
145.6727884051142
 21
119.823514297126
 31
0.0
  0
LINE
  5
1C2
330
2
100
AcDbEntity
  8
03-01
100
AcDbLine
 10
81.17278840511403
 20
119.8235142971258
 30
0.0
 11
92.4227884051138
 21
119.8235142971259
 31
0.0
  0
LINE
  5
1C3
330
2
100
AcDbEntity
  8
0
100
AcDbLine
 10
134.422788405114
 20
118.3235142971258
 30
0.0
 11
145.6727884051142
 21
118.3235142971259
 31
0.0
  0
LINE
  5
1C4
330
2
100
AcDbEntity
  8
0
100
AcDbLine
 10
81.17278840511403
 20
118.3235142971258
 30
0.0
 11
92.4227884051138
 21
118.3235142971259
 31
0.0
  0
LINE
  5
1C5
330
2
100
AcDbEntity
  8
0
100
AcDbLine
 10
85.42278840511334
 20
108.423514297126
 30
0.0
 11
141.4227884051133
 21
108.4235142971261
 31
0.0
  0
LINE
  5
1C6
330
2
100
AcDbEntity
  8
0
100
AcDbLine
 10
85.42278840511334
 20
109.9235142971259
 30
0.0
 11
141.4227884051133
 21
109.9235142971261
 31
0.0
  0
LINE
  5
1C7
330
2
100
AcDbEntity
  8
0
100
AcDbLine
 10
79.67278840511426
 20
134.9235142971257
 30
0.0
 11
147.1727884051142
 21
134.923514297126
 31
0.0
  0
LINE
  5
1C8
330
2
100
AcDbEntity
  8
0
100
AcDbLine
 10
79.67278840511426
 20
110.4235142971257
 30
0.0
 11
87.67278840511426
 21
110.423514297126
 31
0.0
  0
LINE
  5
1C9
330
2
100
AcDbEntity
  8
0
100
AcDbLine
 10
81.17278840511426
 20
111.9235142971257
 30
0.0
 11
87.67278840511426
 21
111.9235142971257
 31
0.0
  0
LINE
  5
1CA
330
2
100
AcDbEntity
  8
03-01
100
AcDbLine
 10
145.6727884051142
 20
125.423514297126
 30
0.0
 11
147.1727884051142
 21
125.423514297126
 31
0.0
  0
LINE
  5
1CB
330
2
100
AcDbEntity
  8
03-01
100
AcDbLine
 10
79.67278840511426
 20
125.4235142971257
 30
0.0
 11
81.17278840511426
 21
125.4235142971257
 31
0.0
  0
LINE
  5
1CC
330
2
100
AcDbEntity
  8
03-01
100
AcDbLine
 10
81.17278840511426
 20
133.4235142971257
 30
0.0
 11
145.6727884051142
 21
133.423514297126
 31
0.0
  0
LINE
  5
1CD
330
2
100
AcDbEntity
  8
0
100
AcDbLine
 10
79.67278840511426
 20
134.9235142971257
 30
0.0
 11
79.67278840511426
 21
110.4235142971257
 31
0.0
  0
LINE
  5
1CE
330
2
100
AcDbEntity
  8
0
100
AcDbLine
 10
87.67278840511426
 20
111.9235142971257
 30
0.0
 11
87.67278840511426
 21
110.423514297126
 31
0.0
  0
LINE
  5
1CF
330
2
100
AcDbEntity
  8
03-01
100
AcDbLine
 10
81.17278840511403
 20
111.9235142971257
 30
0.0
 11
81.17278840511426
 21
111.4235142971257
 31
0.0
  0
LINE
  5
1D0
330
2
100
AcDbEntity
  8
0
100
AcDbLine
 10
81.17278840511403
 20
134.9235142971259
 30
0.0
 11
81.17278840511403
 21
111.9235142971257
 31
0.0
  0
DIMENSION
  5
1D1
330
2
100
AcDbEntity
  8
0
100
AcDbDimension
280
     0
  2
*D11
 10
76.20251193573722
 20
277.7929331735651
 30
0.0
 11
71.70251193573718
 21
283.7929331735651
 31
0.0
 71
     5
 42
12.0
 73
     0
 74
     0
 75
     0
  3
Wagner$0
100
AcDbAlignedDimension
 13
94.42278840511335
 23
289.7929331735651
 33
0.0
 14
91.17278840511335
 24
277.7929331735651
 34
0.0
 50
90.0
100
AcDbRotatedDimension
1001
ACAD
1000
DSTYLE
1002
{
1070
    40
1040
2.0
1002
}
  0
DIMENSION
  5
1E0
330
2
100
AcDbEntity
  8
0
100
AcDbDimension
280
     0
  2
*D10
 10
131.1727884051129
 20
293.7960569428401
 30
0.0
 11
118.4226433463286
 21
298.5166262785572
 31
0.0
 70
   128
 71
     5
 42
5.5
 73
     0
 74
     0
 75
     0
  3
Wagner$0
100
AcDbAlignedDimension
 13
125.6727884051129
 23
289.7929331735649
 33
0.0
 14
131.1727884051129
 24
289.7929331735649
 34
0.0
100
AcDbRotatedDimension
1001
ACAD
1000
DSTYLE
1002
{
1070
    40
1040
2.0
1002
}
  0
DIMENSION
  5
1EF
330
2
100
AcDbEntity
  8
0
100
AcDbDimension
280
     0
  2
*D9
 10
104.6727884051133
 20
262.7103199638079
 30
0.0
 11
98.42278840511335
 21
267.2103199638079
 31
0.0
 71
     5
 42
12.5
 73
     0
 74
     0
 75
     0
  3
Wagner$0
100
AcDbAlignedDimension
 13
92.17278840511335
 23
277.7929331735651
 33
0.0
 14
104.6727884051133
 24
277.7929331402364
 34
0.0
100
AcDbRotatedDimension
1001
ACAD
1000
DSTYLE
1002
{
1070
    40
1040
2.0
1002
}
  0
DIMENSION
  5
1FE
330
2
100
AcDbEntity
  8
0
100
AcDbDimension
280
     0
  2
*D8
 10
128.4227884051129
 20
303.1988331260129
 30
0.0
 11
113.4227884051131
 21
307.6988331260129
 31
0.0
 71
     5
 42
29.99999999999955
 73
     0
 74
     0
 75
     0
  3
Wagner$0
100
AcDbAlignedDimension
 13
98.42278840511335
 23
293.2929331735651
 33
0.0
 14
128.4227884051129
 24
293.2929331735648
 34
0.0
100
AcDbRotatedDimension
1001
ACAD
1000
DSTYLE
1002
{
1070
    40
1040
2.0
1002
}
  0
DIMENSION
  5
20B
330
2
100
AcDbEntity
  8
0
100
AcDbDimension
280
     0
  2
*D7
 10
65.52718943519221
 20
289.7929331735651
 30
0.0
 11
61.02718943519215
 21
266.542933173565
 31
0.0
 71
     5
 42
46.50000000000019
 73
     0
 74
     0
 75
     0
  3
Wagner$0
100
AcDbAlignedDimension
 13
81.17278840511426
 23
243.2929331735648
 33
0.0
 14
98.42278840511335
 24
289.7929331735651
 34
0.0
 50
90.0
100
AcDbRotatedDimension
1001
ACAD
1000
DSTYLE
1002
{
1070
    40
1040
2.0
1002
}
  0
DIMENSION
  5
218
330
2
100
AcDbEntity
  8
0
100
AcDbDimension
280
     0
  2
*D6
 10
241.1503049012012
 20
202.6916054801638
 30
0.0
 11
236.6503049012012
 21
299.2422693268643
 31
0.0
 71
     5
 42
193.1013276934008
 73
     0
 74
     0
 75
     0
  3
Wagner$0
100
AcDbAlignedDimension
 13
272.9427468872714
 23
395.7929331735646
 33
0.0
 14
339.5648201474241
 24
202.6916054801638
 34
0.0
 50
90.0
100
AcDbRotatedDimension
1001
ACAD
1000
DSTYLE
1002
{
1070
   271
1070
     1
1070
    40
1040
2.0
1002
}
  0
DIMENSION
  5
225
330
2
100
AcDbEntity
  8
0
100
AcDbDimension
280
     0
  2
*D5
 10
128.3863795208772
 20
185.4496879836918
 30
0.0
 11
113.4227884051129
 21
189.9496879836918
 31
0.0
 71
     5
 42
29.92718223152861
 73
     0
 74
     0
 75
     0
  3
Wagner$0
100
AcDbAlignedDimension
 13
98.45919728934859
 23
200.7865570162782
 33
0.0
 14
128.3863795208772
 24
200.7865570162782
 34
0.0
100
AcDbRotatedDimension
1001
ACAD
1000
DSTYLE
1002
{
1070
   271
1070
     1
1070
    40
1040
2.0
1002
}
  0
LINE
  5
232
330
2
100
AcDbEntity
  8
03-01
100
AcDbLine
 10
115.4227884051131
 20
259.2929331735647
 30
0.0
 11
115.4227884051131
 21
254.2929331735648
 31
0.0
  0
LINE
  5
233
330
2
100
AcDbEntity
  8
03-01
100
AcDbLine
 10
111.4227884051131
 20
259.2929331735647
 30
0.0
 11
111.4227884051131
 21
254.2929331735648
 31
0.0
  0
LINE
  5
234
330
2
100
AcDbEntity
  8
03-01
100
AcDbLine
 10
115.4227884051131
 20
254.2929331735648
 30
0.0
 11
111.4227884051131
 21
254.2929331735648
 31
0.0
  0
LINE
  5
235
330
2
100
AcDbEntity
  8
03-01
100
AcDbLine
 10
115.4727884051131
 20
248.2929331735648
 30
0.0
 11
111.3727884051131
 21
248.2929331735648
 31
0.0
  0
LINE
  5
236
330
2
100
AcDbEntity
  8
03-01
100
AcDbLine
 10
115.2817268205463
 20
257.2929331735647
 30
0.0
 11
115.4227884051131
 21
256.4929331735645
 31
0.0
  0
LINE
  5
237
330
2
100
AcDbEntity
  8
03-01
100
AcDbLine
 10
111.4227884051131
 20
256.4929331735645
 30
0.0
 11
115.4227884051129
 21
256.492933173565
 31
0.0
  0
LINE
  5
238
330
2
100
AcDbEntity
  8
03-01
100
AcDbLine
 10
111.5638499896797
 20
257.2929331735647
 30
0.0
 11
115.2817268205463
 21
257.2929331735647
 31
0.0
  0
LINE
  5
239
330
2
100
AcDbEntity
  8
03-01
100
AcDbLine
 10
111.3727884051131
 20
259.2929331735647
 30
0.0
 11
111.3727884051131
 21
248.2929331735648
 31
0.0
  0
LINE
  5
23A
330
2
100
AcDbEntity
  8
03-01
100
AcDbLine
 10
111.4227884051131
 20
256.4929331735645
 30
0.0
 11
111.4227884051131
 21
248.2929331735648
 31
0.0
  0
LINE
  5
23B
330
2
100
AcDbEntity
  8
03-01
100
AcDbLine
 10
111.5638499896797
 20
257.2929331735647
 30
0.0
 11
111.4227884051131
 21
256.4929331735645
 31
0.0
  0
LINE
  5
23C
330
2
100
AcDbEntity
  8
03-01
100
AcDbLine
 10
115.4727884051128
 20
259.2929331735647
 30
0.0
 11
115.4727884051131
 21
248.2929331735648
 31
0.0
  0
LINE
  5
23D
330
2
100
AcDbEntity
  8
03-01
100
AcDbLine
 10
115.4227884051129
 20
256.492933173565
 30
0.0
 11
115.4227884051131
 21
248.2929331735648
 31
0.0
  0
LINE
  5
23E
330
2
100
AcDbEntity
  8
03-01
100
AcDbLine
 10
115.2817268205463
 20
263.2929331735647
 30
0.0
 11
115.4227884051131
 21
262.4929331735645
 31
0.0
  0
ARC
  5
23F
330
2
100
AcDbEntity
  8
03-01
100
AcDbCircle
 10
119.0519535297121
 20
248.5637665068978
 30
0.0
 40
3.770833333333238
100
AcDbArc
 50
240.1582758353165
 51
299.8417241646835
  0
ARC
  5
240
330
2
100
AcDbEntity
  8
03-01
100
AcDbCircle
 10
113.4227884051133
 20
259.1262665068973
 30
0.0
 40
14.33333333333294
100
AcDbArc
 50
254.8218210620478
 51
285.1781789379522
  0
ARC
  5
241
330
2
100
AcDbEntity
  8
03-01
100
AcDbCircle
 10
107.7936232805143
 20
248.5637665068978
 30
0.0
 40
3.770833333333238
100
AcDbArc
 50
240.1582758353165
 51
299.8417241646835
  0
ARC
  5
242
330
2
100
AcDbEntity
  8
03-01
100
AcDbCircle
 10
119.0519535297121
 20
245.0220998402313
 30
0.0
 40
3.770833333333238
100
AcDbArc
 50
60.1582758353167
 51
119.8417241646833
  0
ARC
  5
243
330
2
100
AcDbEntity
  8
03-01
100
AcDbCircle
 10
113.4227884051133
 20
234.4595998402318
 30
0.0
 40
14.33333333333294
100
AcDbArc
 50
74.8218210620478
 51
105.1781789379522
  0
ARC
  5
244
330
2
100
AcDbEntity
  8
03-01
100
AcDbCircle
 10
107.7936232805143
 20
245.0220998402313
 30
0.0
 40
3.770833333333238
100
AcDbArc
 50
60.15827583531682
 51
119.8417241646835
  0
LINE
  5
245
330
2
100
AcDbEntity
  8
03-01
100
AcDbLine
 10
117.1755651548458
 20
245.2929331735644
 30
0.0
 11
117.1755651548458
 21
248.2929331735648
 31
0.0
  0
LINE
  5
246
330
2
100
AcDbEntity
  8
03-01
100
AcDbLine
 10
109.6700116553807
 20
245.2929331735645
 30
0.0
 11
109.6700116553804
 21
248.2929331735648
 31
0.0
  0
LINE
  5
247
330
2
100
AcDbEntity
  8
03-01
100
AcDbLine
 10
120.428341904578
 20
248.7929331735648
 30
0.0
 11
120.928341904578
 21
248.2929331735648
 31
0.0
  0
LINE
  5
248
330
2
100
AcDbEntity
  8
03-01
100
AcDbLine
 10
120.9283419045782
 20
245.2929331735645
 30
0.0
 11
120.928341904578
 21
248.2929331735648
 31
0.0
  0
LINE
  5
249
330
2
100
AcDbEntity
  8
03-01
100
AcDbLine
 10
106.417234905648
 20
248.7929331735648
 30
0.0
 11
105.917234905648
 21
248.2929331735648
 31
0.0
  0
LINE
  5
24A
330
2
100
AcDbEntity
  8
03-01
100
AcDbLine
 10
105.9172349056477
 20
245.2929331735648
 30
0.0
 11
105.917234905648
 21
248.2929331735648
 31
0.0
  0
LINE
  5
24B
330
2
100
AcDbEntity
  8
03-01
100
AcDbLine
 10
109.4227884051131
 20
258.4929331735645
 30
0.0
 11
117.4227884051129
 21
258.4929331735645
 31
0.0
  0
LINE
  5
24C
330
2
100
AcDbEntity
  8
03-01
100
AcDbLine
 10
116.6227884051129
 20
259.2929331735647
 30
0.0
 11
117.4227884051129
 21
258.4929331735645
 31
0.0
  0
LINE
  5
24D
330
2
100
AcDbEntity
  8
03-01
100
AcDbLine
 10
117.4227884051131
 20
248.7929331735648
 30
0.0
 11
117.4227884051129
 21
258.4929331735645
 31
0.0
  0
LINE
  5
24E
330
2
100
AcDbEntity
  8
03-01
100
AcDbLine
 10
117.4227884051129
 20
243.2929331735648
 30
0.0
 11
117.4227884051129
 21
244.7929331735648
 31
0.0
  0
LINE
  5
24F
330
2
100
AcDbEntity
  8
03-01
100
AcDbLine
 10
109.4227884051131
 20
248.7929331735648
 30
0.0
 11
109.4227884051131
 21
258.4929331735645
 31
0.0
  0
LINE
  5
250
330
2
100
AcDbEntity
  8
03-01
100
AcDbLine
 10
109.4227884051131
 20
243.2929331735648
 30
0.0
 11
109.4227884051131
 21
244.7929331735643
 31
0.0
  0
ARC
  5
251
330
2
100
AcDbEntity
  8
03-01
100
AcDbCircle
 10
117.7529154240353
 20
240.6262665068983
 30
0.0
 40
2.333333333333545
100
AcDbArc
 50
231.7867892982695
 51
308.2132107017304
  0
ARC
  5
252
330
2
100
AcDbEntity
  8
03-01
100
AcDbCircle
 10
113.4227884051129
 20
246.8762665068983
 30
0.0
 40
8.583333333333548
100
AcDbArc
 50
250.3471403683376
 51
289.6528596316624
  0
ARC
  5
253
330
2
100
AcDbEntity
  8
03-01
100
AcDbCircle
 10
109.0926613861909
 20
240.6262665068983
 30
0.0
 40
2.333333333333545
100
AcDbArc
 50
231.7867892982531
 51
308.213210701747
  0
ARC
  5
254
330
2
100
AcDbEntity
  8
03-01
100
AcDbCircle
 10
117.7529154240353
 20
240.9595998402313
 30
0.0
 40
2.333333333333545
100
AcDbArc
 50
51.78678929826932
 51
128.2132107017307
  0
ARC
  5
255
330
2
100
AcDbEntity
  8
03-01
100
AcDbCircle
 10
113.4227884051129
 20
234.7095998402313
 30
0.0
 40
8.583333333333548
100
AcDbArc
 50
70.34714036833758
 51
109.6528596316623
  0
ARC
  5
256
330
2
100
AcDbEntity
  8
03-01
100
AcDbCircle
 10
109.0926613861909
 20
240.9595998402313
 30
0.0
 40
2.333333333333545
100
AcDbArc
 50
51.78678929826932
 51
128.2132107017307
  0
LINE
  5
257
330
2
100
AcDbEntity
  8
03-01
100
AcDbLine
 10
119.1962910970094
 20
238.7929331735648
 30
0.0
 11
118.6962910970094
 21
238.2929331735648
 31
0.0
  0
LINE
  5
258
330
2
100
AcDbEntity
  8
03-01
100
AcDbLine
 10
108.1492857132168
 20
238.2929331735643
 30
0.0
 11
118.6962910970094
 21
238.2929331735648
 31
0.0
  0
LINE
  5
259
330
2
100
AcDbEntity
  8
03-01
100
AcDbLine
 10
118.6962910970094
 20
243.2929331735648
 30
0.0
 11
119.1962910970094
 21
242.7929331735648
 31
0.0
  0
LINE
  5
25A
330
2
100
AcDbEntity
  8
03-01
100
AcDbLine
 10
119.1962910970094
 20
238.7929331735648
 30
0.0
 11
119.1962910970094
 21
242.7929331735648
 31
0.0
  0
LINE
  5
25B
330
2
100
AcDbEntity
  8
03-01
100
AcDbLine
 10
108.1492857132168
 20
238.2929331735643
 30
0.0
 11
107.6492857132168
 21
238.7929331735644
 31
0.0
  0
LINE
  5
25C
330
2
100
AcDbEntity
  8
03-01
100
AcDbLine
 10
107.6492857132168
 20
238.7929331735644
 30
0.0
 11
107.6492857132168
 21
242.7929331735648
 31
0.0
  0
LINE
  5
25D
330
2
100
AcDbEntity
  8
03-01
100
AcDbLine
 10
116.3095397510612
 20
238.7929331735644
 30
0.0
 11
116.3095397510612
 21
242.7929331735648
 31
0.0
  0
LINE
  5
25E
330
2
100
AcDbEntity
  8
03-01
100
AcDbLine
 10
110.536037059165
 20
238.7929331735644
 30
0.0
 11
110.536037059165
 21
242.7929331735648
 31
0.0
  0
LINE
  5
25F
330
2
100
AcDbEntity
  8
03-01
100
AcDbLine
 10
105.4227884051131
 20
228.7929331735648
 30
0.0
 11
121.4227884051131
 21
228.7929331735648
 31
0.0
  0
LINE
  5
260
330
2
100
AcDbEntity
  8
03-01
100
AcDbLine
 10
105.4227884051131
 20
226.4889101103207
 30
0.0
 11
121.4227884051131
 21
226.4889101103207
 31
0.0
  0
ARC
  5
261
330
2
100
AcDbEntity
  8
03-01
100
AcDbCircle
 10
119.9227884051131
 20
230.7929331735648
 30
0.0
 40
1.0
100
AcDbArc
 50
180.0
 51
270.0
  0
ARC
  5
262
330
2
100
AcDbEntity
  8
03-01
100
AcDbCircle
 10
106.4227884051131
 20
226.4889101103207
 30
0.0
 40
1.0
100
AcDbArc
 50
180.0
 51
250.6088272783189
  0
ARC
  5
263
330
2
100
AcDbEntity
  8
03-01
100
AcDbCircle
 10
120.4227884051131
 20
226.4889101103207
 30
0.0
 40
1.0
100
AcDbArc
 50
289.3911727216811
 51
0.0
  0
ARC
  5
264
330
2
100
AcDbEntity
  8
03-01
100
AcDbCircle
 10
113.4227884051131
 20
246.3762665068983
 30
0.0
 40
22.08333333333337
100
AcDbArc
 50
250.6088272783189
 51
289.3911727216811
  0
ARC
  5
265
330
2
100
AcDbEntity
  8
03-01
100
AcDbCircle
 10
106.9227884051131
 20
230.7929331735648
 30
0.0
 40
1.0
100
AcDbArc
 50
270.0
 51
0.0
  0
LINE
  5
266
330
2
100
AcDbEntity
  8
03-01
100
AcDbLine
 10
106.4227884051131
 20
229.7929331735648
 30
0.0
 11
120.4227884051131
 21
229.7929331735648
 31
0.0
  0
LINE
  5
267
330
2
100
AcDbEntity
  8
03-01
100
AcDbLine
 10
107.6492857132168
 20
242.7929331735648
 30
0.0
 11
108.1492857132168
 21
243.2929331735648
 31
0.0
  0
LINE
  5
268
330
2
100
AcDbEntity
  8
03-01
100
AcDbLine
 10
109.4227884051131
 20
258.4929331735645
 30
0.0
 11
110.2227884051131
 21
259.2929331735647
 31
0.0
  0
LINE
  5
269
330
2
100
AcDbEntity
  8
03-01
100
AcDbLine
 10
111.4227884051131
 20
262.4929331735645
 30
0.0
 11
115.4227884051129
 21
262.492933173565
 31
0.0
  0
LINE
  5
26A
330
2
100
AcDbEntity
  8
03-01
100
AcDbLine
 10
111.5638499896797
 20
263.2929331735647
 30
0.0
 11
115.2817268205463
 21
263.2929331735647
 31
0.0
  0
LINE
  5
26B
330
2
100
AcDbEntity
  8
03-01
100
AcDbLine
 10
110.2227884051131
 20
259.2929331735647
 30
0.0
 11
116.6227884051129
 21
259.2929331735647
 31
0.0
  0
LINE
  5
26C
330
2
100
AcDbEntity
  8
03-01
100
AcDbLine
 10
106.417234905648
 20
248.7929331735648
 30
0.0
 11
120.428341904578
 21
248.7929331735648
 31
0.0
  0
LINE
  5
26D
330
2
100
AcDbEntity
  8
03-01
100
AcDbLine
 10
105.9172349056477
 20
245.2929331735648
 30
0.0
 11
106.4172349056478
 21
244.7929331735648
 31
0.0
  0
LINE
  5
26E
330
2
100
AcDbEntity
  8
03-01
100
AcDbLine
 10
120.9283419045782
 20
245.2929331735648
 30
0.0
 11
120.4283419045782
 21
244.7929331735648
 31
0.0
  0
LINE
  5
26F
330
2
100
AcDbEntity
  8
03-01
100
AcDbLine
 10
106.4172349056478
 20
244.7929331735648
 30
0.0
 11
120.4283419045782
 21
244.7929331735648
 31
0.0
  0
LINE
  5
270
330
2
100
AcDbEntity
  8
03-01
100
AcDbLine
 10
108.1492857132168
 20
243.2929331735648
 30
0.0
 11
118.6962910970094
 21
243.2929331735648
 31
0.0
  0
LINE
  5
271
330
2
100
AcDbEntity
  8
03-01
100
AcDbLine
 10
108.4227884051131
 20
238.2929331735648
 30
0.0
 11
118.4227884051131
 21
238.2929331735648
 31
0.0
  0
ARC
  5
272
330
2
100
AcDbEntity
  8
03-01
100
AcDbCircle
 10
108.4227884051131
 20
237.7929331735648
 30
0.0
 40
0.5
100
AcDbArc
 50
90.0
 51
180.0
  0
LINE
  5
273
330
2
100
AcDbEntity
  8
03-01
100
AcDbLine
 10
107.9227884051131
 20
237.7929331735648
 30
0.0
 11
107.9227884051131
 21
230.7929331735648
 31
0.0
  0
ARC
  5
274
330
2
100
AcDbEntity
  8
03-01
100
AcDbCircle
 10
118.4227884051131
 20
237.7929331735648
 30
0.0
 40
0.5
100
AcDbArc
 50
0.0
 51
90.0
  0
LINE
  5
275
330
2
100
AcDbEntity
  8
03-01
100
AcDbLine
 10
118.9227884051131
 20
237.7929331735648
 30
0.0
 11
118.9227884051131
 21
230.7929331735648
 31
0.0
  0
ARC
  5
276
330
2
100
AcDbEntity
  8
03-01
100
AcDbCircle
 10
106.4227884051131
 20
228.7929331735648
 30
0.0
 40
1.0
100
AcDbArc
 50
90.0
 51
180.0
  0
LINE
  5
277
330
2
100
AcDbEntity
  8
03-01
100
AcDbLine
 10
105.4227884051131
 20
228.7929331735648
 30
0.0
 11
105.4227884051131
 21
226.4889101103207
 31
0.0
  0
ARC
  5
278
330
2
100
AcDbEntity
  8
03-01
100
AcDbCircle
 10
120.4227884051131
 20
228.7929331735648
 30
0.0
 40
1.0
100
AcDbArc
 50
0.0
 51
90.0
  0
LINE
  5
279
330
2
100
AcDbEntity
  8
03-01
100
AcDbLine
 10
121.4227884051131
 20
228.7929331735648
 30
0.0
 11
121.4227884051131
 21
226.4889101103207
 31
0.0
  0
LINE
  5
27A
330
2
100
AcDbEntity
  8
03-01
100
AcDbLine
 10
111.9227884051133
 20
254.2929331735648
 30
0.0
 11
111.9227884051131
 21
238.2929331735648
 31
0.0
  0
LINE
  5
27B
330
2
100
AcDbEntity
  8
03-01
100
AcDbLine
 10
114.9227884051129
 20
254.2929331735648
 30
0.0
 11
114.9227884051131
 21
238.2929331735648
 31
0.0
  0
LINE
  5
27C
330
2
100
AcDbEntity
  8
0
 62
     4
100
AcDbLine
 10
110.0227884051132
 20
244.7929331735648
 30
0.0
 11
110.0227884051132
 21
243.2929331735648
 31
0.0
  0
LINE
  5
27D
330
2
100
AcDbEntity
  8
0
 62
     4
100
AcDbLine
 10
110.022788405113
 20
259.0929331735645
 30
0.0
 11
110.022788405113
 21
248.7929331735648
 31
0.0
  0
LINE
  5
27E
330
2
100
AcDbEntity
  8
0
 62
     4
100
AcDbLine
 10
116.8227884051132
 20
244.7929331735648
 30
0.0
 11
116.8227884051132
 21
243.2929331735648
 31
0.0
  0
LINE
  5
27F
330
2
100
AcDbEntity
  8
03-01
 62
     4
100
AcDbLine
 10
116.822788405113
 20
259.0929331735645
 30
0.0
 11
116.8227884051132
 21
248.7929331735648
 31
0.0
  0
LINE
  5
280
330
2
100
AcDbEntity
  8
03-01
100
AcDbLine
 10
111.4227884051131
 20
262.4929331735645
 30
0.0
 11
111.4227884051131
 21
259.2929331735647
 31
0.0
  0
LINE
  5
281
330
2
100
AcDbEntity
  8
03-01
100
AcDbLine
 10
111.5638499896797
 20
263.2929331735647
 30
0.0
 11
111.4227884051131
 21
262.4929331735645
 31
0.0
  0
LINE
  5
282
330
2
100
AcDbEntity
  8
03-01
100
AcDbLine
 10
115.4227884051129
 20
262.492933173565
 30
0.0
 11
115.4227884051131
 21
259.2929331735647
 31
0.0
  0
LINE
  5
283
330
2
100
AcDbEntity
  8
05-01
100
AcDbLine
 10
113.4227884051131
 20
264.2571990360114
 30
0.0
 11
113.4227884051131
 21
223.2929331735648
 31
0.0
  0
DIMENSION
  5
284
330
2
100
AcDbEntity
  8
0
100
AcDbDimension
280
     0
  2
*D4
 10
147.1727884051138
 20
167.0404201623517
 30
0.0
 11
113.4227884051135
 21
171.5404201623517
 31
0.0
 71
     5
 42
67.50000000000046
 73
     0
 74
     0
 75
     0
  3
Wagner$0
100
AcDbAlignedDimension
 13
79.67278840511335
 23
251.7929331735652
 33
0.0
 14
147.1727884051138
 24
251.7929331735652
 34
0.0
100
AcDbRotatedDimension
1001
ACAD
1000
DSTYLE
1002
{
1070
    40
1040
2.0
1002
}
  0
DIMENSION
  5
291
330
2
100
AcDbEntity
  8
0
100
AcDbDimension
280
     0
  2
*D3
 10
377.3682104203053
 20
178.7411840347161
 30
0.0
 11
325.1554786537884
 21
183.2411840347161
 31
0.0
 71
     5
 42
104.4254635330339
 73
     0
 74
     0
 75
     0
  3
Wagner$0
100
AcDbAlignedDimension
 13
272.9427468872714
 23
243.2929331735646
 33
0.0
 14
377.3682104203053
 24
235.2960582545597
 34
0.0
100
AcDbRotatedDimension
1001
ACAD
1000
DSTYLE
1002
{
1070
   271
1070
     1
1070
    40
1040
2.0
1002
}
  0
ARC
  5
29E
330
2
100
AcDbEntity
  8
0
100
AcDbCircle
 10
142.1727884051138
 20
371.7929331735644
 30
0.0
 40
3.0
100
AcDbArc
 50
90.0
 51
180.0
  0
ARC
  5
29F
330
2
100
AcDbEntity
  8
0
100
AcDbCircle
 10
142.1727884051138
 20
347.7929331735643
 30
0.0
 40
3.0
100
AcDbArc
 50
180.0
 51
270.0
  0
LINE
  5
2A0
330
2
100
AcDbEntity
  8
0
100
AcDbLine
 10
139.1727884051138
 20
371.7929331735644
 30
0.0
 11
139.1727884051138
 21
347.7929331735643
 31
0.0
  0
LINE
  5
2A1
330
2
100
AcDbEntity
  8
0
100
AcDbLine
 10
145.6727884051142
 20
344.7929331735644
 30
0.0
 11
145.6727884051142
 21
251.7929331735651
 31
0.0
  0
LINE
  5
2A2
330
2
100
AcDbEntity
  8
03-01
100
AcDbLine
 10
145.6727884051142
 20
374.7929331735646
 30
0.0
 11
145.6727884051142
 21
344.7929331735644
 31
0.0
  0
LINE
  5
2A3
330
2
100
AcDbEntity
  8
0
100
AcDbLine
 10
147.1727884051138
 20
374.7929331735647
 30
0.0
 11
147.1727884051138
 21
251.7929331735652
 31
0.0
  0
LINE
  5
2A4
330
2
100
AcDbEntity
  8
0
100
AcDbLine
 10
145.6727884051142
 20
251.7929331735655
 30
0.0
 11
145.6727884051129
 21
243.2929331735648
 31
0.0
  0
LINE
  5
2A5
330
2
100
AcDbEntity
  8
0
100
AcDbLine
 10
142.1727884051138
 20
344.7929331735643
 30
0.0
 11
147.1727884051138
 21
344.7929331735645
 31
0.0
  0
LINE
  5
2A6
330
2
100
AcDbEntity
  8
0
100
AcDbLine
 10
142.1727884051136
 20
374.7929331735644
 30
0.0
 11
147.1727884051138
 21
374.7929331735647
 31
0.0
  0
LINE
  5
2A7
330
2
100
AcDbEntity
  8
0
100
AcDbLine
 10
145.6727884051138
 20
251.7929331735653
 30
0.0
 11
147.1727884051138
 21
251.7929331735652
 31
0.0
  0
LINE
  5
2A8
330
2
100
AcDbEntity
  8
0
100
AcDbLine
 10
145.672788405112
 20
243.2929331735648
 30
0.0
 11
81.17278840511426
 21
243.2929331735648
 31
0.0
  0
ARC
  5
2A9
330
2
100
AcDbEntity
  8
0
100
AcDbCircle
 10
84.67278840511335
 20
371.7929331735644
 30
0.0
 40
3.0
100
AcDbArc
 50
0.0
 51
90.0
  0
ARC
  5
2AA
330
2
100
AcDbEntity
  8
0
100
AcDbCircle
 10
84.67278840511335
 20
347.7929331735643
 30
0.0
 40
3.0
100
AcDbArc
 50
270.0
 51
0.0
  0
LINE
  5
2AB
330
2
100
AcDbEntity
  8
0
100
AcDbLine
 10
87.67278840511336
 20
371.7929331735644
 30
0.0
 11
87.67278840511336
 21
347.7929331735643
 31
0.0
  0
LINE
  5
2AC
330
2
100
AcDbEntity
  8
0
100
AcDbLine
 10
81.17278840511289
 20
344.7929331735644
 30
0.0
 11
81.17278840511289
 21
251.7929331735651
 31
0.0
  0
LINE
  5
2AD
330
2
100
AcDbEntity
  8
03-01
100
AcDbLine
 10
81.17278840511289
 20
374.7929331735646
 30
0.0
 11
81.17278840511289
 21
344.7929331735644
 31
0.0
  0
LINE
  5
2AE
330
2
100
AcDbEntity
  8
0
100
AcDbLine
 10
79.67278840511335
 20
374.7929331735647
 30
0.0
 11
79.67278840511335
 21
251.7929331735652
 31
0.0
  0
LINE
  5
2AF
330
2
100
AcDbEntity
  8
0
100
AcDbLine
 10
145.6727884051101
 20
395.7929331735646
 30
0.0
 11
81.17278840511586
 21
395.7929331735646
 31
0.0
  0
LINE
  5
2B0
330
2
100
AcDbEntity
  8
0
100
AcDbLine
 10
92.17278840511268
 20
388.7981111439025
 30
0.0
 11
92.17278840511289
 21
395.7929331735645
 31
0.0
  0
LINE
  5
2B1
330
2
100
AcDbEntity
  8
0
100
AcDbLine
 10
134.6727884051126
 20
388.7981111439025
 30
0.0
 11
134.6727884051129
 21
395.7929331735646
 31
0.0
  0
ARC
  5
2B2
330
2
100
AcDbEntity
  8
03-01
100
AcDbCircle
 10
120.4227884051133
 20
354.4429331735651
 30
0.0
 40
1.5
100
AcDbArc
 50
270.0
 51
90.0
  0
ARC
  5
2B3
330
2
100
AcDbEntity
  8
03-01
100
AcDbCircle
 10
106.4227884051133
 20
354.4429331735651
 30
0.0
 40
1.5
100
AcDbArc
 50
90.0
 51
270.0
  0
LINE
  5
2B4
330
2
100
AcDbEntity
  8
03-01
100
AcDbLine
 10
106.4227884051133
 20
352.942933173565
 30
0.0
 11
120.4227884051133
 21
352.942933173565
 31
0.0
  0
LINE
  5
2B5
330
2
100
AcDbEntity
  8
03-01
100
AcDbLine
 10
106.4227884051133
 20
355.9429331735651
 30
0.0
 11
120.4227884051133
 21
355.9429331735651
 31
0.0
  0
ARC
  5
2B6
330
2
100
AcDbEntity
  8
03-01
100
AcDbCircle
 10
126.9227884051133
 20
354.442933173565
 30
0.0
 40
1.499999999999772
100
AcDbArc
 50
0.0
 51
180.0
  0
ARC
  5
2B7
330
2
100
AcDbEntity
  8
03-01
100
AcDbCircle
 10
99.92278840511335
 20
354.4429331735651
 30
0.0
 40
1.5
100
AcDbArc
 50
0.0
 51
180.0
  0
LINE
  5
2B8
330
2
100
AcDbEntity
  8
03-01
100
AcDbLine
 10
101.4227884051133
 20
322.4429331735651
 30
0.0
 11
101.4227884051133
 21
354.4429331735652
 31
0.0
  0
LINE
  5
2B9
330
2
100
AcDbEntity
  8
03-01
100
AcDbLine
 10
98.42278840511335
 20
322.4429331735651
 30
0.0
 11
98.42278840511335
 21
354.4429331735652
 31
0.0
  0
ARC
  5
2BA
330
2
100
AcDbEntity
  8
03-01
100
AcDbCircle
 10
120.4227884051133
 20
322.4429331735649
 30
0.0
 40
5.0
100
AcDbArc
 50
270.0
 51
0.0
  0
ARC
  5
2BB
330
2
100
AcDbEntity
  8
03-01
100
AcDbCircle
 10
120.4227884051133
 20
322.4429331735649
 30
0.0
 40
8.0
100
AcDbArc
 50
270.0
 51
0.0
  0
LINE
  5
2BC
330
2
100
AcDbEntity
  8
03-01
100
AcDbLine
 10
125.4227884051133
 20
322.4429331735649
 30
0.0
 11
125.4227884051133
 21
354.442933173565
 31
0.0
  0
LINE
  5
2BD
330
2
100
AcDbEntity
  8
03-01
100
AcDbLine
 10
128.4227884051133
 20
322.4429331735649
 30
0.0
 11
128.4227884051133
 21
354.442933173565
 31
0.0
  0
CIRCLE
  5
2BE
330
2
100
AcDbEntity
  8
03-01
100
AcDbCircle
 10
113.4227884051135
 20
294.792933173565
 30
0.0
 40
3.25
  0
LINE
  5
2BF
330
2
100
AcDbEntity
  8
05-01
100
AcDbLine
 10
109.1727884051135
 20
294.792933173565
 30
0.0
 11
117.6727884051135
 21
294.792933173565
 31
0.0
  0
LINE
  5
2C0
330
2
100
AcDbEntity
  8
05-01
100
AcDbLine
 10
113.4227884051135
 20
299.042933173565
 30
0.0
 11
113.4227884051135
 21
290.542933173565
 31
0.0
  0
ARC
  5
2C1
330
2
100
AcDbEntity
  8
03-01
100
AcDbCircle
 10
128.4227884051129
 20
277.7929331735649
 30
0.0
 40
6.25
100
AcDbArc
 50
116.1038811373434
 51
63.89611886265659
  0
LINE
  5
2C2
330
2
100
AcDbEntity
  8
05-01
100
AcDbLine
 10
135.6727884051129
 20
277.7929331735649
 30
0.0
 11
121.1727884051129
 21
277.7929331735649
 31
0.0
  0
LINE
  5
2C3
330
2
100
AcDbEntity
  8
03-01
100
AcDbLine
 10
131.1727884051129
 20
289.7929331735649
 30
0.0
 11
131.1727884051129
 21
283.4054192537256
 31
0.0
  0
ARC
  5
2C4
330
2
100
AcDbEntity
  8
03-01
100
AcDbCircle
 10
128.4227884051129
 20
289.7929331735649
 30
0.0
 40
2.75
100
AcDbArc
 50
0.0
 51
180.0
  0
LINE
  5
2C5
330
2
100
AcDbEntity
  8
03-01
100
AcDbLine
 10
125.6727884051129
 20
283.4054192537256
 30
0.0
 11
125.6727884051129
 21
289.7929331735649
 31
0.0
  0
LINE
  5
2C6
330
2
100
AcDbEntity
  8
05-01
100
AcDbLine
 10
128.4227884051129
 20
293.2929331735648
 30
0.0
 11
128.4227884051129
 21
270.5429331735648
 31
0.0
  0
LINE
  5
2C7
330
2
100
AcDbEntity
  8
05-01
100
AcDbLine
 10
132.4227884051129
 20
289.7929331735649
 30
0.0
 11
124.4227884051129
 21
289.7929331735649
 31
0.0
  0
ARC
  5
2C8
330
2
100
AcDbEntity
  8
03-01
100
AcDbCircle
 10
98.42278840511335
 20
277.7929331735651
 30
0.0
 40
6.25
100
AcDbArc
 50
116.1038811373434
 51
63.89611886265659
  0
LINE
  5
2C9
330
2
100
AcDbEntity
  8
05-01
100
AcDbLine
 10
91.17278840511335
 20
277.7929331735651
 30
0.0
 11
105.6727884051133
 21
277.7929331735651
 31
0.0
  0
LINE
  5
2CA
330
2
100
AcDbEntity
  8
03-01
100
AcDbLine
 10
95.67278840511335
 20
289.7929331735651
 30
0.0
 11
95.67278840511335
 21
283.4054192537259
 31
0.0
  0
ARC
  5
2CB
330
2
100
AcDbEntity
  8
03-01
100
AcDbCircle
 10
98.42278840511335
 20
289.7929331735651
 30
0.0
 40
2.75
100
AcDbArc
 50
0.0
 51
180.0
  0
LINE
  5
2CC
330
2
100
AcDbEntity
  8
03-01
100
AcDbLine
 10
101.1727884051133
 20
283.4054192537259
 30
0.0
 11
101.1727884051133
 21
289.7929331735651
 31
0.0
  0
LINE
  5
2CD
330
2
100
AcDbEntity
  8
05-01
100
AcDbLine
 10
98.42278840511335
 20
293.2929331735651
 30
0.0
 11
98.42278840511335
 21
270.5429331735651
 31
0.0
  0
LINE
  5
2CE
330
2
100
AcDbEntity
  8
05-01
100
AcDbLine
 10
94.42278840511335
 20
289.7929331735651
 30
0.0
 11
102.4227884051133
 21
289.7929331735651
 31
0.0
  0
ARC
  5
2CF
330
2
100
AcDbEntity
  8
03-01
100
AcDbCircle
 10
88.42278840511335
 20
247.7929331735648
 30
0.0
 40
3.0
100
AcDbArc
 50
90.0
 51
180.0
  0
LINE
  5
2D0
330
2
100
AcDbEntity
  8
03-01
100
AcDbLine
 10
85.42278840511334
 20
245.2960569243308
 30
0.0
 11
85.42278840511334
 21
247.7929331735648
 31
0.0
  0
LINE
  5
2D1
330
2
100
AcDbEntity
  8
0
100
AcDbLine
 10
85.42278840511334
 20
243.2929331735648
 30
0.0
 11
85.42278840511334
 21
245.2960569243308
 31
0.0
  0
LINE
  5
2D2
330
2
100
AcDbEntity
  8
0
100
AcDbLine
 10
81.17278840511289
 20
251.7929331735655
 30
0.0
 11
81.17278840511426
 21
243.2929331735648
 31
0.0
  0
LINE
  5
2D3
330
2
100
AcDbEntity
  8
05-01
100
AcDbLine
 10
113.4227884051131
 20
250.3900565386788
 30
0.0
 11
113.4227884051131
 21
240.5400565386782
 31
0.0
  0
LINE
  5
2D4
330
2
100
AcDbEntity
  8
0
100
AcDbLine
 10
85.42278840511334
 20
247.7929331735648
 30
0.0
 11
85.42278840511334
 21
244.7929331735643
 31
0.0
  0
LINE
  5
2D5
330
2
100
AcDbEntity
  8
03-01
100
AcDbLine
 10
88.72278840510967
 20
250.7929331735649
 30
0.0
 11
88.42278840511335
 21
250.7929331735649
 31
0.0
  0
LINE
  5
2D6
330
2
100
AcDbEntity
  8
0
100
AcDbLine
 10
138.1227884051163
 20
250.7929331735651
 30
0.0
 11
88.72278840510967
 21
250.7929331735649
 31
0.0
  0
LINE
  5
2D7
330
2
100
AcDbEntity
  8
03-01
100
AcDbLine
 10
138.4227884051133
 20
250.7929331735651
 30
0.0
 11
138.1227884051163
 21
250.7929331735651
 31
0.0
  0
ARC
  5
2D8
330
2
100
AcDbEntity
  8
03-01
100
AcDbCircle
 10
138.4227884051133
 20
247.7929331735651
 30
0.0
 40
3.0
100
AcDbArc
 50
0.0
 51
90.0
  0
LINE
  5
2D9
330
2
100
AcDbEntity
  8
03-01
100
AcDbLine
 10
141.4227884051133
 20
245.2960569243308
 30
0.0
 11
141.4227884051133
 21
247.7929331735651
 31
0.0
  0
LINE
  5
2DA
330
2
100
AcDbEntity
  8
0
100
AcDbLine
 10
141.4227884051133
 20
243.2929331735648
 30
0.0
 11
141.4227884051133
 21
245.2960569243308
 31
0.0
  0
LINE
  5
2DB
330
2
100
AcDbEntity
  8
0
100
AcDbLine
 10
84.67278840511312
 20
344.7929331735643
 30
0.0
 11
79.67278840511335
 21
344.7929331735645
 31
0.0
  0
LINE
  5
2DC
330
2
100
AcDbEntity
  8
0
100
AcDbLine
 10
84.67278840511358
 20
374.7929331735644
 30
0.0
 11
79.67278840511335
 21
374.7929331735647
 31
0.0
  0
LINE
  5
2DD
330
2
100
AcDbEntity
  8
0
100
AcDbLine
 10
81.17278840511335
 20
251.7929331735653
 30
0.0
 11
79.67278840511335
 21
251.7929331735652
 31
0.0
  0
LINE
  5
2DE
330
2
100
AcDbEntity
  8
0
100
AcDbLine
 10
81.17278840511289
 20
374.7929331735646
 30
0.0
 11
81.17278840511586
 21
395.7929331735646
 31
0.0
  0
LINE
  5
2DF
330
2
100
AcDbEntity
  8
03-01
100
AcDbLine
 10
141.4227884051133
 20
244.7929331735645
 30
0.0
 11
85.42278840511334
 21
244.7929331735643
 31
0.0
  0
LINE
  5
2E0
330
2
100
AcDbEntity
  8
0
100
AcDbLine
 10
85.42278840511334
 20
244.7929331735648
 30
0.0
 11
81.1727884051138
 21
244.7929331735648
 31
0.0
  0
LINE
  5
2E1
330
2
100
AcDbEntity
  8
0
100
AcDbLine
 10
145.6727884051124
 20
244.7929331735645
 30
0.0
 11
141.4227884051133
 21
244.7929331735645
 31
0.0
  0
LINE
  5
2E2
330
2
100
AcDbEntity
  8
0
100
AcDbLine
 10
145.6727884051133
 20
374.7929331735644
 30
0.0
 11
145.6727884051101
 21
395.7929331735646
 31
0.0
  0
ARC
  5
2E3
330
2
100
AcDbEntity
  8
0
100
AcDbCircle
 10
84.17278840511835
 20
388.7981111439025
 30
0.0
 40
3.0
100
AcDbArc
 50
180.0000000000065
 51
270.0
  0
ARC
  5
2E4
330
2
100
AcDbEntity
  8
0
100
AcDbCircle
 10
142.6727884051072
 20
388.7981111439026
 30
0.0
 40
3.0
100
AcDbArc
 50
270.0
 51
359.9999999999935
  0
ARC
  5
2E5
330
2
100
AcDbEntity
  8
0
100
AcDbCircle
 10
89.17278840511267
 20
388.7981111439025
 30
0.0
 40
3.0
100
AcDbArc
 50
270.0
 51
0.0
  0
LINE
  5
2E6
330
2
100
AcDbEntity
  8
0
100
AcDbLine
 10
89.17278840511267
 20
385.7981111439025
 30
0.0
 11
84.17278840511835
 21
385.7981111439025
 31
0.0
  0
ARC
  5
2E7
330
2
100
AcDbEntity
  8
0
100
AcDbCircle
 10
137.6727884051127
 20
388.7981111439025
 30
0.0
 40
3.0
100
AcDbArc
 50
180.0
 51
270.0
  0
LINE
  5
2E8
330
2
100
AcDbEntity
  8
0
100
AcDbLine
 10
142.6727884051072
 20
385.7981111439026
 30
0.0
 11
137.6727884051127
 21
385.7981111439025
 31
0.0
  0
ARC
  5
2E9
330
2
100
AcDbEntity
  8
03-01
100
AcDbCircle
 10
106.4227884051133
 20
322.4429331735651
 30
0.0
 40
5.0
100
AcDbArc
 50
180.0
 51
270.0
  0
ARC
  5
2EA
330
2
100
AcDbEntity
  8
03-01
100
AcDbCircle
 10
106.4227884051133
 20
322.4429331735651
 30
0.0
 40
8.0
100
AcDbArc
 50
180.0
 51
270.0
  0
LINE
  5
2EB
330
2
100
AcDbEntity
  8
03-01
100
AcDbLine
 10
120.4227884051133
 20
317.442933173565
 30
0.0
 11
106.4227884051133
 21
317.442933173565
 31
0.0
  0
LINE
  5
2EC
330
2
100
AcDbEntity
  8
03-01
100
AcDbLine
 10
120.4227884051133
 20
314.4429331735649
 30
0.0
 11
106.4227884051133
 21
314.4429331735651
 31
0.0
  0
LINE
  5
2ED
330
2
100
AcDbEntity
  8
03-01
100
AcDbLine
 10
92.17278840511289
 20
394.2929331735649
 30
0.0
 11
81.17278840511563
 21
394.2929331735649
 31
0.0
  0
LINE
  5
2EE
330
2
100
AcDbEntity
  8
0
100
AcDbLine
 10
134.6727884051129
 20
394.2929331735646
 30
0.0
 11
92.17278840511289
 21
394.2929331735649
 31
0.0
  0
LINE
  5
2EF
330
2
100
AcDbEntity
  8
03-01
100
AcDbLine
 10
145.6727884051101
 20
394.2929331735645
 30
0.0
 11
134.6727884051129
 21
394.2929331735646
 31
0.0
  0
INSERT
  5
2F0
330
2
100
AcDbEntity
  8
05-01
100
AcDbBlockReference
  2
Pumpe 037021-V
 10
113.4227884051129
 20
293.79605694284
 30
0.0
  0
LINE
  5
398
330
2
100
AcDbEntity
  8
0
100
AcDbLine
 10
140.1227884045634
 20
289.7960569091584
 30
0.0
 11
145.4227884051131
 21
289.7960569104376
 31
0.0
  0
ARC
  5
399
330
2
100
AcDbEntity
  8
0
100
AcDbCircle
 10
140.1227884051136
 20
287.7960569091584
 30
0.0
 40
2.0
100
AcDbArc
 50
90.00000001573729
 51
180.0
  0
LINE
  5
39A
330
2
100
AcDbEntity
  8
0
100
AcDbLine
 10
138.1227884051163
 20
255.2960569086091
 30
0.0
 11
138.1227884051136
 21
287.7960569091584
 31
0.0
  0
ARC
  5
39B
330
2
100
AcDbEntity
  8
0
100
AcDbCircle
 10
138.6227884051154
 20
255.2960569086091
 30
0.0
 40
0.5
100
AcDbArc
 50
180.0
 51
270.0
  0
LINE
  5
39C
330
2
100
AcDbEntity
  8
0
100
AcDbLine
 10
140.6227884051154
 20
254.7960569086091
 30
0.0
 11
138.6227884051154
 21
254.7960569086091
 31
0.0
  0
ARC
  5
39D
330
2
100
AcDbEntity
  8
0
100
AcDbCircle
 10
140.6227884051154
 20
255.2960569086091
 30
0.0
 40
0.5
100
AcDbArc
 50
270.0
 51
0.0000000000130276
  0
ARC
  5
39E
330
2
100
AcDbEntity
  8
0
100
AcDbCircle
 10
141.6227884051145
 20
273.2960569086095
 30
0.0
 40
0.5
100
AcDbArc
 50
90.00000000002605
 51
180.0
  0
LINE
  5
39F
330
2
100
AcDbEntity
  8
0
100
AcDbLine
 10
141.1227884051145
 20
273.2960569086095
 30
0.0
 11
141.1227884051163
 21
255.2960569086091
 31
0.0
  0
LINE
  5
3A0
330
2
100
AcDbEntity
  8
0
100
AcDbLine
 10
141.6227884051145
 20
273.7960569086096
 30
0.0
 11
145.4227884051129
 21
273.7960569086096
 31
0.0
  0
LINE
  5
3A1
330
2
100
AcDbEntity
  8
0
100
AcDbLine
 10
145.4227884051129
 20
253.7960569108308
 30
0.0
 11
139.1227884047639
 21
253.7960569089615
 31
0.0
  0
ARC
  5
3A2
330
2
100
AcDbEntity
  8
0
100
AcDbCircle
 10
139.1227884051163
 20
252.7960569089615
 30
0.0
 40
1.0
100
AcDbArc
 50
90.00000002020573
 51
180.0
  0
ARC
  5
3A3
330
2
100
AcDbEntity
  8
0
100
AcDbCircle
 10
140.1227884051163
 20
247.2960569243306
 30
0.0
 40
2.0
100
AcDbArc
 50
180.0
 51
270.0
  0
LINE
  5
3A4
330
2
100
AcDbEntity
  8
0
100
AcDbLine
 10
138.1227884051163
 20
247.2960569243306
 30
0.0
 11
138.1227884051163
 21
252.7960569089615
 31
0.0
  0
LINE
  5
3A5
330
2
100
AcDbEntity
  8
03-01
100
AcDbLine
 10
143.9227884051142
 20
273.7831998686398
 30
0.0
 11
143.9227884051129
 21
289.7960569099317
 31
0.0
  0
LINE
  5
3A6
330
2
100
AcDbEntity
  8
03-01
100
AcDbLine
 10
143.922788405117
 20
245.2960569243306
 30
0.0
 11
143.922788405116
 21
253.7960569102939
 31
0.0
  0
LINE
  5
3A7
330
2
100
AcDbEntity
  8
03-01
100
AcDbLine
 10
145.4227884051129
 20
393.7960569243309
 30
0.0
 11
143.9227884051131
 21
393.7960569243309
 31
0.0
  0
LINE
  5
3A8
330
2
100
AcDbEntity
  8
09-01
100
AcDbLine
 10
145.4227884051129
 20
344.7929331735644
 30
0.0
 11
145.4227884051129
 21
245.2960569243308
 31
0.0
  0
LINE
  5
3A9
330
2
100
AcDbEntity
  8
03-01
100
AcDbLine
 10
145.4227884051129
 20
374.7929331735646
 30
0.0
 11
145.4227884051129
 21
344.7929331735644
 31
0.0
  0
LINE
  5
3AA
330
2
100
AcDbEntity
  8
09-01
100
AcDbLine
 10
145.4227884051129
 20
387.5991532630874
 30
0.0
 11
145.4227884051129
 21
374.7929331735646
 31
0.0
  0
LINE
  5
3AB
330
2
100
AcDbEntity
  8
03-01
100
AcDbLine
 10
145.4227884051129
 20
393.7960569243309
 30
0.0
 11
145.4227884051129
 21
387.5991532630874
 31
0.0
  0
LINE
  5
3AC
330
2
100
AcDbEntity
  8
09-01
100
AcDbLine
 10
143.9227884051129
 20
273.7960569086098
 30
0.0
 11
143.9227884051131
 21
253.796056910396
 31
0.0
  0
LINE
  5
3AD
330
2
100
AcDbEntity
  8
09-01
100
AcDbLine
 10
143.9227884051131
 20
344.7929331735643
 30
0.0
 11
143.9227884051129
 21
289.7960569100856
 31
0.0
  0
LINE
  5
3AE
330
2
100
AcDbEntity
  8
03-01
100
AcDbLine
 10
143.9227884051131
 20
374.7929331735645
 30
0.0
 11
143.9227884051131
 21
344.7929331735643
 31
0.0
  0
LINE
  5
3AF
330
2
100
AcDbEntity
  8
09-01
100
AcDbLine
 10
143.9227884051131
 20
386.0709331152463
 30
0.0
 11
143.9227884051131
 21
374.7929331735645
 31
0.0
  0
LINE
  5
3B0
330
2
100
AcDbEntity
  8
03-01
100
AcDbLine
 10
143.9227884051131
 20
393.7960569243309
 30
0.0
 11
143.9227884051131
 21
386.0709331152463
 31
0.0
  0
LINE
  5
3B1
330
2
100
AcDbEntity
  8
0
100
AcDbLine
 10
145.4227884051129
 20
245.2960569243308
 30
0.0
 11
140.1227884051163
 21
245.2960569243308
 31
0.0
  0
ARC
  5
3B2
330
2
100
AcDbEntity
  8
0
100
AcDbCircle
 10
132.4227884051129
 20
264.9970160980505
 30
0.0
 40
5.0
100
AcDbArc
 50
270.0
 51
0.0
  0
ARC
  5
3B3
330
2
100
AcDbEntity
  8
0
100
AcDbCircle
 10
94.4227884051129
 20
264.9970160980505
 30
0.0
 40
5.0
100
AcDbArc
 50
180.0
 51
270.0
  0
LINE
  5
3B4
330
2
100
AcDbEntity
  8
0
100
AcDbLine
 10
132.4227884051129
 20
259.9970160980505
 30
0.0
 11
94.4227884051129
 21
259.9970160980505
 31
0.0
  0
LINE
  5
3B5
330
2
100
AcDbEntity
  8
0
100
AcDbLine
 10
86.72278840566264
 20
289.7960569091584
 30
0.0
 11
81.4227884051129
 21
289.7960569104376
 31
0.0
  0
ARC
  5
3B6
330
2
100
AcDbEntity
  8
0
100
AcDbCircle
 10
86.72278840511239
 20
287.7960569091584
 30
0.0
 40
2.0
100
AcDbArc
 50
359.999999999987
 51
89.99999998426272
  0
LINE
  5
3B7
330
2
100
AcDbEntity
  8
0
100
AcDbLine
 10
88.72278840510967
 20
255.2960569086091
 30
0.0
 11
88.7227884051124
 21
287.7960569091584
 31
0.0
  0
ARC
  5
3B8
330
2
100
AcDbEntity
  8
0
100
AcDbCircle
 10
88.22278840511058
 20
255.2960569086091
 30
0.0
 40
0.5
100
AcDbArc
 50
270.0
 51
359.999999999987
  0
LINE
  5
3B9
330
2
100
AcDbEntity
  8
0
100
AcDbLine
 10
86.22278840511057
 20
254.7960569086091
 30
0.0
 11
88.22278840511058
 21
254.7960569086091
 31
0.0
  0
ARC
  5
3BA
330
2
100
AcDbEntity
  8
0
100
AcDbCircle
 10
86.22278840511057
 20
255.2960569086091
 30
0.0
 40
0.5
100
AcDbArc
 50
179.999999999987
 51
270.0
  0
ARC
  5
3BB
330
2
100
AcDbEntity
  8
0
100
AcDbCircle
 10
85.22278840511148
 20
273.2960569086095
 30
0.0
 40
0.5
100
AcDbArc
 50
359.999999999987
 51
89.99999999997395
  0
LINE
  5
3BC
330
2
100
AcDbEntity
  8
0
100
AcDbLine
 10
85.72278840511149
 20
273.2960569086095
 30
0.0
 11
85.72278840510966
 21
255.2960569086091
 31
0.0
  0
LINE
  5
3BD
330
2
100
AcDbEntity
  8
0
100
AcDbLine
 10
85.22278840511148
 20
273.7960569086096
 30
0.0
 11
81.4227884051129
 21
273.7960569086096
 31
0.0
  0
LINE
  5
3BE
330
2
100
AcDbEntity
  8
0
100
AcDbLine
 10
81.4227884051129
 20
253.7960569108308
 30
0.0
 11
87.7227884054621
 21
253.7960569089615
 31
0.0
  0
ARC
  5
3BF
330
2
100
AcDbEntity
  8
0
100
AcDbCircle
 10
87.72278840510967
 20
252.7960569089615
 30
0.0
 40
1.0
100
AcDbArc
 50
0.0
 51
89.99999997979427
  0
ARC
  5
3C0
330
2
100
AcDbEntity
  8
0
100
AcDbCircle
 10
86.72278840510967
 20
247.2960569243306
 30
0.0
 40
2.0
100
AcDbArc
 50
270.0
 51
0.0
  0
LINE
  5
3C1
330
2
100
AcDbEntity
  8
0
100
AcDbLine
 10
88.72278840510967
 20
247.2960569243306
 30
0.0
 11
88.72278840510967
 21
252.7960569089615
 31
0.0
  0
LINE
  5
3C2
330
2
100
AcDbEntity
  8
03-01
100
AcDbLine
 10
82.92278840511153
 20
273.7831998686398
 30
0.0
 11
82.9227884051129
 21
289.7960569099317
 31
0.0
  0
LINE
  5
3C3
330
2
100
AcDbEntity
  8
03-01
100
AcDbLine
 10
82.9227884051088
 20
245.2960569243306
 30
0.0
 11
82.92278840510972
 21
253.7960569102939
 31
0.0
  0
LINE
  5
3C4
330
2
100
AcDbEntity
  8
03-01
100
AcDbLine
 10
81.4227884051129
 20
393.7960569243309
 30
0.0
 11
82.9227884051129
 21
393.7960569243309
 31
0.0
  0
LINE
  5
3C5
330
2
100
AcDbEntity
  8
09-01
100
AcDbLine
 10
81.4227884051129
 20
344.7929331735644
 30
0.0
 11
81.4227884051129
 21
245.2960569243308
 31
0.0
  0
LINE
  5
3C6
330
2
100
AcDbEntity
  8
03-01
100
AcDbLine
 10
81.4227884051129
 20
374.7929331735646
 30
0.0
 11
81.4227884051129
 21
344.7929331735644
 31
0.0
  0
LINE
  5
3C7
330
2
100
AcDbEntity
  8
09-01
100
AcDbLine
 10
81.4227884051129
 20
387.5991532630867
 30
0.0
 11
81.4227884051129
 21
374.7929331735646
 31
0.0
  0
LINE
  5
3C8
330
2
100
AcDbEntity
  8
03-01
100
AcDbLine
 10
81.4227884051129
 20
393.7960569243309
 30
0.0
 11
81.4227884051129
 21
387.5991532630867
 31
0.0
  0
LINE
  5
3C9
330
2
100
AcDbEntity
  8
09-01
100
AcDbLine
 10
82.9227884051129
 20
273.7960569086098
 30
0.0
 11
82.9227884051129
 21
253.796056910396
 31
0.0
  0
LINE
  5
3CA
330
2
100
AcDbEntity
  8
09-01
100
AcDbLine
 10
82.9227884051129
 20
344.7929331735643
 30
0.0
 11
82.9227884051129
 21
289.7960569100856
 31
0.0
  0
LINE
  5
3CB
330
2
100
AcDbEntity
  8
03-01
100
AcDbLine
 10
82.9227884051129
 20
374.7929331735645
 30
0.0
 11
82.9227884051129
 21
344.7929331735643
 31
0.0
  0
LINE
  5
3CC
330
2
100
AcDbEntity
  8
09-01
100
AcDbLine
 10
82.9227884051129
 20
386.070933115246
 30
0.0
 11
82.9227884051129
 21
374.7929331735645
 31
0.0
  0
LINE
  5
3CD
330
2
100
AcDbEntity
  8
03-01
100
AcDbLine
 10
82.9227884051129
 20
393.7960569243309
 30
0.0
 11
82.9227884051129
 21
386.070933115246
 31
0.0
  0
LINE
  5
3CE
330
2
100
AcDbEntity
  8
0
100
AcDbLine
 10
81.4227884051129
 20
245.2960569243308
 30
0.0
 11
86.72278840510967
 21
245.2960569243308
 31
0.0
  0
ARC
  5
3CF
330
2
100
AcDbEntity
  8
0
100
AcDbCircle
 10
130.4227884051129
 20
379.7960569243304
 30
0.0
 40
5.0
100
AcDbArc
 50
270.0
 51
0.0
  0
LINE
  5
3D0
330
2
100
AcDbEntity
  8
0
100
AcDbLine
 10
135.4227884051129
 20
379.7960569243304
 30
0.0
 11
135.4227884051129
 21
385.7960569243309
 31
0.0
  0
LINE
  5
3D1
330
2
100
AcDbEntity
  8
0
100
AcDbLine
 10
91.4227884051129
 20
379.7960569243309
 30
0.0
 11
91.4227884051129
 21
385.7960569243309
 31
0.0
  0
ARC
  5
3D2
330
2
100
AcDbEntity
  8
03-01
100
AcDbCircle
 10
97.42278840511289
 20
301.7929331402369
 30
0.0
 40
6.0
100
AcDbArc
 50
90.0
 51
180.0
  0
LINE
  5
3D3
330
2
100
AcDbEntity
  8
03-01
100
AcDbLine
 10
129.4227884051129
 20
307.7929331402364
 30
0.0
 11
97.42278840511289
 21
307.7929331402369
 31
0.0
  0
ARC
  5
3D4
330
2
100
AcDbEntity
  8
03-01
100
AcDbCircle
 10
97.42278840511289
 20
283.7929331402364
 30
0.0
 40
6.0
100
AcDbArc
 50
180.0
 51
270.0
  0
ARC
  5
3D5
330
2
100
AcDbEntity
  8
03-01
100
AcDbCircle
 10
129.4227884051129
 20
283.7929331402364
 30
0.0
 40
6.0
100
AcDbArc
 50
270.0
 51
0.0
  0
LINE
  5
3D6
330
2
100
AcDbEntity
  8
03-01
100
AcDbLine
 10
129.4227884051129
 20
277.7929331402364
 30
0.0
 11
97.42278840511289
 21
277.7929331402364
 31
0.0
  0
LINE
  5
3D7
330
2
100
AcDbEntity
  8
0
100
AcDbLine
 10
89.4227884051129
 20
264.9970160980505
 30
0.0
 11
89.4227884051129
 21
266.7960569243309
 31
0.0
  0
ARC
  5
3D8
330
2
100
AcDbEntity
  8
0
100
AcDbCircle
 10
132.4227884051129
 20
266.2960539712307
 30
0.0
 40
5.0
100
AcDbArc
 50
270.0
 51
0.0
  0
LINE
  5
3D9
330
2
100
AcDbEntity
  8
0
100
AcDbLine
 10
137.4227884051129
 20
264.9970160980505
 30
0.0
 11
137.4227884051129
 21
266.7960569243309
 31
0.0
  0
LINE
  5
3DA
330
2
100
AcDbEntity
  8
03-01
100
AcDbLine
 10
91.4227884051129
 20
283.7929331402364
 30
0.0
 11
91.4227884051129
 21
301.7929331402369
 31
0.0
  0
ARC
  5
3DB
330
2
100
AcDbEntity
  8
03-01
100
AcDbCircle
 10
129.4227884051129
 20
301.7929331402364
 30
0.0
 40
6.0
100
AcDbArc
 50
0.0
 51
90.0
  0
LINE
  5
3DC
330
2
100
AcDbEntity
  8
03-01
100
AcDbLine
 10
135.4227884051129
 20
283.7929331402364
 30
0.0
 11
135.4227884051129
 21
301.7929331402364
 31
0.0
  0
ARC
  5
3DD
330
2
100
AcDbEntity
  8
0
100
AcDbCircle
 10
94.4227884051129
 20
266.2960539712307
 30
0.0
 40
5.0
100
AcDbArc
 50
180.0
 51
270.0
  0
LINE
  5
3DE
330
2
100
AcDbEntity
  8
0
100
AcDbLine
 10
132.4227884051129
 20
261.2960539712307
 30
0.0
 11
94.4227884051129
 21
261.2960539712307
 31
0.0
  0
LINE
  5
3DF
330
2
100
AcDbEntity
  8
0
100
AcDbLine
 10
85.7227884051108
 20
266.7960569243309
 30
0.0
 11
82.9227884051129
 21
266.7960569243309
 31
0.0
  0
LINE
  5
3E0
330
2
100
AcDbEntity
  8
0
100
AcDbLine
 10
89.4227884051129
 20
266.7960569243309
 30
0.0
 11
88.7227884051108
 21
266.7960569243309
 31
0.0
  0
LINE
  5
3E1
330
2
100
AcDbEntity
  8
0
100
AcDbLine
 10
137.4227884051129
 20
266.6460569243308
 30
0.0
 11
89.4227884051129
 21
266.6460569243308
 31
0.0
  0
LINE
  5
3E2
330
2
100
AcDbEntity
  8
0
100
AcDbLine
 10
138.1227884051154
 20
266.7960569243309
 30
0.0
 11
137.4227884051129
 21
266.7960569243309
 31
0.0
  0
LINE
  5
3E3
330
2
100
AcDbEntity
  8
0
100
AcDbLine
 10
143.9227884051129
 20
266.7960569243306
 30
0.0
 11
141.1227884051152
 21
266.7960569243309
 31
0.0
  0
ARC
  5
3E4
330
2
100
AcDbEntity
  8
0
100
AcDbCircle
 10
96.4227884051129
 20
379.7960569243309
 30
0.0
 40
5.0
100
AcDbArc
 50
180.0
 51
270.0
  0
LINE
  5
3E5
330
2
100
AcDbEntity
  8
0
100
AcDbLine
 10
130.4227884051129
 20
374.7960569243304
 30
0.0
 11
96.4227884051129
 21
374.7960569243308
 31
0.0
  0
ARC
  5
3E6
330
2
100
AcDbEntity
  8
03-01
100
AcDbCircle
 10
88.42278840511289
 20
385.7960569243309
 30
0.0
 40
3.0
100
AcDbArc
 50
17.0185986585598
 51
90.0
  0
ARC
  5
3E7
330
2
100
AcDbEntity
  8
0
100
AcDbCircle
 10
88.42278840511289
 20
385.7960569243309
 30
0.0
 40
3.0
100
AcDbArc
 50
0.0
 51
17.0185986585598
  0
LINE
  5
3E8
330
2
100
AcDbEntity
  8
03-01
100
AcDbLine
 10
88.42278840511289
 20
388.7960569243309
 30
0.0
 11
82.9227884051129
 21
388.7960569243306
 31
0.0
  0
ARC
  5
3E9
330
2
100
AcDbEntity
  8
0
100
AcDbCircle
 10
138.4227884051129
 20
385.7960569243309
 30
0.0
 40
3.0
100
AcDbArc
 50
162.9814013414478
 51
180.0
  0
ARC
  5
3EA
330
2
100
AcDbEntity
  8
03-01
100
AcDbCircle
 10
138.4227884051129
 20
385.7960569243309
 30
0.0
 40
3.0
100
AcDbArc
 50
90.0
 51
162.9814013414478
  0
LINE
  5
3EB
330
2
100
AcDbEntity
  8
03-01
100
AcDbLine
 10
143.9227884051131
 20
388.7960569243306
 30
0.0
 11
138.4227884051129
 21
388.7960569243309
 31
0.0
  0
DIMENSION
  5
3EC
330
2
100
AcDbEntity
  8
09-01
100
AcDbDimension
280
     0
  2
*D2
 10
251.8067103420785
 20
395.7929331735646
 30
0.0
 11
247.3067103420785
 21
319.5429331735647
 31
0.0
 71
     5
 42
152.5
 73
     0
 74
     0
 75
     0
  3
Wagner$0
100
AcDbAlignedDimension
 13
272.9427468872714
 23
243.2929331735646
 33
0.0
 14
272.9427468872714
 24
395.7929331735646
 34
0.0
 50
90.0
100
AcDbRotatedDimension
1001
ACAD
1000
DSTYLE
1002
{
1070
    40
1040
2.0
1002
}
  0
LINE
  5
3F9
330
2
100
AcDbEntity
  8
03-01
100
AcDbLine
 10
274.4427468872716
 20
277.792933173566
 30
0.0
 11
275.9427469003108
 21
277.7929331735657
 31
0.0
  0
LINE
  5
3FA
330
2
100
AcDbEntity
  8
03-01
100
AcDbLine
 10
274.4427468872716
 20
307.7929331735658
 30
0.0
 11
275.9427469003106
 21
307.7929331735658
 31
0.0
  0
LINE
  5
3FB
330
2
100
AcDbEntity
  8
0
100
AcDbLine
 10
281.9427469003099
 20
393.79605695766
 30
0.0
 11
282.4427468872714
 21
393.79605695766
 31
0.0
  0
LINE
  5
3FC
330
2
100
AcDbEntity
  8
0
100
AcDbLine
 10
276.9427469003099
 20
388.79605695766
 30
0.0
 11
274.4427468872714
 21
388.79605695766
 31
0.0
  0
ARC
  5
3FD
330
2
100
AcDbEntity
  8
0
100
AcDbCircle
 10
281.9427469003099
 20
388.79605695766
 30
0.0
 40
5.0
100
AcDbArc
 50
90.0
 51
180.0
  0
LINE
  5
3FE
330
2
100
AcDbEntity
  8
03-01
100
AcDbLine
 10
275.9427469003108
 20
266.7960569576599
 30
0.0
 11
274.4427468872714
 21
266.7960569576599
 31
0.0
  0
LINE
  5
3FF
330
2
100
AcDbEntity
  8
0
100
AcDbLine
 10
275.9427469003108
 20
251.7929331735649
 30
0.0
 11
275.9427469003108
 21
251.2960569459236
 31
0.0
  0
LINE
  5
400
330
2
100
AcDbEntity
  8
03-01
100
AcDbLine
 10
275.9427469003108
 20
266.7960569576599
 30
0.0
 11
275.9427469003108
 21
251.7929331735649
 31
0.0
  0
LINE
  5
401
330
2
100
AcDbEntity
  8
03-01
100
AcDbLine
 10
285.469024636966
 20
261.2960540045598
 30
0.0
 11
284.7190242342703
 21
259.9970161313796
 31
0.0
  0
ARC
  5
402
330
2
100
AcDbEntity
  8
0
100
AcDbCircle
 10
282.4427468872714
 20
374.5132001005742
 30
0.0
 40
5.0
100
AcDbArc
 50
3.207179471955642
 51
45.57299599919079
  0
ARC
  5
403
330
2
100
AcDbEntity
  8
03-01
100
AcDbCircle
 10
282.4427468872714
 20
374.5132001005742
 30
0.0
 40
5.0
100
AcDbArc
 50
0.0
 51
3.207179471955642
  0
ARC
  5
404
330
2
100
AcDbEntity
  8
0
100
AcDbCircle
 10
289.4427468872714
 20
381.6546285291171
 30
0.0
 40
5.0
100
AcDbArc
 50
134.4270040008092
 51
225.5729959991906
  0
ARC
  5
405
330
2
100
AcDbEntity
  8
0
100
AcDbCircle
 10
282.4427468872714
 20
388.79605695766
 30
0.0
 40
5.0
100
AcDbArc
 50
314.4270040008093
 51
90.0
  0
LINE
  5
406
330
2
100
AcDbEntity
  8
03-01
100
AcDbLine
 10
287.4427468872714
 20
344.7929331735646
 30
0.0
 11
287.4427468872714
 21
374.5132001005742
 31
0.0
  0
LINE
  5
407
330
2
100
AcDbEntity
  8
0
100
AcDbLine
 10
287.4427468872712
 20
331.2960569446214
 30
0.0
 11
287.4427468872714
 21
344.7929331735646
 31
0.0
  0
LINE
  5
408
330
2
100
AcDbEntity
  8
0
100
AcDbLine
 10
274.4427468872714
 20
374.7929331735642
 30
0.0
 11
274.4427468872714
 21
388.79605695766
 31
0.0
  0
LINE
  5
409
330
2
100
AcDbEntity
  8
03-01
100
AcDbLine
 10
274.4427468872714
 20
265.9300318713996
 30
0.0
 11
274.4427468872714
 21
374.7929331735642
 31
0.0
  0
LINE
  5
40A
330
2
100
AcDbEntity
  8
03-01
100
AcDbLine
 10
275.9427469003099
 20
388.79605695766
 30
0.0
 11
275.9427469003108
 21
266.7960569576599
 31
0.0
  0
ARC
  5
40B
330
2
100
AcDbEntity
  8
0
100
AcDbCircle
 10
320.9427469003151
 20
290.7960569446201
 30
0.0
 40
1.0
100
AcDbArc
 50
180.0
 51
269.999999999987
  0
LINE
  5
40C
330
2
100
AcDbEntity
  8
0
100
AcDbLine
 10
327.4427469003149
 20
289.7960569428402
 30
0.0
 11
320.9427469003149
 21
289.7960569446201
 31
0.0
  0
LINE
  5
40D
330
2
100
AcDbEntity
  8
0
100
AcDbLine
 10
325.9427469003117
 20
254.7960569419353
 30
0.0
 11
327.4427469003117
 21
254.7960569419353
 31
0.0
  0
LINE
  5
40E
330
2
100
AcDbEntity
  8
0
100
AcDbLine
 10
327.4427469003135
 20
273.7960569419353
 30
0.0
 11
326.2427469003137
 21
273.7960569419353
 31
0.0
  0
ARC
  5
40F
330
2
100
AcDbEntity
  8
0
100
AcDbCircle
 10
326.2427469003132
 20
270.7960569419352
 30
0.0
 40
3.000000000000014
100
AcDbArc
 50
89.99999999998697
 51
180.0
  0
ARC
  5
410
330
2
100
AcDbEntity
  8
0
100
AcDbCircle
 10
323.7427469003117
 20
254.2960569444032
 30
0.0
 40
0.5
100
AcDbArc
 50
179.999999999987
 51
269.9999999797943
  0
LINE
  5
411
330
2
100
AcDbEntity
  8
0
100
AcDbLine
 10
323.2427469003133
 20
270.7960569445796
 30
0.0
 11
323.2427469003117
 21
254.2960569444034
 31
0.0
  0
LINE
  5
412
330
2
100
AcDbEntity
  8
0
100
AcDbLine
 10
323.7427469001354
 20
253.7960569444032
 30
0.0
 11
327.4427469003117
 21
253.7960569430985
 31
0.0
  0
ARC
  5
413
330
2
100
AcDbEntity
  8
0
100
AcDbCircle
 10
281.9427469003108
 20
251.2960569459236
 30
0.0
 40
6.0
100
AcDbArc
 50
180.0
 51
269.9999999928609
  0
LINE
  5
414
330
2
100
AcDbEntity
  8
0
100
AcDbLine
 10
281.9427468995639
 20
245.2960569459236
 30
0.0
 11
327.4427469003108
 21
245.296056942749
 31
0.0
  0
LINE
  5
415
330
2
100
AcDbEntity
  8
0
100
AcDbLine
 10
327.4427469003117
 20
254.7960569419353
 30
0.0
 11
327.4427469003149
 21
289.7960569428402
 31
0.0
  0
LINE
  5
416
330
2
100
AcDbEntity
  8
03-01
100
AcDbLine
 10
325.9427469003135
 20
273.7810192532553
 30
0.0
 11
325.9427469003149
 21
289.7960569432574
 31
0.0
  0
LINE
  5
417
330
2
100
AcDbEntity
  8
0
100
AcDbLine
 10
325.9427469003117
 20
254.7960569419353
 30
0.0
 11
325.9427469003135
 21
273.7810192532553
 31
0.0
  0
LINE
  5
418
330
2
100
AcDbEntity
  8
0
100
AcDbLine
 10
327.4427469003108
 20
245.296056942749
 30
0.0
 11
327.4427469003117
 21
253.7960569430985
 31
0.0
  0
LINE
  5
419
330
2
100
AcDbEntity
  8
03-01
100
AcDbLine
 10
325.9427469003108
 20
245.2960569445794
 30
0.0
 11
325.9427469003117
 21
253.7960569436196
 31
0.0
  0
LINE
  5
41A
330
2
100
AcDbEntity
  8
0
100
AcDbLine
 10
319.9427469003185
 20
290.7960569446215
 30
0.0
 11
319.9427469003185
 21
311.7960569446215
 31
0.0
  0
ARC
  5
41B
330
2
100
AcDbEntity
  8
0
100
AcDbCircle
 10
320.4427469003185
 20
311.7960569446215
 30
0.0
 40
0.5
100
AcDbArc
 50
0.0
 51
180.0
  0
LINE
  5
41C
330
2
100
AcDbEntity
  8
0
100
AcDbLine
 10
320.9427469003185
 20
311.7960569446215
 30
0.0
 11
320.9427469003185
 21
293.2960569446215
 31
0.0
  0
ARC
  5
41D
330
2
100
AcDbEntity
  8
0
100
AcDbCircle
 10
321.9427469003185
 20
293.2960569446215
 30
0.0
 40
1.0
100
AcDbArc
 50
180.0
 51
270.0
  0
LINE
  5
41E
330
2
100
AcDbEntity
  8
0
100
AcDbLine
 10
321.9427469003185
 20
292.2960569446214
 30
0.0
 11
322.9427469003185
 21
292.2960569446214
 31
0.0
  0
ARC
  5
41F
330
2
100
AcDbEntity
  8
0
100
AcDbCircle
 10
322.9427469003185
 20
293.2960569446215
 30
0.0
 40
1.0
100
AcDbArc
 50
270.0
 51
0.0
  0
ARC
  5
420
330
2
100
AcDbEntity
  8
0
100
AcDbCircle
 10
318.9427469003185
 20
314.3736807636766
 30
0.0
 40
5.0
100
AcDbArc
 50
0.0
 51
31.75948008481284
  0
LINE
  5
421
330
2
100
AcDbEntity
  8
0
100
AcDbLine
 10
323.9427469003185
 20
293.2960569446215
 30
0.0
 11
323.9427469003185
 21
314.3736807636766
 31
0.0
  0
ARC
  5
422
330
2
100
AcDbEntity
  8
0
100
AcDbCircle
 10
314.6574664073526
 20
321.2960569446214
 30
0.0
 40
5.0
100
AcDbArc
 50
31.75948008481284
 51
90.0
  0
LINE
  5
423
330
2
100
AcDbEntity
  8
0
100
AcDbLine
 10
323.1940726337577
 20
317.0054538367582
 30
0.0
 11
318.9087921407918
 21
323.9278300177028
 31
0.0
  0
ARC
  5
424
330
2
100
AcDbEntity
  8
0
100
AcDbCircle
 10
292.4427468872711
 20
331.2960569446214
 30
0.0
 40
5.0
100
AcDbArc
 50
180.0
 51
270.0
  0
LINE
  5
425
330
2
100
AcDbEntity
  8
0
100
AcDbLine
 10
314.6574664073526
 20
326.2960569446215
 30
0.0
 11
292.4427468872711
 21
326.2960569446215
 31
0.0
  0
LINE
  5
426
330
2
100
AcDbEntity
  8
03-01
100
AcDbLine
 10
275.9427469003108
 20
265.0640058400962
 30
0.0
 11
274.4427468872714
 21
265.9300318713996
 31
0.0
  0
LINE
  5
427
330
2
100
AcDbEntity
  8
03-01
100
AcDbLine
 10
284.7190242342703
 20
259.9970161313796
 30
0.0
 11
275.9427469003108
 21
265.0640058400962
 31
0.0
  0
LINE
  5
428
330
2
100
AcDbEntity
  8
03-01
100
AcDbLine
 10
285.4690246369662
 20
261.2960540045598
 30
0.0
 11
275.9427469003108
 21
266.7960569576599
 31
0.0
  0
LINE
  5
429
330
2
100
AcDbEntity
  8
09-01
100
AcDbLine
 10
287.4427468872714
 20
344.7929331735646
 30
0.0
 11
297.4427468872714
 21
344.7929331735646
 31
0.0
  0
LINE
  5
42A
330
2
100
AcDbEntity
  8
09-01
100
AcDbLine
 10
272.9427468872712
 20
374.7929331735642
 30
0.0
 11
297.4427468872714
 21
374.7929331735646
 31
0.0
  0
LINE
  5
42B
330
2
100
AcDbEntity
  8
09-01
100
AcDbLine
 10
297.4427468872714
 20
374.7929331735646
 30
0.0
 11
297.4427468872714
 21
344.7929331735646
 31
0.0
  0
LINE
  5
42C
330
2
100
AcDbEntity
  8
03-01
100
AcDbLine
 10
295.9427468872714
 20
374.7929331735646
 30
0.0
 11
295.9427468872714
 21
344.7929331735646
 31
0.0
  0
LINE
  5
42D
330
2
100
AcDbEntity
  8
03-01
100
AcDbLine
 10
289.9427468872712
 20
259.2929331735646
 30
0.0
 11
289.9427468872712
 21
254.2929331735646
 31
0.0
  0
LINE
  5
42E
330
2
100
AcDbEntity
  8
03-01
100
AcDbLine
 10
285.9427468872711
 20
259.2929331735646
 30
0.0
 11
285.9427468872711
 21
254.2929331735646
 31
0.0
  0
LINE
  5
42F
330
2
100
AcDbEntity
  8
03-01
100
AcDbLine
 10
289.9427468872712
 20
254.2929331735646
 30
0.0
 11
285.9427468872711
 21
254.2929331735646
 31
0.0
  0
LINE
  5
430
330
2
100
AcDbEntity
  8
03-01
100
AcDbLine
 10
289.9927468872711
 20
248.2929331735646
 30
0.0
 11
285.8927468872712
 21
248.2929331735646
 31
0.0
  0
LINE
  5
431
330
2
100
AcDbEntity
  8
03-01
100
AcDbLine
 10
289.8016853027043
 20
257.2929331735646
 30
0.0
 11
289.9427468872712
 21
256.4929331735644
 31
0.0
  0
LINE
  5
432
330
2
100
AcDbEntity
  8
03-01
100
AcDbLine
 10
285.9427468872711
 20
256.4929331735644
 30
0.0
 11
289.9427468872709
 21
256.4929331735649
 31
0.0
  0
LINE
  5
433
330
2
100
AcDbEntity
  8
03-01
100
AcDbLine
 10
286.0838084718377
 20
257.2929331735646
 30
0.0
 11
289.8016853027043
 21
257.2929331735646
 31
0.0
  0
LINE
  5
434
330
2
100
AcDbEntity
  8
03-01
100
AcDbLine
 10
285.8927468872712
 20
259.2929331735646
 30
0.0
 11
285.8927468872712
 21
248.2929331735646
 31
0.0
  0
LINE
  5
435
330
2
100
AcDbEntity
  8
03-01
100
AcDbLine
 10
285.9427468872711
 20
256.4929331735644
 30
0.0
 11
285.9427468872711
 21
248.2929331735646
 31
0.0
  0
LINE
  5
436
330
2
100
AcDbEntity
  8
03-01
100
AcDbLine
 10
286.0838084718377
 20
257.2929331735646
 30
0.0
 11
285.9427468872711
 21
256.4929331735644
 31
0.0
  0
LINE
  5
437
330
2
100
AcDbEntity
  8
03-01
100
AcDbLine
 10
289.9927468872709
 20
259.2929331735646
 30
0.0
 11
289.9927468872711
 21
248.2929331735646
 31
0.0
  0
LINE
  5
438
330
2
100
AcDbEntity
  8
03-01
100
AcDbLine
 10
289.9427468872709
 20
256.4929331735649
 30
0.0
 11
289.9427468872712
 21
248.2929331735646
 31
0.0
  0
LINE
  5
439
330
2
100
AcDbEntity
  8
03-01
100
AcDbLine
 10
289.8016853027043
 20
263.2929331735646
 30
0.0
 11
289.9427468872712
 21
262.4929331735645
 31
0.0
  0
ARC
  5
43A
330
2
100
AcDbEntity
  8
0
100
AcDbCircle
 10
293.5719120118701
 20
248.5637665068976
 30
0.0
 40
3.770833333333238
100
AcDbArc
 50
240.1582758353165
 51
299.8417241646835
  0
ARC
  5
43B
330
2
100
AcDbEntity
  8
0
100
AcDbCircle
 10
287.9427468872714
 20
259.1262665068972
 30
0.0
 40
14.33333333333294
100
AcDbArc
 50
254.8218210620478
 51
285.1781789379522
  0
ARC
  5
43C
330
2
100
AcDbEntity
  8
09-01
100
AcDbCircle
 10
282.3135817626724
 20
248.5637665068976
 30
0.0
 40
3.770833333333238
100
AcDbArc
 50
240.1582758353165
 51
299.8417241646835
  0
ARC
  5
43D
330
2
100
AcDbEntity
  8
03-01
100
AcDbCircle
 10
293.5719120118701
 20
245.0220998402311
 30
0.0
 40
3.770833333333238
100
AcDbArc
 50
60.1582758353167
 51
119.8417241646833
  0
ARC
  5
43E
330
2
100
AcDbEntity
  8
03-01
100
AcDbCircle
 10
287.9427468872714
 20
234.4595998402316
 30
0.0
 40
14.33333333333294
100
AcDbArc
 50
74.8218210620478
 51
105.1781789379522
  0
ARC
  5
43F
330
2
100
AcDbEntity
  8
03-01
100
AcDbCircle
 10
282.3135817626724
 20
245.0220998402311
 30
0.0
 40
3.770833333333238
100
AcDbArc
 50
60.15827583531682
 51
119.8417241646835
  0
LINE
  5
440
330
2
100
AcDbEntity
  8
03-01
100
AcDbLine
 10
291.6955236370038
 20
245.2960569447095
 30
0.0
 11
291.6955236370038
 21
248.2929331735646
 31
0.0
  0
LINE
  5
441
330
2
100
AcDbEntity
  8
0
100
AcDbLine
 10
291.6955236370038
 20
245.2929331735642
 30
0.0
 11
291.6955236370038
 21
245.2960569447095
 31
0.0
  0
LINE
  5
442
330
2
100
AcDbEntity
  8
03-01
100
AcDbLine
 10
284.1899701375387
 20
245.2960569456439
 30
0.0
 11
284.1899701375385
 21
248.2929331735646
 31
0.0
  0
LINE
  5
443
330
2
100
AcDbEntity
  8
0
100
AcDbLine
 10
284.1899701375387
 20
245.2929331735646
 30
0.0
 11
284.1899701375387
 21
245.2960569456439
 31
0.0
  0
LINE
  5
444
330
2
100
AcDbEntity
  8
03-01
100
AcDbLine
 10
294.948300386736
 20
248.7929331735646
 30
0.0
 11
295.448300386736
 21
248.2929331735646
 31
0.0
  0
LINE
  5
445
330
2
100
AcDbEntity
  8
03-01
100
AcDbLine
 10
295.4483003867363
 20
245.2960569442423
 30
0.0
 11
295.448300386736
 21
248.2929331735646
 31
0.0
  0
LINE
  5
446
330
2
100
AcDbEntity
  8
0
100
AcDbLine
 10
295.4483003867363
 20
245.2929331735646
 30
0.0
 11
295.4483003867363
 21
245.2960569442423
 31
0.0
  0
LINE
  5
447
330
2
100
AcDbEntity
  8
03-01
100
AcDbLine
 10
280.937193387806
 20
248.7929331735646
 30
0.0
 11
280.437193387806
 21
248.2929331735646
 31
0.0
  0
LINE
  5
448
330
2
100
AcDbEntity
  8
03-01
100
AcDbLine
 10
280.4371933878058
 20
245.48801866945
 30
0.0
 11
280.437193387806
 21
248.2929331735646
 31
0.0
  0
LINE
  5
449
330
2
100
AcDbEntity
  8
0
100
AcDbLine
 10
280.4371933878058
 20
245.2929331735646
 30
0.0
 11
280.4371933878058
 21
245.48801866945
 31
0.0
  0
LINE
  5
44A
330
2
100
AcDbEntity
  8
03-01
100
AcDbLine
 10
283.9427468872711
 20
258.4929331735644
 30
0.0
 11
291.9427468872709
 21
258.4929331735644
 31
0.0
  0
LINE
  5
44B
330
2
100
AcDbEntity
  8
03-01
100
AcDbLine
 10
291.142746887271
 20
259.2929331735646
 30
0.0
 11
291.9427468872709
 21
258.4929331735644
 31
0.0
  0
LINE
  5
44C
330
2
100
AcDbEntity
  8
03-01
100
AcDbLine
 10
291.9427468872711
 20
248.7929331735646
 30
0.0
 11
291.9427468872709
 21
258.4929331735644
 31
0.0
  0
LINE
  5
44D
330
2
100
AcDbEntity
  8
03-01
100
AcDbLine
 10
291.9427468872709
 20
243.2929331735646
 30
0.0
 11
291.9427468872709
 21
244.7929331735646
 31
0.0
  0
LINE
  5
44E
330
2
100
AcDbEntity
  8
03-01
100
AcDbLine
 10
283.9427468872711
 20
248.7929331735646
 30
0.0
 11
283.9427468872711
 21
258.4929331735644
 31
0.0
  0
LINE
  5
44F
330
2
100
AcDbEntity
  8
03-01
100
AcDbLine
 10
283.9427468872711
 20
243.2929331735646
 30
0.0
 11
283.9427468872711
 21
244.7929331735642
 31
0.0
  0
ARC
  5
450
330
2
100
AcDbEntity
  8
09-01
100
AcDbCircle
 10
292.2728739061934
 20
240.6262665068981
 30
0.0
 40
2.333333333333545
100
AcDbArc
 50
231.7867892982695
 51
308.2132107017304
  0
ARC
  5
451
330
2
100
AcDbEntity
  8
09-01
100
AcDbCircle
 10
287.9427468872709
 20
246.8762665068981
 30
0.0
 40
8.583333333333548
100
AcDbArc
 50
250.3471403683376
 51
289.6528596316624
  0
ARC
  5
452
330
2
100
AcDbEntity
  8
09-01
100
AcDbCircle
 10
283.6126198683489
 20
240.6262665068981
 30
0.0
 40
2.333333333333545
100
AcDbArc
 50
231.7867892982532
 51
308.2132107017468
  0
ARC
  5
453
330
2
100
AcDbEntity
  8
09-01
100
AcDbCircle
 10
292.2728739061934
 20
240.9595998402311
 30
0.0
 40
2.333333333333545
100
AcDbArc
 50
51.7867892982692
 51
128.2132107017308
  0
ARC
  5
454
330
2
100
AcDbEntity
  8
09-01
100
AcDbCircle
 10
287.9427468872709
 20
234.7095998402312
 30
0.0
 40
8.583333333333548
100
AcDbArc
 50
70.34714036833758
 51
109.6528596316623
  0
ARC
  5
455
330
2
100
AcDbEntity
  8
09-01
100
AcDbCircle
 10
283.6126198683489
 20
240.9595998402311
 30
0.0
 40
2.333333333333545
100
AcDbArc
 50
51.7867892982692
 51
128.2132107017308
  0
LINE
  5
456
330
2
100
AcDbEntity
  8
09-01
100
AcDbLine
 10
293.7162495791674
 20
238.7929331735646
 30
0.0
 11
293.2162495791674
 21
238.2929331735646
 31
0.0
  0
LINE
  5
457
330
2
100
AcDbEntity
  8
09-01
100
AcDbLine
 10
282.6692441953749
 20
238.2929331735642
 30
0.0
 11
293.2162495791674
 21
238.2929331735646
 31
0.0
  0
LINE
  5
458
330
2
100
AcDbEntity
  8
09-01
100
AcDbLine
 10
293.2162495791674
 20
243.2929331735646
 30
0.0
 11
293.7162495791674
 21
242.7929331735646
 31
0.0
  0
LINE
  5
459
330
2
100
AcDbEntity
  8
09-01
100
AcDbLine
 10
293.7162495791674
 20
238.7929331735646
 30
0.0
 11
293.7162495791674
 21
242.7929331735646
 31
0.0
  0
LINE
  5
45A
330
2
100
AcDbEntity
  8
09-01
100
AcDbLine
 10
282.6692441953749
 20
238.2929331735642
 30
0.0
 11
282.1692441953749
 21
238.7929331735642
 31
0.0
  0
LINE
  5
45B
330
2
100
AcDbEntity
  8
09-01
100
AcDbLine
 10
282.1692441953749
 20
238.7929331735642
 30
0.0
 11
282.1692441953749
 21
242.7929331735646
 31
0.0
  0
LINE
  5
45C
330
2
100
AcDbEntity
  8
09-01
100
AcDbLine
 10
290.8294982332193
 20
238.7929331735642
 30
0.0
 11
290.8294982332193
 21
242.7929331735646
 31
0.0
  0
LINE
  5
45D
330
2
100
AcDbEntity
  8
09-01
100
AcDbLine
 10
285.055995541323
 20
238.7929331735642
 30
0.0
 11
285.055995541323
 21
242.7929331735646
 31
0.0
  0
LINE
  5
45E
330
2
100
AcDbEntity
  8
09-01
100
AcDbLine
 10
279.9427468872711
 20
228.7929331735647
 30
0.0
 11
295.9427468872712
 21
228.7929331735647
 31
0.0
  0
LINE
  5
45F
330
2
100
AcDbEntity
  8
09-01
100
AcDbLine
 10
279.9427468872711
 20
226.4889101103205
 30
0.0
 11
295.9427468872712
 21
226.4889101103205
 31
0.0
  0
ARC
  5
460
330
2
100
AcDbEntity
  8
09-01
100
AcDbCircle
 10
294.4427468872711
 20
230.7929331735647
 30
0.0
 40
1.0
100
AcDbArc
 50
180.0
 51
270.0
  0
ARC
  5
461
330
2
100
AcDbEntity
  8
09-01
100
AcDbCircle
 10
280.9427468872712
 20
226.4889101103205
 30
0.0
 40
1.0
100
AcDbArc
 50
180.0
 51
250.6088272783189
  0
ARC
  5
462
330
2
100
AcDbEntity
  8
09-01
100
AcDbCircle
 10
294.9427468872711
 20
226.4889101103205
 30
0.0
 40
1.0
100
AcDbArc
 50
289.3911727216811
 51
0.0
  0
ARC
  5
463
330
2
100
AcDbEntity
  8
09-01
100
AcDbCircle
 10
287.9427468872711
 20
246.3762665068981
 30
0.0
 40
22.08333333333337
100
AcDbArc
 50
250.6088272783189
 51
289.3911727216811
  0
ARC
  5
464
330
2
100
AcDbEntity
  8
09-01
100
AcDbCircle
 10
281.4427468872711
 20
230.7929331735647
 30
0.0
 40
1.0
100
AcDbArc
 50
270.0
 51
0.0
  0
LINE
  5
465
330
2
100
AcDbEntity
  8
09-01
100
AcDbLine
 10
280.9427468872712
 20
229.7929331735646
 30
0.0
 11
294.9427468872711
 21
229.7929331735646
 31
0.0
  0
LINE
  5
466
330
2
100
AcDbEntity
  8
09-01
100
AcDbLine
 10
282.1692441953749
 20
242.7929331735646
 30
0.0
 11
282.6692441953749
 21
243.2929331735646
 31
0.0
  0
LINE
  5
467
330
2
100
AcDbEntity
  8
03-01
100
AcDbLine
 10
283.9427468872711
 20
258.4929331735644
 30
0.0
 11
284.7427468872711
 21
259.2929331735646
 31
0.0
  0
LINE
  5
468
330
2
100
AcDbEntity
  8
03-01
100
AcDbLine
 10
285.9427468872711
 20
262.4929331735645
 30
0.0
 11
289.9427468872709
 21
262.4929331735649
 31
0.0
  0
LINE
  5
469
330
2
100
AcDbEntity
  8
03-01
100
AcDbLine
 10
286.0838084718377
 20
263.2929331735646
 30
0.0
 11
289.8016853027043
 21
263.2929331735646
 31
0.0
  0
LINE
  5
46A
330
2
100
AcDbEntity
  8
03-01
100
AcDbLine
 10
284.7427468872711
 20
259.2929331735646
 30
0.0
 11
291.142746887271
 21
259.2929331735646
 31
0.0
  0
LINE
  5
46B
330
2
100
AcDbEntity
  8
03-01
100
AcDbLine
 10
280.937193387806
 20
248.7929331735646
 30
0.0
 11
294.948300386736
 21
248.7929331735646
 31
0.0
  0
LINE
  5
46C
330
2
100
AcDbEntity
  8
09-01
100
AcDbLine
 10
280.4371933878058
 20
245.2929331735646
 30
0.0
 11
280.9371933878058
 21
244.7929331735646
 31
0.0
  0
LINE
  5
46D
330
2
100
AcDbEntity
  8
0
100
AcDbLine
 10
295.4483003867363
 20
245.2929331735646
 30
0.0
 11
294.9483003867363
 21
244.7929331735646
 31
0.0
  0
LINE
  5
46E
330
2
100
AcDbEntity
  8
09-01
100
AcDbLine
 10
280.9371933878058
 20
244.7929331735646
 30
0.0
 11
294.9483003867363
 21
244.7929331735646
 31
0.0
  0
LINE
  5
46F
330
2
100
AcDbEntity
  8
09-01
100
AcDbLine
 10
282.6692441953749
 20
243.2929331735646
 30
0.0
 11
293.2162495791674
 21
243.2929331735646
 31
0.0
  0
LINE
  5
470
330
2
100
AcDbEntity
  8
09-01
100
AcDbLine
 10
282.9427468872712
 20
238.2929331735646
 30
0.0
 11
292.9427468872711
 21
238.2929331735646
 31
0.0
  0
ARC
  5
471
330
2
100
AcDbEntity
  8
09-01
100
AcDbCircle
 10
282.9427468872712
 20
237.7929331735646
 30
0.0
 40
0.5
100
AcDbArc
 50
90.0
 51
180.0
  0
LINE
  5
472
330
2
100
AcDbEntity
  8
09-01
100
AcDbLine
 10
282.4427468872711
 20
237.7929331735646
 30
0.0
 11
282.4427468872711
 21
230.7929331735647
 31
0.0
  0
ARC
  5
473
330
2
100
AcDbEntity
  8
09-01
100
AcDbCircle
 10
292.9427468872711
 20
237.7929331735646
 30
0.0
 40
0.5
100
AcDbArc
 50
0.0
 51
90.0
  0
LINE
  5
474
330
2
100
AcDbEntity
  8
09-01
100
AcDbLine
 10
293.4427468872712
 20
237.7929331735646
 30
0.0
 11
293.4427468872712
 21
230.7929331735647
 31
0.0
  0
ARC
  5
475
330
2
100
AcDbEntity
  8
09-01
100
AcDbCircle
 10
280.9427468872712
 20
228.7929331735647
 30
0.0
 40
1.0
100
AcDbArc
 50
90.0
 51
180.0
  0
LINE
  5
476
330
2
100
AcDbEntity
  8
09-01
100
AcDbLine
 10
279.9427468872711
 20
228.7929331735647
 30
0.0
 11
279.9427468872711
 21
226.4889101103205
 31
0.0
  0
ARC
  5
477
330
2
100
AcDbEntity
  8
09-01
100
AcDbCircle
 10
294.9427468872711
 20
228.7929331735647
 30
0.0
 40
1.0
100
AcDbArc
 50
0.0
 51
90.0
  0
LINE
  5
478
330
2
100
AcDbEntity
  8
09-01
100
AcDbLine
 10
295.9427468872712
 20
228.7929331735647
 30
0.0
 11
295.9427468872712
 21
226.4889101103205
 31
0.0
  0
LINE
  5
479
330
2
100
AcDbEntity
  8
03-01
100
AcDbLine
 10
286.4427468872714
 20
254.2929331735646
 30
0.0
 11
286.4427468872711
 21
238.2929331735646
 31
0.0
  0
LINE
  5
47A
330
2
100
AcDbEntity
  8
03-01
100
AcDbLine
 10
289.4427468872709
 20
254.2929331735646
 30
0.0
 11
289.4427468872711
 21
238.2929331735646
 31
0.0
  0
LINE
  5
47B
330
2
100
AcDbEntity
  8
0
 62
     4
100
AcDbLine
 10
284.5427468872713
 20
244.7929331735646
 30
0.0
 11
284.5427468872713
 21
243.2929331735646
 31
0.0
  0
LINE
  5
47C
330
2
100
AcDbEntity
  8
0
 62
     4
100
AcDbLine
 10
284.542746887271
 20
259.0929331735643
 30
0.0
 11
284.542746887271
 21
248.7929331735646
 31
0.0
  0
LINE
  5
47D
330
2
100
AcDbEntity
  8
0
 62
     4
100
AcDbLine
 10
291.3427468872712
 20
244.7929331735646
 30
0.0
 11
291.3427468872712
 21
243.2929331735646
 31
0.0
  0
LINE
  5
47E
330
2
100
AcDbEntity
  8
03-01
 62
     4
100
AcDbLine
 10
291.342746887271
 20
259.0929331735643
 30
0.0
 11
291.3427468872712
 21
248.7929331735646
 31
0.0
  0
LINE
  5
47F
330
2
100
AcDbEntity
  8
03-01
100
AcDbLine
 10
285.9427468872711
 20
262.4929331735645
 30
0.0
 11
285.9427468872711
 21
259.2929331735646
 31
0.0
  0
LINE
  5
480
330
2
100
AcDbEntity
  8
03-01
100
AcDbLine
 10
286.0838084718377
 20
263.2929331735646
 30
0.0
 11
285.9427468872711
 21
262.4929331735645
 31
0.0
  0
LINE
  5
481
330
2
100
AcDbEntity
  8
03-01
100
AcDbLine
 10
289.9427468872709
 20
262.4929331735649
 30
0.0
 11
289.9427468872712
 21
259.2929331735646
 31
0.0
  0
LINE
  5
482
330
2
100
AcDbEntity
  8
05-01
100
AcDbLine
 10
287.9427468872711
 20
264.2571990360112
 30
0.0
 11
287.9427468872711
 21
223.2929331735646
 31
0.0
  0
LINE
  5
483
330
2
100
AcDbEntity
  8
09-01
100
AcDbLine
 10
288.0393926092427
 20
385.7981111439023
 30
0.0
 11
289.5384788497711
 21
385.8504603889561
 31
0.0
  0
LINE
  5
484
330
2
100
AcDbEntity
  8
09-01
100
AcDbLine
 10
272.9427468872714
 20
243.2929331735646
 30
0.0
 11
297.9427468872714
 21
243.2929331735646
 31
0.0
  0
LINE
  5
485
330
2
100
AcDbEntity
  8
03-01
100
AcDbLine
 10
296.4427468872711
 20
250.7929331735646
 30
0.0
 11
297.9427468872714
 21
250.7929331735646
 31
0.0
  0
LINE
  5
486
330
2
100
AcDbEntity
  8
09-01
100
AcDbLine
 10
272.9427468872714
 20
251.7929331735651
 30
0.0
 11
279.4427468872714
 21
251.7929331735646
 31
0.0
  0
LINE
  5
487
330
2
100
AcDbEntity
  8
09-01
100
AcDbLine
 10
274.4427468872714
 20
244.7929331735646
 30
0.0
 11
296.4427468872711
 21
244.7929331735646
 31
0.0
  0
LINE
  5
488
330
2
100
AcDbEntity
  8
09-01
100
AcDbLine
 10
272.9427468872714
 20
395.7929331735646
 30
0.0
 11
272.9427468872714
 21
243.2929331735646
 31
0.0
  0
LINE
  5
489
330
2
100
AcDbEntity
  8
09-01
100
AcDbLine
 10
289.1912800494818
 20
395.7929331735646
 30
0.0
 11
289.5384788497711
 21
385.8504603889561
 31
0.0
  0
LINE
  5
48A
330
2
100
AcDbEntity
  8
09-01
100
AcDbLine
 10
287.7427468872713
 20
394.2929331735646
 30
0.0
 11
288.0393926092427
 21
385.7981111439023
 31
0.0
  0
LINE
  5
48B
330
2
100
AcDbEntity
  8
09-01
100
AcDbLine
 10
297.9427468872714
 20
245.2960569439317
 30
0.0
 11
297.9427468872714
 21
243.2929331735646
 31
0.0
  0
LINE
  5
48C
330
2
100
AcDbEntity
  8
03-01
100
AcDbLine
 10
297.9427468872714
 20
250.7929331735646
 30
0.0
 11
297.9427468872714
 21
245.2960569439317
 31
0.0
  0
LINE
  5
48D
330
2
100
AcDbEntity
  8
09-01
100
AcDbLine
 10
296.4427468872711
 20
245.2960569441185
 30
0.0
 11
296.4427468872711
 21
244.7929331735646
 31
0.0
  0
LINE
  5
48E
330
2
100
AcDbEntity
  8
03-01
100
AcDbLine
 10
296.4427468872711
 20
250.7929331735646
 30
0.0
 11
296.4427468872711
 21
245.2960569441185
 31
0.0
  0
ARC
  5
48F
330
2
100
AcDbEntity
  8
09-01
100
AcDbCircle
 10
279.4427468872714
 20
254.7929331735646
 30
0.0
 40
3.0
100
AcDbArc
 50
270.0
 51
0.0
  0
ARC
  5
490
330
2
100
AcDbEntity
  8
09-01
100
AcDbCircle
 10
287.4427468872714
 20
339.7929331735646
 30
0.0
 40
5.0
100
AcDbArc
 50
90.0
 51
180.0
  0
LINE
  5
491
330
2
100
AcDbEntity
  8
09-01
100
AcDbLine
 10
282.4427468872714
 20
339.7929331735646
 30
0.0
 11
282.4427468872714
 21
254.7929331735646
 31
0.0
  0
LINE
  5
492
330
2
100
AcDbEntity
  8
09-01
100
AcDbLine
 10
274.4427468872714
 20
251.7929331735651
 30
0.0
 11
274.4427468872714
 21
244.7929331735646
 31
0.0
  0
LINE
  5
493
330
2
100
AcDbEntity
  8
03-01
100
AcDbLine
 10
274.4427468872718
 20
374.7929331735642
 30
0.0
 11
274.4427468872714
 21
251.7929331735651
 31
0.0
  0
LINE
  5
494
330
2
100
AcDbEntity
  8
09-01
100
AcDbLine
 10
274.4427468872714
 20
394.2929331735646
 30
0.0
 11
274.4427468872718
 21
374.7929331735642
 31
0.0
  0
LINE
  5
495
330
2
100
AcDbEntity
  8
09-01
100
AcDbLine
 10
272.9427468872714
 20
395.7929331735646
 30
0.0
 11
289.1912800494818
 21
395.7929331735646
 31
0.0
  0
LINE
  5
496
330
2
100
AcDbEntity
  8
09-01
100
AcDbLine
 10
274.4427468872714
 20
394.2929331735646
 30
0.0
 11
287.7427468872713
 21
394.2929331735646
 31
0.0
  0
INSERT
  5
497
330
2
100
AcDbEntity
  8
09-01
100
AcDbBlockReference
 66
     1
  2
DIN A4 Quer
 10
-0.0000047267758418
 20
-0.0000012968729095
 30
0.0
 41
2.5
 42
2.5
 43
2.5
  0
ATTRIB
  5
50B
330
497
100
AcDbEntity
  8
06-99
100
AcDbText
 10
508.7386168479429
 20
65.46959674320536
 30
0.0
 40
11.25
  1
Flüssigseifenspender WP 174
 41
0.8
  7
ROMANS8
100
AcDbAttribute
280
     0
  2
TEILE
 70
     0
280
     0
  0
ATTRIB
  5
50C
330
497
100
AcDbEntity
  8
06-99
100
AcDbText
 10
508.7386168479429
 20
47.37650871229052
 30
0.0
 40
11.25
  1
Modell 2014
 41
0.9
  7
ROMANS8
100
AcDbAttribute
280
     0
  2
TEILE2
 70
     0
280
     0
  0
ATTRIB
  5
50D
330
497
100
AcDbEntity
  8
06-99
100
AcDbText
 10
695.8684655292863
 20
113.3333333333331
 30
0.0
 40
8.4375
  1
1:2.5
  7
ROMANS8
100
AcDbAttribute
280
     0
  2
:
 70
     0
280
     0
  0
ATTRIB
  5
50E
330
497
100
AcDbEntity
  8
06-99
100
AcDbText
 10
449.9926694984185
 20
68.60421367007806
 30
0.0
 40
6.25
  1
Pfrepper
 41
0.9
  7
ROMANS8
100
AcDbAttribute
280
     0
  2
NAME
 70
     0
280
     0
  0
ATTRIB
  5
50F
330
497
100
AcDbEntity
  8
06-99
100
AcDbText
 10
416.2328661297351
 20
68.65308793527791
 30
0.0
 40
6.250000000000001
  1
26.06.2014
 50
359.9144597696147
 41
0.5524647187174875
  7
ROMANS8
 72
     5
 11
444.3493428010969
 21
68.6111111666668
 31
0.0
100
AcDbAttribute
280
     0
  2
DATUM
 70
     0
280
     0
  0
ATTRIB
  5
510
330
497
100
AcDbEntity
  8
06-99
100
AcDbText
 10
663.7658599178958
 20
18.73224950072202
 30
0.0
 40
7.4844
  1
727030
  7
ROMANS8
100
AcDbAttribute
280
     0
  2
ID.NR
 70
     0
280
     0
  0
ATTRIB
  5
511
330
497
100
AcDbEntity
  8
06-99
100
AcDbText
 10
509.3281656392764
 20
94.16666661111097
 30
0.0
 40
7.5
  1

 41
0.9
  7
ROMANS8
100
AcDbAttribute
280
     0
  2
LÄNGE
 70
     0
280
     0
  0
ATTRIB
  5
512
330
497
100
AcDbEntity
  8
06-99
100
AcDbText
 10
592.9520122794245
 20
94.1952596761121
 30
0.0
 40
7.5
  1

 41
0.9
  7
ROMANS8
100
AcDbAttribute
280
     0
  2
BREITE
 70
     0
280
     0
  0
ATTRIB
  5
513
330
497
100
AcDbEntity
  8
06-99
100
AcDbText
 10
694.0227303168296
 20
94.16666666666689
 30
0.0
 40
7.734375000000001
  1

  7
ROMANS8
100
AcDbAttribute
280
     0
  2
1.0
 70
     0
280
     0
  0
ATTRIB
  5
514
330
497
100
AcDbEntity
  8
06-99
100
AcDbText
 10
627.8194640035067
 20
113.3333333333337
 30
0.0
 40
7.5
  1

  7
ROMANS8
 72
     1
 11
627.8194640035067
 21
113.3333333333337
 31
0.0
100
AcDbAttribute
280
     0
  2
IV
 70
     0
280
     0
  0
ATTRIB
  5
515
330
497
100
AcDbEntity
  8
06-99
100
AcDbText
 10
525.6868513402896
 20
113.3333333333331
 30
0.0
 40
8.4375
  1
1.4301
  7
ROMANS8
100
AcDbAttribute
280
     0
  2
1.4301
 70
     0
280
     0
  0
ATTRIB
  5
516
330
497
100
AcDbEntity
  8
06-99
100
AcDbText
 10
582.5015847172003
 20
18.76099151088684
 30
0.0
 40
7.919999999999999
  1

 41
0.9000000000000001
  7
ROMANS8
100
AcDbAttribute
280
     0
  2
AUFTRAGS.NR.
 70
     0
280
     0
  0
ATTRIB
  5
517
330
497
100
AcDbEntity
  8
06-99
100
AcDbText
 10
508.75
 20
18.75000000000003
 30
0.0
 40
7.919999999999999
  1

 41
0.9000000000000001
  7
ROMANS8
100
AcDbAttribute
280
     0
  2
SONDER-NR
 70
     0
280
     0
  0
ATTRIB
  5
518
330
497
100
AcDbEntity
  8
06-99
100
AcDbText
 10
333.7493774875206
 20
16.50452517314991
 30
0.0
 40
3.75
  1

 41
0.9
  7
ROMANS8
100
AcDbAttribute
280
     0
  2
ERSETZT.DURCH
 70
     0
280
     0
  0
ATTRIB
  5
519
330
497
100
AcDbEntity
  8
06-99
100
AcDbText
 10
271.2486694504964
 20
16.49364099468133
 30
0.0
 40
3.75
  1

 41
0.9
  7
ROMANS8
100
AcDbAttribute
280
     0
  2
ERSETZT.FÜR
 70
     0
280
     0
  0
ATTRIB
  5
51A
330
497
100
AcDbEntity
  8
06-99
100
AcDbText
 10
467.432681616094
 20
119.1712778500198
 30
0.0
 40
3.217500000000001
  1
DIN A4
  7
ROMANS8
 72
     1
 11
475.6296459018082
 21
119.1712778500198
 31
0.0
100
AcDbAttribute
280
     0
  2
FORMAT
 70
     0
280
     0
  0
ATTRIB
  5
51B
330
497
100
AcDbEntity
  8
06-99
100
AcDbText
 10
457.4770480538851
 20
93.29652044844241
 30
0.0
 40
5.85
  1
DIN 2768
  7
ROMANS8
 72
     1
 11
477.5341909110279
 21
93.29652044844241
 31
0.0
100
AcDbAttribute
280
     0
  2
NORM2
 70
     0
280
     0
  0
ATTRIB
  5
51C
330
497
100
AcDbEntity
  8
06-99
100
AcDbText
 10
449.5377623395994
 20
102.8798537817755
 30
0.0
 40
5.85
  1
DIN 6930-M
  7
ROMANS8
 72
     1
 11
476.2806194824565
 21
102.8798537817755
 31
0.0
100
AcDbAttribute
280
     0
  2
NORM1
 70
     0
280
     0
  0
SEQEND
  5
51D
330
497
100
AcDbEntity
  8
09-01
  0
ENDSEC
  0
SECTION
  2
OBJECTS
  0
DICTIONARY
  5
B
330
0
100
AcDbDictionary
281
     1
  3
ACAD_COLOR
350
4D
  3
ACAD_GROUP
350
3A
  3
ACAD_LAYOUT
350
18
  3
ACAD_MATERIAL
350
D
  3
ACAD_MLEADERSTYLE
350
50
  3
ACAD_MLINESTYLE
350
3B
  3
ACAD_PLOTSETTINGS
350
3C
  3
ACAD_PLOTSTYLENAME
350
A
  3
ACAD_SCALELIST
350
4E
  3
ACAD_TABLESTYLE
350
4F
  3
ACAD_VISUALSTYLE
350
30
  3
ACDB_RECOMPOSE_DATA
350
52D
  3
AcDbVariableDictionary
350
523
  0
DICTIONARY
  5
31
330
2D
100
AcDbDictionary
280
     1
281
     1
  0
DICTIONARY
  5
20
330
1F
100
AcDbDictionary
280
     1
281
     1
  3
ACAD_LAYERFILTERS
360
21
  3
ACAD_LAYERSTATES
360
22
  3
ACLYDICTIONARY
360
23
  0
DICTIONARY
  5
7
330
6
100
AcDbDictionary
280
     1
281
     1
  3
ADSK_XREC_LAYER_RECONCILED
360
8
  0
DICTIONARY
  5
49E
330
49D
100
AcDbDictionary
280
     1
281
     1
  3
ADSK_XREC_LAYER_RECONCILED
360
49F
  0
DICTIONARY
  5
4DB
330
4DA
100
AcDbDictionary
280
     1
281
     1
  3
ADSK_XREC_LAYER_RECONCILED
360
4DC
  0
DICTIONARY
  5
4C5
330
4C4
100
AcDbDictionary
280
     1
281
     1
  3
ADSK_XREC_LAYER_RECONCILED
360
4C6
  0
DICTIONARY
  5
110
330
10F
100
AcDbDictionary
280
     1
281
     1
  3
ADSK_XREC_LAYER_RECONCILED
360
111
  0
DICTIONARY
  5
96
330
95
100
AcDbDictionary
280
     1
281
     1
  0
DICTIONARY
  5
1AF
330
1AE
100
AcDbDictionary
280
     1
281
     1
  0
DICTIONARY
  5
190
330
18F
100
AcDbDictionary
280
     1
281
     1
  0
DICTIONARY
  5
3
330
2
100
AcDbDictionary
280
     1
281
     1
  3
ACAD_SORTENTS
360
522
  0
DICTIONARY
  5
499
330
498
100
AcDbDictionary
280
     1
281
     1
  3
ACAD_SORTENTS
360
521
  0
DICTIONARY
  5
113
330
112
100
AcDbDictionary
280
     1
281
     1
  3
ACAD_SORTENTS
360
51E
  0
DICTIONARY
  5
99
330
98
100
AcDbDictionary
280
     1
281
     1
  3
ACAD_SORTENTS
360
51F
  0
DICTIONARY
  5
16E
330
16D
100
AcDbDictionary
280
     1
281
     1
  3
ACAD_SORTENTS
360
520
  0
DICTIONARY
  5
4D
102
{ACAD_REACTORS
330
B
102
}
330
B
100
AcDbDictionary
281
     1
  0
DICTIONARY
  5
3A
102
{ACAD_REACTORS
330
B
102
}
330
B
100
AcDbDictionary
281
     1
  0
DICTIONARY
  5
18
102
{ACAD_REACTORS
330
B
102
}
330
B
100
AcDbDictionary
281
     1
  3
Layout1
350
1E
  3
Model
350
17
  0
DICTIONARY
  5
D
102
{ACAD_REACTORS
330
B
102
}
330
B
100
AcDbDictionary
281
     1
  3
ByBlock
350
45
  3
ByLayer
350
3D
  3
Global
350
C
  0
DICTIONARY
  5
50
102
{ACAD_REACTORS
330
B
102
}
330
B
100
AcDbDictionary
281
     1
  0
DICTIONARY
  5
3B
102
{ACAD_REACTORS
330
B
102
}
330
B
100
AcDbDictionary
281
     1
  3
Standard
350
51
  0
DICTIONARY
  5
3C
102
{ACAD_REACTORS
330
B
102
}
330
B
100
AcDbDictionary
281
     1
  0
ACDBDICTIONARYWDFLT
  5
A
102
{ACAD_REACTORS
330
B
102
}
330
B
100
AcDbDictionary
281
     1
  3
Normal
350
9
100
AcDbDictionaryWithDefault
340
9
  0
DICTIONARY
  5
4E
102
{ACAD_REACTORS
330
B
102
}
330
B
100
AcDbDictionary
281
     1
  3
A0
350
56
  3
A1
350
57
  3
A2
350
58
  3
A3
350
59
  3
A4
350
5A
  3
A5
350
5B
  3
A6
350
5C
  3
A7
350
5D
  3
A8
350
5E
  3
A9
350
5F
  3
B0
350
60
  3
B1
350
61
  3
B2
350
62
  3
B3
350
63
  3
B4
350
64
  3
B5
350
65
  3
B6
350
66
  3
B7
350
67
  3
B8
350
68
  3
B9
350
69
  3
C0
350
6A
  3
C1
350
6B
  3
C2
350
6C
  3
C3
350
6D
  3
C4
350
6E
  3
C5
350
6F
  3
C6
350
70
  3
C7
350
71
  3
C8
350
72
  3
C9
350
73
  3
D0
350
74
  3
D1
350
75
  3
D2
350
76
  0
DICTIONARY
  5
4F
102
{ACAD_REACTORS
330
B
102
}
330
B
100
AcDbDictionary
281
     1
  3
Standard
350
52
  0
DICTIONARY
  5
30
102
{ACAD_REACTORS
330
B
102
}
330
B
100
AcDbDictionary
281
     1
  3
2dWireframe
350
2F
  3
3dWireframe
350
55
  3
Realistic
350
54
  0
XRECORD
  5
52D
102
{ACAD_REACTORS
330
B
102
}
330
B
100
AcDbXrecord
280
     1
 90
        1
330
52
  0
DICTIONARY
  5
523
102
{ACAD_REACTORS
330
B
102
}
330
B
100
AcDbDictionary
281
     1
  3
CANNOSCALE
350
527
  3
CMLEADERSTYLE
350
525
  3
CTABLESTYLE
350
524
  3
LAYEREVAL
350
529
  3
LAYERNOTIFY
350
52A
  3
LIGHTINGUNITS
350
528
  3
MSLTSCALE
350
526
  0
DICTIONARY
  5
21
102
{ACAD_REACTORS
330
20
102
}
330
20
100
AcDbDictionary
281
     1
  0
DICTIONARY
  5
22
102
{ACAD_REACTORS
330
20
102
}
330
20
100
AcDbDictionary
281
     1
  0
DICTIONARY
  5
23
102
{ACAD_REACTORS
330
20
102
}
330
20
100
AcDbDictionary
281
     1
1001
ACAD
1000
<All
  0
XRECORD
  5
8
102
{ACAD_REACTORS
330
7
102
}
330
7
100
AcDbXrecord
280
     1
290
     1
  0
XRECORD
  5
49F
102
{ACAD_REACTORS
330
49E
102
}
330
49E
100
AcDbXrecord
280
     1
290
     1
  0
XRECORD
  5
4DC
102
{ACAD_REACTORS
330
4DB
102
}
330
4DB
100
AcDbXrecord
280
     1
290
     1
  0
XRECORD
  5
4C6
102
{ACAD_REACTORS
330
4C5
102
}
330
4C5
100
AcDbXrecord
280
     1
290
     1
  0
XRECORD
  5
111
102
{ACAD_REACTORS
330
110
102
}
330
110
100
AcDbXrecord
280
     1
290
     1
  0
SORTENTSTABLE
  5
522
102
{ACAD_REACTORS
330
3
102
}
330
3
100
AcDbSortentsTable
330
2
331
474
  5
1A5
331
470
  5
1A9
331
46C
  5
1AD
331
468
  5
1B4
331
1A4
  5
475
331
1A0
  5
479
331
3FC
  5
27A
331
3BD
  5
2C5
331
255
  5
421
331
437
  5
23F
331
19C
  5
47D
331
3B9
  5
2C9
331
251
  5
425
331
291
  5
3E5
331
433
  5
243
331
198
  5
481
331
2CC
  5
3B6
331
2C8
  5
3BA
331
464
  5
1B8
331
460
  5
1BC
331
45C
  5
1C0
331
458
  5
1C4
331
194
  5
485
331
3B5
  5
2CD
331
24D
  5
429
331
42F
  5
247
331
249
  5
42D
331
1CF
  5
44D
331
42B
  5
24B
331
3B1
  5
2D1
331
3EC
  5
27E
331
3AD
  5
2D5
331
245
  5
431
331
3E8
  5
282
331
427
  5
24F
331
2C4
  5
3BE
331
18C
  5
48B
331
1CB
  5
451
331
3A9
  5
2D9
331
241
  5
435
331
3E4
  5
29E
331
281
  5
3E9
331
2C0
  5
3C2
331
423
  5
253
331
188
  5
48F
331
3E0
  5
2A2
331
27D
  5
3F9
331
2BC
  5
3C6
331
2B8
  5
3CA
331
279
  5
3FD
331
497
  5
77
331
454
  5
1C8
331
493
  5
F4
331
48F
  5
188
331
450
  5
1CC
331
44C
  5
1D0
331
48B
  5
18C
331
448
  5
1FE
331
1C7
  5
455
331
1C3
  5
459
331
1FE
  5
448
331
3A5
  5
2DD
331
23D
  5
439
331
41F
  5
257
331
239
  5
43D
331
1BF
  5
45D
331
41B
  5
25B
331
3A1
  5
2E1
331
3DC
  5
2A6
331
235
  5
441
331
1BB
  5
461
331
3D8
  5
2AA
331
275
  5
401
331
2B4
  5
3CE
331
417
  5
25F
331
2EF
  5
2EC
331
39D
  5
2E5
331
399
  5
2E9
331
3D4
  5
2AE
331
271
  5
405
331
2B0
  5
3D2
331
413
  5
263
331
2EB
  5
2F0
331
3D0
  5
2B2
331
26D
  5
409
331
2AC
  5
3D6
331
2E7
  5
39B
331
2A8
  5
3DA
331
2E3
  5
39F
331
269
  5
40D
331
101
  5
492
331
487
  5
192
331
444
  5
232
331
483
  5
196
331
47F
  5
19A
331
440
  5
236
331
47B
  5
19E
331
43C
  5
23A
331
438
  5
23E
331
1B7
  5
465
331
1B3
  5
469
331
40F
  5
267
331
40B
  5
26B
331
3CC
  5
2B6
331
225
  5
445
331
3C8
  5
2BA
331
265
  5
411
331
2A4
  5
3DE
331
407
  5
26F
331
2DF
  5
3A3
331
1AB
  5
46E
331
3C4
  5
2BE
331
261
  5
415
331
2A0
  5
3E2
331
403
  5
273
331
2DB
  5
3A7
331
25D
  5
419
331
3C0
  5
2C2
331
2D7
  5
3AB
331
2D3
  5
3AF
331
259
  5
41D
331
87
  5
496
331
477
  5
1A2
331
473
  5
1A6
331
46F
  5
1AA
331
46B
  5
1B1
331
1A7
  5
472
331
1A3
  5
476
331
3FF
  5
277
331
3FB
  5
27B
331
77
  5
497
331
19F
  5
47A
331
3BC
  5
2C6
331
254
  5
422
331
436
  5
240
331
19B
  5
47E
331
3B8
  5
2CA
331
250
  5
426
331
2CF
  5
3B3
331
432
  5
244
331
2CB
  5
3B7
331
467
  5
1B5
331
463
  5
1B9
331
45F
  5
1BD
331
45B
  5
1C1
331
197
  5
482
331
193
  5
486
331
42E
  5
248
331
3B4
  5
2CE
331
24C
  5
42A
331
248
  5
42E
331
1CE
  5
44E
331
42A
  5
24C
331
3B0
  5
2D2
331
2C7
  5
3BB
331
3EB
  5
27F
331
3AC
  5
2D6
331
244
  5
432
331
3E7
  5
283
331
284
  5
3E6
331
2C3
  5
3BF
331
426
  5
250
331
18B
  5
48C
331
1CA
  5
452
331
3A8
  5
2DA
331
240
  5
436
331
3E3
  5
29F
331
280
  5
3EA
331
2BF
  5
3C3
331
422
  5
254
331
27C
  5
3FA
331
2BB
  5
3C7
331
278
  5
3FE
331
457
  5
1C5
331
496
  5
87
331
453
  5
1C9
331
492
  5
101
331
48E
  5
189
331
44F
  5
1CD
331
44B
  5
1D1
331
48A
  5
18D
331
1C6
  5
456
331
187
  5
490
331
1C2
  5
45A
331
3A4
  5
2DE
331
23C
  5
43A
331
3DF
  5
2A3
331
41E
  5
258
331
238
  5
43E
331
1BE
  5
45E
331
41A
  5
25C
331
3A0
  5
2E2
331
2B7
  5
3CB
331
3DB
  5
2A7
331
39C
  5
2E6
331
234
  5
442
331
3D7
  5
2AB
331
274
  5
402
331
2B3
  5
3CF
331
416
  5
260
331
2EE
  5
2ED
331
1BA
  5
462
331
398
  5
2EA
331
3D3
  5
2AF
331
270
  5
406
331
2AF
  5
3D3
331
412
  5
264
331
2EA
  5
398
331
2E6
  5
39C
331
26C
  5
40A
331
2AB
  5
3D7
331
2E2
  5
3A0
331
268
  5
40E
331
447
  5
20B
331
486
  5
193
331
443
  5
233
331
482
  5
197
331
47E
  5
19B
331
43F
  5
237
331
43B
  5
23B
331
47A
  5
19F
331
1B6
  5
466
331
1B2
  5
46A
331
3CF
  5
2B3
331
40E
  5
268
331
40A
  5
26C
331
2A7
  5
3DB
331
3CB
  5
2B7
331
3C7
  5
2BB
331
264
  5
412
331
2A3
  5
3DF
331
406
  5
270
331
2DE
  5
3A4
331
1AA
  5
46F
331
3C3
  5
2BF
331
260
  5
416
331
29F
  5
3E3
331
402
  5
274
331
2DA
  5
3A8
331
25C
  5
41A
331
2D6
  5
3AC
331
2D2
  5
3B0
331
258
  5
41E
331
F4
  5
493
331
476
  5
1A3
331
472
  5
1A7
331
46E
  5
1AB
331
46A
  5
1B2
331
1A6
  5
473
331
1A2
  5
477
331
3FE
  5
278
331
257
  5
41F
331
19E
  5
47B
331
3FA
  5
27C
331
218
  5
446
331
3BF
  5
2C3
331
3BB
  5
2C7
331
253
  5
423
331
435
  5
241
331
19A
  5
47F
331
2CE
  5
3B4
331
431
  5
245
331
2CA
  5
3B8
331
466
  5
1B6
331
462
  5
1BA
331
45E
  5
1BE
331
45A
  5
1C2
331
196
  5
483
331
3B7
  5
2CB
331
24F
  5
427
331
192
  5
487
331
1D1
  5
44B
331
42D
  5
249
331
3B3
  5
2CF
331
24B
  5
42B
331
247
  5
42F
331
18E
  5
489
331
1CD
  5
44F
331
3EA
  5
280
331
429
  5
24D
331
2C6
  5
3BC
331
3AF
  5
2D3
331
1C9
  5
453
331
3AB
  5
2D7
331
243
  5
433
331
3E6
  5
284
331
283
  5
3E7
331
2C2
  5
3C0
331
425
  5
251
331
18A
  5
48D
331
3E2
  5
2A0
331
27F
  5
3EB
331
2BE
  5
3C4
331
421
  5
255
331
2BA
  5
3C8
331
27B
  5
3FB
331
456
  5
1C6
331
495
  5
94
331
452
  5
1CA
331
491
  5
10E
331
48D
  5
18A
331
44E
  5
1CE
331
44A
  5
1E0
331
489
  5
18E
331
1C5
  5
457
331
3A7
  5
2DB
331
23F
  5
437
331
1C1
  5
45B
331
41D
  5
259
331
3A3
  5
2DF
331
3DE
  5
2A4
331
23B
  5
43B
331
237
  5
43F
331
1BD
  5
45F
331
419
  5
25D
331
39F
  5
2E3
331
2B6
  5
3CC
331
277
  5
3FF
331
3DA
  5
2A8
331
39B
  5
2E7
331
233
  5
443
331
3D6
  5
2AC
331
273
  5
403
331
2B2
  5
3D0
331
415
  5
261
331
2ED
  5
2EE
331
1B9
  5
463
331
3D2
  5
2B0
331
26F
  5
407
331
2AE
  5
3D4
331
411
  5
265
331
2E9
  5
399
331
2E5
  5
39D
331
26B
  5
40B
331
2AA
  5
3D8
331
2E1
  5
3A1
331
446
  5
218
331
485
  5
194
331
442
  5
234
331
481
  5
198
331
47D
  5
19C
331
43E
  5
238
331
43A
  5
23C
331
479
  5
1A0
331
1B5
  5
467
331
1B1
  5
46B
331
3CE
  5
2B4
331
40D
  5
269
331
409
  5
26D
331
1AD
  5
46C
331
2A6
  5
3DC
331
267
  5
40F
331
3CA
  5
2B8
331
3C6
  5
2BC
331
263
  5
413
331
2A2
  5
3E0
331
405
  5
271
331
2DD
  5
3A5
331
1A9
  5
470
331
1E0
  5
44A
331
3C2
  5
2C0
331
25F
  5
417
331
29E
  5
3E4
331
401
  5
275
331
2D9
  5
3A9
331
2D5
  5
3AD
331
25B
  5
41B
331
2D1
  5
3B1
331
475
  5
1A4
331
471
  5
1A8
331
46D
  5
1AC
331
469
  5
1B3
331
1A5
  5
474
331
1A1
  5
478
331
3FD
  5
279
331
3BE
  5
2C4
331
3F9
  5
27D
331
256
  5
420
331
19D
  5
47C
331
3BA
  5
2C8
331
252
  5
424
331
434
  5
242
331
199
  5
480
331
2CD
  5
3B5
331
430
  5
246
331
2C9
  5
3B9
331
465
  5
1B7
331
461
  5
1BB
331
45D
  5
1BF
331
459
  5
1C3
331
195
  5
484
331
3B6
  5
2CC
331
24E
  5
428
331
24A
  5
42C
331
191
  5
488
331
1D0
  5
44C
331
42C
  5
24A
331
20B
  5
447
331
3B2
  5
2D0
331
246
  5
430
331
18D
  5
48A
331
1CC
  5
450
331
3E9
  5
281
331
428
  5
24E
331
2C5
  5
3BD
331
3AE
  5
2D4
331
1C8
  5
454
331
3AA
  5
2D8
331
242
  5
434
331
3E5
  5
291
331
282
  5
3E8
331
2C1
  5
3C1
331
424
  5
252
331
189
  5
48E
331
3E1
  5
2A1
331
27E
  5
3EC
331
2BD
  5
3C5
331
420
  5
256
331
2B9
  5
3C9
331
27A
  5
3FC
331
2F0
  5
2EB
331
E7
  5
494
331
455
  5
1C7
331
494
  5
E7
331
490
  5
187
331
451
  5
1CB
331
48C
  5
18B
331
44D
  5
1CF
331
449
  5
1EF
331
488
  5
191
331
1C4
  5
458
331
3A6
  5
2DC
331
23E
  5
438
331
1C0
  5
45C
331
41C
  5
25A
331
3A2
  5
2E0
331
3DD
  5
2A5
331
23A
  5
43C
331
236
  5
440
331
1BC
  5
460
331
3D9
  5
2A9
331
276
  5
400
331
2B5
  5
3CD
331
418
  5
25E
331
39E
  5
2E4
331
1B8
  5
464
331
39A
  5
2E8
331
232
  5
444
331
3D5
  5
2AD
331
272
  5
404
331
2B1
  5
3D1
331
414
  5
262
331
2EC
  5
2EF
331
3D1
  5
2B1
331
26E
  5
408
331
2AD
  5
3D5
331
410
  5
266
331
2E8
  5
39A
331
2A9
  5
3D9
331
2E4
  5
39E
331
26A
  5
40C
331
2E0
  5
3A2
331
10E
  5
491
331
94
  5
495
331
445
  5
225
331
484
  5
195
331
441
  5
235
331
480
  5
199
331
47C
  5
19D
331
43D
  5
239
331
439
  5
23D
331
478
  5
1A1
331
1B4
  5
468
331
1EF
  5
449
331
40C
  5
26A
331
3CD
  5
2B5
331
408
  5
26E
331
1AC
  5
46D
331
2A5
  5
3DD
331
266
  5
410
331
3C9
  5
2B9
331
3C5
  5
2BD
331
262
  5
414
331
2A1
  5
3E1
331
404
  5
272
331
2DC
  5
3A6
331
1A8
  5
471
331
25E
  5
418
331
3C1
  5
2C1
331
400
  5
276
331
2D8
  5
3AA
331
2D4
  5
3AE
331
25A
  5
41C
331
2D0
  5
3B2
  0
SORTENTSTABLE
  5
521
102
{ACAD_REACTORS
330
499
102
}
330
499
100
AcDbSortentsTable
330
498
  0
SORTENTSTABLE
  5
51E
102
{ACAD_REACTORS
330
113
102
}
330
113
100
AcDbSortentsTable
330
112
  0
SORTENTSTABLE
  5
51F
102
{ACAD_REACTORS
330
99
102
}
330
99
100
AcDbSortentsTable
330
98
  0
SORTENTSTABLE
  5
520
102
{ACAD_REACTORS
330
16E
102
}
330
16E
100
AcDbSortentsTable
330
16D
  0
LAYOUT
  5
1E
102
{ACAD_REACTORS
330
18
102
}
330
18
100
AcDbPlotSettings
  1

  2

  4

  6

 40
0.0
 41
0.0
 42
0.0
 43
0.0
 44
0.0
 45
0.0
 46
0.0
 47
0.0
 48
0.0
 49
0.0
140
0.0
141
0.0
142
1.0
143
1.0
 70
   688
 72
     0
 73
     0
 74
     5
  7

 75
    16
147
1.0
 76
     0
 77
     2
 78
   300
148
0.0
149
0.0
100
AcDbLayout
  1
Layout1
 70
     1
 71
     1
 10
0.0
 20
0.0
 11
420.0
 21
297.0
 12
0.0
 22
0.0
 32
0.0
 14
1.000000000000000E+20
 24
1.000000000000000E+20
 34
1.000000000000000E+20
 15
-1.000000000000000E+20
 25
-1.000000000000000E+20
 35
-1.000000000000000E+20
146
0.0
 13
0.0
 23
0.0
 33
0.0
 16
1.0
 26
0.0
 36
0.0
 17
0.0
 27
1.0
 37
0.0
 76
     0
330
1B
  0
LAYOUT
  5
17
102
{ACAD_XDICTIONARY
360
19
102
}
102
{ACAD_REACTORS
330
18
102
}
330
18
100
AcDbPlotSettings
  1

  2
HP LaserJet 4 Plus
  4
A4
  6

 40
6.805083274841308
 41
5.069413185119628
 42
6.805084228515625
 43
5.027069091796875
 44
209.9733276367187
 45
296.9683227539062
 46
0.0
 47
0.0
 48
0.0
 49
0.0
140
0.0
141
0.0
142
1.0
143
1.420972455501713
 70
 11952
 72
     1
 73
     1
 74
     1
  7
CNC-Soft.ctb
 75
     0
147
0.703743409049349
 76
     0
 77
     2
 78
   300
148
-7.196961435485832
149
-8.986679779117366
100
AcDbLayout
  1
Model
 70
     1
 71
     0
 10
0.0
 20
0.0
 11
0.0
 21
0.0
 12
0.0
 22
0.0
 32
0.0
 14
0.0
 24
0.0
 34
0.0
 15
420.0
 25
297.0
 35
0.0
146
0.0
 13
0.0
 23
0.0
 33
0.0
 16
1.0
 26
0.0
 36
0.0
 17
0.0
 27
1.0
 37
0.0
 76
     0
330
2
331
2E
  0
MATERIAL
  5
45
102
{ACAD_XDICTIONARY
360
46
102
}
102
{ACAD_REACTORS
330
D
102
}
330
D
100
AcDbMaterial
  1
ByBlock
 72
     0
 43
0.0008202099737533
 43
0.0
 43
0.0
 43
0.0
 43
0.0
 43
0.0008202099737533
 43
0.0
 43
0.0
 43
0.0
 43
0.0
 43
1.0
 43
0.0
 43
0.0
 43
0.0
 43
0.0
 43
1.0
 77
     0
 47
0.0008202099737533
 47
0.0
 47
0.0
 47
0.0
 47
0.0
 47
0.0008202099737533
 47
0.0
 47
0.0
 47
0.0
 47
0.0
 47
1.0
 47
0.0
 47
0.0
 47
0.0
 47
0.0
 47
1.0
171
     0
 49
0.0008202099737533
 49
0.0
 49
0.0
 49
0.0
 49
0.0
 49
0.0008202099737533
 49
0.0
 49
0.0
 49
0.0
 49
0.0
 49
1.0
 49
0.0
 49
0.0
 49
0.0
 49
0.0
 49
1.0
175
     0
142
0.0008202099737533
142
0.0
142
0.0
142
0.0
142
0.0
142
0.0008202099737533
142
0.0
142
0.0
142
0.0
142
0.0
142
1.0
142
0.0
142
0.0
142
0.0
142
0.0
142
1.0
179
     0
144
0.0008202099737533
144
0.0
144
0.0
144
0.0
144
0.0
144
0.0008202099737533
144
0.0
144
0.0
144
0.0
144
0.0
144
1.0
144
0.0
144
0.0
144
0.0
144
0.0
144
1.0
147
0.0008202099737533
147
0.0
147
0.0
147
0.0
147
0.0
147
0.0008202099737533
147
0.0
147
0.0
147
0.0
147
0.0
147
1.0
147
0.0
147
0.0
147
0.0
147
0.0
147
1.0
  0
MATERIAL
  5
3D
102
{ACAD_XDICTIONARY
360
3E
102
}
102
{ACAD_REACTORS
330
D
102
}
330
D
100
AcDbMaterial
  1
ByLayer
 72
     0
 43
0.0008202099737533
 43
0.0
 43
0.0
 43
0.0
 43
0.0
 43
0.0008202099737533
 43
0.0
 43
0.0
 43
0.0
 43
0.0
 43
1.0
 43
0.0
 43
0.0
 43
0.0
 43
0.0
 43
1.0
 77
     0
 47
0.0008202099737533
 47
0.0
 47
0.0
 47
0.0
 47
0.0
 47
0.0008202099737533
 47
0.0
 47
0.0
 47
0.0
 47
0.0
 47
1.0
 47
0.0
 47
0.0
 47
0.0
 47
0.0
 47
1.0
171
     0
 49
0.0008202099737533
 49
0.0
 49
0.0
 49
0.0
 49
0.0
 49
0.0008202099737533
 49
0.0
 49
0.0
 49
0.0
 49
0.0
 49
1.0
 49
0.0
 49
0.0
 49
0.0
 49
0.0
 49
1.0
175
     0
142
0.0008202099737533
142
0.0
142
0.0
142
0.0
142
0.0
142
0.0008202099737533
142
0.0
142
0.0
142
0.0
142
0.0
142
1.0
142
0.0
142
0.0
142
0.0
142
0.0
142
1.0
179
     0
144
0.0008202099737533
144
0.0
144
0.0
144
0.0
144
0.0
144
0.0008202099737533
144
0.0
144
0.0
144
0.0
144
0.0
144
1.0
144
0.0
144
0.0
144
0.0
144
0.0
144
1.0
147
0.0008202099737533
147
0.0
147
0.0
147
0.0
147
0.0
147
0.0008202099737533
147
0.0
147
0.0
147
0.0
147
0.0
147
1.0
147
0.0
147
0.0
147
0.0
147
0.0
147
1.0
  0
MATERIAL
  5
C
102
{ACAD_XDICTIONARY
360
E
102
}
102
{ACAD_REACTORS
330
D
102
}
330
D
100
AcDbMaterial
  1
Global
 72
     0
 43
0.0008202099737533
 43
0.0
 43
0.0
 43
0.0
 43
0.0
 43
0.0008202099737533
 43
0.0
 43
0.0
 43
0.0
 43
0.0
 43
1.0
 43
0.0
 43
0.0
 43
0.0
 43
0.0
 43
1.0
 77
     0
 47
0.0008202099737533
 47
0.0
 47
0.0
 47
0.0
 47
0.0
 47
0.0008202099737533
 47
0.0
 47
0.0
 47
0.0
 47
0.0
 47
1.0
 47
0.0
 47
0.0
 47
0.0
 47
0.0
 47
1.0
171
     0
 49
0.0008202099737533
 49
0.0
 49
0.0
 49
0.0
 49
0.0
 49
0.0008202099737533
 49
0.0
 49
0.0
 49
0.0
 49
0.0
 49
1.0
 49
0.0
 49
0.0
 49
0.0
 49
0.0
 49
1.0
175
     0
142
0.0008202099737533
142
0.0
142
0.0
142
0.0
142
0.0
142
0.0008202099737533
142
0.0
142
0.0
142
0.0
142
0.0
142
1.0
142
0.0
142
0.0
142
0.0
142
0.0
142
1.0
179
     0
144
0.0008202099737533
144
0.0
144
0.0
144
0.0
144
0.0
144
0.0008202099737533
144
0.0
144
0.0
144
0.0
144
0.0
144
1.0
144
0.0
144
0.0
144
0.0
144
0.0
144
1.0
147
0.0008202099737533
147
0.0
147
0.0
147
0.0
147
0.0
147
0.0008202099737533
147
0.0
147
0.0
147
0.0
147
0.0
147
1.0
147
0.0
147
0.0
147
0.0
147
0.0
147
1.0
  0
MLINESTYLE
  5
51
102
{ACAD_REACTORS
330
3B
102
}
330
3B
100
AcDbMlineStyle
  2
STANDARD
 70
     0
  3

 62
   256
 51
90.0
 52
90.0
 71
     2
 49
0.5
 62
   256
  6
BYLAYER
 49
-0.5
 62
   256
  6
BYLAYER
  0
ACDBPLACEHOLDER
  5
9
102
{ACAD_REACTORS
330
A
102
}
330
A
  0
SCALE
  5
56
102
{ACAD_REACTORS
330
4E
102
}
330
4E
100
AcDbScale
 70
     0
300
1:1
140
1.0
141
1.0
290
     1
  0
SCALE
  5
57
102
{ACAD_REACTORS
330
4E
102
}
330
4E
100
AcDbScale
 70
     0
300
1:2
140
1.0
141
2.0
290
     0
  0
SCALE
  5
58
102
{ACAD_REACTORS
330
4E
102
}
330
4E
100
AcDbScale
 70
     0
300
1:4
140
1.0
141
4.0
290
     0
  0
SCALE
  5
59
102
{ACAD_REACTORS
330
4E
102
}
330
4E
100
AcDbScale
 70
     0
300
1:5
140
1.0
141
5.0
290
     0
  0
SCALE
  5
5A
102
{ACAD_REACTORS
330
4E
102
}
330
4E
100
AcDbScale
 70
     0
300
1:8
140
1.0
141
8.0
290
     0
  0
SCALE
  5
5B
102
{ACAD_REACTORS
330
4E
102
}
330
4E
100
AcDbScale
 70
     0
300
1:10
140
1.0
141
10.0
290
     0
  0
SCALE
  5
5C
102
{ACAD_REACTORS
330
4E
102
}
330
4E
100
AcDbScale
 70
     0
300
1:16
140
1.0
141
16.0
290
     0
  0
SCALE
  5
5D
102
{ACAD_REACTORS
330
4E
102
}
330
4E
100
AcDbScale
 70
     0
300
1:20
140
1.0
141
20.0
290
     0
  0
SCALE
  5
5E
102
{ACAD_REACTORS
330
4E
102
}
330
4E
100
AcDbScale
 70
     0
300
1:30
140
1.0
141
30.0
290
     0
  0
SCALE
  5
5F
102
{ACAD_REACTORS
330
4E
102
}
330
4E
100
AcDbScale
 70
     0
300
1:40
140
1.0
141
40.0
290
     0
  0
SCALE
  5
60
102
{ACAD_REACTORS
330
4E
102
}
330
4E
100
AcDbScale
 70
     0
300
1:50
140
1.0
141
50.0
290
     0
  0
SCALE
  5
61
102
{ACAD_REACTORS
330
4E
102
}
330
4E
100
AcDbScale
 70
     0
300
1:100
140
1.0
141
100.0
290
     0
  0
SCALE
  5
62
102
{ACAD_REACTORS
330
4E
102
}
330
4E
100
AcDbScale
 70
     0
300
2:1
140
2.0
141
1.0
290
     0
  0
SCALE
  5
63
102
{ACAD_REACTORS
330
4E
102
}
330
4E
100
AcDbScale
 70
     0
300
4:1
140
4.0
141
1.0
290
     0
  0
SCALE
  5
64
102
{ACAD_REACTORS
330
4E
102
}
330
4E
100
AcDbScale
 70
     0
300
8:1
140
8.0
141
1.0
290
     0
  0
SCALE
  5
65
102
{ACAD_REACTORS
330
4E
102
}
330
4E
100
AcDbScale
 70
     0
300
10:1
140
10.0
141
1.0
290
     0
  0
SCALE
  5
66
102
{ACAD_REACTORS
330
4E
102
}
330
4E
100
AcDbScale
 70
     0
300
100:1
140
100.0
141
1.0
290
     0
  0
SCALE
  5
67
102
{ACAD_REACTORS
330
4E
102
}
330
4E
100
AcDbScale
 70
     0
300
1/128" = 1'-0"
140
0.0078125
141
12.0
290
     0
  0
SCALE
  5
68
102
{ACAD_REACTORS
330
4E
102
}
330
4E
100
AcDbScale
 70
     0
300
1/64" = 1'-0"
140
0.015625
141
12.0
290
     0
  0
SCALE
  5
69
102
{ACAD_REACTORS
330
4E
102
}
330
4E
100
AcDbScale
 70
     0
300
1/32" = 1'-0"
140
0.03125
141
12.0
290
     0
  0
SCALE
  5
6A
102
{ACAD_REACTORS
330
4E
102
}
330
4E
100
AcDbScale
 70
     0
300
1/16" = 1'-0"
140
0.0625
141
12.0
290
     0
  0
SCALE
  5
6B
102
{ACAD_REACTORS
330
4E
102
}
330
4E
100
AcDbScale
 70
     0
300
3/32" = 1'-0"
140
0.09375
141
12.0
290
     0
  0
SCALE
  5
6C
102
{ACAD_REACTORS
330
4E
102
}
330
4E
100
AcDbScale
 70
     0
300
1/8" = 1'-0"
140
0.125
141
12.0
290
     0
  0
SCALE
  5
6D
102
{ACAD_REACTORS
330
4E
102
}
330
4E
100
AcDbScale
 70
     0
300
3/16" = 1'-0"
140
0.1875
141
12.0
290
     0
  0
SCALE
  5
6E
102
{ACAD_REACTORS
330
4E
102
}
330
4E
100
AcDbScale
 70
     0
300
1/4" = 1'-0"
140
0.25
141
12.0
290
     0
  0
SCALE
  5
6F
102
{ACAD_REACTORS
330
4E
102
}
330
4E
100
AcDbScale
 70
     0
300
3/8" = 1'-0"
140
0.375
141
12.0
290
     0
  0
SCALE
  5
70
102
{ACAD_REACTORS
330
4E
102
}
330
4E
100
AcDbScale
 70
     0
300
1/2" = 1'-0"
140
0.5
141
12.0
290
     0
  0
SCALE
  5
71
102
{ACAD_REACTORS
330
4E
102
}
330
4E
100
AcDbScale
 70
     0
300
3/4" = 1'-0"
140
0.75
141
12.0
290
     0
  0
SCALE
  5
72
102
{ACAD_REACTORS
330
4E
102
}
330
4E
100
AcDbScale
 70
     0
300
1" = 1'-0"
140
1.0
141
12.0
290
     0
  0
SCALE
  5
73
102
{ACAD_REACTORS
330
4E
102
}
330
4E
100
AcDbScale
 70
     0
300
1-1/2" = 1'-0"
140
1.5
141
12.0
290
     0
  0
SCALE
  5
74
102
{ACAD_REACTORS
330
4E
102
}
330
4E
100
AcDbScale
 70
     0
300
3" = 1'-0"
140
3.0
141
12.0
290
     0
  0
SCALE
  5
75
102
{ACAD_REACTORS
330
4E
102
}
330
4E
100
AcDbScale
 70
     0
300
6" = 1'-0"
140
6.0
141
12.0
290
     0
  0
SCALE
  5
76
102
{ACAD_REACTORS
330
4E
102
}
330
4E
100
AcDbScale
 70
     0
300
1'-0" = 1'-0"
140
12.0
141
12.0
290
     0
  0
TABLESTYLE
  5
52
102
{ACAD_XDICTIONARY
360
53
102
}
102
{ACAD_REACTORS
330
4F
102
}
330
4F
100
AcDbTableStyle
280
     0
  3
Standard
 70
     0
 71
     0
 40
1.5
 41
1.5
280
     0
281
     0
  7
Standard
140
4.5
170
     2
 62
     0
 63
     7
283
     0
 90
      512
 91
        0
  1

274
    -2
284
     1
 64
     0
275
    -2
285
     1
 65
     0
276
    -2
286
     1
 66
     0
277
    -2
287
     1
 67
     0
278
    -2
288
     1
 68
     0
279
    -2
289
     1
 69
     0
  7
Standard
140
6.0
170
     5
 62
     0
 63
     7
283
     0
 90
      512
 91
        0
  1

274
    -2
284
     1
 64
     0
275
    -2
285
     1
 65
     0
276
    -2
286
     1
 66
     0
277
    -2
287
     1
 67
     0
278
    -2
288
     1
 68
     0
279
    -2
289
     1
 69
     0
  7
Standard
140
4.5
170
     5
 62
     0
 63
     7
283
     0
 90
      512
 91
        0
  1

274
    -2
284
     1
 64
     0
275
    -2
285
     1
 65
     0
276
    -2
286
     1
 66
     0
277
    -2
287
     1
 67
     0
278
    -2
288
     1
 68
     0
279
    -2
289
     1
 69
     0
  0
VISUALSTYLE
  5
2F
102
{ACAD_REACTORS
330
30
102
}
330
30
100
AcDbVisualStyle
  2
2dWireframe
 70
     4
177
     2
291
     0
 71
     0
176
     1
 72
     2
176
     1
 73
     0
176
     1
 90
        0
176
     1
 40
0.6
176
     1
 41
30.0
176
     1
 63
     7
176
     1
 74
     1
176
     1
 91
        4
176
     1
 64
     7
176
     1
 65
   257
176
     1
 75
     1
176
     1
175
     1
176
     1
 42
1.0
176
     1
 92
        0
176
     1
 66
   257
176
     1
 43
1.0
176
     1
 76
     1
176
     1
 77
     6
176
     1
 78
     2
176
     1
 67
     7
176
     1
 79
     5
176
     1
170
     0
176
     1
171
     0
176
     1
290
     0
176
     1
 93
        1
176
     1
 44
0.0
176
     1
173
     0
176
     1
  0
VISUALSTYLE
  5
55
102
{ACAD_REACTORS
330
30
102
}
330
30
100
AcDbVisualStyle
  2
3dWireframe
 70
     5
177
     2
291
     0
 71
     0
176
     1
 72
     2
176
     1
 73
     0
176
     1
 90
        0
176
     1
 40
0.6
176
     1
 41
30.0
176
     1
 63
     7
176
     1
 74
     1
176
     1
 91
        4
176
     1
 64
     7
176
     1
 65
   257
176
     1
 75
     1
176
     1
175
     1
176
     1
 42
1.0
176
     1
 92
        0
176
     1
 66
   257
176
     1
 43
1.0
176
     1
 76
     1
176
     1
 77
     6
176
     1
 78
     2
176
     1
 67
     7
176
     1
 79
     5
176
     1
170
     0
176
     1
171
     0
176
     1
290
     0
176
     1
 93
        1
176
     1
 44
0.0
176
     1
173
     0
176
     1
  0
VISUALSTYLE
  5
54
102
{ACAD_REACTORS
330
30
102
}
330
30
100
AcDbVisualStyle
  2
Realistic
 70
     8
177
     2
291
     0
 71
     2
176
     1
 72
     2
176
     1
 73
     0
176
     1
 90
        0
176
     1
 40
0.6
176
     1
 41
30.0
176
     1
 63
     7
176
     1
 74
     1
176
     1
 91
        0
176
     1
 64
     7
176
     1
 65
   257
176
     1
 75
     1
176
     1
175
     1
176
     1
 42
1.0
176
     1
 92
        8
176
     1
 66
     8
176
     1
 43
1.0
176
     1
 76
     1
176
     1
 77
     6
176
     1
 78
     2
176
     1
 67
     7
176
     1
 79
     5
176
     1
170
     0
176
     1
171
     0
176
     1
290
     0
176
     1
 93
       13
176
     1
 44
0.0
176
     1
173
     0
176
     1
  0
DICTIONARYVAR
  5
527
102
{ACAD_REACTORS
330
523
102
}
330
523
100
DictionaryVariables
280
     0
  1
1:1
  0
DICTIONARYVAR
  5
525
102
{ACAD_REACTORS
330
523
102
}
330
523
100
DictionaryVariables
280
     0
  1
STANDARD
  0
DICTIONARYVAR
  5
524
102
{ACAD_REACTORS
330
523
102
}
330
523
100
DictionaryVariables
280
     0
  1
STANDARD
  0
DICTIONARYVAR
  5
529
102
{ACAD_REACTORS
330
523
102
}
330
523
100
DictionaryVariables
280
     0
  1
1
  0
DICTIONARYVAR
  5
52A
102
{ACAD_REACTORS
330
523
102
}
330
523
100
DictionaryVariables
280
     0
  1
15
  0
DICTIONARYVAR
  5
528
102
{ACAD_REACTORS
330
523
102
}
330
523
100
DictionaryVariables
280
     0
  1
0
  0
DICTIONARYVAR
  5
526
102
{ACAD_REACTORS
330
523
102
}
330
523
100
DictionaryVariables
280
     0
  1
0
  0
DICTIONARY
  5
19
330
17
100
AcDbDictionary
280
     1
281
     1
  3
ADSK_XREC_LAYOUTTHUMBNAIL
360
1A
  0
DICTIONARY
  5
46
330
45
100
AcDbDictionary
280
     1
281
     1
  3
BUMPTILE
360
47
  3
DIFFUSETILE
360
48
  3
OPACITYTILE
360
49
  3
REFLECTIONTILE
360
4A
  3
REFRACTIONTILE
360
4B
  3
SPECULARTILE
360
4C
  0
DICTIONARY
  5
3E
330
3D
100
AcDbDictionary
280
     1
281
     1
  3
BUMPTILE
360
3F
  3
DIFFUSETILE
360
40
  3
OPACITYTILE
360
41
  3
REFLECTIONTILE
360
42
  3
REFRACTIONTILE
360
43
  3
SPECULARTILE
360
44
  0
DICTIONARY
  5
E
330
C
100
AcDbDictionary
280
     1
281
     1
  3
BUMPTILE
360
F
  3
DIFFUSETILE
360
10
  3
OPACITYTILE
360
11
  3
REFLECTIONTILE
360
12
  3
REFRACTIONTILE
360
13
  3
SPECULARTILE
360
14
  0
DICTIONARY
  5
53
330
52
100
AcDbDictionary
280
     1
281
     1
  3
ACAD_ROUNDTRIP_2008_TABLESTYLE_CELLSTYLEMAP
360
52B
  0
XRECORD
  5
1A
102
{ACAD_REACTORS
330
19
102
}
330
19
100
AcDbXrecord
280
     1
310
280000000001000091000000010008000000000000910000000000000000000000010000000000003028210000000000FFFFFF000000000000000000000000000000000000000000000000000000000000000000330000006600000099000000CC000000FF00000000330000333300006633000099330000CC330000FF3300
310
0000660000336600006666000099660000CC660000FF66000000990000339900006699000099990000CC990000FF99000000CC000033CC000066CC000099CC0000CCCC0000FFCC000000FF000033FF000066FF000099FF0000CCFF0000FFFF000000003300330033006600330099003300CC003300FF003300003333003333
310
33006633330099333300CC333300FF33330000663300336633006666330099663300CC663300FF66330000993300339933006699330099993300CC993300FF99330000CC330033CC330066CC330099CC3300CCCC3300FFCC330000FF330033FF330066FF330099FF3300CCFF3300FFFF330000006600330066006600660099
310
006600CC006600FF00660000336600333366006633660099336600CC336600FF33660000666600336666006666660099666600CC666600FF66660000996600339966006699660099996600CC996600FF99660000CC660033CC660066CC660099CC6600CCCC6600FFCC660000FF660033FF660066FF660099FF6600CCFF6600
310
FFFF660000009900330099006600990099009900CC009900FF00990000339900333399006633990099339900CC339900FF33990000669900336699006666990099669900CC669900FF66990000999900339999006699990099999900CC999900FF99990000CC990033CC990066CC990099CC9900CCCC9900FFCC990000FF99
310
0033FF990066FF990099FF9900CCFF9900FFFF99000000CC003300CC006600CC009900CC00CC00CC00FF00CC000033CC003333CC006633CC009933CC00CC33CC00FF33CC000066CC003366CC006666CC009966CC00CC66CC00FF66CC000099CC003399CC006699CC009999CC00CC99CC00FF99CC0000CCCC0033CCCC0066CC
310
CC0099CCCC00CCCCCC00FFCCCC0000FFCC0033FFCC0066FFCC0099FFCC00CCFFCC00FFFFCC000000FF003300FF006600FF009900FF00CC00FF00FF00FF000033FF003333FF006633FF009933FF00CC33FF00FF33FF000066FF003366FF006666FF009966FF00CC66FF00FF66FF000099FF003399FF006699FF009999FF00CC
310
99FF00FF99FF0000CCFF0033CCFF0066CCFF0099CCFF00CCCCFF00FFCCFF0000FFFF0033FFFF0066FFFF0099FFFF00CCFFFF00FFFFFF00000000000D0D0D001A1A1A00282828003535350043434300505050005D5D5D006B6B6B00787878008686860093939300A1A1A100AEAEAE00BBBBBB00C9C9C900D6D6D600E4E4E400
310
F1F1F100FFFFFF000000000000000000000000000000000000000000000000000000000000000000000000000000000000000000000000000000000000000000000000000000000000000000000000000000000000000000000000000000000000000000000000000000000000000000000000000000000000000000000000
310
00000000000000000000000000000000000000000000000000000000000000000000000000000000000000000000000000000000000000000000000000000000000000000000000000000000000000000000000000000000000000000000000000000000000000000000000000000000000000000000000000000000000000
310
00000000000000000000000000000000000000000000000000000000000000000000000000000000000000000000000000000000000000000000000000000000000000000000000000000000000000000000000000000000000000000000000000000000000000000000000000000000000000000000000000000000000000
310
00000000000000000000000000000000000000000000000000000000000000000000000000000000000000000000000000000000000000000000000000000000000000000000000000000000000000000000000000000000000000000000000000000000000000000000000000000000000000000000000000000000000000
310
00000000000000000000000000000000000000000000000000000000000000000000000000000000000000000000000000000000000000000000000000000000000000000000000000000000000000000000000000000000000000000000000000000000000000000000000000000000000000000000000000000000000000
310
00000000000000000000000000000000000000000000000000000000000000000000000000000000000000000000000000000000000000000000000000000000000000000000000000000000000000000000000000000000000000000000000000000000000000000000000000000000000000000000000000000000000000
310
00000000000000000000000000000000000000000000000000000000000000000000000000000000000000000000000000000000000000000000000000000000000000000000000000000000000000000000000000000000000000000000000000000000000000000000000000000000000000000000000000000000000000
310
00000000000000000000000000000000000000000000000000000000000000000000000000000000000000000000000000000000000000000000000000000000000000000000000000000000000000000000000000000000000000000000000000000000000000000000000000000000000000000000000000000000000000
310
00000000000000000000000000000000000000000000000000000000000000000000000000000000000000000000000000000000000000000000000000000000000000000000000000000000000000000000000000000000000000000000000000000000000000000000000000000000000000000000000000000000000000
310
00000000000000000000000000000000000000000000000000000000000000000000000000000000000000000000000000000000000000000000000000000000000000000000000000000000000000000000000000000000000000000000000000000000000000000000000000000000000000000000000000000000000000
310
00000000000000000000000000000000000000000000000000000000000000000000000000000000000000000000000000000000000000000000000000000000000000000000000000000000000000000000000000000000000000000000000000000000000000000000000000000000000000000000000000000000000000
310
00000000000000000000000000000000000000000000000000000000000000000000000000000000000000000000000000000000000000000000000000000000000000000000000000000000000000000000000000000000000000000000000000000000000000000000000000000000000000000000000000000000000000
310
00000000000000000000000000000000000000000000000000000000000000000000000000000000000000000000000000000000000000000000000000000000000000000000000000000000000000000000000000000000000000000000000000000000000000000000000000000000000000000000000000000000000000
310
00000000000000000000000000000000000000000000000000000000000000000000000000000000000000000000000000000000000000000000000000000000000000000000000000000000000000000000000000000000000000000000000000000000000000000000000000000000000000000000000000000000000000
310
0000000000000000000000000000000000000000000000000000000000000000000000000000000000000000000000000000000000000000000000000000BEBEBEBEBEBEBEBEBEBEBEBEBEBE000000000000000000000000000000000000000000000000000000000000000000000000000000000000000000000000000000
310
00000000000000000000000000000000000000000000000000000000000000000000000000000000000000000000000000000000000000000000000000000000000000000000000000000000000000000000000000000000000000000000000000000000000000000000000000000000000000000000000000000000000000
310
00000000000000000000000000000000000000000000000000000000000000000000000000000000000000000000000000000000000000000000000000000000DCDCDCDCDCDCDCBEBEBEBEDCDCBE00000000000000000000000000000000000000000000000000000000000000000000000000000000000000000000000000
310
00000000000000000000000000000000000000000000000000000000000000000000000000000000000000000000000000000000000000000000000000000000000000000000000000000000000000000000000000000000000000000000000000000000000000000000000000000000000000000000000000000000000000
310
00000000000000000000000000000000000000000000000000000000000000000000000000000000000000000000000000000000000000000000000000000000000000F5F5F5F5F5F5BEBEBEBEF5DCBE0000000000000000000000000000000000000000000000000000000000000000000000000000000000000000000000
310
00000000000000000000000000000000000000000000000000000000000000000000000000000000000000000000000000000000000000000000000000000000000000000000000000000000000000000000000000000000000000000000000000000000000000000000000000000000000000000000000000000000000000
310
0000000000000000000000000000000000000000000000000000000000000000000000000000000000000000000000000000000000000000000000000000000000000000BEBEBEF5F5F5DCF5F5F5F5DCDCBE000000000000000000000000000000000000000000000000000000000000000000000000000000000000000000
310
00000000000000000000000000000000000000000000000000000000000000000000000000000000000000000000000000000000000000000000000000000000000000000000000000000000000000000000000000000000000000000000000000000000000000000000000000000000000000000000000000000000000000
310
00000000000000000000000000000000000000000000000000000000000000000000000000000000000000000000000000000000000000000000000000000000000000000000BEBEBEBE0000000000000000DCBE00000000000000000000000000000000000000000000000000000000000000000000000000000000000000
310
00000000000000000000000000000000000000000000000000000000000000000000000000000000000000000000000000000000000000000000000000000000000000000000000000000000000000000000000000000000000000000000000000000000000000000000000000000000000000000000000000000000000000
310
000000000000000000000000000000000000000000000000000000000000000000000000000000000000000000000000000000000000000000000000000000000000000000000000BEBEBEBEBEBEBEBEBEBEBE00DCBE0000000000000000000000000000000000000000000000000000000000000000000000000000000000
310
00000000000000000000000000000000000000000000000000000000000000000000000000000000000000000000000000000000000000000000000000000000000000000000000000000000000000000000000000000000000000000000000000000000000000000000000000000000000000000000000000000000000000
310
0000000000000000000000000000000000000000000000000000000000000000000000000000000000000000000000000000000000000000000000000000000000000000000000000000BEBE000000BE00BEBEBEBE00DCBE000000000000000000000000000000000000000000000000000000000000000000000000000000
310
00000000000000000000000000000000000000000000000000000000000000000000000000000000000000000000000000000000000000000000000000000000000000000000000000000000000000000000000000000000000000000000000000000000000000000000000000000000000000000000000000000000000000
310
00000000000000000000000000000000000000000000000000000000000000000000000000000000000000000000000000000000000000000000000000000000000000000000000000000000F5DCDCDCDCDCDCDCDCDCDCDCDCBE00000000000000000000000000000000000000000000000000000000000000000000000000
310
00000000000000000000000000000000000000000000000000000000000000000000000000000000000000000000000000000000000000000000000000000000000000000000000000000000000000000000000000000000000000000000000000000000000000000000000000000000000000000000000000000000000000
310
000000000000000000000000000000000000000000000000000000000000000000000000000000000000000000000000000000000000000000000000000000000000000000000000000000000000BEDCF5F5F5F5F5F5F5F5BEBEBEBE0000000000000000000000000000000000000000000000000000000000000000000000
310
00000000000000000000000000000000000000000000000000000000000000000000000000000000000000000000000000000000000000000000000000000000000000000000000000000000000000000000000000000000000000000000000000000000000000000000000000000000000000000000000000000000000000
310
0000000000000000000000000000000000000000000000000000000000000000000000000000000000000000000000000000000000000000000000000000000000000000000000000000000000000000BEDCDCF5F5F5F5DCDCF5BEBEBEBE000000000000000000000000000000000000000000000000000000000000000000
310
00000000000000000000000000000000000000000000000000000000000000000000000000000000000000000000000000000000000000000000000000000000000000000000000000000000000000000000000000000000000000000000000000000000000000000000000000000000000000000000000000000000000000
310
00000000000000000000000000000000000000000000000000000000000000000000000000000000000000000000000000000000000000000000000000000000000000000000000000000000000000000000000000000000000000000000DCBE00000000000000000000000000000000000000000000000000000000000000
310
00000000000000000000000000000000000000000000000000000000000000000000000000000000000000000000000000000000000000000000000000000000000000000000000000000000000000000000000000000000000000000000000000000000000000000000000000000000000000000000000000000000000000
310
000000000000000000000000000000000000000000000000000000000000000000000000000000000000000000000000000000000000000000000000000000000000000000000000000000000000000000000000000000000000000000000000DCBE0000000000000000000000000000000000000000000000000000000000
310
00000000000000000000000000000000000000000000000000000000000000000000000000000000000000000000000000000000000000000000000000000000000000000000000000000000000000000000000000000000000000000000000000000000000000000000000000000000000000000000000000000000000000
310
0000000000000000000000000000000000000000000000000000000000000000000000000000000000000000000000000000000000000000000000000000000000000000000000000000000000000000000000000000000000000000000000000000DCBE000000000000000000000000000000000000000000000000000000
310
00000000000000000000000000000000000000000000000000000000000000000000000000000000000000000000000000000000000000000000000000000000000000000000000000000000000000000000000000000000000000000000000000000000000000000000000000000000000000000000000000000000000000
310
00000000000000000000000000000000000000000000000000000000000000000000000000000000000000000000000000000000000000000000000000000000000000000000000000000000000000000000000000000000000000000000000000000000DCBE00000000000000000000000000000000000000000000000000
310
00000000000000000000000000000000000000000000000000000000000000000000000000000000000000000000000000000000000000000000000000000000000000000000000000000000000000000000000000000000000000000000000000000000000000000000000000000000000000000000000000000000000000
310
000000000000000000000000000000000000000000000000000000000000000000000000000000000000000000000000000000000000000000000000000000000000000000000000000000000000000000000000000000000000000000000000000000000000DCBE0000000000000000000000000000000000000000000000
310
00000000000000000000000000000000000000000000000000000000000000000000000000000000000000000000000000000000000000000000000000000000000000000000000000000000000000000000000000000000000000000000000000000000000000000000000000000000000000000000000000000000000000
310
0000000000000000000000000000000000000000000000000000000000000000000000000000000000000000000000000000000000000000000000000000000000000000000000000000000000000000000000000000000000000000000000000000000000000000DCBE000000000000000000000000000000000000000000
310
00000000000000000000000000000000000000000000000000000000000000000000000000000000000000000000000000000000000000000000000000000000000000000000000000000000000000000000000000000000000000000000000000000000000000000000000000000000000000000000000000000000000000
310
00000000000000000000000000000000000000000000000000000000000000000000000000000000000000000000000000000000000000000000000000000000000000000000000000000000000000000000000000000000000000000000000000000000000000000000DCBE00000000000000000000000000000000000000
310
00000000000000000000000000000000000000000000000000000000000000000000000000000000000000000000000000000000000000000000000000000000000000000000000000000000000000000000000000000000000000000000000000000000000000000000000000000000000000000000000000000000000000
310
000000000000000000000000000000000000000000000000000000000000000000000000000000000000000000000000000000000000000000000000000000000000000000000000000000000000000000000000000000000000000000000000000000000000000000000000DCBE0000000000000000000000000000000000
310
00000000000000000000000000000000000000000000000000000000000000000000000000000000000000000000000000000000000000000000000000000000000000000000000000000000000000000000000000000000000000000000000000000000000000000000000000000000000000000000000000000000000000
310
0000000000000000000000000000000000000000000000000000000000000000000000000000000000000000000000000000000000000000000000000000000000000000000000000000000000000000000000000000000000000000000000000000000000000000000000000000DCBE000000000000000000000000000000
310
00000000000000000000000000000000000000000000000000000000000000000000000000000000000000000000000000000000000000000000000000000000000000000000000000000000000000000000000000000000000000000000000000000000000000000000000000000000000000000000000000000000000000
310
00000000000000000000000000000000000000000000000000000000000000000000000000000000000000000000000000000000000000000000000000000000000000000000000000000000000000000000000000000000000000000000000000000000000000000000000000000000DCBE00000000000000000000000000
310
00000000000000000000000000000000000000000000000000000000000000000000000000000000000000000000000000000000000000000000000000000000000000000000000000000000000000000000000000000000000000000000000000000000000000000000000000000000000000000000000000000000000000
310
000000000000000000000000000000000000000000000000000000000000000000000000000000000000000000000000000000000000000000000000000000000000000000000000000000000000000000000000000000000000000000000000000000000000000000000000000000000000DCBE0000000000000000000000
310
00000000000000000000000000000000000000000000000000000000000000000000000000000000000000000000000000000000000000000000000000000000000000000000000000000000000000000000000000000000000000000000000000000000000000000000000000000000000000000000000000000000000000
310
0000000000000000000000000000000000000000000000000000000000000000000000000000000000000000000000000000000000000000000000000000000000000000000000000000000000000000000000000000000000000000000000000000000000000000000000000000000000000000DCBE000000000000000000
310
00000000000000000000000000000000000000000000000000000000000000000000000000000000000000000000000000000000000000000000000000000000000000000000000000000000000000000000000000000000000000000000000000000000000000000000000000000000000000000000000000000000000000
310
00000000000000000000000000000000000000000000000000000000000000000000000000000000000000000000000000000000000000000000000000000000000000000000000000000000000000000000000000000000000000000000000000000000000000000000000000000000000000000000DCBE00000000000000
310
00000000000000000000000000000000000000000000000000000000000000000000000000000000000000000000000000000000000000000000000000000000000000000000000000000000000000000000000000000000000000000000000000000000000000000000000000000000000000000000000000000000000000
310
000000000000000000000000000000000000000000000000000000000000000000000000000000000000000000000000000000000000000000000000000000000000000000000000000000000000000000000000000000000000000000000000000000000000000000000000000000000000000000000000DCBE0000000000
310
00000000000000000000000000000000000000000000000000000000000000000000000000000000000000000000000000000000000000000000000000000000000000000000000000000000000000000000000000000000000000000000000000000000000000000000000000000000000000000000000000000000000000
310
0000000000000000000000000000000000000000000000000000000000000000000000000000000000000000000000000000000000000000000000000000000000000000000000000000000000000000000000000000000000000000000000000000000000000000000000000000000000000000000000000000DCBE000000
310
00000000000000000000000000000000000000000000000000000000000000000000000000000000000000000000000000000000000000000000000000000000000000000000000000000000000000000000000000000000000000000000000000000000000000000000000000000000000000000000000000000000000000
310
00000000000000000000000000000000000000000000000000000000000000000000000000000000000000000000000000000000000000000000000000000000000000000000000000000000000000000000000000000000000000000000000000000000000000000000000000000000000000000000000000000000DCBE00
310
00000000000000000000000000000000000000000000000000000000000000000000000000000000000000000000000000000000000000000000000000000000000000000000000000000000000000000000000000000000000000000000000000000000000000000000000000000000000000000000000000000000000000
310
000000000000000000000000000000000000000000000000000000000000000000000000000000000000000000000000000000000000000000000000000000000000000000000000000000000000000000000000000000000000000000000000000000000000000000000000000000000000000000000000000000000000DC
310
BE000000000000000000000000000000000000000000000000000000000000000000000000000000000000000000000000000000000000000000000000000000000000000000000000000000000000000000000000000000000000000000000000000000000000000000000000000000000000000000000000000000000000
310
00000000000000000000000000000000000000000000000000000000000000000000000000000000000000000000000000000000000000000000000000000000000000000000000000000000000000000000000000000000000000000000000000000000000000000000000000000000000000000000000000000000000000
310
00DCBE00000000000000000000000000000000000000000000000000000000000000000000000000000000000000000000000000000000000000000000000000000000000000000000000000000000000000000000000000000000000000000000000000000000000000000000000000000000000000000000000000000000
310
00000000000000000000000000000000000000000000000000000000000000000000000000000000000000000000000000000000000000000000000000000000000000000000000000000000000000000000000000000000000000000000000000000000000000000000000000000000000000000000000000000000000000
310
000000DCBE0000000000000000000000000000000000000000000000000000000000000000000000000000000000000000000000000000000000000000000000000000000000000000000000000000000000000000000000000000000000000000000000000000000000000000000000000000000000000000000000000000
310
00000000000000000000000000000000000000000000000000000000000000000000000000000000000000000000000000000000000000000000000000000000000000000000000000000000000000000000000000000000000000000000000000000000000000000000000000000000000000000000000000000000000000
310
0000000000DCBE000000000000000000000000000000000000000000000000000000000000000000000000000000000000000000000000000000000000000000000000000000000000000000000000000000000000000000000000000000000000000000000000000000000000000000000000000000000000000000000000
310
00000000000000000000000000000000000000000000000000000000000000000000000000000000000000000000000000000000000000000000000000000000000000000000000000000000000000000000000000000000000000000000000000000000000000000000000000000000000000000000000000000000000000
310
00000000000000DCBE00000000000000000000000000000000000000000000000000000000000000000000000000000000000000000000000000000000000000000000000000000000000000000000000000000000000000000000000000000000000000000000000000000000000000000000000000000000000000000000
310
00000000000000000000000000000000000000000000000000000000000000000000000000000000000000000000000000000000000000000000000000000000000000000000000000000000000000000000000000000000000000000000000000000000000000000000000000000000000000000000000000000000000000
310
000000000000000000DCBE0000000000000000000000000000000000000000000000000000000000000000000000000000000000000000000000000000000000000000000000000000000000000000000000000000000000000000000000000000000000000000000000000000000000000000000000000000000000000000
310
00000000000000000000000000000000000000000000000000000000000000000000000000000000000000000000000000000000000000000000000000000000000000000000000000000000000000000000000000000000000000000000000000000000000000000000000000000000000000000000000000000000000000
310
0000000000000000000000DCBE000000000000000000000000000000000000000000000000000000000000000000000000000000000000000000000000000000000000000000000000000000000000000000000000000000000000000000000000000000000000000000000000000000000000000000000000000000000000
310
00000000000000000000000000000000000000000000000000000000000000000000000000000000000000000000000000000000000000000000000000000000000000000000000000000000000000000000000000000000000000000000000000000000000000000000000000000000000000000000000000000000000000
310
00000000000000000000000000DCBE00000000000000000000000000000000000000000000000000000000000000000000000000000000000000000000000000000000000000000000000000000000000000000000000000000000000000000000000000000000000000000000000000000000000000000000000000000000
310
00000000000000000000000000000000000000000000000000000000000000000000000000000000000000000000000000000000000000000000000000000000000000000000000000000000000000000000000000000000000000000000000000000000000000000000000000000000000000000000000000000000000000
310
000000000000000000000000000000DCBE0000000000000000000000000000000000000000000000000000000000000000000000000000000000000000000000000000000000000000000000000000000000000000000000000000000000000000000000000000000000000000000000000000000000000000000000000000
310
00000000000000000000000000000000000000000000000000000000000000000000000000000000000000000000000000000000000000000000000000000000000000000000000000000000000000000000000000000000000000000000000000000000000000000000000000000000000000000000000000000000000000
310
0000000000000000000000000000000000DCBE000000000000000000000000000000000000000000000000000000000000000000000000000000000000000000000000000000000000000000000000000000000000000000000000000000000000000000000000000000000000000000000000000000000000000000000000
310
00000000000000000000000000000000000000000000000000000000000000000000000000000000000000000000000000000000000000000000000000000000000000000000000000000000000000000000000000000000000000000000000000000000000000000000000000000000000000000000000000000000000000
310
00000000000000000000000000000000000000DCBE00000000000000000000000000000000000000000000000000000000000000000000000000000000000000000000000000000000000000000000000000000000000000000000000000000000000000000000000000000000000000000000000000000000000000000000
310
00000000000000000000000000000000000000000000000000000000000000000000000000000000000000000000000000000000000000000000000000000000000000000000000000000000000000000000000000000000000000000000000000000000000000000000000000000000000000000000000000000000000000
310
000000000000000000000000000000000000000000DCBE0000000000000000000000000000000000000000000000000000000000000000000000000000000000000000000000000000000000000000000000000000000000000000000000000000000000000000000000000000000000000000000000000000000000000000
310
00000000000000000000000000000000000000000000000000000000000000000000000000000000000000000000000000000000000000000000000000000000000000000000000000000000000000000000000000000000000000000000000000000000000000000000000000000000000000000000000000000000000000
310
0000000000000000000000DCDCDCDCDCDCDCDCDCDCDCDCDCBE000000000000000000000000000000000000000000000000000000000000000000000000000000000000000000000000000000000000000000000000000000000000000000000000000000000000000000000000000000000000000000000000000000000000
310
00000000000000000000000000000000000000000000000000000000000000000000000000000000000000000000000000000000000000000000000000000000000000000000000000000000000000000000000000000000000000000000000000000000000000000000000000000000000000000000000000000000000000
310
00000000000000000000000000BEBEBEBEBEBEBEBEBEBEBEBEBEBEBEBEBEBEBEBEBEBEBEBEBEBEBEBEBEBEBEBEBEBEBEBEBEBEBEBEBEBEBEBEBEBEBEBEBEBEBEBEBEBEBEBEBEBEBEBEBEBEBEBEBEBEBEBEBEBEBEBEBEBEBEBEBEBEBEBEBEBEBEBEBEBEBEBEBEBEBEBEBEBEBEBEBEBEBEBEBEBEBEBEBEBEBEBEBEBEBEBEBEBE
310
BEBEBEBEBEBEBEBEBEBEBEBEBEBEBEBEBEBEBEBEBEBEBEBEBEBEBEBEBEBEBEBEBEBEBEBEBEBEBEBEBEBEBEBEBEBEBEBEBEBEBEBEBEBEBEBEBEBEBEBEBEBEBEBEBEBEBEBEBEBEBEBEBEBEBEBEBEBEBEBEBEBEBEBEBEBEBEBEBEBEBEBEBEBEBEBEBEBEBEBEBE0000000000000000000000000000000000000000000000000000
310
00000000000000000000000000000000000000000000000000000000BEDCDCDCDCDCDCDCDCDCDCDCDCDCDCDCF5F5F5DCF5F5F5DCDCDCBEBEBEBEDCDCDCDCDCDCDCDCDCDCBEBEBEDCDCBE0000000000000000000000000000000000000000000000000000000000000000000000000000000000000000000000000000000000
310
000000000000000000000000000000000000000000000000BE0000000000000000000000000000000000000000000000000000000000000000000000000000000000000000000000000000000000000000000000000000000000000000000000000000000000BE000000000000000000000000000000000000000000000000
310
000000000000000000000000000000000000000000000000000000000000BEDC0000000000000000000000000000DCDCDCDCDCDCDCDCDCBEBEBEBEBEDCF5F5F5DCF5F5F5F5DCF5F5F5F5DCBE000000000000DCDCDCDCDCDCDCDCDCDCDCDCDCDCDCDCDCDCDCDCDCDCDCDCDCDCDCDCDCDCDCBEDCDCDCDCDCDCDCDCDCDCDCDCDC
310
DCDCDCDCDCDCDCDCDCDCDCDCDCDCDCDCDCDCDCDCDCDCDCDCDC00BE000000000000DCDCDCDCDCDCDCDCDCDCDCDCDCDCDCDCDCDCDCDCDCDCDCDCDCDCDCDCDCDCDCBEDCDCDCDCDCDCDCDCDCDCDCDCDCDCDCDCDCDCDCDCDCDCDCDCDCDCDCDCDCDCDCDCDCDCDCDCDCDC00BE00000000000000000000000000000000000000000000
310
0000000000000000000000000000000000000000000000000000000000000000BEDC0000000000000000000000000000DCDCDCDCDCDCDCDCF5F5F5F5F5F5DC00000000000000000000000000DCBE000000000000DCF5F5F5F500000000DCF5F5F5F5F500000000DC0000000000BEBEBEBEBEBEBEBE0000DC00000000000000
310
000000DC000000000000000000000000BEBEBEBEBEBEBE000000DC00BE000000000000DCF5F5F5F5F500000000F5F5F5F5F5F5000000DC0000000000BEBEBEBEBEBEBEBEBE0000DC00000000000000000000DC0000000000000000000000DCBEBEBEBEBEBEBE0000DC00BE0000000000000000000000000000000000000000
310
00000000000000000000000000000000000000000000000000000000000000000000BEDC0000000000000000000000000000DCDCDCDCDCDCDCDCF5F5F5F5F5F5DCBEBEBEBEBEBEBEBEBEBEBEBEBEDCBE000000000000DCF5F5F5F5DCDCDCDCDCF5F5F5F5F5DCDCDCDCDC00BEBEBEBEBEBEBEBEBEBEBEBE0000DC0000000000
310
0000000000DC000000000000000000000000BEBEBEBEBEBEBEF50000DC00BE000000000000DCF5F5F5F5F5DCDCDCDCF5F5F5F5F5F5DCDCDCDC00BEBEBEBEBEBEBEBEBEBEBEBEBE0000DC00000000000000000000DC0000000000000000000000DCBEBEBEBEBEBEBE0000DC00BE000000000000000000000000000000000000
310
000000000000000000000000000000000000000000000000000000000000000000000000BEDC0000000000000000000000000000F5F5F5F5DCF5F5F5DCF5F5F5BEBEBEBEBEF5F5F5BEBEDCDCDCDCBEDCDCBE000000000000DC0000DC000000000000DC00000000DC000000DC00BEBEBEBEBEBEBEBEBEBEBEBE0000DCF5F5F5
310
F5F5F5F5F50000DCF5F5F5F5F5F5F5F5F5F50000F5F5F5F5F5F5F5F50000DC00BE000000000000DC0000DC00000000000000DC000000DC000000DC0000BEBEBEBEBEBEBEBEBEBEBEBE0000F5F5F5F5F5F5F5F5000000F5F5F5F5F5F5F5F5F5F50000DCF5F5F5F5F5F5F50000DC00BE00000000000000000000000000000000
310
0000000000000000000000000000000000000000000000000000000000000000000000000000BEDC0000000000000000000000000000DC00000000000000DCDCDCBEBEBEBEBEBEF5F5DCBEBEF5F5DCF5BEBEDCBE000000000000DCDCDCDCDCDCDCDCDCDCDCDCDCDCDCDCDCDCDCDC000000BEBEBEBEBEBEBEBEBEBE0000DCDC
310
DCDCDCDCDCDCDCDCDCDCDCDCDCDCDCDCDCDCDCDCDCDCDCDCDCDCDCDCDCDCDCDCDC00BE000000000000DCDCDCDCDCDCDCDCDCDCDCDCDCDCDCDCDCDCDCDC00000000BEBEBEBEBEBEBEBEBEBE0000DCDCDCDCDCDCDCDCDCDCDCDCDCDCDCDCDCDCDCDCDCDCDCDCDCDCDCDCDCDCDCDCDCDC00BE0000000000000000000000000000
310
00000000000000000000000000000000000000000000000000000000000000000000000000000000BEDC0000000000000000000000000000DC00000000000000F5F5F5DCBEBEDC00BEBEBEDCF5BEBEF5DCF5BEBEDCBE000000000000DC0000DC000000000000DC00000000DC000000DC000000BEBEBEBEBEBEBEBEBEBE0000
310
DC000000000000000000000000000000000000000000000000000000000000000000DC00BE000000000000DC0000DC00000000000000DC000000DC000000DC000000BEBEBEBEBEBEBEBEBEBEBE0000DC0000000000000000000000000000000000000000000000000000000000000000DC00BE000000000000000000000000
310
000000000000000000000000000000000000000000000000000000000000000000000000000000000000BEDC00000000000000000000BE2DF52DDCDCBEDCDCDCDCDCDCDCDCDCDCDCDCDCDCDCDCDCDCDCDCDCDCDCDCDCDCBE000000000000DCDCDCDCDCDCDCDCDCDCDCDCDCDCDCDCDCDCDCF5F5F5DCDCDCDCDCDCDCDCDCDCDC
310
DCDCDC000000000000000000000000000000000000000000000000000000000000000000DC00BE000000000000DCDCDCDCDCDCDCDCDCDCDCDCDCDCDCDCDCDCDCF5F5F5F5DCDCDCDCDCDCDCDCDCDCDCDCDCDC0000000000000000000000000000000000000000000000000000000000000000DC00BE00000000000000000000
310
0000000000000000000000000000000000000000000000000000000000000000000000000000000000000000BEDC00000000000000000000F5F5BEBE0000BEBE000000000000000000000000000000000000000000000000DCBE000000000000DC0000DC000000000000DC00000000DC000000F5F5F5DC00000000DC000000
310
00000000DC000000000000000000000000000000BE0000000000000000000000000000000000DC00BE000000000000DC0000DC00000000000000DC000000DC000000F5F5F5F500000000DC0000000000000000DC0000000000000000000000000000BEBE00000000000000000000000000000000DC00BE0000000000000000
310
00000000000000000000000000000000000000000000000000000000000000000000000000000000000000000000BEDC00000000000000000000002DF52DF5F5BEF5F5F52DF50000000000000000000000000000000000000000DCBE000000000000DCDCDCDCDCDCDCDCDCDCDCDCDCDCDCDCDCDCDCF5F5F5BEBEBEBEBEBEBE
310
BEBEBEBEDCDCDCBEBEBEBEBEBEBEBEBEBEBEBEBEBEBEBE00BEBEBE00BEBEBEBEBEBEBE0000000000DC00BE000000000000DCDCDCDCDCDCDCDCDCDCDCDCDCDCDCDCDCDCDCDCF5F5DCBEBEBEBEBEBEBEBEBEBEDCDCDCBEBEBEBEBEBEBEBEBEBEBEBEBEBEBEBEBE00BEBEBE00BEBEBEBEBEBEBE00000000DC00BE000000000000
310
000000000000000000000000000000000000000000000000000000000000000000000000000000000000000000000000BEDC00000000000000000000002D2D2D2D2DBEBE2D2D2DF50000000000000000000000000000000000000000DCBE000000000000DC0000DC000000000000DC00000000DC000000F5F5F5BEBEBEBEBE
310
BEBEBEBEBEBE0000DCBEBEBEBEBEBEBEBEBEBEBEBEBEBEBEBE00BEBEBE00BEBEBEBE00BEBE0000000000DC00BE000000000000DC0000DC00000000000000DC000000DC000000DCF5F5DCBEBEBEBEBEBEBEBEBEBE000000BEBEBEBEBEBEBEBEBEBEBEBEBEBEBEBEBEBEBEBEBEBEBEBEBE0000BEBE00000000DC00BE00000000
310
0000000000000000000000000000000000000000000000000000000000000000000000000000000000000000000000000000BEDC00000000000000000000F52D2D2D2DBEBE2D2D2D2D2D0000000000000000000000000000000000000000DCBE000000000000DCF5F5F5F5F5F5F5F5DCDCF5F5F5F5DCF5F5F5DCDCDCF5F5F5
310
F5F5F5F5F5F5F5F5DCDCDCF5F5F5F5F5F5F5F5F5F5F5F5000000000000000000000000000000000000000000DC00BE000000000000DCF5F5F5F5F5F5F5F5DCDCF5F5F5F5DCF5F5F5F5DCDCDCF5F5F5F5F5F5F5F5F5F5DCDCDCF5F5F5F5F5F5F5F5F5F5F5F5000000000000000000000000000000000000000000DC00BE0000
310
00000000000000000000000000000000000000000000000000000000000000000000000000000000000000000000000000000000BEDC000000000000000000002D00002D00BEBE000000002D0000000000000000000000000000000000000000DCBE000000000000DCF5F5DCF5F5F5F5F5DCDCF5F5F5F5DCF5F5F5DCDCDCF5
310
F5F5F5F5F5F5F5F5F5F5DCDCDCF5F5F5F5F5F5F5F5DCF5F5F5DCDCDCDCDCDCDCDCDCDCDCDCDCDCDCDCDCDCDCDCDCDC00BE000000000000DCF5F5F5F5F5F5F5F5DCDCDCF5F5F5F5F5F5F5F5DCDCDCF5F5F5F5F5F5F5F5F5F5DCDCDCDCF5F5F5F5F5F5F5F5F5F5F5F5DCDCDCDCDCDCDCDCDCDCDCDCDCDCDCDCDCDCDCDCDC00BE
310
000000000000000000000000000000000000000000000000000000000000000000000000000000000000000000000000000000000000BEDC0000000000000000F52DF5DCDCF5DCDC00000000002D0000000000000000000000000000000000000000DCBE000000000000DC000000000000000000000000000000000000DC00
310
000000000000DCBEBEBEBEBEBEBEDC000000000000000000000000DC0000000000000000000000DC0000000000000000DC00BE000000000000DC000000000000000000000000000000000000DC00000000000000DC00BEBEBEBEBEBEBEDC0000000000000000000000DC000000000000000000000000DC00000000000000DC
310
00BE000000000000000000000000000000000000000000000000000000000000000000000000000000000000000000000000000000000000BEDC00000000000000002D00DC0000DCDCDCDC00BEBE002D0000000000000000000000000000000000000000DCBE000000000000DC000000000000000000000000000000000000
310
DCDCDCDCDCDCDCDCBEBEBEBEBEBEBEBEBEF5F5F5F5F5F5F5F5F5F50000F5F5F5F5F5F5F5F5F5F50000DC00F5F5F5F5F5F5F5DC00BE000000000000DC000000000000000000000000000000000000DCDCDCDCDCDCDCDCDCBEBEBEBEBEBEBEBEBEF5F5F5F5F5F5F5F5F50000DCF5F5F5F5F5F5F5F5F5F50000DCF5F5F5F5F5F5
310
F5F500BE000000000000000000000000000000000000000000000000000000000000000000000000000000000000000000000000000000000000BEDC00000000000000002D00DC0000BE0000DC00BEBE002D0000000000000000000000000000000000000000DCBE000000000000DC00000000000000000000000000000000
310
0000DC00000000000000BEBEBEBEBEBEBEDCBEF5F5F5F5F5F5F5F5F5F5DCDCDCF5F5F5F5F5F5F5F5F5F5DCDCDCF5F5F5F5F5F5F5DC00BE000000000000DC000000000000000000000000000000000000DC00000000000000DCBEBEDCBEBEBEBEBEBEF5F5F5F5F5F5F5F5F5DCDCDCF5F5F5F5F5F5F5F5F5F5DCDCDCF5F5F5F5
310
F5F5F5F500BE000000000000000000000000000000000000000000000000000000000000000000000000000000000000000000000000000000000000BEDC00000000000000002D00F50000BE0000DCDCBEF5DCF50000000000000000000000000000000000000000DCBE000000000000DC0000000000000000000000000000
310
00000000DCDCDCDCDCDCDCDCDCDCDCDCDCDCDCDCDC000000BEBEBEBEBEBE000000DC0000000000000000000000DC000000BEBEBEBEBEDC00BE000000000000DC000000000000000000000000000000000000DCDCDCDCDCDCDCDCDCDCDCDCDCDCDCDCDCDC0000BEBEBEBEBEBE000000DC000000000000000000000000DC0000
310
00BE00BEBEDC00BE000000000000000000000000000000000000000000000000000000000000000000000000000000000000000000000000000000000000BEDC00000000000000002D002DDCF5F5F5282D2DF5F5DCDC000000F5F52DF5F5F50000000000000000000000DCBE000000000000DC000000000000000000000000
310
000000000000DCF5F5F5F5F5F5F5DC0000BEBEBE0000DC000000BEF5BEBEBEBE000000DC0000F5F5F5F5F5F5F50000DC0000F5BEBEBEBEBEDC00BE000000000000DC000000000000000000000000000000000000DCF5F5F5F5F5F5F5DC0000BEBEBEBE0000DC0000BEF5BEBEBEBE000000DC0000F5F5F5F5F5F5F5000000DC
310
00F5BEBEBEBEBEDC00BE000000000000000000000000000000000000000000000000000000000000000000000000000000000000000000000000000000000000BEDC0000000000000000BEBE2D2DF5BE2D2D2D2D2D2DDC000000002DF5BE2D00000000000000000000000000DCBE000000000000DCDCDCDCDCDCDCDCDCDCDC
310
DCDCDCDCDCDCDCDCDCF5F5F5DCF5DCDCDCDCDCF5F5F5DCDCDCDCDCDCF5F5DCF5F5DCDCDCDCDCDCDCF5F5F5F5F5F5F5DCDCDCDCDCF5F5F5F5F5DCDC00BE000000000000DCDCDCDCDCDCDCDCDCDCDCDCDCDCDCDCDCDCDCDCDCF5F5DCF5DCDCDCDCDCF5F5F5F5DCDCDCDCDCF5F5F5F5F5F5DCDCDCDCDCDCF5F5F5F5F5F5F5DCDC
310
DCDCDCF5F5F5F5F5F5DC00BE000000000000000000000000000000000000000000000000000000000000000000000000000000000000000000000000000000000000BEDC0000000000000000BE0000DCF5BE2D2DBEBE2D2D2DF50000BEBEBEBEBE00000000000000000000000000DCBE000000000000DC0000000000000000
310
000000000000000000000000000000000000000000000000000000000000000000000000000000000000000000000000000000000000000000000000DC00BE000000000000DC000000000000000000000000000000000000000000000000000000000000000000000000000000000000000000000000000000000000000000
310
0000000000000000000000DC00BE000000000000000000000000000000000000000000000000000000000000000000000000000000000000000000000000000000000000BEDC0000000000000000BEBE2DF5F52D2DBEBEBE2D2D2D2D0000BEBEF5002D00002D00000000000000000000DCBE000000000000DC000000000000
310
0000000000000000000000000000000000000000000000000000000000000000000000000000000000000000000000000000000000000000000000000000DC00BE000000000000DC00000000000000000000000000000000000000000000000000000000000000000000000000000000000000000000000000000000000000
310
00000000000000000000000000DC00BE000000000000000000000000000000000000000000000000000000000000000000000000000000000000000000000000000000000000BEDC00000000000000002D00DCDCDCF5F52828282DF5282D0000002DF52D2DF5F5F500000000000000000000DCBE000000000000DC00000000
310
00000000000000000000000000000000000000000000000000000000000000000000000000000000000000000000000000000000000000000000000000000000DC00BE000000000000DC0000000000000000000000000000000000000000000000000000000000000000000000000000000000000000000000000000000000
310
000000000000000000000000000000DC00BE000000000000000000000000000000000000000000000000000000000000000000000000000000000000000000000000000000000000BEDC00000000000000002D00DC00002D0000DCDCF5F5DCF50000002DF52DBE2DF52D00000000000000000000DCBE000000000000DC0000
310
000000000000000000000000000000000000000000000000000000000000000000000000000000000000000000000000000000000000000000000000000000000000DC00BE000000000000DC000000000000000000000000000000000000000000000000000000000000000000000000000000000000000000000000000000
310
0000000000000000000000000000000000DC00BE000000000000000000000000000000000000000000000000000000000000000000000000000000000000000000000000000000000000BEDC00000000000000002D00DC0000BE0000DC002D2D0000000000000000BE0000BE00000000000000000000DCBE000000000000DC
310
0000000000000000000000000000000000000000000000000000000000000000000000000000000000000000000000000000000000000000000000000000000000000000DC00BE000000000000DC00000000000000000000000000000000000000000000000000000000000000000000000000000000000000000000000000
310
00000000000000000000000000000000000000DC00BE000000000000000000000000000000000000000000000000000000000000000000000000000000000000000000000000000000000000BEDC00000000000000002D00DC0000DCDC00DC00BE0000000000000000000000000000000000000000000000DCBE0000000000
310
00DC0000000000000000000000000000000000000000000000000000000000000000000000000000000000000000000000000000000000000000000000000000000000000000DC00BE000000000000DC0000000000000000000000000000000000000000000000000000000000000000000000000000000000000000000000
310
000000000000000000000000000000000000000000DC00BE000000000000000000000000000000000000000000000000000000000000000000000000000000000000000000000000000000000000BEDC00000000000000002D00DCDCDCDCDCDCDC00000000000000000000000000000000000000000000000000DCBE000000
310
000000DC0000000000000000000000BEF5BEBEBEBEBEBEF5BE0000000000000000000000000000000000000000000000000000000000000000000000000000000000000000000000DC00BE000000000000DC0000000000000000000000BEBEBEBEBEBEBEBEBEBE000000000000000000000000000000000000000000000000
310
0000000000000000000000000000000000000000000000DC00BE000000000000000000000000000000000000000000000000000000000000000000000000000000000000000000000000000000000000BEDC00000000000000002D2DDCDCDCF500000000000000000000000000000000000000000000000000000000DCBE00
310
0000000000DC000000000000000000000000F5000000000000F500000000000000000000000000000000000000000000000000000000000000000000F5F5F5F500000000000000000000DC00BE000000000000DC000000000000000000000000F500000000000000F500000000000000000000000000000000000000000000
310
000000000000000000000000F5F5F500000000000000000000DC00BE000000000000000000000000000000000000000000000000000000000000000000000000000000000000000000000000000000000000BEDC00000000000000000000000000BE00000000000000000000000000000000000000000000000000000000DC
310
BE000000000000DC000000000000000000000000F5000000000000F500000000000000000000000000000000000000000000000000000000000000000000F50000F500000000000000000000DC00BE000000000000DC000000000000000000000000F500000000000000F50000000000000000000000000000000000000000
310
0000000000000000000000000000F500F500000000000000000000DC00BE000000000000000000000000000000000000000000000000000000000000000000000000000000000000000000000000000000000000BEDC0000000000000000000000000000000000000000000000000000000000000000000000000000000000
310
00DCBE000000000000DC000000000000000000000000F5000000000000F500000000000000000000000000000000000000000000000000000000000000000000F50000F500000000000000000000DC00BE000000000000DC000000000000000000000000F500000000000000F5000000000000000000000000000000000000
310
00000000000000000000000000000000F500F500000000000000000000DC00BE000000000000000000000000000000000000000000000000000000000000000000000000000000000000000000000000000000000000BEDCDCDCDCDCDCDCDCDCDCDCDCDCDCDCDCDCDCDCDCDCDCDCDCDCDCDCDCDCDCDCDCDCDCDCDCDCDCDCDC
310
DCDCDCDCBE000000000000DC000000000000000000000000F5000000000000F500000000000000000000000000000000000000000000000000000000000000000000F50000F500000000000000000000DC00BE000000000000DC000000000000000000000000F500000000000000F500000000000000000000000000000000
310
000000000000000000000000000000000000F500F500000000000000000000DC00BE000000000000000000000000000000000000000000000000000000000000000000000000000000000000000000000000000000000000BEBEBEBEBEBEBEBEBEBEBEBEBEBEBEBEBEBEBEBEBEBEBEBEBEBEBEBEBEBEBEBEBEBEBEBEBEBEBE
310
BEBEBEBEBEBEBE000000000000DC000000000000000000000000F5000000000000F500000000000000000000000000000000000000000000000000000000000000000000F50000F500000000000000000000DC00BE000000000000DC000000000000000000000000F500000000000000F50000000000000000000000000000
310
0000000000000000000000000000000000000000F500F500000000000000000000DC00BE00000000000000000000000000000000000000000000000000000000000000000000000000000000000000000000000000000000000000000000000000000000000000000000000000000000000000000000000000000000000000
310
0000000000000000BE000000000000DC000000000000000000000000F5000000000000F500000000000000000000000000000000000000000000000000000000000000000000F50000F500000000000000000000DC00BE000000000000DC000000000000000000000000F500000000000000F5000000000000000000000000
310
00000000000000000000000000000000000000000000F500F500000000000000000000DC00BE0000000000000000000000000000000000000000000000000000000000000000000000000000000000000000000000000000000000000000000000000000000000000000000000000000000000000000000000000000000000
310
00000000000000000000BE000000000000DC000000000000000000000000F5000000000000F500000000000000000000000000000000000000000000000000000000000000000000F50000F500000000000000000000DC00BE000000000000DC000000000000000000000000F500000000000000F500000000000000000000
310
000000000000000000000000000000000000000000000000F500F500000000000000000000DC00BE000000000000000000000000000000000000000000000000000000000000000000000000000000000000000000000000000000000000000000000000000000000000000000000000000000000000000000000000000000
310
000000000000000000000000BE000000000000DC000000000000000000000000F5000000000000F500000000000000000000000000000000000000000000000000000000000000000000F50000F500000000000000000000DC00BE000000000000DC000000000000000000000000F500000000000000F50000000000000000
310
0000000000000000000000000000000000000000000000000000F500F500000000000000000000DC00BE00000000000000000000000000000000000000000000000000000000000000000000000000000000000000000000000000000000000000000000000000000000000000000000000000000000000000000000000000
310
0000000000000000000000000000BE000000000000DC000000000000000000000000F5000000000000F500000000000000000000000000000000000000000000000000000000000000000000F50000F500000000000000000000DC00BE000000000000DC000000000000000000000000F500000000000000F5000000000000
310
00000000000000000000000000000000000000000000000000000000F500F500000000000000000000DC00BE0000000000000000000000000000000000000000000000000000000000000000000000000000000000000000000000000000000000000000000000000000000000000000000000000000000000000000000000
310
00000000000000000000000000000000BE000000000000DC000000000000000000000000F5000000000000F500000000000000000000000000000000000000000000000000000000000000000000F50000F500000000000000000000DC00BE000000000000DC000000000000000000000000F500000000000000F500000000
310
000000000000000000000000000000000000000000000000000000000000F500F500000000000000000000DC00BE000000000000000000000000000000000000000000000000000000000000000000000000000000000000000000000000000000000000000000000000000000000000000000000000000000000000000000
310
000000000000000000000000000000000000BE000000000000DC000000000000000000000000F5000000000000F500000000000000000000000000000000000000000000000000000000000000000000F50000F500000000000000000000DC00BE000000000000DC000000000000000000000000F500000000000000F50000
310
0000000000000000000000000000000000000000000000000000000000000000F500F500000000000000000000DC00BE00000000000000000000000000000000000000000000000000000000000000000000000000000000000000000000000000000000000000000000000000000000000000000000000000000000000000
310
0000000000000000000000000000000000000000BE000000000000DC000000000000000000000000F5000000000000F500000000000000000000000000000000000000000000000000000000000000000000F50000F500000000000000000000DC00BE000000000000DC000000000000000000000000F500000000000000F5
310
00000000000000000000000000000000000000000000000000000000000000000000F500F500000000000000000000DC00BE0000000000000000000000000000000000000000000000000000000000000000000000000000000000000000000000000000000000000000000000000000000000000000000000000000000000
310
00000000000000000000000000000000000000000000BE000000000000DC000000000000000000000000F5000000000000F5F5F5F5F5F5F5F5F5F5F5F5F5F5F5F5F5F5F5F5F5F5F5F5F5F5F5F5F5F5F5F5F5F5F5F50000F500000000000000000000DC00BE000000000000DC000000000000000000000000F5000000000000
310
00F5F5F5F5F5F5F5F5F5F5F5F5F5F5F5F5F5F5F5F5F5F5F5F5F5F5F5F5F5F5F5F5F5F5F5F500F500000000000000000000DC00BE000000000000000000000000000000000000000000000000000000000000000000000000000000000000000000000000000000000000000000000000000000000000000000000000000000
310
000000000000000000000000000000000000000000000000BE000000000000DC000000000000000000000000F5000000000000F500000000000000000000000000000000000000000000000000000000000000000000000000F500000000000000000000DC00BE000000000000DC000000000000000000000000F500000000
310
000000F5000000000000000000000000000000000000000000000000000000000000000000000000F500000000000000000000DC00BE00000000000000000000000000000000000000000000000000000000000000000000000000000000000000000000000000000000000000000000000000000000000000000000000000
310
0000000000000000000000000000000000000000000000000000BE000000000000DC000000000000000000000000F5000000000000F500000000000000000000000000000000000000000000000000000000000000000000000000F500000000000000000000DC00BE000000000000DC000000000000000000000000F50000
310
0000000000F5000000000000000000000000000000000000000000000000000000000000000000000000F500000000000000000000DC00BE0000000000000000000000000000000000000000000000000000000000000000000000000000000000000000000000000000000000000000000000000000000000000000000000
310
00000000000000000000000000000000000000000000000000000000BE000000000000DC000000000000000000000000F5000000000000F5F5F5F5F5F5F5F5F5F5F5F5F5F5F5F5F5F5F5F5F5F5F5F5F5F5F5F5F5F5F5F5F5F5F5F5F5F50000000000000000000000DC00BE000000000000DC000000000000000000000000F5
310
00000000000000F5F5F5F5F5F5F5F5F5F5BEF5F52D2D2D2D2D2D2D2D2D2D2D2D2DF5F5F5F5F5F5F5F5F5F5F50000000000000000000000DC00BE000000000000000000000000000000000000000000000000000000000000000000000000000000000000000000000000000000000000000000000000000000000000000000
310
000000000000000000000000000000000000000000000000000000000000BE000000000000DC000000000000000000000000F5000000000000F5000000000000000000000000000000000000000000000000002D00000000000000000000000000000000000000000000DC00BE000000000000DC0000000000000000000000
310
00F500000000000000F5000000000000000000BEBE000000000000000000000000002D2D000000000000000000000000000000000000000000DC00BE00000000000000000000000000000000000000000000000000000000000000000000000000000000000000000000000000000000000000000000000000000000000000
310
0000000000000000000000000000000000000000000000000000000000000000BE000000000000DC000000000000000000000000F5000000000000F50000000000000000000000000000000000000000000000BEBE2D00000000000000000000000000000000000000000000DC00BE000000000000DC000000000000000000
310
000000F500000000000000F500000000F5F5F50000BEBE00000000000000000000000000002D000000000000000000000000000000000000000000DC00BE0000000000000000000000000000000000000000000000000000000000000000000000000000000000000000000000000000000000000000000000000000000000
310
00000000000000000000000000000000000000000000000000000000000000000000BE000000000000DC000000000000000000000000F5000000000000F50000000000000000000000000000000000000000000000BEBE2D00000000000000000000000000000000000000000000DC00BE000000000000DC00000000000000
310
0000000000F500000000000000F500000000F50000BEBE2828BE2800000000000000000000BEBE2D000000000000000000000000000000000000000000DC00BE000000000000000000000000000000000000000000000000000000000000000000000000000000000000000000000000000000000000000000000000000000
310
000000000000000000000000000000000000000000000000000000000000000000000000BE000000000000DC000000000000000000000000F5000000000000F50000000000000000000000000000000000000000000000BEBE2D00000000000000000000000000000000000000000000DC00BE000000000000DC0000000000
310
00000000000000F500000000000000F500000000282800BEBE0000002828000000000000000000BEBE2D000000000000000000000000000000000000000000DC00BE00000000000000000000000000000000000000000000000000000000000000000000000000000000000000000000000000000000000000000000000000
310
0000000000000000000000000000000000000000000000000000000000000000000000000000BE000000000000DC000000000000000000000000F5000000000000F50000000000000000000000000000000000000000000000BEBE2D00000000000000000000000000000000000000000000DC00BE000000000000DC000000
310
000000000000000000F500000000000000F500000028280000BEBE28282828000000000000000000BEBEBE2D000000000000000000000000000000000000000000DC00BE0000000000000000000000000000000000000000000000000000000000000000000000000000000000000000000000000000000000000000000000
310
00000000000000000000000000000000000000000000000000000000000000000000000000000000BE000000000000DC000000000000000000000000F50000000000002D00000000000000000000002D000000000000000000000000BE2D00000000000000000000000000000000000000000000DC00BE000000000000DC00
310
0000000000000000000000F500000000000000F500000028280000BEBE00002D2800000000000000000000BEBE2D000000000000000000000000000000000000000000DC00BE000000000000000000000000000000000000000000000000000000000000000000000000000000000000000000000000000000000000000000
310
000000000000000000000000000000000000000000000000000000000000000000000000000000000000BE000000000000DC000000000000000000000000F5000000000000F52D2D2D2D2D2D2D2D2D2D2D2D000000000000000000000000002D00000000000000000000000000000000000000000000DC00BE000000000000
310
DC000000000000000000000000F500000000000000F52D2D2D282D2D2D28282D2D2D2800000000000000000000BEBE2D000000000000000000000000000000000000000000DC00BE00000000000000000000000000000000000000000000000000000000000000000000000000000000000000000000000000000000000000
310
0000000000000000000000000000000000000000000000000000000000000000000000000000000000000000BE000000000000DC000000000000000000000000F50000000000002D2D2D00BEBEBEBEBE002D2D2D0000000000000000000000BEBE2D00000000000000000000000000000000000000000000DC00BE00000000
310
0000DC000000000000000000000000F500000000000000F52D000028F5BEF528282D2D2D280000000000000000000000002D000000000000000000000000000000000000000000DC00BE0000000000000000000000000000000000000000000000000000000000000000000000000000000000000000000000000000000000
310
00000000000000000000000000000000000000000000000000000000000000000000000000000000000000000000BE000000000000DC000000000000000000000000F50000000000002D000000BEBEBEBEBE0000002D0000000000000000000000BEBE2D00000000000000000000000000000000000000000000DC00BE0000
310
00000000DC000000000000000000000000F500000000000000F500000028F5F5F5280000002828000000000000000000BEBEBE2D000000000000000000000000000000000000000000DC00BE000000000000000000000000000000000000000000000000000000000000000000000000000000000000000000000000000000
310
000000000000000000000000000000000000000000000000000000000000000000000000000000000000000000000000BE000000000000DC000000000000000000000000F50000000000002D000000BE00BEBEBE0000002D0000000000000000000000BEBE2D00000000000000000000000000000000000000000000DC00BE
310
000000000000DC000000000000000000000000F500000000000000F500000028282828282828282828000000000000000000BEBEBE2D000000000000000000000000000000000000000000DC00BE00000000000000000000000000000000000000000000000000000000000000000000000000000000000000000000000000
310
0000000000000000000000000000000000000000000000000000000000000000000000000000000000000000000000000000BE000000000000DC000000000000000000000000F50000000000002D00000000000000000000002D0000000000000000000000BEBE2D00000000000000000000000000000000000000000000DC
310
00BE000000000000DC000000000000000000000000F500000000000000F500002828282800282828282800000000000000000000BEBEBE2D000000000000000000000000000000000000000000DC00BE0000000000000000000000000000000000000000000000000000000000000000000000000000000000000000000000
310
00000000000000000000000000000000000000000000000000000000000000000000000000000000000000000000000000000000BE000000000000DC000000000000000000000000F50000000000002D000000000000002D0000002D0000000000000000000000BEBE2D000000000000000000000000000000000000000000
310
00DC00BE000000000000DC000000000000000000000000F500000000000000F50000F5F528002D000000002800000000000000000000BEBEBE2D000000000000000000000000000000000000000000DC00BE000000000000000000000000000000000000000000000000000000000000000000000000000000000000000000
310
000000000000000000000000000000000000000000000000000000000000000000000000000000000000000000000000000000000000BE000000000000DC000000000000000000000000F50000000000002D2D2D2D2D2D2D2DF50000002D0000000000000000000000BEBE2D00000000000000000000000000000000000000
310
000000DC00BE000000000000DC000000000000000000000000F500000000000000F52D2DF5F5282DF5000000002800000000000000000000BEBEBE2D000000000000000000000000000000000000000000DC00BE00000000000000000000000000000000000000000000000000000000000000000000000000000000000000
310
0000000000000000000000000000000000000000000000000000000000000000000000000000000000000000000000000000000000000000BE000000000000DC000000000000000000000000F50000000000002D00BEBEBEBEBE002D0000002D000000000000000000000000002D0000000000000000000000000000000000
310
0000000000DC00BE000000000000DC000000000000000000000000F500000000000000F5BEBEBEBE28BE2D000000002800000000000000000000BEBEBE2D000000000000000000000000000000000000000000DC00BE0000000000000000000000000000000000000000000000000000000000000000000000000000000000
310
00000000000000000000000000000000000000000000000000000000000000000000000000000000000000000000000000000000000000000000BE000000000000DC000000000000000000000000F50000000000002D00BEBEBE00BE002D0000002D0000000000000000000000BEBE2D000000000000000000000000000000
310
00000000000000DC00BE000000000000DC000000000000000000000000F500000000000000F5BEBEBEBE28002D00000000280000000000000000000000BEBE2D000000000000000000000000000000000000000000DC00BE000000000000000000000000000000000000000000000000000000000000000000000000000000
310
000000000000000000000000000000000000000000000000000000000000000000000000000000000000000000000000000000000000000000000000BE000000000000DC000000000000000000000000F50000000000002D00BE00BE00BE002D0000002D0000000000000000000000BEBE2D00000000000000000000000000
310
000000000000000000DC00BE000000000000DC000000000000000000000000F500000000000000F500BEBE2828002D00000028280000000000000000000000BEBE2D000000000000000000000000000000000000000000DC00BE00000000000000000000000000000000000000000000000000000000000000000000000000
310
0000000000000000000000000000000000000000000000000000000000000000000000000000000000000000000000000000000000000000000000000000BE000000000000DC000000000000000000000000F50000000000002D000000000000002D0000002D0000000000000000000000BEBE2D0000000000000000000000
310
0000000000000000000000DC00BE000000000000DC000000000000000000000000F500000000000000F50000002800002D000000282D0000000000000000000000BEBE2D000000000000000000000000000000000000000000DC00BE0000000000000000000000000000000000000000000000000000000000000000000000
310
00000000000000000000000000000000000000000000000000000000000000000000000000000000000000000000000000000000000000000000000000000000BE000000000000DC0000000000002DF52D2D2D2D2D2D2D2D2D2D2D2D2D2D2DF5BE00002D0000002D0000000000000000000000BEBE2D000000000000000000
310
00000000000000000000000000DC00BE000000000000DC0000000000002DF52D2D2D2DF52D2D2D2D2D2D2DF52D2DF52800002D000000282D000000000000000000000000002D000000000000000000000000000000000000000000DC00BE000000000000000000000000000000000000000000000000000000000000000000
310
000000000000000000000000000000000000000000000000000000000000000000000000000000000000000000000000000000000000000000000000000000000000BE000000000000DC0000000000002D2D00000000F50000000000002DF5F50000BEBE002D0000002D000000000000000000000000002D00000000000000
310
000000000000000000000000000000DC00BE000000000000DC000000000000002D00000000F500000000000000F5F5000028282828280000282D0000000000000000000000002D2D000000000000000000000000000000000000000000DC00BE00000000000000000000000000000000000000000000000000000000000000
310
0000000000000000000000000000000000000000000000000000000000000000000000000000000000000000000000000000000000000000000000000000000000000000BE000000000000DC000000000000002D00000000F50000000000002DF5F500BEBEBEBEF5BE00002D000000000000000000000000002D0000000000
310
0000000000000000000000000000000000DC00BE000000000000DC000000000000002D00000000F500000000000000F5F5000000002828282828282D000000000000000000000000002D000000000000000000000000000000000000000000DC00BE0000000000000000000000000000000000000000000000000000000000
310
00000000000000000000000000000000000000000000000000000000000000000000000000000000000000000000000000000000000000000000000000000000000000000000BE000000000000DC000000000000002D00000000F5000000000000F5F5F5F5BEBE282828280000F5F52D2D2D2D2D2D2D2D2D2D2D2D2D2D0000
310
00000000000000000000000000000000000000DC00BE000000000000DC000000000000002D00000000F500000000000000F52800000000000000000000F52D2D2D2D2D2D2D2D2D2D2D2D2D2D000000000000000000000000000000000000000000DC00BE000000000000000000000000000000000000000000000000000000
310
000000000000000000000000000000000000000000000000000000000000000000000000000000000000000000000000000000000000000000000000000000000000000000000000BE000000000000DC000000000000002D00000000F5000000000000F5282800BEBE282828280000F5F50000000000000000000000000000
310
000000000000000000000000000000000000000000DC00BE000000000000DC000000000000002D00000000F500000000000000F52800000000000000000000F50000000000000000000000000000000000000000000000000000000000000000000000DC00BE00000000000000000000000000000000000000000000000000
310
0000000000000000000000000000000000000000000000000000000000000000000000000000000000000000000000000000000000000000000000000000000000000000000000000000BE000000000000DC000000000000002D00000000F5000000000000F5F50000BEBE282828280000F5F5000000000000000000000000
310
0000000000000000000000000000000000000000000000DC00BE000000000000DC000000000000002D00000000F500000000000000F50000000000000000000000F50000000000000000000000000000000000000000000000000000000000000000000000DC00BE0000000000000000000000000000000000000000000000
310
00000000000000000000000000000000000000000000000000000000000000000000000000000000000000000000000000000000000000000000000000000000000000000000000000000000BE000000000000DC000000000000002D00000000F5000000000000F5F50000BEBE000000280000F5F500000000000000000000
310
00000000000000000000000000000000000000000000000000DC00BE000000000000DC000000000000002D00000000F500000000000000F50000000000000000000000F50000000000000000000000000000000000000000000000000000000000000000000000DC00BE000000000000000000000000000000000000000000
310
000000000000000000000000000000000000000000000000000000000000000000000000000000000000000000000000000000000000000000000000000000000000000000000000000000000000BE000000000000DC00000000BEBEBE2D00000000F5000000000000F5F50000F528000000280000F5F50000000000000000
310
000000000000000000000000000000000000000000000000000000DC00BE000000000000DC0000000000BEBE2D00000000F500000000000000F50000000000000000000000F50000000000000000000000000000000000000000000000000000000000000000000000DC00BE00000000000000000000000000000000000000
310
0000000000000000000000000000000000000000000000000000000000000000000000000000000000000000000000000000000000000000000000000000000000000000000000000000000000000000BE000000000000DC00000000BEBEBE2D00000000F5000000000000F5F50000F528000000280000F5F5000000000000
310
0000000000000000000000000000000000000000000000000000000000DC00BE000000000000DC0000000000BEBE2D00000000F500000000000000F50000000000000000000000F50000000000000000000000000000000000000000000000000000000000000000000000DC00BE0000000000000000000000000000000000
310
00000000000000000000000000000000000000000000000000000000000000000000000000000000000000000000000000000000000000000000000000000000000000000000000000000000000000000000BE000000000000DC00000000BE00BE2D00000000F5000000000000F5F5F5F52828282828280000F5F500000000
310
00000000000000000000000000000000000000000000000000000000000000DC00BE000000000000DC0000000000BEBE2D00000000F500000000000000F50000000000000000000000F50000000000000000000000000000000000000000000000000000000000000000000000DC00BE000000000000000000000000000000
310
000000000000000000000000000000000000000000000000000000000000000000000000000000000000000000000000000000000000000000000000000000000000000000000000000000000000000000000000BE000000000000DC00000000BEBE002D00000000F5000000000000F52828282828282828280000F5F50000
310
000000000000000000000000000000000000000000000000000000000000000000DC00BE000000000000DC0000000000BE002D00000000F500000000000000F5F500000000000000000000F50000000000000000000000000000000000000000000000000000000000000000000000DC00BE00000000000000000000000000
310
0000000000000000000000000000000000000000000000000000000000000000000000000000000000000000000000000000000000000000000000000000000000000000000000000000000000000000000000000000BE000000000000DC00000000BEBEBE2D00000000F5000000000000F52828000000000000280000F5F5
310
0000000000000000000000000000000000000000000000000000000000000000000000DC00BE000000000000DC0000000000BEBE2D00000000F500000000000000F5F500000000000000000000F50000000000000000000000000000000000000000000000000000000000000000000000DC00BE0000000000000000000000
310
00000000000000000000000000000000000000000000000000000000000000000000000000000000000000000000000000000000000000000000000000000000000000000000000000000000000000000000000000000000BE000000000000DC00000000BEBEBE2D00000000F5000000000000F5F528000000000000280000
310
F5F50000000000000000000000000000000000000000000000000000000000000000000000DC00BE000000000000DC0000000000BEBE2D00000000F500000000000000F5F500000000000000000000F50000000000000000000000000000000000000000000000000000000000000000000000DC00BE000000000000000000
310
000000000000000000000000000000000000000000000000000000000000000000000000000000000000000000000000000000000000000000000000000000000000000000000000000000000000000000000000000000000000BE000000000000DC000000000000002D00000000F5000000000000F5F52800000000000028
310
0000F5F50000000000000000000000000000000000000000000000000000000000000000000000DC00BE000000000000DC000000000000002D00000000F500000000000000F5F500000000000000000000F50000000000000000000000000000000000000000000000000000000000000000000000DC00BE00000000000000
310
0000000000000000000000000000000000000000000000000000000000000000000000000000000000000000000000000000000000000000000000000000000000000000000000000000000000000000000000000000000000000000BE000000000000DC000000000000002D00000000F5000000000000F5F5280000000000
310
00280000F5F50000000000000000000000000000000000000000000000000000000000000000000000DC00BE000000000000DC000000000000002D00000000F500000000000000F5F500000000000000000000F50000000000000000000000000000000000000000000000000000000000000000000000DC00BE0000000000
310
00000000000000000000000000000000000000000000000000000000000000000000000000000000000000000000000000000000000000000000000000000000000000000000000000000000000000000000000000000000000000000000BE000000000000DC000000000000002D00000000F5000000000000F50028000000
310
000000280000F5F50000000000000000000000000000000000000000000000000000000000000000000000DC00BE000000000000DC000000000000002D00000000F500000000000000F50000000000000000000000F50000000000000000000000000000000000000000000000000000000000000000000000DC00BE000000
310
000000000000000000000000000000000000000000000000000000000000000000000000000000000000000000000000000000000000000000000000000000000000000000000000000000000000000000000000000000000000000000000000BE000000000000DC000000000000002D00000000F5000000000000F5002800
310
0000000000280000F5F50000000000000000000000000000000000000000000000000000000000000000000000DC00BE000000000000DC000000000000002D00000000F500000000000000F50000000000000000000000F50000000000000000000000000000000000000000000000000000000000000000000000DC00BE00
310
0000000000000000000000000000000000000000000000000000000000000000000000000000000000000000000000000000000000000000000000000000000000000000000000000000000000000000000000000000000000000000000000000000BE000000000000DC000000000000002D00000000F5000000000000F500
310
28000000000000280000F5F50000000000000000000000000000000000000000000000000000000000000000000000DC00BE000000000000DC000000000000002D00000000F500000000000000F50000000000000000000000F50000000000000000000000000000000000000000000000000000000000000000000000DC00
310
BE000000000000000000000000000000000000000000000000000000000000000000000000000000000000000000000000000000000000000000000000000000000000000000000000000000000000000000000000000000000000000000000000000000BE000000000000DC0000000000002D2D00000000F5000000000000
310
F50028000000000000280000F5F50000000000000000000000000000000000000000000000000000000000000000000000DC00BE000000000000DC000000000000002D00000000F500000000000000F50000000000000000000000F50000000000000000000000000000000000000000000000000000000000000000000000
310
DC00BE000000000000000000000000000000000000000000000000000000000000000000000000000000000000000000000000000000000000000000000000000000000000000000000000000000000000000000000000000000000000000000000000000000BE000000000000DC000000000000002D00000000F500000000
310
0000F50028282828282828F50000F5F50000000000000000000000000000000000000000000000000000000000000000000000DC00BE000000000000DC000000000000002D00000000F500000000000000F50000000000000000F50000F5000000000000000000000000000000000000000000000000000000000000000000
310
0000DC00BE000000000000000000000000000000000000000000000000000000000000000000000000000000000000000000000000000000000000000000000000000000000000000000000000000000000000000000000000000000000000000000000000000000BE000000000000DC0000000000002D2D2D2D2D2D2D2D2D
310
2D2D2D2D2D2D2D2DF5282828282D00002DF50000000000000000000000000000000000000000000000000000000000000000000000DC00BE000000000000DC0000000000002D2D2D2D2D2DF52D2D2D2D2D2D2DF52D2DF500000000002D00002D00000000000000000000000000000000000000000000000000000000000000
310
00000000DC00BE000000000000000000000000000000000000000000000000000000000000000000000000000000000000000000000000000000000000000000000000000000000000000000000000000000000000000000000000000000000000000000000000000000BE000000000000DC000000000000000000000000F5
310
000000000000F500000000000000002D00002DF50000000000000000000000000000000000000000000000000000000000000000000000DC00BE000000000000DC000000000000000000000000F500000000000000F500000000000000002D00002D0000000000000000000000000000000000000000000000000000000000
310
000000000000DC00BE000000000000000000000000000000000000000000000000000000000000000000000000000000000000000000000000000000000000000000000000000000000000000000000000000000000000000000000000000000000000000000000000000000BE000000000000DC0000000000000000000000
310
00F5000000000000F500000000000000002D00002DF50000000000000000000000000000000000000000000000000000000000000000000000DC00BE000000000000DC000000000000000000000000F500000000000000F500000000000000002D00002D000000000000000000000000000000000000000000000000000000
310
0000000000000000DC00BE000000000000000000000000000000000000000000000000000000000000000000000000000000000000000000000000000000000000000000000000000000000000000000000000000000000000000000000000000000000000000000000000000000BE000000000000DC000000000000000000
310
000000F50000000000002D2D2D2D2D2D2D2D2DF52D2DF52D2D2D2D0000000000000000000000000000000000000000000000000000000000000000DC00BE000000000000DC000000000000000000000000F500000000000000F52D2D2D2D2D2D2D2DF52D2DF52D2D2D00000000000000000000000000000000000000000000
310
00000000000000000000DC00BE000000000000000000000000000000000000000000000000000000000000000000000000000000000000000000000000000000000000000000000000000000000000000000000000000000000000000000000000000000000000000000000000000000BE000000000000DC00000000000000
310
0000000000F50000000000002D2D2DBEBEBEBEBE2D2D00002D2D2DBEBE0000000000000000000000000000000000000000000000000000000000000000DC00BE000000000000DC000000000000000000000000F500000000000000F52DBEBEBEBEBE2D2D2D00002D2DBEBE0000000000000000000000000000000000000000
310
000000000000000000000000DC00BE000000000000000000000000000000000000000000000000000000000000000000000000000000000000000000000000000000000000000000000000000000000000000000000000000000000000000000000000000000000000000000000000000000BE000000000000DC0000000000
310
00000000000000F5000000000000F50000BEBEBEBE0000000000F5F5BEBEBE0000000000000000000000000000000000000000000000000000000000000000DC00BE000000000000DC000000000000000000000000F500000000000000F50000BEBEBEBE0000000000F5BEBEBEBE0000000000000000000000000000000000
310
0000000000000000000000000000DC00BE000000000000000000000000000000000000000000000000000000000000000000000000000000000000000000000000000000000000000000000000000000000000000000000000000000000000000000000000000000000000000000000000000000BE000000000000DC000000
310
000000000000000000F5000000000000F50000BEBEBEBE0000000000F5BEBEBEBE0000000000000000000000000000000000000000000000000000000000000000DC00BE000000000000DC000000000000000000000000F500000000000000F500BEBEBEBEBE0000000000F5BEBEBEBE000000000000000000000000000000
310
00000000000000000000000000000000DC00BE000000000000000000000000000000000000000000000000000000000000000000000000000000000000000000000000000000000000000000000000000000000000000000000000000000000000000000000000000000000000000000000000000000BE000000000000DC00
310
0000000000000000000000F5000000000000F50000000000000000000000F5F50000000000000000000000000000000000000000000000000000000000000000000000DC00BE000000000000DC000000000000000000000000F500000000000000F50000000000000000000000F50000000000000000000000000000000000
310
000000000000000000000000000000000000DC00BE000000000000000000000000000000000000000000000000000000000000000000000000000000000000000000000000000000000000000000000000000000000000000000000000000000000000000000000000000000000000000000000000000000BE000000000000
310
DC000000000000000000000000F5000000000000F50000000000000000000000F5F50000000000000000000000000000000000000000000000000000000000000000000000DC00BE000000000000DC000000000000000000000000F500000000000000F50000000000000000000000F5000000000000000000000000000000
310
0000000000000000000000000000000000000000DC00BE000000000000000000000000000000000000000000000000000000000000000000000000000000000000000000000000000000000000000000000000000000000000000000000000000000000000000000000000000000000000000000000000000000BE00000000
310
0000DC000000000000000000000000F5000000000000F50000000000000000000000F5F50000000000000000000000000000000000000000000000000000000000000000000000DC00BE000000000000DC000000000000000000000000F500000000000000F50000000000000000000000F500000000000000000000000000
310
00000000000000000000000000000000000000000000DC00BE000000000000000000000000000000000000000000000000000000000000000000000000000000000000000000000000000000000000000000000000000000000000000000000000000000000000000000000000000000000000000000000000000000BE0000
310
00000000DC000000000000000000000000F5000000000000F50000000000000000000000F5F50000000000000000000000000000000000000000000000000000000000000000000000DC00BE000000000000DC000000000000000000000000F500000000000000F50000000000000000000000F50000000000000000000000
310
000000000000000000000000000000000000000000000000DC00BE000000000000000000000000000000000000000000000000000000000000000000000000000000000000000000000000000000000000000000000000000000000000000000000000000000000000000000000000000000000000000000000000000000BE
310
000000000000DC000000000000000000000000F5000000000000F50000000000000000000000F5F50000000000000000000000000000000000000000000000000000000000000000000000DC00BE000000000000DC000000000000000000000000F500000000000000F50000000000000000000000F5000000000000000000
310
0000000000000000000000000000000000000000000000000000DC00BE0000000000000000000000000000000000000000000000000000000000000000000000000000000000000000000000000000000000000000000000000000000000000000000000000000000000000000000000000000000000000000000000000000
310
00BE000000000000DC000000000000000000000000F5000000000000F50000000000000000000000F5F50000000000000000000000000000000000000000000000000000000000000000000000DC00BE000000000000DC000000000000000000000000F500000000000000F50000000000000000000000F500000000000000
310
00000000000000000000000000000000000000000000000000000000DC00BE000000000000000000000000000000000000000000000000000000000000000000000000000000000000000000000000000000000000000000000000000000000000000000000000000000000000000000000000000000000000000000000000
310
000000BE000000000000DC000000000000000000000000F5000000000000F50000000000000000000000F5F50000000000000000000000000000000000000000000000000000000000000000000000DC00BE000000000000DC000000000000000000000000F500000000000000F50000000000000000000000F50000000000
310
000000000000000000000000000000000000000000000000000000000000DC00BE00000000000000000000000000000000000000000000000000000000000000000000000000000000000000000000000000000000000000000000000000000000000000000000000000000000000000000000000000000000000000000000
310
0000000000BE000000000000DC000000000000000000000000F5000000000000F50000000000000000000000F5F50000000000000000000000000000000000000000000000000000000000000000000000DC00BE000000000000DC000000000000000000000000F500000000000000F50000000000000000000000F5000000
310
0000000000000000000000000000000000000000000000000000000000000000DC00BE0000000000000000000000000000000000000000000000000000000000000000000000000000000000000000000000000000000000000000000000000000000000000000000000000000000000000000000000000000000000000000
310
00000000000000BE000000000000DC000000000000000000000000F5000000000000F50000000000000000000000F5F50000000000000000000000000000000000000000000000000000000000000000000000DC00BE000000000000DC000000000000000000000000F500000000000000F50000000000000000000000F500
310
00000000000000000000000000000000000000000000000000000000000000000000DC00BE000000000000000000000000000000000000000000000000000000000000000000000000000000000000000000000000000000000000000000000000000000000000000000000000000000000000000000000000000000000000
310
000000000000000000BE000000000000DC000000000000000000000000F5000000000000F50000000000000000000000F5F50000000000000000000000000000000000000000000000000000000000000000000000DC00BE000000000000DC000000000000000000000000F500000000000000F50000000000000000000000
310
F50000000000000000000000000000000000000000000000000000000000000000000000DC00BE00000000000000000000000000000000000000000000000000000000000000000000000000000000000000000000000000000000000000000000000000000000000000000000000000000000000000000000000000000000
310
0000000000000000000000BE000000000000DC000000000000000000000000F5000000000000F50000000000000000000000F5F50000000000000000000000000000000000000000000000000000000000000000000000DC00BE000000000000DC000000000000000000000000F500000000000000F5000000000000000000
310
0000F50000000000000000000000000000000000000000000000000000000000000000000000DC00BE0000000000000000000000000000000000000000000000000000000000000000000000000000000000000000000000000000000000000000000000000000000000000000000000000000000000000000000000000000
310
00000000000000000000000000BE000000000000DC000000000000000000000000F5000000000000F50000000000000000000000F5F50000000000000000000000000000000000000000000000000000000000000000000000DC00BE000000000000DC000000000000000000000000F500000000000000F500000000000000
310
00000000F50000000000000000000000000000000000000000000000000000000000000000000000DC00BE0000000000000000000000000000000000000000000000000000000000000000000000000000000000
  0
XRECORD
  5
47
102
{ACAD_REACTORS
330
46
102
}
330
46
100
AcDbXrecord
280
     1
270
     1
271
     1
  0
XRECORD
  5
48
102
{ACAD_REACTORS
330
46
102
}
330
46
100
AcDbXrecord
280
     1
270
     1
271
     1
  0
XRECORD
  5
49
102
{ACAD_REACTORS
330
46
102
}
330
46
100
AcDbXrecord
280
     1
270
     1
271
     1
  0
XRECORD
  5
4A
102
{ACAD_REACTORS
330
46
102
}
330
46
100
AcDbXrecord
280
     1
270
     1
271
     1
  0
XRECORD
  5
4B
102
{ACAD_REACTORS
330
46
102
}
330
46
100
AcDbXrecord
280
     1
270
     1
271
     1
  0
XRECORD
  5
4C
102
{ACAD_REACTORS
330
46
102
}
330
46
100
AcDbXrecord
280
     1
270
     1
271
     1
  0
XRECORD
  5
3F
102
{ACAD_REACTORS
330
3E
102
}
330
3E
100
AcDbXrecord
280
     1
270
     1
271
     1
  0
XRECORD
  5
40
102
{ACAD_REACTORS
330
3E
102
}
330
3E
100
AcDbXrecord
280
     1
270
     1
271
     1
  0
XRECORD
  5
41
102
{ACAD_REACTORS
330
3E
102
}
330
3E
100
AcDbXrecord
280
     1
270
     1
271
     1
  0
XRECORD
  5
42
102
{ACAD_REACTORS
330
3E
102
}
330
3E
100
AcDbXrecord
280
     1
270
     1
271
     1
  0
XRECORD
  5
43
102
{ACAD_REACTORS
330
3E
102
}
330
3E
100
AcDbXrecord
280
     1
270
     1
271
     1
  0
XRECORD
  5
44
102
{ACAD_REACTORS
330
3E
102
}
330
3E
100
AcDbXrecord
280
     1
270
     1
271
     1
  0
XRECORD
  5
F
102
{ACAD_REACTORS
330
E
102
}
330
E
100
AcDbXrecord
280
     1
270
     1
271
     1
  0
XRECORD
  5
10
102
{ACAD_REACTORS
330
E
102
}
330
E
100
AcDbXrecord
280
     1
270
     1
271
     1
  0
XRECORD
  5
11
102
{ACAD_REACTORS
330
E
102
}
330
E
100
AcDbXrecord
280
     1
270
     1
271
     1
  0
XRECORD
  5
12
102
{ACAD_REACTORS
330
E
102
}
330
E
100
AcDbXrecord
280
     1
270
     1
271
     1
  0
XRECORD
  5
13
102
{ACAD_REACTORS
330
E
102
}
330
E
100
AcDbXrecord
280
     1
270
     1
271
     1
  0
XRECORD
  5
14
102
{ACAD_REACTORS
330
E
102
}
330
E
100
AcDbXrecord
280
     1
270
     1
271
     1
  0
CELLSTYLEMAP
  5
52B
102
{ACAD_REACTORS
330
53
102
}
330
53
100
AcDbCellStyleMap
 90
        3
300
CELLSTYLE
  1
TABLEFORMAT_BEGIN
 90
        5
170
     1
 91
        0
 92
    32768
 62
   257
 93
        1
300
CONTENTFORMAT
  1
CONTENTFORMAT_BEGIN
 90
        0
 91
        0
 92
      512
 93
        0
300

 40
0.0
140
1.0
 94
        5
 62
     0
340
26
144
6.0
309
CONTENTFORMAT_END
171
     1
301
MARGIN
  1
CELLMARGIN_BEGIN
 40
1.5
 40
1.5
 40
1.5
 40
1.5
 40
4.5
 40
4.5
309
CELLMARGIN_END
 94
        6
 95
        1
302
GRIDFORMAT
  1
GRIDFORMAT_BEGIN
 90
        0
 91
        1
 62
     0
 92
       -2
340
0
 93
        0
 40
1.125
309
GRIDFORMAT_END
 95
        2
302
GRIDFORMAT
  1
GRIDFORMAT_BEGIN
 90
        0
 91
        1
 62
     0
 92
       -2
340
0
 93
        0
 40
1.125
309
GRIDFORMAT_END
 95
        4
302
GRIDFORMAT
  1
GRIDFORMAT_BEGIN
 90
        0
 91
        1
 62
     0
 92
       -2
340
0
 93
        0
 40
1.125
309
GRIDFORMAT_END
 95
        8
302
GRIDFORMAT
  1
GRIDFORMAT_BEGIN
 90
        0
 91
        1
 62
     0
 92
       -2
340
0
 93
        0
 40
1.125
309
GRIDFORMAT_END
 95
       16
302
GRIDFORMAT
  1
GRIDFORMAT_BEGIN
 90
        0
 91
        1
 62
     0
 92
       -2
340
0
 93
        0
 40
1.125
309
GRIDFORMAT_END
 95
       32
302
GRIDFORMAT
  1
GRIDFORMAT_BEGIN
 90
        0
 91
        1
 62
     0
 92
       -2
340
0
 93
        0
 40
1.125
309
GRIDFORMAT_END
309
TABLEFORMAT_END
  1
CELLSTYLE_BEGIN
 90
        1
 91
        1
300
_TITLE
309
CELLSTYLE_END
300
CELLSTYLE
  1
TABLEFORMAT_BEGIN
 90
        5
170
     1
 91
        0
 92
        0
 62
   257
 93
        1
300
CONTENTFORMAT
  1
CONTENTFORMAT_BEGIN
 90
        0
 91
        0
 92
      512
 93
        0
300

 40
0.0
140
1.0
 94
        5
 62
     0
340
26
144
4.5
309
CONTENTFORMAT_END
171
     1
301
MARGIN
  1
CELLMARGIN_BEGIN
 40
1.5
 40
1.5
 40
1.5
 40
1.5
 40
4.5
 40
4.5
309
CELLMARGIN_END
 94
        6
 95
        1
302
GRIDFORMAT
  1
GRIDFORMAT_BEGIN
 90
        0
 91
        1
 62
     0
 92
       -2
340
0
 93
        0
 40
1.125
309
GRIDFORMAT_END
 95
        2
302
GRIDFORMAT
  1
GRIDFORMAT_BEGIN
 90
        0
 91
        1
 62
     0
 92
       -2
340
0
 93
        0
 40
1.125
309
GRIDFORMAT_END
 95
        4
302
GRIDFORMAT
  1
GRIDFORMAT_BEGIN
 90
        0
 91
        1
 62
     0
 92
       -2
340
0
 93
        0
 40
1.125
309
GRIDFORMAT_END
 95
        8
302
GRIDFORMAT
  1
GRIDFORMAT_BEGIN
 90
        0
 91
        1
 62
     0
 92
       -2
340
0
 93
        0
 40
1.125
309
GRIDFORMAT_END
 95
       16
302
GRIDFORMAT
  1
GRIDFORMAT_BEGIN
 90
        0
 91
        1
 62
     0
 92
       -2
340
0
 93
        0
 40
1.125
309
GRIDFORMAT_END
 95
       32
302
GRIDFORMAT
  1
GRIDFORMAT_BEGIN
 90
        0
 91
        1
 62
     0
 92
       -2
340
0
 93
        0
 40
1.125
309
GRIDFORMAT_END
309
TABLEFORMAT_END
  1
CELLSTYLE_BEGIN
 90
        2
 91
        1
300
_HEADER
309
CELLSTYLE_END
300
CELLSTYLE
  1
TABLEFORMAT_BEGIN
 90
        5
170
     1
 91
        0
 92
        0
 62
   257
 93
        1
300
CONTENTFORMAT
  1
CONTENTFORMAT_BEGIN
 90
        0
 91
        0
 92
      512
 93
        0
300

 40
0.0
140
1.0
 94
        2
 62
     0
340
26
144
4.5
309
CONTENTFORMAT_END
171
     1
301
MARGIN
  1
CELLMARGIN_BEGIN
 40
1.5
 40
1.5
 40
1.5
 40
1.5
 40
4.5
 40
4.5
309
CELLMARGIN_END
 94
        6
 95
        1
302
GRIDFORMAT
  1
GRIDFORMAT_BEGIN
 90
        0
 91
        1
 62
     0
 92
       -2
340
0
 93
        0
 40
1.125
309
GRIDFORMAT_END
 95
        2
302
GRIDFORMAT
  1
GRIDFORMAT_BEGIN
 90
        0
 91
        1
 62
     0
 92
       -2
340
0
 93
        0
 40
1.125
309
GRIDFORMAT_END
 95
        4
302
GRIDFORMAT
  1
GRIDFORMAT_BEGIN
 90
        0
 91
        1
 62
     0
 92
       -2
340
0
 93
        0
 40
1.125
309
GRIDFORMAT_END
 95
        8
302
GRIDFORMAT
  1
GRIDFORMAT_BEGIN
 90
        0
 91
        1
 62
     0
 92
       -2
340
0
 93
        0
 40
1.125
309
GRIDFORMAT_END
 95
       16
302
GRIDFORMAT
  1
GRIDFORMAT_BEGIN
 90
        0
 91
        1
 62
     0
 92
       -2
340
0
 93
        0
 40
1.125
309
GRIDFORMAT_END
 95
       32
302
GRIDFORMAT
  1
GRIDFORMAT_BEGIN
 90
        0
 91
        1
 62
     0
 92
       -2
340
0
 93
        0
 40
1.125
309
GRIDFORMAT_END
309
TABLEFORMAT_END
  1
CELLSTYLE_BEGIN
 90
        3
 91
        2
300
_DATA
309
CELLSTYLE_END
  0
ENDSEC
  0
EOF
