  0
SECTION
  2
HEADER
  9
$ACADVER
  1
AC1024
  9
$ACADMAINTVER
 70
     6
  9
$DWGCODEPAGE
  3
ANSI_1252
  9
$INSBASE
 10
0.0
 20
0.0
 30
0.0
  9
$EXTMIN
 10
-3219.886926243836
 20
-0.132253867417603
 30
-0.0000000000000044
  9
$EXTMAX
 10
2055.160940668093
 20
1856.517090447171
 30
0.0000000000000109
  9
$LIMMIN
 10
0.0
 20
0.0
  9
$LIMMAX
 10
594.0
 20
420.0
  9
$ORTHOMODE
 70
     0
  9
$REGENMODE
 70
     1
  9
$FILLMODE
 70
     1
  9
$QTEXTMODE
 70
     0
  9
$MIRRTEXT
 70
     1
  9
$LTSCALE
 40
10.0
  9
$ATTMODE
 70
     1
  9
$TEXTSIZE
 40
50.0
  9
$TRACEWID
 40
1.0
  9
$TEXTSTYLE
  7
Standard
  9
$CLAYER
  8
0
  9
$CELTYPE
  6
ByLayer
  9
$CECOLOR
 62
   256
  9
$CELTSCALE
 40
1.0
  9
$DISPSILH
 70
     0
  9
$DIMSCALE
 40
2.0
  9
$DIMASZ
 40
2.5
  9
$DIMEXO
 40
0.625
  9
$DIMDLI
 40
0.0
  9
$DIMRND
 40
0.0
  9
$DIMDLE
 40
0.0
  9
$DIMEXE
 40
1.25
  9
$DIMTP
 40
0.0
  9
$DIMTM
 40
0.0
  9
$DIMTXT
 40
2.5
  9
$DIMCEN
 40
2.5
  9
$DIMTSZ
 40
0.0
  9
$DIMTOL
 70
     0
  9
$DIMLIM
 70
     0
  9
$DIMTIH
 70
     0
  9
$DIMTOH
 70
     0
  9
$DIMSE1
 70
     0
  9
$DIMSE2
 70
     0
  9
$DIMTAD
 70
     1
  9
$DIMZIN
 70
     8
  9
$DIMBLK
  1

  9
$DIMASO
 70
     1
  9
$DIMSHO
 70
     1
  9
$DIMPOST
  1

  9
$DIMAPOST
  1

  9
$DIMALT
 70
     0
  9
$DIMALTD
 70
     3
  9
$DIMALTF
 40
0.03937007874016
  9
$DIMLFAC
 40
1.0
  9
$DIMTOFL
 70
     1
  9
$DIMTVP
 40
0.0
  9
$DIMTIX
 70
     0
  9
$DIMSOXD
 70
     0
  9
$DIMSAH
 70
     0
  9
$DIMBLK1
  1

  9
$DIMBLK2
  1

  9
$DIMSTYLE
  2
Wagner
  9
$DIMCLRD
 70
     4
  9
$DIMCLRE
 70
     4
  9
$DIMCLRT
 70
     1
  9
$DIMTFAC
 40
1.0
  9
$DIMGAP
 40
0.625
  9
$DIMJUST
 70
     0
  9
$DIMSD1
 70
     0
  9
$DIMSD2
 70
     0
  9
$DIMTOLJ
 70
     0
  9
$DIMTZIN
 70
     8
  9
$DIMALTZ
 70
     0
  9
$DIMALTTZ
 70
     0
  9
$DIMUPT
 70
     0
  9
$DIMDEC
 70
     8
  9
$DIMTDEC
 70
     8
  9
$DIMALTU
 70
     2
  9
$DIMALTTD
 70
     3
  9
$DIMTXSTY
  7
ROMANS
  9
$DIMAUNIT
 70
     0
  9
$DIMADEC
 70
     2
  9
$DIMALTRND
 40
0.0
  9
$DIMAZIN
 70
     2
  9
$DIMDSEP
 70
    44
  9
$DIMATFIT
 70
     3
  9
$DIMFRAC
 70
     0
  9
$DIMLDRBLK
  1

  9
$DIMLUNIT
 70
     2
  9
$DIMLWD
 70
    -2
  9
$DIMLWE
 70
    -2
  9
$DIMTMOVE
 70
     2
  9
$DIMFXL
 40
1.0
  9
$DIMFXLON
 70
     0
  9
$DIMJOGANG
 40
0.7853981633974483
  9
$DIMTFILL
 70
     0
  9
$DIMTFILLCLR
 70
     0
  9
$DIMARCSYM
 70
     0
  9
$DIMLTYPE
  6

  9
$DIMLTEX1
  6

  9
$DIMLTEX2
  6

  9
$DIMTXTDIRECTION
 70
     0
  9
$LUNITS
 70
     2
  9
$LUPREC
 70
     2
  9
$SKETCHINC
 40
1.0
  9
$FILLETRAD
 40
0.0
  9
$AUNITS
 70
     0
  9
$AUPREC
 70
     0
  9
$MENU
  1
.
  9
$ELEVATION
 40
0.0
  9
$PELEVATION
 40
0.0
  9
$THICKNESS
 40
0.0
  9
$LIMCHECK
 70
     0
  9
$CHAMFERA
 40
0.0
  9
$CHAMFERB
 40
0.0
  9
$CHAMFERC
 40
20.0
  9
$CHAMFERD
 40
0.0
  9
$SKPOLY
 70
     0
  9
$TDCREATE
 40
2453780.425543611
  9
$TDUCREATE
 40
2453780.383876944
  9
$TDUPDATE
 40
2457737.389306771
  9
$TDUUPDATE
 40
2457737.347640104
  9
$TDINDWG
 40
3.2694082986
  9
$TDUSRTIMER
 40
3.2694082986
  9
$USRTIMER
 70
     1
  9
$ANGBASE
 50
0.0
  9
$ANGDIR
 70
     0
  9
$PDMODE
 70
     0
  9
$PDSIZE
 40
-1.0
  9
$PLINEWID
 40
0.0
  9
$SPLFRAME
 70
     0
  9
$SPLINETYPE
 70
     6
  9
$SPLINESEGS
 70
     8
  9
$HANDSEED
  5
51E
  9
$SURFTAB1
 70
     6
  9
$SURFTAB2
 70
     6
  9
$SURFTYPE
 70
     6
  9
$SURFU
 70
     6
  9
$SURFV
 70
     6
  9
$UCSBASE
  2

  9
$UCSNAME
  2

  9
$UCSORG
 10
0.0
 20
0.0
 30
0.0
  9
$UCSXDIR
 10
1.0
 20
0.0
 30
0.0
  9
$UCSYDIR
 10
0.0
 20
1.0
 30
0.0
  9
$UCSORTHOREF
  2

  9
$UCSORTHOVIEW
 70
     0
  9
$UCSORGTOP
 10
0.0
 20
0.0
 30
0.0
  9
$UCSORGBOTTOM
 10
0.0
 20
0.0
 30
0.0
  9
$UCSORGLEFT
 10
0.0
 20
0.0
 30
0.0
  9
$UCSORGRIGHT
 10
0.0
 20
0.0
 30
0.0
  9
$UCSORGFRONT
 10
0.0
 20
0.0
 30
0.0
  9
$UCSORGBACK
 10
0.0
 20
0.0
 30
0.0
  9
$PUCSBASE
  2

  9
$PUCSNAME
  2

  9
$PUCSORG
 10
0.0
 20
0.0
 30
0.0
  9
$PUCSXDIR
 10
1.0
 20
0.0
 30
0.0
  9
$PUCSYDIR
 10
0.0
 20
1.0
 30
0.0
  9
$PUCSORTHOREF
  2

  9
$PUCSORTHOVIEW
 70
     0
  9
$PUCSORGTOP
 10
0.0
 20
0.0
 30
0.0
  9
$PUCSORGBOTTOM
 10
0.0
 20
0.0
 30
0.0
  9
$PUCSORGLEFT
 10
0.0
 20
0.0
 30
0.0
  9
$PUCSORGRIGHT
 10
0.0
 20
0.0
 30
0.0
  9
$PUCSORGFRONT
 10
0.0
 20
0.0
 30
0.0
  9
$PUCSORGBACK
 10
0.0
 20
0.0
 30
0.0
  9
$USERI1
 70
     0
  9
$USERI2
 70
     0
  9
$USERI3
 70
     0
  9
$USERI4
 70
     0
  9
$USERI5
 70
     0
  9
$USERR1
 40
0.0
  9
$USERR2
 40
0.0
  9
$USERR3
 40
0.0
  9
$USERR4
 40
0.0
  9
$USERR5
 40
0.0
  9
$WORLDVIEW
 70
     1
  9
$SHADEDGE
 70
     3
  9
$SHADEDIF
 70
    70
  9
$TILEMODE
 70
     1
  9
$MAXACTVP
 70
    64
  9
$PINSBASE
 10
0.0
 20
0.0
 30
0.0
  9
$PLIMCHECK
 70
     0
  9
$PEXTMIN
 10
1.000000000000000E+20
 20
1.000000000000000E+20
 30
1.000000000000000E+20
  9
$PEXTMAX
 10
-1.000000000000000E+20
 20
-1.000000000000000E+20
 30
-1.000000000000000E+20
  9
$PLIMMIN
 10
0.0
 20
0.0
  9
$PLIMMAX
 10
420.0
 20
297.0
  9
$UNITMODE
 70
     0
  9
$VISRETAIN
 70
     1
  9
$PLINEGEN
 70
     0
  9
$PSLTSCALE
 70
     1
  9
$TREEDEPTH
 70
  3020
  9
$CMLSTYLE
  2
Standard
  9
$CMLJUST
 70
     0
  9
$CMLSCALE
 40
20.0
  9
$PROXYGRAPHICS
 70
     1
  9
$MEASUREMENT
 70
     1
  9
$CELWEIGHT
370
    -1
  9
$ENDCAPS
280
     0
  9
$JOINSTYLE
280
     0
  9
$LWDISPLAY
290
     0
  9
$INSUNITS
 70
     4
  9
$HYPERLINKBASE
  1

  9
$STYLESHEET
  1

  9
$XEDIT
290
     1
  9
$CEPSNTYPE
380
     0
  9
$PSTYLEMODE
290
     1
  9
$FINGERPRINTGUID
  2
{C8086757-15AC-4B5B-92EB-206EBB1B7AE5}
  9
$VERSIONGUID
  2
{3B4AB491-3A84-435D-9675-F798FC7EE4CF}
  9
$EXTNAMES
290
     1
  9
$PSVPSCALE
 40
0.0
  9
$OLESTARTUP
290
     0
  9
$SORTENTS
280
   127
  9
$INDEXCTL
280
     0
  9
$HIDETEXT
280
     1
  9
$XCLIPFRAME
280
     0
  9
$HALOGAP
280
     0
  9
$OBSCOLOR
 70
   257
  9
$OBSLTYPE
280
     0
  9
$INTERSECTIONDISPLAY
280
     0
  9
$INTERSECTIONCOLOR
 70
   257
  9
$DIMASSOC
280
     1
  9
$PROJECTNAME
  1

  9
$CAMERADISPLAY
290
     0
  9
$LENSLENGTH
 40
50.0
  9
$CAMERAHEIGHT
 40
0.0
  9
$STEPSPERSEC
 40
2.0
  9
$STEPSIZE
 40
6.0
  9
$3DDWFPREC
 40
2.0
  9
$PSOLWIDTH
 40
0.25
  9
$PSOLHEIGHT
 40
4.0
  9
$LOFTANG1
 40
1.570796326794896
  9
$LOFTANG2
 40
1.570796326794896
  9
$LOFTMAG1
 40
0.0
  9
$LOFTMAG2
 40
0.0
  9
$LOFTPARAM
 70
     7
  9
$LOFTNORMALS
280
     1
  9
$LATITUDE
 40
37.795
  9
$LONGITUDE
 40
-122.394
  9
$NORTHDIRECTION
 40
0.0
  9
$TIMEZONE
 70
 -8000
  9
$LIGHTGLYPHDISPLAY
280
     1
  9
$TILEMODELIGHTSYNCH
280
     1
  9
$CMATERIAL
347
3E
  9
$SOLIDHIST
280
     1
  9
$SHOWHIST
280
     1
  9
$DWFFRAME
280
     2
  9
$DGNFRAME
280
     0
  9
$REALWORLDSCALE
290
     1
  9
$INTERFERECOLOR
 62
     1
  9
$INTERFEREOBJVS
345
55
  9
$INTERFEREVPVS
346
56
  9
$CSHADOW
280
     0
  9
$SHADOWPLANELOCATION
 40
0.0
  0
ENDSEC
  0
SECTION
  2
CLASSES
  0
CLASS
  1
ACDBDICTIONARYWDFLT
  2
AcDbDictionaryWithDefault
  3
ObjectDBX Classes
 90
        0
 91
        1
280
     0
281
     0
  0
CLASS
  1
MATERIAL
  2
AcDbMaterial
  3
ObjectDBX Classes
 90
     1153
 91
        3
280
     0
281
     0
  0
CLASS
  1
VISUALSTYLE
  2
AcDbVisualStyle
  3
ObjectDBX Classes
 90
     4095
 91
        3
280
     0
281
     0
  0
CLASS
  1
TABLESTYLE
  2
AcDbTableStyle
  3
ObjectDBX Classes
 90
     4095
 91
        1
280
     0
281
     0
  0
CLASS
  1
SCALE
  2
AcDbScale
  3
ObjectDBX Classes
 90
     1153
 91
       33
280
     0
281
     0
  0
CLASS
  1
MLEADERSTYLE
  2
AcDbMLeaderStyle
  3
ACDB_MLEADERSTYLE_CLASS
 90
     4095
 91
        0
280
     0
281
     0
  0
CLASS
  1
SORTENTSTABLE
  2
AcDbSortentsTable
  3
ObjectDBX Classes
 90
        0
 91
       10
280
     0
281
     0
  0
CLASS
  1
CELLSTYLEMAP
  2
AcDbCellStyleMap
  3
ObjectDBX Classes
 90
     1152
 91
        1
280
     0
281
     0
  0
CLASS
  1
DICTIONARYVAR
  2
AcDbDictionaryVar
  3
ObjectDBX Classes
 90
        0
 91
        7
280
     0
281
     0
  0
CLASS
  1
SOLID_BACKGROUND
  2
AcDbSolidBackground
  3
SCENEOE
 90
     4095
 91
        0
280
     0
281
     0
  0
CLASS
  1
NPOCOLLECTION
  2
AcDbImpNonPersistentObjectsCollection
  3
ObjectDBX Classes
 90
     1153
 91
        0
280
     0
281
     0
  0
CLASS
  1
ACDB_DYNAMICBLOCKPURGEPREVENTER_VERSION
  2
AcDbDynamicBlockPurgePreventer
  3
ObjectDBX Classes
 90
     1153
 91
        0
280
     0
281
     0
  0
CLASS
  1
ACAD_TABLE
  2
AcDbTable
  3
ObjectDBX Classes
 90
     1025
 91
        0
280
     0
281
     1
  0
CLASS
  1
TABLECONTENT
  2
AcDbTableContent
  3
ObjectDBX Classes
 90
     1152
 91
        0
280
     0
281
     0
  0
CLASS
  1
TABLEGEOMETRY
  2
AcDbTableGeometry
  3
ObjectDBX Classes
 90
     1152
 91
        0
280
     0
281
     0
  0
CLASS
  1
DIMASSOC
  2
AcDbDimAssoc
  3
"AcDbDimAssoc|Product Desc:     AcDim ARX App For Dimension|Company:          Autodesk, Inc.|WEB Address:      www.autodesk.com"
 90
        0
 91
        0
280
     0
281
     0
  0
CLASS
  1
EXACXREFPANELOBJECT
  2
ExAcXREFPanelObject
  3
EXAC_ESW
 90
     1025
 91
        0
280
     1
281
     0
  0
CLASS
  1
AEC_REFEDIT_STATUS_TRACKER
  2
AecDbRefEditStatusTracker
  3
AecArchBase60|Product Desc: Autodesk Architectural Desktop 2007 |Company: Autodesk,Inc. |WEB Address: www.autodesk.com
 90
      129
 91
        0
280
     0
281
     0
  0
CLASS
  1
ACDBASSOCNETWORK
  2
AcDbAssocNetwork
  3
ObjectDBX Classes
 90
     1025
 91
        0
280
     0
281
     0
  0
CLASS
  1
ACDBASSOC2DCONSTRAINTGROUP
  2
AcDbAssoc2dConstraintGroup
  3
ObjectDBX Classes
 90
     1025
 91
        0
280
     0
281
     0
  0
CLASS
  1
ACDBASSOCGEOMDEPENDENCY
  2
AcDbAssocGeomDependency
  3
ObjectDBX Classes
 90
     1025
 91
        0
280
     0
281
     0
  0
ENDSEC
  0
SECTION
  2
TABLES
  0
TABLE
  2
VPORT
  5
2E
102
{ACAD_XDICTIONARY
360
32
102
}
330
0
100
AcDbSymbolTable
 70
     1
  0
VPORT
  5
2F
330
2E
100
AcDbSymbolTableRecord
100
AcDbViewportTableRecord
  2
*Active
 70
     0
 10
0.0
 20
0.0
 11
1.0
 21
1.0
 12
290.5280971136634
 22
91.21682567163498
 13
0.0
 23
0.0
 14
10.0
 24
10.0
 15
10.0
 25
10.0
 16
0.0
 26
0.0
 36
1.0
 17
210.2026221644988
 27
148.4999782997198
 37
-0.0000000000006946
 40
742.5030852585077
 41
1.98076923076923
 42
50.0
 43
0.0
 44
0.0
 50
0.0
 51
0.0
 71
     0
 72
  1000
 73
     1
 74
     0
 75
     0
 76
     0
 77
     0
 78
     0
281
     0
 65
     1
110
0.0
120
0.0
130
0.0
111
1.0
121
0.0
131
0.0
112
0.0
122
1.0
132
0.0
 79
     0
146
0.0
348
30
 60
     3
 61
     5
292
     1
282
     1
141
0.0
142
0.0
 63
   250
421
  3355443
  0
ENDTAB
  0
TABLE
  2
LTYPE
  5
29
330
0
100
AcDbSymbolTable
 70
     4
  0
LTYPE
  5
2A
330
29
100
AcDbSymbolTableRecord
100
AcDbLinetypeTableRecord
  2
ByBlock
 70
     0
  3

 72
    65
 73
     0
 40
0.0
  0
LTYPE
  5
2B
330
29
100
AcDbSymbolTableRecord
100
AcDbLinetypeTableRecord
  2
ByLayer
 70
     0
  3

 72
    65
 73
     0
 40
0.0
  0
LTYPE
  5
15
330
29
100
AcDbSymbolTableRecord
100
AcDbLinetypeTableRecord
  2
Continuous
 70
     0
  3
Solid line
 72
    65
 73
     0
 40
0.0
  0
LTYPE
  5
2BF
330
29
100
AcDbSymbolTableRecord
100
AcDbLinetypeTableRecord
  2
AUSGEZOGEN
 70
     0
  3
Ausgezogene Linie
 72
    65
 73
     0
 40
0.0
  0
LTYPE
  5
98
330
29
100
AcDbSymbolTableRecord
100
AcDbLinetypeTableRecord
  2
VERDECKT
 70
     0
  3
__ __ __ __ __ __ __ __ __ __ __ __ __ __ __ __
 72
    65
 73
     2
 40
0.375
 49
0.25
 74
     0
 49
-0.125
 74
     0
  0
LTYPE
  5
161
330
29
100
AcDbSymbolTableRecord
100
AcDbLinetypeTableRecord
  2
STRICHPUNKT
 70
     0
  3
Strichpunkt __ . __ . __ . __ . __ . __ . __ . 
 72
    65
 73
     4
 40
1.0
 49
0.5
 74
     0
 49
-0.25
 74
     0
 49
0.0
 74
     0
 49
-0.25
 74
     0
  0
ENDTAB
  0
TABLE
  2
LAYER
  5
20
102
{ACAD_XDICTIONARY
360
21
102
}
330
0
100
AcDbSymbolTable
 70
     9
  0
LAYER
  5
6
102
{ACAD_XDICTIONARY
360
7
102
}
330
20
100
AcDbSymbolTableRecord
100
AcDbLayerTableRecord
  2
0
 70
     0
 62
     7
  6
Continuous
370
    -3
390
9
347
C
  0
LAYER
  5
EE
330
20
100
AcDbSymbolTableRecord
100
AcDbLayerTableRecord
  2
Defpoints
 70
     0
 62
     7
  6
Continuous
290
     0
370
    -3
390
9
347
C
  0
LAYER
  5
27C
102
{ACAD_XDICTIONARY
360
27D
102
}
330
20
100
AcDbSymbolTableRecord
100
AcDbLayerTableRecord
  2
01-99
 70
     0
 62
     2
  6
Continuous
370
    -3
390
9
347
C
  0
LAYER
  5
2BC
102
{ACAD_XDICTIONARY
360
2BD
102
}
330
20
100
AcDbSymbolTableRecord
100
AcDbLayerTableRecord
  2
06-99
 70
     0
 62
     1
  6
AUSGEZOGEN
370
    -3
390
9
347
C
  0
LAYER
  5
2A6
102
{ACAD_XDICTIONARY
360
2A7
102
}
330
20
100
AcDbSymbolTableRecord
100
AcDbLayerTableRecord
  2
08-99
 70
     0
 62
     7
  6
Continuous
370
    -3
390
9
347
C
  0
LAYER
  5
281
102
{ACAD_XDICTIONARY
360
282
102
}
330
20
100
AcDbSymbolTableRecord
100
AcDbLayerTableRecord
  2
02-01
 70
     0
 62
     1
  6
Continuous
370
    -3
390
9
347
C
  0
LAYER
  5
96
102
{ACAD_XDICTIONARY
360
97
102
}
330
20
100
AcDbSymbolTableRecord
100
AcDbLayerTableRecord
  2
03-01
 70
     0
 62
     3
  6
VERDECKT
370
    -3
390
9
347
C
  0
LAYER
  5
15F
102
{ACAD_XDICTIONARY
360
160
102
}
330
20
100
AcDbSymbolTableRecord
100
AcDbLayerTableRecord
  2
05-01
 70
     0
 62
     1
  6
STRICHPUNKT
370
    -3
390
9
347
C
  0
LAYER
  5
79
102
{ACAD_XDICTIONARY
360
7A
102
}
330
20
100
AcDbSymbolTableRecord
100
AcDbLayerTableRecord
  2
09-01
 70
     0
 62
     7
  6
Continuous
370
    -3
390
9
347
C
  0
ENDTAB
  0
TABLE
  2
STYLE
  5
26
330
0
100
AcDbSymbolTable
 70
     4
  0
STYLE
  5
27
330
26
100
AcDbSymbolTableRecord
100
AcDbTextStyleTableRecord
  2
Standard
 70
     0
 40
0.0
 41
1.0
 50
0.0
 71
     0
 42
50.0
  3
txt
  4

  0
STYLE
  5
2A9
330
26
100
AcDbSymbolTableRecord
100
AcDbTextStyleTableRecord
  2
ROMANS8
 70
     0
 40
0.0
 41
1.0
 50
0.0
 71
     0
 42
2.5
  3
ROMANS8
  4

  0
STYLE
  5
36
330
26
100
AcDbSymbolTableRecord
100
AcDbTextStyleTableRecord
  2
ROMANS
 70
     0
 40
0.0
 41
1.0
 50
0.0
 71
     0
 42
18.0
  3
ROMANS.SHX
  4

  0
STYLE
  5
2D0
330
26
100
AcDbSymbolTableRecord
100
AcDbTextStyleTableRecord
  2
ROMAND8
 70
     0
 40
0.0
 41
1.0
 50
0.0
 71
     0
 42
3.5
  3
ROMAND8
  4

  0
ENDTAB
  0
TABLE
  2
VIEW
  5
2C
330
0
100
AcDbSymbolTable
 70
     0
  0
ENDTAB
  0
TABLE
  2
UCS
  5
2D
330
0
100
AcDbSymbolTable
 70
     0
  0
ENDTAB
  0
TABLE
  2
APPID
  5
33
330
0
100
AcDbSymbolTable
 70
     6
  0
APPID
  5
25
330
33
100
AcDbSymbolTableRecord
100
AcDbRegAppTableRecord
  2
ACAD
 70
     0
  0
APPID
  5
38
330
33
100
AcDbSymbolTableRecord
100
AcDbRegAppTableRecord
  2
ACAD_DSTYLE_DIMJAG
 70
     0
  0
APPID
  5
37
330
33
100
AcDbSymbolTableRecord
100
AcDbRegAppTableRecord
  2
ACAD_DSTYLE_DIMBREAK
 70
     0
  0
APPID
  5
39
330
33
100
AcDbSymbolTableRecord
100
AcDbRegAppTableRecord
  2
ACAD_DSTYLE_DIMTALN
 70
     0
  0
APPID
  5
F3
330
33
100
AcDbSymbolTableRecord
100
AcDbRegAppTableRecord
  2
ACAD_DSTYLE_DIMJOGGED_JOGANGLE_SYMBOL
 70
     0
  0
APPID
  5
1B
330
33
100
AcDbSymbolTableRecord
100
AcDbRegAppTableRecord
  2
ACAD_PSEXT
 70
     0
  0
ENDTAB
  0
TABLE
  2
DIMSTYLE
  5
34
330
0
100
AcDbSymbolTable
 70
     2
100
AcDbDimStyleTable
 71
     1
340
35
  0
DIMSTYLE
105
35
330
34
100
AcDbSymbolTableRecord
100
AcDbDimStyleTableRecord
  2
Wagner
 70
     0
 40
10.0
 41
2.5
 42
0.625
 43
0.0
 44
1.25
 73
     0
 74
     0
 77
     1
 78
     8
 79
     2
140
2.5
141
2.5
143
0.03937007874016
147
0.625
171
     3
172
     1
176
     4
177
     4
178
     1
179
     2
271
     8
272
     8
274
     3
278
    44
279
     2
283
     0
284
     8
340
36
1001
ACAD_DSTYLE_DIMBREAK
1070
   391
1040
3.75
1001
ACAD_DSTYLE_DIMJAG
1070
   388
1040
1.5
1001
ACAD_DSTYLE_DIMTALN
1070
   392
1070
     0
  0
DIMSTYLE
105
F2
102
{ACAD_REACTORS
330
42F
330
39C
330
300
330
101
330
F4
330
E4
102
}
330
34
100
AcDbSymbolTableRecord
100
AcDbDimStyleTableRecord
  2
Wagner$0
 70
     0
 41
2.5
 42
1.0
 43
10.0
 44
1.0
 73
     0
 74
     0
 77
     1
 78
     8
 79
     2
140
2.5
141
0.0
143
0.03937007874016
147
1.0
171
     3
172
     1
174
     1
176
     4
177
     4
178
     1
179
     2
271
     8
272
     8
274
     3
279
     2
283
     0
284
     8
340
27
1001
ACAD_DSTYLE_DIMJOGGED_JOGANGLE_SYMBOL
1070
   384
1040
0.7853981633974483
1001
ACAD_DSTYLE_DIMJAG
1070
   388
1040
1.5
1001
ACAD_DSTYLE_DIMTALN
1070
   392
1070
     0
  0
ENDTAB
  0
TABLE
  2
BLOCK_RECORD
  5
1
330
0
100
AcDbSymbolTable
 70
    15
  0
BLOCK_RECORD
  5
2
102
{ACAD_XDICTIONARY
360
3
102
}
330
1
100
AcDbSymbolTableRecord
100
AcDbBlockTableRecord
  2
*Model_Space
340
17
 70
     0
280
     1
281
     0
  0
BLOCK_RECORD
  5
1C
330
1
100
AcDbSymbolTableRecord
100
AcDbBlockTableRecord
  2
*Paper_Space
340
1F
 70
     0
280
     1
281
     0
  0
BLOCK_RECORD
  5
277
102
{ACAD_XDICTIONARY
360
278
102
}
330
1
100
AcDbSymbolTableRecord
100
AcDbBlockTableRecord
  2
DIN A4 Quer
340
0
102
{BLKREFS
331
276
102
}
 70
     4
280
     1
281
     0
  0
BLOCK_RECORD
  5
4C7
330
1
100
AcDbSymbolTableRecord
100
AcDbBlockTableRecord
  2
Sensor-Betätigungsmodul
340
0
310
2800000020000000200000000100080000000000000400000000000000000000000000000000000000000000000080000080000000808000800000008000800080800000C0C0C000C0DCC000F0CAA6000020400000206000002080000020A0000020C0000020E00000400000004020000040400000406000004080000040A0
310
000040C0000040E00000600000006020000060400000606000006080000060A0000060C0000060E00000800000008020000080400000806000008080000080A0000080C0000080E00000A0000000A0200000A0400000A0600000A0800000A0A00000A0C00000A0E00000C0000000C0200000C0400000C0600000C0800000C0
310
A00000C0C00000C0E00000E0000000E0200000E0400000E0600000E0800000E0A00000E0C00000E0E00040000000400020004000400040006000400080004000A0004000C0004000E00040200000402020004020400040206000402080004020A0004020C0004020E000404000004040200040404000404060004040800040
310
40A0004040C0004040E00040600000406020004060400040606000406080004060A0004060C0004060E00040800000408020004080400040806000408080004080A0004080C0004080E00040A0000040A0200040A0400040A0600040A0800040A0A00040A0C00040A0E00040C0000040C0200040C0400040C0600040C08000
310
40C0A00040C0C00040C0E00040E0000040E0200040E0400040E0600040E0800040E0A00040E0C00040E0E00080000000800020008000400080006000800080008000A0008000C0008000E00080200000802020008020400080206000802080008020A0008020C0008020E00080400000804020008040400080406000804080
310
008040A0008040C0008040E00080600000806020008060400080606000806080008060A0008060C0008060E00080800000808020008080400080806000808080008080A0008080C0008080E00080A0000080A0200080A0400080A0600080A0800080A0A00080A0C00080A0E00080C0000080C0200080C0400080C0600080C0
310
800080C0A00080C0C00080C0E00080E0000080E0200080E0400080E0600080E0800080E0A00080E0C00080E0E000C0000000C0002000C0004000C0006000C0008000C000A000C000C000C000E000C0200000C0202000C0204000C0206000C0208000C020A000C020C000C020E000C0400000C0402000C0404000C0406000C0
310
408000C040A000C040C000C040E000C0600000C0602000C0604000C0606000C0608000C060A000C060C000C060E000C0800000C0802000C0804000C0806000C0808000C080A000C080C000C080E000C0A00000C0A02000C0A04000C0A06000C0A08000C0A0A000C0A0C000C0A0E000C0C00000C0C02000C0C04000C0C06000
310
C0C08000C0C0A000F0FBFF00A4A0A000808080000000FF0000FF000000FFFF00FF000000FF00FF00FFFF0000FFFFFF000000000000000000000000000000000000000000000000000000000000000000000000000000000000000000000000000000FFFF0000000000000000000000000000000000000000000000FAFFFFFF
310
FFFFFFFF00FFFF000000000000000000000000000000000000000000FF000000FFFF0000FF00FF0000000000000000000000000000000000000000FFFA0000000000FF0000FF0000000000000000000000000000000000000000FFFFFA000000000000FFFFFAFAFF000000000000000000000000000000000000FFFFFA0000
310
00F900000000FFFAFF000000000000000000000000000000000000FFFFFA0000F9F9F9000000FFFAFF000000000000000000000000000000000000FFFFFA000000F900000000FFFAFF000000000000000000000000000000000000FFFFFA0000000000000000FFFAFF000000000000000000000000000000000000FFFFFA00
310
00000000000000FFFAFF00000000000000000000000000000000000000FFFA0000000000000000FFFAFF00000000000000000000000000000000000000FF000000000000000000FFFAFF00000000000000000000000000000000000000FF000000000000000000FFFAFF00000000000000000000000000000000000000FF00
310
0000000000000000FFFAFF00000000000000000000000000000000000000FF000000000000000000FFFAFF00000000000000000000000000000000000000FF000000000000000000FFFAFF00000000000000000000000000000000000000FF000000000000000000FF000000000000000000000000000000000000000000FF
310
000000000000000000FF000000000000000000000000000000000000000000FF000000000000000000FF000000000000000000000000000000000000000000FF000000000000000000FF0000000000000000000000000000000000000000FFFF000000000000000000FF0000000000000000000000000000000000000000FF
310
FF00000000F9000000FFFF0000000000000000000000000000000000000000FFFF000000F9F9F90000FF000000000000000000000000000000000000000000FFFF00000000F90000FFFF000000000000000000000000000000000000000000FFFF00000000000000FFFF000000000000000000000000000000000000000000
310
FFFF000000000000FFFF0000000000000000000000000000000000000000000000FF00FAFAFAFA00FFFF0000000000000000000000000000000000000000000000FFFFFAFFFFFAFFFF00000000000000000000000000000000000000000000000000FFFAFAFAFA00FF00000000000000000000000000000000000000000000
310
000000FFFFFFFFFFFF0000000000000000000000000000000000000000000000000000000000000000000000000000000000000000000000
102
{BLKREFS
331
4C6
102
}
 70
     4
280
     1
281
     0
  0
BLOCK_RECORD
  5
430
330
1
100
AcDbSymbolTableRecord
100
AcDbBlockTableRecord
  2
*D2
340
0
 70
     0
280
     1
281
     0
  0
BLOCK_RECORD
  5
3CA
102
{ACAD_XDICTIONARY
360
3CB
102
}
330
1
100
AcDbSymbolTableRecord
100
AcDbBlockTableRecord
  2
e-modul draufsicht
340
0
102
{BLKREFS
331
3C9
102
}
 70
     0
280
     1
281
     0
  0
BLOCK_RECORD
  5
31A
102
{ACAD_XDICTIONARY
360
31B
102
}
330
1
100
AcDbSymbolTableRecord
100
AcDbBlockTableRecord
  2
e-modul vorderansicht
340
0
102
{BLKREFS
331
319
102
}
 70
     0
280
     1
281
     0
  0
BLOCK_RECORD
  5
39D
330
1
100
AcDbSymbolTableRecord
100
AcDbBlockTableRecord
  2
*D5
340
0
 70
     0
280
     1
281
     0
  0
BLOCK_RECORD
  5
301
330
1
100
AcDbSymbolTableRecord
100
AcDbBlockTableRecord
  2
*D6
340
0
 70
     0
280
     1
281
     0
  0
BLOCK_RECORD
  5
20F
330
1
100
AcDbSymbolTableRecord
100
AcDbBlockTableRecord
  2
Rueckwand_WP174e-V
340
0
310
2800000020000000200000000100080000000000000400000000000000000000000000000000000000000000000080000080000000808000800000008000800080800000C0C0C000C0DCC000F0CAA6000020400000206000002080000020A0000020C0000020E00000400000004020000040400000406000004080000040A0
310
000040C0000040E00000600000006020000060400000606000006080000060A0000060C0000060E00000800000008020000080400000806000008080000080A0000080C0000080E00000A0000000A0200000A0400000A0600000A0800000A0A00000A0C00000A0E00000C0000000C0200000C0400000C0600000C0800000C0
310
A00000C0C00000C0E00000E0000000E0200000E0400000E0600000E0800000E0A00000E0C00000E0E00040000000400020004000400040006000400080004000A0004000C0004000E00040200000402020004020400040206000402080004020A0004020C0004020E000404000004040200040404000404060004040800040
310
40A0004040C0004040E00040600000406020004060400040606000406080004060A0004060C0004060E00040800000408020004080400040806000408080004080A0004080C0004080E00040A0000040A0200040A0400040A0600040A0800040A0A00040A0C00040A0E00040C0000040C0200040C0400040C0600040C08000
310
40C0A00040C0C00040C0E00040E0000040E0200040E0400040E0600040E0800040E0A00040E0C00040E0E00080000000800020008000400080006000800080008000A0008000C0008000E00080200000802020008020400080206000802080008020A0008020C0008020E00080400000804020008040400080406000804080
310
008040A0008040C0008040E00080600000806020008060400080606000806080008060A0008060C0008060E00080800000808020008080400080806000808080008080A0008080C0008080E00080A0000080A0200080A0400080A0600080A0800080A0A00080A0C00080A0E00080C0000080C0200080C0400080C0600080C0
310
800080C0A00080C0C00080C0E00080E0000080E0200080E0400080E0600080E0800080E0A00080E0C00080E0E000C0000000C0002000C0004000C0006000C0008000C000A000C000C000C000E000C0200000C0202000C0204000C0206000C0208000C020A000C020C000C020E000C0400000C0402000C0404000C0406000C0
310
408000C040A000C040C000C040E000C0600000C0602000C0604000C0606000C0608000C060A000C060C000C060E000C0800000C0802000C0804000C0806000C0808000C080A000C080C000C080E000C0A00000C0A02000C0A04000C0A06000C0A08000C0A0A000C0A0C000C0A0E000C0C00000C0C02000C0C04000C0C06000
310
C0C08000C0C0A000F0FBFF00A4A0A000808080000000FF0000FF000000FFFF00FF000000FF00FF00FFFF0000FFFFFF00494949494949494949494949494949494949494949494949494949494949494949494949494949494949FF49494949494949494949494949494949494949494949494949494949494949FF49494949
310
494949494949494949494949494949494949494949494949494949FF4949494949F949494949494949494949494949494949494949494949494949FFFFFAFAFAFAFAFAFAFAFFFF4949494949494949494949494949494949494949FAFAFAFAFAFAFAFAFAFAFAFF4949494949494949494949494949494949494949FF494949
310
49494949494949FF4949494949494949494949494949494949494949FF4949F949494949F94949FF4949494949494949494949494949494949494949FFFFF9FAFA4949FAFAF9FFFF4949494949494949494949494949494949494949FFFF49FAFA4949FAFA49FFFF4949494949494949494949494949494949494949FFFF49
310
FAFAFAFAFAFA49FFFF4949494949494949494949494949494949494949FFFF49F949FAFA49F949FFFF4949494949494949494949494949494949494949FFFF4949494949494949FFFF4949494949494949494949494949494949494949FFFF4949494949494949FFFF4949494949494949494949494949494949494949FFFF
310
4949494949494949FFFF4949494949494949494949494949494949494949FFFF4949494949494949FFFF4949494949494949494949494949494949494949FFFF4949494949494949FFFF4949494949494949494949494949494949494949FFFF4949494949494949FFFF4949494949494949494949494949494949494949FF
310
FF4949FAFAFAFA4949FFFF4949494949494949494949494949494949494949FFFF49FAFAFAFAFAFA49FFFF4949494949494949494949494949494949494949FFFF49FAFA4949FAFA49FFFF4949494949494949494949494949494949494949FFFF49FAFA4949FAFA49FFFF4949494949494949494949494949494949494949
310
FFFF49FAFA4949FAFA49FFFF4949494949494949494949494949494949494949FFFF49FAFA4949FAFA49FFFF4949494949494949494949494949494949494949FFFF49FAFAFAFAFAFA49FFFF4949494949494949494949494949494949494949FFFF4949494949494949FFFF49494949494949494949494949494949494949
310
49FFFF4949494949494949FFFF4949494949494949494949494949494949494949FFFF4949494949494949FFFF4949494949494949494949494949494949494949FFFF4949494949494949FFFF4949494949494949494949494949494949494949FFFFFFFFFFFFFFFFFFFFFFFF494949494949494949494949494949494949
310
4949FFFFFFFFFFFFFFFFFFFFFFFF494949494949494949494949494949494949494949494949494949494949494949494949494949494949
102
{BLKREFS
331
20E
102
}
 70
     4
280
     1
281
     0
  0
BLOCK_RECORD
  5
162
330
1
100
AcDbSymbolTableRecord
100
AcDbBlockTableRecord
  2
pumpe 200ml vorderansicht_Sensor
340
0
310
2800000020000000200000000100080000000000000400000000000000000000000000000000000000000000000080000080000000808000800000008000800080800000C0C0C000C0DCC000F0CAA6000020400000206000002080000020A0000020C0000020E00000400000004020000040400000406000004080000040A0
310
000040C0000040E00000600000006020000060400000606000006080000060A0000060C0000060E00000800000008020000080400000806000008080000080A0000080C0000080E00000A0000000A0200000A0400000A0600000A0800000A0A00000A0C00000A0E00000C0000000C0200000C0400000C0600000C0800000C0
310
A00000C0C00000C0E00000E0000000E0200000E0400000E0600000E0800000E0A00000E0C00000E0E00040000000400020004000400040006000400080004000A0004000C0004000E00040200000402020004020400040206000402080004020A0004020C0004020E000404000004040200040404000404060004040800040
310
40A0004040C0004040E00040600000406020004060400040606000406080004060A0004060C0004060E00040800000408020004080400040806000408080004080A0004080C0004080E00040A0000040A0200040A0400040A0600040A0800040A0A00040A0C00040A0E00040C0000040C0200040C0400040C0600040C08000
310
40C0A00040C0C00040C0E00040E0000040E0200040E0400040E0600040E0800040E0A00040E0C00040E0E00080000000800020008000400080006000800080008000A0008000C0008000E00080200000802020008020400080206000802080008020A0008020C0008020E00080400000804020008040400080406000804080
310
008040A0008040C0008040E00080600000806020008060400080606000806080008060A0008060C0008060E00080800000808020008080400080806000808080008080A0008080C0008080E00080A0000080A0200080A0400080A0600080A0800080A0A00080A0C00080A0E00080C0000080C0200080C0400080C0600080C0
310
800080C0A00080C0C00080C0E00080E0000080E0200080E0400080E0600080E0800080E0A00080E0C00080E0E000C0000000C0002000C0004000C0006000C0008000C000A000C000C000C000E000C0200000C0202000C0204000C0206000C0208000C020A000C020C000C020E000C0400000C0402000C0404000C0406000C0
310
408000C040A000C040C000C040E000C0600000C0602000C0604000C0606000C0608000C060A000C060C000C060E000C0800000C0802000C0804000C0806000C0808000C080A000C080C000C080E000C0A00000C0A02000C0A04000C0A06000C0A08000C0A0A000C0A0C000C0A0E000C0C00000C0C02000C0C04000C0C06000
310
C0C08000C0C0A000F0FBFF00A4A0A000808080000000FF0000FF000000FFFF00FF000000FF00FF00FFFF0000FFFFFF004949494949494949494949494949494949494949494949494949494949494949494949494949494949494949494949FFFF494949494949494949494949494949494949494949494949494949494949
310
FFFF4949494949494949494949494949494949494949494949FFFFFFFFFFFFFFFFFFFFFFFFFFFFFFFF49494949494949494949494949494949FF4949494949494949494949494949FF49494949494949494949494949494949FF4949494949494949494949494949FF49494949494949494949494949494949FF4949494949
310
494949494949494949FF49494949494949494949494949494949FF4949494949494949494949494949FF49494949494949494949494949494949FF4949494949494949494949494949FF49494949494949494949494949494949FF4949494949494949494949494949FF49494949494949494949494949494949FF49494949
310
49494949494949494949FF49494949494949494949494949494949FF4949494949494949494949494949FF49494949494949494949494949494949FF4949494949494949494949494949FF49494949494949494949494949494949FF4949494949494949494949494949FF49494949494949494949494949494949FF494949
310
4949494949494949494949FF49494949494949494949494949494949FFFAFAFAFAFAFAFAFAFAFAFAFAFAFAFA49494949494949494949494949494949FFFAFFFFFFFFFFFFFFFFFFFFFFFFFAFF49494949494949494949494949494949FFFA494949494949494949494949FAFF49494949494949494949494949494949FFFA49
310
4949494949494949494949FAFF49494949494949494949494949494949FFFA494949494949494949494949FAFF49494949494949494949494949494949FFFA494949494949494949494949FAFF49494949494949494949494949494949FFFA494949494949494949494949FAFF49494949494949494949494949494949FFFA
310
494949494949494949494949FAFF49494949494949494949494949494949FFFA494949494949494949494949FAFF49494949494949494949494949494949FFFA494949494949494949494949FAFF49494949494949494949494949494949FFFA494949494949494949494949FAFF49494949494949494949494949494949FF
310
FA494949494949494949494949FAFF49494949494949494949494949494949FFFAFAFAFAFAFAFAFAFAFAFAFAFAFAFF49494949494949494949494949494949FFFAFAFAFAFAFAFAFAFAFAFAFAFAFAFF49494949494949494949494949494949FFFFFFFFFFFFFFFFFFFFFFFFFFFFFFFF49494949494949494949494949494949
310
49FFFAFFFFFFFFFFFFFFFFFFFFFAFF4949494949494949494949494949494949494949494949494949494949494949494949494949494949
102
{BLKREFS
331
15E
102
}
 70
     4
280
     1
281
     0
  0
BLOCK_RECORD
  5
10F
102
{ACAD_XDICTIONARY
360
110
102
}
330
1
100
AcDbSymbolTableRecord
100
AcDbBlockTableRecord
  2
desipumpe_dr
340
0
102
{BLKREFS
331
10E
102
}
 70
     0
280
     1
281
     0
  0
BLOCK_RECORD
  5
102
330
1
100
AcDbSymbolTableRecord
100
AcDbBlockTableRecord
  2
*D10
340
0
 70
     0
280
     1
281
     0
  0
BLOCK_RECORD
  5
F5
330
1
100
AcDbSymbolTableRecord
100
AcDbBlockTableRecord
  2
*D11
340
0
 70
     0
280
     1
281
     0
  0
BLOCK_RECORD
  5
E5
330
1
100
AcDbSymbolTableRecord
100
AcDbBlockTableRecord
  2
*D12
340
0
 70
     0
280
     1
281
     0
  0
BLOCK_RECORD
  5
D7
330
1
100
AcDbSymbolTableRecord
100
AcDbBlockTableRecord
  2
Kolbendruckplatte01_s
340
0
310
2800000020000000200000000100080000000000000400000000000000000000000000000000000000000000000080000080000000808000800000008000800080800000C0C0C000C0DCC000F0CAA6000020400000206000002080000020A0000020C0000020E00000400000004020000040400000406000004080000040A0
310
000040C0000040E00000600000006020000060400000606000006080000060A0000060C0000060E00000800000008020000080400000806000008080000080A0000080C0000080E00000A0000000A0200000A0400000A0600000A0800000A0A00000A0C00000A0E00000C0000000C0200000C0400000C0600000C0800000C0
310
A00000C0C00000C0E00000E0000000E0200000E0400000E0600000E0800000E0A00000E0C00000E0E00040000000400020004000400040006000400080004000A0004000C0004000E00040200000402020004020400040206000402080004020A0004020C0004020E000404000004040200040404000404060004040800040
310
40A0004040C0004040E00040600000406020004060400040606000406080004060A0004060C0004060E00040800000408020004080400040806000408080004080A0004080C0004080E00040A0000040A0200040A0400040A0600040A0800040A0A00040A0C00040A0E00040C0000040C0200040C0400040C0600040C08000
310
40C0A00040C0C00040C0E00040E0000040E0200040E0400040E0600040E0800040E0A00040E0C00040E0E00080000000800020008000400080006000800080008000A0008000C0008000E00080200000802020008020400080206000802080008020A0008020C0008020E00080400000804020008040400080406000804080
310
008040A0008040C0008040E00080600000806020008060400080606000806080008060A0008060C0008060E00080800000808020008080400080806000808080008080A0008080C0008080E00080A0000080A0200080A0400080A0600080A0800080A0A00080A0C00080A0E00080C0000080C0200080C0400080C0600080C0
310
800080C0A00080C0C00080C0E00080E0000080E0200080E0400080E0600080E0800080E0A00080E0C00080E0E000C0000000C0002000C0004000C0006000C0008000C000A000C000C000C000E000C0200000C0202000C0204000C0206000C0208000C020A000C020C000C020E000C0400000C0402000C0404000C0406000C0
310
408000C040A000C040C000C040E000C0600000C0602000C0604000C0606000C0608000C060A000C060C000C060E000C0800000C0802000C0804000C0806000C0808000C080A000C080C000C080E000C0A00000C0A02000C0A04000C0A06000C0A08000C0A0A000C0A0C000C0A0E000C0C00000C0C02000C0C04000C0C06000
310
C0C08000C0C0A000F0FBFF00A4A0A000808080000000FF0000FF000000FFFF00FF000000FF00FF00FFFF0000FFFFFF00494949494949494949494949494949494949494949494949494949494949494949494949494949494949494949494949FFFFFF49494949494949494949494949494949494949494949494949FFFFFF
310
FF4949FF49494949494949494949494949494949494949494949494949FF4949494949FF49494949494949494949494949494949494949494949494949FF4949494949FF49494949494949494949494949494949494949494949494949FF494949494949FF494949494949494949494949494949494949494949494949FF49
310
49FFFFFF49FF494949494949494949494949494949494949494949494949FF4949FF4949FFFF494949494949494949494949494949494949494949494949FF4949FF4949FFFF49494949494949494949494949494949494949494949494949FF49FFFFFF49FF49494949494949494949494949494949494949494949494949
310
FF4949494949FF49494949494949494949494949494949494949494949494949FF4949494949FF49494949494949494949494949494949494949494949494949FF4949494949FF49494949494949494949494949494949494949494949494949FF4949494949FF494949494949494949494949494949494949494949494949
310
49FF4949494949FF49494949494949494949494949494949494949494949494949FF4949494949FF49494949494949494949494949494949494949494949494949FF4949494949FF49494949494949494949494949494949494949494949494949FF4949494949FF4949494949494949494949494949494949494949494949
310
4949FF4949494949FF49494949494949494949494949494949494949494949494949FF4949494949FF49494949494949494949494949494949494949494949494949FF4949494949FF4949494949494949494949494949494949494949494949494949FF49494949FF49494949494949494949494949494949494949494949
310
49494949FF49494949FF4949494949494949494949494949494949494949494949494949FF49494949FF4949494949494949494949494949494949494949494949494949FF49494949FF4949494949494949494949494949494949494949494949494949FF49494949FF494949494949494949494949494949494949494949
310
4949494949FFFFFFFF49FF4949494949494949494949494949494949494949494949494949FFFF49FFFFFF4949494949494949494949494949494949494949494949494949FFFFFFFF49FF4949494949494949494949494949494949494949494949494949FFFF4949FF494949494949494949494949494949494949494949
310
4949494949494949FFFF49494949494949494949494949494949494949494949494949494949494949494949494949494949494949494949
102
{BLKREFS
331
D6
102
}
 70
     4
280
     1
281
     0
  0
BLOCK_RECORD
  5
7B
330
1
100
AcDbSymbolTableRecord
100
AcDbBlockTableRecord
  2
Desipumpe_937045_S
340
0
310
2800000020000000200000000100080000000000000400000000000000000000000000000000000000000000000080000080000000808000800000008000800080800000C0C0C000C0DCC000F0CAA6000020400000206000002080000020A0000020C0000020E00000400000004020000040400000406000004080000040A0
310
000040C0000040E00000600000006020000060400000606000006080000060A0000060C0000060E00000800000008020000080400000806000008080000080A0000080C0000080E00000A0000000A0200000A0400000A0600000A0800000A0A00000A0C00000A0E00000C0000000C0200000C0400000C0600000C0800000C0
310
A00000C0C00000C0E00000E0000000E0200000E0400000E0600000E0800000E0A00000E0C00000E0E00040000000400020004000400040006000400080004000A0004000C0004000E00040200000402020004020400040206000402080004020A0004020C0004020E000404000004040200040404000404060004040800040
310
40A0004040C0004040E00040600000406020004060400040606000406080004060A0004060C0004060E00040800000408020004080400040806000408080004080A0004080C0004080E00040A0000040A0200040A0400040A0600040A0800040A0A00040A0C00040A0E00040C0000040C0200040C0400040C0600040C08000
310
40C0A00040C0C00040C0E00040E0000040E0200040E0400040E0600040E0800040E0A00040E0C00040E0E00080000000800020008000400080006000800080008000A0008000C0008000E00080200000802020008020400080206000802080008020A0008020C0008020E00080400000804020008040400080406000804080
310
008040A0008040C0008040E00080600000806020008060400080606000806080008060A0008060C0008060E00080800000808020008080400080806000808080008080A0008080C0008080E00080A0000080A0200080A0400080A0600080A0800080A0A00080A0C00080A0E00080C0000080C0200080C0400080C0600080C0
310
800080C0A00080C0C00080C0E00080E0000080E0200080E0400080E0600080E0800080E0A00080E0C00080E0E000C0000000C0002000C0004000C0006000C0008000C000A000C000C000C000E000C0200000C0202000C0204000C0206000C0208000C020A000C020C000C020E000C0400000C0402000C0404000C0406000C0
310
408000C040A000C040C000C040E000C0600000C0602000C0604000C0606000C0608000C060A000C060C000C060E000C0800000C0802000C0804000C0806000C0808000C080A000C080C000C080E000C0A00000C0A02000C0A04000C0A06000C0A08000C0A0A000C0A0C000C0A0E000C0C00000C0C02000C0C04000C0C06000
310
C0C08000C0C0A000F0FBFF00A4A0A000808080000000FF0000FF000000FFFF00FF000000FF00FF00FFFF0000FFFFFF00494949494949494949494949494949494949494949494949494949494949494949494949494949494949494949494949494949FAFA494949494949494949494949494949494949494949494949FFFF
310
FFFFFFFFFAFAFA4949494949494949494949494949494949494949494949FAFA494949494949FA4949494949494949494949494949494949494949494949FAFA494949494949FA4949494949494949494949494949494949494949494949FAFAFAFAFAFAFAFAFA4949494949494949494949494949494949494949494949FA
310
FAFAFA49494949FA4949494949494949494949494949494949494949494949FAFAFA4949494949FA4949494949494949494949494949494949494949494949FAFAFA4949494949FA494949494949494949494949494949494949494949494949FA494949494949FA4949494949494949494949494949494949494949494949
310
49FA494949494949FA494949494949494949494949494949494949494949494949FA494949494949FA494949494949494949494949494949494949494949494949FA494949494949FA494949494949494949494949494949494949494949494949FAFFFFFFFFFFFFFA49494949494949494949494949494949494949494949
310
FAFA49494949494949FA4949494949494949494949494949494949494949FFFAFFFFFFFFFFFFFFFFFFFA4949494949494949494949494949494949494949FA49494949494949494949FA4949494949494949494949494949494949494949FA49494949494949494949FA4949494949494949494949494949494949494949FA
310
49494949494949494949FA4949494949494949494949494949494949494949FA49494949494949494949FA4949494949494949494949494949494949494949FA49494949494949494949FA4949494949494949494949494949494949494949FA49494949494949494949FA4949494949494949494949494949494949494949
310
FA49494949494949494949FA4949494949494949494949494949494949494949FA49494949494949494949FA4949494949494949494949494949494949494949FA49494949494949494949FA4949494949494949494949494949494949494949FA49494949494949494949FA49494949494949494949494949494949494949
310
49FA49494949494949494949FA4949494949494949494949494949494949494949FA49494949494949494949FA4949494949494949494949494949494949494949FAFAFA4949494949494949FA4949494949494949494949494949494949494949FFFFFFFFFAFAFAFAFAFAFFFA494949494949494949494949494949494949
310
4949494949FFFFFFFFFFFFFFFF49494949494949494949494949494949494949494949494949494949494949494949494949494949494949
102
{BLKREFS
331
78
102
}
 70
     4
280
     1
281
     0
  0
ENDTAB
  0
ENDSEC
  0
SECTION
  2
BLOCKS
  0
BLOCK
  5
5
330
2
100
AcDbEntity
  8
0
100
AcDbBlockBegin
  2
*Model_Space
 70
     0
 10
0.0
 20
0.0
 30
0.0
  3
*Model_Space
  1

  0
ENDBLK
  5
16
330
2
100
AcDbEntity
  8
0
100
AcDbBlockEnd
  0
BLOCK
  5
1D
330
1C
100
AcDbEntity
 67
     1
  8
0
100
AcDbBlockBegin
  2
*Paper_Space
 70
     0
 10
0.0
 20
0.0
 30
0.0
  3
*Paper_Space
  1

  0
ENDBLK
  5
1E
330
1C
100
AcDbEntity
 67
     1
  8
0
100
AcDbBlockEnd
  0
BLOCK
  5
27A
330
277
100
AcDbEntity
  8
0
100
AcDbBlockBegin
  2
DIN A4 Quer
 70
     2
 10
0.0
 20
0.0
 30
0.0
  3
DIN A4 Quer
  1

  0
LINE
  5
27B
330
277
100
AcDbEntity
  8
01-99
100
AcDbLine
 10
6.000001890710336
 20
6.000000518749175
 30
0.0
 11
6.000001890710223
 21
204.0000005187492
 31
0.0
  0
LINE
  5
27F
330
277
100
AcDbEntity
  8
01-99
100
AcDbLine
 10
6.000001890710223
 20
204.0000005187492
 30
0.0
 11
291.0000018907103
 21
204.0000005187492
 31
0.0
  0
LINE
  5
280
330
277
100
AcDbEntity
  8
02-01
100
AcDbLine
 10
297.0000018907104
 20
210.0000005187492
 30
0.0
 11
0.0000018907103367
 21
210.0000005187492
 31
0.0
  0
LINE
  5
284
330
277
100
AcDbEntity
  8
02-01
100
AcDbLine
 10
0.0000018907103367
 20
210.0000005187492
 30
0.0
 11
0.0000018907103367
 21
0.0000005187491752
 31
0.0
  0
LINE
  5
285
330
277
100
AcDbEntity
  8
01-99
100
AcDbLine
 10
291.0000018907103
 20
6.000000518749288
 30
0.0
 11
291.0000018907103
 21
204.0000005187492
 31
0.0
  0
LINE
  5
286
330
277
100
AcDbEntity
  8
01-99
100
AcDbLine
 10
291.0000018907103
 20
6.000000518749288
 30
0.0
 11
6.000001890710336
 21
6.000000518749175
 31
0.0
  0
LINE
  5
287
330
277
100
AcDbEntity
  8
02-01
100
AcDbLine
 10
0.0000018907103367
 20
0.0000005187491752
 30
0.0
 11
297.0000018907104
 21
0.0000005187491752
 31
0.0
  0
LINE
  5
288
330
277
100
AcDbEntity
  8
02-01
100
AcDbLine
 10
297.0000018907104
 20
0.0000005187491752
 30
0.0
 11
297.0000018907104
 21
210.0000005187492
 31
0.0
  0
LINE
  5
289
330
277
100
AcDbEntity
  8
01-99
100
AcDbLine
 10
157.0000018907103
 20
11.11111162974919
 30
0.0
 11
107.0000018907103
 21
11.11111162974919
 31
0.0
  0
LINE
  5
28A
330
277
100
AcDbEntity
  8
01-99
100
AcDbLine
 10
157.0000018907103
 20
16.2222227407492
 30
0.0
 11
107.0000018907103
 21
16.2222227407492
 31
0.0
  0
LINE
  5
28B
330
277
100
AcDbEntity
  8
01-99
100
AcDbLine
 10
157.0000018907103
 20
21.33333385174922
 30
0.0
 11
107.0000018907103
 21
21.33333385174916
 31
0.0
  0
LINE
  5
28C
330
277
100
AcDbEntity
  8
01-99
100
AcDbLine
 10
202.0000018907103
 20
26.44444496274923
 30
0.0
 11
107.0000018907103
 21
26.44444496274918
 31
0.0
  0
LINE
  5
28D
330
277
100
AcDbEntity
  8
01-99
100
AcDbLine
 10
202.0000018907103
 20
31.55555607374925
 30
0.0
 11
107.0000018907103
 21
31.55555607374919
 31
0.0
  0
LINE
  5
28E
330
277
100
AcDbEntity
  8
01-99
100
AcDbLine
 10
132.0000018907103
 20
6.000000518749175
 30
0.0
 11
132.0000018907103
 21
11.11111162974919
 31
0.0
  0
LINE
  5
28F
330
277
100
AcDbEntity
  8
01-99
100
AcDbLine
 10
115.0000018907103
 20
11.11111162974919
 30
0.0
 11
115.0000018907103
 21
36.66666718541586
 31
0.0
  0
LINE
  5
290
330
277
100
AcDbEntity
  8
01-99
100
AcDbLine
 10
157.0000018907103
 20
6.000000518749175
 30
0.0
 11
157.0000018907103
 21
52.00000051874917
 31
0.0
  0
LINE
  5
291
330
277
100
AcDbEntity
  8
01-99
100
AcDbLine
 10
202.0000018907103
 20
6.000000518749175
 30
0.0
 11
202.0000018907103
 21
52.00000051874917
 31
0.0
  0
LINE
  5
292
330
277
100
AcDbEntity
  8
01-99
100
AcDbLine
 10
231.5000018907103
 20
6.000000518749175
 30
0.0
 11
231.5000018907103
 21
16.22222274074926
 31
0.0
  0
LINE
  5
293
330
277
100
AcDbEntity
  8
01-99
100
AcDbLine
 10
264.0000018907104
 20
6.000000518749175
 30
0.0
 11
264.0000018907104
 21
16.22222274074931
 31
0.0
  0
LINE
  5
294
330
277
100
AcDbEntity
  8
01-99
100
AcDbLine
 10
235.5000018907103
 20
36.66666718541592
 30
0.0
 11
235.5000018907103
 21
52.00000051874929
 31
0.0
  0
LINE
  5
295
330
277
100
AcDbEntity
  8
01-99
100
AcDbLine
 10
269.0000018907103
 20
36.66666718541592
 30
0.0
 11
269.0000018907103
 21
52.00000051874929
 31
0.0
  0
LINE
  5
296
330
277
100
AcDbEntity
  8
01-99
100
AcDbLine
 10
165.0000018907103
 20
21.33333385208254
 30
0.0
 11
165.0000018907103
 21
36.66666718541592
 31
0.0
  0
LINE
  5
297
330
277
100
AcDbEntity
  8
01-99
100
AcDbLine
 10
147.0031902301398
 20
11.11111162974919
 30
0.0
 11
147.0031902301398
 21
36.66666718541586
 31
0.0
  0
LINE
  5
298
330
277
100
AcDbEntity
  8
01-99
100
AcDbLine
 10
135.0031902301398
 20
11.11111162974919
 30
0.0
 11
135.0031902301398
 21
36.66666718541586
 31
0.0
  0
LINE
  5
299
330
277
100
AcDbEntity
  8
01-99
100
AcDbLine
 10
291.0000018907103
 20
52.00000051874929
 30
0.0
 11
107.0000018907085
 21
52.00000051874917
 31
0.0
  0
LINE
  5
29A
330
277
100
AcDbEntity
  8
01-99
100
AcDbLine
 10
202.0000018907103
 20
21.33333385208254
 30
0.0
 11
157.0000018907103
 21
21.33333385208254
 31
0.0
  0
LINE
  5
29B
330
277
100
AcDbEntity
  8
01-99
100
AcDbLine
 10
202.0000018907103
 20
36.66666718541592
 30
0.0
 11
107.0000018907103
 21
36.66666718541581
 31
0.0
  0
LINE
  5
29C
330
277
100
AcDbEntity
  8
01-99
100
AcDbLine
 10
179.0000018907103
 20
21.33333385208254
 30
0.0
 11
179.0000018907103
 21
52.00000051874923
 31
0.0
  0
LINE
  5
29D
330
277
100
AcDbEntity
  8
01-99
100
AcDbLine
 10
157.0000018907103
 20
36.66666718541586
 30
0.0
 11
165.0000018907103
 21
31.5555560854159
 31
0.0
  0
LINE
  5
29E
330
277
100
AcDbEntity
  8
01-99
100
AcDbLine
 10
157.0000018907103
 20
31.5555560854159
 30
0.0
 11
165.0000018907103
 21
36.66666718541592
 31
0.0
  0
LINE
  5
29F
330
277
100
AcDbEntity
  8
01-99
100
AcDbLine
 10
291.0000018907103
 20
44.33333385208254
 30
0.0
 11
202.0000018907103
 21
44.33333385208249
 31
0.0
  0
LINE
  5
2A0
330
277
100
AcDbEntity
  8
01-99
100
AcDbLine
 10
202.0000018907103
 20
16.2222227407492
 30
0.0
 11
291.0000018907103
 21
16.22222274074931
 31
0.0
  0
LINE
  5
2A1
330
277
100
AcDbEntity
  8
01-99
100
AcDbLine
 10
202.0000018907103
 20
36.66666718541592
 30
0.0
 11
291.0000018907103
 21
36.66666718541597
 31
0.0
  0
LINE
  5
2A2
330
277
100
AcDbEntity
  8
01-99
100
AcDbLine
 10
179.0000018907103
 20
41.7777782967492
 30
0.0
 11
157.0000018907103
 21
41.7777782967492
 31
0.0
  0
LINE
  5
2A3
330
277
100
AcDbEntity
  8
01-99
100
AcDbLine
 10
179.0000018907103
 20
46.88888940774922
 30
0.0
 11
157.0000018907103
 21
46.88888940774916
 31
0.0
  0
LINE
  5
2A4
330
277
100
AcDbEntity
  8
01-99
100
AcDbLine
 10
107.0000018907085
 20
52.00000051874917
 30
0.0
 11
107.0000018907085
 21
6.000000518749175
 31
0.0
  0
TEXT
  5
2A5
330
277
100
AcDbEntity
  8
08-99
100
AcDbText
 10
203.4997030590166
 20
32.66987422660714
 30
0.0
 40
2.5
  1
Benennung/Teil:
 51
15.0
  7
ROMANS8
100
AcDbText
  0
TEXT
  5
2AA
330
277
100
AcDbEntity
  8
08-99
100
AcDbText
 10
265.5028293382777
 20
12.01760321297985
 30
0.0
 40
2.7
  1
Ident-Nr.
 51
15.0
  7
ROMANS8
100
AcDbText
  0
TEXT
  5
2AB
330
277
100
AcDbEntity
  8
08-99
100
AcDbText
 10
180.5000236238784
 20
33.05557748053161
 30
0.0
 40
2.5
  1
Name:
 51
15.0
  7
ROMANS8
100
AcDbText
  0
TEXT
  5
2AC
330
277
100
AcDbEntity
  8
08-99
100
AcDbText
 10
166.5077710332552
 20
33.04841847975365
 30
0.0
 40
2.5
  1
Datum:
 50
0.102528160689452
 41
0.8933771909280748
 51
15.0
  7
ROMANS8
 72
     5
 11
177.6749680403372
 21
33.06840168621363
 31
0.0
100
AcDbText
  0
TEXT
  5
2AD
330
277
100
AcDbEntity
  8
08-99
100
AcDbText
 10
116.5000099724457
 20
33.05597761772907
 30
0.0
 40
1.6
  1
Änderung:
 51
15.0
  7
ROMANS8
100
AcDbText
  0
TEXT
  5
2AE
330
277
100
AcDbEntity
  8
08-99
100
AcDbText
 10
133.4999399664632
 20
9.111119817911628
 30
0.0
 40
1.0
  1
ERSETZT.DURCH:
 51
15.0
  7
ROMANS8
100
AcDbText
  0
TEXT
  5
2AF
330
277
100
AcDbEntity
  8
08-99
100
AcDbText
 10
108.499362706382
 20
9.110854721685427
 30
0.0
 40
1.0
  1
ERSETZT.FÜR:
 51
15.0
  7
ROMANS8
100
AcDbText
  0
TEXT
  5
2B0
330
277
100
AcDbEntity
  8
08-99
100
AcDbText
 10
232.9909087328646
 20
12.61295738281296
 30
0.0
 40
2.112
  1
AUFTRAGS.NR.:
 51
15.0
  7
ROMANS8
100
AcDbText
  0
TEXT
  5
2B1
330
277
100
AcDbEntity
  8
08-99
100
AcDbText
 10
203.5034660957227
 20
12.61092917477953
 30
0.0
 40
2.112
  1
Sonder-Nr:
 51
15.0
  7
ROMANS8
100
AcDbText
  0
TEXT
  5
2B2
330
277
100
AcDbEntity
  8
08-99
100
AcDbText
 10
186.6963093857886
 20
49.92370902579148
 30
0.0
 40
1.349999999999999
  1
Format
 51
15.0
  7
ROMANS8
100
AcDbText
  0
TEXT
  5
2B3
330
277
100
AcDbEntity
  8
08-99
100
AcDbText
 10
185.3043816374782
 20
44.64161931184992
 30
0.0
 40
1.822499999999999
  1
Normen
 51
15.0
  7
ROMANS8
100
AcDbText
  0
TEXT
  5
2B4
330
277
100
AcDbEntity
  8
08-99
100
AcDbText
 10
108.5000314946119
 20
33.0555683543073
 30
0.0
 40
1.6
  1
Zust.
 51
15.0
  7
ROMANS8
100
AcDbText
  0
TEXT
  5
2B5
330
277
100
AcDbEntity
  8
08-99
100
AcDbText
 10
136.5031825918795
 20
33.05555977024574
 30
0.0
 40
1.6
  1
Datum:
 51
15.0
  7
ROMANS8
100
AcDbText
  0
TEXT
  5
2B6
330
277
100
AcDbEntity
  8
08-99
100
AcDbText
 10
148.5032155076424
 20
33.05556457669462
 30
0.0
 40
1.6
  1
Name:
 51
15.0
  7
ROMANS8
100
AcDbText
  0
TEXT
  5
2B7
330
277
100
AcDbEntity
  8
08-99
100
AcDbText
 10
158.1545563363015
 20
28.03814008669803
 30
0.0
 40
1.6
  1
Erst.
 51
15.0
  7
ROMANS8
100
AcDbText
  0
TEXT
  5
2B8
330
277
100
AcDbEntity
  8
08-99
100
AcDbText
 10
157.517182253021
 20
23.19745157817022
 30
0.0
 40
1.6
  1
Bearb.
 51
15.0
  7
ROMANS8
100
AcDbText
  0
TEXT
  5
2B9
330
277
100
AcDbEntity
  8
08-99
100
AcDbText
 10
236.4308068024784
 20
41.61949801145603
 30
0.0
 40
2.0
  1
Zuschnittsbreite:
 51
15.0
  7
ROMANS8
100
AcDbText
  0
TEXT
  5
2BA
330
277
100
AcDbEntity
  8
08-99
100
AcDbText
 10
202.9849966647425
 20
41.73762414686279
 30
0.0
 40
2.0
  1
Zuschnittslänge:
 51
15.0
  7
ROMANS8
100
AcDbText
  0
LWPOLYLINE
  5
2BB
330
277
100
AcDbEntity
  8
06-99
100
AcDbPolyline
 90
      133
 70
     1
 43
0.010692
 10
180.7675417027103
 20
18.87656536808259
 10
181.0090490347104
 20
19.08724766408261
 10
180.9228536947104
 20
19.2262579200825
 10
180.8242663267103
 20
19.35180694808264
 10
180.7136290747105
 20
19.46394108008263
 10
180.5912983387103
 20
19.56271377608249
 10
180.4576162627104
 20
19.64816424008256
 10
180.3129285547104
 20
19.72033880408253
 10
180.1575880507104
 20
19.77929092808256
 10
179.9919368947105
 20
19.82505981608255
 10
179.8163243587104
 20
19.85769180008265
 10
179.6310997147105
 20
19.87724034008261
 10
179.4366086707105
 20
19.88374464008257
 10
179.2756833787104
 20
19.87768227608256
 10
179.1199437067102
 20
19.85975892008253
 10
178.9697211067105
 20
19.83036304808269
 10
178.8253505947104
 20
19.78989026408254
 10
178.6871636227104
 20
19.73873617208267
 10
178.5554845147104
 20
19.67729281208255
 10
178.4306554147105
 20
19.60595222408256
 10
178.3130006467104
 20
19.52510644808251
 10
178.2028516627103
 20
19.43514752408259
 10
178.1005470427104
 20
19.33647462008258
 10
178.0064075467105
 20
19.2294726480826
 10
177.9207717547105
 20
19.1145443400826
 10
177.8439711187104
 20
18.99207460808259
 10
177.7763335267104
 20
18.86245905608262
 10
177.7181939947104
 20
18.72608972408255
 10
177.6698804107104
 20
18.58336578008254
 10
177.6317242267105
 20
18.43467213608255
 10
177.6040640227103
 20
18.28040796008252
 10
177.5872205587104
 20
18.12096172808259
 10
177.5815359787104
 20
17.95672904408258
 10
177.5871492787104
 20
17.78762437208263
 10
177.6038002867105
 20
17.62428981608258
 10
177.6311896267102
 20
17.46704257208256
 10
177.6690179227102
 20
17.31619627208249
 10
177.7169893627103
 20
17.17206454808257
 10
177.7748081347105
 20
17.0349610320826
 10
177.8421784267104
 20
16.90519579208256
 10
177.9188008627104
 20
16.78308602408253
 10
178.0043796307104
 20
16.66894179608255
 10
178.0986224827104
 20
16.56308030408257
 10
178.2012229147103
 20
16.46581161608259
 10
178.3118958067103
 20
16.3774529280825
 10
178.4303346547105
 20
16.29831430808264
 10
178.5562472107103
 20
16.22870938808262
 10
178.6893340987103
 20
16.16895536408253
 10
178.8293030707103
 20
16.11936230408258
 10
178.9758511867105
 20
16.08024384008263
 10
179.1286897627103
 20
16.05191360408264
 10
179.2875122947104
 20
16.03468522808259
 10
179.4520300987104
 20
16.02887234408263
 10
179.6160275587104
 20
16.03412568008258
 10
179.7733603387104
 20
16.04976451208262
 10
179.9238395467104
 20
16.07559638408259
 10
180.0672762907103
 20
16.11142884008262
 10
180.2034852427104
 20
16.15707298808257
 10
180.3322739467103
 20
16.21233993608257
 10
180.4534570747104
 20
16.27703722808258
 10
180.5668386067104
 20
16.3509795360826
 10
180.6722403427104
 20
16.43397440408256
 10
180.7694626987104
 20
16.52582581208259
 10
180.8583239107104
 20
16.62635556008257
 10
180.9386350867105
 20
16.73536050008255
 10
181.0102037707104
 20
16.85266243208258
 10
181.0728410707104
 20
16.97806177208258
 10
181.1263616587105
 20
17.11137319208251
 10
181.1705766427103
 20
17.25240423608255
 10
181.2052900027104
 20
17.40096601208256
 10
181.2303235387104
 20
17.55686962808261
 10
181.2454812307105
 20
17.71992619208254
 10
181.2505741867103
 20
17.88993968408255
 10
181.2505741867103
 20
17.88993968408255
 10
181.2505741867103
 20
17.9413218720826
 10
179.6164659307104
 20
17.9413218720826
 10
179.6164659307104
 20
17.65355025608255
 10
180.8857275067103
 20
17.65355025608255
 10
180.8749891747103
 20
17.49100690808257
 10
180.8476568587103
 20
17.33636138408258
 10
180.8044362307105
 20
17.19027658808261
 10
180.7460329627104
 20
17.05341898808257
 10
180.6731598547105
 20
16.9264443600826
 10
180.5865261427104
 20
16.8100263000826
 10
180.4868303707104
 20
16.7048170200826
 10
180.3747889027104
 20
16.61149011608256
 10
180.2511074107103
 20
16.53069780008258
 10
180.1164915667104
 20
16.4631101040826
 10
179.9716506067103
 20
16.40938636808255
 10
179.8172937667104
 20
16.37019306008267
 10
179.6541267187105
 20
16.34618952008253
 10
179.4828586987105
 20
16.33804221608261
 10
179.3181983347104
 20
16.34599350008256
 10
179.1599032747103
 20
16.36937690408251
 10
179.0085651427103
 20
16.40748319208256
 10
178.8647719987102
 20
16.45960669208256
 10
178.7291047747104
 20
16.52503816808257
 10
178.6021550947103
 20
16.60306838408263
 10
178.4845074547104
 20
16.69299523208258
 10
178.3767534787104
 20
16.79410591208267
 10
178.2794776627105
 20
16.90569475208258
 10
178.1932645027103
 20
17.02705608008256
 10
178.1187056227104
 20
17.15747709608257
 10
178.0563855187104
 20
17.29625569208258
 10
178.0068922507104
 20
17.44268263208255
 10
177.9708138787102
 20
17.59604511608262
 10
177.9487348987103
 20
17.75564460008269
 10
177.9412469347104
 20
17.9207682840825
 10
177.9476336227105
 20
18.0891423360826
 10
177.9665370787104
 20
18.25115464808255
 10
177.9975581347105
 20
18.40630626008254
 10
178.0403011867104
 20
18.55410177608257
 10
178.0943741947103
 20
18.69404580008256
 10
178.1593779907104
 20
18.8256465000826
 10
178.2349169707104
 20
18.94840135208261
 10
178.3205990947104
 20
19.06182208808258
 10
178.4160251947103
 20
19.16540618408265
 10
178.5208067947103
 20
19.25866180808253
 10
178.6345375987105
 20
19.3410900000826
 10
178.7568326947105
 20
19.4121989280826
 10
178.8872893507102
 20
19.47148963208258
 10
179.0255155267105
 20
19.51846671608257
 10
179.1711191827105
 20
19.55263478408255
 10
179.3236975867105
 20
19.57350200408257
 10
179.4828586987105
 20
19.5805658520826
 10
179.6605633027104
 20
19.57164872408259
 10
179.8303166227105
 20
19.54501138808257
 10
179.9917800787104
 20
19.50082135208259
 10
180.1446150907104
 20
19.43924612408256
 10
180.2884830787104
 20
19.36046034008256
 10
180.4230490267105
 20
19.26462794408263
 10
180.5479743547104
 20
19.15192357208258
 10
180.6629169187105
 20
19.02251116808264
  0
LWPOLYLINE
  5
2C0
330
277
100
AcDbEntity
  8
06-99
100
AcDbPolyline
 90
       12
 70
     1
 43
0.010692
 10
177.4389973627103
 20
12.25281434408265
 10
179.3222648587105
 20
12.25281434408265
 10
179.4676012147104
 20
13.00768023608259
 10
178.5648720907104
 20
13.00768023608259
 10
178.6210549867103
 20
13.29950768408252
 10
179.4187173907104
 20
13.29950768408252
 10
179.5558030867103
 20
14.01156280808254
 10
178.7581406827103
 20
14.01156280808254
 10
178.8098471947103
 20
14.28005674808253
 10
179.6892285547103
 20
14.28005674808253
 10
179.8345542187104
 20
15.0349083840826
 10
177.9746344867104
 20
15.0349083840826
  0
LWPOLYLINE
  5
2C1
330
277
100
AcDbEntity
  8
06-99
100
AcDbPolyline
 90
        4
 70
     1
 43
0.010692
 10
163.6086138067104
 20
12.88042761608255
 10
176.0658630067103
 20
12.88042761608255
 10
175.9422848707104
 20
12.25209798008257
 10
163.4850392347104
 20
12.25209798008257
  0
SOLID
  5
2C2
330
277
100
AcDbEntity
  8
06-99
100
AcDbTrace
 10
163.6086138067104
 20
12.88042761608255
 30
0.0
 11
176.0658630067103
 21
12.88042761608255
 31
0.0
 12
163.4850392347104
 22
12.25209798008257
 32
0.0
 13
175.9422848707104
 23
12.25209798008257
 33
0.0
  0
LWPOLYLINE
  5
2C3
330
277
100
AcDbEntity
  8
06-99
100
AcDbPolyline
 90
       10
 70
     1
 43
0.010692
 10
169.3458447787104
 20
16.02887234408263
 10
170.3221847587103
 20
19.10266909208258
 10
171.3396497347103
 20
16.02887234408263
 10
172.5678005707104
 20
19.80153385208257
 10
172.2235110427103
 20
19.80153385208257
 10
171.3396497347103
 20
16.89303186008254
 10
170.3221847587103
 20
19.94541253208251
 10
169.3458447787104
 20
16.86733898408261
 10
168.4260120187104
 20
19.80153385208257
 10
168.0765832027105
 20
19.80153385208257
  0
LWPOLYLINE
  5
2C4
330
277
100
AcDbEntity
  8
06-99
100
AcDbPolyline
 90
        3
 70
     1
 43
0.010692
 10
174.3244177627104
 20
17.65868598008262
 10
174.9770360587104
 20
19.25683347608253
 10
175.6039650427103
 20
17.65868598008262
  0
LWPOLYLINE
  5
2C5
330
277
100
AcDbEntity
  8
06-99
100
AcDbPolyline
 90
        7
 70
     1
 43
0.010692
 10
173.3831831827104
 20
16.12735992008254
 10
173.7231959107104
 20
16.12735992008254
 10
174.2113641187103
 20
17.37092862008256
 10
175.7118651427105
 20
17.37092862008256
 10
176.1794940187103
 20
16.12735992008254
 10
176.5443406987103
 20
16.12735992008254
 10
174.9975932107104
 20
19.94541253208251
  0
LWPOLYLINE
  5
2C6
330
277
100
AcDbEntity
  8
06-99
100
AcDbPolyline
 90
        8
 70
     1
 43
0.010692
 10
185.9298068107102
 20
12.25281434408265
 10
187.0043813227103
 20
12.25281434408265
 10
187.1574087907104
 20
12.60301298408257
 10
187.9122746827104
 20
12.60301298408257
 10
187.9343465347103
 20
12.25281434408265
 10
189.0082759627103
 20
12.25281434408265
 10
188.5711513627103
 20
15.0349083840826
 10
187.4583137467103
 20
15.0349083840826
  0
LWPOLYLINE
  5
2C7
330
277
100
AcDbEntity
  8
06-99
100
AcDbPolyline
 90
       34
 70
     1
 43
0.010692
 10
183.0434586427104
 20
13.66137842408255
 10
183.0784820707102
 20
13.66137842408255
 10
183.0642260707104
 20
13.48699903208262
 10
183.0638019547103
 20
13.33510135208257
 10
183.0679005547104
 20
13.20222830408261
 10
183.0952328707104
 20
12.25281434408265
 10
183.9668304547102
 20
12.25281434408265
 10
185.3156904067102
 20
15.0349083840826
 10
184.3118078347104
 20
15.0349083840826
 10
183.8579146147103
 20
13.80923096408253
 10
183.8078119027104
 20
13.66872739208253
 10
183.7488419587103
 20
13.48671391208251
 10
183.6900288307102
 20
13.26059949608265
 10
183.6666953227103
 20
13.26059949608265
 10
183.6884214667103
 20
13.45803440408258
 10
183.6929798227104
 20
13.61569507208253
 10
183.6919391347103
 20
13.73531360408259
 10
183.6775548307103
 20
15.0349083840826
 10
182.9732870467103
 20
15.0349083840826
 10
182.4584850667104
 20
13.73531360408259
 10
182.4113832427102
 20
13.61569507208253
 10
182.3552288587104
 20
13.45803440408258
 10
182.3009241907103
 20
13.26059949608265
 10
182.2775906827103
 20
13.26059949608265
 10
182.3058460747104
 20
13.48671391208251
 10
182.3169657547104
 20
13.66872739208253
 10
182.3209609987103
 20
13.80923096408253
 10
182.3390340427103
 20
15.0349083840826
 10
181.3345063867103
 20
15.0349083840826
 10
181.6127371747104
 20
12.25281434408265
 10
182.4843311947103
 20
12.25281434408265
 10
182.8772408107104
 20
13.20222830408261
 10
182.9325148867103
 20
13.33510135208257
 10
182.9905795747104
 20
13.48699903208262
  0
LWPOLYLINE
  5
2C8
330
277
100
AcDbEntity
  8
06-99
100
AcDbPolyline
 90
       10
 70
     1
 43
0.010692
 10
187.4520696187103
 20
13.2644842560826
 10
187.5983611267103
 20
13.57965946808258
 10
187.6731124627104
 20
13.74409530008267
 10
187.7541542587104
 20
13.9457107800826
 10
187.8288307507103
 20
14.19056470808266
 10
187.8482901907103
 20
14.19056470808266
 10
187.8286668067103
 20
13.9457107800826
 10
187.8320739907103
 20
13.74409530008267
 10
187.8435073027103
 20
13.57965946808258
 10
187.8684125347105
 20
13.2644842560826
  0
LWPOLYLINE
  5
2C9
330
277
100
AcDbEntity
  8
06-99
100
AcDbPolyline
 90
       23
 70
     1
 43
0.010692
 10
190.5867074107104
 20
12.25281434408265
 10
191.5672422187102
 20
12.25281434408265
 10
191.7440380027103
 20
13.17110389208255
 10
192.0536284267105
 20
12.25281434408265
 10
193.1742391267103
 20
12.25281434408265
 10
192.6490694707104
 20
13.38511496408256
 10
192.8084301667104
 20
13.42380931208259
 10
192.9537023707103
 20
13.49881725608259
 10
193.0813505947103
 20
13.60690268408257
 10
193.1878322227103
 20
13.74481879208258
 10
193.2696010747103
 20
13.90932234008255
 10
193.3231145347102
 20
14.09717008808257
 10
193.3446018907103
 20
14.26809240008259
 10
193.3403037067103
 20
14.42330103608265
 10
193.3102306747104
 20
14.56226139608259
 10
193.2543934867102
 20
14.6844353160825
 10
193.1728099627103
 20
14.78928819608262
 10
193.0654943587103
 20
14.87627830808259
 10
192.9324538027104
 20
14.94487461608258
 10
192.7737096787102
 20
14.99453539208264
 10
192.5892655507103
 20
15.0247260360826
 10
192.3791463667103
 20
15.0349083840826
 10
191.1223445347103
 20
15.0349083840826
  0
LWPOLYLINE
  5
2CA
330
277
100
AcDbEntity
  8
06-99
100
AcDbPolyline
 90
        9
 70
     1
 43
0.010692
 10
191.9650345147104
 20
14.31896493608258
 10
192.1206850867104
 20
14.31896493608258
 10
192.2773549627104
 20
14.28538492808252
 10
192.3582221227102
 20
14.19041145608264
 10
192.3632188507104
 20
14.04270147608258
 10
192.3008666707103
 20
13.89700159208263
 10
192.1832938747103
 20
13.8057810120826
 10
192.0158143867103
 20
13.77422179208253
 10
191.8601638147104
 20
13.77422179208253
  0
LWPOLYLINE
  5
2CB
330
277
100
AcDbEntity
  8
06-99
100
AcDbPolyline
 90
       12
 70
     1
 43
0.010692
 10
187.5798033787105
 20
16.12735992008254
 10
189.3989010547104
 20
16.12735992008254
 10
189.3989010547104
 20
16.44082441208252
 10
187.9138214587104
 20
16.44082441208252
 10
187.9138214587104
 20
18.02353266008265
 10
189.3989010547104
 20
18.02353266008265
 10
189.3989010547104
 20
18.33699715208263
 10
187.9138214587104
 20
18.33699715208263
 10
187.9138214587104
 20
19.48806936008259
 10
189.3989010547104
 20
19.48806936008259
 10
189.3989010547104
 20
19.80153385208257
 10
187.5798033787105
 20
19.80153385208257
  0
LWPOLYLINE
  5
2CC
330
277
100
AcDbEntity
  8
06-99
100
AcDbPolyline
 90
        8
 70
     1
 43
0.010692
 10
182.8530269947105
 20
16.12735992008254
 10
183.1870486387104
 20
16.12735992008254
 10
183.1870486387104
 20
19.09753336808256
 10
185.7666682747103
 20
16.01858664008256
 10
185.7666682747103
 20
19.80153385208257
 10
185.4326608867104
 20
19.80153385208257
 10
185.4326608867104
 20
16.88274615608259
 10
182.8530269947105
 20
19.95568398008254
  0
LWPOLYLINE
  5
2CD
330
277
100
AcDbEntity
  8
06-99
100
AcDbPolyline
 90
       19
 70
     1
 43
0.010692
 10
191.4484255867105
 20
19.50862651208251
 10
191.7824329747104
 20
19.50862651208251
 10
191.9866180987103
 20
19.50030813608259
 10
192.1604486347104
 20
19.47385969208255
 10
192.3048975547104
 20
19.4270572440825
 10
192.4209200107105
 20
19.35767329208255
 10
192.5094818467105
 20
19.26348033608252
 10
192.5715453427103
 20
19.14225087608264
 10
192.6080799067104
 20
18.99175028408251
 10
192.6200442547104
 20
18.80976175208258
 10
192.6074490787103
 20
18.63100933208255
 10
192.5693784307105
 20
18.48586186808256
 10
192.5054188867104
 20
18.37130421608265
 10
192.4151392027104
 20
18.28432836008261
 10
192.2981259547105
 20
18.2219227200826
 10
192.1539514627104
 20
18.18107215208255
 10
191.9821916107103
 20
18.15877220408265
 10
191.7824329747104
 20
18.15200773208261
 10
191.4484255867105
 20
18.15200773208261
  0
LWPOLYLINE
  5
2CE
330
277
100
AcDbEntity
  8
06-99
100
AcDbPolyline
 90
       29
 70
     1
 43
0.010692
 10
193.3446018907103
 20
16.12735992008254
 10
192.0239581267103
 20
17.87965398008259
 10
192.2123761147105
 20
17.89225272008264
 10
192.3829028227104
 20
17.92942167608254
 10
192.5344013347104
 20
17.99023064408266
 10
192.6657240427104
 20
18.0737565480826
 10
192.7757304667104
 20
18.17905849208256
 10
192.8632765627103
 20
18.3052169640826
 10
192.9272254147104
 20
18.45129463208263
 10
192.9664329787103
 20
18.61636129208261
 10
192.9797552107102
 20
18.79949030408261
 10
192.9699399547105
 20
18.9745539840826
 10
192.9404834947105
 20
19.13261738408261
 10
192.8913573187104
 20
19.27374822008261
 10
192.8225436067105
 20
19.39801420808248
 10
192.7340174107104
 20
19.50548662808262
 10
192.6257537827105
 20
19.5962367600826
 10
192.4977313387104
 20
19.67032875608254
 10
192.3499251307103
 20
19.72783389608258
 10
192.1823137747103
 20
19.76882702408261
 10
191.9948758867103
 20
19.79336872808261
 10
191.7875829547104
 20
19.80153385208257
 10
191.7875829547104
 20
19.80153385208257
 10
191.1144075067104
 20
19.80153385208257
 10
191.1144075067104
 20
16.12735992008254
 10
191.4484255867105
 20
16.12735992008254
 10
191.4484255867105
 20
17.87965398008259
 10
191.6488399987104
 20
17.87965398008259
 10
192.9386409067103
 20
16.12735992008254
  0
TEXT
  5
2CF
330
277
100
AcDbEntity
  8
06-99
100
AcDbText
 10
172.6083599897699
 20
9.633209504468425
 30
0.0
 40
1.4256
  1
GmbH & Co KG
 41
1.199203187251
 51
15.0
  7
ROMAND8
 72
     5
 11
193.04195998977
 21
9.633209504468425
 31
0.0
100
AcDbText
  0
TEXT
  5
2D1
330
277
100
AcDbEntity
  8
06-99
100
AcDbText
 10
172.7098167443538
 20
7.391016232044876
 30
0.0
 40
1.4256
  1
72774 Reutlingen
 50
0.5663244663116128
 41
1.087840993687879
 51
15.0
  7
ROMAND8
 72
     5
 11
192.9434167443538
 21
7.591016232044864
 31
0.0
100
AcDbText
  0
TEXT
  5
2D2
330
277
100
AcDbEntity
  8
08-99
100
AcDbText
 10
160.4141200905478
 20
48.45009214919253
 30
0.0
 40
2.25
  1
Zul. Abw.
 51
15.0
  7
ROMANS8
100
AcDbText
  0
TEXT
  5
2D3
330
277
100
AcDbEntity
  8
08-99
100
AcDbText
 10
210.2099282109939
 20
49.2861646781227
 30
0.0
 40
2.0
  1
Mat. Art.
 51
15.0
  7
ROMANS8
100
AcDbText
  0
TEXT
  5
2D4
330
277
100
AcDbEntity
  8
08-99
100
AcDbText
 10
242.4865328610831
 20
49.40431390209392
 30
0.0
 40
2.0
  1
Oberfläche:
 51
15.0
  7
ROMANS8
100
AcDbText
  0
TEXT
  5
2D5
330
277
100
AcDbEntity
  8
08-99
100
AcDbText
 10
270.2625397292909
 20
41.73764723542717
 30
0.0
 40
2.0
  1
Blech Dicke:
 51
15.0
  7
ROMANS8
100
AcDbText
  0
TEXT
  5
2D6
330
277
100
AcDbEntity
  8
08-99
100
AcDbText
 10
274.438029919268
 20
49.28616467812275
 30
0.0
 40
2.0
  1
Maßstab:
 51
15.0
  7
ROMANS8
100
AcDbText
  0
LINE
  5
2D7
330
277
100
AcDbEntity
  8
01-99
100
AcDbLine
 10
202.0000018907103
 20
46.88888940774922
 30
0.0
 11
179.0000018907103
 21
46.88888940774922
 31
0.0
  0
LINE
  5
2D8
330
277
100
AcDbEntity
  8
01-99
100
AcDbLine
 10
202.0000018907103
 20
44.33333385208249
 30
0.0
 11
179.0000018907103
 21
44.33333385208249
 31
0.0
  0
LINE
  5
2D9
330
277
100
AcDbEntity
  8
01-99
100
AcDbLine
 10
202.0000018907103
 20
40.50000051874917
 30
0.0
 11
179.0000018907103
 21
40.50000051874917
 31
0.0
  0
ATTDEF
  5
2DA
330
277
100
AcDbEntity
  8
06-99
100
AcDbText
 10
203.4954486298875
 20
26.18783921603142
 30
0.0
 40
4.5
  1

 41
0.9
  7
ROMANS8
100
AcDbAttributeDefinition
280
     0
  3
Benennung/Teil
  2
TEILE
 70
     0
280
     0
  0
ATTDEF
  5
2DB
330
277
100
AcDbEntity
  8
06-99
100
AcDbText
 10
203.4954486298875
 20
18.95060400366537
 30
0.0
 40
4.5
  1

 41
0.9
  7
ROMANS8
100
AcDbAttributeDefinition
280
     0
  3
Benennung/Teil2
  2
TEILE2
 70
     0
280
     0
  0
ATTDEF
  5
2DC
330
277
100
AcDbEntity
  8
06-99
100
AcDbText
 10
278.3473881024249
 20
45.33333385208254
 30
0.0
 40
3.375
  1

  7
ROMANS8
100
AcDbAttributeDefinition
280
     0
  3
Maßstab
  2
:
 70
     0
280
     0
  0
ATTDEF
  5
2DD
330
277
100
AcDbEntity
  8
06-99
100
AcDbText
 10
179.9970696900777
 20
27.4416859867805
 30
0.0
 40
2.5
  1

 41
0.9
  7
ROMANS8
100
AcDbAttributeDefinition
280
     0
  3
Name
  2
NAME
 70
     0
280
     0
  0
ATTDEF
  5
2DE
330
277
100
AcDbEntity
  8
06-99
100
AcDbText
 10
166.4931483426044
 20
27.46123569286044
 30
0.0
 40
2.5
  1

 50
359.9144597696142
 41
0.9542572414211148
  7
ROMANS8
 72
     5
 11
177.7397390111491
 21
27.44444498541589
 31
0.0
100
AcDbAttributeDefinition
280
     0
  3
Datum
  2
DATUM
 70
     0
280
     0
  0
ATTDEF
  5
2DF
330
277
100
AcDbEntity
  8
06-99
100
AcDbText
 10
265.5063458578686
 20
7.492900319037914
 30
0.0
 40
2.99376
  1

  7
ROMANS8
100
AcDbAttributeDefinition
280
     0
  3
Ident-Nummer
  2
ID.NR
 70
     0
280
     0
  0
ATTDEF
  5
2E0
330
277
100
AcDbEntity
  8
06-99
100
AcDbText
 10
203.7312681464209
 20
37.66666716319367
 30
0.0
 40
3.0
  1

 41
0.9
  7
ROMANS8
100
AcDbAttributeDefinition
280
     0
  3
Zuschnitts.Länge
  2
LÄNGE
 70
     0
280
     0
  0
ATTDEF
  5
2E1
330
277
100
AcDbEntity
  8
06-99
100
AcDbText
 10
237.1808068024801
 20
37.67810438919398
 30
0.0
 40
3.0
  1

 41
0.9
  7
ROMANS8
100
AcDbAttributeDefinition
280
     0
  3
Zuschnitts Breite
  2
BREITE
 70
     0
280
     0
  0
ATTDEF
  5
2E2
330
277
100
AcDbEntity
  8
06-99
100
AcDbText
 10
277.6090940174422
 20
37.66666718541598
 30
0.0
 40
3.09375
  1

  7
ROMANS8
100
AcDbAttributeDefinition
280
     0
  3
Blech.Dicke
  2
1.0
 70
     0
280
     0
  0
ATTDEF
  5
2E3
330
277
100
AcDbEntity
  8
06-99
100
AcDbText
 10
251.127787492113
 20
45.33333385208266
 30
0.0
 40
3.0
  1

  7
ROMANS8
 72
     1
 11
251.127787492113
 21
45.33333385208266
 31
0.0
100
AcDbAttributeDefinition
280
     0
  3
Oberfläche
  2
IV
 70
     0
280
     0
  0
ATTDEF
  5
2E4
330
277
100
AcDbEntity
  8
06-99
100
AcDbText
 10
210.2747424268261
 20
45.33333385208249
 30
0.0
 40
3.375
  1
1.4301
  7
ROMANS8
100
AcDbAttributeDefinition
280
     0
  3
Mat.Art
  2
1.4301
 70
     0
280
     0
  0
ATTDEF
  5
2E5
330
277
100
AcDbEntity
  8
06-99
100
AcDbText
 10
233.0006357775904
 20
7.504397123103842
 30
0.0
 40
3.168
  1

 41
0.9
  7
ROMANS8
100
AcDbAttributeDefinition
280
     0
  3
Auftrags Nr.
  2
AUFTRAGS.NR.
 70
     0
280
     0
  0
ATTDEF
  5
2E6
330
277
100
AcDbEntity
  8
06-99
100
AcDbText
 10
203.5000018907104
 20
7.500000518749232
 30
0.0
 40
3.168
  1

 41
0.9
  7
ROMANS8
100
AcDbAttributeDefinition
280
     0
  3
Sonder-NR,WPS
  2
SONDER-NR
 70
     0
280
     0
  0
ATTDEF
  5
2E7
330
277
100
AcDbEntity
  8
06-99
100
AcDbText
 10
133.4997528857186
 20
6.601810588009072
 30
0.0
 40
1.5
  1

 41
0.9
  7
ROMANS8
100
AcDbAttributeDefinition
280
     0
  3
ERSETZT.Durch
  2
ERSETZT.DURCH
 70
     0
280
     0
  0
ATTDEF
  5
2E8
330
277
100
AcDbEntity
  8
06-99
100
AcDbText
 10
108.4994696709088
 20
6.597456916621638
 30
0.0
 40
1.5
  1

 41
0.9
  7
ROMANS8
100
AcDbAttributeDefinition
280
     0
  3
ERSETZT.Für
  2
ERSETZT.FÜR
 70
     0
280
     0
  0
ATTDEF
  5
2E9
330
277
100
AcDbEntity
  8
06-99
100
AcDbText
 10
186.9730745371479
 20
47.66851165875721
 30
0.0
 40
1.287
  1
DIN A4
  7
ROMANS8
 72
     1
 11
190.2518602514336
 21
47.66851165875721
 31
0.0
100
AcDbAttributeDefinition
280
     0
  3
Format
  2
FORMAT
 70
     0
280
     0
  0
ATTDEF
  5
2EA
330
277
100
AcDbEntity
  8
06-99
100
AcDbText
 10
182.9908211122643
 20
37.31860869812611
 30
0.0
 40
2.34
  1
DIN 2768
  7
ROMANS8
 72
     1
 11
191.0136782551214
 21
37.31860869812611
 31
0.0
100
AcDbAttributeDefinition
280
     0
  3
Norm / Kanten
  2
NORM2
 70
     0
280
     0
  0
ATTDEF
  5
2EB
330
277
100
AcDbEntity
  8
06-99
100
AcDbText
 10
179.8151068265501
 20
41.15194203145941
 30
0.0
 40
2.34
  1
DIN 6930-M
  7
ROMANS8
 72
     1
 11
190.5122496836929
 21
41.15194203145941
 31
0.0
100
AcDbAttributeDefinition
280
     0
  3
Norm / Fräsen
  2
NORM1
 70
     0
280
     0
  0
ENDBLK
  5
2EC
330
277
100
AcDbEntity
  8
0
100
AcDbBlockEnd
  0
BLOCK
  5
4C8
330
4C7
100
AcDbEntity
  8
0
100
AcDbBlockBegin
  2
Sensor-Betätigungsmodul
 70
     0
 10
0.0
 20
0.0
 30
0.0
  3
Sensor-Betätigungsmodul
  1

  0
LINE
  5
4C9
330
4C7
100
AcDbEntity
  8
0
100
AcDbLine
 10
-0.0000000000003411
 20
8.599999999999795
 30
0.0
 11
0.0
 21
2.5
 31
0.0
  0
LINE
  5
4CA
330
4C7
100
AcDbEntity
  8
0
100
AcDbLine
 10
-0.0000000000002274
 20
-20.49999999999994
 30
0.0
 11
-0.0000000000001137
 21
-67.5
 31
0.0
  0
LINE
  5
4CB
330
4C7
100
AcDbEntity
  8
03-01
100
AcDbLine
 10
2.79999999999984
 20
-65.39999999999986
 30
0.0
 11
2.79999999999984
 21
-102.7055531081737
 31
0.0
  0
LINE
  5
4CC
330
4C7
100
AcDbEntity
  8
0
100
AcDbLine
 10
-0.0000000000001137
 20
-90.5
 30
0.0
 11
-0.0000000000001137
 21
-96.39999999999993
 31
0.0
  0
LINE
  5
4CD
330
4C7
100
AcDbEntity
  8
03-01
100
AcDbLine
 10
-1.200000000000159
 20
-0.0000000000000568
 30
0.0
 11
-1.200000000000045
 21
-20.50000000000006
 31
0.0
  0
LINE
  5
4CE
330
4C7
100
AcDbEntity
  8
0
100
AcDbLine
 10
-3.300000000000068
 20
0.5
 30
0.0
 11
-3.300000000000068
 21
-20.50000000000006
 31
0.0
  0
ARC
  5
4CF
330
4C7
100
AcDbEntity
  8
0
100
AcDbCircle
 10
-1.300000000000068
 20
0.5
 30
0.0
 40
2.0
100
AcDbArc
 50
90.0
 51
180.0
  0
LINE
  5
4D0
330
4C7
100
AcDbEntity
  8
0
100
AcDbLine
 10
42.99999999999989
 20
-27.2820219666524
 30
0.0
 11
42.99999999999977
 21
-45.0
 31
0.0
  0
LINE
  5
4D1
330
4C7
100
AcDbEntity
  8
0
100
AcDbLine
 10
42.99999999999966
 20
-93.00000000000006
 30
0.0
 11
42.99999999999977
 21
-96.15658297858965
 31
0.0
  0
LINE
  5
4D2
330
4C7
100
AcDbEntity
  8
0
100
AcDbLine
 10
49.99999999999977
 20
-45.0
 30
0.0
 11
49.99999999999989
 21
-93.00000000000006
 31
0.0
  0
LINE
  5
4D3
330
4C7
100
AcDbEntity
  8
0
100
AcDbLine
 10
31.36940242224194
 20
-104.8999999999999
 30
0.0
 11
8.499999999999886
 21
-104.8999999999999
 31
0.0
  0
LINE
  5
4D4
330
4C7
100
AcDbEntity
  8
0
100
AcDbLine
 10
24.17361915066488
 20
14.60000000000013
 30
0.0
 11
5.999999999999658
 21
14.60000000000008
 31
0.0
  0
LINE
  5
4D5
330
4C7
100
AcDbEntity
  8
03-01
100
AcDbLine
 10
22.33680957533227
 20
11.60000000000019
 30
0.0
 11
7.836809575332267
 21
11.60000000000013
 31
0.0
  0
LINE
  5
4D6
330
4C7
100
AcDbEntity
  8
03-01
100
AcDbLine
 10
22.33680957533227
 20
3.100000000000136
 30
0.0
 11
7.836809575332267
 21
3.100000000000079
 31
0.0
  0
ARC
  5
4D7
330
4C7
100
AcDbEntity
  8
0
100
AcDbCircle
 10
5.999999999999658
 20
8.600000000000079
 30
0.0
 40
6.0
100
AcDbArc
 50
90.0
 51
180.0000000000032
  0
LINE
  5
4D8
330
4C7
100
AcDbEntity
  8
03-01
100
AcDbLine
 10
2.79999999999984
 20
-65.39999999999986
 30
0.0
 11
-0.0000000000001137
 21
-65.39999999999986
 31
0.0
  0
ARC
  5
4D9
330
4C7
100
AcDbEntity
  8
0
100
AcDbCircle
 10
8.499999999999886
 20
-96.39999999999993
 30
0.0
 40
8.5
100
AcDbArc
 50
180.0
 51
270.0
  0
LINE
  5
4DA
330
4C7
100
AcDbEntity
  8
0
100
AcDbLine
 10
25.00728896843054
 20
7.5
 30
0.0
 11
2.499999999999886
 21
7.5
 31
0.0
  0
ARC
  5
4DB
330
4C7
100
AcDbEntity
  8
0
100
AcDbCircle
 10
25.00728896843054
 20
-1.0
 30
0.0
 40
8.5
100
AcDbArc
 50
20.00000000000065
 51
90.0
  0
LINE
  5
4DC
330
4C7
100
AcDbEntity
  8
0
100
AcDbLine
 10
49.99999999999977
 20
-45.0
 30
0.0
 11
42.99999999999977
 21
-45.0
 31
0.0
  0
LINE
  5
4DD
330
4C7
100
AcDbEntity
  8
0
100
AcDbLine
 10
49.99999999999989
 20
-93.00000000000006
 30
0.0
 11
42.99999999999966
 21
-93.00000000000006
 31
0.0
  0
LINE
  5
4DE
330
4C7
100
AcDbEntity
  8
03-01
100
AcDbLine
 10
47.49999999999988
 20
-90.50000000000006
 30
0.0
 11
42.99999999999966
 21
-90.50000000000006
 31
0.0
  0
ARC
  5
4DF
330
4C7
100
AcDbEntity
  8
0
100
AcDbCircle
 10
2.499999999999886
 20
5.0
 30
0.0
 40
2.5
100
AcDbArc
 50
90.0
 51
180.0
  0
LINE
  5
4E0
330
4C7
100
AcDbEntity
  8
0
100
AcDbLine
 10
-0.0000000000001137
 20
2.5
 30
0.0
 11
-1.300000000000068
 21
2.5
 31
0.0
  0
LINE
  5
4E1
330
4C7
100
AcDbEntity
  8
03-01
100
AcDbLine
 10
-0.0000000000001137
 20
0.0
 30
0.0
 11
-1.200000000000159
 21
-0.0000000000000568
 31
0.0
  0
LINE
  5
4E2
330
4C7
100
AcDbEntity
  8
0
100
AcDbLine
 10
-0.0000000000001137
 20
-20.5
 30
0.0
 11
-3.300000000000068
 21
-20.50000000000006
 31
0.0
  0
LINE
  5
4E3
330
4C7
100
AcDbEntity
  8
0
100
AcDbLine
 10
-3.300000000000068
 20
-69.5
 30
0.0
 11
-3.300000000000068
 21
-90.50000000000006
 31
0.0
  0
ARC
  5
4E4
330
4C7
100
AcDbEntity
  8
0
100
AcDbCircle
 10
-1.300000000000068
 20
-69.5
 30
0.0
 40
2.0
100
AcDbArc
 50
90.0
 51
180.0
  0
LINE
  5
4E5
330
4C7
100
AcDbEntity
  8
0
100
AcDbLine
 10
-0.0000000000001137
 20
-67.5
 30
0.0
 11
-1.300000000000068
 21
-67.5
 31
0.0
  0
LINE
  5
4E6
330
4C7
100
AcDbEntity
  8
0
100
AcDbLine
 10
-0.0000000000001137
 20
-90.5
 30
0.0
 11
-3.300000000000068
 21
-90.50000000000006
 31
0.0
  0
LINE
  5
4E7
330
4C7
100
AcDbEntity
  8
03-01
100
AcDbLine
 10
-1.200000000000159
 20
-70.00000000000006
 30
0.0
 11
-1.200000000000045
 21
-90.50000000000006
 31
0.0
  0
LINE
  5
4E8
330
4C7
100
AcDbEntity
  8
03-01
100
AcDbLine
 10
-0.0000000000001137
 20
-70.0
 30
0.0
 11
-1.200000000000159
 21
-70.00000000000006
 31
0.0
  0
LINE
  5
4E9
330
4C7
100
AcDbEntity
  8
03-01
100
AcDbLine
 10
48.19999999999982
 20
-45.0
 30
0.0
 11
47.49999999999988
 21
-90.50000000000006
 31
0.0
  0
LINE
  5
4EA
330
4C7
100
AcDbEntity
  8
03-01
100
AcDbLine
 10
0.0
 20
2.5
 30
0.0
 11
-0.0000000000002274
 21
-20.49999999999994
 31
0.0
  0
LINE
  5
4EB
330
4C7
100
AcDbEntity
  8
03-01
100
AcDbLine
 10
-0.0000000000001137
 20
-67.5
 30
0.0
 11
-0.0000000000001137
 21
-90.5
 31
0.0
  0
LINE
  5
4EC
330
4C7
100
AcDbEntity
  8
03-01
100
AcDbLine
 10
42.99999999999977
 20
-45.0
 30
0.0
 11
42.99999999999977
 21
-93.00000000000006
 31
0.0
  0
ARC
  5
4ED
330
4C7
100
AcDbEntity
  8
0
100
AcDbCircle
 10
16.7755654402124
 20
-102.3
 30
0.0
 40
1.0
100
AcDbArc
 50
270.0
 51
305.9497089065583
  0
ARC
  5
4EE
330
4C7
100
AcDbEntity
  8
0
100
AcDbCircle
 10
40.5999999999999
 20
-85.02246509265711
 30
0.0
 40
1.000000000000005
100
AcDbArc
 50
305.9497089065583
 51
0.0
  0
LINE
  5
4EF
330
4C7
100
AcDbEntity
  8
0
100
AcDbLine
 10
8.899999999999863
 20
-103.3
 30
0.0
 11
16.7755654402124
 21
-103.3
 31
0.0
  0
ARC
  5
4F0
330
4C7
100
AcDbEntity
  8
0
100
AcDbCircle
 10
8.899999999999863
 20
-95.80000000000001
 30
0.0
 40
7.500000000000014
100
AcDbArc
 50
180.0
 51
270.0
  0
LINE
  5
4F1
330
4C7
100
AcDbEntity
  8
0
100
AcDbLine
 10
1.399999999999863
 20
3.900000000000034
 30
0.0
 11
1.399999999999863
 21
-95.80000000000001
 31
0.0
  0
ARC
  5
4F2
330
4C7
100
AcDbEntity
  8
0
100
AcDbCircle
 10
3.399999999999863
 20
3.900000000000034
 30
0.0
 40
2.0
100
AcDbArc
 50
90.0
 51
180.0
  0
LINE
  5
4F3
330
4C7
100
AcDbEntity
  8
0
100
AcDbLine
 10
24.79999999999995
 20
5.900000000000034
 30
0.0
 11
3.399999999999863
 21
5.900000000000034
 31
0.0
  0
ARC
  5
4F4
330
4C7
100
AcDbEntity
  8
0
100
AcDbCircle
 10
24.79999999999995
 20
-1.599999999999965
 30
0.0
 40
7.500000000000028
100
AcDbArc
 50
20.00000000001707
 51
90.0
  0
LINE
  5
4F5
330
4C7
100
AcDbEntity
  8
0
100
AcDbLine
 10
41.1030671952758
 20
-24.46377598564897
 30
0.0
 11
31.8476946558942
 21
0.9651510749426392
 31
0.0
  0
LINE
  5
4F6
330
4C7
100
AcDbEntity
  8
0
100
AcDbLine
 10
42.41863686437603
 20
-23.98494778499304
 30
0.0
 11
29.81177487538037
 21
10.65212085995415
 31
0.0
  0
ARC
  5
4F7
330
4C7
100
AcDbEntity
  8
0
100
AcDbCircle
 10
24.17361915066488
 20
8.600000000000136
 30
0.0
 40
6.0
100
AcDbArc
 50
20.00000000000065
 51
90.0
  0
ARC
  5
4F8
330
4C7
100
AcDbEntity
  8
0
100
AcDbCircle
 10
33.3599999999999
 20
-27.2820219666524
 30
0.0
 40
8.23999999999998
100
AcDbArc
 50
0.0
 51
20.00000000001707
  0
ARC
  5
4F9
330
4C7
100
AcDbEntity
  8
0
100
AcDbCircle
 10
33.3599999999999
 20
-27.2820219666524
 30
0.0
 40
9.639999999999981
100
AcDbArc
 50
0.0
 51
20.00000000001707
  0
LINE
  5
4FA
330
4C7
100
AcDbEntity
  8
0
100
AcDbLine
 10
41.59999999999991
 20
-85.02246509265711
 30
0.0
 11
41.59999999999991
 21
-27.2820219666524
 31
0.0
  0
LINE
  5
4FB
330
4C7
100
AcDbEntity
  8
0
100
AcDbLine
 10
17.36264035541512
 20
-103.1095326083237
 30
0.0
 11
41.18707491520285
 21
-85.83199770098081
 31
0.0
  0
CIRCLE
  5
4FC
330
4C7
100
AcDbEntity
  8
0
100
AcDbCircle
 10
21.51766465965579
 20
-13.60883232982866
 30
0.0
 40
1.75
  0
CIRCLE
  5
4FD
330
4C7
100
AcDbEntity
  8
0
100
AcDbCircle
 10
21.51766465965488
 20
-83.60883232982866
 30
0.0
 40
1.75
  0
LINE
  5
4FE
330
4C7
100
AcDbEntity
  8
05-01
  6
Continuous
100
AcDbLine
 10
21.51766465965579
 20
-16.35883232982866
 30
0.0
 11
21.51766465965579
 21
-10.85883232982866
 31
0.0
  0
LINE
  5
4FF
330
4C7
100
AcDbEntity
  8
05-01
  6
Continuous
100
AcDbLine
 10
18.76766465965579
 20
-13.60883232982866
 30
0.0
 11
24.2676646596558
 21
-13.60883232982866
 31
0.0
  0
LINE
  5
500
330
4C7
100
AcDbEntity
  8
05-01
  6
Continuous
100
AcDbLine
 10
21.51766465965488
 20
-86.35883232982866
 30
0.0
 11
21.51766465965488
 21
-80.85883232982865
 31
0.0
  0
LINE
  5
501
330
4C7
100
AcDbEntity
  8
05-01
  6
Continuous
100
AcDbLine
 10
18.76766465965488
 20
-83.60883232982866
 30
0.0
 11
24.26766465965489
 21
-83.60883232982866
 31
0.0
  0
ARC
  5
502
330
4C7
100
AcDbEntity
  8
03-01
100
AcDbCircle
 10
7.836809575332267
 20
7.350000000000136
 30
0.0
 40
4.25
100
AcDbArc
 50
90.0
 51
270.0
  0
ARC
  5
503
330
4C7
100
AcDbEntity
  8
03-01
100
AcDbCircle
 10
22.33680957533227
 20
7.350000000000136
 30
0.0
 40
4.25
100
AcDbArc
 50
270.0
 51
90.0
  0
LINE
  5
504
330
4C7
100
AcDbEntity
  8
0
100
AcDbLine
 10
34.62971126714365
 20
-107.2924552718343
 30
0.0
 11
45.93049885575431
 21
-105.2998058666647
 31
0.0
  0
ARC
  5
505
330
4C7
100
AcDbEntity
  8
0
100
AcDbCircle
 10
34.57761641703382
 20
-106.9970130158991
 30
0.0
 40
0.3
100
AcDbArc
 50
215.0
 51
280.0000769541884
  0
LWPOLYLINE
  5
506
330
4C7
100
AcDbEntity
  8
0
100
AcDbPolyline
 90
        9
 70
     0
 43
0.0
 10
43.52176514692359
 20
-105.7245339446396
 10
43.81734085507446
 20
-105.672439485106
 10
44.10155442781501
 20
-105.6223119788498
 10
44.36348703928047
 20
-105.5761183791489
 10
44.59306550450378
 20
-105.5356468253465
 10
44.78147951192909
 20
-105.5024172358842
 10
44.92147964663558
 20
-105.4777409129471
 10
45.00769404001289
 20
-105.4625417285294
 10
45.03680345840507
 20
-105.4574157290788
  0
LINE
  5
507
330
4C7
100
AcDbEntity
  8
0
100
AcDbLine
 10
32.51655529494406
 20
-104.5383040885779
 30
0.0
 11
42.14715287270189
 21
-97.79488706716769
 31
0.0
  0
ARC
  5
508
330
4C7
100
AcDbEntity
  8
0
100
AcDbCircle
 10
40.99999999999977
 20
-96.15658297858971
 30
0.0
 40
2.0
100
AcDbArc
 50
304.9999999999974
 51
0.0
  0
ARC
  5
509
330
4C7
100
AcDbEntity
  8
0
100
AcDbCircle
 10
31.36940242224194
 20
-102.8999999999999
 30
0.0
 40
2.0
100
AcDbArc
 50
270.0
 51
304.9999999999974
  0
LINE
  5
50A
330
4C7
100
AcDbEntity
  8
0
100
AcDbLine
 10
32.49851813927865
 20
-104.5507869933884
 30
0.0
 11
34.33187080374717
 21
-107.1690859468044
 31
0.0
  0
LINE
  5
50B
330
4C7
100
AcDbEntity
  8
0
100
AcDbLine
 10
41.50925962223914
 20
-98.2415447297147
 30
0.0
 11
46.12414961893114
 21
-104.8322906798243
 31
0.0
  0
ARC
  5
50C
330
4C7
100
AcDbEntity
  8
0
100
AcDbCircle
 10
45.87840400564448
 20
-105.0043636107296
 30
0.0
 40
0.3
100
AcDbArc
 50
280.0000769541884
 51
35.00000000000003
  0
ENDBLK
  5
50D
330
4C7
100
AcDbEntity
  8
0
100
AcDbBlockEnd
  0
BLOCK
  5
431
330
430
100
AcDbEntity
  8
0
100
AcDbBlockBegin
  2
*D2
 70
     1
 10
0.0
 20
0.0
 30
0.0
  3
*D2
  1

  0
LINE
  5
432
330
430
100
AcDbEntity
  8
0
 62
     4
440
 16777216
370
    -2
100
AcDbLine
 10
341.6389020803422
 20
265.2713703452101
 30
0.0
 11
316.5784931009152
 21
265.2713703452101
 31
0.0
  0
LINE
  5
433
330
430
100
AcDbEntity
  8
0
 62
     4
440
 16777216
370
    -2
100
AcDbLine
 10
341.6389020803422
 20
453.7713703452101
 30
0.0
 11
316.5784931009152
 21
453.7713703452101
 31
0.0
  0
LINE
  5
434
330
430
100
AcDbEntity
  8
0
 62
     4
440
 16777216
370
    -2
100
AcDbLine
 10
318.5784931009152
 20
270.2713703452101
 30
0.0
 11
318.5784931009152
 21
448.7713703452101
 31
0.0
  0
SOLID
  5
435
330
430
100
AcDbEntity
  8
0
 62
     4
440
 16777216
100
AcDbTrace
 10
317.7451597675819
 20
270.2713703452101
 30
0.0
 11
319.4118264342485
 21
270.2713703452101
 31
0.0
 12
318.5784931009152
 22
265.2713703452101
 32
0.0
 13
318.5784931009152
 23
265.2713703452101
 33
0.0
  0
SOLID
  5
436
330
430
100
AcDbEntity
  8
0
 62
     4
440
 16777216
100
AcDbTrace
 10
317.7451597675819
 20
448.7713703452101
 30
0.0
 11
319.4118264342486
 21
448.7713703452101
 31
0.0
 12
318.5784931009152
 22
453.7713703452101
 32
0.0
 13
318.5784931009152
 23
453.7713703452101
 33
0.0
  0
MTEXT
  5
437
330
430
100
AcDbEntity
  8
0
 62
     1
440
 16777216
100
AcDbMText
 10
314.0784931009151
 20
359.5213703452102
 30
0.0
 40
5.0
 41
0.0
 46
0.0
 71
     5
 72
     1
  1
188.5
 11
0.0000000000000001
 21
1.0
 31
0.0
 73
     1
 44
1.0
  0
POINT
  5
438
330
430
100
AcDbEntity
  8
Defpoints
 62
     0
440
 16777216
100
AcDbPoint
 10
343.6389020803422
 20
265.2713703452101
 30
0.0
  0
POINT
  5
439
330
430
100
AcDbEntity
  8
Defpoints
 62
     0
440
 16777216
100
AcDbPoint
 10
343.6389020803422
 20
453.7713703452101
 30
0.0
  0
POINT
  5
43A
330
430
100
AcDbEntity
  8
Defpoints
 62
     0
440
 16777216
100
AcDbPoint
 10
318.5784931009152
 20
453.7713703452101
 30
0.0
  0
ENDBLK
  5
43B
330
430
100
AcDbEntity
  8
0
100
AcDbBlockEnd
  0
BLOCK
  5
3CD
330
3CA
100
AcDbEntity
  8
0
100
AcDbBlockBegin
  2
e-modul draufsicht
 70
     0
 10
0.0
 20
0.0
 30
0.0
  3
e-modul draufsicht
  1

  0
LINE
  5
3CE
330
3CA
100
AcDbEntity
  8
05-01
100
AcDbLine
 10
114.8474353286315
 20
-308.8769984606092
 30
0.0
 11
109.8474353286315
 21
-308.8769984606092
 31
0.0
  0
LINE
  5
3CF
330
3CA
100
AcDbEntity
  8
05-01
100
AcDbLine
 10
186.347435328631
 20
-312.0769984606099
 30
0.0
 11
109.8474353286315
 21
-312.0769984606099
 31
0.0
  0
LINE
  5
3D0
330
3CA
100
AcDbEntity
  8
05-01
100
AcDbLine
 10
186.347435328631
 20
-354.57699846061
 30
0.0
 11
109.8474353286315
 21
-354.57699846061
 31
0.0
  0
LINE
  5
3D1
330
3CA
100
AcDbEntity
  8
05-01
100
AcDbLine
 10
114.8474353286315
 20
-310.9769984606096
 30
0.0
 11
112.3474353286315
 21
-310.9769984606096
 31
0.0
  0
LINE
  5
3D2
330
3CA
100
AcDbEntity
  8
05-01
100
AcDbLine
 10
109.8474353286315
 20
-312.0769984606099
 30
0.0
 11
109.8474353286315
 21
-354.57699846061
 31
0.0
  0
LINE
  5
3D3
330
3CA
100
AcDbEntity
  8
05-01
100
AcDbLine
 10
186.347435328631
 20
-312.0769984606099
 30
0.0
 11
186.347435328631
 21
-354.57699846061
 31
0.0
  0
LINE
  5
3D4
330
3CA
100
AcDbEntity
  8
05-01
100
AcDbLine
 10
109.8474353286315
 20
-308.8769984606092
 30
0.0
 11
109.8474353286315
 21
-312.0769984606099
 31
0.0
  0
LINE
  5
3D5
330
3CA
100
AcDbEntity
  8
05-01
100
AcDbLine
 10
114.8474353286315
 20
-308.8769984606092
 30
0.0
 11
114.8474353286315
 21
-312.0769984606099
 31
0.0
  0
LINE
  5
3D6
330
3CA
100
AcDbEntity
  8
05-01
100
AcDbLine
 10
112.3474353286315
 20
-310.9769984606096
 30
0.0
 11
112.3474353286315
 21
-312.0769984606099
 31
0.0
  0
LINE
  5
3D7
330
3CA
100
AcDbEntity
  8
05-01
100
AcDbLine
 10
161.8474353286315
 20
-308.8769984606092
 30
0.0
 11
166.8474353286315
 21
-308.8769984606092
 31
0.0
  0
LINE
  5
3D8
330
3CA
100
AcDbEntity
  8
05-01
100
AcDbLine
 10
161.8474353286315
 20
-310.9769984606096
 30
0.0
 11
164.3474353286315
 21
-310.9769984606096
 31
0.0
  0
LINE
  5
3D9
330
3CA
100
AcDbEntity
  8
05-01
100
AcDbLine
 10
166.8474353286315
 20
-308.8769984606092
 30
0.0
 11
166.8474353286315
 21
-312.0769984606099
 31
0.0
  0
LINE
  5
3DA
330
3CA
100
AcDbEntity
  8
05-01
100
AcDbLine
 10
161.8474353286315
 20
-308.8769984606092
 30
0.0
 11
161.8474353286315
 21
-312.0769984606099
 31
0.0
  0
LINE
  5
3DB
330
3CA
100
AcDbEntity
  8
05-01
100
AcDbLine
 10
164.3474353286315
 20
-310.9769984606096
 30
0.0
 11
164.3474353286315
 21
-312.0769984606099
 31
0.0
  0
LINE
  5
3DC
330
3CA
100
AcDbEntity
  8
05-01
100
AcDbLine
 10
109.8474353286315
 20
-354.57699846061
 30
0.0
 11
109.8474353286315
 21
-361.5769984606099
 31
0.0
  0
LINE
  5
3DD
330
3CA
100
AcDbEntity
  8
05-01
100
AcDbLine
 10
112.8474353286315
 20
-354.57699846061
 30
0.0
 11
112.8474353286315
 21
-360.0769984606099
 31
0.0
  0
LINE
  5
3DE
330
3CA
100
AcDbEntity
  8
05-01
100
AcDbLine
 10
109.8474353286315
 20
-361.5769984606099
 30
0.0
 11
117.3474353286315
 21
-361.5769984606099
 31
0.0
  0
LINE
  5
3DF
330
3CA
100
AcDbEntity
  8
05-01
100
AcDbLine
 10
117.3474353286315
 20
-361.5769984606099
 30
0.0
 11
117.3474353286315
 21
-354.57699846061
 31
0.0
  0
LINE
  5
3E0
330
3CA
100
AcDbEntity
  8
05-01
100
AcDbLine
 10
175.8474353286315
 20
-354.57699846061
 30
0.0
 11
175.8474353286315
 21
-361.5769984606099
 31
0.0
  0
LINE
  5
3E1
330
3CA
100
AcDbEntity
  8
05-01
100
AcDbLine
 10
172.8474353286315
 20
-354.57699846061
 30
0.0
 11
172.8474353286315
 21
-360.0769984606099
 31
0.0
  0
LINE
  5
3E2
330
3CA
100
AcDbEntity
  8
05-01
100
AcDbLine
 10
168.3474353286315
 20
-354.57699846061
 30
0.0
 11
168.3474353286315
 21
-361.5769984606099
 31
0.0
  0
LINE
  5
3E3
330
3CA
100
AcDbEntity
  8
05-01
100
AcDbLine
 10
168.3474353286315
 20
-361.5769984606099
 30
0.0
 11
175.8474353286315
 21
-361.5769984606099
 31
0.0
  0
LINE
  5
3E4
330
3CA
100
AcDbEntity
  8
05-01
100
AcDbLine
 10
112.8474353286315
 20
-360.0769984606099
 30
0.0
 11
117.3474353286315
 21
-360.0769984606099
 31
0.0
  0
LINE
  5
3E5
330
3CA
100
AcDbEntity
  8
05-01
100
AcDbLine
 10
168.3474353286315
 20
-360.0769984606099
 30
0.0
 11
172.8474353286315
 21
-360.0769984606099
 31
0.0
  0
LINE
  5
3E6
330
3CA
100
AcDbEntity
  8
05-01
100
AcDbLine
 10
181.7474353286311
 20
-312.0769984606099
 30
0.0
 11
181.7474353286311
 21
-354.57699846061
 31
0.0
  0
ENDBLK
  5
3E7
330
3CA
100
AcDbEntity
  8
0
100
AcDbBlockEnd
  0
BLOCK
  5
31D
330
31A
100
AcDbEntity
  8
0
100
AcDbBlockBegin
  2
e-modul vorderansicht
 70
     0
 10
0.0
 20
0.0
 30
0.0
  3
e-modul vorderansicht
  1

  0
LINE
  5
31E
330
31A
100
AcDbEntity
  8
05-01
100
AcDbLine
 10
149.7474353286316
 20
-181.0605591484591
 30
0.0
 11
149.7474353286316
 21
-220.5605591484601
 31
0.0
  0
LINE
  5
31F
330
31A
100
AcDbEntity
  8
05-01
100
AcDbLine
 10
138.747435328632
 20
-181.0605591484591
 30
0.0
 11
138.7474353286311
 21
-220.5605591484601
 31
0.0
  0
LINE
  5
320
330
31A
100
AcDbEntity
  8
05-01
100
AcDbLine
 10
184.7474353286311
 20
-101.06055914846
 30
0.0
 11
184.7474353286311
 21
-220.5605591484601
 31
0.0
  0
LINE
  5
321
330
31A
100
AcDbEntity
  8
05-01
100
AcDbLine
 10
109.2474353286316
 20
-108.5605591484601
 30
0.0
 11
109.2474353286316
 21
-220.5605591484601
 31
0.0
  0
LINE
  5
322
330
31A
100
AcDbEntity
  8
05-01
100
AcDbLine
 10
109.2474353286316
 20
-183.5605591484601
 30
0.0
 11
109.2474353286316
 21
-206.56055914846
 31
0.0
  0
LINE
  5
323
330
31A
100
AcDbEntity
  8
05-01
100
AcDbLine
 10
114.8474353286315
 20
-183.5605591484601
 30
0.0
 11
114.8474353286315
 21
-206.56055914846
 31
0.0
  0
LINE
  5
324
330
31A
100
AcDbEntity
  8
05-01
100
AcDbLine
 10
112.3474353286315
 20
-186.0605591484601
 30
0.0
 11
112.3474353286315
 21
-206.56055914846
 31
0.0
  0
LINE
  5
325
330
31A
100
AcDbEntity
  8
05-01
100
AcDbLine
 10
109.2474353286316
 20
-220.5605591484601
 30
0.0
 11
184.7474353286311
 21
-220.5605591484601
 31
0.0
  0
LINE
  5
326
330
31A
100
AcDbEntity
  8
05-01
100
AcDbLine
 10
138.747435328632
 20
-181.0605591484591
 30
0.0
 11
149.7474353286316
 21
-181.0605591484591
 31
0.0
  0
LINE
  5
327
330
31A
100
AcDbEntity
  8
05-01
100
AcDbLine
 10
109.2474353286316
 20
-108.5605591484601
 30
0.0
 11
184.7474353286311
 21
-108.5605591484601
 31
0.0
  0
LINE
  5
328
330
31A
100
AcDbEntity
  8
05-01
100
AcDbLine
 10
109.2474353286316
 20
-206.56055914846
 30
0.0
 11
114.8474353286315
 21
-206.56055914846
 31
0.0
  0
LINE
  5
329
330
31A
100
AcDbEntity
  8
05-01
100
AcDbLine
 10
109.2474353286316
 20
-183.5605591484601
 30
0.0
 11
114.8474353286315
 21
-183.5605591484601
 31
0.0
  0
LINE
  5
32A
330
31A
100
AcDbEntity
  8
05-01
100
AcDbLine
 10
161.8474353286315
 20
-183.5605591484601
 30
0.0
 11
161.8474353286315
 21
-206.56055914846
 31
0.0
  0
LINE
  5
32B
330
31A
100
AcDbEntity
  8
05-01
100
AcDbLine
 10
164.3474353286315
 20
-186.0605591484601
 30
0.0
 11
164.3474353286315
 21
-206.56055914846
 31
0.0
  0
LINE
  5
32C
330
31A
100
AcDbEntity
  8
05-01
100
AcDbLine
 10
166.8474353286315
 20
-206.56055914846
 30
0.0
 11
161.8474353286315
 21
-206.56055914846
 31
0.0
  0
LINE
  5
32D
330
31A
100
AcDbEntity
  8
05-01
100
AcDbLine
 10
164.3474353286315
 20
-186.0605591484601
 30
0.0
 11
161.8474353286315
 21
-186.0605591484601
 31
0.0
  0
LINE
  5
32E
330
31A
100
AcDbEntity
  8
05-01
100
AcDbLine
 10
166.8474353286315
 20
-183.5605591484601
 30
0.0
 11
161.8474353286315
 21
-183.5605591484601
 31
0.0
  0
LINE
  5
32F
330
31A
100
AcDbEntity
  8
05-01
100
AcDbLine
 10
109.2474353286316
 20
-113.5605591484601
 30
0.0
 11
109.2474353286316
 21
-136.5605591484601
 31
0.0
  0
LINE
  5
330
330
31A
100
AcDbEntity
  8
05-01
100
AcDbLine
 10
114.8474353286315
 20
-113.5605591484601
 30
0.0
 11
114.8474353286315
 21
-136.5605591484601
 31
0.0
  0
LINE
  5
331
330
31A
100
AcDbEntity
  8
05-01
100
AcDbLine
 10
112.3474353286315
 20
-116.06055914846
 30
0.0
 11
112.3474353286315
 21
-136.5605591484601
 31
0.0
  0
LINE
  5
332
330
31A
100
AcDbEntity
  8
05-01
100
AcDbLine
 10
109.2474353286316
 20
-136.5605591484601
 30
0.0
 11
114.8474353286315
 21
-136.5605591484601
 31
0.0
  0
LINE
  5
333
330
31A
100
AcDbEntity
  8
05-01
100
AcDbLine
 10
112.3474353286315
 20
-116.06055914846
 30
0.0
 11
114.8474353286315
 21
-116.06055914846
 31
0.0
  0
LINE
  5
334
330
31A
100
AcDbEntity
  8
05-01
100
AcDbLine
 10
109.2474353286316
 20
-113.5605591484601
 30
0.0
 11
114.8474353286315
 21
-113.5605591484601
 31
0.0
  0
LINE
  5
335
330
31A
100
AcDbEntity
  8
05-01
100
AcDbLine
 10
166.8474353286315
 20
-108.5605591484601
 30
0.0
 11
166.8474353286315
 21
-220.5605591484601
 31
0.0
  0
LINE
  5
336
330
31A
100
AcDbEntity
  8
05-01
100
AcDbLine
 10
161.8474353286315
 20
-113.5605591484601
 30
0.0
 11
161.8474353286315
 21
-136.5605591484601
 31
0.0
  0
LINE
  5
337
330
31A
100
AcDbEntity
  8
05-01
100
AcDbLine
 10
164.3474353286315
 20
-116.06055914846
 30
0.0
 11
164.3474353286315
 21
-136.5605591484601
 31
0.0
  0
LINE
  5
338
330
31A
100
AcDbEntity
  8
05-01
100
AcDbLine
 10
166.8474353286315
 20
-136.5605591484601
 30
0.0
 11
161.8474353286315
 21
-136.5605591484601
 31
0.0
  0
LINE
  5
339
330
31A
100
AcDbEntity
  8
05-01
100
AcDbLine
 10
164.3474353286315
 20
-116.06055914846
 30
0.0
 11
161.8474353286315
 21
-116.06055914846
 31
0.0
  0
LINE
  5
33A
330
31A
100
AcDbEntity
  8
05-01
100
AcDbLine
 10
166.8474353286315
 20
-113.5605591484601
 30
0.0
 11
161.8474353286315
 21
-113.5605591484601
 31
0.0
  0
LINE
  5
33B
330
31A
100
AcDbEntity
  8
05-01
100
AcDbLine
 10
184.7474353286311
 20
-101.06055914846
 30
0.0
 11
181.7474353286311
 21
-101.06055914846
 31
0.0
  0
LINE
  5
33C
330
31A
100
AcDbEntity
  8
05-01
100
AcDbLine
 10
181.7474353286311
 20
-101.06055914846
 30
0.0
 11
181.7474353286311
 21
-108.5605591484601
 31
0.0
  0
ENDBLK
  5
33D
330
31A
100
AcDbEntity
  8
0
100
AcDbBlockEnd
  0
BLOCK
  5
39E
330
39D
100
AcDbEntity
  8
0
100
AcDbBlockBegin
  2
*D5
 70
     1
 10
0.0
 20
0.0
 30
0.0
  3
*D5
  1

  0
LINE
  5
39F
330
39D
100
AcDbEntity
  8
0
 62
     4
440
 16777216
370
    -2
100
AcDbLine
 10
117.4072791132212
 20
191.0326462901094
 30
0.0
 11
117.4072791132212
 21
207.7320488563121
 31
0.0
  0
LINE
  5
3A0
330
39D
100
AcDbEntity
  8
0
 62
     4
440
 16777216
370
    -2
100
AcDbLine
 10
202.9072791132216
 20
191.0326462901097
 30
0.0
 11
202.9072791132216
 21
207.7320488563121
 31
0.0
  0
LINE
  5
3A1
330
39D
100
AcDbEntity
  8
0
 62
     4
440
 16777216
370
    -2
100
AcDbLine
 10
122.4072791132212
 20
205.7320488563121
 30
0.0
 11
197.9072791132216
 21
205.7320488563121
 31
0.0
  0
SOLID
  5
3A2
330
39D
100
AcDbEntity
  8
0
 62
     4
440
 16777216
100
AcDbTrace
 10
122.4072791132212
 20
206.5653821896454
 30
0.0
 11
122.4072791132212
 21
204.8987155229788
 31
0.0
 12
117.4072791132212
 22
205.7320488563121
 32
0.0
 13
117.4072791132212
 23
205.7320488563121
 33
0.0
  0
SOLID
  5
3A3
330
39D
100
AcDbEntity
  8
0
 62
     4
440
 16777216
100
AcDbTrace
 10
197.9072791132216
 20
206.5653821896454
 30
0.0
 11
197.9072791132216
 21
204.8987155229788
 31
0.0
 12
202.9072791132216
 22
205.7320488563121
 32
0.0
 13
202.9072791132216
 23
205.7320488563121
 33
0.0
  0
MTEXT
  5
3A4
330
39D
100
AcDbEntity
  8
0
 62
     1
440
 16777216
100
AcDbMText
 10
160.1572791132214
 20
210.2320488563121
 30
0.0
 40
5.0
 41
0.0
 46
0.0
 71
     5
 72
     1
  1
85.5
 73
     1
 44
1.0
  0
POINT
  5
3A5
330
39D
100
AcDbEntity
  8
Defpoints
 62
     0
440
 16777216
100
AcDbPoint
 10
117.4072791132212
 20
189.0326462901095
 30
0.0
  0
POINT
  5
3A6
330
39D
100
AcDbEntity
  8
Defpoints
 62
     0
440
 16777216
100
AcDbPoint
 10
202.9072791132216
 20
189.0326462901097
 30
0.0
  0
POINT
  5
3A7
330
39D
100
AcDbEntity
  8
Defpoints
 62
     0
440
 16777216
100
AcDbPoint
 10
202.9072791132216
 20
205.7320488563121
 30
0.0
  0
ENDBLK
  5
3A8
330
39D
100
AcDbEntity
  8
0
100
AcDbBlockEnd
  0
BLOCK
  5
302
330
301
100
AcDbEntity
  8
0
100
AcDbBlockBegin
  2
*D6
 70
     1
 10
0.0
 20
0.0
 30
0.0
  3
*D6
  1

  0
LINE
  5
303
330
301
100
AcDbEntity
  8
0
 62
     4
440
 16777216
370
    -2
100
AcDbLine
 10
372.1389020933821
 20
247.2744941145452
 30
0.0
 11
301.6910812314258
 21
247.2744941145452
 31
0.0
  0
LINE
  5
304
330
301
100
AcDbEntity
  8
0
 62
     4
440
 16777216
370
    -2
100
AcDbLine
 10
341.6389020803422
 20
453.7713703452101
 30
0.0
 11
301.6910812314259
 21
453.7713703452101
 31
0.0
  0
LINE
  5
305
330
301
100
AcDbEntity
  8
0
 62
     4
440
 16777216
370
    -2
100
AcDbLine
 10
303.6910812314258
 20
252.2744941145452
 30
0.0
 11
303.6910812314259
 21
448.7713703452101
 31
0.0
  0
SOLID
  5
306
330
301
100
AcDbEntity
  8
0
 62
     4
440
 16777216
100
AcDbTrace
 10
302.8577478980925
 20
252.2744941145452
 30
0.0
 11
304.5244145647591
 21
252.2744941145452
 31
0.0
 12
303.6910812314258
 22
247.2744941145452
 32
0.0
 13
303.6910812314258
 23
247.2744941145452
 33
0.0
  0
SOLID
  5
307
330
301
100
AcDbEntity
  8
0
 62
     4
440
 16777216
100
AcDbTrace
 10
302.8577478980925
 20
448.7713703452101
 30
0.0
 11
304.5244145647592
 21
448.7713703452101
 31
0.0
 12
303.6910812314259
 22
453.7713703452101
 32
0.0
 13
303.6910812314259
 23
453.7713703452101
 33
0.0
  0
MTEXT
  5
308
330
301
100
AcDbEntity
  8
0
 62
     1
440
 16777216
100
AcDbMText
 10
299.1910812314257
 20
350.5229322298777
 30
0.0
 40
5.0
 41
0.0
 46
0.0
 71
     5
 72
     1
  1
206.5
 11
0.0000000000000001
 21
1.0
 31
0.0
 73
     1
 44
1.0
  0
POINT
  5
309
330
301
100
AcDbEntity
  8
Defpoints
 62
     0
440
 16777216
100
AcDbPoint
 10
374.1389020933821
 20
247.2744941145452
 30
0.0
  0
POINT
  5
30A
330
301
100
AcDbEntity
  8
Defpoints
 62
     0
440
 16777216
100
AcDbPoint
 10
343.6389020803422
 20
453.7713703452101
 30
0.0
  0
POINT
  5
30B
330
301
100
AcDbEntity
  8
Defpoints
 62
     0
440
 16777216
100
AcDbPoint
 10
303.6910812314259
 20
453.7713703452101
 30
0.0
  0
ENDBLK
  5
30C
330
301
100
AcDbEntity
  8
0
100
AcDbBlockEnd
  0
BLOCK
  5
210
330
20F
100
AcDbEntity
  8
0
100
AcDbBlockBegin
  2
Rueckwand_WP174e-V
 70
     0
 10
0.0
 20
0.0
 30
0.0
  3
Rueckwand_WP174e-V
  1

  0
LINE
  5
211
330
20F
100
AcDbEntity
  8
03-01
100
AcDbLine
 10
-41.24999999999682
 20
187.1499999999999
 30
0.0
 11
-29.99999999999818
 21
187.1499999999999
 31
0.0
  0
LINE
  5
212
330
20F
100
AcDbEntity
  8
0
100
AcDbLine
 10
-29.99999999999818
 20
187.1499999999999
 30
0.0
 11
30.00000000000091
 21
187.1500000000002
 31
0.0
  0
LINE
  5
213
330
20F
100
AcDbEntity
  8
03-01
100
AcDbLine
 10
30.00000000000091
 20
187.1500000000002
 30
0.0
 11
41.24999999999772
 21
187.1500000000004
 31
0.0
  0
LINE
  5
214
330
20F
100
AcDbEntity
  8
0
100
AcDbLine
 10
-41.24999999999499
 20
188.65
 30
0.0
 11
41.24999999999636
 21
188.6500000000004
 31
0.0
  0
LINE
  5
215
330
20F
100
AcDbEntity
  8
03-01
100
AcDbLine
 10
-7.0
 20
107.3000000000003
 30
0.0
 11
7.0
 21
107.3000000000003
 31
0.0
  0
LINE
  5
216
330
20F
100
AcDbEntity
  8
03-01
100
AcDbLine
 10
-7.0
 20
110.3000000000003
 30
0.0
 11
7.0
 21
110.3000000000003
 31
0.0
  0
ARC
  5
217
330
20F
100
AcDbEntity
  8
03-01
100
AcDbCircle
 10
7.0
 20
115.3000000000003
 30
0.0
 40
8.0
100
AcDbArc
 50
270.0
 51
0.0
  0
ARC
  5
218
330
20F
100
AcDbEntity
  8
03-01
100
AcDbCircle
 10
7.0
 20
115.3000000000003
 30
0.0
 40
5.0
100
AcDbArc
 50
270.0
 51
0.0
  0
LINE
  5
219
330
20F
100
AcDbEntity
  8
0
100
AcDbLine
 10
-38.24999999999363
 20
178.6500000000002
 30
0.0
 11
-32.99999999999909
 21
178.6500000000002
 31
0.0
  0
ARC
  5
21A
330
20F
100
AcDbEntity
  8
0
100
AcDbCircle
 10
-32.99999999999909
 20
181.6500000000002
 30
0.0
 40
3.0
100
AcDbArc
 50
270.0
 51
0.0
  0
LINE
  5
21B
330
20F
100
AcDbEntity
  8
0
100
AcDbLine
 10
33.00000000000091
 20
178.6500000000002
 30
0.0
 11
38.24999999999545
 21
178.6500000000002
 31
0.0
  0
ARC
  5
21C
330
20F
100
AcDbEntity
  8
0
100
AcDbCircle
 10
33.00000000000091
 20
181.6500000000002
 30
0.0
 40
3.0
100
AcDbArc
 50
180.0
 51
270.0
  0
ARC
  5
21D
330
20F
100
AcDbEntity
  8
0
100
AcDbCircle
 10
-38.24999999999363
 20
181.6500000000002
 30
0.0
 40
3.0
100
AcDbArc
 50
180.0
 51
270.0
  0
ARC
  5
21E
330
20F
100
AcDbEntity
  8
0
100
AcDbCircle
 10
38.24999999999545
 20
181.6500000000002
 30
0.0
 40
3.0
100
AcDbArc
 50
270.0
 51
359.999999999974
  0
LINE
  5
21F
330
20F
100
AcDbEntity
  8
03-01
100
AcDbLine
 10
-41.25
 20
30.65000000000089
 30
0.0
 11
-41.25
 21
167.6499999999997
 31
0.0
  0
LINE
  5
220
330
20F
100
AcDbEntity
  8
0
100
AcDbLine
 10
-42.75
 20
30.650000000001
 30
0.0
 11
-42.75
 21
167.6499999999997
 31
0.0
  0
LINE
  5
221
330
20F
100
AcDbEntity
  8
0
100
AcDbLine
 10
-41.24999999999499
 20
188.65
 30
0.0
 11
-41.2499999999909
 21
167.6499999999997
 31
0.0
  0
LINE
  5
222
330
20F
100
AcDbEntity
  8
0
100
AcDbLine
 10
-34.74999999999909
 20
1.499999999999658
 30
0.0
 11
-34.49999999999363
 21
1.499999999999658
 31
0.0
  0
LINE
  5
223
330
20F
100
AcDbEntity
  8
03-01
100
AcDbLine
 10
-34.49999999999363
 20
1.499999999999658
 30
0.0
 11
-30.5
 21
1.499999999999658
 31
0.0
  0
LINE
  5
224
330
20F
100
AcDbEntity
  8
03-01
100
AcDbLine
 10
-30.5
 20
1.499999999999658
 30
0.0
 11
30.50000000000046
 21
1.500000000000113
 31
0.0
  0
LINE
  5
225
330
20F
100
AcDbEntity
  8
03-01
100
AcDbLine
 10
30.50000000000046
 20
1.500000000000113
 30
0.0
 11
34.49999999999818
 21
1.500000000000113
 31
0.0
  0
LINE
  5
226
330
20F
100
AcDbEntity
  8
0
100
AcDbLine
 10
34.49999999999818
 20
1.500000000000113
 30
0.0
 11
34.74999999999955
 21
1.500000000000113
 31
0.0
  0
LINE
  5
227
330
20F
100
AcDbEntity
  8
0
100
AcDbLine
 10
-34.74999999999364
 20
-0.0000000000002274
 30
0.0
 11
-34.49999999999363
 21
-0.0000000000002274
 31
0.0
  0
LINE
  5
228
330
20F
100
AcDbEntity
  8
03-01
100
AcDbLine
 10
-34.49999999999363
 20
-0.0000000000002274
 30
0.0
 11
34.49999999999818
 21
0.0000000000002274
 31
0.0
  0
LINE
  5
229
330
20F
100
AcDbEntity
  8
0
100
AcDbLine
 10
34.49999999999818
 20
0.0000000000002274
 30
0.0
 11
34.74999999999818
 21
0.0000000000001137
 31
0.0
  0
LINE
  5
22A
330
20F
100
AcDbEntity
  8
0
100
AcDbLine
 10
-41.25
 20
167.6499999999997
 30
0.0
 11
-42.75
 21
167.6499999999997
 31
0.0
  0
LINE
  5
22B
330
20F
100
AcDbEntity
  8
03-01
100
AcDbLine
 10
41.25
 20
30.65000000000111
 30
0.0
 11
41.25000000000045
 21
167.6500000000002
 31
0.0
  0
LINE
  5
22C
330
20F
100
AcDbEntity
  8
0
100
AcDbLine
 10
42.75
 20
30.650000000001
 30
0.0
 11
42.7500000000009
 21
167.6500000000002
 31
0.0
  0
LINE
  5
22D
330
20F
100
AcDbEntity
  8
0
100
AcDbLine
 10
41.24999999999636
 20
188.6500000000004
 30
0.0
 11
41.24999999999363
 21
167.65
 31
0.0
  0
LINE
  5
22E
330
20F
100
AcDbEntity
  8
0
100
AcDbLine
 10
41.25
 20
30.65000000000111
 30
0.0
 11
42.75
 21
30.650000000001
 31
0.0
  0
LINE
  5
22F
330
20F
100
AcDbEntity
  8
0
100
AcDbLine
 10
33.60000000000037
 20
167.6500000000002
 30
0.0
 11
42.7500000000009
 21
167.6500000000002
 31
0.0
  0
LINE
  5
230
330
20F
100
AcDbEntity
  8
0
100
AcDbLine
 10
-41.24999999999772
 20
30.65000000000111
 30
0.0
 11
-41.24999999999772
 21
-16.66689350682668
 31
0.0
  0
ARC
  5
231
330
20F
100
AcDbEntity
  8
0
100
AcDbCircle
 10
-38.24999999999773
 20
6.650000000000204
 30
0.0
 40
3.0
100
AcDbArc
 50
180.0
 51
270.0
  0
LINE
  5
232
330
20F
100
AcDbEntity
  8
03-01
100
AcDbLine
 10
-30.5
 20
-0.0000000000002274
 30
0.0
 11
-30.5
 21
4.500000000000113
 31
0.0
  0
ARC
  5
233
330
20F
100
AcDbEntity
  8
03-01
100
AcDbCircle
 10
-27.5
 20
4.500000000000113
 30
0.0
 40
3.0
100
AcDbArc
 50
90.0
 51
180.0
  0
LINE
  5
234
330
20F
100
AcDbEntity
  8
03-01
100
AcDbLine
 10
-27.5
 20
7.500000000000113
 30
0.0
 11
27.5
 21
7.500000000000113
 31
0.0
  0
ARC
  5
235
330
20F
100
AcDbEntity
  8
03-01
100
AcDbCircle
 10
27.5
 20
4.500000000000113
 30
0.0
 40
3.0
100
AcDbArc
 50
0.0
 51
90.0
  0
LINE
  5
236
330
20F
100
AcDbEntity
  8
03-01
100
AcDbLine
 10
30.5
 20
4.500000000000113
 30
0.0
 11
30.5
 21
1.5
 31
0.0
  0
LINE
  5
237
330
20F
100
AcDbEntity
  8
05-01
100
AcDbLine
 10
0.0
 20
4.908719283215418
 30
0.0
 11
0.0
 21
-5.091280716784581
 31
0.0
  0
LINE
  5
238
330
20F
100
AcDbEntity
  8
0
100
AcDbLine
 10
41.25000000000045
 20
30.65000000000111
 30
0.0
 11
41.24999999999864
 21
6.649999999999749
 31
0.0
  0
LINE
  5
239
330
20F
100
AcDbEntity
  8
03-01
100
AcDbLine
 10
30.50000000000046
 20
0.0000000000001137
 30
0.0
 11
30.5
 21
4.500000000000113
 31
0.0
  0
ARC
  5
23A
330
20F
100
AcDbEntity
  8
03-01
100
AcDbCircle
 10
27.5
 20
4.500000000000113
 30
0.0
 40
3.0
100
AcDbArc
 50
0.0
 51
90.0
  0
LINE
  5
23B
330
20F
100
AcDbEntity
  8
05-01
100
AcDbLine
 10
19.0
 20
46.6500000000002
 30
0.0
 11
11.0
 21
46.6500000000002
 31
0.0
  0
LINE
  5
23C
330
20F
100
AcDbEntity
  8
05-01
100
AcDbLine
 10
15.0
 20
50.1500000000002
 30
0.0
 11
15.0
 21
27.40000000000021
 31
0.0
  0
LINE
  5
23D
330
20F
100
AcDbEntity
  8
03-01
100
AcDbLine
 10
12.25
 20
40.26248608016124
 30
0.0
 11
12.25
 21
46.6500000000002
 31
0.0
  0
ARC
  5
23E
330
20F
100
AcDbEntity
  8
03-01
100
AcDbCircle
 10
15.0
 20
46.6500000000002
 30
0.0
 40
2.75
100
AcDbArc
 50
0.0
 51
180.0
  0
LINE
  5
23F
330
20F
100
AcDbEntity
  8
03-01
100
AcDbLine
 10
17.75
 20
46.6500000000002
 30
0.0
 11
17.75
 21
40.26248608016124
 31
0.0
  0
LINE
  5
240
330
20F
100
AcDbEntity
  8
05-01
100
AcDbLine
 10
22.25
 20
34.65000000000021
 30
0.0
 11
7.75
 21
34.65000000000021
 31
0.0
  0
ARC
  5
241
330
20F
100
AcDbEntity
  8
03-01
100
AcDbCircle
 10
15.0
 20
34.65000000000021
 30
0.0
 40
6.25
100
AcDbArc
 50
116.103881137316
 51
63.89611886268394
  0
LINE
  5
242
330
20F
100
AcDbEntity
  8
05-01
100
AcDbLine
 10
-18.99999999999954
 20
46.6500000000002
 30
0.0
 11
-10.99999999999954
 21
46.6500000000002
 31
0.0
  0
LINE
  5
243
330
20F
100
AcDbEntity
  8
05-01
100
AcDbLine
 10
-14.99999999999954
 20
50.1500000000002
 30
0.0
 11
-14.99999999999954
 21
27.40000000000021
 31
0.0
  0
LINE
  5
244
330
20F
100
AcDbEntity
  8
03-01
100
AcDbLine
 10
-12.24999999999954
 20
40.26248608016078
 30
0.0
 11
-12.24999999999954
 21
46.6500000000002
 31
0.0
  0
ARC
  5
245
330
20F
100
AcDbEntity
  8
03-01
100
AcDbCircle
 10
-14.99999999999954
 20
46.6500000000002
 30
0.0
 40
2.75
100
AcDbArc
 50
0.0
 51
180.0
  0
LINE
  5
246
330
20F
100
AcDbEntity
  8
03-01
100
AcDbLine
 10
-17.74999999999954
 20
46.6500000000002
 30
0.0
 11
-17.74999999999954
 21
40.26248608016078
 31
0.0
  0
LINE
  5
247
330
20F
100
AcDbEntity
  8
05-01
100
AcDbLine
 10
-22.24999999999955
 20
34.65000000000021
 30
0.0
 11
-7.749999999999545
 21
34.65000000000021
 31
0.0
  0
ARC
  5
248
330
20F
100
AcDbEntity
  8
03-01
100
AcDbCircle
 10
-14.99999999999954
 20
34.65000000000021
 30
0.0
 40
6.25
100
AcDbArc
 50
116.103881137316
 51
63.89611886268394
  0
LINE
  5
249
330
20F
100
AcDbEntity
  8
05-01
100
AcDbLine
 10
0.0
 20
55.90000000000021
 30
0.0
 11
0.0
 21
47.4000000000002
 31
0.0
  0
LINE
  5
24A
330
20F
100
AcDbEntity
  8
05-01
100
AcDbLine
 10
4.25
 20
51.6500000000002
 30
0.0
 11
-4.25
 21
51.6500000000002
 31
0.0
  0
CIRCLE
  5
24B
330
20F
100
AcDbEntity
  8
03-01
100
AcDbCircle
 10
0.0
 20
51.6500000000002
 30
0.0
 40
3.25
  0
LINE
  5
24C
330
20F
100
AcDbEntity
  8
03-01
100
AcDbLine
 10
-15.0
 20
115.3000000000003
 30
0.0
 11
-15.0
 21
147.3000000000003
 31
0.0
  0
LINE
  5
24D
330
20F
100
AcDbEntity
  8
03-01
100
AcDbLine
 10
-12.0
 20
115.3000000000003
 30
0.0
 11
-12.0
 21
147.3000000000003
 31
0.0
  0
ARC
  5
24E
330
20F
100
AcDbEntity
  8
03-01
100
AcDbCircle
 10
-7.0
 20
115.3000000000003
 30
0.0
 40
8.0
100
AcDbArc
 50
180.0
 51
270.0
  0
ARC
  5
24F
330
20F
100
AcDbEntity
  8
03-01
100
AcDbCircle
 10
-7.0
 20
115.3000000000003
 30
0.0
 40
5.0
100
AcDbArc
 50
180.0
 51
270.0
  0
LINE
  5
250
330
20F
100
AcDbEntity
  8
03-01
100
AcDbLine
 10
15.0
 20
115.3000000000003
 30
0.0
 11
15.0
 21
147.3000000000003
 31
0.0
  0
LINE
  5
251
330
20F
100
AcDbEntity
  8
03-01
100
AcDbLine
 10
12.0
 20
115.3000000000003
 30
0.0
 11
12.0
 21
147.3000000000003
 31
0.0
  0
ARC
  5
252
330
20F
100
AcDbEntity
  8
03-01
100
AcDbCircle
 10
13.5
 20
147.3000000000003
 30
0.0
 40
1.5
100
AcDbArc
 50
0.0
 51
180.0
  0
ARC
  5
253
330
20F
100
AcDbEntity
  8
03-01
100
AcDbCircle
 10
-13.5
 20
147.3000000000003
 30
0.0
 40
1.499999999999772
100
AcDbArc
 50
0.0
 51
180.0
  0
LINE
  5
254
330
20F
100
AcDbEntity
  8
03-01
100
AcDbLine
 10
7.0
 20
148.8000000000003
 30
0.0
 11
-7.0
 21
148.8000000000003
 31
0.0
  0
LINE
  5
255
330
20F
100
AcDbEntity
  8
03-01
100
AcDbLine
 10
7.0
 20
145.8000000000003
 30
0.0
 11
-7.0
 21
145.8000000000003
 31
0.0
  0
ARC
  5
256
330
20F
100
AcDbEntity
  8
03-01
100
AcDbCircle
 10
7.0
 20
147.3000000000003
 30
0.0
 40
1.5
100
AcDbArc
 50
270.0
 51
90.0
  0
ARC
  5
257
330
20F
100
AcDbEntity
  8
03-01
100
AcDbCircle
 10
-7.0
 20
147.3000000000003
 30
0.0
 40
1.5
100
AcDbArc
 50
90.0
 51
270.0
  0
LINE
  5
258
330
20F
100
AcDbEntity
  8
0
100
AcDbLine
 10
-29.99999999999909
 20
181.6500000000002
 30
0.0
 11
-29.99999999999864
 21
188.65
 31
0.0
  0
LINE
  5
259
330
20F
100
AcDbEntity
  8
0
100
AcDbLine
 10
30.00000000000091
 20
181.6500000000002
 30
0.0
 11
30.00000000000091
 21
188.6500000000004
 31
0.0
  0
LINE
  5
25A
330
20F
100
AcDbEntity
  8
0
100
AcDbLine
 10
-37.60000000000082
 20
30.650000000001
 30
0.0
 11
-42.74999999999955
 21
30.65000000000089
 31
0.0
  0
LINE
  5
25B
330
20F
100
AcDbEntity
  8
03-01
100
AcDbLine
 10
-41.40000000000054
 20
8.650000000001568
 30
0.0
 11
-41.24999999999772
 21
8.650000000001568
 31
0.0
  0
LINE
  5
25C
330
20F
100
AcDbEntity
  8
0
100
AcDbLine
 10
34.74999999999818
 20
3.650000000000204
 30
0.0
 11
34.74999999999818
 21
0.0000000000001137
 31
0.0
  0
LINE
  5
25D
330
20F
100
AcDbEntity
  8
0
100
AcDbLine
 10
-34.74999999999364
 20
3.650000000000204
 30
0.0
 11
-34.74999999999364
 21
-0.0000000000002274
 31
0.0
  0
LINE
  5
25E
330
20F
100
AcDbEntity
  8
0
100
AcDbLine
 10
-34.74999999999364
 20
3.650000000000204
 30
0.0
 11
-38.24999999999773
 21
3.650000000000204
 31
0.0
  0
ARC
  5
25F
330
20F
100
AcDbEntity
  8
0
100
AcDbCircle
 10
38.24999999999773
 20
6.650000000000204
 30
0.0
 40
3.0
100
AcDbArc
 50
270.0
 51
0.0
  0
LINE
  5
260
330
20F
100
AcDbEntity
  8
0
100
AcDbLine
 10
34.74999999999409
 20
3.650000000000204
 30
0.0
 11
38.24999999999773
 21
3.650000000000204
 31
0.0
  0
LINE
  5
261
330
20F
100
AcDbEntity
  8
0
100
AcDbLine
 10
-34.60000000000082
 20
137.6500000000002
 30
0.0
 11
-34.60000000000082
 21
33.65000000000066
 31
0.0
  0
ARC
  5
262
330
20F
100
AcDbEntity
  8
0
100
AcDbCircle
 10
-37.60000000000082
 20
33.65000000000066
 30
0.0
 40
3.0
100
AcDbArc
 50
270.0
 51
0.0
  0
LINE
  5
263
330
20F
100
AcDbEntity
  8
0
100
AcDbLine
 10
-30.60000000000036
 20
164.6499999999997
 30
0.0
 11
-30.60000000000082
 21
139.6500000000002
 31
0.0
  0
ARC
  5
264
330
20F
100
AcDbEntity
  8
0
100
AcDbCircle
 10
-33.60000000000037
 20
164.6499999999997
 30
0.0
 40
3.0
100
AcDbArc
 50
0.0
 51
90.0
  0
LINE
  5
265
330
20F
100
AcDbEntity
  8
0
100
AcDbLine
 10
-42.75000000000045
 20
167.6499999999997
 30
0.0
 11
-33.60000000000082
 21
167.6499999999997
 31
0.0
  0
LINE
  5
266
330
20F
100
AcDbEntity
  8
0
100
AcDbLine
 10
-34.60000000000082
 20
137.6500000000002
 30
0.0
 11
-32.60000000000082
 21
137.6500000000002
 31
0.0
  0
ARC
  5
267
330
20F
100
AcDbEntity
  8
0
100
AcDbCircle
 10
-32.60000000000082
 20
139.6500000000002
 30
0.0
 40
2.0
100
AcDbArc
 50
270.0
 51
0.0
  0
LINE
  5
268
330
20F
100
AcDbEntity
  8
0
100
AcDbLine
 10
34.60000000000082
 20
137.6500000000011
 30
0.0
 11
34.60000000000082
 21
33.65000000000157
 31
0.0
  0
ARC
  5
269
330
20F
100
AcDbEntity
  8
0
100
AcDbCircle
 10
37.60000000000082
 20
33.65000000000157
 30
0.0
 40
3.0
100
AcDbArc
 50
180.0
 51
270.0
  0
LINE
  5
26A
330
20F
100
AcDbEntity
  8
0
100
AcDbLine
 10
41.40000000000009
 20
30.65000000000157
 30
0.0
 11
37.60000000000082
 21
30.65000000000157
 31
0.0
  0
LINE
  5
26B
330
20F
100
AcDbEntity
  8
0
100
AcDbLine
 10
30.60000000000036
 20
164.6500000000006
 30
0.0
 11
30.60000000000082
 21
139.6500000000011
 31
0.0
  0
ARC
  5
26C
330
20F
100
AcDbEntity
  8
0
100
AcDbCircle
 10
33.60000000000037
 20
164.6500000000006
 30
0.0
 40
3.0
100
AcDbArc
 50
90.0
 51
180.0
  0
LINE
  5
26D
330
20F
100
AcDbEntity
  8
0
100
AcDbLine
 10
34.60000000000082
 20
137.6500000000011
 30
0.0
 11
32.60000000000082
 21
137.6500000000011
 31
0.0
  0
ARC
  5
26E
330
20F
100
AcDbEntity
  8
0
100
AcDbCircle
 10
32.60000000000082
 20
139.6500000000011
 30
0.0
 40
2.0
100
AcDbArc
 50
180.0
 51
270.0
  0
LINE
  5
26F
330
20F
100
AcDbEntity
  8
0
100
AcDbLine
 10
-42.74999999999955
 20
30.65000000000089
 30
0.0
 11
-42.75
 21
-16.66689350682679
 31
0.0
  0
LINE
  5
270
330
20F
100
AcDbEntity
  8
0
100
AcDbLine
 10
-42.75
 20
-16.66689350682679
 30
0.0
 11
-41.24999999999772
 21
-16.66689350682668
 31
0.0
  0
LINE
  5
271
330
20F
100
AcDbEntity
  8
0
100
AcDbLine
 10
-42.74999999999955
 20
28.65000000000112
 30
0.0
 11
-41.24999999999727
 21
28.650000000001
 31
0.0
  0
LINE
  5
272
330
20F
100
AcDbEntity
  8
03-01
100
AcDbLine
 10
-41.40000000000054
 20
8.650000000001568
 30
0.0
 11
-42.75
 21
8.650000000001568
 31
0.0
  0
LINE
  5
273
330
20F
100
AcDbEntity
  8
03-01
100
AcDbLine
 10
-4.000000000000454
 20
-0.0000000000001137
 30
0.0
 11
-4.000000000000454
 21
1.499999999999886
 31
0.0
  0
LINE
  5
274
330
20F
100
AcDbEntity
  8
03-01
100
AcDbLine
 10
4.0
 20
0.0000000000001137
 30
0.0
 11
4.000000000000454
 21
1.499999999999772
 31
0.0
  0
ENDBLK
  5
275
330
20F
100
AcDbEntity
  8
0
100
AcDbBlockEnd
  0
BLOCK
  5
163
330
162
100
AcDbEntity
  8
0
100
AcDbBlockBegin
  2
pumpe 200ml vorderansicht_Sensor
 70
     0
 10
0.0
 20
0.0
 30
0.0
  3
pumpe 200ml vorderansicht_Sensor
  1

  0
LINE
  5
164
330
162
100
AcDbEntity
  8
0
100
AcDbLine
 10
-3.000082349783497
 20
-0.0425190008604659
 30
0.0
 11
-2.150322809892259
 21
-2.542471772390626
 31
0.0
  0
LINE
  5
165
330
162
100
AcDbEntity
  8
0
100
AcDbLine
 10
-2.150322809892259
 20
-2.542471772390626
 30
0.0
 11
-1.51323605726202
 21
-4.991495573926158
 31
0.0
  0
LINE
  5
166
330
162
100
AcDbEntity
  8
0
100
AcDbLine
 10
-1.51323605726202
 20
-4.991495573926158
 30
0.0
 11
1.51323605726202
 21
-4.991495573926158
 31
0.0
  0
LINE
  5
167
330
162
100
AcDbEntity
  8
0
100
AcDbLine
 10
1.51323605726202
 20
-4.991495573926158
 30
0.0
 11
2.150150143953851
 21
-2.542282660961973
 31
0.0
  0
LINE
  5
168
330
162
100
AcDbEntity
  8
0
100
AcDbLine
 10
2.150150143953851
 20
-2.542282660961973
 30
0.0
 11
2.99969753357027
 21
-0.0422500820955065
 31
0.0
  0
LINE
  5
169
330
162
100
AcDbEntity
  8
0
100
AcDbLine
 10
-30.0
 20
0.0
 30
0.0
 11
-30.0
 21
48.49999999999977
 31
0.0
  0
LINE
  5
16A
330
162
100
AcDbEntity
  8
03-01
100
AcDbLine
 10
-30.0
 20
48.49999999999977
 30
0.0
 11
-30.0
 21
50.0
 31
0.0
  0
LINE
  5
16B
330
162
100
AcDbEntity
  8
0
100
AcDbLine
 10
-10.0
 20
0.0
 30
0.0
 11
-30.0
 21
0.0
 31
0.0
  0
LINE
  5
16C
330
162
100
AcDbEntity
  8
0
100
AcDbLine
 10
-10.0
 20
0.0
 30
0.0
 11
10.0
 21
0.0
 31
0.0
  0
LINE
  5
16D
330
162
100
AcDbEntity
  8
03-01
100
AcDbLine
 10
30.0
 20
50.0
 30
0.0
 11
30.0
 21
48.49999999999932
 31
0.0
  0
LINE
  5
16E
330
162
100
AcDbEntity
  8
0
100
AcDbLine
 10
30.0
 20
48.49999999999932
 30
0.0
 11
30.0
 21
0.0
 31
0.0
  0
LINE
  5
16F
330
162
100
AcDbEntity
  8
0
100
AcDbLine
 10
30.0
 20
0.0
 30
0.0
 11
10.0
 21
0.0
 31
0.0
  0
LINE
  5
170
330
162
100
AcDbEntity
  8
0
100
AcDbLine
 10
-27.00000101120486
 20
106.4999999999998
 30
0.0
 11
-26.99999883770897
 21
105.4999990463273
 31
0.0
  0
LINE
  5
171
330
162
100
AcDbEntity
  8
0
100
AcDbLine
 10
26.99999883770988
 20
105.4999990463273
 30
0.0
 11
26.99999898879514
 21
106.4999999999998
 31
0.0
  0
LINE
  5
172
330
162
100
AcDbEntity
  8
0
100
AcDbLine
 10
-27.00000101120486
 20
106.4999999999998
 30
0.0
 11
26.99999898879514
 21
106.4999999999998
 31
0.0
  0
LINE
  5
173
330
162
100
AcDbEntity
  8
0
100
AcDbLine
 10
-25.50000101120486
 20
106.9999999999998
 30
0.0
 11
25.49999898879514
 21
106.9999999999998
 31
0.0
  0
LINE
  5
174
330
162
100
AcDbEntity
  8
0
100
AcDbLine
 10
-26.99999883770897
 20
105.4999990463273
 30
0.0
 11
26.99999883770988
 21
105.4999990463273
 31
0.0
  0
LINE
  5
175
330
162
100
AcDbEntity
  8
0
100
AcDbLine
 10
31.29999999999973
 20
48.49999999999932
 30
0.0
 11
-31.29999999999973
 21
48.49999999999955
 31
0.0
  0
LINE
  5
176
330
162
100
AcDbEntity
  8
03-01
100
AcDbLine
 10
-26.50000101120486
 20
102.9999999999998
 30
0.0
 11
26.49999898879514
 21
102.9999999999998
 31
0.0
  0
LINE
  5
177
330
162
100
AcDbEntity
  8
03-01
100
AcDbLine
 10
-26.50000101120486
 20
102.6999999999996
 30
0.0
 11
26.49999898879514
 21
102.6999999999996
 31
0.0
  0
LINE
  5
178
330
162
100
AcDbEntity
  8
03-01
100
AcDbLine
 10
-26.50000101120486
 20
100.6999999999996
 30
0.0
 11
26.49999898879514
 21
100.6999999999996
 31
0.0
  0
LINE
  5
179
330
162
100
AcDbEntity
  8
03-01
100
AcDbLine
 10
-26.50000101120486
 20
100.3999999999994
 30
0.0
 11
26.49999898879514
 21
100.3999999999994
 31
0.0
  0
LINE
  5
17A
330
162
100
AcDbEntity
  8
03-01
100
AcDbLine
 10
-0.0000010112048585
 20
94.9999999999996
 30
0.0
 11
-21.00000101120486
 21
94.9999999999996
 31
0.0
  0
LINE
  5
17B
330
162
100
AcDbEntity
  8
03-01
100
AcDbLine
 10
20.99999898879514
 20
94.9999999999996
 30
0.0
 11
-0.0000010112048585
 21
94.9999999999996
 31
0.0
  0
LINE
  5
17C
330
162
100
AcDbEntity
  8
03-01
100
AcDbLine
 10
-24.50000101120486
 20
105.9999999999998
 30
0.0
 11
24.49999898879514
 21
105.9999999999998
 31
0.0
  0
LINE
  5
17D
330
162
100
AcDbEntity
  8
03-01
100
AcDbLine
 10
-24.50000101120486
 20
97.99999999999982
 30
0.0
 11
24.49999898879514
 21
97.99999999999961
 31
0.0
  0
LINE
  5
17E
330
162
100
AcDbEntity
  8
03-01
100
AcDbLine
 10
-22.50000101120486
 20
95.9999999999996
 30
0.0
 11
22.49999898879514
 21
95.9999999999996
 31
0.0
  0
LINE
  5
17F
330
162
100
AcDbEntity
  8
03-01
100
AcDbLine
 10
-13.57272321259961
 20
100.9999999999998
 30
0.0
 11
13.57272119018989
 21
100.9999999999998
 31
0.0
  0
LINE
  5
180
330
162
100
AcDbEntity
  8
03-01
100
AcDbLine
 10
-30.50000000000046
 20
49.99999999999977
 30
0.0
 11
-30.50000000000046
 21
48.69999999999937
 31
0.0
  0
LINE
  5
181
330
162
100
AcDbEntity
  8
03-01
100
AcDbLine
 10
30.50000000000046
 20
50.0
 30
0.0
 11
-30.50000000000046
 21
49.99999999999977
 31
0.0
  0
LINE
  5
182
330
162
100
AcDbEntity
  8
03-01
100
AcDbLine
 10
-26.50000101120486
 20
102.9999999999998
 30
0.0
 11
-26.50000101120486
 21
102.6999999999996
 31
0.0
  0
LINE
  5
183
330
162
100
AcDbEntity
  8
03-01
100
AcDbLine
 10
26.49999898879514
 20
102.6999999999996
 30
0.0
 11
26.49999898879514
 21
102.9999999999998
 31
0.0
  0
LINE
  5
184
330
162
100
AcDbEntity
  8
03-01
100
AcDbLine
 10
-26.50000101120486
 20
100.6999999999996
 30
0.0
 11
-26.50000101120486
 21
100.3999999999994
 31
0.0
  0
LINE
  5
185
330
162
100
AcDbEntity
  8
03-01
100
AcDbLine
 10
26.49999898879514
 20
100.3999999999994
 30
0.0
 11
26.49999898879514
 21
100.6999999999996
 31
0.0
  0
LINE
  5
186
330
162
100
AcDbEntity
  8
03-01
100
AcDbLine
 10
-26.00880470769107
 20
105.4999999999998
 30
0.0
 11
-26.00000426173165
 21
103.0000014305131
 31
0.0
  0
LINE
  5
187
330
162
100
AcDbEntity
  8
03-01
100
AcDbLine
 10
26.00000053644226
 20
103.0000014305131
 30
0.0
 11
26.00880268528135
 21
105.4999999999998
 31
0.0
  0
LINE
  5
188
330
162
100
AcDbEntity
  8
03-01
100
AcDbLine
 10
-26.00000426173165
 20
102.6999963521974
 30
0.0
 11
-26.00000426173165
 21
100.6999997496621
 31
0.0
  0
LINE
  5
189
330
162
100
AcDbEntity
  8
03-01
100
AcDbLine
 10
26.00000053644226
 20
100.6999997496621
 30
0.0
 11
26.00000053644226
 21
102.6999963521974
 31
0.0
  0
LINE
  5
18A
330
162
100
AcDbEntity
  8
03-01
100
AcDbLine
 10
-26.00000426173165
 20
100.400002121927
 30
0.0
 11
-26.00000101120486
 21
99.9999999999996
 31
0.0
  0
LINE
  5
18B
330
162
100
AcDbEntity
  8
03-01
100
AcDbLine
 10
25.99999898879514
 20
99.9999999999996
 30
0.0
 11
26.00000053644226
 21
100.400002121927
 31
0.0
  0
LINE
  5
18C
330
162
100
AcDbEntity
  8
03-01
100
AcDbLine
 10
-24.50000101120486
 20
105.9999999999998
 30
0.0
 11
-24.50000101120486
 21
97.99999999999982
 31
0.0
  0
LINE
  5
18D
330
162
100
AcDbEntity
  8
03-01
100
AcDbLine
 10
24.49999898879514
 20
97.99999999999961
 30
0.0
 11
24.49999898879514
 21
105.9999999999998
 31
0.0
  0
LINE
  5
18E
330
162
100
AcDbEntity
  8
03-01
100
AcDbLine
 10
-23.49999919533684
 20
107.0000020861642
 30
0.0
 11
-23.49999919533684
 21
106.0000000596063
 31
0.0
  0
LINE
  5
18F
330
162
100
AcDbEntity
  8
03-01
100
AcDbLine
 10
23.49999919533775
 20
106.0000000596063
 30
0.0
 11
23.49999919533775
 21
107.0000020861642
 31
0.0
  0
LINE
  5
190
330
162
100
AcDbEntity
  8
03-01
100
AcDbLine
 10
16.56676828861282
 20
96.00000214576864
 30
0.0
 11
13.57272119018989
 21
100.9999999999998
 31
0.0
  0
LINE
  5
191
330
162
100
AcDbEntity
  8
03-01
100
AcDbLine
 10
-13.57272321259961
 20
100.9999999999998
 30
0.0
 11
-16.56677201390221
 21
96.00000214576864
 31
0.0
  0
LINE
  5
192
330
162
100
AcDbEntity
  8
03-01
100
AcDbLine
 10
15.99999889731452
 20
95.00000011921072
 30
0.0
 11
13.00595229315104
 21
99.9999999999996
 31
0.0
  0
LINE
  5
193
330
162
100
AcDbEntity
  8
03-01
100
AcDbLine
 10
-13.00595431555985
 20
99.9999999999996
 30
0.0
 11
-15.99999889731362
 21
95.00000011921072
 31
0.0
  0
LINE
  5
194
330
162
100
AcDbEntity
  8
03-01
100
AcDbLine
 10
-0.0000010112048585
 20
99.9999999999996
 30
0.0
 11
13.00595229315104
 21
99.9999999999996
 31
0.0
  0
LINE
  5
195
330
162
100
AcDbEntity
  8
03-01
100
AcDbLine
 10
-0.0000010112048585
 20
99.9999999999996
 30
0.0
 11
-13.00595431555985
 21
99.9999999999996
 31
0.0
  0
LINE
  5
196
330
162
100
AcDbEntity
  8
0
100
AcDbLine
 10
-31.50000000000046
 20
48.70000000000619
 30
0.0
 11
-31.50000000000046
 21
49.99999999999977
 31
0.0
  0
LINE
  5
197
330
162
100
AcDbEntity
  8
0
100
AcDbLine
 10
29.49999999999955
 20
51.99999999999977
 30
0.0
 11
-29.50000000000045
 21
51.99999999999977
 31
0.0
  0
LINE
  5
198
330
162
100
AcDbEntity
  8
0
100
AcDbLine
 10
31.49999999999955
 20
48.69999999999982
 30
0.0
 11
31.49999999999955
 21
49.99999999999977
 31
0.0
  0
LINE
  5
199
330
162
100
AcDbEntity
  8
0
100
AcDbLine
 10
-29.50000000000045
 20
51.99999999999977
 30
0.0
 11
-29.50000000000045
 21
96.99999999999938
 31
0.0
  0
LINE
  5
19A
330
162
100
AcDbEntity
  8
0
100
AcDbLine
 10
29.49999999999955
 20
51.99999999999977
 30
0.0
 11
29.49999999999955
 21
97.00000000000006
 31
0.0
  0
LINE
  5
19B
330
162
100
AcDbEntity
  8
0
100
AcDbLine
 10
27.49999898879514
 20
105.4999999999998
 30
0.0
 11
-27.50000101120486
 21
105.4999999999998
 31
0.0
  0
LINE
  5
19C
330
162
100
AcDbEntity
  8
0
100
AcDbLine
 10
27.99999999999954
 20
98.50000000000006
 30
0.0
 11
-28.00000000000046
 21
98.49999999999937
 31
0.0
  0
LINE
  5
19D
330
162
100
AcDbEntity
  8
0
100
AcDbLine
 10
-28.00000101120486
 20
104.9999999999998
 30
0.0
 11
-28.00000000000046
 21
98.49999999999937
 31
0.0
  0
LINE
  5
19E
330
162
100
AcDbEntity
  8
0
100
AcDbLine
 10
27.99999898879514
 20
104.9999999999998
 30
0.0
 11
27.99999999999954
 21
98.50000000000006
 31
0.0
  0
LINE
  5
19F
330
162
100
AcDbEntity
  8
03-01
100
AcDbLine
 10
-27.00000000000045
 20
50.19999999999959
 30
0.0
 11
-27.00000000000045
 21
95.49999999999959
 31
0.0
  0
LINE
  5
1A0
330
162
100
AcDbEntity
  8
03-01
100
AcDbLine
 10
26.99999999999955
 20
51.99999999999954
 30
0.0
 11
26.99999999999955
 21
95.50000000000006
 31
0.0
  0
LINE
  5
1A1
330
162
100
AcDbEntity
  8
03-01
100
AcDbLine
 10
26.49999999999955
 20
96.00000000000006
 30
0.0
 11
-26.50000000000046
 21
95.9999999999996
 31
0.0
  0
ARC
  5
1A2
330
162
100
AcDbEntity
  8
0
100
AcDbCircle
 10
-26.36602641498894
 20
107.4999999999998
 30
0.0
 40
0.9999999999998699
100
AcDbArc
 50
270.0
 51
330.0000000000126
  0
ARC
  5
1A3
330
162
100
AcDbEntity
  8
0
100
AcDbCircle
 10
26.36602439258013
 20
107.4999999999998
 30
0.0
 40
1.0
100
AcDbArc
 50
209.9999999999874
 51
270.0
  0
ARC
  5
1A4
330
162
100
AcDbEntity
  8
0
100
AcDbCircle
 10
-31.29999999999973
 20
48.70000000000619
 30
0.0
 40
0.2000000000066393
100
AcDbArc
 50
180.0
 51
270.0
  0
ARC
  5
1A5
330
162
100
AcDbEntity
  8
03-01
100
AcDbCircle
 10
-30.70000000000027
 20
48.69999999999937
 30
0.0
 40
0.2000000000001592
100
AcDbArc
 50
270.0
 51
0.0
  0
ARC
  5
1A6
330
162
100
AcDbEntity
  8
03-01
100
AcDbCircle
 10
20.99999898879514
 20
99.9999999999996
 30
0.0
 40
5.0
100
AcDbArc
 50
270.0
 51
0.0
  0
ARC
  5
1A7
330
162
100
AcDbEntity
  8
03-01
100
AcDbCircle
 10
-21.00000101120486
 20
99.9999999999996
 30
0.0
 40
5.0
100
AcDbArc
 50
180.0
 51
270.0
  0
ARC
  5
1A8
330
162
100
AcDbEntity
  8
03-01
100
AcDbCircle
 10
-22.50000101120486
 20
97.99999999999961
 30
0.0
 40
2.0
100
AcDbArc
 50
179.999999999987
 51
270.0
  0
ARC
  5
1A9
330
162
100
AcDbEntity
  8
03-01
100
AcDbCircle
 10
22.49999898879514
 20
97.99999999999961
 30
0.0
 40
2.0
100
AcDbArc
 50
270.0
 51
0.0
  0
ARC
  5
1AA
330
162
100
AcDbEntity
  8
0
100
AcDbCircle
 10
-29.50000000000045
 20
49.99999999999977
 30
0.0
 40
2.0
100
AcDbArc
 50
90.0
 51
180.0
  0
ARC
  5
1AB
330
162
100
AcDbEntity
  8
0
100
AcDbCircle
 10
29.49999999999955
 20
49.99999999999977
 30
0.0
 40
2.0
100
AcDbArc
 50
0.0
 51
90.0
  0
ARC
  5
1AC
330
162
100
AcDbEntity
  8
0
100
AcDbCircle
 10
31.29999999999973
 20
48.70000000000619
 30
0.0
 40
0.2000000000066393
100
AcDbArc
 50
270.0
 51
359.9999999981761
  0
ARC
  5
1AD
330
162
100
AcDbEntity
  8
03-01
100
AcDbCircle
 10
30.70000000000027
 20
48.69999999999937
 30
0.0
 40
0.2000000000002728
100
AcDbArc
 50
180.0
 51
270.0
  0
ARC
  5
1AE
330
162
100
AcDbEntity
  8
0
100
AcDbCircle
 10
-28.00000000000046
 20
96.99999999999938
 30
0.0
 40
1.5
100
AcDbArc
 50
90.0
 51
180.0
  0
ARC
  5
1AF
330
162
100
AcDbEntity
  8
0
100
AcDbCircle
 10
27.99999999999954
 20
97.00000000000006
 30
0.0
 40
1.5
100
AcDbArc
 50
0.0
 51
90.0
  0
ARC
  5
1B0
330
162
100
AcDbEntity
  8
0
100
AcDbCircle
 10
-27.50000101120486
 20
104.9999999999998
 30
0.0
 40
0.5
100
AcDbArc
 50
90.0
 51
180.0
  0
ARC
  5
1B1
330
162
100
AcDbEntity
  8
0
100
AcDbCircle
 10
27.49999898879514
 20
104.9999999999998
 30
0.0
 40
0.5
100
AcDbArc
 50
0.0
 51
90.0
  0
ARC
  5
1B2
330
162
100
AcDbEntity
  8
03-01
100
AcDbCircle
 10
-26.50000000000046
 20
95.49999999999959
 30
0.0
 40
0.5
100
AcDbArc
 50
90.0
 51
180.0
  0
ARC
  5
1B3
330
162
100
AcDbEntity
  8
03-01
100
AcDbCircle
 10
26.49999999999955
 20
95.50000000000006
 30
0.0
 40
0.5
100
AcDbArc
 50
0.0
 51
90.0
  0
LINE
  5
1B4
330
162
100
AcDbEntity
  8
03-01
100
AcDbLine
 10
30.50000000000046
 20
49.99999999999977
 30
0.0
 11
30.50000000000046
 21
48.69999999999937
 31
0.0
  0
ENDBLK
  5
1B5
330
162
100
AcDbEntity
  8
0
100
AcDbBlockEnd
  0
BLOCK
  5
112
330
10F
100
AcDbEntity
  8
0
100
AcDbBlockBegin
  2
desipumpe_dr
 70
     0
 10
0.0
 20
0.0
 30
0.0
  3
desipumpe_dr
  1

  0
LINE
  5
113
330
10F
100
AcDbEntity
  8
03-01
100
AcDbLine
 10
-351.2335693789804
 20
199.527899906843
 30
0.0
 11
-351.2335693789804
 21
198.027899906843
 31
0.0
  0
LINE
  5
114
330
10F
100
AcDbEntity
  8
03-01
100
AcDbLine
 10
-351.2335693789804
 20
194.1278999068431
 30
0.0
 11
-351.2335693789812
 21
146.2369719841174
 31
0.0
  0
LINE
  5
115
330
10F
100
AcDbEntity
  8
03-01
100
AcDbLine
 10
-351.2335693789804
 20
142.3369719841173
 30
0.0
 11
-351.2335693789804
 21
140.8369719841173
 31
0.0
  0
LINE
  5
116
330
10F
100
AcDbEntity
  8
03-01
100
AcDbLine
 10
-351.2335693789804
 20
199.527899906843
 30
0.0
 11
-354.8335693789803
 21
199.527899906843
 31
0.0
  0
LINE
  5
117
330
10F
100
AcDbEntity
  8
03-01
100
AcDbLine
 10
-351.2335693789804
 20
198.027899906843
 30
0.0
 11
-353.3335693789803
 21
198.027899906843
 31
0.0
  0
LINE
  5
118
330
10F
100
AcDbEntity
  8
03-01
100
AcDbLine
 10
-358.0335693789804
 20
199.527899906843
 30
0.0
 11
-420.2335693789803
 21
199.527899906843
 31
0.0
  0
LINE
  5
119
330
10F
100
AcDbEntity
  8
03-01
100
AcDbLine
 10
-353.2335693789805
 20
183.527899906843
 30
0.0
 11
-377.2335693789806
 21
183.527899906843
 31
0.0
  0
LINE
  5
11A
330
10F
100
AcDbEntity
  8
03-01
100
AcDbLine
 10
-353.2335693789804
 20
186.027899906843
 30
0.0
 11
-377.2335693789805
 21
186.027899906843
 31
0.0
  0
LINE
  5
11B
330
10F
100
AcDbEntity
  8
03-01
100
AcDbLine
 10
-354.8335693789803
 20
194.8278999068429
 30
0.0
 11
-358.0335693789804
 21
194.8278999068429
 31
0.0
  0
LINE
  5
11C
330
10F
100
AcDbEntity
  8
03-01
100
AcDbLine
 10
-351.2335693789804
 20
194.1278999068431
 30
0.0
 11
-353.3335693789803
 21
194.1278999068431
 31
0.0
  0
LINE
  5
11D
330
10F
100
AcDbEntity
  8
03-01
100
AcDbLine
 10
-360.1335693789803
 20
197.727899906843
 30
0.0
 11
-418.4335693789803
 21
197.727899906843
 31
0.0
  0
LINE
  5
11E
330
10F
100
AcDbEntity
  8
03-01
100
AcDbLine
 10
-351.2335693789804
 20
140.8369719841173
 30
0.0
 11
-354.8335693789803
 21
140.8369719841173
 31
0.0
  0
LINE
  5
11F
330
10F
100
AcDbEntity
  8
03-01
100
AcDbLine
 10
-351.2335693789804
 20
142.3369719841173
 30
0.0
 11
-353.3335693789803
 21
142.3369719841173
 31
0.0
  0
LINE
  5
120
330
10F
100
AcDbEntity
  8
03-01
100
AcDbLine
 10
-358.0335693789804
 20
140.8369719841173
 30
0.0
 11
-420.2335693789803
 21
140.8369719841173
 31
0.0
  0
LINE
  5
121
330
10F
100
AcDbEntity
  8
03-01
100
AcDbLine
 10
-353.2335693789811
 20
156.8369719841173
 30
0.0
 11
-377.2335693789811
 21
156.8369719841173
 31
0.0
  0
LINE
  5
122
330
10F
100
AcDbEntity
  8
03-01
100
AcDbLine
 10
-353.2335693789811
 20
154.3369719841173
 30
0.0
 11
-377.2335693789811
 21
154.3369719841173
 31
0.0
  0
LINE
  5
123
330
10F
100
AcDbEntity
  8
03-01
100
AcDbLine
 10
-354.8335693789803
 20
145.5369719841173
 30
0.0
 11
-358.0335693789804
 21
145.5369719841173
 31
0.0
  0
LINE
  5
124
330
10F
100
AcDbEntity
  8
03-01
100
AcDbLine
 10
-351.2335693789812
 20
146.2369719841174
 30
0.0
 11
-353.3335693789803
 21
146.2369719841174
 31
0.0
  0
LINE
  5
125
330
10F
100
AcDbEntity
  8
03-01
100
AcDbLine
 10
-360.1335693789804
 20
142.6369719841173
 30
0.0
 11
-418.4335693789803
 21
142.6369719841173
 31
0.0
  0
LINE
  5
126
330
10F
100
AcDbEntity
  8
03-01
100
AcDbLine
 10
-420.2335693789803
 20
199.527899906843
 30
0.0
 11
-420.2335693789803
 21
140.8369719841173
 31
0.0
  0
LINE
  5
127
330
10F
100
AcDbEntity
  8
03-01
100
AcDbLine
 10
-418.4335693789803
 20
197.727899906843
 30
0.0
 11
-418.4335693789803
 21
142.6369719841173
 31
0.0
  0
LINE
  5
128
330
10F
100
AcDbEntity
  8
03-01
100
AcDbLine
 10
-354.8335693789803
 20
199.527899906843
 30
0.0
 11
-354.8335693789803
 21
194.8278999068429
 31
0.0
  0
LINE
  5
129
330
10F
100
AcDbEntity
  8
03-01
100
AcDbLine
 10
-354.8335693789803
 20
145.5369719841171
 30
0.0
 11
-354.8335693789803
 21
140.8369719841173
 31
0.0
  0
LINE
  5
12A
330
10F
100
AcDbEntity
  8
03-01
100
AcDbLine
 10
-353.3335693789803
 20
198.027899906843
 30
0.0
 11
-353.3335693789803
 21
194.1278999068433
 31
0.0
  0
LINE
  5
12B
330
10F
100
AcDbEntity
  8
03-01
100
AcDbLine
 10
-353.3335693789803
 20
146.2369719841174
 30
0.0
 11
-353.3335693789803
 21
142.3369719841173
 31
0.0
  0
LINE
  5
12C
330
10F
100
AcDbEntity
  8
03-01
100
AcDbLine
 10
-358.0335693789804
 20
199.527899906843
 30
0.0
 11
-358.0335693789804
 21
194.8278999068429
 31
0.0
  0
LINE
  5
12D
330
10F
100
AcDbEntity
  8
03-01
100
AcDbLine
 10
-360.1335693789803
 20
197.727899906843
 30
0.0
 11
-360.1335693789803
 21
192.527899906843
 31
0.0
  0
LINE
  5
12E
330
10F
100
AcDbEntity
  8
03-01
100
AcDbLine
 10
-360.1335693789804
 20
147.8369719841173
 30
0.0
 11
-360.1335693789804
 21
142.6369719841173
 31
0.0
  0
LINE
  5
12F
330
10F
100
AcDbEntity
  8
03-01
100
AcDbLine
 10
-358.0335693789804
 20
140.8369719841173
 30
0.0
 11
-358.0335693789804
 21
145.5369719841173
 31
0.0
  0
LINE
  5
130
330
10F
100
AcDbEntity
  8
03-01
100
AcDbLine
 10
-353.2335693789804
 20
192.527899906843
 30
0.0
 11
-353.2335693789804
 21
186.027899906843
 31
0.0
  0
LINE
  5
131
330
10F
100
AcDbEntity
  8
03-01
100
AcDbLine
 10
-353.2335693789805
 20
183.527899906843
 30
0.0
 11
-353.233569378981
 21
156.8369719841175
 31
0.0
  0
LINE
  5
132
330
10F
100
AcDbEntity
  8
03-01
100
AcDbLine
 10
-353.2335693789811
 20
154.3369719841173
 30
0.0
 11
-353.2335693789812
 21
147.8369719841173
 31
0.0
  0
LINE
  5
133
330
10F
100
AcDbEntity
  8
03-01
100
AcDbLine
 10
-360.1335693789803
 20
192.527899906843
 30
0.0
 11
-353.2335693789804
 21
192.527899906843
 31
0.0
  0
LINE
  5
134
330
10F
100
AcDbEntity
  8
03-01
100
AcDbLine
 10
-360.1335693789804
 20
147.8369719841173
 30
0.0
 11
-353.2335693789812
 21
147.8369719841173
 31
0.0
  0
LINE
  5
135
330
10F
100
AcDbEntity
  8
03-01
100
AcDbLine
 10
-354.2335693789805
 20
186.027899906843
 30
0.0
 11
-354.2335693789805
 21
183.527899906843
 31
0.0
  0
LINE
  5
136
330
10F
100
AcDbEntity
  8
03-01
100
AcDbLine
 10
-354.2335693789811
 20
156.8369719841173
 30
0.0
 11
-354.2335693789811
 21
154.3369719841173
 31
0.0
  0
LINE
  5
137
330
10F
100
AcDbEntity
  8
03-01
100
AcDbLine
 10
-377.2335693789805
 20
186.027899906843
 30
0.0
 11
-377.2335693789806
 21
183.527899906843
 31
0.0
  0
LINE
  5
138
330
10F
100
AcDbEntity
  8
03-01
100
AcDbLine
 10
-377.2335693789811
 20
156.8369719841173
 30
0.0
 11
-377.2335693789811
 21
154.3369719841173
 31
0.0
  0
LINE
  5
139
330
10F
100
AcDbEntity
  8
03-01
100
AcDbLine
 10
-354.2361770821899
 20
154.1824351855223
 30
0.0
 11
-358.2205240680068
 21
154.1824351855223
 31
0.0
  0
ARC
  5
13A
330
10F
100
AcDbEntity
  8
03-01
100
AcDbCircle
 10
-356.2335625840514
 20
154.1824359454817
 30
0.0
 40
2.0
100
AcDbArc
 50
180.0
 51
0.0
  0
LINE
  5
13B
330
10F
100
AcDbEntity
  8
03-01
100
AcDbLine
 10
-358.2335625840515
 20
157.1824356772606
 30
0.0
 11
-358.2335625840515
 21
154.1824351855223
 31
0.0
  0
LINE
  5
13C
330
10F
100
AcDbEntity
  8
03-01
100
AcDbLine
 10
-354.233569378981
 20
154.1824351855223
 30
0.0
 11
-354.233569378981
 21
157.1824356772606
 31
0.0
  0
LINE
  5
13D
330
10F
100
AcDbEntity
  8
03-01
100
AcDbLine
 10
-354.233569378981
 20
183.1824362137024
 30
0.0
 11
-354.233569378981
 21
186.1824367054407
 31
0.0
  0
LINE
  5
13E
330
10F
100
AcDbEntity
  8
03-01
100
AcDbLine
 10
-358.2335625840515
 20
186.1824367054407
 30
0.0
 11
-358.2335625840515
 21
183.1824362137024
 31
0.0
  0
ARC
  5
13F
330
10F
100
AcDbEntity
  8
03-01
100
AcDbCircle
 10
-356.2335625840514
 20
186.1824359454817
 30
0.0
 40
2.0
100
AcDbArc
 50
0.0
 51
180.0
  0
LINE
  5
140
330
10F
100
AcDbEntity
  8
03-01
100
AcDbLine
 10
-358.2335625840515
 20
186.1824359454817
 30
0.0
 11
-354.233569378981
 21
186.1824367054407
 31
0.0
  0
LINE
  5
141
330
10F
100
AcDbEntity
  8
03-01
100
AcDbLine
 10
-375.1493839159526
 20
183.1824362137024
 30
0.0
 11
-350.2335693789806
 21
183.1824362137024
 31
0.0
  0
LINE
  5
142
330
10F
100
AcDbEntity
  8
03-01
100
AcDbLine
 10
-375.1493839159531
 20
157.1824356772606
 30
0.0
 11
-350.2335693789811
 21
157.1824356772606
 31
0.0
  0
LINE
  5
143
330
10F
100
AcDbEntity
  8
03-01
100
AcDbLine
 10
-350.2335693789806
 20
183.1824362137024
 30
0.0
 11
-350.2335693789811
 21
157.1824356772606
 31
0.0
  0
ARC
  5
144
330
10F
100
AcDbEntity
  8
03-01
100
AcDbCircle
 10
-390.6335700763551
 20
170.182435945482
 30
0.0
 40
19.40000069737442
100
AcDbArc
 50
321.0869207880793
 51
38.91307921192072
  0
ARC
  5
145
330
10F
100
AcDbEntity
  8
03-01
100
AcDbCircle
 10
-375.1493839159531
 20
157.6824356772606
 30
0.0
 40
0.5
100
AcDbArc
 50
141.0869207880793
 51
270.0
  0
ARC
  5
146
330
10F
100
AcDbEntity
  8
03-01
100
AcDbCircle
 10
-375.1493839159526
 20
182.6824362137024
 30
0.0
 40
0.5
100
AcDbArc
 50
90.0
 51
218.9130792119065
  0
ARC
  5
147
330
10F
100
AcDbEntity
  8
03-01
100
AcDbCircle
 10
-387.0335700763552
 20
170.1824359454815
 30
0.0
 40
19.40000069737442
100
AcDbArc
 50
321.0869207880793
 51
38.91307921192072
  0
ARC
  5
148
330
10F
100
AcDbEntity
  8
03-01
100
AcDbCircle
 10
-371.5493839159529
 20
157.6824356772606
 30
0.0
 40
0.5
100
AcDbArc
 50
141.0869207880793
 51
270.0
  0
ARC
  5
149
330
10F
100
AcDbEntity
  8
03-01
100
AcDbCircle
 10
-371.5493839159529
 20
182.6824362137024
 30
0.0
 40
0.5
100
AcDbArc
 50
90.0
 51
218.9130792119207
  0
LINE
  5
14A
330
10F
100
AcDbEntity
  8
03-01
100
AcDbLine
 10
-421.4614561965119
 20
202.6824373564518
 30
0.0
 11
-421.4614561965119
 21
137.6929142734802
 31
0.0
  0
ARC
  5
14B
330
10F
100
AcDbEntity
  8
03-01
100
AcDbCircle
 10
-418.461456196512
 20
137.6929142734802
 30
0.0
 40
3.0
100
AcDbArc
 50
180.0
 51
270.0
  0
LINE
  5
14C
330
10F
100
AcDbEntity
  8
03-01
100
AcDbLine
 10
-323.9418569105022
 20
202.6824373564521
 30
0.0
 11
-323.9418569105022
 21
137.6929142734802
 31
0.0
  0
ARC
  5
14D
330
10F
100
AcDbEntity
  8
03-01
100
AcDbCircle
 10
-326.9418569105022
 20
202.6824373564521
 30
0.0
 40
3.0
100
AcDbArc
 50
0.0
 51
90.0
  0
LINE
  5
14E
330
10F
100
AcDbEntity
  8
03-01
100
AcDbLine
 10
-326.9418569105022
 20
205.6824373564518
 30
0.0
 11
-418.461456196512
 21
205.6824373564518
 31
0.0
  0
ARC
  5
14F
330
10F
100
AcDbEntity
  8
03-01
100
AcDbCircle
 10
-418.461456196512
 20
202.6824373564518
 30
0.0
 40
3.0
100
AcDbArc
 50
90.0
 51
180.0
  0
LINE
  5
150
330
10F
100
AcDbEntity
  8
03-01
100
AcDbLine
 10
-326.9418569105022
 20
134.6929142734802
 30
0.0
 11
-418.461456196512
 21
134.6929142734802
 31
0.0
  0
ARC
  5
151
330
10F
100
AcDbEntity
  8
03-01
100
AcDbCircle
 10
-326.9418569105022
 20
137.6929142734802
 30
0.0
 40
3.0
100
AcDbArc
 50
270.0
 51
0.0
  0
LINE
  5
152
330
10F
100
AcDbEntity
  8
03-01
100
AcDbLine
 10
-343.8882562083501
 20
134.6929142734802
 30
0.0
 11
-343.88825620835
 21
205.682437356452
 31
0.0
  0
LINE
  5
153
330
10F
100
AcDbEntity
  8
03-01
100
AcDbLine
 10
-345.93232163963
 20
134.6929142734802
 30
0.0
 11
-345.9323216396301
 21
205.6824373564518
 31
0.0
  0
LINE
  5
154
330
10F
100
AcDbEntity
  8
03-01
100
AcDbLine
 10
-341.8441907770698
 20
134.6929142734802
 30
0.0
 11
-341.8441907770698
 21
205.6824373564518
 31
0.0
  0
LINE
  5
155
330
10F
100
AcDbEntity
  8
03-01
100
AcDbLine
 10
-412.2331298763644
 20
144.4534961149877
 30
0.0
 11
-412.2331298763644
 21
195.9113718126527
 31
0.0
  0
LINE
  5
156
330
10F
100
AcDbEntity
  8
03-01
100
AcDbLine
 10
-351.7361806450315
 20
144.4534961149877
 30
0.0
 11
-351.7361806450315
 21
195.9113718126527
 31
0.0
  0
ARC
  5
157
330
10F
100
AcDbEntity
  8
03-01
100
AcDbCircle
 10
-352.7361806450315
 20
144.4534961149877
 30
0.0
 40
1.0
100
AcDbArc
 50
270.0
 51
0.0
  0
LINE
  5
158
330
10F
100
AcDbEntity
  8
03-01
100
AcDbLine
 10
-411.2331298763645
 20
196.9113718126527
 30
0.0
 11
-352.7361806450315
 21
196.9113718126527
 31
0.0
  0
ARC
  5
159
330
10F
100
AcDbEntity
  8
03-01
100
AcDbCircle
 10
-352.7361806450315
 20
195.9113718126527
 30
0.0
 40
1.0
100
AcDbArc
 50
0.0
 51
90.0
  0
ARC
  5
15A
330
10F
100
AcDbEntity
  8
03-01
100
AcDbCircle
 10
-411.2331298763645
 20
195.9113718126527
 30
0.0
 40
1.0
100
AcDbArc
 50
90.0
 51
180.0
  0
LINE
  5
15B
330
10F
100
AcDbEntity
  8
03-01
100
AcDbLine
 10
-411.2331298763645
 20
143.4534961149877
 30
0.0
 11
-352.7361806450315
 21
143.4534961149877
 31
0.0
  0
ARC
  5
15C
330
10F
100
AcDbEntity
  8
03-01
100
AcDbCircle
 10
-411.2331298763645
 20
144.4534961149877
 30
0.0
 40
1.0
100
AcDbArc
 50
180.0
 51
270.0
  0
ENDBLK
  5
15D
330
10F
100
AcDbEntity
  8
0
100
AcDbBlockEnd
  0
BLOCK
  5
103
330
102
100
AcDbEntity
  8
0
100
AcDbBlockBegin
  2
*D10
 70
     1
 10
0.0
 20
0.0
 30
0.0
  3
*D10
  1

  0
LINE
  5
104
330
102
100
AcDbEntity
  8
0
 62
     4
440
 16777216
370
    -2
100
AcDbLine
 10
343.6389020803422
 20
455.7713703452101
 30
0.0
 11
343.6389020803422
 21
498.9269536996156
 31
0.0
  0
LINE
  5
105
330
102
100
AcDbEntity
  8
0
 62
     4
440
 16777216
370
    -2
100
AcDbLine
 10
493.7297778262813
 20
486.6866860203915
 30
0.0
 11
493.7297778262813
 21
498.9269536996156
 31
0.0
  0
LINE
  5
106
330
102
100
AcDbEntity
  8
0
 62
     4
440
 16777216
370
    -2
100
AcDbLine
 10
348.6389020803422
 20
496.9269536996156
 30
0.0
 11
488.7297778262812
 21
496.9269536996156
 31
0.0
  0
SOLID
  5
107
330
102
100
AcDbEntity
  8
0
 62
     4
440
 16777216
100
AcDbTrace
 10
348.6389020803422
 20
497.7602870329489
 30
0.0
 11
348.6389020803422
 21
496.0936203662823
 31
0.0
 12
343.6389020803422
 22
496.9269536996156
 32
0.0
 13
343.6389020803422
 23
496.9269536996156
 33
0.0
  0
SOLID
  5
108
330
102
100
AcDbEntity
  8
0
 62
     4
440
 16777216
100
AcDbTrace
 10
488.7297778262812
 20
497.7602870329489
 30
0.0
 11
488.7297778262812
 21
496.0936203662823
 31
0.0
 12
493.7297778262813
 22
496.9269536996156
 32
0.0
 13
493.7297778262813
 23
496.9269536996156
 33
0.0
  0
MTEXT
  5
109
330
102
100
AcDbEntity
  8
0
 62
     1
440
 16777216
100
AcDbMText
 10
418.6843399533117
 20
501.4269536996156
 30
0.0
 40
5.0
 41
0.0
 46
0.0
 71
     5
 72
     1
  1
150.1
 73
     1
 44
1.0
  0
POINT
  5
10A
330
102
100
AcDbEntity
  8
Defpoints
 62
     0
440
 16777216
100
AcDbPoint
 10
343.6389020803422
 20
453.7713703452101
 30
0.0
  0
POINT
  5
10B
330
102
100
AcDbEntity
  8
Defpoints
 62
     0
440
 16777216
100
AcDbPoint
 10
493.7297778262813
 20
484.6866860203915
 30
0.0
  0
POINT
  5
10C
330
102
100
AcDbEntity
  8
Defpoints
 62
     0
440
 16777216
100
AcDbPoint
 10
493.7297778262813
 20
496.9269536996156
 30
0.0
  0
ENDBLK
  5
10D
330
102
100
AcDbEntity
  8
0
100
AcDbBlockEnd
  0
BLOCK
  5
F6
330
F5
100
AcDbEntity
  8
0
100
AcDbBlockBegin
  2
*D11
 70
     1
 10
0.0
 20
0.0
 30
0.0
  3
*D11
  1

  0
LINE
  5
F7
330
F5
100
AcDbEntity
  8
0
 62
     4
440
 16777216
370
    -2
100
AcDbLine
 10
370.1389401568267
 20
247.2657675791972
 30
0.0
 11
290.5115068816931
 21
247.2657675791973
 31
0.0
  0
LINE
  5
F8
330
F5
100
AcDbEntity
  8
0
 62
     4
440
 16777216
370
    -2
100
AcDbLine
 10
422.9671010803444
 20
488.6866861544918
 30
0.0
 11
290.5115068816932
 21
488.6866861544919
 31
0.0
  0
LINE
  5
F9
330
F5
100
AcDbEntity
  8
0
 62
     4
440
 16777216
370
    -2
100
AcDbLine
 10
292.5115068816931
 20
252.2657675791973
 30
0.0
 11
292.5115068816932
 21
483.6866861544918
 31
0.0
  0
SOLID
  5
FA
330
F5
100
AcDbEntity
  8
0
 62
     4
440
 16777216
100
AcDbTrace
 10
291.6781735483598
 20
252.2657675791973
 30
0.0
 11
293.3448402150264
 21
252.2657675791973
 31
0.0
 12
292.5115068816931
 22
247.2657675791973
 32
0.0
 13
292.5115068816931
 23
247.2657675791973
 33
0.0
  0
SOLID
  5
FB
330
F5
100
AcDbEntity
  8
0
 62
     4
440
 16777216
100
AcDbTrace
 10
291.6781735483598
 20
483.6866861544918
 30
0.0
 11
293.3448402150265
 21
483.6866861544918
 31
0.0
 12
292.5115068816932
 22
488.6866861544919
 32
0.0
 13
292.5115068816932
 23
488.6866861544919
 33
0.0
  0
MTEXT
  5
FC
330
F5
100
AcDbEntity
  8
0
 62
     1
440
 16777216
100
AcDbMText
 10
288.011506881693
 20
367.9762268668446
 30
0.0
 40
5.0
 41
0.0
 46
0.0
 71
     5
 72
     1
  1
241.4
 11
0.0000000000000001
 21
1.0
 31
0.0
 73
     1
 44
1.0
  0
POINT
  5
FD
330
F5
100
AcDbEntity
  8
Defpoints
 62
     0
440
 16777216
100
AcDbPoint
 10
372.1389401568267
 20
247.2657675791972
 30
0.0000000000000001
  0
POINT
  5
FE
330
F5
100
AcDbEntity
  8
Defpoints
 62
     0
440
 16777216
100
AcDbPoint
 10
424.9671010803443
 20
488.6866861544918
 30
0.0
  0
POINT
  5
FF
330
F5
100
AcDbEntity
  8
Defpoints
 62
     0
440
 16777216
100
AcDbPoint
 10
292.5115068816932
 20
488.6866861544919
 30
0.0
  0
ENDBLK
  5
100
330
F5
100
AcDbEntity
  8
0
100
AcDbBlockEnd
  0
BLOCK
  5
E6
330
E5
100
AcDbEntity
  8
0
100
AcDbBlockBegin
  2
*D12
 70
     1
 10
0.0
 20
0.0
 30
0.0
  3
*D12
  1

  0
LINE
  5
E7
330
E5
100
AcDbEntity
  8
0
 62
     4
440
 16777216
370
    -2
100
AcDbLine
 10
343.6389020803422
 20
263.2713703452101
 30
0.0
 11
343.6389020803422
 21
203.1750447690628
 31
0.0
  0
LINE
  5
E8
330
E5
100
AcDbEntity
  8
0
 62
     4
440
 16777216
370
    -2
100
AcDbLine
 10
477.4643659650404
 20
249.1866822056942
 30
0.0
 11
477.4643659650404
 21
203.1750447690628
 31
0.0
  0
LINE
  5
E9
330
E5
100
AcDbEntity
  8
0
 62
     4
440
 16777216
370
    -2
100
AcDbLine
 10
348.6389020803422
 20
205.1750447690628
 30
0.0
 11
472.4643659650404
 21
205.1750447690628
 31
0.0
  0
SOLID
  5
EA
330
E5
100
AcDbEntity
  8
0
 62
     4
440
 16777216
100
AcDbTrace
 10
348.6389020803422
 20
206.0083781023962
 30
0.0
 11
348.6389020803422
 21
204.3417114357295
 31
0.0
 12
343.6389020803422
 22
205.1750447690628
 32
0.0
 13
343.6389020803422
 23
205.1750447690628
 33
0.0
  0
SOLID
  5
EB
330
E5
100
AcDbEntity
  8
0
 62
     4
440
 16777216
100
AcDbTrace
 10
472.4643659650404
 20
206.0083781023962
 30
0.0
 11
472.4643659650404
 21
204.3417114357295
 31
0.0
 12
477.4643659650404
 22
205.1750447690628
 32
0.0
 13
477.4643659650404
 23
205.1750447690628
 33
0.0
  0
MTEXT
  5
EC
330
E5
100
AcDbEntity
  8
0
 62
     1
440
 16777216
100
AcDbMText
 10
410.5516340226913
 20
209.6750447690628
 30
0.0
 40
5.0
 41
0.0
 46
0.0
 71
     5
 72
     1
  1
133.8
 73
     1
 44
1.0
  0
POINT
  5
ED
330
E5
100
AcDbEntity
  8
Defpoints
 62
     0
440
 16777216
100
AcDbPoint
 10
343.6389020803422
 20
265.2713703452101
 30
0.0
  0
POINT
  5
EF
330
E5
100
AcDbEntity
  8
Defpoints
 62
     0
440
 16777216
100
AcDbPoint
 10
477.4643659650404
 20
251.1866822056942
 30
0.0
  0
POINT
  5
F0
330
E5
100
AcDbEntity
  8
Defpoints
 62
     0
440
 16777216
100
AcDbPoint
 10
477.4643659650404
 20
205.1750447690628
 30
0.0
  0
ENDBLK
  5
F1
330
E5
100
AcDbEntity
  8
0
100
AcDbBlockEnd
  0
BLOCK
  5
D8
330
D7
100
AcDbEntity
  8
0
100
AcDbBlockBegin
  2
Kolbendruckplatte01_s
 70
     0
 10
0.0
 20
0.0
 30
0.0
  3
Kolbendruckplatte01_s
  1

  0
LINE
  5
D9
330
D7
100
AcDbEntity
  8
0
100
AcDbLine
 10
-3.998079160962277
 20
0.1722786661994178
 30
0.0
 11
-6.728982372248708
 21
-37.18724677554974
 31
0.0
  0
ARC
  5
DA
330
D7
100
AcDbEntity
  8
0
100
AcDbCircle
 10
-5.731643365302261
 20
-37.26015017206282
 30
0.0
 40
1.0
100
AcDbArc
 50
175.8192340796936
 51
265.81923407968
  0
CIRCLE
  5
DB
330
D7
100
AcDbEntity
  8
0
100
AcDbCircle
 10
0.0
 20
0.0
 30
0.0
 40
1.9
  0
CIRCLE
  5
DC
330
D7
100
AcDbEntity
  8
0
100
AcDbCircle
 10
-0.1486818435844839
 20
-29.46757359725052
 30
0.0
 40
2.5
  0
LINE
  5
DD
330
D7
100
AcDbEntity
  8
0
100
AcDbLine
 10
3.840674184201247
 20
-29.75918718330195
 30
0.0
 11
3.244407697215592
 21
-37.9162807406783
 31
0.0
  0
ARC
  5
DE
330
D7
100
AcDbEntity
  8
0
100
AcDbCircle
 10
2.247068690269145
 20
-37.84337734416522
 30
0.0
 40
1.0
100
AcDbArc
 50
265.81923407968
 51
355.8192340796936
  0
LINE
  5
DF
330
D7
100
AcDbEntity
  8
0
100
AcDbLine
 10
4.229908413562554
 20
-0.1822682719116528
 30
0.0
 11
3.840674184201247
 21
-29.75918718330195
 31
0.0
  0
ARC
  5
E0
330
D7
100
AcDbEntity
  8
0
100
AcDbCircle
 10
0.1106117866753493
 20
-0.1280580530287807
 30
0.0
 40
4.119653316495944
100
AcDbArc
 50
359.2460272369752
 51
175.8192340796936
  0
LINE
  5
E1
330
D7
100
AcDbEntity
  8
0
100
AcDbLine
 10
2.174165293756288
 20
-38.84071635111195
 30
0.0
 11
-5.804546761815117
 21
-38.2574891790091
 31
0.0
  0
ENDBLK
  5
E2
330
D7
100
AcDbEntity
  8
0
100
AcDbBlockEnd
  0
BLOCK
  5
7C
330
7B
100
AcDbEntity
  8
0
100
AcDbBlockBegin
  2
Desipumpe_937045_S
 70
     0
 10
0.0
 20
0.0
 30
0.0
  3
Desipumpe_937045_S
  1

  0
LINE
  5
7D
330
7B
100
AcDbEntity
  8
0
100
AcDbLine
 10
54.27379161119461
 20
-50.84998905658721
 30
0.0
 11
55.45549178572844
 21
-50.84998905658721
 31
0.0
  0
LINE
  5
7E
330
7B
100
AcDbEntity
  8
0
100
AcDbLine
 10
42.59543595758725
 20
-50.84998905658721
 30
0.0
 11
43.7129009515047
 21
-50.84998905658721
 31
0.0
  0
LINE
  5
7F
330
7B
100
AcDbEntity
  8
0
100
AcDbLine
 10
56.45533948040804
 20
-49.86744149033757
 30
0.0
 11
56.52284622192382
 21
-45.99998891353607
 31
0.0
  0
ARC
  5
80
330
7B
100
AcDbEntity
  8
0
100
AcDbCircle
 10
55.45549178572844
 20
-49.84998905658722
 30
0.0
 40
1.0
100
AcDbArc
 50
270.0
 51
358.9999984348382
  0
LINE
  5
81
330
7B
100
AcDbEntity
  8
0
100
AcDbLine
 10
41.52808152139186
 20
-45.99998891353607
 30
0.0
 11
41.59558826290765
 21
-49.86744149033757
 31
0.0
  0
ARC
  5
82
330
7B
100
AcDbEntity
  8
0
100
AcDbCircle
 10
42.59543595758725
 20
-49.84998905658722
 30
0.0
 40
1.0
100
AcDbArc
 50
181.0000015651618
 51
270.0
  0
LINE
  5
83
330
7B
100
AcDbEntity
  8
0
100
AcDbLine
 10
43.70338283479213
 20
-50.84836483001708
 30
0.0
 11
44.2015565931797
 21
-53.67363989353179
 31
0.0
  0
LINE
  5
84
330
7B
100
AcDbEntity
  8
0
100
AcDbLine
 10
53.84937301278114
 20
-53.67363989353179
 30
0.0
 11
54.34968322515487
 21
-50.83623528480529
 31
0.0
  0
ARC
  5
85
330
7B
100
AcDbEntity
  8
0
100
AcDbCircle
 10
45.18636434448888
 20
-53.49999487400054
 30
0.0
 40
1.000000000000002
100
AcDbArc
 50
190.000000000005
 51
270.0
  0
ARC
  5
86
330
7B
100
AcDbEntity
  8
0
100
AcDbCircle
 10
52.86456360684349
 20
-53.49999487400054
 30
0.0
 40
1.000000000000002
100
AcDbArc
 50
270.0
 51
349.999999999995
  0
SPLINE
  5
87
330
7B
100
AcDbEntity
  8
0
100
AcDbSpline
210
0.0
220
0.0
230
1.0
 70
     8
 71
     3
 72
    17
 73
    13
 74
     0
 42
0.0000000001
 43
0.0000000001
 40
0.0
 40
0.0
 40
0.0
 40
0.0
 40
0.0600543499638597
 40
0.1648234495280559
 40
0.2723661016691685
 40
0.3832407533501493
 40
0.4895330601902239
 40
0.5863420781005051
 40
0.6814648365672097
 40
0.7837911670314727
 40
0.8936449548470841
 40
1.0
 40
1.0
 40
1.0
 40
1.0
 10
54.27379161119461
 20
-50.82285404205322
 30
0.0
 10
54.28431849052561
 20
-50.82667678835878
 30
0.0
 10
54.31321026214778
 20
-50.83716858842217
 30
0.0
 10
53.71990832864082
 20
-50.62068279946288
 30
0.0
 10
52.61058868240081
 20
-50.27834232441773
 30
0.0
 10
51.04144895425168
 20
-49.93765089843464
 30
0.0
 10
49.26156883242334
 20
-49.78473230487089
 30
0.0
 10
47.54714165125267
 20
-49.8731629746585
 30
0.0
 10
46.02772410836132
 20
-50.13490595522217
 30
0.0
 10
44.77025507292672
 20
-50.47494408998727
 30
0.0
 10
43.87522111630414
 20
-50.78468685077132
 30
0.0
 10
43.76642079556484
 20
-50.82621046211489
 30
0.0
 10
43.7129009515047
 20
-50.8466362953186
 30
0.0
  0
LINE
  5
88
330
7B
100
AcDbEntity
  8
0
100
AcDbLine
 10
52.86456272006034
 20
-54.49999868869781
 30
0.0
 11
45.18636502325534
 21
-54.49999868869781
 31
0.0
  0
LINE
  5
89
330
7B
100
AcDbEntity
  8
0
100
AcDbLine
 10
-32.26552441788283
 20
180.5349055224401
 30
0.0
 11
-32.31912579028165
 21
179.0000051259994
 31
0.0
  0
ARC
  5
8A
330
7B
100
AcDbEntity
  8
0
100
AcDbCircle
 10
-31.26613362423518
 20
180.5000050701201
 30
0.0
 40
1.0
100
AcDbArc
 50
90.0
 51
177.9999452137744
  0
LINE
  5
8B
330
7B
100
AcDbEntity
  8
0
100
AcDbLine
 10
65.22727616265388
 20
180.5349030034381
 30
0.0
 11
65.28087357359971
 21
179.0000051259994
 31
0.0
  0
LINE
  5
8C
330
7B
100
AcDbEntity
  8
0
100
AcDbLine
 10
-14.36319055131537
 20
181.5000050701201
 30
0.0
 11
-31.26613362423518
 21
181.5000050701201
 31
0.0
  0
LINE
  5
8D
330
7B
100
AcDbEntity
  8
0
100
AcDbLine
 10
-10.27505968875505
 20
181.5000050701201
 30
0.0
 11
62.22067773342132
 21
181.5000050701201
 31
0.0
  0
SPLINE
  5
8E
330
7B
100
AcDbEntity
  8
0
100
AcDbSpline
210
0.0
220
0.0
230
1.0
 70
    24
 71
     3
 72
     9
 73
     5
 74
     0
 42
0.0000000001
 43
0.0000000001
 40
0.0
 40
0.0
 40
0.0
 40
0.0
 40
0.5000826474199004
 40
1.0
 40
1.0
 40
1.0
 40
1.0
 10
62.22067773342132
 20
181.5000050701201
 30
0.0
 10
62.51850415890761
 20
181.5000050701201
 30
0.0
 10
63.11405856780936
 20
181.5000050701201
 30
0.0
 10
63.57862267001519
 20
181.5000050701201
 30
0.0
 10
63.81086632609367
 20
181.5000050701201
 30
0.0
  0
SPLINE
  5
8F
330
7B
100
AcDbEntity
  8
0
100
AcDbSpline
210
0.0
220
0.0
230
1.0
 70
    24
 71
     3
 72
     8
 73
     4
 74
     0
 42
0.0000000001
 43
0.0000000001
 40
0.0
 40
0.0
 40
0.0
 40
0.0
 40
0.4052512809765209
 40
0.4052512809765209
 40
0.4052512809765209
 40
0.4052512809765209
 10
63.81086632609367
 20
181.5000050701201
 30
0.0
 10
63.96390967109221
 20
181.5000050701201
 30
0.0
 10
64.1169530160904
 20
181.5000050701201
 30
0.0
 10
64.22788441768614
 20
181.5000050701201
 30
0.0
  0
LINE
  5
90
330
7B
100
AcDbEntity
  8
0
100
AcDbLine
 10
-32.01911970973015
 20
167.8444556891918
 30
0.0
 11
-30.56292616128383
 21
167.7936046212057
 31
0.0
  0
ARC
  5
91
330
7B
100
AcDbEntity
  8
0
100
AcDbCircle
 10
-32.00864845348622
 20
168.1442727466478
 30
0.0
 40
0.3000000000000114
100
AcDbArc
 50
180.0
 51
268.0000000000091
  0
LINE
  5
92
330
7B
100
AcDbEntity
  8
0
100
AcDbLine
 10
-32.30864927172661
 20
168.1442726403474
 30
0.0
 11
-32.30864927172661
 21
171.0000047460198
 31
0.0
  0
LINE
  5
93
330
7B
100
AcDbEntity
  8
0
100
AcDbLine
 10
-30.70912510156643
 20
179.0000051259994
 30
0.0
 11
65.29087573289871
 21
179.0000051259994
 31
0.0
  0
LINE
  5
94
330
7B
100
AcDbEntity
  8
0
100
AcDbLine
 10
-29.18425947427749
 20
62.11642920970916
 30
0.0
 11
-30.70912510156631
 21
179.0000051259994
 31
0.0
  0
LINE
  5
95
330
7B
100
AcDbEntity
  8
03-01
100
AcDbLine
 10
-27.08443816007559
 20
62.14382352341317
 30
0.0
 11
-28.60894640056301
 21
179.0000051259994
 31
0.0
  0
ARC
  5
99
330
7B
100
AcDbEntity
  8
0
100
AcDbCircle
 10
-24.18468461290274
 20
62.18165143625402
 30
0.0
 40
5.000000000000079
100
AcDbArc
 50
180.7474394900076
 51
244.6210996702739
  0
ARC
  5
9A
330
7B
100
AcDbEntity
  8
03-01
100
AcDbCircle
 10
-24.18468461290274
 20
62.18165143625402
 30
0.0
 40
2.900000000000078
100
AcDbArc
 50
180.7474394900076
 51
244.6210996702739
  0
LINE
  5
9B
330
7B
100
AcDbEntity
  8
0
100
AcDbLine
 10
-25.73329955339432
 20
57.38221108913421
 30
0.0
 11
-26.327695697546
 21
57.66418576240539
 31
0.0
  0
LINE
  5
9C
330
7B
100
AcDbEntity
  8
0
100
AcDbLine
 10
63.70653958010564
 20
57.97266960144042
 30
0.0
 11
-26.88366069916412
 21
57.97266960144042
 31
0.0
  0
LWPOLYLINE
  5
9D
330
7B
100
AcDbEntity
  8
0
100
AcDbPolyline
 90
        4
 70
     0
 43
0.0
 10
-22.66307175159454
 20
55.92574924230575
 10
-23.67714419960976
 20
56.40680342912673
 10
-24.70222488045692
 20
56.89308792352676
 10
-25.73329955339432
 20
57.38221108913421
  0
LINE
  5
9E
330
7B
100
AcDbEntity
  8
0
100
AcDbLine
 10
-0.3393944352865219
 20
45.33575475215911
 30
0.0
 11
-22.66307175159454
 21
55.92574924230575
 31
0.0
  0
LINE
  5
9F
330
7B
100
AcDbEntity
  8
03-01
100
AcDbLine
 10
0.5606711003200644
 20
47.23309026060587
 30
0.0
 11
-25.43128594496045
 21
59.5632578220484
 31
0.0
  0
ARC
  5
A0
330
7B
100
AcDbEntity
  8
0
100
AcDbCircle
 10
-2.48240635105742
 20
40.81829232613062
 30
0.0
 40
5.000000000000079
100
AcDbArc
 50
37.52392776271751
 51
64.62109967026801
  0
ARC
  5
A1
330
7B
100
AcDbEntity
  8
03-01
100
AcDbCircle
 10
-2.48240635105742
 20
40.81829232613062
 30
0.0
 40
7.100000000000079
100
AcDbArc
 50
37.52392776271751
 51
64.62109967026801
  0
SPLINE
  5
A2
330
7B
100
AcDbEntity
  8
0
100
AcDbSpline
210
0.0
220
0.0
230
1.0
 70
     8
 71
     3
 72
    10
 73
     6
 74
     0
 42
0.0000000001
 43
0.0000000001
 40
0.0
 40
0.0
 40
0.0
 40
0.0
 40
0.5
 40
0.5
 40
1.0
 40
1.0
 40
1.0
 40
1.0
 10
2.330577857009188
 20
42.17298159415577
 30
0.0
 10
2.242162194065144
 20
42.48710764471161
 30
0.0
 10
2.125853053799005
 20
42.78384821888903
 30
0.0
 10
1.842353234662482
 20
43.34730779380334
 30
0.0
 10
1.67356316210396
 20
43.61573937878438
 30
0.0
 10
1.483088855134042
 20
43.86375579983587
 30
0.0
  0
SPLINE
  5
A3
330
7B
100
AcDbEntity
  8
03-01
100
AcDbSpline
210
0.0
220
0.0
230
1.0
 70
     8
 71
     3
 72
    12
 73
     8
 74
     0
 42
0.0000000001
 43
0.0000000001
 40
0.0
 40
0.0
 40
0.0
 40
0.0
 40
0.4970186212892235
 40
0.4970186212892235
 40
0.9135240146987644
 40
0.9135240146987644
 40
1.0
 40
1.0
 40
1.0
 40
1.0
 10
4.352031224397023
 20
42.74195108672666
 30
0.0
 10
4.227676982156822
 20
43.18376089376807
 30
0.0
 10
4.062577450293474
 20
43.60577625091354
 30
0.0
 10
3.696894126629103
 20
44.33459901998276
 30
0.0
 10
3.502687588386947
 20
44.65567469998041
 30
0.0
 10
3.241436419837214
 20
45.01989211361115
 30
0.0
 10
3.195514748688765
 20
45.0817586950202
 30
0.0
 10
3.148596841734729
 20
45.14285045879205
 30
0.0
  0
LINE
  5
A4
330
7B
100
AcDbEntity
  8
0
100
AcDbLine
 10
63.50983679294586
 20
42.94653236865997
 30
0.0
 11
2.042055443915955
 21
42.94653236865997
 31
0.0
  0
LINE
  5
A5
330
7B
100
AcDbEntity
  8
0
100
AcDbLine
 10
0.0
 20
0.0
 30
0.0
 11
-2.399999648332595
 21
0.0
 31
0.0
  0
LINE
  5
A6
330
7B
100
AcDbEntity
  8
0
100
AcDbLine
 10
-2.399999648332595
 20
0.0
 30
0.0
 11
-3.100000321865081
 21
-45.99998891353607
 31
0.0
  0
LINE
  5
A7
330
7B
100
AcDbEntity
  8
03-01
100
AcDbLine
 10
-4.37028098932069
 20
1.968154628321826
 30
0.0
 11
-5.099768792520308
 21
-45.969557617585
 31
0.0
  0
LINE
  5
A8
330
7B
100
AcDbEntity
  8
0
100
AcDbLine
 10
0.0
 20
-45.99998891353607
 30
0.0
 11
0.0
 21
0.0
 31
0.0
  0
LINE
  5
A9
330
7B
100
AcDbEntity
  8
03-01
100
AcDbLine
 10
2.0
 20
-45.99998891353607
 30
0.0
 11
2.0
 21
-0.4999959468841553
 31
0.0
  0
ARC
  5
AA
330
7B
100
AcDbEntity
  8
0
100
AcDbCircle
 10
-2.48240635105742
 20
40.81829232613062
 30
0.0
 40
5.000000000000039
100
AcDbArc
 50
0.7499999999959149
 51
15.7200822183791
  0
ARC
  5
AB
330
7B
100
AcDbEntity
  8
03-01
100
AcDbCircle
 10
-2.48240635105742
 20
40.81829232613062
 30
0.0
 40
7.100000000000038
100
AcDbArc
 50
0.7499999999959149
 51
15.7200822183791
  0
LINE
  5
AC
330
7B
100
AcDbEntity
  8
0
100
AcDbLine
 10
62.3454637825489
 20
-45.99998891353607
 30
0.0
 11
-6.345463916659241
 21
-45.99998891353607
 31
0.0
  0
LINE
  5
AD
330
7B
100
AcDbEntity
  8
0
100
AcDbLine
 10
65.29087318836388
 20
179.0000051259994
 30
0.0
 11
62.3454637825489
 21
-45.99998891353607
 31
0.0
  0
LINE
  5
AE
330
7B
100
AcDbEntity
  8
03-01
100
AcDbLine
 10
63.19069326108172
 20
179.0000051259994
 30
0.0
 11
60.24564369441634
 21
-45.97250078019397
 31
0.0
  0
LINE
  5
AF
330
7B
100
AcDbEntity
  8
0
100
AcDbLine
 10
3.02618101071755
 20
2.000004053115844
 30
0.0
 11
2.51716561615467
 21
40.88373482227325
 31
0.0
  0
LINE
  5
B0
330
7B
100
AcDbEntity
  8
03-01
100
AcDbLine
 10
5.069927057361155
 20
6.310993148681063
 30
0.0
 11
4.616985704430476
 21
40.91122294467322
 31
0.0
  0
LINE
  5
B1
330
7B
100
AcDbEntity
  8
0
100
AcDbLine
 10
-3.934290260076522
 20
2.000004053115844
 30
0.0
 11
3.02618101071755
 21
2.000004053115844
 31
0.0
  0
ARC
  5
B2
330
7B
100
AcDbEntity
  8
0
100
AcDbCircle
 10
-3.934289553779422
 20
-0.9999948740005493
 30
0.0
 40
3.000000000000047
100
AcDbArc
 50
90.0
 51
180.7499999999959
  0
LINE
  5
B3
330
7B
100
AcDbEntity
  8
0
100
AcDbLine
 10
-6.345463916659355
 20
-45.99998891353607
 30
0.0
 11
-6.934031844139099
 21
-1.03926658630371
 31
0.0
  0
LINE
  5
B4
330
7B
100
AcDbEntity
  8
0
100
AcDbLine
 10
-34.05806049704552
 20
171.4912788011133
 30
0.0
 11
-34.189123660326
 21
179.0000051259994
 31
0.0
  0
LINE
  5
B5
330
7B
100
AcDbEntity
  8
0
100
AcDbLine
 10
-34.189123660326
 20
179.0000051259994
 30
0.0
 11
-30.70912510156631
 21
179.0000051259994
 31
0.0
  0
LINE
  5
B6
330
7B
100
AcDbEntity
  8
0
100
AcDbLine
 10
-30.60475692578029
 20
171.0000047460198
 30
0.0
 11
-33.55813398957252
 21
171.0000047460198
 31
0.0
  0
ARC
  5
B7
330
7B
100
AcDbEntity
  8
0
100
AcDbCircle
 10
-33.55813553335008
 20
171.5000051259994
 30
0.0
 40
0.5000000000001137
100
AcDbArc
 50
181.0000000000278
 51
270.0
  0
LINE
  5
B8
330
7B
100
AcDbEntity
  8
0
100
AcDbLine
 10
44.2015565931797
 20
-53.67363989353179
 30
0.0
 11
53.84937301278114
 21
-53.67363989353179
 31
0.0
  0
LINE
  5
B9
330
7B
100
AcDbEntity
  8
03-01
100
AcDbLine
 10
-13.63273524190833
 20
172.491278711283
 30
0.0
 11
-13.51912505924701
 21
179.0000051259994
 31
0.0
  0
LINE
  5
BA
330
7B
100
AcDbEntity
  8
03-01
100
AcDbLine
 10
-28.51762424826905
 20
172.0000049099326
 30
0.0
 11
-14.13265908956623
 21
172.0000049099326
 31
0.0
  0
ARC
  5
BB
330
7B
100
AcDbEntity
  8
03-01
100
AcDbCircle
 10
-14.13265908956623
 20
172.5000049099326
 30
0.0
 40
0.5
100
AcDbArc
 50
270.0
 51
359.0000005236813
  0
LINE
  5
BC
330
7B
100
AcDbEntity
  8
03-01
100
AcDbLine
 10
16.73648831796004
 20
-20.20392668247223
 30
0.0
 11
5.069927057361155
 21
6.310993148681063
 31
0.0
  0
LINE
  5
BD
330
7B
100
AcDbEntity
  8
03-01
100
AcDbLine
 10
14.45266796532439
 20
-23.70392668247223
 30
0.0
 11
4.242941474076701
 21
-0.4999959468841553
 31
0.0
  0
LINE
  5
BE
330
7B
100
AcDbEntity
  8
03-01
100
AcDbLine
 10
60.57642724015216
 20
-20.20392668247223
 30
0.0
 11
16.73648831796004
 21
-20.20392668247223
 31
0.0
  0
LINE
  5
BF
330
7B
100
AcDbEntity
  8
03-01
100
AcDbLine
 10
60.53060975929247
 20
-23.70392668247223
 30
0.0
 11
14.45266796532439
 21
-23.70392668247223
 31
0.0
  0
LINE
  5
C0
330
7B
100
AcDbEntity
  8
03-01
100
AcDbLine
 10
49.77546259760856
 20
-54.49999868869781
 30
0.0
 11
49.47546496987342
 21
-52.99998819828033
 31
0.0
  0
LINE
  5
C1
330
7B
100
AcDbEntity
  8
03-01
100
AcDbLine
 10
48.57546463608741
 20
-52.99998819828033
 30
0.0
 11
48.27546328306198
 21
-54.49999868869781
 31
0.0
  0
ARC
  5
C2
330
7B
100
AcDbEntity
  8
0
100
AcDbCircle
 10
64.22788484936393
 20
180.5000050701201
 30
0.0
 40
1.0
100
AcDbArc
 50
1.999909506936956
 51
90.0000247333155
  0
LINE
  5
C3
330
7B
100
AcDbEntity
  8
0
100
AcDbLine
 10
-12.31912512003521
 20
180.0000051390379
 30
0.0
 11
-12.31912512003521
 21
180.5000051390379
 31
0.0
  0
ARC
  5
C4
330
7B
100
AcDbEntity
  8
0
100
AcDbCircle
 10
-12.31912512003521
 20
183.0891069922327
 30
0.0
 40
2.589101853194733
100
AcDbArc
 50
217.8622888067998
 51
322.1377111932002
  0
LINE
  5
C5
330
7B
100
AcDbEntity
  8
03-01
100
AcDbLine
 10
2.0
 20
-0.4999959468841553
 30
0.0
 11
4.242941474076701
 21
-0.4999959468841553
 31
0.0
  0
LINE
  5
C6
330
7B
100
AcDbEntity
  8
0
100
AcDbLine
 10
-12.31912512003521
 20
180.5000051390379
 30
0.0
 11
-12.31912512003521
 21
180.0000051390379
 31
0.0
  0
LINE
  5
C7
330
7B
100
AcDbEntity
  8
0
100
AcDbLine
 10
-12.31912512003521
 20
180.0000051390379
 30
0.0
 11
-13.51912505924701
 21
179.0000051259994
 31
0.0
  0
LINE
  5
C8
330
7B
100
AcDbEntity
  8
03-01
100
AcDbLine
 10
-11.31912510699692
 20
179.0000051259994
 30
0.0
 11
-9.319125106996693
 21
177.0000051259994
 31
0.0
  0
LINE
  5
C9
330
7B
100
AcDbEntity
  8
03-01
100
AcDbLine
 10
-9.319125106996693
 20
177.0000051259994
 30
0.0
 11
63.06451184344758
 21
177.0000051259994
 31
0.0
  0
LINE
  5
CA
330
7B
100
AcDbEntity
  8
0
100
AcDbLine
 10
-11.31912510699692
 20
179.0000051259994
 30
0.0
 11
-12.31912512003521
 21
180.0000051390379
 31
0.0
  0
LINE
  5
CB
330
7B
100
AcDbEntity
  8
03-01
100
AcDbLine
 10
63.09069326108181
 20
179.0000051259994
 30
0.0
 11
63.06451184344758
 21
177.0000051259994
 31
0.0
  0
LINE
  5
CC
330
7B
100
AcDbEntity
  8
03-01
100
AcDbLine
 10
49.47546496987342
 20
-52.99998819828033
 30
0.0
 11
49.47546496987342
 21
-45.99998891353607
 31
0.0
  0
LINE
  5
CD
330
7B
100
AcDbEntity
  8
03-01
100
AcDbLine
 10
49.47546496987342
 20
-52.99998819828033
 30
0.0
 11
48.57546463608741
 21
-52.99998819828033
 31
0.0
  0
LINE
  5
CE
330
7B
100
AcDbEntity
  8
03-01
100
AcDbLine
 10
48.57546463608741
 20
-52.99998819828033
 30
0.0
 11
48.57546463608741
 21
-45.99998891353607
 31
0.0
  0
LINE
  5
CF
330
7B
100
AcDbEntity
  8
0
100
AcDbLine
 10
56.02575300866158
 20
182.0349073038751
 30
0.0
 11
56.02758131203734
 21
181.9825553707778
 31
0.0
  0
ARC
  5
D0
330
7B
100
AcDbEntity
  8
0
100
AcDbCircle
 10
56.52727616265394
 20
182.0000050701201
 30
0.0
 40
0.4999999999999858
100
AcDbArc
 50
181.9999999999254
 51
270.0
  0
ARC
  5
D1
330
7B
100
AcDbEntity
  8
0
100
AcDbCircle
 10
55.02635780446849
 20
182.0000052601099
 30
0.0
 40
1.0
100
AcDbArc
 50
2.000137093870475
 51
90.00025588997031
  0
LINE
  5
D2
330
7B
100
AcDbEntity
  8
0
100
AcDbLine
 10
-4.471200683353686
 20
182.0349073038751
 30
0.0
 11
-4.473028986729445
 21
181.9825553707778
 31
0.0
  0
ARC
  5
D3
330
7B
100
AcDbEntity
  8
0
100
AcDbCircle
 10
-4.972723837346052
 20
182.0000050701201
 30
0.0
 40
0.4999999999999858
100
AcDbArc
 50
270.0
 51
358.0000000000747
  0
ARC
  5
D4
330
7B
100
AcDbEntity
  8
0
100
AcDbCircle
 10
-3.471805479160707
 20
182.0000052601099
 30
0.0
 40
1.0
100
AcDbArc
 50
89.9997441100297
 51
177.9998629061295
  0
LINE
  5
D5
330
7B
100
AcDbEntity
  8
0
100
AcDbLine
 10
55.02635333834598
 20
183.0000052600999
 30
0.0
 11
-3.471801013038202
 21
183.0000052600999
 31
0.0
  0
INSERT
  5
D6
330
7B
100
AcDbEntity
  8
03-01
100
AcDbBlockReference
  2
Kolbendruckplatte01_s
 10
0.0659681558609009
 20
-3.99999594688461
 30
0.0
  0
ENDBLK
  5
E3
330
7B
100
AcDbEntity
  8
0
100
AcDbBlockEnd
  0
ENDSEC
  0
SECTION
  2
ENTITIES
  0
INSERT
  5
78
330
2
100
AcDbEntity
  8
09-01
100
AcDbBlockReference
  2
Desipumpe_937045_S
 10
428.4389020933827
 20
305.6866808943921
 30
0.0
  0
DIMENSION
  5
E4
330
2
100
AcDbEntity
  8
0
100
AcDbDimension
280
     0
  2
*D12
 10
477.4643659650404
 20
205.1750447690628
 30
0.0
 11
410.5516340226913
 21
209.6750447690628
 31
0.0
 71
     5
 42
133.8254638846982
 73
     0
 74
     0
 75
     0
  3
Wagner$0
100
AcDbAlignedDimension
 13
343.6389020803422
 23
265.2713703452101
 33
0.0
 14
477.4643659650404
 24
251.1866822056942
 34
0.0
100
AcDbRotatedDimension
1001
ACAD
1000
DSTYLE
1002
{
1070
   271
1070
     1
1070
    40
1040
2.0
1002
}
  0
DIMENSION
  5
F4
330
2
100
AcDbEntity
  8
0
100
AcDbDimension
280
     0
  2
*D11
 10
292.5115068816932
 20
488.6866861544919
 30
0.0
 11
288.011506881693
 21
367.9762268668446
 31
0.0
 71
     5
 42
241.4209185752946
 73
     0
 74
     0
 75
     0
  3
Wagner$0
100
AcDbAlignedDimension
 13
372.1389401568267
 23
247.2657675791972
 33
0.0000000000000001
 14
424.9671010803443
 24
488.6866861544918
 34
0.0
 50
90.0
100
AcDbRotatedDimension
1001
ACAD
1000
DSTYLE
1002
{
1070
   271
1070
     1
1070
    40
1040
2.0
1002
}
  0
DIMENSION
  5
101
330
2
100
AcDbEntity
  8
0
100
AcDbDimension
280
     0
  2
*D10
 10
493.7297778262813
 20
496.9269536996156
 30
0.0
 11
418.6843399533117
 21
501.4269536996156
 31
0.0
 71
     5
 42
150.0908757459391
 73
     0
 74
     0
 75
     0
  3
Wagner$0
100
AcDbAlignedDimension
 13
343.6389020803422
 23
453.7713703452101
 33
0.0
 14
493.7297778262813
 24
484.6866860203915
 34
0.0
100
AcDbRotatedDimension
1001
ACAD
1000
DSTYLE
1002
{
1070
   271
1070
     1
1070
    40
1040
2.0
1002
}
  0
INSERT
  5
10E
330
2
100
AcDbEntity
  8
03-01
100
AcDbBlockReference
  2
desipumpe_dr
 10
330.3449549281875
 20
461.1662156560507
 30
0.0
 50
90.0
  0
INSERT
  5
15E
330
2
100
AcDbEntity
  8
05-01
100
AcDbBlockReference
  2
pumpe 200ml vorderansicht_Sensor
 10
160.1572791132207
 20
259.674501147747
 30
0.0
  0
LINE
  5
1B6
330
2
100
AcDbEntity
  8
03-01
100
AcDbLine
 10
162.1572791132212
 20
281.27137034521
 30
0.0
 11
162.1572791132212
 21
276.27137034521
 31
0.0
  0
LINE
  5
1B7
330
2
100
AcDbEntity
  8
03-01
100
AcDbLine
 10
158.1572791132212
 20
281.27137034521
 30
0.0
 11
158.1572791132212
 21
276.27137034521
 31
0.0
  0
LINE
  5
1B8
330
2
100
AcDbEntity
  8
03-01
100
AcDbLine
 10
162.1572791132212
 20
276.27137034521
 30
0.0
 11
158.1572791132212
 21
276.27137034521
 31
0.0
  0
LINE
  5
1B9
330
2
100
AcDbEntity
  8
03-01
100
AcDbLine
 10
162.2072791132213
 20
270.27137034521
 30
0.0
 11
158.1072791132214
 21
270.27137034521
 31
0.0
  0
LINE
  5
1BA
330
2
100
AcDbEntity
  8
03-01
100
AcDbLine
 10
162.0162175286546
 20
279.27137034521
 30
0.0
 11
162.1572791132212
 21
278.4713703452098
 31
0.0
  0
LINE
  5
1BB
330
2
100
AcDbEntity
  8
03-01
100
AcDbLine
 10
158.1572791132212
 20
278.4713703452098
 30
0.0
 11
162.1572791132212
 21
278.4713703452103
 31
0.0
  0
LINE
  5
1BC
330
2
100
AcDbEntity
  8
03-01
100
AcDbLine
 10
158.2983406977882
 20
279.27137034521
 30
0.0
 11
162.0162175286546
 21
279.27137034521
 31
0.0
  0
LINE
  5
1BD
330
2
100
AcDbEntity
  8
03-01
100
AcDbLine
 10
158.1072791132214
 20
281.27137034521
 30
0.0
 11
158.1072791132214
 21
270.27137034521
 31
0.0
  0
LINE
  5
1BE
330
2
100
AcDbEntity
  8
03-01
100
AcDbLine
 10
158.1572791132212
 20
278.4713703452098
 30
0.0
 11
158.1572791132212
 21
270.27137034521
 31
0.0
  0
LINE
  5
1BF
330
2
100
AcDbEntity
  8
03-01
100
AcDbLine
 10
158.2983406977882
 20
279.27137034521
 30
0.0
 11
158.1572791132212
 21
278.4713703452098
 31
0.0
  0
LINE
  5
1C0
330
2
100
AcDbEntity
  8
03-01
100
AcDbLine
 10
162.2072791132213
 20
281.27137034521
 30
0.0
 11
162.2072791132213
 21
270.27137034521
 31
0.0
  0
LINE
  5
1C1
330
2
100
AcDbEntity
  8
03-01
100
AcDbLine
 10
162.1572791132212
 20
278.4713703452103
 30
0.0
 11
162.1572791132212
 21
270.27137034521
 31
0.0
  0
LINE
  5
1C2
330
2
100
AcDbEntity
  8
03-01
100
AcDbLine
 10
162.0162175286546
 20
285.27137034521
 30
0.0
 11
162.1572791132212
 21
284.4713703452098
 31
0.0
  0
ARC
  5
1C3
330
2
100
AcDbEntity
  8
03-01
100
AcDbCircle
 10
165.7864442378204
 20
270.5422036785431
 30
0.0
 40
3.770833333333238
100
AcDbArc
 50
240.1582758353184
 51
299.8417241646816
  0
ARC
  5
1C4
330
2
100
AcDbEntity
  8
03-01
100
AcDbCircle
 10
160.1572791132216
 20
281.1047036785426
 30
0.0
 40
14.33333333333294
100
AcDbArc
 50
254.8218210620483
 51
285.1781789379516
  0
ARC
  5
1C5
330
2
100
AcDbEntity
  8
03-01
100
AcDbCircle
 10
154.5281139886228
 20
270.5422036785431
 30
0.0
 40
3.770833333333238
100
AcDbArc
 50
240.1582758353184
 51
299.8417241646816
  0
ARC
  5
1C6
330
2
100
AcDbEntity
  8
03-01
100
AcDbCircle
 10
165.7864442378204
 20
267.0005370118765
 30
0.0
 40
3.770833333333238
100
AcDbArc
 50
60.1582758353184
 51
119.8417241646816
  0
ARC
  5
1C7
330
2
100
AcDbEntity
  8
03-01
100
AcDbCircle
 10
160.1572791132216
 20
256.438037011877
 30
0.0
 40
14.33333333333294
100
AcDbArc
 50
74.82182106204833
 51
105.1781789379516
  0
ARC
  5
1C8
330
2
100
AcDbEntity
  8
03-01
100
AcDbCircle
 10
154.5281139886228
 20
267.0005370118765
 30
0.0
 40
3.770833333333238
100
AcDbArc
 50
60.1582758353184
 51
119.8417241646816
  0
LINE
  5
1C9
330
2
100
AcDbEntity
  8
03-01
100
AcDbLine
 10
163.9100558629543
 20
267.2744941163549
 30
0.0
 11
163.9100558629543
 21
270.27137034521
 31
0.0
  0
LINE
  5
1CA
330
2
100
AcDbEntity
  8
03-01
100
AcDbLine
 10
163.9100558629543
 20
267.2713703452096
 30
0.0
 11
163.9100558629543
 21
267.2744941163549
 31
0.0
  0
LINE
  5
1CB
330
2
100
AcDbEntity
  8
03-01
100
AcDbLine
 10
156.4045023634889
 20
267.2744941172894
 30
0.0
 11
156.4045023634889
 21
270.27137034521
 31
0.0
  0
LINE
  5
1CC
330
2
100
AcDbEntity
  8
03-01
100
AcDbLine
 10
156.4045023634889
 20
267.27137034521
 30
0.0
 11
156.4045023634889
 21
267.2744941172894
 31
0.0
  0
LINE
  5
1CD
330
2
100
AcDbEntity
  8
03-01
100
AcDbLine
 10
167.1628326126865
 20
270.77137034521
 30
0.0
 11
167.6628326126865
 21
270.27137034521
 31
0.0
  0
LINE
  5
1CE
330
2
100
AcDbEntity
  8
03-01
100
AcDbLine
 10
167.6628326126865
 20
267.2744941158877
 30
0.0
 11
167.6628326126865
 21
270.27137034521
 31
0.0
  0
LINE
  5
1CF
330
2
100
AcDbEntity
  8
03-01
100
AcDbLine
 10
167.6628326126865
 20
267.27137034521
 30
0.0
 11
167.6628326126865
 21
267.2744941158877
 31
0.0
  0
LINE
  5
1D0
330
2
100
AcDbEntity
  8
03-01
100
AcDbLine
 10
153.1517256137563
 20
270.77137034521
 30
0.0
 11
152.6517256137563
 21
270.27137034521
 31
0.0
  0
LINE
  5
1D1
330
2
100
AcDbEntity
  8
03-01
100
AcDbLine
 10
152.6517256137558
 20
267.4664558410953
 30
0.0
 11
152.6517256137563
 21
270.27137034521
 31
0.0
  0
LINE
  5
1D2
330
2
100
AcDbEntity
  8
03-01
100
AcDbLine
 10
152.6517256137558
 20
267.27137034521
 30
0.0
 11
152.6517256137558
 21
267.4664558410953
 31
0.0
  0
LINE
  5
1D3
330
2
100
AcDbEntity
  8
03-01
100
AcDbLine
 10
156.1572791132212
 20
280.4713703452098
 30
0.0
 11
164.1572791132212
 21
280.4713703452098
 31
0.0
  0
LINE
  5
1D4
330
2
100
AcDbEntity
  8
03-01
100
AcDbLine
 10
163.357279113221
 20
281.27137034521
 30
0.0
 11
164.1572791132212
 21
280.4713703452098
 31
0.0
  0
LINE
  5
1D5
330
2
100
AcDbEntity
  8
03-01
100
AcDbLine
 10
164.1572791132212
 20
270.77137034521
 30
0.0
 11
164.1572791132212
 21
280.4713703452098
 31
0.0
  0
LINE
  5
1D6
330
2
100
AcDbEntity
  8
03-01
100
AcDbLine
 10
164.1572791132212
 20
265.27137034521
 30
0.0
 11
164.1572791132212
 21
266.77137034521
 31
0.0
  0
LINE
  5
1D7
330
2
100
AcDbEntity
  8
03-01
100
AcDbLine
 10
156.1572791132212
 20
270.77137034521
 30
0.0
 11
156.1572791132212
 21
280.4713703452098
 31
0.0
  0
LINE
  5
1D8
330
2
100
AcDbEntity
  8
03-01
100
AcDbLine
 10
156.1572791132212
 20
265.27137034521
 30
0.0
 11
156.1572791132212
 21
266.7713703452096
 31
0.0
  0
ARC
  5
1D9
330
2
100
AcDbEntity
  8
03-01
100
AcDbCircle
 10
164.4874061321434
 20
262.6047036785435
 30
0.0
 40
2.333333333333545
100
AcDbArc
 50
231.78678929828
 51
308.2132107017198
  0
ARC
  5
1DA
330
2
100
AcDbEntity
  8
03-01
100
AcDbCircle
 10
160.1572791132212
 20
268.8547036785435
 30
0.0
 40
8.583333333333548
100
AcDbArc
 50
250.3471403683261
 51
289.652859631648
  0
ARC
  5
1DB
330
2
100
AcDbEntity
  8
03-01
100
AcDbCircle
 10
155.827152094299
 20
262.6047036785435
 30
0.0
 40
2.333333333333545
100
AcDbArc
 50
231.7867892982544
 51
308.2132107017455
  0
ARC
  5
1DC
330
2
100
AcDbEntity
  8
03-01
100
AcDbCircle
 10
164.4874061321434
 20
262.9380370118765
 30
0.0
 40
2.333333333333545
100
AcDbArc
 50
51.78678929828009
 51
128.2132107017198
  0
ARC
  5
1DD
330
2
100
AcDbEntity
  8
03-01
100
AcDbCircle
 10
160.1572791132212
 20
256.6880370118765
 30
0.0
 40
8.583333333333548
100
AcDbArc
 50
70.34714036832615
 51
109.652859631648
  0
ARC
  5
1DE
330
2
100
AcDbEntity
  8
03-01
100
AcDbCircle
 10
155.827152094299
 20
262.9380370118765
 30
0.0
 40
2.333333333333545
100
AcDbArc
 50
51.78678929828009
 51
128.2132107017198
  0
LINE
  5
1DF
330
2
100
AcDbEntity
  8
03-01
100
AcDbLine
 10
165.9307818051175
 20
260.77137034521
 30
0.0
 11
165.4307818051174
 21
260.27137034521
 31
0.0
  0
LINE
  5
1E0
330
2
100
AcDbEntity
  8
03-01
100
AcDbLine
 10
154.8837764213249
 20
260.2713703452096
 30
0.0
 11
165.4307818051174
 21
260.27137034521
 31
0.0
  0
LINE
  5
1E1
330
2
100
AcDbEntity
  8
03-01
100
AcDbLine
 10
165.4307818051174
 20
265.27137034521
 30
0.0
 11
165.9307818051175
 21
264.77137034521
 31
0.0
  0
LINE
  5
1E2
330
2
100
AcDbEntity
  8
03-01
100
AcDbLine
 10
165.9307818051175
 20
260.77137034521
 30
0.0
 11
165.9307818051175
 21
264.77137034521
 31
0.0
  0
LINE
  5
1E3
330
2
100
AcDbEntity
  8
03-01
100
AcDbLine
 10
154.8837764213249
 20
260.2713703452096
 30
0.0
 11
154.3837764213249
 21
260.7713703452096
 31
0.0
  0
LINE
  5
1E4
330
2
100
AcDbEntity
  8
03-01
100
AcDbLine
 10
154.3837764213249
 20
260.7713703452096
 30
0.0
 11
154.3837764213249
 21
264.77137034521
 31
0.0
  0
LINE
  5
1E5
330
2
100
AcDbEntity
  8
03-01
100
AcDbLine
 10
163.0440304591693
 20
260.7713703452096
 30
0.0
 11
163.0440304591693
 21
264.77137034521
 31
0.0
  0
LINE
  5
1E6
330
2
100
AcDbEntity
  8
03-01
100
AcDbLine
 10
157.270527767273
 20
260.7713703452096
 30
0.0
 11
157.270527767273
 21
264.77137034521
 31
0.0
  0
LINE
  5
1E7
330
2
100
AcDbEntity
  8
03-01
100
AcDbLine
 10
152.1572791132212
 20
250.77137034521
 30
0.0
 11
168.1572791132212
 21
250.77137034521
 31
0.0
  0
LINE
  5
1E8
330
2
100
AcDbEntity
  8
03-01
100
AcDbLine
 10
152.1572791132212
 20
248.4673472819659
 30
0.0
 11
168.1572791132212
 21
248.4673472819659
 31
0.0
  0
ARC
  5
1E9
330
2
100
AcDbEntity
  8
03-01
100
AcDbCircle
 10
166.6572791132212
 20
252.77137034521
 30
0.0
 40
1.0
100
AcDbArc
 50
180.0
 51
270.0
  0
ARC
  5
1EA
330
2
100
AcDbEntity
  8
03-01
100
AcDbCircle
 10
153.1572791132212
 20
248.4673472819659
 30
0.0
 40
1.0
100
AcDbArc
 50
180.0
 51
250.6088272783308
  0
ARC
  5
1EB
330
2
100
AcDbEntity
  8
03-01
100
AcDbCircle
 10
167.1572791132212
 20
248.4673472819659
 30
0.0
 40
1.0
100
AcDbArc
 50
289.3911727216691
 51
0.0
  0
ARC
  5
1EC
330
2
100
AcDbEntity
  8
03-01
100
AcDbCircle
 10
160.1572791132212
 20
268.3547036785435
 30
0.0
 40
22.08333333333337
100
AcDbArc
 50
287.3356610915147
 51
289.3911727216691
  0
ARC
  5
1ED
330
2
100
AcDbEntity
  8
09-01
100
AcDbCircle
 10
160.1572791132212
 20
268.3547036785435
 30
0.0
 40
22.08333333333337
100
AcDbArc
 50
252.6643389084853
 51
287.3356610915147
  0
ARC
  5
1EE
330
2
100
AcDbEntity
  8
03-01
100
AcDbCircle
 10
160.1572791132212
 20
268.3547036785435
 30
0.0
 40
22.08333333333337
100
AcDbArc
 50
250.6088272783308
 51
252.6643389084853
  0
ARC
  5
1EF
330
2
100
AcDbEntity
  8
03-01
100
AcDbCircle
 10
153.6572791132212
 20
252.77137034521
 30
0.0
 40
1.0
100
AcDbArc
 50
270.0
 51
0.0
  0
LINE
  5
1F0
330
2
100
AcDbEntity
  8
03-01
100
AcDbLine
 10
153.1572791132212
 20
251.77137034521
 30
0.0
 11
167.1572791132212
 21
251.77137034521
 31
0.0
  0
LINE
  5
1F1
330
2
100
AcDbEntity
  8
03-01
100
AcDbLine
 10
154.3837764213249
 20
264.77137034521
 30
0.0
 11
154.8837764213249
 21
265.27137034521
 31
0.0
  0
LINE
  5
1F2
330
2
100
AcDbEntity
  8
03-01
100
AcDbLine
 10
156.1572791132212
 20
280.4713703452098
 30
0.0
 11
156.9572791132213
 21
281.27137034521
 31
0.0
  0
LINE
  5
1F3
330
2
100
AcDbEntity
  8
03-01
100
AcDbLine
 10
158.1572791132212
 20
284.4713703452098
 30
0.0
 11
162.1572791132212
 21
284.4713703452103
 31
0.0
  0
LINE
  5
1F4
330
2
100
AcDbEntity
  8
03-01
100
AcDbLine
 10
158.2983406977882
 20
285.27137034521
 30
0.0
 11
162.0162175286546
 21
285.27137034521
 31
0.0
  0
LINE
  5
1F5
330
2
100
AcDbEntity
  8
03-01
100
AcDbLine
 10
156.9572791132213
 20
281.27137034521
 30
0.0
 11
163.357279113221
 21
281.27137034521
 31
0.0
  0
LINE
  5
1F6
330
2
100
AcDbEntity
  8
03-01
100
AcDbLine
 10
153.1517256137563
 20
270.77137034521
 30
0.0
 11
167.1628326126865
 21
270.77137034521
 31
0.0
  0
LINE
  5
1F7
330
2
100
AcDbEntity
  8
03-01
100
AcDbLine
 10
152.6517256137558
 20
267.27137034521
 30
0.0
 11
153.1517256137558
 21
266.77137034521
 31
0.0
  0
LINE
  5
1F8
330
2
100
AcDbEntity
  8
03-01
100
AcDbLine
 10
167.6628326126865
 20
267.27137034521
 30
0.0
 11
167.1628326126865
 21
266.77137034521
 31
0.0
  0
LINE
  5
1F9
330
2
100
AcDbEntity
  8
03-01
100
AcDbLine
 10
153.1517256137558
 20
266.77137034521
 30
0.0
 11
167.1628326126865
 21
266.77137034521
 31
0.0
  0
LINE
  5
1FA
330
2
100
AcDbEntity
  8
03-01
100
AcDbLine
 10
154.8837764213249
 20
265.27137034521
 30
0.0
 11
165.4307818051174
 21
265.27137034521
 31
0.0
  0
LINE
  5
1FB
330
2
100
AcDbEntity
  8
03-01
100
AcDbLine
 10
155.1572791132212
 20
260.27137034521
 30
0.0
 11
165.1572791132212
 21
260.27137034521
 31
0.0
  0
ARC
  5
1FC
330
2
100
AcDbEntity
  8
03-01
100
AcDbCircle
 10
155.1572791132212
 20
259.77137034521
 30
0.0
 40
0.5
100
AcDbArc
 50
90.0
 51
180.0
  0
LINE
  5
1FD
330
2
100
AcDbEntity
  8
03-01
100
AcDbLine
 10
154.6572791132212
 20
259.77137034521
 30
0.0
 11
154.6572791132212
 21
252.77137034521
 31
0.0
  0
ARC
  5
1FE
330
2
100
AcDbEntity
  8
03-01
100
AcDbCircle
 10
165.1572791132212
 20
259.77137034521
 30
0.0
 40
0.5
100
AcDbArc
 50
0.0
 51
90.0
  0
LINE
  5
1FF
330
2
100
AcDbEntity
  8
03-01
100
AcDbLine
 10
165.6572791132212
 20
259.77137034521
 30
0.0
 11
165.6572791132212
 21
252.77137034521
 31
0.0
  0
ARC
  5
200
330
2
100
AcDbEntity
  8
03-01
100
AcDbCircle
 10
153.1572791132212
 20
250.77137034521
 30
0.0
 40
1.0
100
AcDbArc
 50
90.0
 51
180.0
  0
LINE
  5
201
330
2
100
AcDbEntity
  8
03-01
100
AcDbLine
 10
152.1572791132212
 20
250.77137034521
 30
0.0
 11
152.1572791132212
 21
248.4673472819659
 31
0.0
  0
ARC
  5
202
330
2
100
AcDbEntity
  8
03-01
100
AcDbCircle
 10
167.1572791132212
 20
250.77137034521
 30
0.0
 40
1.0
100
AcDbArc
 50
0.0
 51
90.0
  0
LINE
  5
203
330
2
100
AcDbEntity
  8
03-01
100
AcDbLine
 10
168.1572791132212
 20
250.77137034521
 30
0.0
 11
168.1572791132212
 21
248.4673472819659
 31
0.0
  0
LINE
  5
204
330
2
100
AcDbEntity
  8
03-01
100
AcDbLine
 10
158.6572791132216
 20
276.27137034521
 30
0.0
 11
158.6572791132212
 21
260.27137034521
 31
0.0
  0
LINE
  5
205
330
2
100
AcDbEntity
  8
03-01
100
AcDbLine
 10
161.6572791132212
 20
276.27137034521
 30
0.0
 11
161.6572791132212
 21
260.27137034521
 31
0.0
  0
LINE
  5
206
330
2
100
AcDbEntity
  8
0
 62
     4
100
AcDbLine
 10
156.7572791132215
 20
266.77137034521
 30
0.0
 11
156.7572791132215
 21
265.27137034521
 31
0.0
  0
LINE
  5
207
330
2
100
AcDbEntity
  8
0
 62
     4
100
AcDbLine
 10
156.7572791132215
 20
281.0713703452098
 30
0.0
 11
156.7572791132215
 21
270.77137034521
 31
0.0
  0
LINE
  5
208
330
2
100
AcDbEntity
  8
0
 62
     4
100
AcDbLine
 10
163.5572791132217
 20
266.77137034521
 30
0.0
 11
163.5572791132217
 21
265.27137034521
 31
0.0
  0
LINE
  5
209
330
2
100
AcDbEntity
  8
03-01
 62
     4
100
AcDbLine
 10
163.5572791132213
 20
281.0713703452098
 30
0.0
 11
163.5572791132217
 21
270.77137034521
 31
0.0
  0
LINE
  5
20A
330
2
100
AcDbEntity
  8
03-01
100
AcDbLine
 10
158.1572791132212
 20
284.4713703452098
 30
0.0
 11
158.1572791132212
 21
281.27137034521
 31
0.0
  0
LINE
  5
20B
330
2
100
AcDbEntity
  8
03-01
100
AcDbLine
 10
158.2983406977882
 20
285.27137034521
 30
0.0
 11
158.1572791132212
 21
284.4713703452098
 31
0.0
  0
LINE
  5
20C
330
2
100
AcDbEntity
  8
03-01
100
AcDbLine
 10
162.1572791132212
 20
284.4713703452103
 30
0.0
 11
162.1572791132212
 21
281.27137034521
 31
0.0
  0
LINE
  5
20D
330
2
100
AcDbEntity
  8
05-01
100
AcDbLine
 10
160.1572791132212
 20
286.2356362076566
 30
0.0
 11
160.1572791132212
 21
245.27137034521
 31
0.0
  0
INSERT
  5
20E
330
2
100
AcDbEntity
  8
0
100
AcDbBlockReference
  2
Rueckwand_WP174e-V
 10
160.1572791132212
 20
265.2713703452101
 30
0.0
  0
INSERT
  5
276
330
2
100
AcDbEntity
  8
09-01
100
AcDbBlockReference
 66
     1
  2
DIN A4 Quer
 10
-0.0000047267758418
 20
-0.0000012968729379
 30
0.0
 41
2.5
 42
2.5
 43
2.5
  0
ATTRIB
  5
2ED
330
276
100
AcDbEntity
  8
06-99
100
AcDbText
 10
508.7386168479429
 20
65.46959674320532
 30
0.0
 40
11.25
  1
Flüssigseifenspender WP 174e-7
 41
0.75
  7
ROMANS8
100
AcDbAttribute
280
     0
  2
TEILE
 70
     0
280
     0
  0
ATTRIB
  5
2EE
330
276
100
AcDbEntity
  8
06-99
100
AcDbText
 10
508.7386168479429
 20
47.3765087122905
 30
0.0
 40
11.25
  1

 41
0.9
  7
ROMANS8
100
AcDbAttribute
280
     0
  2
TEILE2
 70
     0
280
     0
  0
ATTRIB
  5
2EF
330
276
100
AcDbEntity
  8
06-99
100
AcDbText
 10
695.8684655292863
 20
113.3333333333331
 30
0.0
 40
8.4375
  1
1:2,5
  7
ROMANS8
100
AcDbAttribute
280
     0
  2
:
 70
     0
280
     0
  0
ATTRIB
  5
2F0
330
276
100
AcDbEntity
  8
06-99
100
AcDbText
 10
449.9926694984187
 20
68.60421367007802
 30
0.0
 40
6.25
  1
Pfrepper
 41
0.9
  7
ROMANS8
100
AcDbAttribute
280
     0
  2
NAME
 70
     0
280
     0
  0
ATTRIB
  5
2F1
330
276
100
AcDbEntity
  8
06-99
100
AcDbText
 10
416.2328661297351
 20
68.65308793527788
 30
0.0
 40
6.250000000000001
  1
31.10.2016
 50
359.9144597696147
 41
0.586779297519816
  7
ROMANS8
 72
     5
 11
444.3493428010969
 21
68.61111116666677
 31
0.0
100
AcDbAttribute
280
     0
  2
DATUM
 70
     0
280
     0
  0
ATTRIB
  5
2F2
330
276
100
AcDbEntity
  8
06-99
100
AcDbText
 10
663.7658599178958
 20
18.73224950072199
 30
0.0
 40
7.4844
  1
727046
  7
ROMANS8
100
AcDbAttribute
280
     0
  2
ID.NR
 70
     0
280
     0
  0
ATTRIB
  5
2F3
330
276
100
AcDbEntity
  8
06-99
100
AcDbText
 10
509.3281656392764
 20
94.16666661111094
 30
0.0
 40
7.5
  1

 41
0.9
  7
ROMANS8
100
AcDbAttribute
280
     0
  2
LÄNGE
 70
     0
280
     0
  0
ATTRIB
  5
2F4
330
276
100
AcDbEntity
  8
06-99
100
AcDbText
 10
592.9520122794246
 20
94.19525967611207
 30
0.0
 40
7.5
  1

 41
0.9
  7
ROMANS8
100
AcDbAttribute
280
     0
  2
BREITE
 70
     0
280
     0
  0
ATTRIB
  5
2F5
330
276
100
AcDbEntity
  8
06-99
100
AcDbText
 10
694.0227303168294
 20
94.16666666666685
 30
0.0
 40
7.734375000000001
  1

  7
ROMANS8
100
AcDbAttribute
280
     0
  2
1.0
 70
     0
280
     0
  0
ATTRIB
  5
2F6
330
276
100
AcDbEntity
  8
06-99
100
AcDbText
 10
627.8194640035062
 20
113.3333333333337
 30
0.0
 40
7.5
  1

  7
ROMANS8
 72
     1
 11
627.8194640035062
 21
113.3333333333337
 31
0.0
100
AcDbAttribute
280
     0
  2
IV
 70
     0
280
     0
  0
ATTRIB
  5
2F7
330
276
100
AcDbEntity
  8
06-99
100
AcDbText
 10
525.6868513402896
 20
113.3333333333331
 30
0.0
 40
8.4375
  1
1.4301
  7
ROMANS8
100
AcDbAttribute
280
     0
  2
1.4301
 70
     0
280
     0
  0
ATTRIB
  5
2F8
330
276
100
AcDbEntity
  8
06-99
100
AcDbText
 10
582.5015847172007
 20
18.76099151088681
 30
0.0
 40
7.919999999999999
  1

 41
0.9000000000000001
  7
ROMANS8
100
AcDbAttribute
280
     0
  2
AUFTRAGS.NR.
 70
     0
280
     0
  0
ATTRIB
  5
2F9
330
276
100
AcDbEntity
  8
06-99
100
AcDbText
 10
508.75
 20
18.75
 30
0.0
 40
7.919999999999999
  1

 41
0.9000000000000001
  7
ROMANS8
100
AcDbAttribute
280
     0
  2
SONDER-NR
 70
     0
280
     0
  0
ATTRIB
  5
2FA
330
276
100
AcDbEntity
  8
06-99
100
AcDbText
 10
333.7493774875206
 20
16.50452517314988
 30
0.0
 40
3.75
  1

 41
0.9
  7
ROMANS8
100
AcDbAttribute
280
     0
  2
ERSETZT.DURCH
 70
     0
280
     0
  0
ATTRIB
  5
2FB
330
276
100
AcDbEntity
  8
06-99
100
AcDbText
 10
271.2486694504964
 20
16.4936409946813
 30
0.0
 40
3.75
  1

 41
0.9
  7
ROMANS8
100
AcDbAttribute
280
     0
  2
ERSETZT.FÜR
 70
     0
280
     0
  0
ATTRIB
  5
2FC
330
276
100
AcDbEntity
  8
06-99
100
AcDbText
 10
467.4326816160943
 20
119.1712778500198
 30
0.0
 40
3.217500000000001
  1
DIN A4
  7
ROMANS8
 72
     1
 11
475.6296459018085
 21
119.1712778500198
 31
0.0
100
AcDbAttribute
280
     0
  2
FORMAT
 70
     0
280
     0
  0
ATTRIB
  5
2FD
330
276
100
AcDbEntity
  8
06-99
100
AcDbText
 10
457.4770480538851
 20
93.29652044844237
 30
0.0
 40
5.85
  1
DIN 2768
  7
ROMANS8
 72
     1
 11
477.5341909110279
 21
93.29652044844237
 31
0.0
100
AcDbAttribute
280
     0
  2
NORM2
 70
     0
280
     0
  0
ATTRIB
  5
2FE
330
276
100
AcDbEntity
  8
06-99
100
AcDbText
 10
449.5377623395994
 20
102.8798537817755
 30
0.0
 40
5.85
  1
DIN 6930-M
  7
ROMANS8
 72
     1
 11
476.2806194824565
 21
102.8798537817755
 31
0.0
100
AcDbAttribute
280
     0
  2
NORM1
 70
     0
280
     0
  0
SEQEND
  5
2FF
330
276
100
AcDbEntity
  8
09-01
  0
DIMENSION
  5
300
330
2
100
AcDbEntity
  8
0
100
AcDbDimension
280
     0
  2
*D6
 10
303.6910812314259
 20
453.7713703452101
 30
0.0
 11
299.1910812314257
 21
350.5229322298777
 31
0.0
 71
     5
 42
206.4968762306649
 73
     0
 74
     0
 75
     0
  3
Wagner$0
100
AcDbAlignedDimension
 13
374.1389020933821
 23
247.2744941145452
 33
0.0
 14
343.6389020803422
 24
453.7713703452101
 34
0.0
 50
90.0
100
AcDbRotatedDimension
1001
ACAD
1000
DSTYLE
1002
{
1070
    40
1040
2.0
1070
   271
1070
     1
1002
}
  0
ARC
  5
30D
330
2
100
AcDbEntity
  8
0
100
AcDbCircle
 10
192.357279113221
 20
441.7744941293054
 30
0.0
 40
5.0
100
AcDbArc
 50
115.2662919982237
 51
180.0
  0
ARC
  5
30E
330
2
100
AcDbEntity
  8
03-01
100
AcDbCircle
 10
192.357279113221
 20
441.7744941293054
 30
0.0
 40
5.0
100
AcDbArc
 50
90.0
 51
115.2662919982237
  0
LINE
  5
30F
330
2
100
AcDbEntity
  8
0
100
AcDbLine
 10
187.357279113221
 20
392.2744941162669
 30
0.0
 11
187.357279113221
 21
441.7744941293054
 31
0.0
  0
LINE
  5
310
330
2
100
AcDbEntity
  8
03-01
100
AcDbLine
 10
187.357279113221
 20
247.2744941143944
 30
0.0
 11
187.357279113221
 21
392.2744941162669
 31
0.0
  0
ARC
  5
311
330
2
100
AcDbEntity
  8
03-01
100
AcDbCircle
 10
127.6572791132216
 20
441.7744941293054
 30
0.0
 40
5.0
100
AcDbArc
 50
61.29178120909653
 51
90.0
  0
ARC
  5
312
330
2
100
AcDbEntity
  8
0
100
AcDbCircle
 10
127.6572791132216
 20
441.7744941293054
 30
0.0
 40
5.0
100
AcDbArc
 50
0.0
 51
61.29178120909653
  0
LINE
  5
313
330
2
100
AcDbEntity
  8
0
100
AcDbLine
 10
132.6572791132216
 20
392.2744941162669
 30
0.0
 11
132.6572791132216
 21
441.7744941293054
 31
0.0
  0
LINE
  5
314
330
2
100
AcDbEntity
  8
03-01
100
AcDbLine
 10
132.6572791132216
 20
247.2744941143944
 30
0.0
 11
132.6572791132216
 21
392.2744941162669
 31
0.0
  0
LINE
  5
315
330
2
100
AcDbEntity
  8
03-01
100
AcDbLine
 10
127.6572791132212
 20
446.7744941293053
 30
0.0
 11
126.6572791132212
 21
446.7744941293053
 31
0.0
  0
LINE
  5
316
330
2
100
AcDbEntity
  8
03-01
100
AcDbLine
 10
193.6572791132212
 20
446.7744941293053
 30
0.0
 11
192.357279113221
 21
446.7744941293053
 31
0.0
  0
LINE
  5
317
330
2
100
AcDbEntity
  8
03-01
100
AcDbLine
 10
193.6572791132212
 20
451.7744941293053
 30
0.0
 11
194.6572791132212
 21
451.7744941293053
 31
0.0
  0
LINE
  5
318
330
2
100
AcDbEntity
  8
03-01
100
AcDbLine
 10
126.6572791132212
 20
451.7744941293053
 30
0.0
 11
125.6572791132212
 21
451.7744941293053
 31
0.0
  0
INSERT
  5
319
330
2
100
AcDbEntity
  8
05-01
100
AcDbBlockReference
  2
e-modul vorderansicht
 10
17.30984378458925
 20
466.7350532628588
 30
0.0
  0
ARC
  5
33E
330
2
100
AcDbEntity
  8
0
100
AcDbCircle
 10
184.1572791132202
 20
282.1744941143988
 30
0.0
 40
1.5
100
AcDbArc
 50
0.0
 51
90.0
  0
ARC
  5
33F
330
2
100
AcDbEntity
  8
0
100
AcDbCircle
 10
184.6572791132203
 20
352.1744941143988
 30
0.0
 40
1.5
100
AcDbArc
 50
0.0
 51
90.0
  0
LINE
  5
340
330
2
100
AcDbEntity
  8
03-01
100
AcDbLine
 10
170.6572791132203
 20
258.6744941143988
 30
0.0
 11
170.6572791132212
 21
280.6744941143989
 31
0.0
  0
LINE
  5
341
330
2
100
AcDbEntity
  8
0
100
AcDbLine
 10
184.1572791132202
 20
255.6744941143989
 30
0.0
 11
170.357279113221
 21
255.6744941143989
 31
0.0
  0
ARC
  5
342
330
2
100
AcDbEntity
  8
0
100
AcDbCircle
 10
170.357279113221
 20
257.1744941143988
 30
0.0
 40
1.5
100
AcDbArc
 50
90.0
 51
270.0
  0
ARC
  5
343
330
2
100
AcDbEntity
  8
0
100
AcDbCircle
 10
140.9572791132204
 20
257.1744941143988
 30
0.0
 40
1.5
100
AcDbArc
 50
270.0
 51
90.0
  0
LINE
  5
344
330
2
100
AcDbEntity
  8
0
100
AcDbLine
 10
184.1572791132202
 20
283.6744941143988
 30
0.0
 11
170.357279113221
 21
283.6744941143988
 31
0.0
  0
LINE
  5
345
330
2
100
AcDbEntity
  8
03-01
100
AcDbLine
 10
177.1572791132212
 20
258.6744941143988
 30
0.0
 11
177.1572791132212
 21
280.6744941143989
 31
0.0
  0
ARC
  5
346
330
2
100
AcDbEntity
  8
0
100
AcDbCircle
 10
170.357279113221
 20
282.1744941143988
 30
0.0
 40
1.5
100
AcDbArc
 50
90.0
 51
270.0
  0
ARC
  5
347
330
2
100
AcDbEntity
  8
0
100
AcDbCircle
 10
180.4572791132205
 20
278.6744941143989
 30
0.0
 40
2.0
100
AcDbArc
 50
0.0
 51
90.0
  0
LINE
  5
348
330
2
100
AcDbEntity
  8
0
100
AcDbLine
 10
182.4572791132204
 20
260.6744941143988
 30
0.0
 11
182.4572791132204
 21
278.6744941143989
 31
0.0
  0
ARC
  5
349
330
2
100
AcDbEntity
  8
0
100
AcDbCircle
 10
180.4572791132205
 20
260.6744941143988
 30
0.0
 40
2.0
100
AcDbArc
 50
270.0
 51
0.0
  0
LINE
  5
34A
330
2
100
AcDbEntity
  8
0
100
AcDbLine
 10
180.4572791132205
 20
258.6744941143988
 30
0.0
 11
170.357279113221
 21
258.6744941143988
 31
0.0
  0
LINE
  5
34B
330
2
100
AcDbEntity
  8
0
100
AcDbLine
 10
180.4572791132205
 20
280.6744941143989
 30
0.0
 11
170.357279113221
 21
280.6744941143989
 31
0.0
  0
LINE
  5
34C
330
2
100
AcDbEntity
  8
0
100
AcDbLine
 10
125.6572791132207
 20
283.6744941143988
 30
0.0
 11
140.9572791132204
 21
283.6744941143988
 31
0.0
  0
LINE
  5
34D
330
2
100
AcDbEntity
  8
03-01
100
AcDbLine
 10
134.1572791132212
 20
258.6744941143988
 30
0.0
 11
134.1572791132212
 21
280.6744941143989
 31
0.0
  0
LINE
  5
34E
330
2
100
AcDbEntity
  8
03-01
100
AcDbLine
 10
140.6572791132212
 20
258.6744941143988
 30
0.0
 11
140.6572791132212
 21
280.6744941143989
 31
0.0
  0
ARC
  5
34F
330
2
100
AcDbEntity
  8
0
100
AcDbCircle
 10
140.9572791132204
 20
282.1744941143988
 30
0.0
 40
1.5
100
AcDbArc
 50
270.0
 51
90.0
  0
ARC
  5
350
330
2
100
AcDbEntity
  8
0
100
AcDbCircle
 10
130.857279113221
 20
278.6744941143989
 30
0.0
 40
2.0
100
AcDbArc
 50
90.0
 51
180.0
  0
LINE
  5
351
330
2
100
AcDbEntity
  8
0
100
AcDbLine
 10
128.857279113221
 20
260.6744941143988
 30
0.0
 11
128.857279113221
 21
278.6744941143989
 31
0.0
  0
ARC
  5
352
330
2
100
AcDbEntity
  8
0
100
AcDbCircle
 10
130.857279113221
 20
260.6744941143988
 30
0.0
 40
2.0
100
AcDbArc
 50
180.0
 51
270.0
  0
LINE
  5
353
330
2
100
AcDbEntity
  8
0
100
AcDbLine
 10
125.6572791132207
 20
255.6744941143987
 30
0.0
 11
140.9572791132204
 21
255.6744941143989
 31
0.0
  0
LINE
  5
354
330
2
100
AcDbEntity
  8
0
100
AcDbLine
 10
130.857279113221
 20
258.6744941143988
 30
0.0
 11
140.9572791132204
 21
258.6744941143988
 31
0.0
  0
LINE
  5
355
330
2
100
AcDbEntity
  8
0
100
AcDbLine
 10
130.857279113221
 20
280.6744941143989
 30
0.0
 11
140.9572791132204
 21
280.6744941143989
 31
0.0
  0
ARC
  5
356
330
2
100
AcDbEntity
  8
0
100
AcDbCircle
 10
184.1572791132202
 20
257.1744941143988
 30
0.0
 40
1.5
100
AcDbArc
 50
270.0
 51
0.0
  0
LINE
  5
357
330
2
100
AcDbEntity
  8
0
100
AcDbLine
 10
185.6572791132203
 20
282.1744941143988
 30
0.0
 11
185.6572791132203
 21
257.1744941143988
 31
0.0
  0
LINE
  5
358
330
2
100
AcDbEntity
  8
0
100
AcDbLine
 10
184.6572791132203
 20
325.6744941143988
 30
0.0
 11
170.357279113221
 21
325.6744941143988
 31
0.0
  0
ARC
  5
359
330
2
100
AcDbEntity
  8
0
100
AcDbCircle
 10
170.357279113221
 20
327.1744941143988
 30
0.0
 40
1.5
100
AcDbArc
 50
90.0
 51
270.0
  0
ARC
  5
35A
330
2
100
AcDbEntity
  8
0
100
AcDbCircle
 10
140.9572791132204
 20
327.1744941143988
 30
0.0
 40
1.5
100
AcDbArc
 50
270.0
 51
90.0
  0
ARC
  5
35B
330
2
100
AcDbEntity
  8
0
100
AcDbCircle
 10
159.1572791132203
 20
384.1744941143988
 30
0.0
 40
1.0
100
AcDbArc
 50
270.0
 51
90.0
  0
ARC
  5
35C
330
2
100
AcDbEntity
  8
0
100
AcDbCircle
 10
152.1572791132203
 20
384.1744941143988
 30
0.0
 40
1.0
100
AcDbArc
 50
90.0
 51
270.0
  0
LINE
  5
35D
330
2
100
AcDbEntity
  8
0
100
AcDbLine
 10
152.1572791132203
 20
383.1744941143989
 30
0.0
 11
159.1572791132203
 21
383.1744941143989
 31
0.0
  0
LINE
  5
35E
330
2
100
AcDbEntity
  8
0
100
AcDbLine
 10
152.1572791132203
 20
385.1744941143989
 30
0.0
 11
159.1572791132203
 21
385.1744941143989
 31
0.0
  0
LINE
  5
35F
330
2
100
AcDbEntity
  8
0
100
AcDbLine
 10
184.6572791132203
 20
353.6744941143989
 30
0.0
 11
170.357279113221
 21
353.6744941143989
 31
0.0
  0
LINE
  5
360
330
2
100
AcDbEntity
  8
03-01
100
AcDbLine
 10
177.1572791132212
 20
328.6744941143989
 30
0.0
 11
177.1572791132212
 21
350.6744941143988
 31
0.0
  0
LINE
  5
361
330
2
100
AcDbEntity
  8
03-01
100
AcDbLine
 10
170.6572791132212
 20
328.6744941143989
 30
0.0
 11
170.6572791132212
 21
350.6744941143988
 31
0.0
  0
ARC
  5
362
330
2
100
AcDbEntity
  8
0
100
AcDbCircle
 10
170.357279113221
 20
352.1744941143988
 30
0.0
 40
1.5
100
AcDbArc
 50
90.0
 51
270.0
  0
ARC
  5
363
330
2
100
AcDbEntity
  8
0
100
AcDbCircle
 10
180.4572791132205
 20
348.6744941143988
 30
0.0
 40
2.0
100
AcDbArc
 50
0.0
 51
90.0
  0
LINE
  5
364
330
2
100
AcDbEntity
  8
0
100
AcDbLine
 10
182.4572791132204
 20
330.6744941143989
 30
0.0
 11
182.4572791132204
 21
348.6744941143988
 31
0.0
  0
ARC
  5
365
330
2
100
AcDbEntity
  8
0
100
AcDbCircle
 10
180.4572791132205
 20
330.6744941143989
 30
0.0
 40
2.0
100
AcDbArc
 50
270.0
 51
0.0
  0
LINE
  5
366
330
2
100
AcDbEntity
  8
0
100
AcDbLine
 10
180.4572791132205
 20
328.6744941143989
 30
0.0
 11
170.357279113221
 21
328.6744941143989
 31
0.0
  0
LINE
  5
367
330
2
100
AcDbEntity
  8
0
100
AcDbLine
 10
180.4572791132205
 20
350.6744941143988
 30
0.0
 11
170.357279113221
 21
350.6744941143988
 31
0.0
  0
LINE
  5
368
330
2
100
AcDbEntity
  8
0
100
AcDbLine
 10
125.6572791132207
 20
353.6744941143989
 30
0.0
 11
140.9572791132204
 21
353.6744941143989
 31
0.0
  0
LINE
  5
369
330
2
100
AcDbEntity
  8
03-01
100
AcDbLine
 10
134.1572791132212
 20
328.6744941143989
 30
0.0
 11
134.1572791132212
 21
350.6744941143988
 31
0.0
  0
LINE
  5
36A
330
2
100
AcDbEntity
  8
03-01
100
AcDbLine
 10
140.6572791132212
 20
328.6744941143989
 30
0.0
 11
140.6572791132212
 21
350.6744941143988
 31
0.0
  0
ARC
  5
36B
330
2
100
AcDbEntity
  8
0
100
AcDbCircle
 10
140.9572791132204
 20
352.1744941143988
 30
0.0
 40
1.5
100
AcDbArc
 50
270.0
 51
90.0
  0
ARC
  5
36C
330
2
100
AcDbEntity
  8
0
100
AcDbCircle
 10
130.857279113221
 20
348.6744941143988
 30
0.0
 40
2.0
100
AcDbArc
 50
90.0
 51
180.0
  0
LINE
  5
36D
330
2
100
AcDbEntity
  8
0
100
AcDbLine
 10
128.857279113221
 20
330.6744941143989
 30
0.0
 11
128.857279113221
 21
348.6744941143988
 31
0.0
  0
LINE
  5
36E
330
2
100
AcDbEntity
  8
0
100
AcDbLine
 10
165.1572791132203
 20
384.1744941143988
 30
0.0
 11
164.1572791132203
 21
384.1744941143988
 31
0.0
  0
ARC
  5
36F
330
2
100
AcDbEntity
  8
0
100
AcDbCircle
 10
165.1572791132203
 20
383.1744941143989
 30
0.0
 40
1.0
100
AcDbArc
 50
0.0
 51
90.0
  0
ARC
  5
370
330
2
100
AcDbEntity
  8
0
100
AcDbCircle
 10
164.1572791132203
 20
383.1744941143989
 30
0.0
 40
1.0
100
AcDbArc
 50
90.0
 51
180.0
  0
ARC
  5
371
330
2
100
AcDbEntity
  8
0
100
AcDbCircle
 10
150.1572791132202
 20
360.1744941143989
 30
0.0
 40
5.0
100
AcDbArc
 50
180.0
 51
270.0
  0
ARC
  5
372
330
2
100
AcDbEntity
  8
0
100
AcDbCircle
 10
150.1572791132202
 20
360.1744941143989
 30
0.0
 40
2.0
100
AcDbArc
 50
180.0
 51
270.0
  0
LINE
  5
373
330
2
100
AcDbEntity
  8
0
100
AcDbLine
 10
146.1572791132203
 20
384.1744941143988
 30
0.0
 11
147.1572791132203
 21
384.1744941143988
 31
0.0
  0
LINE
  5
374
330
2
100
AcDbEntity
  8
0
100
AcDbLine
 10
150.1572791132202
 20
355.1744941143988
 30
0.0
 11
161.1572791132203
 21
355.1744941143988
 31
0.0
  0
LINE
  5
375
330
2
100
AcDbEntity
  8
0
100
AcDbLine
 10
150.1572791132202
 20
358.1744941143989
 30
0.0
 11
161.1572791132203
 21
358.1744941143989
 31
0.0
  0
ARC
  5
376
330
2
100
AcDbEntity
  8
0
100
AcDbCircle
 10
130.857279113221
 20
330.6744941143989
 30
0.0
 40
2.0
100
AcDbArc
 50
180.0
 51
270.0
  0
LINE
  5
377
330
2
100
AcDbEntity
  8
0
100
AcDbLine
 10
125.6572791132207
 20
325.6744941143988
 30
0.0
 11
140.9572791132204
 21
325.6744941143988
 31
0.0
  0
LINE
  5
378
330
2
100
AcDbEntity
  8
0
100
AcDbLine
 10
130.857279113221
 20
328.6744941143989
 30
0.0
 11
140.9572791132204
 21
328.6744941143989
 31
0.0
  0
LINE
  5
379
330
2
100
AcDbEntity
  8
0
100
AcDbLine
 10
130.857279113221
 20
350.6744941143988
 30
0.0
 11
140.9572791132204
 21
350.6744941143988
 31
0.0
  0
ARC
  5
37A
330
2
100
AcDbEntity
  8
0
100
AcDbCircle
 10
146.1572791132203
 20
383.1744941143989
 30
0.0
 40
1.0
100
AcDbArc
 50
90.0
 51
180.0
  0
LINE
  5
37B
330
2
100
AcDbEntity
  8
0
100
AcDbLine
 10
145.1572791132203
 20
360.1744941143989
 30
0.0
 11
145.1572791132203
 21
383.1744941143989
 31
0.0
  0
ARC
  5
37C
330
2
100
AcDbEntity
  8
0
100
AcDbCircle
 10
147.1572791132203
 20
383.1744941143989
 30
0.0
 40
1.0
100
AcDbArc
 50
0.0
 51
90.0
  0
LINE
  5
37D
330
2
100
AcDbEntity
  8
0
100
AcDbLine
 10
148.1572791132203
 20
360.1744941143989
 30
0.0
 11
148.1572791132203
 21
383.1744941143989
 31
0.0
  0
ARC
  5
37E
330
2
100
AcDbEntity
  8
0
100
AcDbCircle
 10
161.1572791132203
 20
360.1744941143989
 30
0.0
 40
5.0
100
AcDbArc
 50
270.0
 51
0.0
  0
ARC
  5
37F
330
2
100
AcDbEntity
  8
0
100
AcDbCircle
 10
161.1572791132203
 20
360.1744941143989
 30
0.0
 40
2.0
100
AcDbArc
 50
270.0
 51
0.0
  0
LINE
  5
380
330
2
100
AcDbEntity
  8
0
100
AcDbLine
 10
166.1572791132203
 20
360.1744941143989
 30
0.0
 11
166.1572791132203
 21
383.1744941143989
 31
0.0
  0
LINE
  5
381
330
2
100
AcDbEntity
  8
0
100
AcDbLine
 10
163.1572791132203
 20
360.1744941143989
 30
0.0
 11
163.1572791132203
 21
383.1744941143989
 31
0.0
  0
ARC
  5
382
330
2
100
AcDbEntity
  8
0
100
AcDbCircle
 10
184.6572791132203
 20
327.1744941143988
 30
0.0
 40
1.5
100
AcDbArc
 50
270.0
 51
0.0
  0
LINE
  5
383
330
2
100
AcDbEntity
  8
0
100
AcDbLine
 10
186.1572791132203
 20
352.1744941143988
 30
0.0
 11
186.1572791132203
 21
327.1744941143988
 31
0.0
  0
LINE
  5
384
330
2
100
AcDbEntity
  8
0
100
AcDbLine
 10
194.6572791132212
 20
247.2744941143944
 30
0.0
 11
125.6572791132212
 21
247.2744941143944
 31
0.0
  0
LINE
  5
385
330
2
100
AcDbEntity
  8
03-01
100
AcDbLine
 10
193.6572791132207
 20
443.9213703452104
 30
0.0
 11
193.6572791132207
 21
451.7744941293053
 31
0.0
  0
LINE
  5
386
330
2
100
AcDbEntity
  8
0
100
AcDbLine
 10
193.6572791132207
 20
432.9213703452104
 30
0.0
 11
193.6572791132207
 21
443.9213703452104
 31
0.0
  0
LINE
  5
387
330
2
100
AcDbEntity
  8
03-01
100
AcDbLine
 10
193.6572791132207
 20
402.9213703452113
 30
0.0
 11
193.6572791132207
 21
432.9213703452104
 31
0.0
  0
LINE
  5
388
330
2
100
AcDbEntity
  8
0
100
AcDbLine
 10
193.6572791132207
 20
392.2744941162669
 30
0.0
 11
193.6572791132207
 21
402.9213703452113
 31
0.0
  0
LINE
  5
389
330
2
100
AcDbEntity
  8
03-01
100
AcDbLine
 10
193.6572791132212
 20
247.2744941143944
 30
0.0
 11
193.6572791132207
 21
392.2744941162669
 31
0.0
  0
LINE
  5
38A
330
2
100
AcDbEntity
  8
03-01
100
AcDbLine
 10
194.6572791132212
 20
443.9213703452104
 30
0.0
 11
194.6572791132212
 21
451.7744941293053
 31
0.0
  0
LINE
  5
38B
330
2
100
AcDbEntity
  8
0
100
AcDbLine
 10
194.6572791132212
 20
432.9213703452104
 30
0.0
 11
194.6572791132212
 21
443.9213703452104
 31
0.0
  0
LINE
  5
38C
330
2
100
AcDbEntity
  8
03-01
100
AcDbLine
 10
194.6572791132212
 20
402.9213703452113
 30
0.0
 11
194.6572791132212
 21
432.9213703452104
 31
0.0
  0
LINE
  5
38D
330
2
100
AcDbEntity
  8
0
100
AcDbLine
 10
194.6572791132212
 20
247.2744941143944
 30
0.0
 11
194.6572791132212
 21
402.9213703452113
 31
0.0
  0
LINE
  5
38E
330
2
100
AcDbEntity
  8
03-01
100
AcDbLine
 10
126.6572791132212
 20
443.9213703452104
 30
0.0
 11
126.6572791132212
 21
451.7744941293053
 31
0.0
  0
LINE
  5
38F
330
2
100
AcDbEntity
  8
0
100
AcDbLine
 10
126.6572791132212
 20
432.92137034521
 30
0.0
 11
126.6572791132212
 21
443.9213703452104
 31
0.0
  0
LINE
  5
390
330
2
100
AcDbEntity
  8
03-01
100
AcDbLine
 10
126.6572791132212
 20
402.9213703452104
 30
0.0
 11
126.6572791132212
 21
432.92137034521
 31
0.0
  0
LINE
  5
391
330
2
100
AcDbEntity
  8
0
100
AcDbLine
 10
126.6572791132212
 20
392.2744941162669
 30
0.0
 11
126.6572791132212
 21
402.9213703452104
 31
0.0
  0
LINE
  5
392
330
2
100
AcDbEntity
  8
03-01
100
AcDbLine
 10
126.6572791132212
 20
353.6744941143989
 30
0.0
 11
126.6572791132212
 21
392.2744941162669
 31
0.0
  0
LINE
  5
393
330
2
100
AcDbEntity
  8
0
100
AcDbLine
 10
126.6572791132212
 20
325.6744941143988
 30
0.0
 11
126.6572791132212
 21
353.6744941143989
 31
0.0
  0
LINE
  5
394
330
2
100
AcDbEntity
  8
03-01
100
AcDbLine
 10
126.6572791132212
 20
283.6744941143988
 30
0.0
 11
126.6572791132212
 21
325.6744941143988
 31
0.0
  0
LINE
  5
395
330
2
100
AcDbEntity
  8
0
100
AcDbLine
 10
126.6572791132212
 20
255.6744941143987
 30
0.0
 11
126.6572791132212
 21
283.6744941143988
 31
0.0
  0
LINE
  5
396
330
2
100
AcDbEntity
  8
03-01
100
AcDbLine
 10
126.6572791132212
 20
247.2744941143944
 30
0.0
 11
126.6572791132212
 21
255.6744941143987
 31
0.0
  0
LINE
  5
397
330
2
100
AcDbEntity
  8
03-01
100
AcDbLine
 10
125.6572791132212
 20
443.9213703452104
 30
0.0
 11
125.6572791132212
 21
451.7744941293053
 31
0.0
  0
LINE
  5
398
330
2
100
AcDbEntity
  8
0
100
AcDbLine
 10
125.6572791132212
 20
432.92137034521
 30
0.0
 11
125.6572791132212
 21
443.9213703452104
 31
0.0
  0
LINE
  5
399
330
2
100
AcDbEntity
  8
03-01
100
AcDbLine
 10
125.6572791132212
 20
402.9213703452104
 30
0.0
 11
125.6572791132212
 21
432.92137034521
 31
0.0
  0
LINE
  5
39A
330
2
100
AcDbEntity
  8
0
100
AcDbLine
 10
125.6572791132212
 20
247.2744941143944
 30
0.0
 11
125.6572791132212
 21
402.9213703452104
 31
0.0
  0
LINE
  5
39B
330
2
100
AcDbEntity
  8
0
100
AcDbLine
 10
194.6572791132212
 20
392.2744941162669
 30
0.0
 11
125.6572791132212
 21
392.2744941162669
 31
0.0
  0
DIMENSION
  5
39C
330
2
100
AcDbEntity
  8
0
100
AcDbDimension
280
     0
  2
*D5
 10
202.9072791132216
 20
205.7320488563121
 30
0.0
 11
160.1572791132214
 21
210.2320488563121
 31
0.0
 71
     5
 42
85.50000000000045
 73
     0
 74
     0
 75
     0
  3
Wagner$0
100
AcDbAlignedDimension
 13
117.4072791132212
 23
189.0326462901095
 33
0.0
 14
202.9072791132216
 24
189.0326462901097
 34
0.0
100
AcDbRotatedDimension
1001
ACAD
1000
DSTYLE
1002
{
1070
    40
1040
2.0
1002
}
  0
LINE
  5
3A9
330
2
100
AcDbEntity
  8
09-01
100
AcDbLine
 10
176.3386561465113
 20
154.8326462770704
 30
0.0
 11
170.9684206373308
 21
158.5326462770714
 31
0.0
  0
LINE
  5
3AA
330
2
100
AcDbEntity
  8
09-01
100
AcDbLine
 10
176.0275146224012
 20
153.8326462770707
 30
0.0
 11
170.6572791132212
 21
157.5326462770714
 31
0.0
  0
LINE
  5
3AB
330
2
100
AcDbEntity
  8
09-01
100
AcDbLine
 10
134.9759020799311
 20
154.8326462770707
 30
0.0
 11
140.3461375891111
 21
158.5326462770714
 31
0.0
  0
LINE
  5
3AC
330
2
100
AcDbEntity
  8
09-01
100
AcDbLine
 10
135.2870436040412
 20
153.8326462770707
 30
0.0
 11
140.6572791132212
 21
157.5326462770714
 31
0.0
  0
LINE
  5
3AD
330
2
100
AcDbEntity
  8
09-01
100
AcDbLine
 10
181.3572791132214
 20
154.8326462770707
 30
0.0
 11
176.3386561465113
 21
154.8326462770707
 31
0.0
  0
LINE
  5
3AE
330
2
100
AcDbEntity
  8
09-01
100
AcDbLine
 10
181.3572791132214
 20
153.8326462770707
 30
0.0
 11
176.0275146224012
 21
153.8326462770707
 31
0.0
  0
LINE
  5
3AF
330
2
100
AcDbEntity
  8
09-01
100
AcDbLine
 10
181.3572791132214
 20
154.8326462770707
 30
0.0
 11
181.3572791132214
 21
153.8326462770707
 31
0.0
  0
LINE
  5
3B0
330
2
100
AcDbEntity
  8
09-01
100
AcDbLine
 10
129.9572791132209
 20
154.8326462770707
 30
0.0
 11
134.9759020799311
 21
154.8326462770707
 31
0.0
  0
LINE
  5
3B1
330
2
100
AcDbEntity
  8
09-01
100
AcDbLine
 10
129.9572791132209
 20
153.8326462770707
 30
0.0
 11
135.2870436040412
 21
153.8326462770707
 31
0.0
  0
LINE
  5
3B2
330
2
100
AcDbEntity
  8
09-01
100
AcDbLine
 10
129.9572791132209
 20
154.8326462770707
 30
0.0
 11
129.9572791132209
 21
153.8326462770707
 31
0.0
  0
LINE
  5
3B3
330
2
100
AcDbEntity
  8
09-01
100
AcDbLine
 10
140.6572791132212
 20
157.5326462770714
 30
0.0
 11
170.6572791132212
 21
157.5326462770714
 31
0.0
  0
LINE
  5
3B4
330
2
100
AcDbEntity
  8
09-01
100
AcDbLine
 10
187.3572791132214
 20
186.5326462901093
 30
0.0
 11
187.357279113221
 21
187.5326462901096
 31
0.0
  0
LINE
  5
3B5
330
2
100
AcDbEntity
  8
09-01
100
AcDbLine
 10
132.9572791132218
 20
186.5326462901091
 30
0.0
 11
132.9572791132218
 21
187.5326462901093
 31
0.0
  0
LINE
  5
3B6
330
2
100
AcDbEntity
  8
0
100
AcDbLine
 10
366.6389020803422
 20
295.7713703452105
 30
0.0
 11
366.6389020803422
 21
293.7713703452105
 31
0.0
  0
LINE
  5
3B7
330
2
100
AcDbEntity
  8
0
100
AcDbLine
 10
368.1389020803422
 20
295.7713703452105
 30
0.0
 11
366.6389020803422
 21
295.7713703452105
 31
0.0
  0
LINE
  5
3B8
330
2
100
AcDbEntity
  8
0
100
AcDbLine
 10
366.6389020803422
 20
293.7713703452105
 30
0.0
 11
408.4188528906229
 21
278.1504868276178
 31
0.0
  0
ARC
  5
3B9
330
2
100
AcDbEntity
  8
0
100
AcDbCircle
 10
403.1657421717309
 20
264.1004039888918
 30
0.0
 40
15.0
100
AcDbArc
 50
0.0
 51
69.49999999998723
  0
LINE
  5
3BA
330
2
100
AcDbEntity
  8
0
100
AcDbLine
 10
418.1657421717309
 20
252.9544768383825
 30
0.0
 11
418.1657421717309
 21
264.1004039888918
 31
0.0
  0
LINE
  5
3BB
330
2
100
AcDbEntity
  8
0
100
AcDbLine
 10
345.1389020803422
 20
273.7713703452107
 30
0.0
 11
412.0898089560633
 21
248.7394519867649
 31
0.0
  0
LINE
  5
3BC
330
2
100
AcDbEntity
  8
05-01
100
AcDbLine
 10
125.2488344820122
 20
118.5326462770694
 30
0.0
 11
115.2488344820121
 21
118.5326462770694
 31
0.0
  0
LINE
  5
3BD
330
2
100
AcDbEntity
  8
0
100
AcDbLine
 10
194.9072791132198
 20
166.0326462901094
 30
0.0
 11
190.9072791132198
 21
166.0326462901094
 31
0.0
  0
LINE
  5
3BE
330
2
100
AcDbEntity
  8
0
100
AcDbLine
 10
194.9072791132198
 20
164.5326462901097
 30
0.0
 11
190.9072791132198
 21
164.5326462901095
 31
0.0
  0
LINE
  5
3BF
330
2
100
AcDbEntity
  8
0
100
AcDbLine
 10
190.9072791132198
 20
166.0326462901094
 30
0.0
 11
190.9072791132198
 21
164.5326462901095
 31
0.0
  0
LINE
  5
3C0
330
2
100
AcDbEntity
  8
0
100
AcDbLine
 10
125.4072791132212
 20
166.0326462901094
 30
0.0
 11
129.4072791132216
 21
166.0326462901094
 31
0.0
  0
LINE
  5
3C1
330
2
100
AcDbEntity
  8
0
100
AcDbLine
 10
125.4072791132212
 20
164.5326462901097
 30
0.0
 11
129.4072791132212
 21
164.5326462901095
 31
0.0
  0
LINE
  5
3C2
330
2
100
AcDbEntity
  8
0
100
AcDbLine
 10
121.9072791132212
 20
122.5326462770693
 30
0.0
 11
118.9072791132212
 21
122.5326462770691
 31
0.0
  0
LINE
  5
3C3
330
2
100
AcDbEntity
  8
0
100
AcDbLine
 10
121.9072791132212
 20
114.5326462770694
 30
0.0
 11
118.9072791132212
 21
114.5326462770694
 31
0.0
  0
LINE
  5
3C4
330
2
100
AcDbEntity
  8
0
100
AcDbLine
 10
118.9072791132212
 20
114.0326462770693
 30
0.0
 11
117.4072791132212
 21
114.0326462770696
 31
0.0
  0
LINE
  5
3C5
330
2
100
AcDbEntity
  8
0
100
AcDbLine
 10
117.4072791132212
 20
164.5326462901095
 30
0.0
 11
117.4072791132212
 21
114.0326462770696
 31
0.0
  0
LINE
  5
3C6
330
2
100
AcDbEntity
  8
0
100
AcDbLine
 10
121.9072791132212
 20
122.5326462770693
 30
0.0
 11
121.9072791132212
 21
114.5326462770694
 31
0.0
  0
LINE
  5
3C7
330
2
100
AcDbEntity
  8
0
100
AcDbLine
 10
118.9072791132212
 20
166.0326462901094
 30
0.0
 11
118.9072791132212
 21
114.0326462770693
 31
0.0
  0
LINE
  5
3C8
330
2
100
AcDbEntity
  8
05-01
100
AcDbLine
 10
184.1572791132207
 20
154.3326462770702
 30
0.0
 11
184.1572791132207
 21
111.8326462770702
 31
0.0
  0
INSERT
  5
3C9
330
2
100
AcDbEntity
  8
05-01
100
AcDbBlockReference
  2
e-modul draufsicht
 10
17.30984378458925
 20
466.4096447376804
 30
0.0
  0
LINE
  5
3E8
330
2
100
AcDbEntity
  8
03-01
100
AcDbLine
 10
136.1572791132216
 20
181.5066462901096
 30
0.0
 11
136.1572791132216
 21
186.5326462901097
 31
0.0
  0
ARC
  5
3E9
330
2
100
AcDbEntity
  8
03-01
100
AcDbCircle
 10
179.1572791132216
 20
181.5066462901096
 30
0.0
 40
5.0
100
AcDbArc
 50
322.062610628841
 51
0.0
  0
ARC
  5
3EA
330
2
100
AcDbEntity
  8
0
100
AcDbCircle
 10
179.1572791132216
 20
181.5066462901096
 30
0.0
 40
5.0
100
AcDbArc
 50
270.0
 51
322.062610628841
  0
LINE
  5
3EB
330
2
100
AcDbEntity
  8
03-01
100
AcDbLine
 10
184.1572791132216
 20
181.5066462901096
 30
0.0
 11
184.1572791132216
 21
186.5326462901095
 31
0.0
  0
ARC
  5
3EC
330
2
100
AcDbEntity
  8
0
100
AcDbCircle
 10
141.1572791132216
 20
181.5066462901096
 30
0.0
 40
5.0
100
AcDbArc
 50
217.937389371159
 51
270.0
  0
ARC
  5
3ED
330
2
100
AcDbEntity
  8
03-01
100
AcDbCircle
 10
141.1572791132216
 20
181.5066462901096
 30
0.0
 40
5.0
100
AcDbArc
 50
180.0
 51
217.937389371159
  0
LINE
  5
3EE
330
2
100
AcDbEntity
  8
0
100
AcDbLine
 10
179.1572791132216
 20
176.5066462901096
 30
0.0
 11
141.1572791132216
 21
176.5066462901096
 31
0.0
  0
LINE
  5
3EF
330
2
100
AcDbEntity
  8
03-01
100
AcDbLine
 10
119.1572791132212
 20
187.5326462901097
 30
0.0
 11
201.1572791132216
 21
187.5326462901092
 31
0.0
  0
LINE
  5
3F0
330
2
100
AcDbEntity
  8
03-01
100
AcDbLine
 10
126.6572791132221
 20
186.5326462901098
 30
0.0
 11
193.6572791132216
 21
186.5326462901096
 31
0.0
  0
LINE
  5
3F1
330
2
100
AcDbEntity
  8
09-01
100
AcDbLine
 10
126.6572791132216
 20
158.5326462770714
 30
0.0
 11
193.6572791132212
 21
158.5326462770714
 31
0.0
  0
LINE
  5
3F2
330
2
100
AcDbEntity
  8
09-01
100
AcDbLine
 10
125.6572791132216
 20
157.5326462770712
 30
0.0
 11
194.6572791132212
 21
157.5326462770712
 31
0.0
  0
LINE
  5
3F3
330
2
100
AcDbEntity
  8
09-01
100
AcDbLine
 10
125.6572791132212
 20
164.5326462901097
 30
0.0
 11
125.6572791132216
 21
157.5326462770712
 31
0.0
  0
LINE
  5
3F4
330
2
100
AcDbEntity
  8
03-01
100
AcDbLine
 10
125.6572791132212
 20
166.0326462901097
 30
0.0
 11
125.6572791132212
 21
164.5326462901097
 31
0.0
  0
LINE
  5
3F5
330
2
100
AcDbEntity
  8
09-01
100
AcDbLine
 10
125.6572791132212
 20
172.4326462901098
 30
0.0
 11
125.6572791132212
 21
166.0326462901097
 31
0.0
  0
LINE
  5
3F6
330
2
100
AcDbEntity
  8
03-01
100
AcDbLine
 10
125.6572791132216
 20
187.5326462901099
 30
0.0
 11
125.6572791132212
 21
172.4326462901098
 31
0.0
  0
LINE
  5
3F7
330
2
100
AcDbEntity
  8
09-01
100
AcDbLine
 10
126.6572791132216
 20
164.0326462901097
 30
0.0
 11
126.6572791132216
 21
158.5326462770714
 31
0.0
  0
LINE
  5
3F8
330
2
100
AcDbEntity
  8
03-01
100
AcDbLine
 10
126.6572791132216
 20
166.0326462901097
 30
0.0
 11
126.6572791132216
 21
164.0326462901097
 31
0.0
  0
LINE
  5
3F9
330
2
100
AcDbEntity
  8
09-01
100
AcDbLine
 10
126.6572791132216
 20
172.4326462901098
 30
0.0
 11
126.6572791132216
 21
166.0326462901097
 31
0.0
  0
LINE
  5
3FA
330
2
100
AcDbEntity
  8
03-01
100
AcDbLine
 10
126.6572791132221
 20
186.5326462901098
 30
0.0
 11
126.6572791132216
 21
172.4326462901098
 31
0.0
  0
LINE
  5
3FB
330
2
100
AcDbEntity
  8
09-01
100
AcDbLine
 10
194.6572791132212
 20
164.5326462901097
 30
0.0
 11
194.6572791132212
 21
157.5326462770712
 31
0.0
  0
LINE
  5
3FC
330
2
100
AcDbEntity
  8
03-01
100
AcDbLine
 10
194.6572791132212
 20
166.0326462901097
 30
0.0
 11
194.6572791132212
 21
164.5326462901097
 31
0.0
  0
LINE
  5
3FD
330
2
100
AcDbEntity
  8
09-01
100
AcDbLine
 10
194.6572791132212
 20
172.4326462901095
 30
0.0
 11
194.6572791132212
 21
166.0326462901097
 31
0.0
  0
LINE
  5
3FE
330
2
100
AcDbEntity
  8
03-01
100
AcDbLine
 10
194.6572791132216
 20
187.5326462901092
 30
0.0
 11
194.6572791132212
 21
172.4326462901095
 31
0.0
  0
LINE
  5
3FF
330
2
100
AcDbEntity
  8
09-01
100
AcDbLine
 10
193.6572791132212
 20
164.0326462901092
 30
0.0
 11
193.6572791132212
 21
158.5326462770714
 31
0.0
  0
LINE
  5
400
330
2
100
AcDbEntity
  8
03-01
100
AcDbLine
 10
193.6572791132212
 20
166.0326462901097
 30
0.0
 11
193.6572791132212
 21
164.0326462901092
 31
0.0
  0
LINE
  5
401
330
2
100
AcDbEntity
  8
09-01
100
AcDbLine
 10
193.6572791132212
 20
172.4326462901095
 30
0.0
 11
193.6572791132212
 21
166.0326462901097
 31
0.0
  0
LINE
  5
402
330
2
100
AcDbEntity
  8
03-01
100
AcDbLine
 10
193.6572791132216
 20
186.5326462901096
 30
0.0
 11
193.6572791132212
 21
172.4326462901095
 31
0.0
  0
LINE
  5
403
330
2
100
AcDbEntity
  8
0
100
AcDbLine
 10
129.6572791132207
 20
164.0326462901095
 30
0.0
 11
129.6572791132207
 21
162.5326462901097
 31
0.0
  0
ARC
  5
404
330
2
100
AcDbEntity
  8
0
100
AcDbCircle
 10
120.4072791132243
 20
165.5326462901095
 30
0.0
 40
1.5
100
AcDbArc
 50
221.8103148957863
 51
270.0
  0
ARC
  5
405
330
2
100
AcDbEntity
  8
03-01
100
AcDbCircle
 10
120.4072791132243
 20
165.5326462901095
 30
0.0
 40
1.5
100
AcDbArc
 50
180.0
 51
221.8103148957863
  0
LINE
  5
406
330
2
100
AcDbEntity
  8
0
100
AcDbLine
 10
120.4072791132243
 20
164.0326462901095
 30
0.0
 11
129.6572791132207
 21
164.0326462901095
 31
0.0
  0
CIRCLE
  5
407
330
2
100
AcDbEntity
  8
03-01
100
AcDbCircle
 10
160.1572791132207
 20
173.1826462901093
 30
0.0
 40
4.0
  0
LINE
  5
408
330
2
100
AcDbEntity
  8
05-01
100
AcDbLine
 10
160.1572791132207
 20
178.1826462901093
 30
0.0
 11
160.1572791132207
 21
168.1826462901093
 31
0.0
  0
LINE
  5
409
330
2
100
AcDbEntity
  8
0
100
AcDbLine
 10
190.6572791132207
 20
164.0326462901092
 30
0.0
 11
190.6572791132207
 21
162.5326462901097
 31
0.0
  0
LINE
  5
40A
330
2
100
AcDbEntity
  8
05-01
100
AcDbLine
 10
165.1572791132207
 20
173.1826462901093
 30
0.0
 11
155.1572791132207
 21
173.1826462901093
 31
0.0
  0
ARC
  5
40B
330
2
100
AcDbEntity
  8
03-01
100
AcDbCircle
 10
199.9072791132162
 20
165.5326462901092
 30
0.0
 40
1.5
100
AcDbArc
 50
318.1896851042495
 51
359.999999999987
  0
ARC
  5
40C
330
2
100
AcDbEntity
  8
0
100
AcDbCircle
 10
199.9072791132162
 20
165.5326462901092
 30
0.0
 40
1.5
100
AcDbArc
 50
270.0
 51
318.1896851042495
  0
LINE
  5
40D
330
2
100
AcDbEntity
  8
0
100
AcDbLine
 10
199.9072791132162
 20
164.0326462901092
 30
0.0
 11
190.6572791132207
 21
164.0326462901092
 31
0.0
  0
ARC
  5
40E
330
2
100
AcDbEntity
  8
0
100
AcDbCircle
 10
132.1572791132212
 20
176.4326462901093
 30
0.0
 40
2.0
100
AcDbArc
 50
90.0
 51
180.0
  0
LINE
  5
40F
330
2
100
AcDbEntity
  8
0
100
AcDbLine
 10
130.1572791132212
 20
172.4326462901095
 30
0.0
 11
130.1572791132212
 21
176.4326462901093
 31
0.0
  0
ARC
  5
410
330
2
100
AcDbEntity
  8
0
100
AcDbCircle
 10
188.1572791132216
 20
176.4326462901095
 30
0.0
 40
2.0
100
AcDbArc
 50
0.0
 51
90.0
  0
LINE
  5
411
330
2
100
AcDbEntity
  8
0
100
AcDbLine
 10
190.1572791132212
 20
172.4326462901095
 30
0.0
 11
190.1572791132216
 21
176.4326462901095
 31
0.0
  0
LINE
  5
412
330
2
100
AcDbEntity
  8
0
100
AcDbLine
 10
188.1572791132216
 20
178.4326462901096
 30
0.0
 11
132.1572791132212
 21
178.4326462901093
 31
0.0
  0
LINE
  5
413
330
2
100
AcDbEntity
  8
0
100
AcDbLine
 10
202.9072791132216
 20
164.5326462901097
 30
0.0
 11
194.9072791132216
 21
164.5326462901099
 31
0.0
  0
LINE
  5
414
330
2
100
AcDbEntity
  8
0
100
AcDbLine
 10
201.4072791132217
 20
166.0326462901097
 30
0.0
 11
194.9072791132216
 21
166.0326462901097
 31
0.0
  0
LINE
  5
415
330
2
100
AcDbEntity
  8
0
100
AcDbLine
 10
202.9072791132216
 20
189.0326462901097
 30
0.0
 11
202.9072791132216
 21
164.5326462901097
 31
0.0
  0
LINE
  5
416
330
2
100
AcDbEntity
  8
0
100
AcDbLine
 10
194.9072791132216
 20
166.0326462901097
 30
0.0
 11
194.9072791132216
 21
164.5326462901099
 31
0.0
  0
LINE
  5
417
330
2
100
AcDbEntity
  8
03-01
100
AcDbLine
 10
201.4072791132217
 20
166.0326462901097
 30
0.0
 11
201.4072791132217
 21
165.532646290109
 31
0.0
  0
LINE
  5
418
330
2
100
AcDbEntity
  8
0
100
AcDbLine
 10
201.4072791132217
 20
189.0326462901097
 30
0.0
 11
201.4072791132217
 21
166.0326462901097
 31
0.0
  0
LINE
  5
419
330
2
100
AcDbEntity
  8
03-01
100
AcDbLine
 10
190.1572791132216
 20
173.9326462901096
 30
0.0
 11
201.4072791132217
 21
173.9326462901098
 31
0.0
  0
LINE
  5
41A
330
2
100
AcDbEntity
  8
03-01
100
AcDbLine
 10
118.9072791132212
 20
173.9326462901096
 30
0.0
 11
130.1572791132212
 21
173.9326462901096
 31
0.0
  0
LINE
  5
41B
330
2
100
AcDbEntity
  8
0
100
AcDbLine
 10
190.1572791132212
 20
172.4326462901095
 30
0.0
 11
201.4072791132217
 21
172.4326462901095
 31
0.0
  0
LINE
  5
41C
330
2
100
AcDbEntity
  8
0
100
AcDbLine
 10
118.9072791132212
 20
172.4326462901095
 30
0.0
 11
130.1572791132212
 21
172.4326462901095
 31
0.0
  0
LINE
  5
41D
330
2
100
AcDbEntity
  8
0
100
AcDbLine
 10
129.6572791132207
 20
162.5326462901097
 30
0.0
 11
190.6572791132207
 21
162.5326462901097
 31
0.0
  0
LINE
  5
41E
330
2
100
AcDbEntity
  8
0
100
AcDbLine
 10
129.6572791132207
 20
164.0326462901095
 30
0.0
 11
190.6572791132207
 21
164.0326462901097
 31
0.0
  0
LINE
  5
41F
330
2
100
AcDbEntity
  8
0
100
AcDbLine
 10
117.4072791132212
 20
189.0326462901095
 30
0.0
 11
202.9072791132216
 21
189.0326462901097
 31
0.0
  0
LINE
  5
420
330
2
100
AcDbEntity
  8
0
100
AcDbLine
 10
117.4072791132212
 20
164.5326462901095
 30
0.0
 11
125.4072791132212
 21
164.5326462901097
 31
0.0
  0
LINE
  5
421
330
2
100
AcDbEntity
  8
0
100
AcDbLine
 10
118.9072791132212
 20
166.0326462901094
 30
0.0
 11
125.4072791132212
 21
166.0326462901094
 31
0.0
  0
LINE
  5
422
330
2
100
AcDbEntity
  8
03-01
100
AcDbLine
 10
201.4072791132217
 20
179.5326462901096
 30
0.0
 11
202.9072791132216
 21
179.5326462901096
 31
0.0
  0
LINE
  5
423
330
2
100
AcDbEntity
  8
03-01
100
AcDbLine
 10
117.4072791132212
 20
179.5326462901094
 30
0.0
 11
118.9072791132212
 21
179.5326462901094
 31
0.0
  0
LINE
  5
424
330
2
100
AcDbEntity
  8
03-01
100
AcDbLine
 10
118.9072791132212
 20
187.5326462901094
 30
0.0
 11
201.4072791132217
 21
187.5326462901097
 31
0.0
  0
LINE
  5
425
330
2
100
AcDbEntity
  8
0
100
AcDbLine
 10
129.4072791132216
 20
166.0326462901094
 30
0.0
 11
129.4072791132212
 21
164.5326462901095
 31
0.0
  0
LINE
  5
426
330
2
100
AcDbEntity
  8
0
100
AcDbLine
 10
117.4072791132212
 20
189.0326462901095
 30
0.0
 11
117.4072791132212
 21
164.5326462901095
 31
0.0
  0
LINE
  5
427
330
2
100
AcDbEntity
  8
0
100
AcDbLine
 10
125.4072791132212
 20
166.0326462901094
 30
0.0
 11
125.4072791132212
 21
164.5326462901097
 31
0.0
  0
LINE
  5
428
330
2
100
AcDbEntity
  8
03-01
100
AcDbLine
 10
118.9072791132212
 20
166.0326462901094
 30
0.0
 11
118.9072791132212
 21
165.5326462901095
 31
0.0
  0
LINE
  5
429
330
2
100
AcDbEntity
  8
0
100
AcDbLine
 10
118.9072791132212
 20
189.0326462901095
 30
0.0
 11
118.9072791132212
 21
166.0326462901094
 31
0.0
  0
ARC
  5
42A
330
2
100
AcDbEntity
  8
09-01
100
AcDbCircle
 10
413.6657421717309
 20
252.9544768383825
 30
0.0
 40
4.5
100
AcDbArc
 50
249.4999999999873
 51
0.0
  0
CIRCLE
  5
42B
330
2
100
AcDbEntity
  8
03-01
100
AcDbCircle
 10
413.6657421717309
 20
252.9544768383825
 30
0.0
 40
4.0
  0
LINE
  5
42C
330
2
100
AcDbEntity
  8
05-01
100
AcDbLine
 10
418.6657421717309
 20
252.9544768383825
 30
0.0
 11
408.6657421717309
 21
252.9544768383825
 31
0.0
  0
LINE
  5
42D
330
2
100
AcDbEntity
  8
05-01
100
AcDbLine
 10
413.6657421717309
 20
257.9544768383826
 30
0.0
 11
413.6657421717309
 21
247.9544768383826
 31
0.0
  0
LINE
  5
42E
330
2
100
AcDbEntity
  8
0
100
AcDbLine
 10
368.6389020803422
 20
267.2744941151472
 30
0.0
 11
368.6389020803422
 21
250.2744941146957
 31
0.0
  0
DIMENSION
  5
42F
330
2
100
AcDbEntity
  8
0
100
AcDbDimension
280
     0
  2
*D2
 10
318.5784931009152
 20
453.7713703452101
 30
0.0
 11
314.0784931009151
 21
359.5213703452102
 31
0.0
 71
     5
 42
188.5
 73
     0
 74
     0
 75
     0
  3
Wagner$0
100
AcDbAlignedDimension
 13
343.6389020803422
 23
265.2713703452101
 33
0.0
 14
343.6389020803422
 24
453.7713703452101
 34
0.0
 50
90.0
100
AcDbRotatedDimension
1001
ACAD
1000
DSTYLE
1002
{
1070
    40
1040
2.0
1002
}
  0
LINE
  5
43C
330
2
100
AcDbEntity
  8
03-01
100
AcDbLine
 10
345.1389020803426
 20
299.7713703452115
 30
0.0
 11
346.1389020933816
 21
299.7713703452114
 31
0.0
  0
LINE
  5
43D
330
2
100
AcDbEntity
  8
03-01
100
AcDbLine
 10
345.1389020803426
 20
329.7713703452113
 30
0.0
 11
346.1389020933816
 21
329.7713703452113
 31
0.0
  0
LINE
  5
43E
330
2
100
AcDbEntity
  8
0
100
AcDbLine
 10
352.6389020933807
 20
451.7744941293054
 30
0.0
 11
353.1389020803422
 21
451.7744941293054
 31
0.0
  0
LINE
  5
43F
330
2
100
AcDbEntity
  8
0
100
AcDbLine
 10
347.6389020933807
 20
446.7744941293054
 30
0.0
 11
345.1389020803422
 21
446.7744941293054
 31
0.0
  0
ARC
  5
440
330
2
100
AcDbEntity
  8
0
100
AcDbCircle
 10
352.6389020933807
 20
446.7744941293054
 30
0.0
 40
5.0
100
AcDbArc
 50
90.0
 51
180.0
  0
LINE
  5
441
330
2
100
AcDbEntity
  8
03-01
100
AcDbLine
 10
346.1389020933816
 20
288.4858190980424
 30
0.0
 11
345.1389020803422
 21
288.4858190980424
 31
0.0
  0
LINE
  5
442
330
2
100
AcDbEntity
  8
0
100
AcDbLine
 10
346.1389020933816
 20
273.7713703452103
 30
0.0
 11
346.1389020933816
 21
273.2744941175691
 31
0.0
  0
LINE
  5
443
330
2
100
AcDbEntity
  8
03-01
100
AcDbLine
 10
346.1389020933816
 20
288.4858190980424
 30
0.0
 11
346.1389020933816
 21
273.7713703452103
 31
0.0
  0
LINE
  5
444
330
2
100
AcDbEntity
  8
03-01
100
AcDbLine
 10
355.9151796958049
 20
282.8414785518118
 30
0.0
 11
355.4151794273412
 21
281.9754533030251
 31
0.0
  0
ARC
  5
445
330
2
100
AcDbEntity
  8
0
100
AcDbCircle
 10
353.1389020803422
 20
432.4916372722197
 30
0.0
 40
5.0
100
AcDbArc
 50
3.20717947195393
 51
45.57299599920246
  0
ARC
  5
446
330
2
100
AcDbEntity
  8
03-01
100
AcDbCircle
 10
353.1389020803422
 20
432.4916372722197
 30
0.0
 40
5.0
100
AcDbArc
 50
0.0
 51
3.20717947195393
  0
ARC
  5
447
330
2
100
AcDbEntity
  8
0
100
AcDbCircle
 10
360.1389020803422
 20
439.6330657007625
 30
0.0
 40
5.0
100
AcDbArc
 50
134.4270040007975
 51
225.5729959992025
  0
ARC
  5
448
330
2
100
AcDbEntity
  8
0
100
AcDbCircle
 10
353.1389020803422
 20
446.7744941293054
 30
0.0
 40
5.0
100
AcDbArc
 50
314.4270040007974
 51
90.0
  0
LINE
  5
449
330
2
100
AcDbEntity
  8
03-01
100
AcDbLine
 10
358.1389020803417
 20
397.274494116267
 30
0.0
 11
358.1389020803422
 21
432.4916372722197
 31
0.0
  0
LINE
  5
44A
330
2
100
AcDbEntity
  8
0
100
AcDbLine
 10
345.1389020803422
 20
432.7713703452096
 30
0.0
 11
345.1389020803422
 21
446.7744941293054
 31
0.0
  0
LINE
  5
44B
330
2
100
AcDbEntity
  8
03-01
100
AcDbLine
 10
345.1389020803422
 20
287.9084690430451
 30
0.0
 11
345.1389020803422
 21
432.7713703452096
 31
0.0
  0
LINE
  5
44C
330
2
100
AcDbEntity
  8
03-01
100
AcDbLine
 10
346.1389020933807
 20
446.7744941293054
 30
0.0
 11
346.1389020933816
 21
288.4858190980424
 31
0.0
  0
ARC
  5
44D
330
2
100
AcDbEntity
  8
0
100
AcDbCircle
 10
352.1389020933816
 20
273.2744941175691
 30
0.0
 40
6.0
100
AcDbArc
 50
180.0
 51
269.9999999928609
  0
ARC
  5
44E
330
2
100
AcDbEntity
  8
0
100
AcDbCircle
 10
372.0780370091634
 20
250.7350717822128
 30
0.0000000000000001
 40
3.469838734934981
100
AcDbArc
 50
187.6278098949418
 51
271.0057160532157
  0
LINE
  5
44F
330
2
100
AcDbEntity
  8
0
100
AcDbLine
 10
372.1389401568267
 20
247.2657675791972
 30
0.0000000000000001
 11
375.1389020933812
 21
247.2744941143945
 31
0.0
  0
LINE
  5
450
330
2
100
AcDbEntity
  8
0
100
AcDbLine
 10
352.1389020926345
 20
267.2744941176314
 30
0.0
 11
368.6389020803422
 21
267.2744941151472
 31
0.0
  0
LINE
  5
451
330
2
100
AcDbEntity
  8
0
100
AcDbLine
 10
375.1389020933839
 20
290.5933505647137
 30
0.0
 11
375.1389020933889
 21
392.274494116267
 31
0.0
  0
LINE
  5
452
330
2
100
AcDbEntity
  8
03-01
100
AcDbLine
 10
375.138902093382
 20
262.5548299557912
 30
0.0
 11
375.1389020933839
 21
290.5933505647137
 31
0.0
  0
LINE
  5
453
330
2
100
AcDbEntity
  8
0
100
AcDbLine
 10
375.1389020933812
 20
247.2744941143945
 30
0.0
 11
375.138902093382
 21
262.5548299557912
 31
0.0
  0
LINE
  5
454
330
2
100
AcDbEntity
  8
03-01
100
AcDbLine
 10
374.1389020933821
 20
247.2744941145452
 30
0.0
 11
374.1389020933889
 21
392.274494116267
 31
0.0
  0
ARC
  5
455
330
2
100
AcDbEntity
  8
03-01
100
AcDbCircle
 10
363.1389020803417
 20
397.274494116267
 30
0.0
 40
5.0
100
AcDbArc
 50
180.0
 51
270.0
  0
LINE
  5
456
330
2
100
AcDbEntity
  8
03-01
100
AcDbLine
 10
368.1389020803422
 20
392.274494116267
 30
0.0
 11
363.1389020803417
 21
392.274494116267
 31
0.0
  0
LINE
  5
457
330
2
100
AcDbEntity
  8
0
100
AcDbLine
 10
375.1389020933889
 20
392.274494116267
 30
0.0
 11
368.1389020803422
 21
392.274494116267
 31
0.0
  0
LINE
  5
458
330
2
100
AcDbEntity
  8
03-01
100
AcDbLine
 10
346.6389020933816
 20
287.0424430117417
 30
0.0
 11
345.1389020803422
 21
287.9084690430451
 31
0.0
  0
LINE
  5
459
330
2
100
AcDbEntity
  8
03-01
100
AcDbLine
 10
355.4151794273412
 20
281.9754533030251
 30
0.0
 11
346.6389020933816
 21
287.0424430117417
 31
0.0
  0
LINE
  5
45A
330
2
100
AcDbEntity
  8
03-01
100
AcDbLine
 10
355.9151796958049
 20
282.8414785518118
 30
0.0
 11
346.1389020933816
 21
288.4858190980424
 31
0.0
  0
LINE
  5
45B
330
2
100
AcDbEntity
  8
03-01
100
AcDbLine
 10
366.6389020803422
 20
402.7713703452101
 30
0.0
 11
368.1389020803422
 21
402.7713703452101
 31
0.0
  0
LINE
  5
45C
330
2
100
AcDbEntity
  8
09-01
100
AcDbLine
 10
343.6389020803417
 20
432.7713703452096
 30
0.0
 11
368.1389020803422
 21
432.7713703452101
 31
0.0
  0
LINE
  5
45D
330
2
100
AcDbEntity
  8
09-01
100
AcDbLine
 10
368.1389020803422
 20
432.7713703452101
 30
0.0
 11
368.1389020803422
 21
295.7713703452105
 31
0.0
  0
LINE
  5
45E
330
2
100
AcDbEntity
  8
03-01
100
AcDbLine
 10
366.6389020803422
 20
432.7713703452101
 30
0.0
 11
366.6389020803422
 21
295.7713703452105
 31
0.0
  0
LINE
  5
45F
330
2
100
AcDbEntity
  8
03-01
100
AcDbLine
 10
360.6389020803417
 20
281.2713703452102
 30
0.0
 11
360.6389020803417
 21
276.2713703452101
 31
0.0
  0
LINE
  5
460
330
2
100
AcDbEntity
  8
03-01
100
AcDbLine
 10
356.6389020803417
 20
281.2713703452102
 30
0.0
 11
356.6389020803417
 21
276.2713703452101
 31
0.0
  0
LINE
  5
461
330
2
100
AcDbEntity
  8
03-01
100
AcDbLine
 10
360.6389020803417
 20
276.2713703452101
 30
0.0
 11
356.6389020803417
 21
276.2713703452101
 31
0.0
  0
LINE
  5
462
330
2
100
AcDbEntity
  8
03-01
100
AcDbLine
 10
360.6889020803419
 20
270.2713703452101
 30
0.0
 11
356.588902080342
 21
270.2713703452101
 31
0.0
  0
LINE
  5
463
330
2
100
AcDbEntity
  8
03-01
100
AcDbLine
 10
360.4978404957751
 20
279.2713703452101
 30
0.0
 11
360.6389020803417
 21
278.47137034521
 31
0.0
  0
LINE
  5
464
330
2
100
AcDbEntity
  8
03-01
100
AcDbLine
 10
356.6389020803417
 20
278.47137034521
 30
0.0
 11
360.6389020803417
 21
278.4713703452104
 31
0.0
  0
LINE
  5
465
330
2
100
AcDbEntity
  8
03-01
100
AcDbLine
 10
356.7799636649088
 20
279.2713703452101
 30
0.0
 11
360.4978404957751
 21
279.2713703452101
 31
0.0
  0
LINE
  5
466
330
2
100
AcDbEntity
  8
03-01
100
AcDbLine
 10
356.588902080342
 20
281.2713703452102
 30
0.0
 11
356.588902080342
 21
270.2713703452101
 31
0.0
  0
LINE
  5
467
330
2
100
AcDbEntity
  8
03-01
100
AcDbLine
 10
356.6389020803417
 20
278.47137034521
 30
0.0
 11
356.6389020803417
 21
270.2713703452101
 31
0.0
  0
LINE
  5
468
330
2
100
AcDbEntity
  8
03-01
100
AcDbLine
 10
356.7799636649088
 20
279.2713703452101
 30
0.0
 11
356.6389020803417
 21
278.47137034521
 31
0.0
  0
LINE
  5
469
330
2
100
AcDbEntity
  8
03-01
100
AcDbLine
 10
360.6889020803419
 20
281.2713703452102
 30
0.0
 11
360.6889020803419
 21
270.2713703452101
 31
0.0
  0
LINE
  5
46A
330
2
100
AcDbEntity
  8
03-01
100
AcDbLine
 10
360.6389020803417
 20
278.4713703452104
 30
0.0
 11
360.6389020803417
 21
270.2713703452101
 31
0.0
  0
LINE
  5
46B
330
2
100
AcDbEntity
  8
03-01
100
AcDbLine
 10
360.4978404957751
 20
285.2713703452101
 30
0.0
 11
360.6389020803417
 21
284.47137034521
 31
0.0
  0
ARC
  5
46C
330
2
100
AcDbEntity
  8
0
100
AcDbCircle
 10
364.268067204941
 20
270.5422036785432
 30
0.0
 40
3.770833333333238
100
AcDbArc
 50
240.1582758353184
 51
299.8417241646816
  0
ARC
  5
46D
330
2
100
AcDbEntity
  8
0
100
AcDbCircle
 10
358.6389020803422
 20
281.1047036785427
 30
0.0
 40
14.33333333333294
100
AcDbArc
 50
254.8218210620483
 51
285.1781789379516
  0
ARC
  5
46E
330
2
100
AcDbEntity
  8
09-01
100
AcDbCircle
 10
353.0097369557434
 20
270.5422036785432
 30
0.0
 40
3.770833333333238
100
AcDbArc
 50
240.1582758353184
 51
299.8417241646816
  0
ARC
  5
46F
330
2
100
AcDbEntity
  8
03-01
100
AcDbCircle
 10
364.268067204941
 20
267.0005370118766
 30
0.0
 40
3.770833333333238
100
AcDbArc
 50
60.1582758353184
 51
119.8417241646816
  0
ARC
  5
470
330
2
100
AcDbEntity
  8
03-01
100
AcDbCircle
 10
358.6389020803422
 20
256.4380370118771
 30
0.0
 40
14.33333333333294
100
AcDbArc
 50
74.82182106204833
 51
105.1781789379516
  0
ARC
  5
471
330
2
100
AcDbEntity
  8
03-01
100
AcDbCircle
 10
353.0097369557434
 20
267.0005370118766
 30
0.0
 40
3.770833333333238
100
AcDbArc
 50
60.1582758353184
 51
119.8417241646816
  0
LINE
  5
472
330
2
100
AcDbEntity
  8
03-01
100
AcDbLine
 10
362.3916788300749
 20
267.2744941163549
 30
0.0
 11
362.3916788300749
 21
270.2713703452101
 31
0.0
  0
LINE
  5
473
330
2
100
AcDbEntity
  8
0
100
AcDbLine
 10
362.3916788300749
 20
267.2713703452097
 30
0.0
 11
362.3916788300749
 21
267.2744941163549
 31
0.0
  0
LINE
  5
474
330
2
100
AcDbEntity
  8
03-01
100
AcDbLine
 10
354.8861253306095
 20
267.2744941172894
 30
0.0
 11
354.8861253306095
 21
270.2713703452101
 31
0.0
  0
LINE
  5
475
330
2
100
AcDbEntity
  8
0
100
AcDbLine
 10
354.8861253306095
 20
267.2713703452101
 30
0.0
 11
354.8861253306095
 21
267.2744941172894
 31
0.0
  0
LINE
  5
476
330
2
100
AcDbEntity
  8
03-01
100
AcDbLine
 10
365.6444555798071
 20
270.7713703452101
 30
0.0
 11
366.1444555798071
 21
270.2713703452101
 31
0.0
  0
LINE
  5
477
330
2
100
AcDbEntity
  8
03-01
100
AcDbLine
 10
366.1444555798071
 20
267.2744941158878
 30
0.0
 11
366.1444555798071
 21
270.2713703452101
 31
0.0
  0
LINE
  5
478
330
2
100
AcDbEntity
  8
0
100
AcDbLine
 10
366.1444555798071
 20
267.2713703452101
 30
0.0
 11
366.1444555798071
 21
267.2744941158878
 31
0.0
  0
LINE
  5
479
330
2
100
AcDbEntity
  8
03-01
100
AcDbLine
 10
351.6333485808768
 20
270.7713703452101
 30
0.0
 11
351.1333485808768
 21
270.2713703452101
 31
0.0
  0
LINE
  5
47A
330
2
100
AcDbEntity
  8
03-01
100
AcDbLine
 10
351.1333485808764
 20
267.4664558410955
 30
0.0
 11
351.1333485808768
 21
270.2713703452101
 31
0.0
  0
LINE
  5
47B
330
2
100
AcDbEntity
  8
0
100
AcDbLine
 10
351.1333485808764
 20
267.2713703452101
 30
0.0
 11
351.1333485808764
 21
267.4664558410955
 31
0.0
  0
LINE
  5
47C
330
2
100
AcDbEntity
  8
03-01
100
AcDbLine
 10
354.6389020803417
 20
280.47137034521
 30
0.0
 11
362.6389020803417
 21
280.47137034521
 31
0.0
  0
LINE
  5
47D
330
2
100
AcDbEntity
  8
03-01
100
AcDbLine
 10
361.8389020803415
 20
281.2713703452102
 30
0.0
 11
362.6389020803417
 21
280.47137034521
 31
0.0
  0
LINE
  5
47E
330
2
100
AcDbEntity
  8
03-01
100
AcDbLine
 10
362.6389020803417
 20
270.7713703452101
 30
0.0
 11
362.6389020803417
 21
280.47137034521
 31
0.0
  0
LINE
  5
47F
330
2
100
AcDbEntity
  8
03-01
100
AcDbLine
 10
362.6389020803417
 20
265.2713703452101
 30
0.0
 11
362.6389020803417
 21
266.7713703452101
 31
0.0
  0
LINE
  5
480
330
2
100
AcDbEntity
  8
03-01
100
AcDbLine
 10
354.6389020803417
 20
270.7713703452101
 30
0.0
 11
354.6389020803417
 21
280.47137034521
 31
0.0
  0
LINE
  5
481
330
2
100
AcDbEntity
  8
03-01
100
AcDbLine
 10
354.6389020803417
 20
265.2713703452101
 30
0.0
 11
354.6389020803417
 21
266.7713703452097
 31
0.0
  0
ARC
  5
482
330
2
100
AcDbEntity
  8
09-01
100
AcDbCircle
 10
362.9690290992639
 20
262.6047036785436
 30
0.0
 40
2.333333333333545
100
AcDbArc
 50
231.78678929828
 51
308.2132107017198
  0
ARC
  5
483
330
2
100
AcDbEntity
  8
09-01
100
AcDbCircle
 10
358.6389020803417
 20
268.8547036785436
 30
0.0
 40
8.583333333333548
100
AcDbArc
 50
250.3471403683219
 51
289.652859631648
  0
ARC
  5
484
330
2
100
AcDbEntity
  8
09-01
100
AcDbCircle
 10
354.3087750614195
 20
262.6047036785436
 30
0.0
 40
2.333333333333545
100
AcDbArc
 50
231.7867892982544
 51
308.2132107017455
  0
ARC
  5
485
330
2
100
AcDbEntity
  8
09-01
100
AcDbCircle
 10
362.9690290992639
 20
262.9380370118767
 30
0.0
 40
2.333333333333545
100
AcDbArc
 50
51.78678929828009
 51
128.2132107017198
  0
ARC
  5
486
330
2
100
AcDbEntity
  8
09-01
100
AcDbCircle
 10
358.6389020803417
 20
256.6880370118767
 30
0.0
 40
8.583333333333548
100
AcDbArc
 50
70.347140368322
 51
109.652859631648
  0
ARC
  5
487
330
2
100
AcDbEntity
  8
09-01
100
AcDbCircle
 10
354.3087750614195
 20
262.9380370118767
 30
0.0
 40
2.333333333333545
100
AcDbArc
 50
51.78678929828009
 51
128.2132107017198
  0
LINE
  5
488
330
2
100
AcDbEntity
  8
09-01
100
AcDbLine
 10
364.412404772238
 20
260.7713703452101
 30
0.0
 11
363.912404772238
 21
260.2713703452101
 31
0.0
  0
LINE
  5
489
330
2
100
AcDbEntity
  8
09-01
100
AcDbLine
 10
353.3653993884454
 20
260.2713703452097
 30
0.0
 11
363.912404772238
 21
260.2713703452101
 31
0.0
  0
LINE
  5
48A
330
2
100
AcDbEntity
  8
09-01
100
AcDbLine
 10
363.912404772238
 20
265.2713703452101
 30
0.0
 11
364.412404772238
 21
264.7713703452101
 31
0.0
  0
LINE
  5
48B
330
2
100
AcDbEntity
  8
09-01
100
AcDbLine
 10
364.412404772238
 20
260.7713703452101
 30
0.0
 11
364.412404772238
 21
264.7713703452101
 31
0.0
  0
LINE
  5
48C
330
2
100
AcDbEntity
  8
09-01
100
AcDbLine
 10
353.3653993884454
 20
260.2713703452097
 30
0.0
 11
352.8653993884454
 21
260.7713703452097
 31
0.0
  0
LINE
  5
48D
330
2
100
AcDbEntity
  8
09-01
100
AcDbLine
 10
352.8653993884454
 20
260.7713703452097
 30
0.0
 11
352.8653993884454
 21
264.7713703452101
 31
0.0
  0
LINE
  5
48E
330
2
100
AcDbEntity
  8
09-01
100
AcDbLine
 10
361.5256534262899
 20
260.7713703452097
 30
0.0
 11
361.5256534262899
 21
264.7713703452101
 31
0.0
  0
LINE
  5
48F
330
2
100
AcDbEntity
  8
09-01
100
AcDbLine
 10
355.7521507343936
 20
260.7713703452097
 30
0.0
 11
355.7521507343936
 21
264.7713703452101
 31
0.0
  0
LINE
  5
490
330
2
100
AcDbEntity
  8
09-01
100
AcDbLine
 10
350.6389020803417
 20
250.7713703452101
 30
0.0
 11
366.6389020803417
 21
250.7713703452101
 31
0.0
  0
LINE
  5
491
330
2
100
AcDbEntity
  8
09-01
100
AcDbLine
 10
350.6389020803417
 20
248.467347281966
 30
0.0
 11
366.6389020803417
 21
248.467347281966
 31
0.0
  0
ARC
  5
492
330
2
100
AcDbEntity
  8
09-01
100
AcDbCircle
 10
365.1389020803417
 20
252.7713703452101
 30
0.0
 40
1.0
100
AcDbArc
 50
180.0
 51
270.0
  0
ARC
  5
493
330
2
100
AcDbEntity
  8
09-01
100
AcDbCircle
 10
351.6389020803417
 20
248.467347281966
 30
0.0
 40
1.0
100
AcDbArc
 50
180.0
 51
250.6088272783308
  0
ARC
  5
494
330
2
100
AcDbEntity
  8
09-01
100
AcDbCircle
 10
365.6389020803417
 20
248.467347281966
 30
0.0
 40
1.0
100
AcDbArc
 50
289.3911727216691
 51
0.0
  0
ARC
  5
495
330
2
100
AcDbEntity
  8
09-01
100
AcDbCircle
 10
358.6389020803417
 20
268.3547036785436
 30
0.0
 40
22.08333333333337
100
AcDbArc
 50
250.6088272783308
 51
289.3911727216691
  0
ARC
  5
496
330
2
100
AcDbEntity
  8
09-01
100
AcDbCircle
 10
352.1389020803417
 20
252.7713703452101
 30
0.0
 40
1.0
100
AcDbArc
 50
270.0
 51
0.0
  0
LINE
  5
497
330
2
100
AcDbEntity
  8
09-01
100
AcDbLine
 10
351.6389020803417
 20
251.7713703452101
 30
0.0
 11
365.6389020803417
 21
251.7713703452101
 31
0.0
  0
LINE
  5
498
330
2
100
AcDbEntity
  8
09-01
100
AcDbLine
 10
352.8653993884454
 20
264.7713703452101
 30
0.0
 11
353.3653993884454
 21
265.2713703452101
 31
0.0
  0
LINE
  5
499
330
2
100
AcDbEntity
  8
03-01
100
AcDbLine
 10
354.6389020803417
 20
280.47137034521
 30
0.0
 11
355.4389020803419
 21
281.2713703452102
 31
0.0
  0
LINE
  5
49A
330
2
100
AcDbEntity
  8
03-01
100
AcDbLine
 10
356.6389020803417
 20
284.47137034521
 30
0.0
 11
360.6389020803417
 21
284.4713703452104
 31
0.0
  0
LINE
  5
49B
330
2
100
AcDbEntity
  8
03-01
100
AcDbLine
 10
356.7799636649088
 20
285.2713703452101
 30
0.0
 11
360.4978404957751
 21
285.2713703452101
 31
0.0
  0
LINE
  5
49C
330
2
100
AcDbEntity
  8
03-01
100
AcDbLine
 10
355.4389020803419
 20
281.2713703452102
 30
0.0
 11
361.8389020803415
 21
281.2713703452102
 31
0.0
  0
LINE
  5
49D
330
2
100
AcDbEntity
  8
03-01
100
AcDbLine
 10
351.6333485808768
 20
270.7713703452101
 30
0.0
 11
365.6444555798071
 21
270.7713703452101
 31
0.0
  0
LINE
  5
49E
330
2
100
AcDbEntity
  8
09-01
100
AcDbLine
 10
351.1333485808764
 20
267.2713703452101
 30
0.0
 11
351.6333485808764
 21
266.7713703452101
 31
0.0
  0
LINE
  5
49F
330
2
100
AcDbEntity
  8
0
100
AcDbLine
 10
366.1444555798071
 20
267.2713703452101
 30
0.0
 11
365.6444555798071
 21
266.7713703452101
 31
0.0
  0
LINE
  5
4A0
330
2
100
AcDbEntity
  8
09-01
100
AcDbLine
 10
351.6333485808764
 20
266.7713703452101
 30
0.0
 11
365.6444555798071
 21
266.7713703452101
 31
0.0
  0
LINE
  5
4A1
330
2
100
AcDbEntity
  8
09-01
100
AcDbLine
 10
353.3653993884454
 20
265.2713703452101
 30
0.0
 11
363.912404772238
 21
265.2713703452101
 31
0.0
  0
LINE
  5
4A2
330
2
100
AcDbEntity
  8
09-01
100
AcDbLine
 10
353.6389020803417
 20
260.2713703452101
 30
0.0
 11
363.6389020803417
 21
260.2713703452101
 31
0.0
  0
ARC
  5
4A3
330
2
100
AcDbEntity
  8
09-01
100
AcDbCircle
 10
353.6389020803417
 20
259.7713703452101
 30
0.0
 40
0.5
100
AcDbArc
 50
90.0
 51
180.0
  0
LINE
  5
4A4
330
2
100
AcDbEntity
  8
09-01
100
AcDbLine
 10
353.1389020803417
 20
259.7713703452101
 30
0.0
 11
353.1389020803417
 21
252.7713703452101
 31
0.0
  0
ARC
  5
4A5
330
2
100
AcDbEntity
  8
09-01
100
AcDbCircle
 10
363.6389020803417
 20
259.7713703452101
 30
0.0
 40
0.5
100
AcDbArc
 50
0.0
 51
90.0
  0
LINE
  5
4A6
330
2
100
AcDbEntity
  8
09-01
100
AcDbLine
 10
364.1389020803417
 20
259.7713703452101
 30
0.0
 11
364.1389020803417
 21
252.7713703452101
 31
0.0
  0
ARC
  5
4A7
330
2
100
AcDbEntity
  8
09-01
100
AcDbCircle
 10
351.6389020803417
 20
250.7713703452101
 30
0.0
 40
1.0
100
AcDbArc
 50
90.0
 51
180.0
  0
LINE
  5
4A8
330
2
100
AcDbEntity
  8
09-01
100
AcDbLine
 10
350.6389020803417
 20
250.7713703452101
 30
0.0
 11
350.6389020803417
 21
248.467347281966
 31
0.0
  0
ARC
  5
4A9
330
2
100
AcDbEntity
  8
09-01
100
AcDbCircle
 10
365.6389020803417
 20
250.7713703452101
 30
0.0
 40
1.0
100
AcDbArc
 50
0.0
 51
90.0
  0
LINE
  5
4AA
330
2
100
AcDbEntity
  8
09-01
100
AcDbLine
 10
366.6389020803417
 20
250.7713703452101
 30
0.0
 11
366.6389020803417
 21
248.467347281966
 31
0.0
  0
LINE
  5
4AB
330
2
100
AcDbEntity
  8
03-01
100
AcDbLine
 10
357.1389020803422
 20
276.2713703452101
 30
0.0
 11
357.1389020803417
 21
260.2713703452101
 31
0.0
  0
LINE
  5
4AC
330
2
100
AcDbEntity
  8
03-01
100
AcDbLine
 10
360.1389020803417
 20
276.2713703452101
 30
0.0
 11
360.1389020803417
 21
260.2713703452101
 31
0.0
  0
LINE
  5
4AD
330
2
100
AcDbEntity
  8
0
 62
     4
100
AcDbLine
 10
355.2389020803421
 20
266.7713703452101
 30
0.0
 11
355.2389020803421
 21
265.2713703452101
 31
0.0
  0
LINE
  5
4AE
330
2
100
AcDbEntity
  8
0
 62
     4
100
AcDbLine
 10
355.2389020803421
 20
281.0713703452099
 30
0.0
 11
355.2389020803421
 21
270.7713703452101
 31
0.0
  0
LINE
  5
4AF
330
2
100
AcDbEntity
  8
0
 62
     4
100
AcDbLine
 10
362.0389020803423
 20
266.7713703452101
 30
0.0
 11
362.0389020803423
 21
265.2713703452101
 31
0.0
  0
LINE
  5
4B0
330
2
100
AcDbEntity
  8
03-01
 62
     4
100
AcDbLine
 10
362.0389020803418
 20
281.0713703452099
 30
0.0
 11
362.0389020803423
 21
270.7713703452101
 31
0.0
  0
LINE
  5
4B1
330
2
100
AcDbEntity
  8
03-01
100
AcDbLine
 10
356.6389020803417
 20
284.47137034521
 30
0.0
 11
356.6389020803417
 21
281.2713703452102
 31
0.0
  0
LINE
  5
4B2
330
2
100
AcDbEntity
  8
03-01
100
AcDbLine
 10
356.7799636649088
 20
285.2713703452101
 30
0.0
 11
356.6389020803417
 21
284.47137034521
 31
0.0
  0
LINE
  5
4B3
330
2
100
AcDbEntity
  8
03-01
100
AcDbLine
 10
360.6389020803417
 20
284.4713703452104
 30
0.0
 11
360.6389020803417
 21
281.2713703452102
 31
0.0
  0
LINE
  5
4B4
330
2
100
AcDbEntity
  8
05-01
100
AcDbLine
 10
358.6389020803417
 20
286.2356362076567
 30
0.0
 11
358.6389020803417
 21
245.2713703452101
 31
0.0
  0
LINE
  5
4B5
330
2
100
AcDbEntity
  8
09-01
100
AcDbLine
 10
358.7355478023137
 20
443.7765483155478
 30
0.0
 11
360.2346340428421
 21
443.8288975606016
 31
0.0
  0
LINE
  5
4B6
330
2
100
AcDbEntity
  8
09-01
100
AcDbLine
 10
343.6389020803422
 20
265.2713703452101
 30
0.0
 11
368.6389020803422
 21
265.2713703452101
 31
0.0
  0
LINE
  5
4B7
330
2
100
AcDbEntity
  8
03-01
100
AcDbLine
 10
367.1389020803417
 20
272.7713703452101
 30
0.0
 11
368.6389020803422
 21
272.7713703452101
 31
0.0
  0
LINE
  5
4B8
330
2
100
AcDbEntity
  8
09-01
100
AcDbLine
 10
343.6389020803422
 20
273.7713703452106
 30
0.0
 11
345.1389020803422
 21
273.7713703452106
 31
0.0
  0
LINE
  5
4B9
330
2
100
AcDbEntity
  8
09-01
100
AcDbLine
 10
345.1389020803422
 20
266.7713703452101
 30
0.0
 11
367.1389020803417
 21
266.7713703452101
 31
0.0
  0
LINE
  5
4BA
330
2
100
AcDbEntity
  8
09-01
100
AcDbLine
 10
343.6389020803422
 20
453.7713703452101
 30
0.0
 11
343.6389020803422
 21
265.2713703452101
 31
0.0
  0
LINE
  5
4BB
330
2
100
AcDbEntity
  8
09-01
100
AcDbLine
 10
359.8874352425528
 20
453.7713703452101
 30
0.0
 11
360.2346340428421
 21
443.8288975606016
 31
0.0
  0
LINE
  5
4BC
330
2
100
AcDbEntity
  8
09-01
100
AcDbLine
 10
358.4389020803419
 20
452.2713703452101
 30
0.0
 11
358.7355478023137
 21
443.7765483155478
 31
0.0
  0
LINE
  5
4BD
330
2
100
AcDbEntity
  8
09-01
100
AcDbLine
 10
368.6389020803422
 20
267.2744941155772
 30
0.0
 11
368.6389020803422
 21
265.2713703452101
 31
0.0
  0
LINE
  5
4BE
330
2
100
AcDbEntity
  8
03-01
100
AcDbLine
 10
368.6389020803422
 20
272.7713703452101
 30
0.0
 11
368.6389020803422
 21
267.2744941155772
 31
0.0
  0
LINE
  5
4BF
330
2
100
AcDbEntity
  8
09-01
100
AcDbLine
 10
367.1389020803417
 20
267.274494115764
 30
0.0
 11
367.1389020803417
 21
266.7713703452101
 31
0.0
  0
LINE
  5
4C0
330
2
100
AcDbEntity
  8
03-01
100
AcDbLine
 10
367.1389020803417
 20
272.7713703452101
 30
0.0
 11
367.1389020803417
 21
267.274494115764
 31
0.0
  0
LINE
  5
4C1
330
2
100
AcDbEntity
  8
09-01
100
AcDbLine
 10
345.1389020803422
 20
273.7713703452106
 30
0.0
 11
345.1389020803422
 21
266.7713703452101
 31
0.0
  0
LINE
  5
4C2
330
2
100
AcDbEntity
  8
03-01
100
AcDbLine
 10
345.1389020803426
 20
432.7713703452096
 30
0.0
 11
345.1389020803422
 21
273.7713703452106
 31
0.0
  0
LINE
  5
4C3
330
2
100
AcDbEntity
  8
09-01
100
AcDbLine
 10
345.1389020803422
 20
452.2713703452101
 30
0.0
 11
345.1389020803426
 21
432.7713703452096
 31
0.0
  0
LINE
  5
4C4
330
2
100
AcDbEntity
  8
09-01
100
AcDbLine
 10
343.6389020803422
 20
453.7713703452101
 30
0.0
 11
359.8874352425528
 21
453.7713703452101
 31
0.0
  0
LINE
  5
4C5
330
2
100
AcDbEntity
  8
09-01
100
AcDbLine
 10
345.1389020803422
 20
452.2713703452101
 30
0.0
 11
358.4389020803419
 21
452.2713703452101
 31
0.0
  0
INSERT
  5
4C6
330
2
100
AcDbEntity
  8
05-01
100
AcDbBlockReference
  2
Sensor-Betätigungsmodul
 10
378.4389020933827
 20
350.6744941143991
 30
0.0
  0
ENDSEC
  0
SECTION
  2
OBJECTS
  0
DICTIONARY
  5
B
330
0
100
AcDbDictionary
281
     1
  3
ACAD_COLOR
350
4E
  3
ACAD_GROUP
350
3B
  3
ACAD_LAYOUT
350
18
  3
ACAD_MATERIAL
350
D
  3
ACAD_MLEADERSTYLE
350
51
  3
ACAD_MLINESTYLE
350
3C
  3
ACAD_PLOTSETTINGS
350
3D
  3
ACAD_PLOTSTYLENAME
350
A
  3
ACAD_SCALELIST
350
4F
  3
ACAD_TABLESTYLE
350
50
  3
ACAD_VISUALSTYLE
350
31
  3
ACDB_RECOMPOSE_DATA
350
51D
  3
AcDbVariableDictionary
350
513
  0
DICTIONARY
  5
32
330
2E
100
AcDbDictionary
280
     1
281
     1
  0
DICTIONARY
  5
21
330
20
100
AcDbDictionary
280
     1
281
     1
  3
ACAD_LAYERFILTERS
360
22
  3
ACAD_LAYERSTATES
360
23
  3
ACLYDICTIONARY
360
24
  0
DICTIONARY
  5
7
330
6
100
AcDbDictionary
280
     1
281
     1
  3
ADSK_XREC_LAYER_RECONCILED
360
8
  0
DICTIONARY
  5
27D
330
27C
100
AcDbDictionary
280
     1
281
     1
  3
ADSK_XREC_LAYER_RECONCILED
360
27E
  0
DICTIONARY
  5
2BD
330
2BC
100
AcDbDictionary
280
     1
281
     1
  3
ADSK_XREC_LAYER_RECONCILED
360
2BE
  0
DICTIONARY
  5
2A7
330
2A6
100
AcDbDictionary
280
     1
281
     1
  3
ADSK_XREC_LAYER_RECONCILED
360
2A8
  0
DICTIONARY
  5
282
330
281
100
AcDbDictionary
280
     1
281
     1
  3
ADSK_XREC_LAYER_RECONCILED
360
283
  0
DICTIONARY
  5
97
330
96
100
AcDbDictionary
280
     1
281
     1
  0
DICTIONARY
  5
160
330
15F
100
AcDbDictionary
280
     1
281
     1
  0
DICTIONARY
  5
7A
330
79
100
AcDbDictionary
280
     1
281
     1
  0
DICTIONARY
  5
3
330
2
100
AcDbDictionary
280
     1
281
     1
  3
ACAD_SORTENTS
360
512
  0
DICTIONARY
  5
278
330
277
100
AcDbDictionary
280
     1
281
     1
  3
ACAD_SORTENTS
360
50E
  0
DICTIONARY
  5
3CB
330
3CA
100
AcDbDictionary
280
     1
281
     1
  3
ACAD_SORTENTS
360
510
  0
DICTIONARY
  5
31B
330
31A
100
AcDbDictionary
280
     1
281
     1
  3
ACAD_SORTENTS
360
511
  0
DICTIONARY
  5
110
330
10F
100
AcDbDictionary
280
     1
281
     1
  3
ACAD_SORTENTS
360
50F
  0
DICTIONARY
  5
4E
102
{ACAD_REACTORS
330
B
102
}
330
B
100
AcDbDictionary
281
     1
  0
DICTIONARY
  5
3B
102
{ACAD_REACTORS
330
B
102
}
330
B
100
AcDbDictionary
281
     1
  0
DICTIONARY
  5
18
102
{ACAD_REACTORS
330
B
102
}
330
B
100
AcDbDictionary
281
     1
  3
Layout1
350
1F
  3
Model
350
17
  0
DICTIONARY
  5
D
102
{ACAD_REACTORS
330
B
102
}
330
B
100
AcDbDictionary
281
     1
  3
ByBlock
350
46
  3
ByLayer
350
3E
  3
Global
350
C
  0
DICTIONARY
  5
51
102
{ACAD_REACTORS
330
B
102
}
330
B
100
AcDbDictionary
281
     1
  0
DICTIONARY
  5
3C
102
{ACAD_REACTORS
330
B
102
}
330
B
100
AcDbDictionary
281
     1
  3
Standard
350
52
  0
DICTIONARY
  5
3D
102
{ACAD_REACTORS
330
B
102
}
330
B
100
AcDbDictionary
281
     1
  0
ACDBDICTIONARYWDFLT
  5
A
102
{ACAD_REACTORS
330
B
102
}
330
B
100
AcDbDictionary
281
     1
  3
Normal
350
9
100
AcDbDictionaryWithDefault
340
9
  0
DICTIONARY
  5
4F
102
{ACAD_REACTORS
330
B
102
}
330
B
100
AcDbDictionary
281
     1
  3
A0
350
57
  3
A1
350
58
  3
A2
350
59
  3
A3
350
5A
  3
A4
350
5B
  3
A5
350
5C
  3
A6
350
5D
  3
A7
350
5E
  3
A8
350
5F
  3
A9
350
60
  3
B0
350
61
  3
B1
350
62
  3
B2
350
63
  3
B3
350
64
  3
B4
350
65
  3
B5
350
66
  3
B6
350
67
  3
B7
350
68
  3
B8
350
69
  3
B9
350
6A
  3
C0
350
6B
  3
C1
350
6C
  3
C2
350
6D
  3
C3
350
6E
  3
C4
350
6F
  3
C5
350
70
  3
C6
350
71
  3
C7
350
72
  3
C8
350
73
  3
C9
350
74
  3
D0
350
75
  3
D1
350
76
  3
D2
350
77
  0
DICTIONARY
  5
50
102
{ACAD_REACTORS
330
B
102
}
330
B
100
AcDbDictionary
281
     1
  3
Standard
350
53
  0
DICTIONARY
  5
31
102
{ACAD_REACTORS
330
B
102
}
330
B
100
AcDbDictionary
281
     1
  3
2dWireframe
350
30
  3
3dWireframe
350
56
  3
Realistic
350
55
  0
XRECORD
  5
51D
102
{ACAD_REACTORS
330
B
102
}
330
B
100
AcDbXrecord
280
     1
 90
        1
330
53
  0
DICTIONARY
  5
513
102
{ACAD_REACTORS
330
B
102
}
330
B
100
AcDbDictionary
281
     1
  3
CANNOSCALE
350
517
  3
CMLEADERSTYLE
350
515
  3
CTABLESTYLE
350
514
  3
LAYEREVAL
350
519
  3
LAYERNOTIFY
350
51A
  3
LIGHTINGUNITS
350
518
  3
MSLTSCALE
350
516
  0
DICTIONARY
  5
22
102
{ACAD_REACTORS
330
21
102
}
330
21
100
AcDbDictionary
281
     1
  0
DICTIONARY
  5
23
102
{ACAD_REACTORS
330
21
102
}
330
21
100
AcDbDictionary
281
     1
  0
DICTIONARY
  5
24
102
{ACAD_REACTORS
330
21
102
}
330
21
100
AcDbDictionary
281
     1
1001
ACAD
1000
<All
  0
XRECORD
  5
8
102
{ACAD_REACTORS
330
7
102
}
330
7
100
AcDbXrecord
280
     1
290
     1
  0
XRECORD
  5
27E
102
{ACAD_REACTORS
330
27D
102
}
330
27D
100
AcDbXrecord
280
     1
290
     1
  0
XRECORD
  5
2BE
102
{ACAD_REACTORS
330
2BD
102
}
330
2BD
100
AcDbXrecord
280
     1
290
     1
  0
XRECORD
  5
2A8
102
{ACAD_REACTORS
330
2A7
102
}
330
2A7
100
AcDbXrecord
280
     1
290
     1
  0
XRECORD
  5
283
102
{ACAD_REACTORS
330
282
102
}
330
282
100
AcDbXrecord
280
     1
290
     1
  0
SORTENTSTABLE
  5
512
102
{ACAD_REACTORS
330
3
102
}
330
3
100
AcDbSortentsTable
330
2
331
387
  5
403
331
383
  5
407
331
3FD
  5
38D
331
37F
  5
40B
331
3BE
  5
3BA
331
3F9
  5
391
331
3BA
  5
3BE
331
3F5
  5
395
331
37B
  5
40F
331
1DF
  5
497
331
3F1
  5
399
331
30D
  5
465
331
1DB
  5
49B
331
476
  5
200
331
344
  5
452
331
472
  5
204
331
340
  5
456
331
46E
  5
208
331
4AD
  5
1C9
331
46A
  5
20C
331
4A9
  5
1CD
331
377
  5
413
331
3B6
  5
3C2
331
373
  5
417
331
3B2
  5
3C6
331
3ED
  5
3A9
331
42C
  5
35E
331
428
  5
362
331
36F
  5
41B
331
3AE
  5
3E8
331
1D7
  5
49F
331
3E9
  5
3AD
331
3AA
  5
3EC
331
1D3
  5
4A3
331
20E
  5
468
331
424
  5
366
331
36B
  5
41F
331
1CF
  5
4A7
331
20A
  5
46C
331
420
  5
36A
331
1CB
  5
4AB
331
206
  5
470
331
466
  5
300
331
4A5
  5
1D1
331
202
  5
474
331
4A1
  5
1D5
331
462
  5
310
331
49D
  5
1D9
331
45E
  5
314
331
45A
  5
318
331
499
  5
1DD
331
E4
  5
4C5
331
15E
  5
4C1
331
367
  5
423
331
363
  5
427
331
41C
  5
36E
331
418
  5
372
331
35F
  5
42B
331
1C7
  5
4AF
331
1C3
  5
4B3
331
1FE
  5
478
331
414
  5
376
331
35B
  5
42F
331
39A
  5
3F0
331
1BF
  5
4B7
331
1FA
  5
47C
331
410
  5
37A
331
1BB
  5
4BB
331
1F6
  5
480
331
456
  5
340
331
495
  5
1E1
331
1F2
  5
484
331
452
  5
344
331
491
  5
1E5
331
48D
  5
1E9
331
44E
  5
348
331
44A
  5
34C
331
489
  5
1ED
331
4C4
  5
F4
331
4C0
  5
1B6
331
396
  5
3F4
331
357
  5
43F
331
353
  5
443
331
392
  5
3F8
331
40C
  5
37E
331
408
  5
382
331
34F
  5
447
331
38E
  5
3FC
331
1B7
  5
4BF
331
3C9
  5
3AF
331
3C5
  5
3B3
331
1EE
  5
488
331
404
  5
386
331
34B
  5
44B
331
38A
  5
400
331
3C1
  5
3B7
331
1EA
  5
48C
331
400
  5
38A
331
1E6
  5
490
331
318
  5
45A
331
446
  5
350
331
485
  5
1F1
331
1E2
  5
494
331
314
  5
45E
331
4BC
  5
1BA
331
442
  5
354
331
481
  5
1F5
331
310
  5
462
331
47D
  5
1F9
331
4B8
  5
1BE
331
43E
  5
358
331
479
  5
1FD
331
4B4
  5
1C2
331
4B0
  5
1C6
331
386
  5
404
331
382
  5
408
331
3FC
  5
38E
331
3F8
  5
392
331
37E
  5
40C
331
3BD
  5
3BB
331
3B9
  5
3BF
331
3F4
  5
396
331
37A
  5
410
331
1DE
  5
498
331
3F0
  5
39A
331
1DA
  5
49C
331
475
  5
201
331
347
  5
44F
331
343
  5
453
331
471
  5
205
331
300
  5
466
331
46D
  5
209
331
4AC
  5
1CA
331
469
  5
20D
331
4A8
  5
1CE
331
376
  5
414
331
3B5
  5
3C3
331
42F
  5
35B
331
42B
  5
35F
331
372
  5
418
331
3B1
  5
3C7
331
3EC
  5
3AA
331
427
  5
363
331
36E
  5
41C
331
3AD
  5
3E9
331
1D6
  5
4A0
331
3E8
  5
3AE
331
3A9
  5
3ED
331
1D2
  5
4A4
331
20D
  5
469
331
423
  5
367
331
36A
  5
420
331
1CE
  5
4A8
331
33F
  5
457
331
209
  5
46D
331
1CA
  5
4AC
331
205
  5
471
331
201
  5
475
331
465
  5
30D
331
4A4
  5
1D2
331
4A0
  5
1D6
331
461
  5
311
331
45D
  5
315
331
49C
  5
1DA
331
459
  5
319
331
498
  5
1DE
331
366
  5
424
331
41F
  5
36B
331
362
  5
428
331
41B
  5
36F
331
417
  5
373
331
35E
  5
42C
331
1C6
  5
4B0
331
399
  5
3F1
331
1C2
  5
4B4
331
1FD
  5
479
331
413
  5
377
331
35A
  5
43C
331
1BE
  5
4B8
331
1F9
  5
47D
331
276
  5
467
331
1BA
  5
4BC
331
1F5
  5
481
331
455
  5
341
331
494
  5
1E2
331
1F1
  5
485
331
490
  5
1E6
331
451
  5
345
331
48C
  5
1EA
331
44D
  5
349
331
449
  5
34D
331
488
  5
1EE
331
4C3
  5
101
331
10E
  5
4C2
331
395
  5
3F5
331
40F
  5
37B
331
356
  5
440
331
352
  5
444
331
391
  5
3F9
331
40B
  5
37F
331
407
  5
383
331
34E
  5
448
331
38D
  5
3FD
331
1B6
  5
4C0
331
3C8
  5
3B0
331
3C4
  5
3B4
331
1ED
  5
489
331
403
  5
387
331
34A
  5
44C
331
389
  5
401
331
3C0
  5
3B8
331
1E9
  5
48D
331
1E5
  5
491
331
317
  5
45B
331
445
  5
351
331
484
  5
1F2
331
4BF
  5
1B7
331
1E1
  5
495
331
313
  5
45F
331
4BB
  5
1BB
331
441
  5
355
331
480
  5
1F6
331
47C
  5
1FA
331
4B7
  5
1BF
331
43D
  5
359
331
478
  5
1FE
331
4B3
  5
1C3
331
78
  5
4C6
331
385
  5
405
331
3FF
  5
38B
331
381
  5
409
331
3FB
  5
38F
331
3F7
  5
393
331
37D
  5
40D
331
3B8
  5
3C0
331
3F3
  5
397
331
379
  5
411
331
30F
  5
463
331
1DD
  5
499
331
1D9
  5
49D
331
474
  5
202
331
346
  5
450
331
342
  5
454
331
4AF
  5
1C7
331
470
  5
206
331
46C
  5
20A
331
4AB
  5
1CB
331
468
  5
20E
331
375
  5
415
331
3B4
  5
3C4
331
3EF
  5
39B
331
42E
  5
35C
331
42A
  5
360
331
371
  5
419
331
3B0
  5
3C8
331
3EB
  5
3AB
331
1D5
  5
4A1
331
426
  5
364
331
36D
  5
41D
331
3AC
  5
3EA
331
1D1
  5
4A5
331
20C
  5
46A
331
422
  5
368
331
369
  5
421
331
1CD
  5
4A9
331
33E
  5
458
331
208
  5
46E
331
1C9
  5
4AD
331
4A7
  5
1CF
331
204
  5
472
331
200
  5
476
331
464
  5
30E
331
4A3
  5
1D3
331
49F
  5
1D7
331
460
  5
312
331
45C
  5
316
331
49B
  5
1DB
331
458
  5
33E
331
365
  5
425
331
41E
  5
36C
331
41A
  5
370
331
361
  5
429
331
416
  5
374
331
35D
  5
42D
331
39C
  5
3EE
331
1C5
  5
4B1
331
398
  5
3F2
331
1C1
  5
4B5
331
1FC
  5
47A
331
412
  5
378
331
359
  5
43D
331
1BD
  5
4B9
331
1F8
  5
47E
331
1B9
  5
4BD
331
497
  5
1DF
331
1F4
  5
482
331
1F0
  5
486
331
454
  5
342
331
493
  5
1E3
331
48F
  5
1E7
331
450
  5
346
331
44C
  5
34A
331
48B
  5
1EB
331
4C6
  5
78
331
448
  5
34E
331
4C2
  5
10E
331
101
  5
4C3
331
355
  5
441
331
394
  5
3F6
331
40E
  5
37C
331
351
  5
445
331
390
  5
3FA
331
40A
  5
380
331
406
  5
384
331
34D
  5
449
331
38C
  5
3FE
331
3C7
  5
3B1
331
388
  5
402
331
3C3
  5
3B5
331
1EC
  5
48A
331
402
  5
388
331
349
  5
44D
331
1E8
  5
48E
331
487
  5
1EF
331
1E4
  5
492
331
316
  5
45C
331
444
  5
352
331
483
  5
1F3
331
4BE
  5
1B8
331
1E0
  5
496
331
47F
  5
1F7
331
4BA
  5
1BC
331
440
  5
356
331
312
  5
460
331
47B
  5
1FB
331
4B6
  5
1C0
331
43C
  5
35A
331
4B2
  5
1C4
331
384
  5
406
331
3FE
  5
38C
331
380
  5
40A
331
3BF
  5
3B9
331
3FA
  5
390
331
3BB
  5
3BD
331
3F6
  5
394
331
37C
  5
40E
331
3F2
  5
398
331
378
  5
412
331
30E
  5
464
331
1DC
  5
49A
331
477
  5
1FF
331
1D8
  5
49E
331
473
  5
203
331
345
  5
451
331
341
  5
455
331
4AE
  5
1C8
331
46F
  5
207
331
46B
  5
20B
331
4AA
  5
1CC
331
3B7
  5
3C1
331
374
  5
416
331
3B3
  5
3C5
331
3EE
  5
39C
331
42D
  5
35D
331
429
  5
361
331
370
  5
41A
331
3AF
  5
3C9
331
3EA
  5
3AC
331
1D4
  5
4A2
331
425
  5
365
331
36C
  5
41E
331
3AB
  5
3EB
331
1D0
  5
4A6
331
20B
  5
46B
331
421
  5
369
331
368
  5
422
331
1CC
  5
4AA
331
207
  5
46F
331
1C8
  5
4AE
331
467
  5
276
331
4A6
  5
1D0
331
203
  5
473
331
463
  5
30F
331
4A2
  5
1D4
331
49E
  5
1D8
331
45F
  5
313
331
45B
  5
317
331
49A
  5
1DC
331
364
  5
426
331
41D
  5
36D
331
419
  5
371
331
360
  5
42A
331
1C4
  5
4B2
331
1FF
  5
477
331
415
  5
375
331
35C
  5
42E
331
39B
  5
3EF
331
1C0
  5
4B6
331
1FB
  5
47B
331
411
  5
379
331
358
  5
43E
331
1BC
  5
4BA
331
1F7
  5
47F
331
1B8
  5
4BE
331
457
  5
33F
331
496
  5
1E0
331
1F3
  5
483
331
453
  5
343
331
492
  5
1E4
331
48E
  5
1E8
331
44F
  5
347
331
44B
  5
34B
331
48A
  5
1EC
331
4C5
  5
E4
331
4C1
  5
15E
331
397
  5
3F3
331
354
  5
442
331
393
  5
3F7
331
40D
  5
37D
331
409
  5
381
331
350
  5
446
331
38F
  5
3FB
331
405
  5
385
331
34C
  5
44A
331
38B
  5
3FF
331
1EF
  5
487
331
3C6
  5
3B2
331
3C2
  5
3B6
331
1EB
  5
48B
331
401
  5
389
331
348
  5
44E
331
1E7
  5
48F
331
319
  5
459
331
447
  5
34F
331
486
  5
1F0
331
1E3
  5
493
331
315
  5
45D
331
443
  5
353
331
482
  5
1F4
331
4BD
  5
1B9
331
311
  5
461
331
47E
  5
1F8
331
4B9
  5
1BD
331
43F
  5
357
331
47A
  5
1FC
331
4B5
  5
1C1
331
4B1
  5
1C5
331
F4
  5
4C4
  0
SORTENTSTABLE
  5
50E
102
{ACAD_REACTORS
330
278
102
}
330
278
100
AcDbSortentsTable
330
277
  0
SORTENTSTABLE
  5
510
102
{ACAD_REACTORS
330
3CB
102
}
330
3CB
100
AcDbSortentsTable
330
3CA
  0
SORTENTSTABLE
  5
511
102
{ACAD_REACTORS
330
31B
102
}
330
31B
100
AcDbSortentsTable
330
31A
  0
SORTENTSTABLE
  5
50F
102
{ACAD_REACTORS
330
110
102
}
330
110
100
AcDbSortentsTable
330
10F
  0
LAYOUT
  5
1F
102
{ACAD_REACTORS
330
18
102
}
330
18
100
AcDbPlotSettings
  1

  2

  4

  6

 40
0.0
 41
0.0
 42
0.0
 43
0.0
 44
0.0
 45
0.0
 46
0.0
 47
0.0
 48
0.0
 49
0.0
140
0.0
141
0.0
142
1.0
143
1.0
 70
   688
 72
     0
 73
     0
 74
     5
  7

 75
    16
147
1.0
 76
     0
 77
     2
 78
   300
148
0.0
149
0.0
100
AcDbLayout
  1
Layout1
 70
     1
 71
     1
 10
0.0
 20
0.0
 11
420.0
 21
297.0
 12
0.0
 22
0.0
 32
0.0
 14
1.000000000000000E+20
 24
1.000000000000000E+20
 34
1.000000000000000E+20
 15
-1.000000000000000E+20
 25
-1.000000000000000E+20
 35
-1.000000000000000E+20
146
0.0
 13
0.0
 23
0.0
 33
0.0
 16
1.0
 26
0.0
 36
0.0
 17
0.0
 27
1.0
 37
0.0
 76
     0
330
1C
  0
LAYOUT
  5
17
102
{ACAD_XDICTIONARY
360
19
102
}
102
{ACAD_REACTORS
330
18
102
}
330
18
100
AcDbPlotSettings
  1

  2
\\SBS01\KMC364e s/w
  4
A4
  6

 40
5.027082920074462
 41
5.027099609375
 42
5.027069091796875
 43
5.027069091796875
 44
209.9733276367187
 45
296.9259948730469
 46
0.0
 47
0.0
 48
-2169.959840871653
 49
-485.3143479396668
140
-1575.959840871652
141
-65.31434793966687
142
1.0
143
2.100848999038186
 70
  3760
 72
     1
 73
     1
 74
     4
  7
monochrome.ctb
 75
     0
147
0.4759980372020177
 76
     1
 77
     2
 78
   300
148
2169.959840871653
149
485.3143479396668
100
AcDbLayout
  1
Model
 70
     1
 71
     0
 10
0.0
 20
0.0
 11
0.0
 21
0.0
 12
0.0
 22
0.0
 32
0.0
 14
0.0
 24
0.0
 34
0.0
 15
420.0
 25
297.0
 35
0.0
146
0.0
 13
0.0
 23
0.0
 33
0.0
 16
1.0
 26
0.0
 36
0.0
 17
0.0
 27
1.0
 37
0.0
 76
     0
330
2
331
2F
1001
ACAD_PSEXT
1000
\\SBS01\KMC364e s/w
1000
KONICA MINOLTA C364SeriesPCL
1000
2.Stock
1000
schwarzweiss
1070
     0
  0
MATERIAL
  5
46
102
{ACAD_XDICTIONARY
360
47
102
}
102
{ACAD_REACTORS
330
D
102
}
330
D
100
AcDbMaterial
  1
ByBlock
 72
     0
 43
0.0008202099737533
 43
0.0
 43
0.0
 43
0.0
 43
0.0
 43
0.0008202099737533
 43
0.0
 43
0.0
 43
0.0
 43
0.0
 43
1.0
 43
0.0
 43
0.0
 43
0.0
 43
0.0
 43
1.0
 77
     0
 47
0.0008202099737533
 47
0.0
 47
0.0
 47
0.0
 47
0.0
 47
0.0008202099737533
 47
0.0
 47
0.0
 47
0.0
 47
0.0
 47
1.0
 47
0.0
 47
0.0
 47
0.0
 47
0.0
 47
1.0
171
     0
 49
0.0008202099737533
 49
0.0
 49
0.0
 49
0.0
 49
0.0
 49
0.0008202099737533
 49
0.0
 49
0.0
 49
0.0
 49
0.0
 49
1.0
 49
0.0
 49
0.0
 49
0.0
 49
0.0
 49
1.0
175
     0
142
0.0008202099737533
142
0.0
142
0.0
142
0.0
142
0.0
142
0.0008202099737533
142
0.0
142
0.0
142
0.0
142
0.0
142
1.0
142
0.0
142
0.0
142
0.0
142
0.0
142
1.0
179
     0
144
0.0008202099737533
144
0.0
144
0.0
144
0.0
144
0.0
144
0.0008202099737533
144
0.0
144
0.0
144
0.0
144
0.0
144
1.0
144
0.0
144
0.0
144
0.0
144
0.0
144
1.0
147
0.0008202099737533
147
0.0
147
0.0
147
0.0
147
0.0
147
0.0008202099737533
147
0.0
147
0.0
147
0.0
147
0.0
147
1.0
147
0.0
147
0.0
147
0.0
147
0.0
147
1.0
  0
MATERIAL
  5
3E
102
{ACAD_XDICTIONARY
360
3F
102
}
102
{ACAD_REACTORS
330
D
102
}
330
D
100
AcDbMaterial
  1
ByLayer
 72
     0
 43
0.0008202099737533
 43
0.0
 43
0.0
 43
0.0
 43
0.0
 43
0.0008202099737533
 43
0.0
 43
0.0
 43
0.0
 43
0.0
 43
1.0
 43
0.0
 43
0.0
 43
0.0
 43
0.0
 43
1.0
 77
     0
 47
0.0008202099737533
 47
0.0
 47
0.0
 47
0.0
 47
0.0
 47
0.0008202099737533
 47
0.0
 47
0.0
 47
0.0
 47
0.0
 47
1.0
 47
0.0
 47
0.0
 47
0.0
 47
0.0
 47
1.0
171
     0
 49
0.0008202099737533
 49
0.0
 49
0.0
 49
0.0
 49
0.0
 49
0.0008202099737533
 49
0.0
 49
0.0
 49
0.0
 49
0.0
 49
1.0
 49
0.0
 49
0.0
 49
0.0
 49
0.0
 49
1.0
175
     0
142
0.0008202099737533
142
0.0
142
0.0
142
0.0
142
0.0
142
0.0008202099737533
142
0.0
142
0.0
142
0.0
142
0.0
142
1.0
142
0.0
142
0.0
142
0.0
142
0.0
142
1.0
179
     0
144
0.0008202099737533
144
0.0
144
0.0
144
0.0
144
0.0
144
0.0008202099737533
144
0.0
144
0.0
144
0.0
144
0.0
144
1.0
144
0.0
144
0.0
144
0.0
144
0.0
144
1.0
147
0.0008202099737533
147
0.0
147
0.0
147
0.0
147
0.0
147
0.0008202099737533
147
0.0
147
0.0
147
0.0
147
0.0
147
1.0
147
0.0
147
0.0
147
0.0
147
0.0
147
1.0
  0
MATERIAL
  5
C
102
{ACAD_XDICTIONARY
360
E
102
}
102
{ACAD_REACTORS
330
D
102
}
330
D
100
AcDbMaterial
  1
Global
 72
     0
 43
0.0008202099737533
 43
0.0
 43
0.0
 43
0.0
 43
0.0
 43
0.0008202099737533
 43
0.0
 43
0.0
 43
0.0
 43
0.0
 43
1.0
 43
0.0
 43
0.0
 43
0.0
 43
0.0
 43
1.0
 77
     0
 47
0.0008202099737533
 47
0.0
 47
0.0
 47
0.0
 47
0.0
 47
0.0008202099737533
 47
0.0
 47
0.0
 47
0.0
 47
0.0
 47
1.0
 47
0.0
 47
0.0
 47
0.0
 47
0.0
 47
1.0
171
     0
 49
0.0008202099737533
 49
0.0
 49
0.0
 49
0.0
 49
0.0
 49
0.0008202099737533
 49
0.0
 49
0.0
 49
0.0
 49
0.0
 49
1.0
 49
0.0
 49
0.0
 49
0.0
 49
0.0
 49
1.0
175
     0
142
0.0008202099737533
142
0.0
142
0.0
142
0.0
142
0.0
142
0.0008202099737533
142
0.0
142
0.0
142
0.0
142
0.0
142
1.0
142
0.0
142
0.0
142
0.0
142
0.0
142
1.0
179
     0
144
0.0008202099737533
144
0.0
144
0.0
144
0.0
144
0.0
144
0.0008202099737533
144
0.0
144
0.0
144
0.0
144
0.0
144
1.0
144
0.0
144
0.0
144
0.0
144
0.0
144
1.0
147
0.0008202099737533
147
0.0
147
0.0
147
0.0
147
0.0
147
0.0008202099737533
147
0.0
147
0.0
147
0.0
147
0.0
147
1.0
147
0.0
147
0.0
147
0.0
147
0.0
147
1.0
  0
MLINESTYLE
  5
52
102
{ACAD_REACTORS
330
3C
102
}
330
3C
100
AcDbMlineStyle
  2
STANDARD
 70
     0
  3

 62
   256
 51
90.0
 52
90.0
 71
     2
 49
0.5
 62
   256
  6
BYLAYER
 49
-0.5
 62
   256
  6
BYLAYER
  0
ACDBPLACEHOLDER
  5
9
102
{ACAD_REACTORS
330
A
102
}
330
A
  0
SCALE
  5
57
102
{ACAD_REACTORS
330
4F
102
}
330
4F
100
AcDbScale
 70
     0
300
1:1
140
1.0
141
1.0
290
     1
  0
SCALE
  5
58
102
{ACAD_REACTORS
330
4F
102
}
330
4F
100
AcDbScale
 70
     0
300
1:2
140
1.0
141
2.0
290
     0
  0
SCALE
  5
59
102
{ACAD_REACTORS
330
4F
102
}
330
4F
100
AcDbScale
 70
     0
300
1:4
140
1.0
141
4.0
290
     0
  0
SCALE
  5
5A
102
{ACAD_REACTORS
330
4F
102
}
330
4F
100
AcDbScale
 70
     0
300
1:5
140
1.0
141
5.0
290
     0
  0
SCALE
  5
5B
102
{ACAD_REACTORS
330
4F
102
}
330
4F
100
AcDbScale
 70
     0
300
1:8
140
1.0
141
8.0
290
     0
  0
SCALE
  5
5C
102
{ACAD_REACTORS
330
4F
102
}
330
4F
100
AcDbScale
 70
     0
300
1:10
140
1.0
141
10.0
290
     0
  0
SCALE
  5
5D
102
{ACAD_REACTORS
330
4F
102
}
330
4F
100
AcDbScale
 70
     0
300
1:16
140
1.0
141
16.0
290
     0
  0
SCALE
  5
5E
102
{ACAD_REACTORS
330
4F
102
}
330
4F
100
AcDbScale
 70
     0
300
1:20
140
1.0
141
20.0
290
     0
  0
SCALE
  5
5F
102
{ACAD_REACTORS
330
4F
102
}
330
4F
100
AcDbScale
 70
     0
300
1:30
140
1.0
141
30.0
290
     0
  0
SCALE
  5
60
102
{ACAD_REACTORS
330
4F
102
}
330
4F
100
AcDbScale
 70
     0
300
1:40
140
1.0
141
40.0
290
     0
  0
SCALE
  5
61
102
{ACAD_REACTORS
330
4F
102
}
330
4F
100
AcDbScale
 70
     0
300
1:50
140
1.0
141
50.0
290
     0
  0
SCALE
  5
62
102
{ACAD_REACTORS
330
4F
102
}
330
4F
100
AcDbScale
 70
     0
300
1:100
140
1.0
141
100.0
290
     0
  0
SCALE
  5
63
102
{ACAD_REACTORS
330
4F
102
}
330
4F
100
AcDbScale
 70
     0
300
2:1
140
2.0
141
1.0
290
     0
  0
SCALE
  5
64
102
{ACAD_REACTORS
330
4F
102
}
330
4F
100
AcDbScale
 70
     0
300
4:1
140
4.0
141
1.0
290
     0
  0
SCALE
  5
65
102
{ACAD_REACTORS
330
4F
102
}
330
4F
100
AcDbScale
 70
     0
300
8:1
140
8.0
141
1.0
290
     0
  0
SCALE
  5
66
102
{ACAD_REACTORS
330
4F
102
}
330
4F
100
AcDbScale
 70
     0
300
10:1
140
10.0
141
1.0
290
     0
  0
SCALE
  5
67
102
{ACAD_REACTORS
330
4F
102
}
330
4F
100
AcDbScale
 70
     0
300
100:1
140
100.0
141
1.0
290
     0
  0
SCALE
  5
68
102
{ACAD_REACTORS
330
4F
102
}
330
4F
100
AcDbScale
 70
     0
300
1/128" = 1'-0"
140
0.0078125
141
12.0
290
     0
  0
SCALE
  5
69
102
{ACAD_REACTORS
330
4F
102
}
330
4F
100
AcDbScale
 70
     0
300
1/64" = 1'-0"
140
0.015625
141
12.0
290
     0
  0
SCALE
  5
6A
102
{ACAD_REACTORS
330
4F
102
}
330
4F
100
AcDbScale
 70
     0
300
1/32" = 1'-0"
140
0.03125
141
12.0
290
     0
  0
SCALE
  5
6B
102
{ACAD_REACTORS
330
4F
102
}
330
4F
100
AcDbScale
 70
     0
300
1/16" = 1'-0"
140
0.0625
141
12.0
290
     0
  0
SCALE
  5
6C
102
{ACAD_REACTORS
330
4F
102
}
330
4F
100
AcDbScale
 70
     0
300
3/32" = 1'-0"
140
0.09375
141
12.0
290
     0
  0
SCALE
  5
6D
102
{ACAD_REACTORS
330
4F
102
}
330
4F
100
AcDbScale
 70
     0
300
1/8" = 1'-0"
140
0.125
141
12.0
290
     0
  0
SCALE
  5
6E
102
{ACAD_REACTORS
330
4F
102
}
330
4F
100
AcDbScale
 70
     0
300
3/16" = 1'-0"
140
0.1875
141
12.0
290
     0
  0
SCALE
  5
6F
102
{ACAD_REACTORS
330
4F
102
}
330
4F
100
AcDbScale
 70
     0
300
1/4" = 1'-0"
140
0.25
141
12.0
290
     0
  0
SCALE
  5
70
102
{ACAD_REACTORS
330
4F
102
}
330
4F
100
AcDbScale
 70
     0
300
3/8" = 1'-0"
140
0.375
141
12.0
290
     0
  0
SCALE
  5
71
102
{ACAD_REACTORS
330
4F
102
}
330
4F
100
AcDbScale
 70
     0
300
1/2" = 1'-0"
140
0.5
141
12.0
290
     0
  0
SCALE
  5
72
102
{ACAD_REACTORS
330
4F
102
}
330
4F
100
AcDbScale
 70
     0
300
3/4" = 1'-0"
140
0.75
141
12.0
290
     0
  0
SCALE
  5
73
102
{ACAD_REACTORS
330
4F
102
}
330
4F
100
AcDbScale
 70
     0
300
1" = 1'-0"
140
1.0
141
12.0
290
     0
  0
SCALE
  5
74
102
{ACAD_REACTORS
330
4F
102
}
330
4F
100
AcDbScale
 70
     0
300
1-1/2" = 1'-0"
140
1.5
141
12.0
290
     0
  0
SCALE
  5
75
102
{ACAD_REACTORS
330
4F
102
}
330
4F
100
AcDbScale
 70
     0
300
3" = 1'-0"
140
3.0
141
12.0
290
     0
  0
SCALE
  5
76
102
{ACAD_REACTORS
330
4F
102
}
330
4F
100
AcDbScale
 70
     0
300
6" = 1'-0"
140
6.0
141
12.0
290
     0
  0
SCALE
  5
77
102
{ACAD_REACTORS
330
4F
102
}
330
4F
100
AcDbScale
 70
     0
300
1'-0" = 1'-0"
140
12.0
141
12.0
290
     0
  0
TABLESTYLE
  5
53
102
{ACAD_XDICTIONARY
360
54
102
}
102
{ACAD_REACTORS
330
50
102
}
330
50
100
AcDbTableStyle
280
     0
  3
Standard
 70
     0
 71
     0
 40
1.5
 41
1.5
280
     0
281
     0
  7
Standard
140
4.5
170
     2
 62
     0
 63
     7
283
     0
 90
      512
 91
        0
  1

274
    -2
284
     1
 64
     0
275
    -2
285
     1
 65
     0
276
    -2
286
     1
 66
     0
277
    -2
287
     1
 67
     0
278
    -2
288
     1
 68
     0
279
    -2
289
     1
 69
     0
  7
Standard
140
6.0
170
     5
 62
     0
 63
     7
283
     0
 90
      512
 91
        0
  1

274
    -2
284
     1
 64
     0
275
    -2
285
     1
 65
     0
276
    -2
286
     1
 66
     0
277
    -2
287
     1
 67
     0
278
    -2
288
     1
 68
     0
279
    -2
289
     1
 69
     0
  7
Standard
140
4.5
170
     5
 62
     0
 63
     7
283
     0
 90
      512
 91
        0
  1

274
    -2
284
     1
 64
     0
275
    -2
285
     1
 65
     0
276
    -2
286
     1
 66
     0
277
    -2
287
     1
 67
     0
278
    -2
288
     1
 68
     0
279
    -2
289
     1
 69
     0
  0
VISUALSTYLE
  5
30
102
{ACAD_REACTORS
330
31
102
}
330
31
100
AcDbVisualStyle
  2
2dWireframe
 70
     4
177
     2
291
     0
 71
     0
176
     1
 72
     2
176
     1
 73
     0
176
     1
 90
        0
176
     1
 40
0.6
176
     1
 41
30.0
176
     1
 63
     7
176
     1
 74
     1
176
     1
 91
        4
176
     1
 64
     7
176
     1
 65
   257
176
     1
 75
     1
176
     1
175
     1
176
     1
 42
1.0
176
     1
 92
        0
176
     1
 66
   257
176
     1
 43
1.0
176
     1
 76
     1
176
     1
 77
     6
176
     1
 78
     2
176
     1
 67
     7
176
     1
 79
     5
176
     1
170
     0
176
     1
171
     0
176
     1
290
     0
176
     1
 93
        1
176
     1
 44
0.0
176
     1
173
     0
176
     1
  0
VISUALSTYLE
  5
56
102
{ACAD_REACTORS
330
31
102
}
330
31
100
AcDbVisualStyle
  2
3dWireframe
 70
     5
177
     2
291
     0
 71
     0
176
     1
 72
     2
176
     1
 73
     0
176
     1
 90
        0
176
     1
 40
0.6
176
     1
 41
30.0
176
     1
 63
     7
176
     1
 74
     1
176
     1
 91
        4
176
     1
 64
     7
176
     1
 65
   257
176
     1
 75
     1
176
     1
175
     1
176
     1
 42
1.0
176
     1
 92
        0
176
     1
 66
   257
176
     1
 43
1.0
176
     1
 76
     1
176
     1
 77
     6
176
     1
 78
     2
176
     1
 67
     7
176
     1
 79
     5
176
     1
170
     0
176
     1
171
     0
176
     1
290
     0
176
     1
 93
        1
176
     1
 44
0.0
176
     1
173
     0
176
     1
  0
VISUALSTYLE
  5
55
102
{ACAD_REACTORS
330
31
102
}
330
31
100
AcDbVisualStyle
  2
Realistic
 70
     8
177
     2
291
     0
 71
     2
176
     1
 72
     2
176
     1
 73
     0
176
     1
 90
        0
176
     1
 40
0.6
176
     1
 41
30.0
176
     1
 63
     7
176
     1
 74
     1
176
     1
 91
        0
176
     1
 64
     7
176
     1
 65
   257
176
     1
 75
     1
176
     1
175
     1
176
     1
 42
1.0
176
     1
 92
        8
176
     1
 66
     8
176
     1
 43
1.0
176
     1
 76
     1
176
     1
 77
     6
176
     1
 78
     2
176
     1
 67
     7
176
     1
 79
     5
176
     1
170
     0
176
     1
171
     0
176
     1
290
     0
176
     1
 93
       13
176
     1
 44
0.0
176
     1
173
     0
176
     1
  0
DICTIONARYVAR
  5
517
102
{ACAD_REACTORS
330
513
102
}
330
513
100
DictionaryVariables
280
     0
  1
1:1
  0
DICTIONARYVAR
  5
515
102
{ACAD_REACTORS
330
513
102
}
330
513
100
DictionaryVariables
280
     0
  1
STANDARD
  0
DICTIONARYVAR
  5
514
102
{ACAD_REACTORS
330
513
102
}
330
513
100
DictionaryVariables
280
     0
  1
STANDARD
  0
DICTIONARYVAR
  5
519
102
{ACAD_REACTORS
330
513
102
}
330
513
100
DictionaryVariables
280
     0
  1
1
  0
DICTIONARYVAR
  5
51A
102
{ACAD_REACTORS
330
513
102
}
330
513
100
DictionaryVariables
280
     0
  1
15
  0
DICTIONARYVAR
  5
518
102
{ACAD_REACTORS
330
513
102
}
330
513
100
DictionaryVariables
280
     0
  1
0
  0
DICTIONARYVAR
  5
516
102
{ACAD_REACTORS
330
513
102
}
330
513
100
DictionaryVariables
280
     0
  1
0
  0
DICTIONARY
  5
19
330
17
100
AcDbDictionary
280
     1
281
     1
  3
ADSK_XREC_LAYOUTTHUMBNAIL
360
1A
  0
DICTIONARY
  5
47
330
46
100
AcDbDictionary
280
     1
281
     1
  3
BUMPTILE
360
48
  3
DIFFUSETILE
360
49
  3
OPACITYTILE
360
4A
  3
REFLECTIONTILE
360
4B
  3
REFRACTIONTILE
360
4C
  3
SPECULARTILE
360
4D
  0
DICTIONARY
  5
3F
330
3E
100
AcDbDictionary
280
     1
281
     1
  3
BUMPTILE
360
40
  3
DIFFUSETILE
360
41
  3
OPACITYTILE
360
42
  3
REFLECTIONTILE
360
43
  3
REFRACTIONTILE
360
44
  3
SPECULARTILE
360
45
  0
DICTIONARY
  5
E
330
C
100
AcDbDictionary
280
     1
281
     1
  3
BUMPTILE
360
F
  3
DIFFUSETILE
360
10
  3
OPACITYTILE
360
11
  3
REFLECTIONTILE
360
12
  3
REFRACTIONTILE
360
13
  3
SPECULARTILE
360
14
  0
DICTIONARY
  5
54
330
53
100
AcDbDictionary
280
     1
281
     1
  3
ACAD_ROUNDTRIP_2008_TABLESTYLE_CELLSTYLEMAP
360
51B
  0
XRECORD
  5
1A
102
{ACAD_REACTORS
330
19
102
}
330
19
100
AcDbXrecord
280
     1
310
280000000001000091000000010008000000000000910000000000000000000000010000000000003028210000000000FFFFFF000000000000000000000000000000000000000000000000000000000000000000330000006600000099000000CC000000FF00000000330000333300006633000099330000CC330000FF3300
310
0000660000336600006666000099660000CC660000FF66000000990000339900006699000099990000CC990000FF99000000CC000033CC000066CC000099CC0000CCCC0000FFCC000000FF000033FF000066FF000099FF0000CCFF0000FFFF000000003300330033006600330099003300CC003300FF003300003333003333
310
33006633330099333300CC333300FF33330000663300336633006666330099663300CC663300FF66330000993300339933006699330099993300CC993300FF99330000CC330033CC330066CC330099CC3300CCCC3300FFCC330000FF330033FF330066FF330099FF3300CCFF3300FFFF330000006600330066006600660099
310
006600CC006600FF00660000336600333366006633660099336600CC336600FF33660000666600336666006666660099666600CC666600FF66660000996600339966006699660099996600CC996600FF99660000CC660033CC660066CC660099CC6600CCCC6600FFCC660000FF660033FF660066FF660099FF6600CCFF6600
310
FFFF660000009900330099006600990099009900CC009900FF00990000339900333399006633990099339900CC339900FF33990000669900336699006666990099669900CC669900FF66990000999900339999006699990099999900CC999900FF99990000CC990033CC990066CC990099CC9900CCCC9900FFCC990000FF99
310
0033FF990066FF990099FF9900CCFF9900FFFF99000000CC003300CC006600CC009900CC00CC00CC00FF00CC000033CC003333CC006633CC009933CC00CC33CC00FF33CC000066CC003366CC006666CC009966CC00CC66CC00FF66CC000099CC003399CC006699CC009999CC00CC99CC00FF99CC0000CCCC0033CCCC0066CC
310
CC0099CCCC00CCCCCC00FFCCCC0000FFCC0033FFCC0066FFCC0099FFCC00CCFFCC00FFFFCC000000FF003300FF006600FF009900FF00CC00FF00FF00FF000033FF003333FF006633FF009933FF00CC33FF00FF33FF000066FF003366FF006666FF009966FF00CC66FF00FF66FF000099FF003399FF006699FF009999FF00CC
310
99FF00FF99FF0000CCFF0033CCFF0066CCFF0099CCFF00CCCCFF00FFCCFF0000FFFF0033FFFF0066FFFF0099FFFF00CCFFFF00FFFFFF00000000000D0D0D001A1A1A00282828003535350043434300505050005D5D5D006B6B6B00787878008686860093939300A1A1A100AEAEAE00BBBBBB00C9C9C900D6D6D600E4E4E400
310
F1F1F100FFFFFF000000000000000000000000000000000000000000000000000000000000000000000000000000000000000000000000000000000000000000000000000000000000000000000000000000000000000000000000000000000000000000000000000000000000000000000000000000000000000000000000
310
00000000000000000000000000000000000000000000000000000000000000000000000000000000000000000000000000000000000000000000000000000000000000000000000000000000000000000000000000000000000000000000000000000000000000000000000000000000000000000000000000000000000000
310
00000000000000000000000000000000000000000000000000000000000000000000000000000000000000000000000000000000000000000000000000000000000000000000000000000000000000000000000000000000000000000000000000000000000000000000000000000000000000000000000000000000000000
310
00000000000000000000000000000000000000000000000000000000000000000000000000000000000000000000000000000000000000000000000000000000000000000000000000000000000000000000000000000000000000000000000000000000000000000000000000000000000000000000000000000000000000
310
00000000000000000000000000000000000000000000000000000000000000000000000000000000000000000000000000000000000000000000000000000000000000000000000000000000000000000000000000000000000000000000000000000000000000000000000000000000000000000000000000000000000000
310
00000000000000000000000000000000000000000000000000000000000000000000000000000000000000000000000000000000000000000000000000000000000000000000000000000000000000000000000000000000000000000000000000000000000000000000000000000000000000000000000000000000000000
310
00000000000000000000000000000000000000000000000000000000000000000000000000000000000000000000000000000000000000000000000000000000000000000000000000000000000000000000000000000000000000000000000000000000000000000000000000000000000000000000000000000000000000
310
00000000000000000000000000000000000000000000000000000000000000000000000000000000000000000000000000000000000000000000000000000000000000000000000000000000000000000000000000000000000000000000000000000000000000000000000000000000000000000000000000000000000000
310
00000000000000000000000000000000000000000000000000000000000000000000000000000000000000000000000000000000000000000000000000000000000000000000000000000000000000000000000000000000000000000000000000000000000000000000000000000000000000000000000000000000000000
310
00000000000000000000000000000000000000000000000000000000000000000000000000000000000000000000000000000000000000000000000000000000000000000000000000000000000000000000000000000000000000000000000000000000000000000000000000000000000000000000000000000000000000
310
00000000000000000000000000000000000000000000000000000000000000000000000000000000000000000000000000000000000000000000000000000000000000000000000000000000000000000000000000000000000000000000000000000000000000000000000000000000000000000000000000000000000000
310
00000000000000000000000000000000000000000000000000000000000000000000000000000000000000000000000000000000000000000000000000000000000000000000000000000000000000000000000000000000000000000000000000000000000000000000000000000000000000000000000000000000000000
310
00000000000000000000000000000000000000000000000000000000000000000000000000000000000000000000000000000000000000000000000000000000000000000000000000000000000000000000000000000000000000000000000000000000000000000000000000000000000000000000000000000000000000
310
00000000000000000000000000000000000000000000000000000000000000000000000000000000000000000000000000000000000000000000000000000000000000000000000000000000000000000000000000000000000000000000000000000000000000000000000000000000000000000000000000000000000000
310
00000000000000000000000000000000000000000000000000000000000000000000000000000000000000000000000000000000000000000000000000000000000000000000000000000000000000000000000000000000000000000000000000000000000000000000000000000000000000000000000000000000000000
310
00000000000000000000000000000000000000000000000000000000000000000000000000000000000000000000000000000000000000000000000000000000000000000000000000000000000000000000000000000000000000000000000000000000000000000000000000000000000000000000000000000000000000
310
00000000000000000000000000000000000000000000000000000000000000000000000000000000000000000000000000000000000000000000000000000000000000000000000000000000000000000000000000000000000000000000000000000000000000000000000000000000000000000000000000000000000000
310
00000000000000000000000000000000000000000000000000000000000000000000000000000000000000000000000000000000000000000000000000000000000000000000000000000000000000000000000000000000000000000000000000000000000000000000000000000000000000000000000000000000000000
310
00000000000000000000000000000000000000000000000000000000000000000000000000000000000000000000000000000000000000000000000000000000000000000000000000000000000000000000000000000000000000000000000000000000000000000000000000000000000000000000000000000000000000
310
00000000000000000000000000000000000000000000000000000000000000000000000000000000000000000000000000000000000000000000000000000000000000000000000000000000000000000000000000000000000000000000000000000000000000000000000000000000000000000000000000000000000000
310
00000000000000000000000000000000000000000000000000000000000000000000000000000000000000000000000000000000000000000000000000000000000000000000000000000000000000000000000000000000000000000000000000000000000000000000000000000000000000000000000000000000000000
310
00000000000000000000000000000000000000000000000000000000000000000000000000000000000000000000000000000000000000000000000000000000000000000000000000000000000000000000000000000000000000000000000000000000000000000000000000000000000000000000000000000000000000
310
00000000000000000000000000000000000000000000000000000000000000000000000000000000000000000000000000000000000000000000000000000000000000000000000000000000000000000000000000000000000000000000000000000000000000000000000000000000000000000000000000000000000000
310
00000000000000000000000000000000000000000000000000000000000000000000000000000000000000000000000000000000000000000000000000000000000000000000000000000000000000000000000000000000000000000000000000000000000000000000000000000000000000000000000000000000000000
310
00000000000000000000000000000000000000000000000000000000000000000000000000000000000000000000000000000000000000000000000000000000000000000000000000000000000000000000000000000000000000000000000000000000000000000000000000000000000000000000000000000000000000
310
00000000000000000000000000000000000000000000000000000000000000000000000000000000000000000000000000000000000000000000000000000000000000000000000000000000000000000000000000000000000000000000000000000000000000000000000000000000000000000000000000000000000000
310
00000000000000000000000000000000000000000000000000000000000000000000000000000000000000000000000000000000000000000000000000000000000000000000000000000000000000000000000000000000000000000000000000000000000000000000000000000000000000000000000000000000000000
310
00000000000000000000000000000000000000000000000000000000000000000000000000000000000000000000000000000000000000000000000000000000000000000000000000000000000000000000000000000000000000000000000000000000000000000000000000000000000000000000000000000000000000
310
00000000000000000000000000000000000000000000000000000000000000000000000000000000000000000000000000000000000000000000000000000000000000000000000000000000000000000000000000000000000000000000000000000000000000000000000000000000000000000000000000000000000000
310
00000000000000000000000000000000000000000000000000000000000000000000000000000000000000000000000000000000000000000000000000000000000000000000000000000000000000000000000000000000000000000000000000000000000000000000000000000000000000000000000000000000000000
310
00000000000000000000000000000000000000000000000000000000000000000000000000000000000000000000000000000000000000000000000000000000000000000000000000000000000000000000000000000000000000000000000000000000000000000000000000000000000000000000000000000000000000
310
00000000000000000000000000000000000000000000000000000000000000000000000000000000000000000000000000000000000000000000000000000000000000000000000000000000000000000000000000000000000000000000000000000000000000000000000000000000000000000000000000000000000000
310
00000000000000000000000000000000000000000000000000000000000000000000000000000000000000000000000000000000000000000000000000000000000000000000000000000000000000000000000000000000000000000000000000000000000000000000000000000000000000000000000000000000000000
310
00000000000000000000000000000000000000000000000000000000000000000000000000000000000000000000000000000000000000000000000000000000000000000000000000000000000000000000000000000000000000000000000000000000000000000000000000000000000000000000000000000000000000
310
00000000000000000000000000000000000000000000000000000000000000000000000000000000000000000000000000000000000000000000000000000000000000000000000000000000000000000000000000000000000000000000000000000000000000000000000000000000000000000000000000000000000000
310
00000000000000000000000000000000000000000000000000000000000000000000000000000000000000000000000000000000000000000000000000000000000000000000000000000000000000000000000000000000000000000000000000000000000000000000000000000000000000000000000000000000000000
310
00000000000000000000000000000000000000000000000000000000000000000000000000000000000000000000000000000000000000000000000000000000000000000000000000000000000000000000000000000000000000000000000000000000000000000000000000000000000000000000000000000000000000
310
00000000000000000000000000000000000000000000000000000000000000000000000000000000000000000000000000000000000000000000000000000000000000000000000000000000000000000000000000000000000000000000000000000000000000000000000000000000000000000000000000000000000000
310
00000000000000000000000000000000000000000000000000000000000000000000000000000000000000000000000000000000000000000000000000000000000000000000000000000000000000000000000000000000000000000000000000000000000000000000000000000000000000000000000000000000000000
310
00000000000000000000000000000000000000000000000000000000000000000000000000000000000000000000000000000000000000000000000000000000000000000000000000000000000000000000000000000000000000000000000000000000000000000000000000000000000000000000000000000000000000
310
00000000000000000000000000000000000000000000000000000000000000000000000000000000000000000000000000000000000000000000000000000000000000000000000000000000000000000000000000000000000000000000000000000000000000000000000000000000000000000000000000000000000000
310
00000000000000000000000000000000000000000000000000000000000000000000000000000000000000000000000000000000000000000000000000000000000000000000000000000000000000000000000000000000000000000000000000000000000000000000000000000000000000000000000000000000000000
310
00000000000000000000000000000000000000000000000000000000000000000000000000000000000000000000000000000000000000000000000000000000000000000000000000000000000000000000000000000000000000000000000000000000000000000000000000000000000000000000000000000000000000
310
00000000000000000000000000000000000000000000000000000000000000000000000000000000000000000000000000000000000000000000000000000000000000000000000000000000000000000000000000000000000000000000000000000000000000000000000000000000000000000000000000000000000000
310
00000000000000000000000000000000000000000000000000000000000000000000000000000000000000000000000000000000000000000000000000000000000000000000000000000000000000000000000000000000000000000000000000000000000000000000000000000000000000000000000000000000000000
310
00000000000000000000000000000000000000000000000000000000000000000000000000000000000000000000000000000000000000000000000000000000000000000000000000000000000000000000000000000000000000000000000000000000000000000000000000000000000000000000000000000000000000
310
00000000000000000000000000000000000000000000000000000000000000000000000000000000000000000000000000000000000000000000000000000000000000000000000000000000000000000000000000000000000000000000000000000000000000000000000000000000000000000000000000000000000000
310
00000000000000000000000000000000000000000000000000000000000000000000000000000000000000000000000000000000000000000000000000000000000000000000000000000000000000000000000000000000000000000000000000000000000000000000000000000000000000000000000000000000000000
310
00000000000000000000000000000000000000000000000000000000000000000000000000000000000000000000000000000000000000000000000000000000000000000000000000000000000000000000000000000000000000000000000000000000000000000000000000000000000000000000000000000000000000
310
00000000000000000000000000000000000000000000000000000000000000000000000000000000000000000000000000000000000000000000000000000000000000000000000000000000000000000000000000000000000000000000000000000000000000000000000000000000000000000000000000000000000000
310
00000000000000000000000000000000000000000000000000000000000000000000000000000000000000000000000000000000000000000000000000000000000000000000000000000000000000000000000000000000000000000000000000000000000000000000000000000000000000000000000000000000000000
310
00000000000000000000000000000000000000000000000000000000000000000000000000000000000000000000000000000000000000000000000000000000000000000000000000000000000000000000000000000000000000000000000000000000000000000000000000000000000000000000000000000000000000
310
00000000000000000000000000000000000000000000000000000000000000000000000000000000000000000000000000000000000000000000000000000000000000000000000000000000000000000000000000000000000000000000000000000000000000000000000000000000000000000000000000000000000000
310
00000000000000000000000000000000000000BEBEBEBEBEBEBEBEBEBEBEBEBEBEBEBEBEBEBEBEBEBEBEBEBEBEBEBEBEBEBEBEBEBEBEBEBEBEBEBEBEBEBEBEBEBEBEBEBEBEBEBEBEBEBEBEBEBEBEBEBEBEBEBEBEBEBEBEBEBEBEBEBEBEBEBEBEBEBEBEBEBEBEBEBEBEBEBEBEBEBEBEBEBEBEBEBEBEBEBEBEBEBEBEBEBEBEBE
310
BEBEBEBEBEBEBEBEBEBEBEBEBEBEBEBEBEBEBEBEBEBEBEBEBEBEBEBEBEBEBEBEBEBEBEBEBEBEBEBEBEBEBEBEBEBEBEBEBEBEBEBEBEBEBEBEBEBEBEBEBEBEBEBEBEBEBEBEBEBEBEBEBEBEBEBEBEBEBEBEBEBEBEBEBEBEBEBEBEBEBEBEBEBEBEBEBEBEBEBEBEBE00000000000000000000000000000000000000000000000000
310
000000000000000000000000000000000000000000BE000000000000000000000000000000000000000000000000000000000000000000000000000000000000000000000000000000000000000000000000000000000000000000000000000000000000000000000000000000000000000000000000000000000000000000
310
0000000000000000000000000000000000000000000000000000000000000000000000000000BE00000000000000000000000000000000000000000000000000000000000000000000000000000000000000000000000000000000000000000000000000000000000000000000000000000000000000000000000000000000
310
0000000000000000000000000000000000000000000000BE0000DCDCDCDCDCDCDCDCDCDCDCDCDCDCDCDCDCDCDCDCDCDCDCDCDCDCDCDCDCDCDCDCDCDCDCDCDCDCDCDCDCDCDCDCDCDCDCDCDCDCDCDCDCDCDCDCDCDCDCDCDCDCDCDCDCDCDCDCDCDCDCDCDCDCDCDCDCDCDCDCDCDCDCDCDCDCDCDCDCDCDCDCDCDCDCDCDCDCDCDCDC
310
DCDCDCDCDCDCDCDCDCDCDCDCDCDCDCDCDCDCDCDCDCDCDCDCDCDCDCDCDCDCDCDCDCDCDCDCDCDC0000BE0000000000000000000000000000000000000000000000000000000000000000000000000000000000000000000000000000000000000000000000000000000000000000000000000000000000000000000000000000
310
00000000000000000000000000000000000000000000000000BE0000DC000000000000000000000000000000000000000000000000000000000000000000000000000000000000000000000000DC0000000000000000000000DC0000000000000000000000DC00000000000000BEBEBEBEBEBEBEBEBEBEBE000000DC000000
310
00000000000000000000DC000000000000000000000000000000DCBEBEBEBEBEBEBEBEBE000000DC0000BE000000000000000000000000000000000000000000000000000000000000000000000000000000000000000000000000000000000000000000000000000000000000000000000000000000000000000000000000
310
000000000000000000000000000000000000000000000000000000BE0000DC000000000000000000000000000000000000000000000000000000000000000000000000000000000000000000000000DCF5F5F5F5F5000000000000DCF5F5F5F5F5F5F500000000DC00000000000000BEBEBEBEBEBEBEBEBEBEBE000000DC00
310
000000000000000000000000DC000000000000000000000000000000DC00BEBE00BEBEBEBEBE000000DC0000BE00000000000000000000000000000000000000000000000000000000000000000000000000000000000000000000000000000000000000000000000000000000000000000000000000000000000000000000
310
0000000000000000000000000000000000000000000000000000000000BE0000DC000000000000000000000000000000000000000000000000000000000000000000000000000000000000000000000000DCDCDCDCDCF5DCDCDCDCDCDCDCDCDCDCDCDCDCDCDCDCDCDCDC0000BEBEBEBEBEBEBEBEBEBEBEBEBEBEBEBE000000
310
DC00000000000000000000000000DC000000000000000000000000000000DCBEBEBEBEBEBEBEBEBEF50000DC0000BE0000000000000000000000000000000000000000000000000000000000000000000000000000000000000000000000000000000000000000000000000000000000000000000000000000000000000000
310
00000000000000000000000000000000000000000000000000000000000000BE0000DC000000000000000000000000000000000000000000000000000000000000000000000000000000000000000000000000DC000000DC0000000000000000DC0000000000DC00000000DC0000BEBEBEBEBEBEBEBEBEBEBEBEBEBEBEBE00
310
0000DCF5F5F5F5F5F5F5F5F500000000DCF5F5F5F5F5F5F5F5F5F5F5F5F50000DCF5F5F5F5F5F5F5F5F5F50000DC0000BE000000000000000000000000000000000000000000000000000000000000000000000000000000000000000000000000000000000000000000000000000000000000000000000000000000000000
310
000000000000000000000000000000000000000000000000000000000000000000BE0000DC000000000000000000000000000000000000000028282828282828282828282828282800000000000000000000000000DCDCDCDCDCDCDCDCDCDCDCDCDCDCDCDCDCDCDCDCDCDCDCDCDC0000000000BEBEBEBEBEBEBEBEBEBEBEBE
310
BE000000DCF5F5DCF5DCDCDCF5DCDCDCDCDCDCDCF5F5F5F5F5F5F5F5F5F5F5DCDCDCDCF5DCF5DCDCF5DCF5F5DCDCDCDC0000BE000000000000000000000000000000000000000000000000DCDCDCDCDCDCDCDCDCDCDCDCDCDCDCDCDCDCDCDCDCDCDCDCDCDCDCDCDCDCDCDCDCDCDCDCDCDCDCDCDC0000000000000000000000
310
0000000000000000000000000000000000000000000000000000000000000000000000BE0000DC000000000000000000000000000000000000000028282828282828282828282828282800000000000000000000000000DC000000DC0000000000000000DC0000000000DC00000000DC0000000000BEBEBEBEBEBEBEBEBEBE
310
BEBEBE000000DC000000000000000000000000000000000000000000000000000000000000000000000000000000000000DC0000BE000000000000000000000000000000000000000000000000DC0000000000000000000000000000000000000000000000000000000000DC00000000000000000000000000000000000000
310
00000000000000000000000000000000000000000000000000000000000000000000000000BE0000DC000000000000000000000000000000000000000028282828282828282828282828282800000000000000000000000000DC000000DC0000000000000000DC0000000000DC00000000DC0000000000BEBEBEBEBEBEBEBE
310
BEBEBEBEBE000000DC000000000000000000000000000000000000000000000000000000000000000000000000000000000000DC0000BE000000000000000000000000000000000000000000000000DC0000000000000000000000000000000000000000000000000000000000DC0000000000000000000000000000000000
310
000000000000000000000000000000000000000000000000000000000000000000000000000000BE0000DC000000000000000000000000000000000000000028282800000000000000000028282800000000000000000000000000DCDCDCDCDCDCDCDCDCDCDCDCDCDCDCDCDCDCDCDCDCDCDCDCDCDCDCDCDCDCDCDCDCDCDCDC
310
DCDCDCDCDCDCDCDCDCDCDC000000000000000000000000000000000000000000000000000000000000000000000000000000000000DC0000BE000000000000000000000000000000000000000000000000DC0000000000000000000000000000000000000000000000000000000000DC000000000000000000000000000000
310
0000000000000000000000000000000000000000000000000000000000000000000000000000000000BE0000DC000000000000000000000000000000000000000028282800000000000000000028282800000000000000000000000000DC000000DC0000000000000000DC0000000000DC00000000F5F5F5F5F50000000000
310
00DC00000000000000000000DC00000000000000BE000000000000000000BE000000000000000000000000000000000000000000000000DC0000BE000000000000000000000000000000000000000000000000DCF5F5F5F5F5F5F5F5F5F5F5F5F5F5000000000000000000000000000000DC00F5F5F5F5F5F5F5F5F5000000
310
00000000000000000000000000000000000000000000000000000000000000000000000000000000000000BE0000DC000000000000000000000000000000000000000028282800000000000000000028282800000000000000000000000000DCDCDCDCDCDCDCDCDCDCDCDCDCDCDCDCDCDCDCDCDCDCDCDCDCF5DCF5DCDCDCDC
310
DCDCDCDCDCDCDCBEBEDCDCDCDCDCDCBEBEBEBEBEBEBEBEBEBEBEBEBEBEBEBEBEBEBEBEBEBEBEBEBE0000BEBE000000BEBE00BEBEBE0000BE00DC0000BE000000000000000000000000000000000000000000000000DC00F5F5F5F5F5F5F5F5F5F5F5F500000000000000000000000000000000DC00F5F5F5F5F5F5F5F5F500
310
000000000000000000000000000000000000000000000000000000000000000000000000000000000000000000BE0000DC000000000000000000000000000000000000000028282800000000000000000028282800000000000000000000000000DC000000DC0000000000000000DC0000000000DC00000000DCF5F5F5DCBE
310
BEBEBEBEBEBEBEBEBEBEBEBEBE000000DCBEBEBEBEBEBEBEBEBEBEBEBEBEBEBEBEBEBEBEBEBEBEBEBEBE0000BEBEBE0000BE00BEBEBEBEBEBEBE00DC0000BE000000000000000000000000000000000000000000000000DCDCDCDCDCDCDCDCDCDCDCDCDCDCDCDCDCDCDCDCDCDCDCDCDCDCDCDCDCDCDCDCDCDCDCDCDCDCDCDC
310
DC00000000000000000000000000000000000000000000000000000000000000000000000000000000000000000000BE0000DC000000000000000000000000000000000000000028282800000000000000000028282800000000000000000000000000DC000000DC0000000000000000DC0000000000DC00000000DCF5F5F5
310
DCBEBEBEBEBEBEBEBEBEBEBEBEBEBE000000DCBEBEBEBEBEBEBEBEBEBEBEBEBEBEBEBEBEBEBEBEBEBEBEBEBEBEBEBEBEBE00BEBEBEBEBEBEBE00BEBE00DC0000BE000000000000000000000000000000000000000000000000DC0000000000000000DC000000000000000000000000000000000000000000000000DC000000
310
00000000000000000000000000000000000000000000000000000000000000000000000000000000000000000000000000BE0000DC000000000000000000000000000000000000000028282800000000000000000028282800000000000000000000000000DCDCDCDCDCDCDCDCDCF5F5DCDCDCDCDCDCDCDCDCDCDCDCDCDCDC
310
DCDCDCDCDCDCDCDCDCDCDCDCDCDCDCDCDCDCDCDCDCF5F5F5F5F5F5F5F5F5F5F5F5F5F5F5000000000000000000000000000000000000000000000000000000DC0000BE000000000000000000000000000000000000000000000000DC0000000000000000DC000000000000000000000000000000000000000000000000DC00
310
000000000000000000000000000000000000000000000000000000000000000000000000000000000000000000000000000000BE0000DC000000000000000000000000000000000000000028282800282800000028280028282800000000000000000000000000DCF5F5F5F5F5F5F5F5F5F50000DCF5F5F5F5F5DCF5F5F5F5
310
F5DCDCDCDCF5F5F5F5F5F5DCF5F5F5F5F5F500000000DCF5F5F5F5F5F5F5F5F5F5F5F5F5F5F5000000000000000000000000000000000000000000000000000000DC0000BE000000000000000000000000000000000000000000000000DC0000000000000000DC000000000000000000000000000000000000000000000000
310
DC00000000000000000000000000000000000000000000000000000000000000000000000000000000000000000000000000000000BE0000DC000000000000000000000000000000000000000028282800282828282828280028282800000000000000000000000000DCDCDCDCDCDCDCDCDCDCDCDCDCDCDCDCDCDCDCDCDCDC
310
DCDCDCDCDCDCDCF5F5F5DCDCDCDCF5F5DCDCDCDCDCDCDCDCDCF5F5DCDCDCDCDCDCDCDCDCF5F5F5F5DCDCDCDCDCDCDCDCDCDCDCDCDCDCDCDCDCDCDCDCDCDCDCDCDCDCDCDC0000BE000000000000000000000000000000000000000000000000DC0000000000000000DC00000000000000000000000000000000000000000000
310
0000DC00000000000000000000000000000000000000000000000000000000000000000000000000000000000000000000000000000000BE0000DC000000000000000000000000000000000000000028282800280028282828280028282800000000000000000000000000DC00000000000000000000000000000000000000
310
00000000DC00000000000000000000DC00BEBEBE00BEBEBEBEBEDC000000000000000000000000000000DC00000000000000000000000000000000DC000000000000000000DC0000BE000000000000000000000000000000000000000000000000DC0000000000000000DC0000000000000000000000000000000000000000
310
00000000DC00000000000000000000000000000000000000000000000000000000000000000000000000000000000000000000000000000000BE0000DC000000000000000000000000000000000000000028282828280000000028282828282800000000000000000000000000DC0000000000000000000000000000000000
310
000000000000DC00000000000000000000BEBEBEBEBEBEBEBEBEBEBEBE000000000000000000F5F500000000DC00000000000000000000000000000000DC000000000000000000DC0000BE000000000000000000000000000000000000000000000000DCDCDCDCDCDCDCDCDCDCDCDCDCDCDCDCDCDCDCDCDCDCDCDCDCDCDCDC
310
DCDCDCDCDCDCDCDCDCDCDCDCDC00000000000000000000000000000000000000000000000000000000000000000000000000000000000000000000BE0000DC000000000000000000000000000000000000000028282828282828282828282828282800000000000000000000000000DC000000000000000000000000000000
310
0000000000000000DCDCDCDCDCDCDCDCDCDCDCBEBEBEBEBEBEBEBEBEBEBEBEF5F5F5F5F5F5F5F5F5F5F5F5000000DCF5F5F5F5F5F5F5F5F5F5F5F5F5000000F5F5F5F5F5F5F5F5F5F5DC0000BE000000000000000000000000000000000000000000000000DC0000000000000000DC00000000000000000000000000000000
310
0000000000000000DC00000000000000000000000000000000000000000000000000000000000000000000000000000000000000000000000000000000BE0000DC0000000000000000000000000000000000000000282828282828282828282828282828BE000000000000000000000000DC00000000000000000000000000
310
00000000000000000000DC00000000000000000000BEBEBEBEBEBEBEBEBEDCBEBEF5DCDCBEBEF5BEBEF5BEBEDCDCDCDCDCF5F5DCDCF5F5F5DCF5DCF5F5DCDCDCDCDCF5F5DCF5BEBEBEBEBEBE0000BE000000000000000000000000000000000000000000000000DC0000000000000000DC0000000000000000000000000000
310
00000000000000000000DC00000000000000000000000000000000000000000000000000000000000000000000000000000000000000000000000000000000BE0000DC000000000000000000000000000000000000BEBE282828282828282828282828282828BE000000000000000000000000DC0000000000000000000000
310
000000000000000000000000DCDCDCDCDCDCDCDCDCDCDCDCDCDCDCDCDCDCDCDCDCDCDC000000BEBEBEBEBEBEBEBE00000000DC00000000000000000000000000000000DC00000000BEBEBEBEBEBE0000BE000000000000000000000000000000000000000000000000DC0000000000000000DC000000000000000000000000
310
000000000000000000000000DC00000000000000000000000000000000000000000000000000000000000000000000000000000000000000000000000000000000BE0000DC00000000000000000000000000000000000000F5282828282828282828282828282828BE000000000000000000000000DC000000000000000000
310
0000000000000000000000000000DC00F5F5F500F5F5F5F500DC000000BEBEBEBE000000DC000000BEF5F5BEBEBEBEBE00000000DC000000F5F5F5F5F5F5F5F5F500000000DC00F5F5BEBEBEBEBEBEBE0000BE000000000000000000000000000000000000000000000000DC0000000000000000DC00000000000000000000
310
0000000000000000000000000000DC00000000000000000000000000000000000000000000000000000000000000000000000000000000000000000000000000000000BE0000DC00000000000000000000000000000000000000F5280000000000000000000000BE0028BE000000000000000000000000DC00000000000000
310
00000000000000000000000000000000DC00F5F5F500F5F5F5F500DC000000F5F5F5F5000000DC000000F5F5F5F5F5F5F50000000000DC000000F5F5F5F5F5F5F5F5F500000000DC0000F5F5F5F5F5F5F5DC0000BE000000000000000000000000000000000000000000000000DC0000000000000000DC0000000000000000
310
00000000000000000000000000000000DC00000000000000000000000000000000000000000000000000000000000000000000000000000000000000000000000000000000BE0000DC00000000000000000000000000000000000000F5280000000000000000000000BE0028BE000000000000000000000000DCDCDCDCDCDC
310
DCDCDCDCDCDCDCDCDCDCDCDCDCDCDCDCDCDCDCDCDCDCDCDCDCDCDCDCDCDCDCDCDCDCDCDCDCDCDCDCDCDCDCDCDCDCDCDCDCDCDCDCDCDCDCDCDCDCDCDCDCDCDCDCDCDCDCDCDCDCDCDCDCDCDCDCDCDCDCDCDCDCDCDC0000BE000000000000000000000000000000000000000000000000DCDCDCDCDCDCDCDCDCDCDCDCDCDCDCDC
310
DCDCDCDCDCDCDCDCDCDCDCDCDCDCDCDCDCDCDCDCDCDCDCDCDC00000000000000000000000000000000000000000000000000000000000000000000000000000000000000000000BE0000DC00000000000000000000000000000000000000F5282828282828282828282828282828BE00000000000000000000000000000000
310
00000000000000000000000000000000000000000000000000000000000000000000000000000000000000000000000000000000000000000000000000000000000000000000000000000000000000000000000000DC0000BE000000000000000000000000000000000000000000000000DC0000000000000000DC00000000
310
0000000000000000000000000000000000000000DC00000000000000000000000000000000000000000000000000000000000000000000000000000000000000000000000000000000BE0000DC00000000000000000000000000000000000000F5BE0000000000000000000000BE00BEBE0000000000000000000000000000
310
000000000000000000000000000000000000000000000000000000000000000000000000000000000000000000000000000000000000000000000000000000000000000000000000000000000000000000000000000000DC0000BE000000000000000000000000000000000000000000000000DC0000000000000000DC0000
310
00000000000000000000000000000000000000000000DC00000000000000000000000000000000000000000000000000000000000000000000000000000000000000000000000000000000BE0000DC00000000000000000000000000000000000000F5BE0000000000000000000000BE00BEBE000000000000000000000000
310
0000000000000000000000000000000000000000000000000000000000000000000000000000000000000000000000000000000000000000000000000000000000000000000000000000000000000000000000000000000000DC0000BE000000000000000000000000000000000000000000000000DC0000000000000000DC
310
000000000000000000000000000000000000000000000000DC00000000000000000000000000000000000000000000000000000000000000000000000000000000000000000000000000000000BE0000DC00000000000000000000000000000000000000F5BEF5F5BEBEBEBEBEBEBEF5F5BEBEBEBE00000000000000000000
310
00000000000000000000000000000000000000000000000000000000000000000000000000000000000000000000000000000000000000000000000000000000000000000000000000000000000000000000000000000000000000DC0000BE000000000000000000000000000000000000000000000000DC00000000000000
310
00DC000000000000000000000000000000000000000000000000DC00000000000000000000000000000000000000000000000000000000000000000000000000000000000000000000000000000000BE0000DC00000000000000000000000000000000000000F5BEF5F5F5F5F5F5F5F5F5F5F5BEF5F5000000000000000000
310
000000000000000000000000000000000000000000000000000000000000000000000000000000000000000000000000000000000000000000000000000000000000000000000000000000000000000000000000000000000000000000DC0000BE000000000000000000000000000000000000000000000000DC0000000000
310
000000DC000000000000000000000000000000000000000000000000DC00000000000000000000000000000000000000000000000000000000000000000000000000000000000000000000000000000000BE0000DC00000000000000000000000000000000000000F5F5F5F5F5F5F5F5F5F5F5F5F5F5F5F528000000000000
310
0000000000000000000000000000000000000000000000000000000000000000000000000000000000000000000000000000000000000000000000000000000000000000000000000000000000000000000000000000000000000000000000DC0000BE000000000000000000000000000000000000000000000000DC000000
310
0000000000DC000000000000000000000000000000000000000000000000DC00000000000000000000000000000000000000000000000000000000000000000000000000000000000000000000000000000000BE0000DC00000000000000000000000000000000000000F5F5F50000000000280000000000F5F52800000000
310
00000000000000000000000000000000000000000000000000000000000000000000000000000000000000000000000000000000000000000000000000000000000000000000000000000000000000000000000000000000000000000000000000DC0000BE000000000000000000000000000000000000000000000000DCDC
310
DCDCDCDCDCDCDCDCDCDCDCDCDCDCDCDCDCDCDCDCDCDCDCDCDCDCDCDCDCDCDCDCDCDCDCDCDCDCDC00000000000000000000000000000000000000000000000000000000000000000000000000000000000000000000BE0000DC0000000000000000000000000000000000000028F5F50000000028282800000000F5F5F50000
310
000000000000000000000000000000000000000000000000000000000000000000000000000000000000000000000000000000000000000000000000000000000000000000000000000000000000000000000000000000000000000000000000000000DC0000BE000000000000000000000000000000000000000000000000
310
DC0000000000000000DC000000000000000000000000000000000000000000000000DC00000000000000000000000000000000000000000000000000000000000000000000000000000000000000000000000000000000BE0000DC000000000000000000000000000000000000002828F5F5F5F5F5F5F5F5F5F528282828F5
310
0000000000000000000000000000000000000000000000000000000000000000000000000000000000000000000000000000000000000000000000000000000000000000000000000000000000000000000000000000000000000000000000000000000000DC0000BE00000000000000000000000000000000000000000000
310
0000DC0000000000000000DC000000000000000000000000000000000000000000000000DC00000000000000000000000000000000000000000000000000000000000000000000000000000000000000000000000000000000BE0000DC00000000000000000000000000000000000000F52800280000000000000000002828
310
28F50000000000000000000000000000000000000000000000000000000000000000000000000000000000000000000000000000000000000000000000000000000000000000000000000000000000000000000000000000000000000000000000000000000000DC0000BE0000000000000000000000000000000000000000
310
00000000DC0000000000000000DC000000000000000000000000000000000000000000000000DC00000000000000000000000000000000000000000000000000000000000000000000000000000000000000000000000000000000BE0000DC00000000000000000000000000000000000000F52828F5282828282828282828
310
F52828F50000000000000000000000000000000000000000000000000000000000000000000000000000000000000000000000000000000000000000000000000000000000000000000000000000000000000000000000000000000000000000000000000000000000DC0000BE000000000000000000000000000000000000
310
000000000000DC0000000000000000DC000000000000000000000000000000000000000000000000DC00000000000000000000000000000000000000000000000000000000000000000000000000000000000000000000000000000000BE0000DC000000000000000000000000000000000000002D00000000000000000000
310
00000000002D0000000000000000000000000000000000000000000000000000000000000000000000000000000000000000000000000000000000000000000000000000000000000000000000000000000000000000000000000000000000000000000000000000000000DC0000BE00000000000000000000000000000000
310
0000000000000000DC0000000000000000DC000000000000000000000000000000000000000000000000DC00000000000000000000000000000000000000000000000000000000000000000000000000000000000000000000000000000000BE0000DC000000000000000000000000000000000000002D0000000000000000
310
000000000000002D0000000000000000000000000000000000000000000000000000000000000000000000000000000000000000000000000000000000000000000000000000000000000000000000000000000000000000000000000000000000000000000000000000000000DC0000BE0000000000000000000000000000
310
00000000000000000000DCDCDCDCDCDCDCDCDCDCDCDCDCDCDCDCDCDCDCDCDCDCDCDCDCDCDCDCDCDCDCDCDCDCDCDCDCDCDCDCDC00000000000000000000000000000000000000000000000000000000000000000000000000000000000000000000BE0000DC000000000000000000000000000000000000002D2D2D2D2D2D2D
310
2D2D2D2D2D2D2D2D2DF50000000000000000000000000000000000000000000000000000002D2D2D2D2D2D2D2D2D2D2D2D2D2D2D2D2D2D2D2D2D2D2D2D2D2DF50000000000000000000000000000000000000000000000000000000000000000000000000000000000000000000000DC0000BE000000000000000000000000
310
000000000000000000000000DC0000000000000000DC00000000000000000000000000F5F5000000000000000000DC00000000000000000000000000000000000000000000000000000000000000000000000000000000000000000000000000000000BE0000DC000000000000000000000000000000000000002D2D000000
310
00BEBEBEBE00000000002D2D0000000000000000000000000000000000000000000000000000002D00000000000000000000BEBEBEBE00000000000000000000002D0000000000000000000000000000000000000000000000000000000000000000000000000000000000000000000000DC0000BE00000000000000000000
310
0000000000000000000000000000DCF5F5F5F5F5F5F5F5DC00F5F5F5F5F5F5F5F5F5F5F5F5F5F5F50000000000000000DC00F5F5F5F5F500000000000000000000000000000000000000000000000000000000000000000000000000000000000000000000BE0000DC00000000000000000000000000000000000000000000
310
000000BEBEBEBE000000000000000000000000000000000000000000000000000000000000000000002D00000000000000000000BEBEBEBE00000000000000000000002D0000000000000000000000000000000000000000000000000000000000000000000000000000000000000000000000DC0000BE0000000000000000
310
00000000000000000000000000000000DC00F500F5F5F5F5F5DC0000F5F5F5F5F5F5F5F5F5F5F5F5F5F50000000000000000DC00F5F5F5F5F500000000000000000000000000000000000000000000000000000000000000000000000000000000000000000000BE0000DC0000000000000000000000000000000000000000
310
000000000000000000000000000000000000000000000000000000000000000000000000000000000000002D000000000000000000000000000000000000000000000000002D0000000000000000000000000000000000000000000000000000000000000000000000000000000000000000000000DC0000BE000000000000
310
000000000000000000000000000000000000DC00F5F5000000F500DC0000F5F5000000F500000000000000000000000000000000DC00F5F50000F500000000000000000000000000000000000000000000000000000000000000000000000000000000000000000000BE0000DC000000000000000000000000000000000000
310
0000000000000000000000000000000000000000000000000000000000000000000000000000000000000000002D000000000000000000000000000000000000000000000000002D0000000000000000000000000000000000000000000000000000000000000000000000000000000000000000000000DC0000BE00000000
310
0000000000000000000000000000000000000000DC0000000000000000DC000000000000000000000000000000000000000000000000DC00000000000000000000000000000000000000000000000000000000000000000000000000000000000000000000000000000000BE0000DC00000000000000000000000000000000
310
00000000000000000000000000000000000000000000000000000000000000000000000000000000000000000000002D000000000000000000000000000000000000000000000000002D0000000000000000000000000000000000000000000000000000000000000000000000000000000000000000000000DC0000BE0000
310
00000000000000000000000000000000000000000000DCDCDCDCDCDCDCDCDCDCDCDCDCDCDCDCDCDCDCDCDCDCDCDCDCDCDCDCDCDCDCDCDCDCDCDCDCDCDCDCDC00000000000000000000000000000000000000000000000000000000000000000000000000000000000000000000BE0000DC0000000000000000000000000000
310
000000000000000000000000000000000000000000000000000000000000000000000000000000000000000000000000002D000000000000000000000000000000000000000000000000002D0000000000000000000000000000000000000000000000000000000000000000000000000000000000000000000000DC0000BE
310
000000000000000000000000000000000000000000000000DC0000000000000000000000000000000000000000000000000000000000000000000000000000000000000000000000000000000000000000000000000000000000000000000000000000000000000000000000000000BE0000DC000000000000000000000000
310
0000000000000000000000000000000000000000000000000000000000000000000000000000000000000000000000000000002D000000000000000000000000000000000000000000000000002D0000000000000000000000000000000000000000000000000000000000000000000000000000000000000000000000DC00
310
00BE000000000000000000000000000000000000000000000000DC0000000000000000000000000000000000000000000000000000000000000000000000000000000000000000000000000000000000000000000000000000000000000000000000000000000000000000000000000000BE0000DC00000000000000000000
310
00000000000000000000BEBE28BEBEBEF5F528BEBEBE28BEBEBE000000000000000000000000000000002D2D2D2D2D2D2D2D2D2D2D2D2D2D2D2DF5F5BEBEBEBEBEBEBEBEBE000000000000000000002D0000000000000000000000000000000000000000000000000000000000000000000000000000000000000000000000
310
DC0000BE000000000000000000000000000000000000000000000000DC0000000000000000000000000000000000000000000000000000000000000000000000000000000000000000000000000000000000000000000000000000000000000000000000000000000000000000000000000000BE0000DC0000000000000000
310
0000000000000000000000F5BE00280000282828280000002828F5BE00000000000000000000000000000000002D002D000000000000002DF5F5F5F5F5F5BEBE00BEBEF5F5F500000000000000000000F528F50000000000000000000000000000000000000000000000000000000000000000000000000000000000000000
310
0000DC0000BE000000000000000000000000000000000000000000000000DC0000000000000000000000000000000000000000000000000000000000000000000000000000000000000000000000000000000000000000000000000000000000000000000000000000000000000000000000000000BE0000DC000000000000
310
00000000000000000000000000F5BEF528F50000BEBE28F5F5F52828F5BE00000000000000000000000000000000002D002D000000000000002DF500BEF500F5BE0000F5F52828F5BEBE00000000000000F5F528F5000000000000000000000000000000000000000000000000000000000000000000000000000000000000
310
00000000DC0000BE000000000000000000000000000000000000000000000000DC0000000000000000000000000000000000000000000000000000000000000000000000000000000000000000000000000000000000000000000000000000000000000000000000000000000000000000000000000000BE0000DC00000000
310
000000000000000000000000000000F5BEBEBEBEBEBEBEBEBEBEBEBEBEBEF5BE00000000000000000000000000000000002D002D000000000000002DF5F5F5F50028F5F5F5000000BEF5F5F528F5F5F5F5F5F5F5F528F528000000000000000000000000000000000000000000000000000000000000000000000000000000
310
000000000000DC0000BE000000000000000000000000000000000000000000000000DC0000000000000000000000000000000000000000000000000000000000000000000000000000000000000000000000000000000000000000000000000000000000000000000000000000000000000000000000000000BE0000DC0000
310
0000000000000000000000000000000000F5F5BE2828282828282828282828BEF5BE00000000000000000000000000000000002D002D002D2D2D2D2D2DF5F5F5F5F5F5F5BE0000BEBE0000F5282828000000000000000000002800000000000000000000000000000000000000000000000000000000000000000000000000
310
0000000000000000DC0000BE000000000000000000000000000000000000000000000000DC0000000000000000000000000000000000000000000000000000000000000000000000000000000000000000000000000000000000000000000000000000000000000000000000000000000000000000000000000000BE0000DC
310
00000000000000000000000000000000000000F5F5BE2828282828282828282828BEF5F500000000000000000000000000000000002D002D00002D00000000F5F5F5F5280028BE0000BEBE0000F528282800000000000000000000280000000000000000000000000000000000000000000000000000000000000000000000
310
00000000000000000000DC0000BE000000000000000000000000000000000000000000000000DC0000000000000000000000000000000000000000000000000000000000000000000000000000000000000000000000000000000000000000000000000000000000000000000000000000000000000000000000000000BE00
310
00DC0000000000000000000000000000000000000028BEBE282800002828282828BE28BEF5F500000000000000000000000000000000002D002D00002D00000000F5F52828000028BE000000F5F5F5002828280000000000000000000028000000000000000000000000000000000000000000000000000000000000000000
310
000000000000000000000000DC0000BE000000000000000000000000000000000000000000000000DC0000000000000000000000000000000000000000000000000000000000000000000000000000000000000000000000000000000000000000000000000000000000000000000000000000000000000000000000000000
310
BE0000DC00000000000000000000000000000000000000F5BEBE282800002828282828BE28BEF5F500000000000000000000000000000000002D002D00002D0000000028282828000028BEF5F5F50000000028F528002828282828282828282800000000000000000000000000000000000000000000000000000000000000
310
0000000000000000000000000000DC0000BE000000000000000000000000000000000000000000000000DC000000000000000000000000000000000000000000000000000000000000000000000000000000000000000000000000000000000000000000000000000000000000000000000000000000000000000000000000
310
0000BE0000DC00000000000000000000000000000000000000F5BEBE28F500002828BEF5F5F528BEF5F500000000000000000000000000000000002D002D00002D00000000282828280000F5F50000000000000028F52828282828282828282828280000000000000000000000000000000000000000000000000000000000
310
00000000000000000000000000000000DC0000BE000000000000000000000000000000000000000000000000DC00000000000000000000000000000000000000000000000000000000000000000000000000000000000000000000000000000000000000000000000000000000000000000000000000000000000000000000
310
00000000BE0000DC00000000000000000000000000000000000000F5BEBE2800280000000000280028BEF5F500000000000000000000000000000000002D002D00002D0000000028000000F5F5F5BE0000000000000028F5282828000000000000000028000000000000000000000000000000000000000000000000000000
310
000000000000000000000000000000000000DC0000BE000000000000000000000000000000000000000000000000DC0000000000000000000000000000000000000000000000000000000000000000000000000000000000000000000000000000000000000000000000000000000000000000000000000000000000000000
310
000000000000BE0000DC00000000000000000000000000000000000000F5F5BE2828282800000028282828BEF5F500000000000000000000000000000000002D002D00002D0000000028000000F500F5BE0000000000000028F528282800000000000000002800000000000000000000000000000000000000000000000000
310
0000000000000000000000000000000000000000DC0000BE000000000000000000000000000000000000000000000000DC000000000000000000000000000000000000000000000000000000000000000000000000000000000000000000000000000000000000000000000000000000000000000000000000000000000000
310
0000000000000000BE0000DC00000000000000000000000000000000000000F5F5BE2828BE280000BE28BE2828BEF5F500000000000000000000000000000000002D002D00002D0000000028000000F500F5BE0000000000000028282828000000000000000000280000000000000000000000000000000000000000000000
310
00000000000000000000000000000000000000000000DC0000BE000000000000000000000000000000000000000000000000DC00000000000000000000000000000000000000000000000000000000000000000000000000000000000000000000000000000000000000000000000000000000000000000000000000000000
310
00000000000000000000BE0000DC00000000000000000000000000000000000000F5F528BEBEBEBEBEBEBEBEBEBEBE28F5F500000000000000000000000000000000002D002D00002D0000000028000000F500F5BE00000000000000F528282800000000000000000028000000000000000000000000000000000000000000
310
000000000000000000000000000000000000000000000000DC0000BE000000000000000000000000000000000000000000000000DC0000000000000000000000000000000000000000000000000000000000000000000000000000000000000000000000000000000000000000000000000000000000000000000000000000
310
000000000000000000000000BE0000DC00000000000000000000000000000000000000F5F5BE28BEBEBEBEBEBEBEBEBE2828F5F500000000000000000000000000000000002D002D00002D0000000028000000F500F5BE00000000000000BE0028000000000000000000002800000000000000000000000000000000000000
310
0000000000000000000000000000000000000000000000000000DC0000BE000000000000000000000000000000000000000000000000DC000000000000000000000000000000000000000000000000000000000000000000000000000000000000000000000000000000000000000000000000000000000000000000000000
310
0000000000000000000000000000BE0000DC00000000000000000000000000000000000000F5F5BE2800280028282800280028BEF5F500000000000000000000000000000000002D002D00002D0000000028000000F500F5BE00000000000000BE002800000000000000000000280000000000000000000000000000000000
310
00000000000000000000000000000000000000000000000000000000DC0000BE000000000000000000000000000000000000000000000000DC00000000000000000000000000000000000000000000000000000000000000000000000000000000000000000000000000000000000000000000000000000000000000000000
310
00000000000000000000000000000000BE0000DC00000000000000000000000000000000000000F5F5BE2800000000280000000028BEF5F500000000000000000000000000000000002D002D00002D0000000028000000F500F5BE00000000000000BE00280000000000000000000028000000000000000000000000000000
310
000000000000000000000000000000000000000000000000000000000000DC0000BE000000000000000000000000000000000000000000000000DC0000000000000000000000000000000000000000000000000000000000000000000000000000000000000000000000000000000000000000000000000000000000000000
310
000000000000000000000000000000000000BE0000DC00000000000000000000000000000000000000F5F5BE28F50000000000F5F5F528BEF5F500000000000000000000000000000000002D002D00002D0000000028000000F500F5BE000000000000BEBE0028000000000000000000002800000000000000000000000000
310
0000000000000000000000000000000000000000000000000000000000000000DC0000BE000000000000000000000000000000000000000000000000DCDCDCDCDCDCDCDCDCDCDCDCDCDCDCDCDCDCDCDCDCDCDCDCDCDCDCDCDCDCDCDCDCDCDCDCDCDCDCDCDC0000000000000000000000000000000000000000000000000000
310
0000000000000000000000000000000000000000BE0000DC00000000000000000000000000000000000000F5F5BE282800000000002828BE28BEF5F500000000000000000000000000000000002D002D00002D0000000028000000F500F5BE000000BE0000BE00002800000000000000000000280000000000000000000000
310
00000000000000000000000000000000000000000000000000000000000000000000DC0000BE000000000000000000000000000000000000000000000000DC00000000000000000000000000000000000000000000000000000000000000000000000000000000000000000000000000000000000000000000000000000000
310
00000000000000000000000000000000000000000000BE0000DC00000000000000000000000000000000000000F5F5BE282800000000002828BE28BEF5F500000000000000000000000000000000002D002D00002D0000000028000000F500F5BE0000BEBE0000BE0000280000000000000000000028000000000000000000
310
000000000000000000000000000000000000000000000000000000000000000000000000DC0000BE000000000000000000000000000000000000000000000000DC0000000000000000000000000000000000000000000000000000000000000000000000000000000000000000000000000000000000000000000000000000
310
000000000000000000000000000000000000000000000000BE0000DC00000000000000000000000000000000000000F5F5BE282800000000002828BE28BEF5F500000000000000000000000000000000002DBE2D00002D0000000028000000F500F5BE0000000000BEBE000028000000000000000000002800000000000000
310
0000000000000000000000000000000000000000000000000000000000000000000000000000DC0000BE000000000000000000000000000000000000000000000000DC000000000000000000000000000000000000000000000000000000000000000000000000000000000000000000000000000000000000000000000000
310
0000000000000000000000000000000000000000000000000000BE0000DC00000000000000000000000000000000000000F5F5BE282800000000002828BE28BEF5F500000000000000000000000000000000002DBE2D00BE2D0000000028000000F500F5BE0000000000BE0000F528F5F5F5F5F5F5F5F5F5F528F500000000
310
00000000000000000000000000000000000000000000000000000000000000000000000000000000DC0000BE000000000000000000000000000000000000000000000000DC00000000000000000000000000000000000000000000000000000000000000000000000000000000000000000000000000000000000000000000
310
00000000000000000000000000000000000000000000000000000000BE0000DC00000000000000000000000000000000000000F5F5BE2828282828282828282828BEF5F500000000000000000000000000000000002DBE2DBEBE2D0000000028000000F500F52828282828BEBE002828280000000000000000000028000000
310
000000000000000000000000000000000000000000000000000000000000000000000000000000000000DC0000BE000000000000000000000000000000000000000000000000DC0000000000000000000000000000000000000000000000000000000000000000000000000000000000000000000000000000000000000000
310
000000000000000000000000000000000000000000000000000000000000BE0000DC00000000000000000000000000000000000000F5F5BE28BEBEBEBEBEBEBEBE28BEBEF5F5000000000000000000000000000000BEBE2DBE2DBEBE2D0000000028000000F500F528BEBEBE28282828280000000000000000000000002800
310
0000000000000000000000000000000000000000000000000000000000000000000000000000000000000000DC0000BE000000000000000000000000000000000000000000000000DC000000000000000000000000000000000000000000000000000000000000000000000000000000000000000000000000000000000000
310
0000000000000000000000000000000000000000000000000000000000000000BE0000DC00000000000000000000000000000000000000F5F5BEBEBEBEBEBEBEBEBEBEBEBE28F5F5000000000000000000000000000000BEBE2D002DBEBE2D0000000028000000F500F5BE282828282828F5F5F5F5F5F5F5F5F5F5F5F5F5F5
310
28F50000000000000000000000000000000000000000000000000000000000000000000000000000000000000000DC0000BE000000000000000000000000000000000000000000000000DC00000000000000000000000000000000000000000000000000000000000000000000000000000000000000000000000000000000
310
00000000000000000000000000000000000000000000000000000000000000000000BE0000DC00000000000000000000000000000000000000F5F500BEBEBEBEBEBEBEBEBE28BE28F5F5000000000000000000000000000000BEBE2D002DBEBE2D0000000028000000F500F5000000F5280000000000000000000000000000
310
000028000000000000000000000000000000000000000000000000000000000000000000000000000000000000000000DC0000BE000000000000000000000000000000000000000000000000DC0000000000000000000000000000000000000000000000000000000000000000000000000000000000000000000000000000
310
000000000000000000000000000000000000000000000000000000000000000000000000BE0000DC00000000000000000000000000000000000000F5F500280028282828282800002828F5F5000000000000000000000000000000BEBE2D002D00002D0000000028000000F500F5000000F528000000000000000000000000
310
0000000028000000000000000000000000000000000000000000000000000000000000000000000000000000000000000000DC0000BE000000000000000000000000000000000000000000000000DC000000000000000000000000000000000000000000000000000000000000000000000000000000000000000000000000
310
0000000000000000000000000000000000000000000000000000000000000000000000000000BE0000DC00000000000000000000000000000000000000F5F5002800282800F5F52828002828F5F500000000000000000000000000000000BE2D002D00002D0000000028000000F500F5000000F52800000000000000000000
310
00000000000028F50000000000000000000000000000000000000000000000000000000000000000000000000000000000000000DC0000BE000000000000000000000000000000000000000000000000DC00000000000000000000000000000000000000000000000000000000000000000000000000000000000000000000
310
00000000000000000000000000000000000000000000000000000000000000000000000000000000BE0000DC00000000000000000000000000000000000000F5F50028002828F5F5F52828002828F5F500000000000000000000000000000000002D002D00002D0000000028000000F500F5000000F5280000000000000000
310
000000000000000028F50000000000000000000000000000000000000000000000000000000000000000000000000000000000000000DC0000BE000000000000000000000000000000000000000000000000DC0000000000000000000000000000000000000000000000000000000000000000000000000000000000000000
310
000000000000000000000000000000000000000000000000000000000000000000000000000000000000BE0000DC00000000000000000000000000000000000000F5F500280028280000002828002828F5F500000000000000000000000000000000002D002D00002D0000000028000000F500F5000000F528000000000000
310
0000000000000000000028F50000000000000000000000000000000000000000000000000000000000000000000000000000000000000000DC0000BE000000000000000000000000000000000000000000000000DC000000000000000000000000000000000000000000000000000000000000000000000000000000000000
310
0000000000000000000000000000000000000000000000000000000000000000000000000000000000000000BE0000DC00000000000000000000000000000000000000F5F5F5F5F52828F5F5F52828F5F5F5F5F500000000000000000000000000000000002D002D00002D000000002800282828F5F5000000F52800000000
310
00000000000000000000000028F50000000000000000000000000000000000000000000000000000000000000000000000000000000000000000DC0000BE000000000000000000000000000000000000000000000000DC00000000000000000000000000000000000000000000000000000000000000000000000000000000
310
00000000000000000000000000000000000000000000000000000000000000000000000000000000000000000000BE0000DC00000000000000000000000000000000000000F5F500F5002828000000282800F5F5F5F500000000000000000000000000000000002D002D00002D0000000028002800F50000000000F5280000
310
000000000000000000000000000028F50000000000000000000000000000000000000000000000000000000000000000000000000000000000000000DC0000BE000000000000000000000000000000000000000000000000DC0000000000000000000000000000000000000000000000000000000000000000000000000000
310
000000000000000000000000000000000000000000000000000000000000000000000000000000000000000000000000BE0000DC00000000000000000000000000000000000000F5F5F5F5002828000000282800F5F5F5F500000000000000000000000000000000002D002D00002D0000000028002800280000000000F528
310
0000000000000000000000000000000028F50000000000000000000000000000000000000000000000000000000000000000000000000000000000000000DC0000BE000000000000000000000000000000000000000000000000DC000000000000000000000000000000000000000000000000000000000000000000000000
310
0000000000000000000000000000000000000000000000000000000000000000000000000000000000000000000000000000BE0000DC00000000000000000000000000000000000000F528F5F5002828282828282800F5F528F500000000000000000000000000000000002D002D00002D0000000028002800F50000000000
310
F5280000000000000000000000000000000028F50000000000000000000000000000000000000000000000000000000000000000000000000000000000000000DC0000BE000000000000000000000000000000000000000000000000DC00000000000000000000000000000000000000000000000000000000000000000000
310
00000000000000000000000000000000000000000000000000000000000000000000000000000000000000000000000000000000BE0000DC00000000000000000000000000000000000000F528F5F5002828282828282800F5F528F500000000000000000000000000000000002D002D00002D0000000028002800F5000000
310
0000F5280000000000000000000000000000000028F50000000000000000000000000000000000000000000000000000000000000000000000000000000000000000DC0000BE000000000000000000000000000000000000000000000000DC0000000000000000000000000000000000000000000000000000000000000000
310
000000000000000000000000000000000000000000000000000000000000000000000000000000000000000000000000000000000000BE0000DC00000000000000000000000000000000000000F528F5F5000000000000000000F5F528F500000000000000000000000000000000002D002D00002D0000000028002800F500
310
00000000F5280000000000000000000000000000000028F50000000000000000000000000000000000000000000000000000000000000000000000000000000000000000DC0000BE000000000000000000000000000000000000000000000000DC000000000000000000000000000000000000000000000000000000000000
310
0000000000000000000000000000000000000000000000000000000000000000000000000000000000000000000000000000000000000000BE0000DC00000000000000000000000000000000000000F528F5F5000000000000000000F5F528F500000000000000000000000000000000002D002D00002D0000000028002800
310
F50000000000F5280000000000000000000000000000000028F50000000000000000000000000000000000000000000000000000000000000000000000000000000000000000DC0000BE000000000000000000000000000000000000000000000000DC00000000000000000000000000000000000000000000000000000000
310
00000000000000000000000000000000000000000000000000000000000000000000000000000000000000000000000000000000000000000000BE0000DC00000000000000000000000000000000000000F5F5F5F5000000000000000000F5F5F5F500000000000000000000000000000000002D002D00002D00000000F5F5
310
F5F5F50000000000F5280000000000000000000000000000000028F50000000000000000000000000000000000000000000000000000000000000000000000000000000000000000DC0000BE000000000000000000000000000000000000000000000000DC0000000000000000000000000000000000000000000000000000
310
000000000000000000000000000000000000000000000000000000000000000000000000000000000000000000000000000000000000000000000000BE0000DC00000000000000000000000000000000000000F5F500F5000000000000000000F5F5F5F500000000000000000000000000000000002D002D00002D00000000
310
F500F500000000000000F5280000000000000000000000000000000028F50000000000000000000000000000000000000000000000000000000000000000000000000000000000000000DC0000BE000000000000000000000000000000000000000000000000DC000000000000000000000000000000000000000000000000
310
0000000000000000000000000000000000000000000000000000000000000000000000000000000000000000000000000000000000000000000000000000BE0000DC00000000000000000000000000000000000000F5F500F5000000000000000000F5F5F5F500000000000000000000000000000000002D002D00002D0000
310
0000F500F500000000000000F5280000000000000000000000000000000028F50000000000000000000000000000000000000000000000000000000000000000000000000000000000000000DC0000BE000000000000000000000000000000000000000000000000DC00000000000000000000000000000000000000000000
310
00000000000000000000000000000000000000000000000000000000000000000000000000000000000000000000000000000000000000000000000000000000BE0000DC00000000000000000000000000000000000000F5F5F500000000000000000000F5F5F5F500000000000000000000000000000000002D002D00002D
310
00000000F500F5F5000000000000F5280000000000000000000000000000000028F50000000000000000000000000000000000000000000000000000000000000000000000000000000000000000DC0000BE000000000000000000000000000000000000000000000000DC0000000000000000000000000000000000000000
310
000000000000000000000000000000000000000000000000000000000000000000000000000000000000000000000000000000000000000000000000000000000000BE0000DC00000000000000000000000000000000000000F528F5F5F5F5F5F5F5F5F5F5F5F5F528F500000000000000000000000000000000002D002D00
310
002D00000000F5F5F5F5000000000000F5280000000000000000000000000000000028F50000000000000000000000000000000000000000000000000000000000000000000000000000000000000000DC0000BE000000000000000000000000000000000000000000000000DC000000000000000000000000000000000000
310
0000000000000000000000000000000000000000000000000000000000000000000000000000000000000000000000000000000000000000000000000000000000000000BE0000DC00000000000000000000000000000000000000F5F5F5F5F5F5F5F5F5F5F5F5F5F5F5F5F500000000000000000000000000000000002D2D
310
F52D2D2D2D2D2D2DF5F5F5F5000000000000F5280000000000000000000000000000000028F50000000000000000000000000000000000000000000000000000000000000000000000000000000000000000DC0000BE000000000000000000000000000000000000000000000000DC00000000000000000000000000000000
310
00000000000000000000000000000000000000000000000000000000000000000000000000000000000000000000000000000000000000000000000000000000000000000000BE0000DC0000000000000000000000000000000000000000000000000000000000000000000000000000000000000000000000000000000000
310
2D0000000000000000002D000000000000000000F5280000000000000000000000000000000028F50000000000000000000000000000000000000000000000000000000000000000000000000000000000000000DC0000BE000000000000000000000000000000000000000000000000DC0000000000000000000000000000
310
000000000000000000000000000000000000000000000000000000000000000000000000000000000000000000000000000000000000000000000000000000000000000000000000BE0000DC000000000000000000000000000000000000000000000000000000000000000000000000000000000000000000000000000000
310
00002D0000000000000000002D000000000000000000F5280000000000000000000000000000000028F50000000000000000000000000000000000000000000000000000000000000000000000000000000000000000DC0000BE000000000000000000000000000000000000000000000000DC000000000000000000000000
310
0000000000000000000000000000000000000000000000000000000000000000000000000000000000000000000000000000000000000000000000000000000000000000000000000000BE0000DC00000000000000000000000000000000000000000000000000000000000000000000000000000000000000000000000000
310
000000002D0000000000000000002D000000000000000000F5280000000000000000000000000000000028F50000000000000000000000000000000000000000000000000000000000000000000000000000000000000000DC0000BE000000000000000000000000000000000000000000000000DC00000000000000000000
310
00000000000000000000000000000000000000000000000000000000000000000000000000000000000000000000000000000000000000000000000000000000000000000000000000000000BE0000DC0000000000000000000000000000000000000000000000000000000000000000000000000000000000000000000000
310
0000000000002D0000000000000000002D000000000000000000F5282828000000000000000000000000000028F50000000000000000000000000000000000000000000000000000000000000000000000000000000000000000DC0000BE000000000000000000000000000000000000000000000000DC0000000000000000
310
000000000000000000000000000000000000000000000000000000000000000000000000000000000000000000000000000000000000000000000000000000000000000000000000000000000000BE0000DC000000000000000000000000000000000000000000000000000000000000000000000000000000000000000000
310
00000000000000002D0000000000000000002D000000000000000000F5280028282828282828282828282828282828F50000000000000000000000000000000000000000000000000000000000000000000000000000000000000000DC0000BE000000000000000000000000000000000000000000000000DC000000000000
310
0000000000000000000000000000000000000000000000000000000000000000000000000000000000000000000000000000000000000000000000000000000000000000000000000000000000000000BE0000DC00000000000000000000000000000000000000000000000000000000000000000000000000000000000000
310
0000000000000000002DF52D2D2D2D2D2D2D2D2D2D2D2D2D2D2D2D2D2DF5F528F5F5F5F5F5F5F5F5F5F5F5F5F5F5F5F528F50000000000000000000000000000000000000000000000000000000000000000000000000000000000000000DC0000BE000000000000000000000000000000000000000000000000DC00000000
310
00000000000000000000000000000000000000000000000000000000000000000000000000000000000000000000000000000000000000000000000000000000000000000000000000000000000000000000BE0000DC0000000000000000000000000000000000000000000000000000000000000000000000000000000000
310
000000000000000000000000000000000000000000002D000000000000000000000000000000000000000000000000000000002D0000000000000000000000000000000000000000000000000000000000000000000000000000000000000000DC0000BE000000000000000000000000000000000000000000000000DC0000
310
000000000000000000000000000000000000000000000000000000000000000000000000000000000000000000000000000000000000000000000000000000000000000000000000000000000000000000000000BE0000DC000000000000000000000000000000000000000000000000000000000000000000000000000000
310
0000000000000000000000000000000000000000000000002D2D2D2D2D2D2D2D2D2D2D2D2DBEBEBEBE2D2D2D2D2D2D2D2D2D2D2D2DF50000000000000000000000000000000000000000000000000000000000000000000000000000000000000000DC0000BE000000000000000000000000000000000000000000000000DC
310
0000000000000000000000000000000000000000000000000000000000000000000000000000000000000000000000000000000000000000000000000000000000000000000000000000000000000000000000000000BE0000DC00000000000000000000000000000000000000000000000000000000000000000000000000
310
000000000000000000000000000000000000000000000000000000000000000000000000000000BEBEBEBE000000000000000000000000000000000000000000000000000000000000000000000000000000000000000000000000000000000000000000DC0000BE0000000000000000000000000000000000000000000000
310
00DC0000000000000000000000000000000000000000000000000000000000000000000000000000000000000000000000000000000000000000000000000000000000000000000000000000000000000000000000000000BE0000DCDCDCDCDCDCDCDCDCDCDCDCDCDCDCDCDCDCDCDCDCDCDCDCDCDCDCDCDCDCDCDCDCDCDCDC
310
DCDCDCDCDCDCDCDCDCDCDCDCDCDCDCDCDCDCDCDCDCDCDCDCDCDCDCDCDCDCDCDCDCDCDCDCDCDCDCDCDCDCDCDCDCDCDCDCDCDCDCDCDCDCDCDCDCDCDCDCDCDCDCDCDCDCDCDCDCDCDCDCDCDCDCDCDCDCDCDCDCDCDCDCDCDCDCDCDCDCDCDCDCDCDCDCDCDCDCDCDCDCDC0000BE000000000000000000000000000000000000000000
310
000000DC0000000000000000000000000000000000000000000000000000000000000000000000000000000000000000000000000000000000000000000000000000000000000000000000000000000000000000000000000000BE000000000000000000000000000000000000000000000000000000000000000000000000
310
0000000000000000000000000000000000000000000000000000000000000000000000000000000000000000000000000000000000000000000000000000000000000000000000000000000000000000000000000000000000000000000000000000000000000000000000BE00000000000000000000000000000000000000
310
0000000000DC0000000000000000000000000000000000000000000000000000000000000000000000000000000000000000000000000000000000000000000000000000000000000000000000000000000000000000000000000000BE00000000000000000000000000000000000000000000000000000000000000000000
310
00000000000000000000000000000000000000000000000000000000000000000000000000000000000000000000000000000000000000000000000000000000000000000000000000000000000000000000000000000000000000000000000000000000000000000000000000BE0000000000000000000000000000000000
310
00000000000000DC0000000000000000000000000000000000000000000000000000000000000000000000000000000000000000000000000000000000000000000000000000000000000000000000000000000000000000000000000000BEBEBEBEBEBEBEBEBEBEBEBEBEBEBEBEBEBEBEBEBEBEBEBEBEBEBEBEBEBEBEBEBE
310
BEBEBEBEBEBEBEBEBEBEBEBEBEBEBEBEBEBEBEBEBEBEBEBEBEBEBEBEBEBEBEBEBEBEBEBEBEBEBEBEBEBEBEBEBEBEBEBEBEBEBEBEBEBEBEBEBEBEBEBEBEBEBEBEBEBEBEBEBEBEBEBEBEBEBEBEBEBEBEBEBEBEBEBEBEBEBEBEBEBEBEBEBEBEBEBEBEBEBEBEBEBEBEBEBEBEBEBEBEBEBEBE000000000000000000000000000000
310
000000000000000000DC000000000000000000000000000000000000000000000000000000000000000000000000000000000000000000000000000000000000000000000000000000000000000000000000000000000000000000000000000000000000000000000000000000000000000000000000000000000000000000
310
0000000000000000000000000000000000000000000000000000000000000000000000000000000000000000000000000000000000000000000000000000000000000000000000000000000000000000000000000000000000000000000000000000000000000000000000000000000000BE00000000000000000000000000
310
0000000000000000000000DC00000000000000000000000000000000000000000000000000000000000000000000000000000000000000000000000000000000000000000000000000000000000000000000000000000000000000000000000000000000000000000000000000000000000000000000000000000000000000
310
00000000000000000000000000000000000000000000000000000000000000000000000000000000000000000000000000000000000000000000000000000000000000000000000000000000000000000000000000000000000000000000000000000000000000000000000000000000000000BE0000000000000000000000
310
00000000000000000000000000DC0000000000000000000000000000000000000000000000000000000000000000000000000000000000000000000000000000000000000000000000000000000000000000000000000000000000000000000000000000000000000000000000000000000000000000000000000000000000
310
000000000000000000000000000000000000000000000000000000000000000000000000000000000000000000000000000000000000000000000000000000000000000000000000000000000000000000000000000000000000000000000000000000000000000000000000000000000000000000BE000000000000000000
310
000000000000000000000000000000DC000000000000000000000000000000000000000000000000000000000000000000000000000000000000000000000000000000000000000000000000000000000000000000000000000000000000000000000000000000000000000000000000000000000000000000000000000000
310
0000000000000000000000000000000000000000000000000000000000000000000000000000000000000000000000000000000000000000000000000000000000000000000000000000000000000000000000000000000000000000000000000000000000000000000000000000000000000000000000BE00000000000000
310
0000000000000000000000000000000000DC00000000000000000000000000000000000000000000000000000000000000000000000000000000000000000000000000000000000000000000000000000000000000000000000000000000000000000000000000000000000000000000000000000000000000000000000000
310
00000000000000000000000000000000000000000000000000000000000000000000000000000000000000000000000000000000000000000000000000000000000000000000000000000000000000000000000000000000000000000000000000000000000000000000000000000000000000000000000000BE0000000000
310
00000000000000000000000000000000000000DC0000000000000000000000000000000000000000000000000000000000000000000000000000000000000000000000000000000000000000000000000000000000000000000000000000000000000000000000000000000000000000000000000000000000000000000000
310
000000000000000000000000000000000000000000000000000000000000000000000000000000000000000000000000000000000000000000000000000000000000000000000000000000000000000000000000000000000000000000000000000000000000000000000000000000000000000000000000000000BE000000
310
000000000000000000000000000000000000000000DC000000000000000000000000000000000000000000000000000000000000000000000000000000000000000000000000000000000000000000000000000000000000000000000000000000000000000000000000000000000000000000000000000000000000000000
310
0000000000000000000000000000000000000000000000000000000000000000000000000000000000000000000000000000000000000000000000000000000000000000000000000000000000000000000000000000000000000000000000000000000000000000000000000000000000000000000000000000000000BE00
310
0000000000000000000000000000000000000000000000DC00000000000000000000000000000000000000000000000000000000000000000000000000000000000000000000000000000000000000000000000000000000000000000000000000000000000000000000000000000000000000000000000000000000000000
310
00000000000000000000000000000000000000000000000000000000000000000000000000000000000000000000000000000000000000000000000000000000000000000000000000000000000000000000000000000000000000000000000000000000000000000000000000000000000000000000000000000000000000
310
BE000000000000000000000000000000000000000000000000DC0000000000000000000000000000000000000000000000000000000000000000000000000000000000000000000000000000000000000000000000000000000000000000000000000000000000000000000000000000000000000000000000000000000000
310
00000000000000000000000000000000000000000000000000000000000000000000000000000000000000000000000000000000000000000000000000000000000000000000000000000000000000000000000000000000000000000000000000000000000000000000000000000000000000000000000000000000000000
310
0000BE000000000000000000000000000000000000000000000000DC000000000000000000000000000000000000000000000000000000000000000000000000000000000000000000000000000000000000000000000000000000000000000000000000000000000000000000000000000000000000000000000000000000
310
00000000000000000000000000000000000000000000000000000000000000000000000000000000000000000000000000000000000000000000000000000000000000000000000000000000000000000000000000000000000000000000000000000000000000000000000000000000000000000000000000000000000000
310
00000000BE000000000000000000000000000000000000000000000000DC00000000000000000000000000000000000000000000000000000000000000000000000000000000000000000000000000000000000000000000000000000000000000000000000000000000000000000000000000000000000000000000000000
310
00000000000000000000000000000000000000000000000000000000000000000000000000000000000000000000000000000000000000000000000000000000000000000000000000000000000000000000000000000000000000000000000000000000000000000000000000000000000000000000000000000000000000
310
000000000000BE000000000000000000000000000000000000000000000000DC0000000000000000000000000000000000000000000000000000000000000000000000000000000000000000000000000000000000000000000000000000000000000000000000000000000000000000000000000000000000000000000000
310
00000000000000000000000000000000000000000000000000000000000000000000000000000000000000000000000000000000000000000000000000000000000000000000000000000000000000000000000000000000000000000000000000000000000000000000000000000000000000000000000000000000000000
310
0000000000000000BE000000000000000000000000000000000000000000000000DC000000000000000000000000000000000000000000000000000000000000000000000000000000000000000000000000000000000000000000000000000000000000000000000000000000000000000000000000000000000000000000
310
00000000000000000000000000000000000000000000000000000000000000000000000000000000000000000000000000000000000000000000000000000000000000000000000000000000000000000000000000000000000000000000000000000000000000000000000000000000000000000000000000000000000000
310
00000000000000000000BE000000000000000000000000000000000000000000000000DC00000000000000000000000000000000000000000000000000000000000000000000000000000000000000000000000000000000000000000000000000000000000000000000000000000000000000000000000000000000000000
310
00000000000000000000000000000000000000000000000000000000000000000000000000000000000000000000000000000000000000000000000000000000000000000000000000000000000000000000000000000000000000000000000000000000000000000000000000000000000000000000000000000000000000
310
000000000000000000000000BE000000000000000000000000000000000000000000000000DC0000000000000000000000000000000000000000000000000000000000000000000000000000000000000000000000000000000000000000000000000000000000000000000000000000000000000000000000000000000000
310
00000000000000000000000000000000000000000000000000000000000000000000000000000000000000000000000000000000000000000000000000000000000000000000000000000000000000000000000000000000000000000000000000000000000000000000000000000000000000000000000000000000000000
310
0000000000000000000000000000BE000000000000000000000000000000000000000000000000DC000000000000000000000000000000000000000000000000000000000000000000000000000000000000000000000000000000000000000000000000000000000000000000000000000000000000000000000000000000
310
00000000000000000000000000000000000000000000000000000000000000000000000000000000000000000000000000000000000000000000000000000000000000000000000000000000000000000000000000000000000000000000000000000000000000000000000000000000000000000000000000000000000000
310
00000000000000000000000000000000BE000000000000000000000000000000000000000000000000DC00000000000000000000000000000000000000000000000000000000000000000000000000000000000000000000000000000000000000000000000000000000000000000000000000000000000000000000000000
310
00000000000000000000000000000000000000000000000000000000000000000000000000000000000000000000000000000000000000000000000000000000000000000000000000000000000000000000000000000000000000000000000000000000000000000000000000000000000000000000000000000000000000
310
000000000000000000000000000000000000BE000000000000000000000000000000000000000000000000DC00000000000000000000000000000000000000000000000000000000000000000000000000000000
  0
XRECORD
  5
48
102
{ACAD_REACTORS
330
47
102
}
330
47
100
AcDbXrecord
280
     1
270
     1
271
     1
  0
XRECORD
  5
49
102
{ACAD_REACTORS
330
47
102
}
330
47
100
AcDbXrecord
280
     1
270
     1
271
     1
  0
XRECORD
  5
4A
102
{ACAD_REACTORS
330
47
102
}
330
47
100
AcDbXrecord
280
     1
270
     1
271
     1
  0
XRECORD
  5
4B
102
{ACAD_REACTORS
330
47
102
}
330
47
100
AcDbXrecord
280
     1
270
     1
271
     1
  0
XRECORD
  5
4C
102
{ACAD_REACTORS
330
47
102
}
330
47
100
AcDbXrecord
280
     1
270
     1
271
     1
  0
XRECORD
  5
4D
102
{ACAD_REACTORS
330
47
102
}
330
47
100
AcDbXrecord
280
     1
270
     1
271
     1
  0
XRECORD
  5
40
102
{ACAD_REACTORS
330
3F
102
}
330
3F
100
AcDbXrecord
280
     1
270
     1
271
     1
  0
XRECORD
  5
41
102
{ACAD_REACTORS
330
3F
102
}
330
3F
100
AcDbXrecord
280
     1
270
     1
271
     1
  0
XRECORD
  5
42
102
{ACAD_REACTORS
330
3F
102
}
330
3F
100
AcDbXrecord
280
     1
270
     1
271
     1
  0
XRECORD
  5
43
102
{ACAD_REACTORS
330
3F
102
}
330
3F
100
AcDbXrecord
280
     1
270
     1
271
     1
  0
XRECORD
  5
44
102
{ACAD_REACTORS
330
3F
102
}
330
3F
100
AcDbXrecord
280
     1
270
     1
271
     1
  0
XRECORD
  5
45
102
{ACAD_REACTORS
330
3F
102
}
330
3F
100
AcDbXrecord
280
     1
270
     1
271
     1
  0
XRECORD
  5
F
102
{ACAD_REACTORS
330
E
102
}
330
E
100
AcDbXrecord
280
     1
270
     1
271
     1
  0
XRECORD
  5
10
102
{ACAD_REACTORS
330
E
102
}
330
E
100
AcDbXrecord
280
     1
270
     1
271
     1
  0
XRECORD
  5
11
102
{ACAD_REACTORS
330
E
102
}
330
E
100
AcDbXrecord
280
     1
270
     1
271
     1
  0
XRECORD
  5
12
102
{ACAD_REACTORS
330
E
102
}
330
E
100
AcDbXrecord
280
     1
270
     1
271
     1
  0
XRECORD
  5
13
102
{ACAD_REACTORS
330
E
102
}
330
E
100
AcDbXrecord
280
     1
270
     1
271
     1
  0
XRECORD
  5
14
102
{ACAD_REACTORS
330
E
102
}
330
E
100
AcDbXrecord
280
     1
270
     1
271
     1
  0
CELLSTYLEMAP
  5
51B
102
{ACAD_REACTORS
330
54
102
}
330
54
100
AcDbCellStyleMap
 90
        3
300
CELLSTYLE
  1
TABLEFORMAT_BEGIN
 90
        5
170
     1
 91
        0
 92
    32768
 62
   257
 93
        1
300
CONTENTFORMAT
  1
CONTENTFORMAT_BEGIN
 90
        0
 91
        0
 92
      512
 93
        0
300

 40
0.0
140
1.0
 94
        5
 62
     0
340
27
144
6.0
309
CONTENTFORMAT_END
171
     1
301
MARGIN
  1
CELLMARGIN_BEGIN
 40
1.5
 40
1.5
 40
1.5
 40
1.5
 40
4.5
 40
4.5
309
CELLMARGIN_END
 94
        6
 95
        1
302
GRIDFORMAT
  1
GRIDFORMAT_BEGIN
 90
        0
 91
        1
 62
     0
 92
       -2
340
0
 93
        0
 40
1.125
309
GRIDFORMAT_END
 95
        2
302
GRIDFORMAT
  1
GRIDFORMAT_BEGIN
 90
        0
 91
        1
 62
     0
 92
       -2
340
0
 93
        0
 40
1.125
309
GRIDFORMAT_END
 95
        4
302
GRIDFORMAT
  1
GRIDFORMAT_BEGIN
 90
        0
 91
        1
 62
     0
 92
       -2
340
0
 93
        0
 40
1.125
309
GRIDFORMAT_END
 95
        8
302
GRIDFORMAT
  1
GRIDFORMAT_BEGIN
 90
        0
 91
        1
 62
     0
 92
       -2
340
0
 93
        0
 40
1.125
309
GRIDFORMAT_END
 95
       16
302
GRIDFORMAT
  1
GRIDFORMAT_BEGIN
 90
        0
 91
        1
 62
     0
 92
       -2
340
0
 93
        0
 40
1.125
309
GRIDFORMAT_END
 95
       32
302
GRIDFORMAT
  1
GRIDFORMAT_BEGIN
 90
        0
 91
        1
 62
     0
 92
       -2
340
0
 93
        0
 40
1.125
309
GRIDFORMAT_END
309
TABLEFORMAT_END
  1
CELLSTYLE_BEGIN
 90
        1
 91
        1
300
_TITLE
309
CELLSTYLE_END
300
CELLSTYLE
  1
TABLEFORMAT_BEGIN
 90
        5
170
     1
 91
        0
 92
        0
 62
   257
 93
        1
300
CONTENTFORMAT
  1
CONTENTFORMAT_BEGIN
 90
        0
 91
        0
 92
      512
 93
        0
300

 40
0.0
140
1.0
 94
        5
 62
     0
340
27
144
4.5
309
CONTENTFORMAT_END
171
     1
301
MARGIN
  1
CELLMARGIN_BEGIN
 40
1.5
 40
1.5
 40
1.5
 40
1.5
 40
4.5
 40
4.5
309
CELLMARGIN_END
 94
        6
 95
        1
302
GRIDFORMAT
  1
GRIDFORMAT_BEGIN
 90
        0
 91
        1
 62
     0
 92
       -2
340
0
 93
        0
 40
1.125
309
GRIDFORMAT_END
 95
        2
302
GRIDFORMAT
  1
GRIDFORMAT_BEGIN
 90
        0
 91
        1
 62
     0
 92
       -2
340
0
 93
        0
 40
1.125
309
GRIDFORMAT_END
 95
        4
302
GRIDFORMAT
  1
GRIDFORMAT_BEGIN
 90
        0
 91
        1
 62
     0
 92
       -2
340
0
 93
        0
 40
1.125
309
GRIDFORMAT_END
 95
        8
302
GRIDFORMAT
  1
GRIDFORMAT_BEGIN
 90
        0
 91
        1
 62
     0
 92
       -2
340
0
 93
        0
 40
1.125
309
GRIDFORMAT_END
 95
       16
302
GRIDFORMAT
  1
GRIDFORMAT_BEGIN
 90
        0
 91
        1
 62
     0
 92
       -2
340
0
 93
        0
 40
1.125
309
GRIDFORMAT_END
 95
       32
302
GRIDFORMAT
  1
GRIDFORMAT_BEGIN
 90
        0
 91
        1
 62
     0
 92
       -2
340
0
 93
        0
 40
1.125
309
GRIDFORMAT_END
309
TABLEFORMAT_END
  1
CELLSTYLE_BEGIN
 90
        2
 91
        1
300
_HEADER
309
CELLSTYLE_END
300
CELLSTYLE
  1
TABLEFORMAT_BEGIN
 90
        5
170
     1
 91
        0
 92
        0
 62
   257
 93
        1
300
CONTENTFORMAT
  1
CONTENTFORMAT_BEGIN
 90
        0
 91
        0
 92
      512
 93
        0
300

 40
0.0
140
1.0
 94
        2
 62
     0
340
27
144
4.5
309
CONTENTFORMAT_END
171
     1
301
MARGIN
  1
CELLMARGIN_BEGIN
 40
1.5
 40
1.5
 40
1.5
 40
1.5
 40
4.5
 40
4.5
309
CELLMARGIN_END
 94
        6
 95
        1
302
GRIDFORMAT
  1
GRIDFORMAT_BEGIN
 90
        0
 91
        1
 62
     0
 92
       -2
340
0
 93
        0
 40
1.125
309
GRIDFORMAT_END
 95
        2
302
GRIDFORMAT
  1
GRIDFORMAT_BEGIN
 90
        0
 91
        1
 62
     0
 92
       -2
340
0
 93
        0
 40
1.125
309
GRIDFORMAT_END
 95
        4
302
GRIDFORMAT
  1
GRIDFORMAT_BEGIN
 90
        0
 91
        1
 62
     0
 92
       -2
340
0
 93
        0
 40
1.125
309
GRIDFORMAT_END
 95
        8
302
GRIDFORMAT
  1
GRIDFORMAT_BEGIN
 90
        0
 91
        1
 62
     0
 92
       -2
340
0
 93
        0
 40
1.125
309
GRIDFORMAT_END
 95
       16
302
GRIDFORMAT
  1
GRIDFORMAT_BEGIN
 90
        0
 91
        1
 62
     0
 92
       -2
340
0
 93
        0
 40
1.125
309
GRIDFORMAT_END
 95
       32
302
GRIDFORMAT
  1
GRIDFORMAT_BEGIN
 90
        0
 91
        1
 62
     0
 92
       -2
340
0
 93
        0
 40
1.125
309
GRIDFORMAT_END
309
TABLEFORMAT_END
  1
CELLSTYLE_BEGIN
 90
        3
 91
        2
300
_DATA
309
CELLSTYLE_END
  0
ENDSEC
  0
EOF
