  0
SECTION
  2
HEADER
  9
$ACADVER
  1
AC1024
  9
$ACADMAINTVER
 70
     6
  9
$DWGCODEPAGE
  3
ANSI_1252
  9
$INSBASE
 10
0.0
 20
0.0
 30
0.0
  9
$EXTMIN
 10
0.0000187805887464
 20
-0.0000050322435641
 30
0.0
  9
$EXTMAX
 10
1050.000018780589
 20
742.4999949677564
 30
0.0
  9
$LIMMIN
 10
0.0000187805887464
 20
-0.0000050322435641
  9
$LIMMAX
 10
525.0000187805888
 20
742.4999949677564
  9
$ORTHOMODE
 70
     1
  9
$REGENMODE
 70
     1
  9
$FILLMODE
 70
     1
  9
$QTEXTMODE
 70
     0
  9
$MIRRTEXT
 70
     0
  9
$LTSCALE
 40
20.0
  9
$ATTMODE
 70
     1
  9
$TEXTSIZE
 40
5.0
  9
$TRACEWID
 40
1.0
  9
$TEXTSTYLE
  7
Standard
  9
$CLAYER
  8
09-01
  9
$CELTYPE
  6
ByLayer
  9
$CECOLOR
 62
   256
  9
$CELTSCALE
 40
1.0
  9
$DISPSILH
 70
     0
  9
$DIMSCALE
 40
2.5
  9
$DIMASZ
 40
2.5
  9
$DIMEXO
 40
1.0
  9
$DIMDLI
 40
10.0
  9
$DIMRND
 40
0.0
  9
$DIMDLE
 40
0.0
  9
$DIMEXE
 40
1.0
  9
$DIMTP
 40
0.0
  9
$DIMTM
 40
0.0
  9
$DIMTXT
 40
2.5
  9
$DIMCEN
 40
0.0
  9
$DIMTSZ
 40
0.0
  9
$DIMTOL
 70
     0
  9
$DIMLIM
 70
     0
  9
$DIMTIH
 70
     0
  9
$DIMTOH
 70
     0
  9
$DIMSE1
 70
     0
  9
$DIMSE2
 70
     0
  9
$DIMTAD
 70
     1
  9
$DIMZIN
 70
     8
  9
$DIMBLK
  1

  9
$DIMASO
 70
     1
  9
$DIMSHO
 70
     1
  9
$DIMPOST
  1

  9
$DIMAPOST
  1

  9
$DIMALT
 70
     0
  9
$DIMALTD
 70
     3
  9
$DIMALTF
 40
0.03937007874016
  9
$DIMLFAC
 40
1.0
  9
$DIMTOFL
 70
     1
  9
$DIMTVP
 40
0.0
  9
$DIMTIX
 70
     0
  9
$DIMSOXD
 70
     0
  9
$DIMSAH
 70
     0
  9
$DIMBLK1
  1

  9
$DIMBLK2
  1

  9
$DIMSTYLE
  2
Wagner
  9
$DIMCLRD
 70
     4
  9
$DIMCLRE
 70
     4
  9
$DIMCLRT
 70
     1
  9
$DIMTFAC
 40
1.0
  9
$DIMGAP
 40
1.0
  9
$DIMJUST
 70
     0
  9
$DIMSD1
 70
     0
  9
$DIMSD2
 70
     0
  9
$DIMTOLJ
 70
     0
  9
$DIMTZIN
 70
     8
  9
$DIMALTZ
 70
     0
  9
$DIMALTTZ
 70
     0
  9
$DIMUPT
 70
     0
  9
$DIMDEC
 70
     8
  9
$DIMTDEC
 70
     8
  9
$DIMALTU
 70
     2
  9
$DIMALTTD
 70
     3
  9
$DIMTXSTY
  7
Standard
  9
$DIMAUNIT
 70
     0
  9
$DIMADEC
 70
     2
  9
$DIMALTRND
 40
0.0
  9
$DIMAZIN
 70
     2
  9
$DIMDSEP
 70
    46
  9
$DIMATFIT
 70
     3
  9
$DIMFRAC
 70
     0
  9
$DIMLDRBLK
  1

  9
$DIMLUNIT
 70
     2
  9
$DIMLWD
 70
    -2
  9
$DIMLWE
 70
    -2
  9
$DIMTMOVE
 70
     0
  9
$DIMFXL
 40
1.0
  9
$DIMFXLON
 70
     0
  9
$DIMJOGANG
 40
0.7853981633974483
  9
$DIMTFILL
 70
     0
  9
$DIMTFILLCLR
 70
     0
  9
$DIMARCSYM
 70
     0
  9
$DIMLTYPE
  6

  9
$DIMLTEX1
  6

  9
$DIMLTEX2
  6

  9
$DIMTXTDIRECTION
 70
     0
  9
$LUNITS
 70
     2
  9
$LUPREC
 70
     4
  9
$SKETCHINC
 40
1.0
  9
$FILLETRAD
 40
0.0
  9
$AUNITS
 70
     0
  9
$AUPREC
 70
     0
  9
$MENU
  1
.
  9
$ELEVATION
 40
0.0
  9
$PELEVATION
 40
0.0
  9
$THICKNESS
 40
0.0
  9
$LIMCHECK
 70
     0
  9
$CHAMFERA
 40
0.0
  9
$CHAMFERB
 40
0.0
  9
$CHAMFERC
 40
0.0
  9
$CHAMFERD
 40
0.0
  9
$SKPOLY
 70
     0
  9
$TDCREATE
 40
2455371.411049456
  9
$TDUCREATE
 40
2455371.327716123
  9
$TDUPDATE
 40
2456197.475121400
  9
$TDUUPDATE
 40
2456197.391788068
  9
$TDINDWG
 40
0.1411857755
  9
$TDUSRTIMER
 40
0.1411856019
  9
$USRTIMER
 70
     1
  9
$ANGBASE
 50
0.0
  9
$ANGDIR
 70
     0
  9
$PDMODE
 70
     0
  9
$PDSIZE
 40
0.0
  9
$PLINEWID
 40
0.0
  9
$SPLFRAME
 70
     0
  9
$SPLINETYPE
 70
     6
  9
$SPLINESEGS
 70
     8
  9
$HANDSEED
  5
2E6
  9
$SURFTAB1
 70
     6
  9
$SURFTAB2
 70
     6
  9
$SURFTYPE
 70
     6
  9
$SURFU
 70
     6
  9
$SURFV
 70
     6
  9
$UCSBASE
  2

  9
$UCSNAME
  2

  9
$UCSORG
 10
0.0
 20
0.0
 30
0.0
  9
$UCSXDIR
 10
1.0
 20
0.0
 30
0.0
  9
$UCSYDIR
 10
0.0
 20
1.0
 30
0.0
  9
$UCSORTHOREF
  2

  9
$UCSORTHOVIEW
 70
     0
  9
$UCSORGTOP
 10
0.0
 20
0.0
 30
0.0
  9
$UCSORGBOTTOM
 10
0.0
 20
0.0
 30
0.0
  9
$UCSORGLEFT
 10
0.0
 20
0.0
 30
0.0
  9
$UCSORGRIGHT
 10
0.0
 20
0.0
 30
0.0
  9
$UCSORGFRONT
 10
0.0
 20
0.0
 30
0.0
  9
$UCSORGBACK
 10
0.0
 20
0.0
 30
0.0
  9
$PUCSBASE
  2

  9
$PUCSNAME
  2

  9
$PUCSORG
 10
0.0
 20
0.0
 30
0.0
  9
$PUCSXDIR
 10
1.0
 20
0.0
 30
0.0
  9
$PUCSYDIR
 10
0.0
 20
1.0
 30
0.0
  9
$PUCSORTHOREF
  2

  9
$PUCSORTHOVIEW
 70
     0
  9
$PUCSORGTOP
 10
0.0
 20
0.0
 30
0.0
  9
$PUCSORGBOTTOM
 10
0.0
 20
0.0
 30
0.0
  9
$PUCSORGLEFT
 10
0.0
 20
0.0
 30
0.0
  9
$PUCSORGRIGHT
 10
0.0
 20
0.0
 30
0.0
  9
$PUCSORGFRONT
 10
0.0
 20
0.0
 30
0.0
  9
$PUCSORGBACK
 10
0.0
 20
0.0
 30
0.0
  9
$USERI1
 70
     0
  9
$USERI2
 70
     0
  9
$USERI3
 70
     0
  9
$USERI4
 70
     0
  9
$USERI5
 70
     0
  9
$USERR1
 40
0.0
  9
$USERR2
 40
0.0
  9
$USERR3
 40
0.0
  9
$USERR4
 40
0.0
  9
$USERR5
 40
0.0
  9
$WORLDVIEW
 70
     1
  9
$SHADEDGE
 70
     3
  9
$SHADEDIF
 70
    70
  9
$TILEMODE
 70
     1
  9
$MAXACTVP
 70
    64
  9
$PINSBASE
 10
0.0
 20
0.0
 30
0.0
  9
$PLIMCHECK
 70
     0
  9
$PEXTMIN
 10
0.0
 20
0.0
 30
0.0
  9
$PEXTMAX
 10
0.0
 20
0.0
 30
0.0
  9
$PLIMMIN
 10
0.0
 20
0.0
  9
$PLIMMAX
 10
12.0
 20
9.0
  9
$UNITMODE
 70
     0
  9
$VISRETAIN
 70
     1
  9
$PLINEGEN
 70
     0
  9
$PSLTSCALE
 70
     1
  9
$TREEDEPTH
 70
  3020
  9
$CMLSTYLE
  2
Standard
  9
$CMLJUST
 70
     0
  9
$CMLSCALE
 40
20.0
  9
$PROXYGRAPHICS
 70
     1
  9
$MEASUREMENT
 70
     1
  9
$CELWEIGHT
370
    -1
  9
$ENDCAPS
280
     0
  9
$JOINSTYLE
280
     0
  9
$LWDISPLAY
290
     0
  9
$INSUNITS
 70
     4
  9
$HYPERLINKBASE
  1

  9
$STYLESHEET
  1

  9
$XEDIT
290
     1
  9
$CEPSNTYPE
380
     0
  9
$PSTYLEMODE
290
     1
  9
$FINGERPRINTGUID
  2
{AA2B3741-D192-4548-BF0A-CFE7A609F635}
  9
$VERSIONGUID
  2
{11899E34-1999-46B9-8EF9-05FB4D94CBE1}
  9
$EXTNAMES
290
     1
  9
$PSVPSCALE
 40
0.0
  9
$OLESTARTUP
290
     0
  9
$SORTENTS
280
   127
  9
$INDEXCTL
280
     0
  9
$HIDETEXT
280
     1
  9
$XCLIPFRAME
280
     0
  9
$HALOGAP
280
     0
  9
$OBSCOLOR
 70
   257
  9
$OBSLTYPE
280
     0
  9
$INTERSECTIONDISPLAY
280
     0
  9
$INTERSECTIONCOLOR
 70
   257
  9
$DIMASSOC
280
     2
  9
$PROJECTNAME
  1

  9
$CAMERADISPLAY
290
     0
  9
$LENSLENGTH
 40
50.0
  9
$CAMERAHEIGHT
 40
0.0
  9
$STEPSPERSEC
 40
2.0
  9
$STEPSIZE
 40
6.0
  9
$3DDWFPREC
 40
2.0
  9
$PSOLWIDTH
 40
5.0
  9
$PSOLHEIGHT
 40
80.0
  9
$LOFTANG1
 40
1.570796326794896
  9
$LOFTANG2
 40
1.570796326794896
  9
$LOFTMAG1
 40
0.0
  9
$LOFTMAG2
 40
0.0
  9
$LOFTPARAM
 70
     7
  9
$LOFTNORMALS
280
     1
  9
$LATITUDE
 40
37.795
  9
$LONGITUDE
 40
-122.394
  9
$NORTHDIRECTION
 40
0.0
  9
$TIMEZONE
 70
 -8000
  9
$LIGHTGLYPHDISPLAY
280
     1
  9
$TILEMODELIGHTSYNCH
280
     1
  9
$CMATERIAL
347
3B
  9
$SOLIDHIST
280
     1
  9
$SHOWHIST
280
     1
  9
$DWFFRAME
280
     2
  9
$DGNFRAME
280
     0
  9
$REALWORLDSCALE
290
     1
  9
$INTERFERECOLOR
 62
     1
  9
$INTERFEREOBJVS
345
47
  9
$INTERFEREVPVS
346
48
  9
$CSHADOW
280
     0
  9
$SHADOWPLANELOCATION
 40
0.0
  0
ENDSEC
  0
SECTION
  2
CLASSES
  0
CLASS
  1
ACDBDICTIONARYWDFLT
  2
AcDbDictionaryWithDefault
  3
ObjectDBX Classes
 90
        0
 91
        1
280
     0
281
     0
  0
CLASS
  1
DICTIONARYVAR
  2
AcDbDictionaryVar
  3
ObjectDBX Classes
 90
        0
 91
        5
280
     0
281
     0
  0
CLASS
  1
TABLESTYLE
  2
AcDbTableStyle
  3
ObjectDBX Classes
 90
     4095
 91
        1
280
     0
281
     0
  0
CLASS
  1
MATERIAL
  2
AcDbMaterial
  3
ObjectDBX Classes
 90
     1153
 91
        3
280
     0
281
     0
  0
CLASS
  1
VISUALSTYLE
  2
AcDbVisualStyle
  3
ObjectDBX Classes
 90
     4095
 91
        3
280
     0
281
     0
  0
CLASS
  1
SCALE
  2
AcDbScale
  3
ObjectDBX Classes
 90
     1153
 91
       33
280
     0
281
     0
  0
CLASS
  1
MLEADERSTYLE
  2
AcDbMLeaderStyle
  3
ACDB_MLEADERSTYLE_CLASS
 90
     4095
 91
        0
280
     0
281
     0
  0
CLASS
  1
CELLSTYLEMAP
  2
AcDbCellStyleMap
  3
ObjectDBX Classes
 90
     1152
 91
        1
280
     0
281
     0
  0
CLASS
  1
SORTENTSTABLE
  2
AcDbSortentsTable
  3
ObjectDBX Classes
 90
        0
 91
        6
280
     0
281
     0
  0
CLASS
  1
AEC_REFEDIT_STATUS_TRACKER
  2
AecDbRefEditStatusTracker
  3
AecArchBase60|Product Desc: Autodesk Architectural Desktop 2007 |Company: Autodesk,Inc. |WEB Address: www.autodesk.com
 90
      129
 91
        0
280
     0
281
     0
  0
CLASS
  1
NPOCOLLECTION
  2
AcDbImpNonPersistentObjectsCollection
  3
ObjectDBX Classes
 90
     1153
 91
        0
280
     0
281
     0
  0
CLASS
  1
DIMASSOC
  2
AcDbDimAssoc
  3
"AcDbDimAssoc|Product Desc:     AcDim ARX App For Dimension|Company:          Autodesk, Inc.|WEB Address:      www.autodesk.com"
 90
        0
 91
       16
280
     0
281
     0
  0
CLASS
  1
ACAD_EVALUATION_GRAPH
  2
AcDbEvalGraph
  3
ObjectDBX Classes
 90
     1153
 91
        0
280
     0
281
     0
  0
CLASS
  1
BLOCKBASEPOINTPARAMETER
  2
AcDbBlockBasepointParameter
  3
ObjectDBX Classes
 90
     1153
 91
        0
280
     0
281
     0
  0
CLASS
  1
ACDB_DYNAMICBLOCKPURGEPREVENTER_VERSION
  2
AcDbDynamicBlockPurgePreventer
  3
ObjectDBX Classes
 90
     1153
 91
        0
280
     0
281
     0
  0
CLASS
  1
ACDB_BLOCKREPRESENTATION_DATA
  2
AcDbBlockRepresentationData
  3
ObjectDBX Classes
 90
     1153
 91
        0
280
     0
281
     0
  0
CLASS
  1
ACAD_TABLE
  2
AcDbTable
  3
ObjectDBX Classes
 90
     1025
 91
        0
280
     0
281
     1
  0
CLASS
  1
TABLECONTENT
  2
AcDbTableContent
  3
ObjectDBX Classes
 90
     1152
 91
        0
280
     0
281
     0
  0
CLASS
  1
TABLEGEOMETRY
  2
AcDbTableGeometry
  3
ObjectDBX Classes
 90
     1152
 91
        0
280
     0
281
     0
  0
CLASS
  1
SOLID_BACKGROUND
  2
AcDbSolidBackground
  3
SCENEOE
 90
     4095
 91
        0
280
     0
281
     0
  0
ENDSEC
  0
SECTION
  2
TABLES
  0
TABLE
  2
VPORT
  5
2C
330
0
100
AcDbSymbolTable
 70
     1
  0
VPORT
  5
2D
330
2C
100
AcDbSymbolTableRecord
100
AcDbViewportTableRecord
  2
*Active
 70
     0
 10
0.0
 20
0.0
 11
1.0
 21
1.0
 12
665.645926078929
 22
376.019830881498
 13
0.0
 23
0.0
 14
10.0
 24
10.0
 15
10.0
 25
10.0
 16
0.0
 26
0.0
 36
1.0
 17
0.0
 27
0.0
 37
0.0
 40
1196.297118308423
 41
1.937738246505718
 42
50.0
 43
0.0
 44
0.0
 50
0.0
 51
0.0
 71
     0
 72
  1000
 73
     1
 74
     3
 75
     0
 76
     0
 77
     0
 78
     0
281
     0
 65
     1
110
0.0
120
0.0
130
0.0
111
1.0
121
0.0
131
0.0
112
0.0
122
1.0
132
0.0
 79
     0
146
0.0
348
2E
 60
     2
 61
     5
292
     1
282
     1
141
0.0
142
0.0
 63
   250
421
  3355443
  0
ENDTAB
  0
TABLE
  2
LTYPE
  5
27
330
0
100
AcDbSymbolTable
 70
     4
  0
LTYPE
  5
28
330
27
100
AcDbSymbolTableRecord
100
AcDbLinetypeTableRecord
  2
ByBlock
 70
     0
  3

 72
    65
 73
     0
 40
0.0
  0
LTYPE
  5
29
330
27
100
AcDbSymbolTableRecord
100
AcDbLinetypeTableRecord
  2
ByLayer
 70
     0
  3

 72
    65
 73
     0
 40
0.0
  0
LTYPE
  5
14
330
27
100
AcDbSymbolTableRecord
100
AcDbLinetypeTableRecord
  2
Continuous
 70
     0
  3
Solid line
 72
    65
 73
     0
 40
0.0
  0
LTYPE
  5
242
330
27
100
AcDbSymbolTableRecord
100
AcDbLinetypeTableRecord
  2
AUSGEZOGEN
 70
     0
  3
Ausgezogene Linie
 72
    65
 73
     0
 40
0.0
  0
LTYPE
  5
1B8
330
27
100
AcDbSymbolTableRecord
100
AcDbLinetypeTableRecord
  2
STRICHPUNKT
 70
     0
  3
__ . __ . __ . __ . __ . __ . __ . __ . __ . __
 72
    65
 73
     4
 40
1.0
 49
0.5
 74
     0
 49
-0.25
 74
     0
 49
0.0
 74
     0
 49
-0.25
 74
     0
  0
LTYPE
  5
113
330
27
100
AcDbSymbolTableRecord
100
AcDbLinetypeTableRecord
  2
VERDECKT
 70
     0
  3
__ __ __ __ __ __ __ __ __ __ __ __ __ __ __ __
 72
    65
 73
     2
 40
0.375
 49
0.25
 74
     0
 49
-0.125
 74
     0
  0
ENDTAB
  0
TABLE
  2
LAYER
  5
1F
102
{ACAD_XDICTIONARY
360
20
102
}
330
0
100
AcDbSymbolTable
 70
    12
  0
LAYER
  5
6
102
{ACAD_XDICTIONARY
360
7
102
}
330
1F
100
AcDbSymbolTableRecord
100
AcDbLayerTableRecord
  2
0
 70
     0
 62
     7
  6
Continuous
370
    -3
390
9
347
C
  0
LAYER
  5
239
102
{ACAD_XDICTIONARY
360
23A
102
}
330
1F
100
AcDbSymbolTableRecord
100
AcDbLayerTableRecord
  2
01-99
 70
     0
 62
     2
  6
Continuous
370
    -3
390
9
347
C
  0
LAYER
  5
23F
102
{ACAD_XDICTIONARY
360
240
102
}
330
1F
100
AcDbSymbolTableRecord
100
AcDbLayerTableRecord
  2
02-99
 70
     0
 62
     1
  6
AUSGEZOGEN
370
    -3
390
9
347
C
  0
LAYER
  5
277
102
{ACAD_XDICTIONARY
360
278
102
}
330
1F
100
AcDbSymbolTableRecord
100
AcDbLayerTableRecord
  2
06-99
 70
     0
 62
     1
  6
AUSGEZOGEN
370
    -3
390
9
347
C
  0
LAYER
  5
41
102
{ACAD_XDICTIONARY
360
42
102
}
330
1F
100
AcDbSymbolTableRecord
100
AcDbLayerTableRecord
  2
09-01
 70
     0
 62
     7
  6
Continuous
370
    -3
390
9
347
C
  0
LAYER
  5
76
330
1F
100
AcDbSymbolTableRecord
100
AcDbLayerTableRecord
  2
DEFPOINTS
 70
     0
 62
     7
  6
Continuous
290
     0
370
    -3
390
9
347
C
  0
LAYER
  5
261
102
{ACAD_XDICTIONARY
360
262
102
}
330
1F
100
AcDbSymbolTableRecord
100
AcDbLayerTableRecord
  2
08-99
 70
     0
 62
     7
  6
Continuous
370
    -3
390
9
347
C
  0
LAYER
  5
1B5
102
{ACAD_XDICTIONARY
360
1B6
102
}
330
1F
100
AcDbSymbolTableRecord
100
AcDbLayerTableRecord
  2
05-01
 70
     0
 62
     1
  6
STRICHPUNKT
370
    -3
390
9
347
C
  0
LAYER
  5
17D
102
{ACAD_XDICTIONARY
360
17E
102
}
330
1F
100
AcDbSymbolTableRecord
100
AcDbLayerTableRecord
  2
03-01
 70
     0
 62
     3
  6
VERDECKT
370
    -3
390
9
347
C
  0
LAYER
  5
F6
102
{ACAD_XDICTIONARY
360
F7
102
}
330
1F
100
AcDbSymbolTableRecord
100
AcDbLayerTableRecord
  2
02-01
 70
     0
 62
     1
  6
Continuous
370
    -3
390
9
347
C
  0
LAYER
  5
179
102
{ACAD_XDICTIONARY
360
17A
102
}
330
1F
100
AcDbSymbolTableRecord
100
AcDbLayerTableRecord
  2
07-01
 70
     0
 62
     6
  6
Continuous
370
    -3
390
9
347
C
  0
LAYER
  5
101
102
{ACAD_XDICTIONARY
360
102
102
}
330
1F
100
AcDbSymbolTableRecord
100
AcDbLayerTableRecord
  2
02TNR-01
 70
     0
 62
     1
  6
Continuous
370
    -3
390
9
347
C
  0
ENDTAB
  0
TABLE
  2
STYLE
  5
24
330
0
100
AcDbSymbolTable
 70
     4
  0
STYLE
  5
25
330
24
100
AcDbSymbolTableRecord
100
AcDbTextStyleTableRecord
  2
Standard
 70
     0
 40
0.0
 41
1.0
 50
0.0
 71
     0
 42
5.0
  3
txt.shx
  4

  0
STYLE
  5
264
330
24
100
AcDbSymbolTableRecord
100
AcDbTextStyleTableRecord
  2
ROMANS8
 70
     0
 40
0.0
 41
1.0
 50
0.0
 71
     0
 42
2.5
  3
ROMANS8
  4

  0
STYLE
  5
28A
330
24
100
AcDbSymbolTableRecord
100
AcDbTextStyleTableRecord
  2
ROMAND8
 70
     0
 40
0.0
 41
1.0
 50
0.0
 71
     0
 42
3.5
  3
ROMAND8
  4

  0
STYLE
  5
F9
330
24
100
AcDbSymbolTableRecord
100
AcDbTextStyleTableRecord
  2
ISO
 70
     0
 40
0.0
 41
0.9
 50
0.0
 71
     0
 42
17.5
  3
isocp.shx
  4

  0
ENDTAB
  0
TABLE
  2
VIEW
  5
2A
330
0
100
AcDbSymbolTable
 70
     0
  0
ENDTAB
  0
TABLE
  2
UCS
  5
2B
330
0
100
AcDbSymbolTable
 70
     0
  0
ENDTAB
  0
TABLE
  2
APPID
  5
30
330
0
100
AcDbSymbolTable
 70
     5
  0
APPID
  5
13
330
30
100
AcDbSymbolTableRecord
100
AcDbRegAppTableRecord
  2
ACAD
 70
     0
  0
APPID
  5
1A
330
30
100
AcDbSymbolTableRecord
100
AcDbRegAppTableRecord
  2
ACAD_PSEXT
 70
     0
  0
APPID
  5
34
330
30
100
AcDbSymbolTableRecord
100
AcDbRegAppTableRecord
  2
ACAD_DSTYLE_DIMJAG
 70
     0
  0
APPID
  5
35
330
30
100
AcDbSymbolTableRecord
100
AcDbRegAppTableRecord
  2
ACAD_DSTYLE_DIMTALN
 70
     0
  0
APPID
  5
33
330
30
100
AcDbSymbolTableRecord
100
AcDbRegAppTableRecord
  2
ACAD_DSTYLE_DIMJOGGED_JOGANGLE_SYMBOL
 70
     0
  0
ENDTAB
  0
TABLE
  2
DIMSTYLE
  5
31
330
0
100
AcDbSymbolTable
 70
     3
100
AcDbDimStyleTable
 71
     2
340
32
340
36
  0
DIMSTYLE
105
36
330
31
100
AcDbSymbolTableRecord
100
AcDbDimStyleTableRecord
  2
ISO-25
 70
     0
 41
2.5
 42
0.625
 43
3.75
 44
1.25
 73
     0
 74
     0
 77
     1
 78
     8
140
2.5
141
2.5
143
0.03937007874016
147
0.625
171
     3
172
     1
271
     2
272
     2
274
     3
278
    44
283
     0
284
     8
340
25
  0
DIMSTYLE
105
32
330
31
100
AcDbSymbolTableRecord
100
AcDbDimStyleTableRecord
  2
Wagner
 70
     0
 41
2.5
 42
1.0
 43
10.0
 44
1.0
 73
     0
 74
     0
 77
     1
 78
     8
 79
     2
140
2.5
141
0.0
143
0.03937007874016
147
1.0
171
     3
172
     1
176
     4
177
     4
178
     1
179
     2
271
     8
272
     8
274
     3
283
     0
284
     8
340
25
1001
ACAD_DSTYLE_DIMJOGGED_JOGANGLE_SYMBOL
1070
   384
1040
0.7853981633974483
1001
ACAD_DSTYLE_DIMJAG
1070
   388
1040
1.5
1001
ACAD_DSTYLE_DIMTALN
1070
   392
1070
     0
  0
DIMSTYLE
105
7A
102
{ACAD_REACTORS
330
2BA
330
2C7
330
168
330
157
330
146
330
135
330
126
330
115
330
E6
330
D7
330
C8
330
B9
330
AA
330
9B
330
8A
330
7B
330
6A
102
}
330
31
100
AcDbSymbolTableRecord
100
AcDbDimStyleTableRecord
  2
Wagner$0
 70
     0
 41
2.5
 42
1.0
 43
10.0
 44
1.0
 73
     0
 74
     0
 77
     1
 78
     8
 79
     2
140
2.5
141
0.0
143
0.03937007874016
147
1.0
171
     3
172
     1
174
     1
176
     4
177
     4
178
     1
179
     2
271
     8
272
     8
274
     3
279
     2
283
     0
284
     8
340
25
1001
ACAD_DSTYLE_DIMJOGGED_JOGANGLE_SYMBOL
1070
   384
1040
0.7853981633974483
1001
ACAD_DSTYLE_DIMJAG
1070
   388
1040
1.5
1001
ACAD_DSTYLE_DIMTALN
1070
   392
1070
     0
  0
ENDTAB
  0
TABLE
  2
BLOCK_RECORD
  5
1
330
0
100
AcDbSymbolTable
 70
    22
  0
BLOCK_RECORD
  5
2
102
{ACAD_XDICTIONARY
360
3
102
}
330
1
100
AcDbSymbolTableRecord
100
AcDbBlockTableRecord
  2
*Model_Space
340
16
 70
     0
280
     1
281
     0
  0
BLOCK_RECORD
  5
1B
330
1
100
AcDbSymbolTableRecord
100
AcDbBlockTableRecord
  2
*Paper_Space
340
1E
 70
     0
280
     1
281
     0
  0
BLOCK_RECORD
  5
2CA
330
1
100
AcDbSymbolTableRecord
100
AcDbBlockTableRecord
  2
*D0
340
0
 70
     0
280
     1
281
     0
  0
BLOCK_RECORD
  5
2BB
330
1
100
AcDbSymbolTableRecord
100
AcDbBlockTableRecord
  2
*D1
340
0
 70
     0
280
     1
281
     0
  0
BLOCK_RECORD
  5
234
102
{ACAD_XDICTIONARY
360
235
102
}
330
1
100
AcDbSymbolTableRecord
100
AcDbBlockTableRecord
  2
DIN A4
340
0
102
{BLKREFS
331
233
102
}
 70
     4
280
     1
281
     0
  0
BLOCK_RECORD
  5
FC
102
{ACAD_XDICTIONARY
360
FD
102
}
330
1
100
AcDbSymbolTableRecord
100
AcDbBlockTableRecord
  2
aaaaWagner
340
0
102
{BLKREFS
331
FB
102
}
 70
     4
280
     1
281
     0
  0
BLOCK_RECORD
  5
206
330
1
100
AcDbSymbolTableRecord
100
AcDbBlockTableRecord
  2
Hygienebehälter 023557-S
340
0
310
2800000020000000200000000100080000000000000400000000000000000000000000000000000000000000000080000080000000808000800000008000800080800000C0C0C000C0DCC000F0CAA6000020400000206000002080000020A0000020C0000020E00000400000004020000040400000406000004080000040A0
310
000040C0000040E00000600000006020000060400000606000006080000060A0000060C0000060E00000800000008020000080400000806000008080000080A0000080C0000080E00000A0000000A0200000A0400000A0600000A0800000A0A00000A0C00000A0E00000C0000000C0200000C0400000C0600000C0800000C0
310
A00000C0C00000C0E00000E0000000E0200000E0400000E0600000E0800000E0A00000E0C00000E0E00040000000400020004000400040006000400080004000A0004000C0004000E00040200000402020004020400040206000402080004020A0004020C0004020E000404000004040200040404000404060004040800040
310
40A0004040C0004040E00040600000406020004060400040606000406080004060A0004060C0004060E00040800000408020004080400040806000408080004080A0004080C0004080E00040A0000040A0200040A0400040A0600040A0800040A0A00040A0C00040A0E00040C0000040C0200040C0400040C0600040C08000
310
40C0A00040C0C00040C0E00040E0000040E0200040E0400040E0600040E0800040E0A00040E0C00040E0E00080000000800020008000400080006000800080008000A0008000C0008000E00080200000802020008020400080206000802080008020A0008020C0008020E00080400000804020008040400080406000804080
310
008040A0008040C0008040E00080600000806020008060400080606000806080008060A0008060C0008060E00080800000808020008080400080806000808080008080A0008080C0008080E00080A0000080A0200080A0400080A0600080A0800080A0A00080A0C00080A0E00080C0000080C0200080C0400080C0600080C0
310
800080C0A00080C0C00080C0E00080E0000080E0200080E0400080E0600080E0800080E0A00080E0C00080E0E000C0000000C0002000C0004000C0006000C0008000C000A000C000C000C000E000C0200000C0202000C0204000C0206000C0208000C020A000C020C000C020E000C0400000C0402000C0404000C0406000C0
310
408000C040A000C040C000C040E000C0600000C0602000C0604000C0606000C0608000C060A000C060C000C060E000C0800000C0802000C0804000C0806000C0808000C080A000C080C000C080E000C0A00000C0A02000C0A04000C0A06000C0A08000C0A0A000C0A0C000C0A0E000C0C00000C0C02000C0C04000C0C06000
310
C0C08000C0C0A000F0FBFF00A4A0A000808080000000FF0000FF000000FFFF00FF000000FF00FF00FFFF0000FFFFFF0000000000000000000000000000000000000000000000000000000000000000000000000000000000000000FFFFFFFFFFFFFFFFFFFF00000000000000000000000000000000000000000000FAFAFAFA
310
FAFAFAFAFAFA00000000000000000000000000000000000000000000FA0000000000000000FA00000000000000000000000000000000000000000000FA0000000000000000FA00000000000000000000000000000000000000000000FA0000000000000000FA00000000000000000000000000000000000000000000FA0000
310
000000000000FA00000000000000000000000000000000000000000000FA0000000000000000FA00000000000000000000000000000000000000000000FA0000000000000000FA00000000000000000000000000000000000000000000FA0000000000000000FA00000000000000000000000000000000000000000000FA00
310
00000000000000FA00000000000000000000000000000000000000000000FA0000000000000000FA00000000000000000000000000000000000000000000FA0000000000000000FA00000000000000000000000000000000000000000000FA0000000000000000FA00000000000000000000000000000000000000000000FA
310
0000000000000000FA00000000000000000000000000000000000000000000FA0000000000000000FA00000000000000000000000000000000000000000000FA0000000000000000FA00000000000000000000000000000000000000000000FA0000000000000000FA00000000000000000000000000000000000000000000
310
FA0000000000000000FA00000000000000000000000000000000000000000000FA0000000000000000FA00000000000000000000000000000000000000000000FA0000000000000000FA00000000000000000000000000000000000000000000FA0000000000000000FA000000000000000000000000000000000000000000
310
00FA0000000000000000FA00000000000000000000000000000000000000000000FA0000000000000000FA00000000000000000000000000000000000000000000FA0000000000000000FA00000000000000000000000000000000000000000000FA0000000000000000FA0000000000000000000000000000000000000000
310
0000FA0000000000000000FA00000000000000000000000000000000000000000000FFFFFFFFFFFFFFFFFFFF00000000000000000000000000000000000000000000FF0000000000000000FF00000000000000000000000000000000000000000000FF0000000000000000FF00000000000000000000000000000000000000
310
000000FFFFFFFFFFFFFFFFFFFF00000000000000000000000000000000000000000000000000000000000000000000000000000000000000
102
{BLKREFS
331
205
102
}
 70
     4
280
     1
281
     1
  0
BLOCK_RECORD
  5
1F3
330
1
100
AcDbSymbolTableRecord
100
AcDbBlockTableRecord
  2
Hygienebehälter 023557-V
340
0
310
2800000020000000200000000100080000000000000400000000000000000000000000000000000000000000000080000080000000808000800000008000800080800000C0C0C000C0DCC000F0CAA6000020400000206000002080000020A0000020C0000020E00000400000004020000040400000406000004080000040A0
310
000040C0000040E00000600000006020000060400000606000006080000060A0000060C0000060E00000800000008020000080400000806000008080000080A0000080C0000080E00000A0000000A0200000A0400000A0600000A0800000A0A00000A0C00000A0E00000C0000000C0200000C0400000C0600000C0800000C0
310
A00000C0C00000C0E00000E0000000E0200000E0400000E0600000E0800000E0A00000E0C00000E0E00040000000400020004000400040006000400080004000A0004000C0004000E00040200000402020004020400040206000402080004020A0004020C0004020E000404000004040200040404000404060004040800040
310
40A0004040C0004040E00040600000406020004060400040606000406080004060A0004060C0004060E00040800000408020004080400040806000408080004080A0004080C0004080E00040A0000040A0200040A0400040A0600040A0800040A0A00040A0C00040A0E00040C0000040C0200040C0400040C0600040C08000
310
40C0A00040C0C00040C0E00040E0000040E0200040E0400040E0600040E0800040E0A00040E0C00040E0E00080000000800020008000400080006000800080008000A0008000C0008000E00080200000802020008020400080206000802080008020A0008020C0008020E00080400000804020008040400080406000804080
310
008040A0008040C0008040E00080600000806020008060400080606000806080008060A0008060C0008060E00080800000808020008080400080806000808080008080A0008080C0008080E00080A0000080A0200080A0400080A0600080A0800080A0A00080A0C00080A0E00080C0000080C0200080C0400080C0600080C0
310
800080C0A00080C0C00080C0E00080E0000080E0200080E0400080E0600080E0800080E0A00080E0C00080E0E000C0000000C0002000C0004000C0006000C0008000C000A000C000C000C000E000C0200000C0202000C0204000C0206000C0208000C020A000C020C000C020E000C0400000C0402000C0404000C0406000C0
310
408000C040A000C040C000C040E000C0600000C0602000C0604000C0606000C0608000C060A000C060C000C060E000C0800000C0802000C0804000C0806000C0808000C080A000C080C000C080E000C0A00000C0A02000C0A04000C0A06000C0A08000C0A0A000C0A0C000C0A0E000C0C00000C0C02000C0C04000C0C06000
310
C0C08000C0C0A000F0FBFF00A4A0A000808080000000FF0000FF000000FFFF00FF000000FF00FF00FFFF0000FFFFFF0000000000000000000000000000000000000000000000000000000000000000000000000000FFFFFFFFFFFFFFFFFFFFFFFFFFFFFFFFFFFFFFFFFFFF00000000000000000000FAFAFAFAFAFAFAFAFAFA
310
FAFAFAFAFAFAFAFAFAFAFAFA00000000000000000000FA0000000000000000000000000000000000000000FA00000000000000000000FA0000000000000000000000000000000000000000FA00000000000000000000FA0000000000000000000000000000000000000000FA00000000000000000000FA0000000000000000
310
000000000000000000000000FA00000000000000000000FA0000000000000000000000000000000000000000FA00000000000000000000FA0000000000000000000000000000000000000000FA00000000000000000000FA0000000000000000000000000000000000000000FA00000000000000000000FA00000000000000
310
00000000000000000000000000FA00000000000000000000FA0000000000000000000000000000000000000000FA00000000000000000000FA0000000000000000000000000000000000000000FA00000000000000000000FA0000000000000000000000000000000000000000FA00000000000000000000FA000000000000
310
0000000000000000000000000000FA00000000000000000000FA0000000000000000000000000000000000000000FA00000000000000000000FA0000000000000000000000000000000000000000FA00000000000000000000FA0000000000000000000000000000000000000000FA00000000000000000000FA0000000000
310
000000000000000000000000000000FA00000000000000000000FA0000000000000000000000000000000000000000FA00000000000000000000FA0000000000000000000000000000000000000000FA00000000000000000000FA0000000000000000000000000000000000000000FA00000000000000000000FA00000000
310
00000000000000000000000000000000FA00000000000000000000FA0000000000000000000000000000000000000000FA00000000000000000000FA0000000000000000000000000000000000000000FA00000000000000000000FA0000000000000000000000000000000000000000FA00000000000000000000FA000000
310
000000FFFFFFFFFFFFFFFF000000000000FA00000000000000000000FFFFFFFFFFFFFFFF000000000000FFFFFFFFFFFFFFFF00000000000000000000FF000000000000FFFFFFFFFFFFFFFF000000000000FF00000000000000000000FF0000000000000000000000000000000000000000FF00000000000000000000FFFFFF
310
FFFFFFFFFFFFFFFFFFFFFFFFFFFFFFFFFFFFFF00000000000000000000000000000000000000000000000000000000000000000000000000
102
{BLKREFS
331
1F2
102
}
 70
     4
280
     1
281
     1
  0
BLOCK_RECORD
  5
1C1
330
1
100
AcDbSymbolTableRecord
100
AcDbBlockTableRecord
  2
Hygienebehälter 023557-D
340
0
310
2800000020000000200000000100080000000000000400000000000000000000000000000000000000000000000080000080000000808000800000008000800080800000C0C0C000C0DCC000F0CAA6000020400000206000002080000020A0000020C0000020E00000400000004020000040400000406000004080000040A0
310
000040C0000040E00000600000006020000060400000606000006080000060A0000060C0000060E00000800000008020000080400000806000008080000080A0000080C0000080E00000A0000000A0200000A0400000A0600000A0800000A0A00000A0C00000A0E00000C0000000C0200000C0400000C0600000C0800000C0
310
A00000C0C00000C0E00000E0000000E0200000E0400000E0600000E0800000E0A00000E0C00000E0E00040000000400020004000400040006000400080004000A0004000C0004000E00040200000402020004020400040206000402080004020A0004020C0004020E000404000004040200040404000404060004040800040
310
40A0004040C0004040E00040600000406020004060400040606000406080004060A0004060C0004060E00040800000408020004080400040806000408080004080A0004080C0004080E00040A0000040A0200040A0400040A0600040A0800040A0A00040A0C00040A0E00040C0000040C0200040C0400040C0600040C08000
310
40C0A00040C0C00040C0E00040E0000040E0200040E0400040E0600040E0800040E0A00040E0C00040E0E00080000000800020008000400080006000800080008000A0008000C0008000E00080200000802020008020400080206000802080008020A0008020C0008020E00080400000804020008040400080406000804080
310
008040A0008040C0008040E00080600000806020008060400080606000806080008060A0008060C0008060E00080800000808020008080400080806000808080008080A0008080C0008080E00080A0000080A0200080A0400080A0600080A0800080A0A00080A0C00080A0E00080C0000080C0200080C0400080C0600080C0
310
800080C0A00080C0C00080C0E00080E0000080E0200080E0400080E0600080E0800080E0A00080E0C00080E0E000C0000000C0002000C0004000C0006000C0008000C000A000C000C000C000E000C0200000C0202000C0204000C0206000C0208000C020A000C020C000C020E000C0400000C0402000C0404000C0406000C0
310
408000C040A000C040C000C040E000C0600000C0602000C0604000C0606000C0608000C060A000C060C000C060E000C0800000C0802000C0804000C0806000C0808000C080A000C080C000C080E000C0A00000C0A02000C0A04000C0A06000C0A08000C0A0A000C0A0C000C0A0E000C0C00000C0C02000C0C04000C0C06000
310
C0C08000C0C0A000F0FBFF00A4A0A000808080000000FF0000FF000000FFFF00FF000000FF00FF00FFFF0000FFFFFF0000000000000000000000000000000000000000000000000000000000000000000000000000000000000000000000000000000000000000000000000000000000000000000000000000000000000000
310
00000000000000000000000000000000000000000000000000000000000000000000000000000000000000000000000000000000000000000000000000000000000000000000000000000000000000000000000000000000000000000000000000000000000000000000000000000000000000000000000000000000000000
310
0000000000000000000000000000000000000000000000000000000000000000000000000000000000000000000000000000000000000000000000000000000000000000000000000000000000000000000000FFFAFAFAFAFAFAFAFAFAFAFAFAFAFAFAFAFAFAFAFAFAFAFAFAFAFAFAFAFF0000FFFFFFFFFFFFFFFFFFFFFFFF
310
FFFFFFFFFFFFFFFFFFFFFFFFFFFFFFFFFFFF0000FFFF0000000000000000000000000000000000000000000000000000FFFF0000FFFF0000000000000000000000000000000000000000000000000000FFFF0000FFFF0000000000000000000000000000000000000000000000000000FFFF0000FFFF000000000000000000
310
0000000000000000000000000000000000FFFF0000FFFF0000000000000000000000000000000000000000000000000000FFFF0000FFFF0000000000000000000000000000000000000000000000000000FFFF0000FFFF0000000000000000000000000000000000000000000000000000FFFF0000FFFF0000000000000000
310
000000000000000000000000000000000000FFFF0000FFFF0000000000000000000000000000000000000000000000000000FFFF0000FFFF0000000000000000000000000000000000000000000000000000FFFF0000FFFFFFFFFFFFFFFFFFFFFAFFFFFFFFFFFFFFFFFAFFFFFFFFFFFFFFFFFFFF0000FFFAFAFAFAFAFAFAFA
310
FAFAFAFAFAFAFAFAFAFAFAFAFAFAFAFAFAFAFAFAFF00000000000000000000000000000000000000000000000000000000000000000000000000000000000000000000000000000000000000000000000000000000000000000000000000000000000000000000000000000000000000000000000000000000000000000000
310
00000000000000000000000000000000000000000000000000000000000000000000000000000000000000000000000000000000000000000000000000000000000000000000000000000000000000000000000000000000000000000000000000000000000000000000000000000000000000000000000000000000000000
310
0000000000000000000000000000000000000000000000000000000000000000000000000000000000000000000000000000000000000000
102
{BLKREFS
331
1C0
102
}
 70
     4
280
     1
281
     1
  0
BLOCK_RECORD
  5
16B
330
1
100
AcDbSymbolTableRecord
100
AcDbBlockTableRecord
  2
*D7
340
0
 70
     0
280
     1
281
     0
  0
BLOCK_RECORD
  5
15A
330
1
100
AcDbSymbolTableRecord
100
AcDbBlockTableRecord
  2
*D8
340
0
 70
     0
280
     1
281
     0
  0
BLOCK_RECORD
  5
149
330
1
100
AcDbSymbolTableRecord
100
AcDbBlockTableRecord
  2
*D9
340
0
 70
     0
280
     1
281
     0
  0
BLOCK_RECORD
  5
138
330
1
100
AcDbSymbolTableRecord
100
AcDbBlockTableRecord
  2
*D10
340
0
 70
     0
280
     1
281
     0
  0
BLOCK_RECORD
  5
129
330
1
100
AcDbSymbolTableRecord
100
AcDbBlockTableRecord
  2
*D11
340
0
 70
     0
280
     1
281
     0
  0
BLOCK_RECORD
  5
118
330
1
100
AcDbSymbolTableRecord
100
AcDbBlockTableRecord
  2
*D12
340
0
 70
     0
280
     1
281
     0
  0
BLOCK_RECORD
  5
E9
330
1
100
AcDbSymbolTableRecord
100
AcDbBlockTableRecord
  2
*D13
340
0
 70
     0
280
     1
281
     0
  0
BLOCK_RECORD
  5
DA
330
1
100
AcDbSymbolTableRecord
100
AcDbBlockTableRecord
  2
*D14
340
0
 70
     0
280
     1
281
     0
  0
BLOCK_RECORD
  5
CB
330
1
100
AcDbSymbolTableRecord
100
AcDbBlockTableRecord
  2
*D15
340
0
 70
     0
280
     1
281
     0
  0
BLOCK_RECORD
  5
BC
330
1
100
AcDbSymbolTableRecord
100
AcDbBlockTableRecord
  2
*D16
340
0
 70
     0
280
     1
281
     0
  0
BLOCK_RECORD
  5
AD
330
1
100
AcDbSymbolTableRecord
100
AcDbBlockTableRecord
  2
*D17
340
0
 70
     0
280
     1
281
     0
  0
BLOCK_RECORD
  5
9E
330
1
100
AcDbSymbolTableRecord
100
AcDbBlockTableRecord
  2
*D18
340
0
 70
     0
280
     1
281
     0
  0
BLOCK_RECORD
  5
8D
330
1
100
AcDbSymbolTableRecord
100
AcDbBlockTableRecord
  2
*D19
340
0
 70
     0
280
     1
281
     0
  0
BLOCK_RECORD
  5
7E
330
1
100
AcDbSymbolTableRecord
100
AcDbBlockTableRecord
  2
*D20
340
0
 70
     0
280
     1
281
     0
  0
BLOCK_RECORD
  5
6D
330
1
100
AcDbSymbolTableRecord
100
AcDbBlockTableRecord
  2
*D21
340
0
 70
     0
280
     1
281
     0
  0
ENDTAB
  0
ENDSEC
  0
SECTION
  2
BLOCKS
  0
BLOCK
  5
5
330
2
100
AcDbEntity
  8
0
100
AcDbBlockBegin
  2
*Model_Space
 70
     0
 10
0.0
 20
0.0
 30
0.0
  3
*Model_Space
  1

  0
ENDBLK
  5
15
330
2
100
AcDbEntity
  8
0
100
AcDbBlockEnd
  0
BLOCK
  5
1C
330
1B
100
AcDbEntity
 67
     1
  8
0
100
AcDbBlockBegin
  2
*Paper_Space
 70
     0
 10
0.0
 20
0.0
 30
0.0
  3
*Paper_Space
  1

  0
ENDBLK
  5
1D
330
1B
100
AcDbEntity
 67
     1
  8
0
100
AcDbBlockEnd
  0
BLOCK
  5
2CB
330
2CA
100
AcDbEntity
  8
0
100
AcDbBlockBegin
  2
*D0
 70
     1
 10
0.0
 20
0.0
 30
0.0
  3
*D0
  1

  0
LINE
  5
2CC
330
2CA
100
AcDbEntity
  8
0
 62
     4
370
    -2
100
AcDbLine
 10
87.37101170415053
 20
339.5659455910486
 30
0.0
 11
68.71026137609525
 21
339.5659455910486
 31
0.0
  0
LINE
  5
2CD
330
2CA
100
AcDbEntity
  8
0
 62
     4
370
    -2
100
AcDbLine
 10
86.37101170415235
 20
683.265945591052
 30
0.0
 11
68.71026137609533
 21
683.265945591052
 31
0.0
  0
LINE
  5
2CE
330
2CA
100
AcDbEntity
  8
0
 62
     4
370
    -2
100
AcDbLine
 10
71.21026137609525
 20
345.8159455910486
 30
0.0
 11
71.21026137609533
 21
677.015945591052
 31
0.0
  0
SOLID
  5
2CF
330
2CA
100
AcDbEntity
  8
0
 62
     4
100
AcDbTrace
 10
70.16859470942858
 20
345.8159455910486
 30
0.0
 11
72.25192804276192
 21
345.8159455910486
 31
0.0
 12
71.21026137609525
 22
339.5659455910486
 32
0.0
 13
71.21026137609525
 23
339.5659455910486
 33
0.0
  0
SOLID
  5
2D0
330
2CA
100
AcDbEntity
  8
0
 62
     4
100
AcDbTrace
 10
70.16859470942866
 20
677.015945591052
 30
0.0
 11
72.25192804276201
 21
677.015945591052
 31
0.0
 12
71.21026137609533
 22
683.265945591052
 32
0.0
 13
71.21026137609533
 23
683.265945591052
 33
0.0
  0
MTEXT
  5
2D1
330
2CA
100
AcDbEntity
  8
0
 62
     1
100
AcDbMText
 10
65.5852613760952
 20
511.4159455910503
 30
0.0
 40
6.25
 41
0.0
 46
0.0
 71
     5
 72
     1
  1
343.7
 11
0.0000000000000001
 21
1.0
 31
0.0
 73
     1
 44
1.0
  0
POINT
  5
2D2
330
2CA
100
AcDbEntity
  8
DEFPOINTS
 62
     0
100
AcDbPoint
 10
89.87101170415053
 20
339.5659455910486
 30
0.0
  0
POINT
  5
2D3
330
2CA
100
AcDbEntity
  8
DEFPOINTS
 62
     0
100
AcDbPoint
 10
88.87101170415235
 20
683.265945591052
 30
0.0
  0
POINT
  5
2D4
330
2CA
100
AcDbEntity
  8
DEFPOINTS
 62
     0
100
AcDbPoint
 10
71.21026137609533
 20
683.265945591052
 30
0.0
  0
ENDBLK
  5
2D5
330
2CA
100
AcDbEntity
  8
0
100
AcDbBlockEnd
  0
BLOCK
  5
2BC
330
2BB
100
AcDbEntity
  8
0
100
AcDbBlockBegin
  2
*D1
 70
     1
 10
0.0
 20
0.0
 30
0.0
  3
*D1
  1

  0
LINE
  5
2BD
330
2BB
100
AcDbEntity
  8
0
 62
     4
370
    -2
100
AcDbLine
 10
88.87101170415235
 20
685.5659455910476
 30
0.0
 11
88.87101170415235
 21
695.7802089652523
 31
0.0
  0
LINE
  5
2BE
330
2BB
100
AcDbEntity
  8
0
 62
     4
370
    -2
100
AcDbLine
 10
310.8710117041523
 20
685.5659455910476
 30
0.0
 11
310.8710117041523
 21
695.7802089652523
 31
0.0
  0
LINE
  5
2BF
330
2BB
100
AcDbEntity
  8
0
 62
     4
370
    -2
100
AcDbLine
 10
95.12101170415235
 20
693.2802089652523
 30
0.0
 11
304.6210117041523
 21
693.2802089652523
 31
0.0
  0
SOLID
  5
2C0
330
2BB
100
AcDbEntity
  8
0
 62
     4
100
AcDbTrace
 10
95.12101170415235
 20
694.3218756319189
 30
0.0
 11
95.12101170415235
 21
692.2385422985857
 31
0.0
 12
88.87101170415235
 22
693.2802089652523
 32
0.0
 13
88.87101170415235
 23
693.2802089652523
 33
0.0
  0
SOLID
  5
2C1
330
2BB
100
AcDbEntity
  8
0
 62
     4
100
AcDbTrace
 10
304.6210117041523
 20
694.3218756319189
 30
0.0
 11
304.6210117041523
 21
692.2385422985857
 31
0.0
 12
310.8710117041523
 22
693.2802089652523
 32
0.0
 13
310.8710117041523
 23
693.2802089652523
 33
0.0
  0
MTEXT
  5
2C2
330
2BB
100
AcDbEntity
  8
0
 62
     1
100
AcDbMText
 10
199.8710117041523
 20
698.9052089652523
 30
0.0
 40
6.25
 41
0.0
 46
0.0
 71
     5
 72
     1
  1
222
 73
     1
 44
1.0
  0
POINT
  5
2C3
330
2BB
100
AcDbEntity
  8
DEFPOINTS
 62
     0
100
AcDbPoint
 10
88.87101170415235
 20
683.0659455910477
 30
0.0
  0
POINT
  5
2C4
330
2BB
100
AcDbEntity
  8
DEFPOINTS
 62
     0
100
AcDbPoint
 10
310.8710117041523
 20
683.0659455910477
 30
0.0
  0
POINT
  5
2C5
330
2BB
100
AcDbEntity
  8
DEFPOINTS
 62
     0
100
AcDbPoint
 10
310.8710117041523
 20
693.2802089652523
 30
0.0
  0
ENDBLK
  5
2C6
330
2BB
100
AcDbEntity
  8
0
100
AcDbBlockEnd
  0
BLOCK
  5
237
330
234
100
AcDbEntity
  8
0
100
AcDbBlockBegin
  2
DIN A4
 70
     2
 10
0.0
 20
0.0
 30
0.0
  3
DIN A4
  1

  0
LINE
  5
238
330
234
100
AcDbEntity
  8
01-99
100
AcDbLine
 10
204.0000075739527
 20
290.9999979434973
 30
0.0
 11
20.0000075739529
 21
290.9999979434973
 31
0.0
  0
LINE
  5
23C
330
234
100
AcDbEntity
  8
01-99
100
AcDbLine
 10
204.0000075122353
 20
290.9999979871026
 30
0.0
 11
204.0000075122355
 21
5.999997987102574
 31
0.0
  0
LINE
  5
23D
330
234
100
AcDbEntity
  8
01-99
100
AcDbLine
 10
20.0000075122355
 20
5.99999798710246
 30
0.0
 11
20.0000075122355
 21
290.9999979871026
 31
0.0
  0
LWPOLYLINE
  5
23E
330
234
100
AcDbEntity
  8
02-99
100
AcDbPolyline
 90
        4
 70
     1
 43
0.0
 10
0.0000075122354986
 20
-0.0000020128974256
 10
210.0000075122355
 20
-0.0000020128974256
 10
210.0000075122355
 20
296.9999979871026
 10
0.0000075122354986
 20
296.9999979871026
  0
LINE
  5
243
330
234
100
AcDbEntity
  8
01-99
100
AcDbLine
 10
20.0000075122355
 20
5.99999798710246
 30
0.0
 11
204.0000075122355
 21
5.999997987102631
 31
0.0
  0
LINE
  5
244
330
234
100
AcDbEntity
  8
01-99
100
AcDbLine
 10
70.0000075122355
 20
11.11110909810247
 30
0.0
 11
20.0000075122355
 21
11.11110909810247
 31
0.0
  0
LINE
  5
245
330
234
100
AcDbEntity
  8
01-99
100
AcDbLine
 10
70.0000075122355
 20
16.22222020910249
 30
0.0
 11
20.0000075122355
 21
16.22222020910249
 31
0.0
  0
LINE
  5
246
330
234
100
AcDbEntity
  8
01-99
100
AcDbLine
 10
70.0000075122355
 20
21.3333313201025
 30
0.0
 11
20.0000075122355
 21
21.33333132010244
 31
0.0
  0
LINE
  5
247
330
234
100
AcDbEntity
  8
01-99
100
AcDbLine
 10
115.0000075122355
 20
26.44444243110252
 30
0.0
 11
20.0000075122355
 21
26.44444243110246
 31
0.0
  0
LINE
  5
248
330
234
100
AcDbEntity
  8
01-99
100
AcDbLine
 10
115.0000075122355
 20
31.55555354210253
 30
0.0
 11
20.0000075122355
 21
31.55555354210247
 31
0.0
  0
LINE
  5
249
330
234
100
AcDbEntity
  8
01-99
100
AcDbLine
 10
45.0000075122355
 20
5.99999798710246
 30
0.0
 11
45.0000075122355
 21
11.11110909810247
 31
0.0
  0
LINE
  5
24A
330
234
100
AcDbEntity
  8
01-99
100
AcDbLine
 10
28.0000075122355
 20
11.11110909810247
 30
0.0
 11
28.0000075122355
 21
36.66666465376915
 31
0.0
  0
LINE
  5
24B
330
234
100
AcDbEntity
  8
01-99
100
AcDbLine
 10
70.0000075122355
 20
5.99999798710246
 30
0.0
 11
70.0000075122355
 21
51.99999798710246
 31
0.0
  0
LINE
  5
24C
330
234
100
AcDbEntity
  8
01-99
100
AcDbLine
 10
115.0000075122355
 20
5.99999798710246
 30
0.0
 11
115.0000075122355
 21
51.99999798710246
 31
0.0
  0
LINE
  5
24D
330
234
100
AcDbEntity
  8
01-99
100
AcDbLine
 10
144.5000075122355
 20
5.99999798710246
 30
0.0
 11
144.5000075122355
 21
16.22222020910254
 31
0.0
  0
LINE
  5
24E
330
234
100
AcDbEntity
  8
01-99
100
AcDbLine
 10
177.0000075122355
 20
5.99999798710246
 30
0.0
 11
177.0000075122355
 21
16.2222202091026
 31
0.0
  0
LINE
  5
24F
330
234
100
AcDbEntity
  8
01-99
100
AcDbLine
 10
148.5000075122355
 20
36.6666646537692
 30
0.0
 11
148.5000075122355
 21
51.99999798710257
 31
0.0
  0
LINE
  5
250
330
234
100
AcDbEntity
  8
01-99
100
AcDbLine
 10
182.0000075122355
 20
36.6666646537692
 30
0.0
 11
182.0000075122355
 21
51.99999798710257
 31
0.0
  0
LINE
  5
251
330
234
100
AcDbEntity
  8
01-99
100
AcDbLine
 10
78.00000751223549
 20
21.33333132043583
 30
0.0
 11
78.00000751223549
 21
36.6666646537692
 31
0.0
  0
LINE
  5
252
330
234
100
AcDbEntity
  8
01-99
100
AcDbLine
 10
60.00319585166497
 20
11.11110909810247
 30
0.0
 11
60.00319585166497
 21
36.66666465376915
 31
0.0
  0
LINE
  5
253
330
234
100
AcDbEntity
  8
01-99
100
AcDbLine
 10
48.00319585166497
 20
11.11110909810247
 30
0.0
 11
48.00319585166497
 21
36.66666465376915
 31
0.0
  0
LINE
  5
254
330
234
100
AcDbEntity
  8
01-99
100
AcDbLine
 10
204.0000075122355
 20
51.99999798710257
 30
0.0
 11
20.00000751223368
 21
51.99999798710246
 31
0.0
  0
LINE
  5
255
330
234
100
AcDbEntity
  8
01-99
100
AcDbLine
 10
115.0000075122355
 20
21.33333132043583
 30
0.0
 11
70.0000075122355
 21
21.33333132043583
 31
0.0
  0
LINE
  5
256
330
234
100
AcDbEntity
  8
01-99
100
AcDbLine
 10
115.0000075122355
 20
36.6666646537692
 30
0.0
 11
20.0000075122355
 21
36.66666465376909
 31
0.0
  0
LINE
  5
257
330
234
100
AcDbEntity
  8
01-99
100
AcDbLine
 10
92.0000075122355
 20
21.33333132043583
 30
0.0
 11
92.0000075122355
 21
51.99999798710251
 31
0.0
  0
LINE
  5
258
330
234
100
AcDbEntity
  8
01-99
100
AcDbLine
 10
70.0000075122355
 20
36.66666465376915
 30
0.0
 11
78.00000751223549
 21
31.55555355376919
 31
0.0
  0
LINE
  5
259
330
234
100
AcDbEntity
  8
01-99
100
AcDbLine
 10
70.0000075122355
 20
31.55555355376919
 30
0.0
 11
78.00000751223549
 21
36.6666646537692
 31
0.0
  0
LINE
  5
25A
330
234
100
AcDbEntity
  8
01-99
100
AcDbLine
 10
204.0000075122355
 20
44.33333132043583
 30
0.0
 11
115.0000075122355
 21
44.33333132043578
 31
0.0
  0
LINE
  5
25B
330
234
100
AcDbEntity
  8
01-99
100
AcDbLine
 10
115.0000075122355
 20
16.22222020910249
 30
0.0
 11
204.0000075122355
 21
16.2222202091026
 31
0.0
  0
LINE
  5
25C
330
234
100
AcDbEntity
  8
01-99
100
AcDbLine
 10
115.0000075122355
 20
36.6666646537692
 30
0.0
 11
204.0000075122355
 21
36.66666465376926
 31
0.0
  0
LINE
  5
25D
330
234
100
AcDbEntity
  8
01-99
100
AcDbLine
 10
92.0000075122355
 20
41.77777576510249
 30
0.0
 11
70.0000075122355
 21
41.77777576510249
 31
0.0
  0
LINE
  5
25E
330
234
100
AcDbEntity
  8
01-99
100
AcDbLine
 10
92.0000075122355
 20
46.8888868761025
 30
0.0
 11
70.0000075122355
 21
46.88888687610244
 31
0.0
  0
LINE
  5
25F
330
234
100
AcDbEntity
  8
01-99
100
AcDbLine
 10
20.00000751223368
 20
51.99999798710246
 30
0.0
 11
20.00000751223368
 21
5.99999798710246
 31
0.0
  0
TEXT
  5
260
330
234
100
AcDbEntity
  8
08-99
100
AcDbText
 10
116.4997086805418
 20
32.66987169496042
 30
0.0
 40
2.5
  1
Benennung/Teil:
 51
15.0
  7
ROMANS8
100
AcDbText
  0
TEXT
  5
265
330
234
100
AcDbEntity
  8
08-99
100
AcDbText
 10
178.5028349598029
 20
12.01760068133313
 30
0.0
 40
2.7
  1
Ident-Nr.
 51
15.0
  7
ROMANS8
100
AcDbText
  0
TEXT
  5
266
330
234
100
AcDbEntity
  8
08-99
100
AcDbText
 10
93.50002924540357
 20
33.0555749488849
 30
0.0
 40
2.5
  1
Name:
 51
15.0
  7
ROMANS8
100
AcDbText
  0
TEXT
  5
267
330
234
100
AcDbEntity
  8
08-99
100
AcDbText
 10
79.50777665478042
 20
33.04841594810694
 30
0.0
 40
2.5
  1
Datum:
 50
0.102528160689452
 41
0.8933771909280748
 51
15.0
  7
ROMANS8
 72
     5
 11
90.67497366186243
 21
33.06839915456692
 31
0.0
100
AcDbText
  0
TEXT
  5
268
330
234
100
AcDbEntity
  8
08-99
100
AcDbText
 10
29.50001559397086
 20
33.05597508608236
 30
0.0
 40
1.6
  1
Änderung:
 51
15.0
  7
ROMANS8
100
AcDbText
  0
TEXT
  5
269
330
234
100
AcDbEntity
  8
08-99
100
AcDbText
 10
46.49994558798837
 20
9.111117286264914
 30
0.0
 40
1.0
  1
ERSETZT.DURCH:
 51
15.0
  7
ROMANS8
100
AcDbText
  0
TEXT
  5
26A
330
234
100
AcDbEntity
  8
08-99
100
AcDbText
 10
21.49936832790721
 20
9.110852190038713
 30
0.0
 40
1.0
  1
ERSETZT.FÜR:
 51
15.0
  7
ROMANS8
100
AcDbText
  0
TEXT
  5
26B
330
234
100
AcDbEntity
  8
08-99
100
AcDbText
 10
145.9909143543897
 20
12.61295485116625
 30
0.0
 40
2.112
  1
AUFTRAGS.NR.:
 51
15.0
  7
ROMANS8
100
AcDbText
  0
TEXT
  5
26C
330
234
100
AcDbEntity
  8
08-99
100
AcDbText
 10
116.5034717172479
 20
12.61092664313281
 30
0.0
 40
2.112
  1
Sonder-Nr:
 51
15.0
  7
ROMANS8
100
AcDbText
  0
TEXT
  5
26D
330
234
100
AcDbEntity
  8
08-99
100
AcDbText
 10
99.69631500731376
 20
49.92370649414477
 30
0.0
 40
1.349999999999999
  1
Format
 51
15.0
  7
ROMANS8
100
AcDbText
  0
TEXT
  5
26E
330
234
100
AcDbEntity
  8
08-99
100
AcDbText
 10
98.30438725900334
 20
44.6416167802032
 30
0.0
 40
1.822499999999999
  1
Normen
 51
15.0
  7
ROMANS8
100
AcDbText
  0
TEXT
  5
26F
330
234
100
AcDbEntity
  8
08-99
100
AcDbText
 10
21.50003711613706
 20
33.05556582266059
 30
0.0
 40
1.6
  1
Zust.
 51
15.0
  7
ROMANS8
100
AcDbText
  0
TEXT
  5
270
330
234
100
AcDbEntity
  8
08-99
100
AcDbText
 10
49.50318821340468
 20
33.05555723859902
 30
0.0
 40
1.6
  1
Datum:
 51
15.0
  7
ROMANS8
100
AcDbText
  0
TEXT
  5
271
330
234
100
AcDbEntity
  8
08-99
100
AcDbText
 10
61.50322112916754
 20
33.05556204504791
 30
0.0
 40
1.6
  1
Name:
 51
15.0
  7
ROMANS8
100
AcDbText
  0
TEXT
  5
272
330
234
100
AcDbEntity
  8
08-99
100
AcDbText
 10
71.1545619578267
 20
28.03813755505132
 30
0.0
 40
1.6
  1
Erst.
 51
15.0
  7
ROMANS8
100
AcDbText
  0
TEXT
  5
273
330
234
100
AcDbEntity
  8
08-99
100
AcDbText
 10
70.51718787454618
 20
23.1974490465235
 30
0.0
 40
1.6
  1
Bearb.
 51
15.0
  7
ROMANS8
100
AcDbText
  0
TEXT
  5
274
330
234
100
AcDbEntity
  8
08-99
100
AcDbText
 10
149.4308124240035
 20
41.61949547980938
 30
0.0
 40
2.0
  1
Zuschnittsbreite:
 51
15.0
  7
ROMANS8
100
AcDbText
  0
TEXT
  5
275
330
234
100
AcDbEntity
  8
08-99
100
AcDbText
 10
115.9850022862677
 20
41.73762161521608
 30
0.0
 40
2.0
  1
Zuschnittslänge:
 51
15.0
  7
ROMANS8
100
AcDbText
  0
LWPOLYLINE
  5
276
330
234
100
AcDbEntity
  8
06-99
100
AcDbPolyline
 90
      133
 70
     1
 43
0.010692
 10
93.76754732423549
 20
18.87656283643588
 10
94.00905465623557
 20
19.08724513243589
 10
93.92285931623556
 20
19.22625538843579
 10
93.82427194823552
 20
19.35180441643592
 10
93.71363469623569
 20
19.46393854843592
 10
93.59130396023548
 20
19.56271124443577
 10
93.45762188423558
 20
19.64816170843585
 10
93.31293417623559
 20
19.72033627243581
 10
93.15759367223554
 20
19.77928839643584
 10
92.99194251623569
 20
19.82505728443584
 10
92.81632998023557
 20
19.85768926843593
 10
92.63110533623573
 20
19.87723780843589
 10
92.43661429223564
 20
19.88374210843585
 10
92.27568900023554
 20
19.87767974443585
 10
92.11994932823543
 20
19.85975638843581
 10
91.96972672823566
 20
19.83036051643597
 10
91.82535621623562
 20
19.78988773243583
 10
91.68716924423554
 20
19.73873364043595
 10
91.55549013623559
 20
19.67729028043584
 10
91.43066103623565
 20
19.60594969243584
 10
91.31300626823557
 20
19.52510391643579
 10
91.20285728423553
 20
19.43514499243588
 10
91.10055266423561
 20
19.33647208843587
 10
91.00641316823569
 20
19.22947011643589
 10
90.92077737623563
 20
19.11454180843589
 10
90.84397674023561
 20
18.99207207643587
 10
90.77633914823563
 20
18.86245652443591
 10
90.71819961623559
 20
18.72608719243584
 10
90.66988603223562
 20
18.58336324843583
 10
90.63172984823566
 20
18.43466960443584
 10
90.60406964423547
 20
18.28040542843581
 10
90.5872261802356
 20
18.12095919643588
 10
90.58154160023562
 20
17.95672651243586
 10
90.58715490023557
 20
17.78762184043592
 10
90.60380590823573
 20
17.62428728443586
 10
90.63119524823539
 20
17.46704004043585
 10
90.66902354423545
 20
17.31619374043578
 10
90.71699498423553
 20
17.17206201643586
 10
90.77481375623566
 20
17.03495850043589
 10
90.84218404823563
 20
16.90519326043585
 10
90.91880648423559
 20
16.78308349243582
 10
91.00438525223561
 20
16.66893926443583
 10
91.09862810423559
 20
16.56307777243586
 10
91.2012285362355
 20
16.46580908443587
 10
91.31190142823554
 20
16.37745039643579
 10
91.43034027623562
 20
16.29831177643592
 10
91.55625283223551
 20
16.2287068564359
 10
91.6893397202355
 20
16.16895283243582
 10
91.82930869223552
 20
16.11935977243587
 10
91.9758568082357
 20
16.08024130843591
 10
92.1286953842355
 20
16.05191107243593
 10
92.28751791623555
 20
16.03468269643588
 10
92.45203572023561
 20
16.02886981243591
 10
92.61603318023563
 20
16.03412314843587
 10
92.77336596023557
 20
16.0497619804359
 10
92.92384516823554
 20
16.07559385243587
 10
93.06728191223546
 20
16.11142630843591
 10
93.20349086423565
 20
16.15707045643586
 10
93.33227956823547
 20
16.21233740443585
 10
93.45346269623556
 20
16.27703469643586
 10
93.56684422823562
 20
16.35097700443589
 10
93.67224596423559
 20
16.43397187243585
 10
93.76946832023557
 20
16.52582328043587
 10
93.85832953223555
 20
16.62635302843586
 10
93.93864070823568
 20
16.73535796843583
 10
94.01020939223556
 20
16.85265990043587
 10
94.07284669223557
 20
16.97805924043587
 10
94.12636728023565
 20
17.11137066043579
 10
94.17058226423549
 20
17.25240170443584
 10
94.20529562423556
 20
17.40096348043585
 10
94.23032916023558
 20
17.55686709643589
 10
94.2454868522357
 20
17.71992366043582
 10
94.25057980823547
 20
17.88993715243583
 10
94.25057980823547
 20
17.88993715243583
 10
94.25057980823547
 20
17.94131934043588
 10
92.6164715522356
 20
17.94131934043588
 10
92.6164715522356
 20
17.65354772443584
 10
93.88573312823544
 20
17.65354772443584
 10
93.87499479623548
 20
17.49100437643585
 10
93.84766248023552
 20
17.33635885243586
 10
93.80444185223566
 20
17.19027405643589
 10
93.74603858423554
 20
17.05341645643585
 10
93.67316547623572
 20
16.92644182843588
 10
93.58653176423562
 20
16.81002376843588
 10
93.4868359922356
 20
16.70481448843588
 10
93.37479452423556
 20
16.61148758443585
 10
93.2511130322355
 20
16.53069526843586
 10
93.11649718823563
 20
16.46310757243589
 10
92.9716562282355
 20
16.40938383643583
 10
92.81729938823563
 20
16.37019052843595
 10
92.65413234023563
 20
16.34618698843581
 10
92.48286432023567
 20
16.3380396844359
 10
92.31820395623563
 20
16.34599096843584
 10
92.15990889623553
 20
16.3693743724358
 10
92.00857076423554
 20
16.40748066043585
 10
91.86477762023541
 20
16.45960416043584
 10
91.7291103962356
 20
16.52503563643586
 10
91.60216071623555
 20
16.60306585243592
 10
91.48451307623558
 20
16.69299270043586
 10
91.37675910023554
 20
16.79410338043595
 10
91.27948328423569
 20
16.90569222043587
 10
91.19327012423552
 20
17.02705354843584
 10
91.11871124423558
 20
17.15747456443586
 10
91.05639114023555
 20
17.29625316043587
 10
91.00689787223556
 20
17.44268010043583
 10
90.97081950023541
 20
17.5960425844359
 10
90.94874052023547
 20
17.75564206843597
 10
90.94125255623557
 20
17.92076575243578
 10
90.94763924423572
 20
18.08913980443589
 10
90.96654270023558
 20
18.25115211643583
 10
90.99756375623568
 20
18.40630372843583
 10
91.04030680823555
 20
18.55409924443586
 10
91.09437981623548
 20
18.69404326843585
 10
91.15938361223554
 20
18.82564396843588
 10
91.23492259223556
 20
18.9483988204359
 10
91.32060471623564
 20
19.06181955643586
 10
91.41603081623546
 20
19.16540365243594
 10
91.52081241623548
 20
19.25865927643582
 10
91.63454322023566
 20
19.34108746843589
 10
91.75683831623567
 20
19.41219639643589
 10
91.88729497223542
 20
19.47148710043586
 10
92.02552114823564
 20
19.51846418443586
 10
92.17112480423569
 20
19.55263225243584
 10
92.32370320823568
 20
19.57349947243585
 10
92.48286432023567
 20
19.58056332043588
 10
92.66056892423561
 20
19.57164619243588
 10
92.83032224423564
 20
19.54500885643586
 10
92.99178570023562
 20
19.50081882043588
 10
93.14462071223559
 20
19.43924359243584
 10
93.28848870023561
 20
19.36045780843585
 10
93.42305464823565
 20
19.26462541243592
 10
93.54797997623554
 20
19.15192104043586
 10
93.66292254023566
 20
19.02250863643593
  0
LWPOLYLINE
  5
27A
330
234
100
AcDbEntity
  8
06-99
100
AcDbPolyline
 90
       12
 70
     1
 43
0.010692
 10
90.43900298423549
 20
12.25281181243593
 10
92.32227048023563
 20
12.25281181243593
 10
92.46760683623554
 20
13.00767770443588
 10
91.56487771223558
 20
13.00767770443588
 10
91.62106060823546
 20
13.29950515243581
 10
92.41872301223557
 20
13.29950515243581
 10
92.55580870823544
 20
14.01156027643583
 10
91.75814630423545
 20
14.01156027643583
 10
91.80985281623547
 20
14.28005421643581
 10
92.68923417623549
 20
14.28005421643581
 10
92.83455984023559
 20
15.03490585243588
 10
90.97464010823561
 20
15.03490585243588
  0
LWPOLYLINE
  5
27B
330
234
100
AcDbEntity
  8
06-99
100
AcDbPolyline
 90
        4
 70
     1
 43
0.010692
 10
76.60861942823558
 20
12.88042508443584
 10
89.06586862823544
 20
12.88042508443584
 10
88.94229049223557
 20
12.25209544843585
 10
76.48504485623553
 20
12.25209544843585
  0
SOLID
  5
27C
330
234
100
AcDbEntity
  8
06-99
100
AcDbTrace
 10
76.60861942823558
 20
12.88042508443584
 30
0.0
 11
89.06586862823544
 21
12.88042508443584
 31
0.0
 12
76.48504485623553
 22
12.25209544843585
 32
0.0
 13
88.94229049223557
 23
12.25209544843585
 33
0.0
  0
LWPOLYLINE
  5
27D
330
234
100
AcDbEntity
  8
06-99
100
AcDbPolyline
 90
       10
 70
     1
 43
0.010692
 10
82.3458504002356
 20
16.02886981243591
 10
83.32219038023552
 20
19.10266656043586
 10
84.33965535623546
 20
16.02886981243591
 10
85.56780619223562
 20
19.80153132043585
 10
85.22351666423551
 20
19.80153132043585
 10
84.33965535623546
 20
16.89302932843583
 10
83.32219038023552
 20
19.9454100004358
 10
82.3458504002356
 20
16.86733645243589
 10
81.42601764023565
 20
19.80153132043585
 10
81.07658882423564
 20
19.80153132043585
  0
LWPOLYLINE
  5
27E
330
234
100
AcDbEntity
  8
06-99
100
AcDbPolyline
 90
        3
 70
     1
 43
0.010692
 10
87.32442338423565
 20
17.65868344843591
 10
87.97704168023555
 20
19.25683094443582
 10
88.6039706642355
 20
17.65868344843591
  0
LWPOLYLINE
  5
27F
330
234
100
AcDbEntity
  8
06-99
100
AcDbPolyline
 90
        7
 70
     1
 43
0.010692
 10
86.38318880423563
 20
16.12735738843582
 10
86.72320153223555
 20
16.12735738843582
 10
87.21136974023549
 20
17.37092608843585
 10
88.71187076423566
 20
17.37092608843585
 10
89.17949964023549
 20
16.12735738843582
 10
89.54434632023552
 20
16.12735738843582
 10
87.99759883223558
 20
19.9454100004358
  0
LWPOLYLINE
  5
280
330
234
100
AcDbEntity
  8
06-99
100
AcDbPolyline
 90
        8
 70
     1
 43
0.010692
 10
98.92981243223543
 20
12.25281181243593
 10
100.0043869442354
 20
12.25281181243593
 10
100.1574144122356
 20
12.60301045243585
 10
100.9122803042355
 20
12.60301045243585
 10
100.9343521562355
 20
12.25281181243593
 10
102.0082815842354
 20
12.25281181243593
 10
101.5711569842355
 20
15.03490585243588
 10
100.4583193682355
 20
15.03490585243588
  0
LWPOLYLINE
  5
281
330
234
100
AcDbEntity
  8
06-99
100
AcDbPolyline
 90
       34
 70
     1
 43
0.010692
 10
96.0434642642356
 20
13.66137589243584
 10
96.07848769223544
 20
13.66137589243584
 10
96.0642316922356
 20
13.48699650043591
 10
96.06380757623552
 20
13.33509882043586
 10
96.06790617623554
 20
13.20222577243589
 10
96.09523849223561
 20
12.25281181243593
 10
96.9668360762354
 20
12.25281181243593
 10
98.31569602823542
 20
15.03490585243588
 10
97.31181345623557
 20
15.03490585243588
 10
96.85792023623552
 20
13.80922843243581
 10
96.80781752423563
 20
13.66872486043581
 10
96.74884758023544
 20
13.48671138043579
 10
96.69003445223545
 20
13.26059696443593
 10
96.66670094423549
 20
13.26059696443593
 10
96.6884270882355
 20
13.45803187243587
 10
96.69298544423558
 20
13.61569254043581
 10
96.69194475623548
 20
13.73531107243588
 10
96.67756045223544
 20
15.03490585243588
 10
95.97329266823548
 20
15.03490585243588
 10
95.45849068823557
 20
13.73531107243588
 10
95.41138886423542
 20
13.61569254043581
 10
95.35523448023562
 20
13.45803187243587
 10
95.30092981223551
 20
13.26059696443593
 10
95.27759630423545
 20
13.26059696443593
 10
95.30585169623558
 20
13.48671138043579
 10
95.31697137623556
 20
13.66872486043581
 10
95.32096662023551
 20
13.80922843243581
 10
95.33903966423546
 20
15.03490585243588
 10
94.33451200823553
 20
15.03490585243588
 10
94.61274279623561
 20
12.25281181243593
 10
95.48433681623547
 20
12.25281181243593
 10
95.87724643223557
 20
13.20222577243589
 10
95.93252050823551
 20
13.33509882043586
 10
95.99058519623557
 20
13.48699650043591
  0
LWPOLYLINE
  5
282
330
234
100
AcDbEntity
  8
06-99
100
AcDbPolyline
 90
       10
 70
     1
 43
0.010692
 10
100.4520752402354
 20
13.26448172443588
 10
100.5983667482354
 20
13.57965693643587
 10
100.6731180842355
 20
13.74409276843596
 10
100.7541598802355
 20
13.94570824843589
 10
100.8288363722355
 20
14.19056217643595
 10
100.8482958122355
 20
14.19056217643595
 10
100.8286724282354
 20
13.94570824843589
 10
100.8320796122355
 20
13.74409276843596
 10
100.8435129242355
 20
13.57965693643587
 10
100.8684181562356
 20
13.26448172443588
  0
LWPOLYLINE
  5
283
330
234
100
AcDbEntity
  8
06-99
100
AcDbPolyline
 90
       23
 70
     1
 43
0.010692
 10
103.5867130322356
 20
12.25281181243593
 10
104.5672478402354
 20
12.25281181243593
 10
104.7440436242355
 20
13.17110136043584
 10
105.0536340482356
 20
12.25281181243593
 10
106.1742447482354
 20
12.25281181243593
 10
105.6490750922355
 20
13.38511243243585
 10
105.8084357882355
 20
13.42380678043588
 10
105.9537079922354
 20
13.49881472443587
 10
106.0813562162355
 20
13.60690015243585
 10
106.1878378442354
 20
13.74481626043587
 10
106.2696066962354
 20
13.90931980843584
 10
106.3231201562354
 20
14.09716755643586
 10
106.3446075122355
 20
14.26808986843588
 10
106.3403093282354
 20
14.42329850443593
 10
106.3102362962355
 20
14.56225886443587
 10
106.2543991082354
 20
14.68443278443578
 10
106.1728155842354
 20
14.78928566443591
 10
106.0654999802355
 20
14.87627577643587
 10
105.9324594242355
 20
14.94487208443587
 10
105.7737153002354
 20
14.99453286043592
 10
105.5892711722355
 20
15.02472350443588
 10
105.3791519882354
 20
15.03490585243588
 10
104.1223501562355
 20
15.03490585243588
  0
LWPOLYLINE
  5
284
330
234
100
AcDbEntity
  8
06-99
100
AcDbPolyline
 90
        9
 70
     1
 43
0.010692
 10
104.9650401362355
 20
14.31896240443586
 10
105.1206907082355
 20
14.31896240443586
 10
105.2773605842356
 20
14.28538239643581
 10
105.3582277442354
 20
14.19040892443593
 10
105.3632244722355
 20
14.04269894443587
 10
105.3008722922355
 20
13.89699906043591
 10
105.1832994962355
 20
13.80577848043589
 10
105.0158200082354
 20
13.77421926043581
 10
104.8601694362355
 20
13.77421926043581
  0
LWPOLYLINE
  5
285
330
234
100
AcDbEntity
  8
06-99
100
AcDbPolyline
 90
       12
 70
     1
 43
0.010692
 10
100.5798090002356
 20
16.12735738843582
 10
102.3989066762356
 20
16.12735738843582
 10
102.3989066762356
 20
16.4408218804358
 10
100.9138270802356
 20
16.4408218804358
 10
100.9138270802356
 20
18.02353012843594
 10
102.3989066762356
 20
18.02353012843594
 10
102.3989066762356
 20
18.33699462043592
 10
100.9138270802356
 20
18.33699462043592
 10
100.9138270802356
 20
19.48806682843587
 10
102.3989066762356
 20
19.48806682843587
 10
102.3989066762356
 20
19.80153132043585
 10
100.5798090002356
 20
19.80153132043585
  0
LWPOLYLINE
  5
286
330
234
100
AcDbEntity
  8
06-99
100
AcDbPolyline
 90
        8
 70
     1
 43
0.010692
 10
95.85303261623565
 20
16.12735738843582
 10
96.18705426023556
 20
16.12735738843582
 10
96.18705426023556
 20
19.09753083643585
 10
98.76667389623552
 20
16.01858410843584
 10
98.76667389623552
 20
19.80153132043585
 10
98.4326665082356
 20
19.80153132043585
 10
98.4326665082356
 20
16.88274362443587
 10
95.85303261623565
 20
19.95568144843582
  0
LWPOLYLINE
  5
287
330
234
100
AcDbEntity
  8
06-99
100
AcDbPolyline
 90
       19
 70
     1
 43
0.010692
 10
104.4484312082357
 20
19.5086239804358
 10
104.7824385962356
 20
19.5086239804358
 10
104.9866237202355
 20
19.50030560443588
 10
105.1604542562355
 20
19.47385716043584
 10
105.3049031762356
 20
19.42705471243579
 10
105.4209256322356
 20
19.35767076043584
 10
105.5094874682356
 20
19.26347780443581
 10
105.5715509642355
 20
19.14224834443593
 10
105.6080855282355
 20
18.9917477524358
 10
105.6200498762355
 20
18.80975922043586
 10
105.6074547002355
 20
18.63100680043584
 10
105.5693840522356
 20
18.48585933643585
 10
105.5054245082356
 20
18.37130168443593
 10
105.4151448242355
 20
18.28432582843589
 10
105.2981315762356
 20
18.22192018843589
 10
105.1539570842356
 20
18.18106962043583
 10
104.9821972322354
 20
18.15876967243594
 10
104.7824385962356
 20
18.15200520043589
 10
104.4484312082357
 20
18.15200520043589
  0
LWPOLYLINE
  5
288
330
234
100
AcDbEntity
  8
06-99
100
AcDbPolyline
 90
       29
 70
     1
 43
0.010692
 10
106.3446075122355
 20
16.12735738843582
 10
105.0239637482355
 20
17.87965144843588
 10
105.2123817362357
 20
17.89225018843592
 10
105.3829084442356
 20
17.92941914443582
 10
105.5344069562356
 20
17.99022811243594
 10
105.6657296642355
 20
18.07375401643588
 10
105.7757360882356
 20
18.17905596043584
 10
105.8632821842355
 20
18.30521443243589
 10
105.9272310362355
 20
18.45129210043592
 10
105.9664386002355
 20
18.6163587604359
 10
105.9797608322353
 20
18.79948777243589
 10
105.9699455762357
 20
18.97455145243589
 10
105.9404891162357
 20
19.13261485243589
 10
105.8913629402356
 20
19.27374568843589
 10
105.8225492282356
 20
19.39801167643577
 10
105.7340230322356
 20
19.50548409643591
 10
105.6257594042356
 20
19.59623422843589
 10
105.4977369602356
 20
19.67032622443582
 10
105.3499307522354
 20
19.72783136443587
 10
105.1823193962355
 20
19.76882449243589
 10
104.9948815082355
 20
19.79336619643589
 10
104.7875885762355
 20
19.80153132043585
 10
104.7875885762355
 20
19.80153132043585
 10
104.1144131282356
 20
19.80153132043585
 10
104.1144131282356
 20
16.12735738843582
 10
104.4484312082357
 20
16.12735738843582
 10
104.4484312082357
 20
17.87965144843588
 10
104.6488456202355
 20
17.87965144843588
 10
105.9386465282355
 20
16.12735738843582
  0
TEXT
  5
289
330
234
100
AcDbEntity
  8
06-99
100
AcDbText
 10
85.6083656112951
 20
9.63320697282171
 30
0.0
 40
1.4256
  1
GmbH & Co KG
 41
1.199203187251
 51
15.0
  7
ROMAND8
 72
     5
 11
106.0419656112951
 21
9.63320697282171
 31
0.0
100
AcDbText
  0
TEXT
  5
28B
330
234
100
AcDbEntity
  8
06-99
100
AcDbText
 10
85.70982236587898
 20
7.391013700398161
 30
0.0
 40
1.4256
  1
72774 Reutlingen
 50
0.5663244663116128
 41
1.087840993687879
 51
15.0
  7
ROMAND8
 72
     5
 11
105.943422365879
 21
7.59101370039815
 31
0.0
100
AcDbText
  0
TEXT
  5
28C
330
234
100
AcDbEntity
  8
08-99
100
AcDbText
 10
73.414125712073
 20
48.45008961754581
 30
0.0
 40
2.25
  1
Zul. Abw.
 51
15.0
  7
ROMANS8
100
AcDbText
  0
TEXT
  5
28D
330
234
100
AcDbEntity
  8
08-99
100
AcDbText
 10
123.2099338325191
 20
49.28616214647601
 30
0.0
 40
2.0
  1
Mat. Art.
 51
15.0
  7
ROMANS8
100
AcDbText
  0
TEXT
  5
28E
330
234
100
AcDbEntity
  8
08-99
100
AcDbText
 10
155.4865384826082
 20
49.4043113704472
 30
0.0
 40
2.0
  1
Oberfläche:
 51
15.0
  7
ROMANS8
100
AcDbText
  0
TEXT
  5
28F
330
234
100
AcDbEntity
  8
08-99
100
AcDbText
 10
184.762545350816
 20
41.73764470378046
 30
0.0
 40
2.0
  1
Blech Dicke:
 51
15.0
  7
ROMANS8
100
AcDbText
  0
TEXT
  5
290
330
234
100
AcDbEntity
  8
08-99
100
AcDbText
 10
187.4380355407932
 20
49.28616214647604
 30
0.0
 40
2.0
  1
Maßstab:
 51
15.0
  7
ROMANS8
100
AcDbText
  0
LINE
  5
291
330
234
100
AcDbEntity
  8
01-99
100
AcDbLine
 10
115.0000075122355
 20
46.8888868761025
 30
0.0
 11
92.0000075122355
 21
46.8888868761025
 31
0.0
  0
LINE
  5
292
330
234
100
AcDbEntity
  8
01-99
100
AcDbLine
 10
115.0000075122355
 20
44.33333132043578
 30
0.0
 11
92.0000075122355
 21
44.33333132043578
 31
0.0
  0
LINE
  5
293
330
234
100
AcDbEntity
  8
01-99
100
AcDbLine
 10
115.0000075122355
 20
40.49999798710246
 30
0.0
 11
92.00000751223544
 21
40.49999798710246
 31
0.0
  0
ATTDEF
  5
294
330
234
100
AcDbEntity
  8
06-99
100
AcDbText
 10
116.4954542514127
 20
26.18783668438471
 30
0.0
 40
4.0
  1

 41
0.9
  7
ROMANS8
100
AcDbAttributeDefinition
280
     0
  3
Benennung/Teil
  2
TEILE
 70
     0
280
     0
  0
ATTDEF
  5
295
330
234
100
AcDbEntity
  8
06-99
100
AcDbText
 10
116.4954542514127
 20
19.29547648609889
 30
0.0
 40
4.0
  1

 41
0.9
  7
ROMANS8
100
AcDbAttributeDefinition
280
     0
  3
Benennung/Teil2
  2
TEILE2
 70
     0
280
     0
  0
ATTDEF
  5
296
330
234
100
AcDbEntity
  8
06-99
100
AcDbText
 10
191.3473937239501
 20
45.33333132043583
 30
0.0
 40
3.375
  1

  7
ROMANS8
100
AcDbAttributeDefinition
280
     0
  3
Maßstab
  2
:
 70
     0
280
     0
  0
ATTDEF
  5
297
330
234
100
AcDbEntity
  8
06-99
100
AcDbText
 10
92.99707531160292
 20
27.44168345513378
 30
0.0
 40
2.5
  1

 41
0.9
  7
ROMANS8
100
AcDbAttributeDefinition
280
     0
  3
Name
  2
NAME
 70
     0
280
     0
  0
ATTDEF
  5
298
330
234
100
AcDbEntity
  8
06-99
100
AcDbText
 10
79.49315396412956
 20
27.46123316121373
 30
0.0
 40
2.5
  1

 50
359.9144597696142
 41
0.9542572414211148
  7
ROMANS8
 72
     5
 11
90.73974463267431
 21
27.44444245376917
 31
0.0
100
AcDbAttributeDefinition
280
     0
  3
Datum
  2
DATUM
 70
     0
280
     0
  0
ATTDEF
  5
299
330
234
100
AcDbEntity
  8
06-99
100
AcDbText
 10
178.5063514793938
 20
7.4928977873912
 30
0.0
 40
2.99376
  1

  7
ROMANS8
100
AcDbAttributeDefinition
280
     0
  3
Ident-Nummer
  2
ID.NR
 70
     0
280
     0
  0
ATTDEF
  5
29A
330
234
100
AcDbEntity
  8
06-99
100
AcDbText
 10
116.731273767946
 20
37.66666463154695
 30
0.0
 40
3.0
  1

 41
0.9
  7
ROMANS8
100
AcDbAttributeDefinition
280
     0
  3
Zuschnitts.Länge
  2
LÄNGE
 70
     0
280
     0
  0
ATTDEF
  5
29B
330
234
100
AcDbEntity
  8
06-99
100
AcDbText
 10
150.1808124240052
 20
37.67810185754732
 30
0.0
 40
3.0
  1

 41
0.9
  7
ROMANS8
100
AcDbAttributeDefinition
280
     0
  3
Zuschnitts Breite
  2
BREITE
 70
     0
280
     0
  0
ATTDEF
  5
29C
330
234
100
AcDbEntity
  8
06-99
100
AcDbText
 10
190.6090996389673
 20
37.66666465376926
 30
0.0
 40
3.09375
  1

  7
ROMANS8
100
AcDbAttributeDefinition
280
     0
  3
Blech.Dicke
  2
1.0
 70
     0
280
     0
  0
ATTDEF
  5
29D
330
234
100
AcDbEntity
  8
06-99
100
AcDbText
 10
164.1277931136382
 20
45.33333132043594
 30
0.0
 40
3.0
  1

  7
ROMANS8
 72
     1
 11
164.1277931136382
 21
45.33333132043594
 31
0.0
100
AcDbAttributeDefinition
280
     0
  3
Oberfläche
  2
IV
 70
     0
280
     0
  0
ATTDEF
  5
29E
330
234
100
AcDbEntity
  8
06-99
100
AcDbText
 10
123.2747480483513
 20
45.3333313204358
 30
0.0
 40
3.375
  1
1.4301
  7
ROMANS8
100
AcDbAttributeDefinition
280
     0
  3
Mat.Art
  2
1.4301
 70
     0
280
     0
  0
ATTDEF
  5
29F
330
234
100
AcDbEntity
  8
06-99
100
AcDbText
 10
146.0006413991156
 20
7.504394591457128
 30
0.0
 40
3.168
  1

 41
0.9
  7
ROMANS8
100
AcDbAttributeDefinition
280
     0
  3
Auftrags Nr.
  2
AUFTRAGS.NR.
 70
     0
280
     0
  0
ATTDEF
  5
2A0
330
234
100
AcDbEntity
  8
06-99
100
AcDbText
 10
116.5000075122355
 20
7.499997987102517
 30
0.0
 40
3.168
  1

 41
0.9
  7
ROMANS8
100
AcDbAttributeDefinition
280
     0
  3
Sonder-NR,WPS
  2
SONDER-NR
 70
     0
280
     0
  0
ATTDEF
  5
2A1
330
234
100
AcDbEntity
  8
06-99
100
AcDbText
 10
46.4997585072438
 20
6.601808056362358
 30
0.0
 40
1.5
  1

 41
0.9
  7
ROMANS8
100
AcDbAttributeDefinition
280
     0
  3
ERSETZT.Durch
  2
ERSETZT.DURCH
 70
     0
280
     0
  0
ATTDEF
  5
2A2
330
234
100
AcDbEntity
  8
06-99
100
AcDbText
 10
21.49947529243403
 20
6.597454384974923
 30
0.0
 40
1.5
  1

 41
0.9
  7
ROMANS8
100
AcDbAttributeDefinition
280
     0
  3
ERSETZT.Für
  2
ERSETZT.FÜR
 70
     0
280
     0
  0
ATTDEF
  5
2A3
330
234
100
AcDbEntity
  8
06-99
100
AcDbText
 10
99.97308015867309
 20
47.66850912711049
 30
0.0
 40
1.287
  1
DIN A4
  7
ROMANS8
 72
     1
 11
103.2518658729588
 21
47.66850912711049
 31
0.0
100
AcDbAttributeDefinition
280
     0
  3
Format
  2
FORMAT
 70
     0
280
     0
  0
ATTDEF
  5
2A4
330
234
100
AcDbEntity
  8
06-99
100
AcDbText
 10
95.9874465096418
 20
37.19696532096725
 30
0.0
 40
2.34
  1
DIN 2768
  7
ROMANS8
 72
     1
 11
104.0103036524989
 21
37.19696532096725
 31
0.0
100
AcDbAttributeDefinition
280
     0
  3
Norm / Kanten
  2
NORM2
 70
     0
280
     0
  0
ATTDEF
  5
2A5
330
234
100
AcDbEntity
  8
06-99
100
AcDbText
 10
92.81173222392748
 20
41.03029865430056
 30
0.0
 40
2.34
  1
DIN 6930-M
  7
ROMANS8
 72
     1
 11
103.5088750810703
 21
41.03029865430056
 31
0.0
100
AcDbAttributeDefinition
280
     0
  3
Norm / Fräsen
  2
NORM1
 70
     0
280
     0
  0
ENDBLK
  5
2A6
330
234
100
AcDbEntity
  8
0
100
AcDbBlockEnd
  0
BLOCK
  5
FF
330
FC
100
AcDbEntity
  8
0
100
AcDbBlockBegin
  2
aaaaWagner
 70
     0
 10
0.0
 20
0.0
 30
0.0
  3
aaaaWagner
  1

  0
LWPOLYLINE
  5
100
330
FC
100
AcDbEntity
  8
02TNR-01
100
AcDbPolyline
 90
      133
 70
     1
 43
0.0135
 10
2.64276749999999
 20
8.613321999999925
 10
2.947701000000051
 20
8.879334999999969
 10
2.838868499999989
 20
9.054852999999866
 10
2.714389500000038
 20
9.213374499999986
 10
2.57469600000013
 20
9.35495800000001
 10
2.420237999999926
 20
9.479670999999882
 10
2.25144750000004
 20
9.587562999999931
 10
2.068760999999994
 20
9.678692499999897
 10
1.872623999999973
 20
9.753126999999949
 10
1.663468500000135
 20
9.810915999999906
 10
1.441735500000049
 20
9.852118000000018
 10
1.20786600000008
 20
9.876800499999944
 10
0.9622965000000931
 20
9.885012999999958
 10
0.759108000000083
 20
9.8773584999999
 10
0.5624669999999697
 20
9.854727999999909
 10
0.372792000000004
 20
9.817611999999996
 10
0.1905060000001413
 20
9.766509999999925
 10
0.0160275000000638
 20
9.701921499999969
 10
-0.1502339999999549
 20
9.6243414999999
 10
-0.3078464999999824
 20
9.534264999999891
 10
-0.4564004999999725
 20
9.432186999999885
 10
-0.5954774999999018
 20
9.318602499999997
 10
-0.7246499999999969
 20
9.194015499999977
 10
-0.8435129999999162
 20
9.058911999999963
 10
-0.9516390000000001
 20
8.913800499999979
 10
-1.048609499999884
 20
8.759166999999933
 10
-1.134010499999931
 20
8.595510999999987
 10
-1.207418999999958
 20
8.42332749999997
 10
-1.268420999999875
 20
8.243120499999918
 10
-1.316597999999885
 20
8.05537599999991
 10
-1.351522499999987
 20
7.860597999999868
 10
-1.372789499999953
 20
7.659276999999974
 10
-1.379966999999965
 20
7.451912499999991
 10
-1.372879499999953
 20
7.238396500000021
 10
-1.351855499999942
 20
7.032165999999961
 10
-1.317273
 20
6.833621499999935
 10
-1.269509999999968
 20
6.643158999999855
 10
-1.208939999999984
 20
6.46117449999997
 10
-1.135936499999957
 20
6.288063999999963
 10
-1.050873000000024
 20
6.124218999999925
 10
-0.9541274999999131
 20
5.970039999999926
 10
-0.8460734999999885
 20
5.825918499999943
 10
-0.7270800000000009
 20
5.692254999999931
 10
-0.5975339999999961
 20
5.569440999999983
 10
-0.4577954999999747
 20
5.457876999999882
 10
-0.308251499999983
 20
5.357954499999948
 10
-0.1492709999999988
 20
5.270069499999976
 10
0.0187680000000228
 20
5.194622499999979
 10
0.1954964999999902
 20
5.132004999999992
 10
0.3805320000001302
 20
5.082613000000037
 10
0.5735100000000557
 20
5.046842500000025
 10
0.7740435000000617
 20
5.025089499999921
 10
0.9817679999999882
 20
5.017749999999921
 10
1.188835500000095
 20
5.024382999999943
 10
1.387488000000075
 20
5.044128999999998
 10
1.577487000000019
 20
5.076744999999959
 10
1.758594000000016
 20
5.121987999999987
 10
1.930574999999976
 20
5.179619500000001
 10
2.093186999999943
 20
5.24940099999992
 10
2.246196000000054
 20
5.331089499999961
 10
2.389354500000081
 20
5.424450999999976
 10
2.522437500000023
 20
5.529242499999895
 10
2.645193000000062
 20
5.645216499999946
 10
2.757391500000039
 20
5.772147999999901
 10
2.858794500000044
 20
5.909780499999897
 10
2.949159000000122
 20
6.057888999999931
 10
3.028246500000022
 20
6.21622149999996
 10
3.095823000000109
 20
6.384543999999891
 10
3.151650000000017
 20
6.562613499999883
 10
3.195480000000088
 20
6.750191499999914
 10
3.227088000000094
 20
6.947039499999959
 10
3.246226500000034
 20
7.152918999999883
 10
3.252657000000112
 20
7.367582499999912
 10
3.252657000000112
 20
7.367582499999912
 10
3.252657000000112
 20
7.432458999999994
 10
1.189389000000005
 20
7.432458999999994
 10
1.189389000000005
 20
7.069110999999907
 10
2.79199200000005
 20
7.069110999999907
 10
2.778433500000005
 20
6.863879499999995
 10
2.743922999999995
 20
6.668619999999918
 10
2.689351500000043
 20
6.48416949999995
 10
2.61561000000006
 20
6.311369499999955
 10
2.523598500000048
 20
6.151047999999946
 10
2.414212500000076
 20
6.004055499999935
 10
2.288334000000077
 20
5.871215499999948
 10
2.146867500000098
 20
5.753378499999939
 10
1.99070400000005
 20
5.651367999999933
 10
1.820734500000071
 20
5.566030000000012
 10
1.637854500000003
 20
5.49819699999989
 10
1.442959500000142
 20
5.448710500000004
 10
1.236940500000059
 20
5.418402999999898
 10
1.020693000000051
 20
5.408115999999949
 10
0.8127885000001242
 20
5.418155499999897
 10
0.6129210000000285
 20
5.447679999999877
 10
0.4218375000000379
 20
5.495793999999932
 10
0.2402805000000399
 20
5.561606499999925
 10
0.0689835000000585
 20
5.644221999999899
 10
-0.0913064999998596
 20
5.742744999999956
 10
-0.2398514999999861
 20
5.856288999999947
 10
-0.3759045000000469
 20
5.983954000000039
 10
-0.4987274999999727
 20
6.124848999999926
 10
-0.6075824999999213
 20
6.27808299999998
 10
-0.7017224999999599
 20
6.442755999999917
 10
-0.7804095000000189
 20
6.617981499999928
 10
-0.8429009999998697
 20
6.802863999999885
 10
-0.8884544999999661
 20
6.996503500000017
 10
-0.9163320000000112
 20
7.19801799999999
 10
-0.9257864999999583
 20
7.406507499999861
 10
-0.9177224999998543
 20
7.619100999999943
 10
-0.8938544999999749
 20
7.823661999999899
 10
-0.854686499999957
 20
8.019560499999897
 10
-0.8007179999999607
 20
8.206170999999926
 10
-0.7324439999999868
 20
8.382867999999916
 10
-0.6503685000000133
 20
8.549030499999958
 10
-0.5549909999999727
 20
8.704024000000003
 10
-0.446806499999866
 20
8.847231999999962
 10
-0.3263190000000122
 20
8.978020000000014
 10
-0.194018999999912
 20
9.095766999999909
 10
-0.0504194999998617
 20
9.199842999999987
 10
0.1039935000001151
 20
9.289626999999995
 10
0.2687114999999949
 20
9.364488999999935
 10
0.443239500000118
 20
9.423803499999962
 10
0.6270825000000287
 20
9.466944999999896
 10
0.8197320000000445
 20
9.493292499999938
 10
1.020693000000051
 20
9.50221149999993
 10
1.245067500000004
 20
9.490952499999934
 10
1.45940250000001
 20
9.457319499999925
 10
1.663270500000066
 20
9.401523999999994
 10
1.85624400000006
 20
9.323777499999891
 10
2.037895500000104
 20
9.224300499999912
 10
2.207802000000015
 20
9.10329999999999
 10
2.365536000000133
 20
8.960996499999964
 10
2.510665500000072
 20
8.797596999999939
  0
LWPOLYLINE
  5
103
330
FC
100
AcDbEntity
  8
02TNR-01
100
AcDbPolyline
 90
       12
 70
     1
 43
0.0135
 10
-1.117729499999995
 20
0.25
 10
1.260133500000165
 20
0.25
 10
1.443639000000075
 20
1.203113499999972
 10
0.3038295000001199
 20
1.203113499999972
 10
0.3747675000000754
 20
1.571582499999863
 10
1.381917000000157
 20
1.571582499999863
 10
1.555004999999937
 20
2.470641999999884
 10
0.5478555000000825
 20
2.470641999999884
 10
0.6131415000000971
 20
2.809649499999864
 10
1.723471500000073
 20
2.809649499999864
 10
1.906963500000074
 20
3.762744999999995
 10
-0.4414199999999937
 20
3.762744999999995
  0
LWPOLYLINE
  5
104
330
FC
100
AcDbEntity
  8
02TNR-01
100
AcDbPolyline
 90
        4
 70
     1
 43
0.0135
 10
-18.58033499999988
 20
1.042440999999939
 10
-2.851485000000025
 20
1.042440999999939
 10
-3.007518000000004
 20
0.2490954999999531
 10
-18.73636349999992
 20
0.2490954999999531
  0
SOLID
  5
105
330
FC
100
AcDbEntity
  8
02TNR-01
100
AcDbTrace
 10
-18.58033499999988
 20
1.042440999999939
 30
0.0
 11
-2.851485000000025
 21
1.042440999999939
 31
0.0
 12
-18.73636349999992
 22
0.2490954999999531
 32
0.0
 13
-3.007518000000004
 23
0.2490954999999531
 33
0.0
  0
LWPOLYLINE
  5
106
330
FC
100
AcDbEntity
  8
02TNR-01
100
AcDbPolyline
 90
       10
 70
     1
 43
0.0135
 10
-11.77856699999995
 20
5.017749999999921
 10
-10.54581449999989
 20
8.898806499999977
 10
-9.261136499999906
 20
5.017749999999921
 10
-7.710440999999946
 20
9.781211499999926
 10
-8.145149999999944
 20
9.781211499999926
 10
-9.261136499999906
 20
6.108860499999877
 10
-10.54581449999989
 20
9.962876499999879
 10
-11.77856699999995
 20
6.076419999999984
 10
-12.93997200000001
 20
9.781211499999926
 10
-13.38116999999988
 20
9.781211499999926
  0
LWPOLYLINE
  5
107
330
FC
100
AcDbEntity
  8
02TNR-01
100
AcDbPolyline
 90
        3
 70
     1
 43
0.0135
 10
-5.492489999999861
 20
7.075595499999963
 10
-4.668476999999938
 20
9.093458499999883
 10
-3.876899999999977
 20
7.075595499999963
  0
LWPOLYLINE
  5
108
330
FC
100
AcDbEntity
  8
02TNR-01
100
AcDbPolyline
 90
        7
 70
     1
 43
0.0135
 10
-6.68091749999985
 20
5.142102999999906
 10
-6.251608499999974
 20
5.142102999999906
 10
-5.63523449999991
 20
6.712265499999944
 10
-3.740662499999871
 20
6.712265499999944
 10
-3.150221999999985
 20
5.142102999999906
 10
-2.689556999999922
 20
5.142102999999906
 10
-4.642520999999987
 20
9.962876499999879
  0
LWPOLYLINE
  5
109
330
FC
100
AcDbEntity
  8
02TNR-01
100
AcDbPolyline
 90
        8
 70
     1
 43
0.0135
 10
9.602989500000035
 20
0.25
 10
10.95977550000009
 20
0.25
 10
11.15299200000004
 20
0.6921699999999192
 10
12.10610550000001
 20
0.6921699999999192
 10
12.13397400000008
 20
0.25
 10
13.48994549999998
 20
0.25
 10
12.93802049999999
 20
3.762744999999995
 10
11.53292250000004
 20
3.762744999999995
  0
LWPOLYLINE
  5
10A
330
FC
100
AcDbEntity
  8
02TNR-01
100
AcDbPolyline
 90
       34
 70
     1
 43
0.0135
 10
5.958610500000077
 20
2.028489999999919
 10
6.002832000000012
 20
2.028489999999919
 10
5.984831999999983
 20
1.808313999999995
 10
5.984296500000141
 20
1.616523999999913
 10
5.989471500000036
 20
1.448755000000005
 10
6.023982000000046
 20
0.25
 10
7.124483999999938
 20
0.25
 10
8.827589999999986
 20
3.762744999999995
 10
7.560061500000074
 20
3.762744999999995
 10
6.986964000000057
 20
2.215172499999937
 10
6.923703000000045
 20
2.037768999999912
 10
6.849245999999993
 20
1.807953999999881
 10
6.77498700000001
 20
1.522456000000033
 10
6.745525500000098
 20
1.522456000000033
 10
6.772957500000075
 20
1.771742499999959
 10
6.778713000000038
 20
1.970808999999917
 10
6.777399000000059
 20
2.121842499999956
 10
6.759236999999984
 20
3.762744999999995
 10
5.870010000000092
 20
3.762744999999995
 10
5.220007500000065
 20
2.121842499999956
 10
5.160535500000037
 20
1.970808999999917
 10
5.089633500000104
 20
1.771742499999959
 10
5.021067000000016
 20
1.522456000000033
 10
4.991605499999991
 20
1.522456000000033
 10
5.027281500000071
 20
1.807953999999881
 10
5.041321500000094
 20
2.037768999999912
 10
5.046366000000034
 20
2.215172499999937
 10
5.069185500000003
 20
3.762744999999995
 10
3.800842500000044
 20
3.762744999999995
 10
4.152144000000021
 20
0.25
 10
5.252641499999981
 20
0.25
 10
5.748739500000056
 20
1.448755000000005
 10
5.818530000000009
 20
1.616523999999913
 10
5.891844000000105
 20
1.808313999999995
  0
LWPOLYLINE
  5
10B
330
FC
100
AcDbEntity
  8
02TNR-01
100
AcDbPolyline
 90
       10
 70
     1
 43
0.0135
 10
11.52503850000005
 20
1.527360999999928
 10
11.7097500000001
 20
1.925309499999912
 10
11.80413300000009
 20
2.132930500000043
 10
11.9064585000001
 20
2.387495499999999
 10
12.00074700000004
 20
2.696654500000022
 10
12.02531700000008
 20
2.696654500000022
 10
12.00054
 20
2.387495499999999
 10
12.00484200000005
 20
2.132930500000043
 10
12.0192780000001
 20
1.925309499999912
 10
12.05072400000006
 20
1.527360999999928
  0
LWPOLYLINE
  5
10C
330
FC
100
AcDbEntity
  8
02TNR-01
100
AcDbPolyline
 90
       23
 70
     1
 43
0.0135
 10
15.4829145000001
 20
0.25
 10
16.72096350000004
 20
0.25
 10
16.9441905000001
 20
1.409456499999919
 10
17.33508749999998
 20
0.25
 10
18.75
 20
0.25
 10
18.08690700000011
 20
1.679672499999924
 10
18.28812000000016
 20
1.72852899999998
 10
18.47154450000005
 20
1.823235999999951
 10
18.63271650000001
 20
1.959707499999922
 10
18.76716300000009
 20
2.133843999999953
 10
18.87040650000006
 20
2.341550499999925
 10
18.93797400000005
 20
2.578731999999945
 10
18.96510450000016
 20
2.794542999999976
 10
18.9596775
 20
2.99051350000002
 10
18.92170650000003
 20
3.165968499999962
 10
18.85120500000005
 20
3.320228499999871
 10
18.74819550000006
 20
3.452618499999971
 10
18.61269600000003
 20
3.562454499999944
 10
18.44471550000003
 20
3.649065999999947
 10
18.244281
 20
3.711769000000003
 10
18.0113970000001
 20
3.74988849999994
 10
17.74609500000008
 20
3.762744999999995
 10
16.15922399999999
 20
3.762744999999995
  0
LWPOLYLINE
  5
10D
330
FC
100
AcDbEntity
  8
02TNR-01
100
AcDbPolyline
 90
        9
 70
     1
 43
0.0135
 10
17.22322650000001
 20
2.85877599999992
 10
17.41975500000012
 20
2.85877599999992
 10
17.61757050000005
 20
2.816376999999931
 10
17.71967549999999
 20
2.696460999999999
 10
17.72598450000009
 20
2.509958499999925
 10
17.64725700000008
 20
2.32599399999998
 10
17.4988065
 20
2.210816499999964
 10
17.28734250000002
 20
2.1709689999999
 10
17.09081400000002
 20
2.1709689999999
  0
LWPOLYLINE
  5
10E
330
FC
100
AcDbEntity
  8
02TNR-01
100
AcDbPolyline
 90
       12
 70
     1
 43
0.0135
 10
11.24410800000009
 20
5.142102999999906
 10
13.54094850000001
 20
5.142102999999906
 10
13.54094850000001
 20
5.537891499999943
 10
11.66584800000009
 20
5.537891499999943
 10
11.66584800000009
 20
7.536260500000025
 10
13.54094850000001
 20
7.536260500000025
 10
13.54094850000001
 20
7.932049000000006
 10
11.66584800000009
 20
7.932049000000006
 10
11.66584800000009
 20
9.385422999999946
 10
13.54094850000001
 20
9.385422999999946
 10
13.54094850000001
 20
9.781211499999926
 10
11.24410800000009
 20
9.781211499999926
  0
LWPOLYLINE
  5
10F
330
FC
100
AcDbEntity
  8
02TNR-01
100
AcDbPolyline
 90
        8
 70
     1
 43
0.0135
 10
5.275956000000064
 20
5.142102999999906
 10
5.697700499999996
 20
5.142102999999906
 10
5.697700499999996
 20
8.892321999999921
 10
8.954796000000101
 20
5.004762999999968
 10
8.954796000000101
 20
9.781211499999926
 10
8.53306950000001
 20
9.781211499999926
 10
8.53306950000001
 20
6.095873499999925
 10
5.275956000000064
 20
9.975845499999877
  0
LWPOLYLINE
  5
110
330
FC
100
AcDbEntity
  8
02TNR-01
100
AcDbPolyline
 90
       19
 70
     1
 43
0.0135
 10
16.12873200000001
 20
9.411378999999897
 10
16.55045849999999
 20
9.411378999999897
 10
16.80826800000011
 20
9.400875999999925
 10
17.02775099999996
 20
9.367481499999939
 10
17.21013600000015
 20
9.308387499999867
 10
17.35662900000011
 20
9.22078149999993
 10
17.46844950000002
 20
9.101850999999896
 10
17.5468125000001
 20
8.94878349999999
 10
17.59294199999999
 20
8.758757499999887
 10
17.60804850000011
 20
8.528973999999948
 10
17.59214550000013
 20
8.303276499999924
 10
17.54407650000007
 20
8.120009499999923
 10
17.46331950000012
 20
7.975366000000008
 10
17.34933000000001
 20
7.865547999999989
 10
17.20158600000002
 20
7.786752999999976
 10
17.01954750000004
 20
7.735173999999915
 10
16.80267900000001
 20
7.707017500000006
 10
16.55045849999999
 20
7.698476499999969
 10
16.12873200000001
 20
7.698476499999969
  0
LWPOLYLINE
  5
111
330
FC
100
AcDbEntity
  8
02TNR-01
100
AcDbPolyline
 90
       29
 70
     1
 43
0.0135
 10
18.52289400000006
 20
5.142102999999906
 10
16.85541450000005
 20
7.354595499999959
 10
17.09331600000007
 20
7.370502999999985
 10
17.30862750000006
 20
7.417433499999901
 10
17.49991350000005
 20
7.494212500000003
 10
17.66572500000006
 20
7.599674499999991
 10
17.80462199999999
 20
7.732631499999911
 10
17.91516000000001
 20
7.891922499999964
 10
17.99590350000005
 20
8.076364000000012
 10
18.04540800000006
 20
8.284781500000008
 10
18.062229
 20
8.51600499999995
 10
18.04983600000014
 20
8.737044999999966
 10
18.01264350000008
 20
8.936619999999891
 10
17.95061550000002
 20
9.114815499999963
 10
17.86372950000009
 20
9.271716999999853
 10
17.75195399999995
 20
9.407414499999958
 10
17.6152575000001
 20
9.521997999999939
 10
17.45361300000002
 20
9.615548499999931
 10
17.26698900000008
 20
9.688155999999935
 10
17.05535850000001
 20
9.739914999999996
 10
16.81869449999999
 20
9.770901999999978
 10
16.55696100000011
 20
9.781211499999926
 10
16.55696100000011
 20
9.781211499999926
 10
15.70699200000001
 20
9.781211499999926
 10
15.70699200000001
 20
5.142102999999906
 10
16.12873200000001
 20
5.142102999999906
 10
16.12873200000001
 20
7.354595499999959
 10
16.3817805000001
 20
7.354595499999959
 10
18.0103170000001
 20
5.142102999999906
  0
LWPOLYLINE
  5
112
330
FC
100
AcDbEntity
  8
02TNR-01
  6
VERDECKT
100
AcDbPolyline
 90
        4
 70
     1
 43
0.0
 10
-19.0
 20
0.0
 10
19.0
 20
0.0
 10
19.0
 20
10.0
 10
-19.0
 20
10.0
  0
ENDBLK
  5
114
330
FC
100
AcDbEntity
  8
0
100
AcDbBlockEnd
  0
BLOCK
  5
207
330
206
100
AcDbEntity
  8
0
100
AcDbBlockBegin
  2
Hygienebehälter 023557-S
 70
     0
 10
0.0
 20
0.0
 30
0.0
  3
Hygienebehälter 023557-S
  1

  0
LINE
  5
208
330
206
100
AcDbEntity
  8
0
100
AcDbLine
 10
-40.49999999999999
 20
0.0
 30
0.0
 11
40.49999999999999
 21
0.0
 31
0.0
  0
LINE
  5
209
330
206
100
AcDbEntity
  8
0
100
AcDbLine
 10
40.49999999999999
 20
0.0
 30
0.0
 11
40.49999999999999
 21
225.0
 31
0.0
  0
LINE
  5
20A
330
206
100
AcDbEntity
  8
0
100
AcDbLine
 10
41.5
 20
245.0
 30
0.0
 11
-41.5
 21
245.0
 31
0.0
  0
LINE
  5
20B
330
206
100
AcDbEntity
  8
0
100
AcDbLine
 10
41.5
 20
225.0
 30
0.0
 11
-41.5
 21
225.0
 31
0.0
  0
LINE
  5
20C
330
206
100
AcDbEntity
  8
0
100
AcDbLine
 10
-40.49999999999999
 20
225.0
 30
0.0
 11
-40.49999999999999
 21
0.0
 31
0.0
  0
LINE
  5
20D
330
206
100
AcDbEntity
  8
03-01
100
AcDbLine
 10
-37.5
 20
3.0
 30
0.0
 11
37.49999999999909
 21
2.999999999999545
 31
0.0
  0
LINE
  5
20E
330
206
100
AcDbEntity
  8
03-01
100
AcDbLine
 10
37.5
 20
3.0
 30
0.0
 11
37.50000000000091
 21
245.0000000000005
 31
0.0
  0
LINE
  5
20F
330
206
100
AcDbEntity
  8
03-01
100
AcDbLine
 10
-37.49999999999909
 20
245.0000000000005
 30
0.0
 11
-37.5
 21
3.0
 31
0.0
  0
LINE
  5
210
330
206
100
AcDbEntity
  8
03-01
100
AcDbLine
 10
-41.5
 20
235.0000000000004
 30
0.0
 11
-37.49999999999909
 21
235.0000000000004
 31
0.0
  0
LINE
  5
211
330
206
100
AcDbEntity
  8
03-01
100
AcDbLine
 10
-40.49999999999999
 20
215.0
 30
0.0
 11
-37.49999999999909
 21
215.0000000000005
 31
0.0
  0
LINE
  5
212
330
206
100
AcDbEntity
  8
0
100
AcDbLine
 10
-41.5
 20
245.0
 30
0.0
 11
-41.5
 21
225.0000000000004
 31
0.0
  0
LINE
  5
213
330
206
100
AcDbEntity
  8
0
100
AcDbLine
 10
41.5
 20
245.0
 30
0.0
 11
41.5
 21
225.0000000000004
 31
0.0
  0
ENDBLK
  5
214
330
206
100
AcDbEntity
  8
0
100
AcDbBlockEnd
  0
BLOCK
  5
1F4
330
1F3
100
AcDbEntity
  8
0
100
AcDbBlockBegin
  2
Hygienebehälter 023557-V
 70
     0
 10
0.0
 20
0.0
 30
0.0
  3
Hygienebehälter 023557-V
  1

  0
LINE
  5
1F5
330
1F3
100
AcDbEntity
  8
0
100
AcDbLine
 10
-91.5
 20
0.0000000000004547
 30
0.0
 11
91.5
 21
0.0
 31
0.0
  0
LINE
  5
1F6
330
1F3
100
AcDbEntity
  8
0
100
AcDbLine
 10
91.5
 20
0.0
 30
0.0
 11
91.5
 21
225.0
 31
0.0
  0
LINE
  5
1F7
330
1F3
100
AcDbEntity
  8
0
100
AcDbLine
 10
92.5
 20
245.0
 30
0.0
 11
-92.5
 21
245.0
 31
0.0
  0
LINE
  5
1F8
330
1F3
100
AcDbEntity
  8
0
100
AcDbLine
 10
20.0
 20
235.0
 30
0.0
 11
-20.0
 21
235.0000000000004
 31
0.0
  0
LINE
  5
1F9
330
1F3
100
AcDbEntity
  8
0
100
AcDbLine
 10
20.0
 20
215.0
 30
0.0
 11
-20.0
 21
215.0
 31
0.0
  0
LINE
  5
1FA
330
1F3
100
AcDbEntity
  8
0
100
AcDbLine
 10
92.5
 20
225.0
 30
0.0
 11
30.0
 21
225.0000000000004
 31
0.0
  0
LINE
  5
1FB
330
1F3
100
AcDbEntity
  8
0
100
AcDbLine
 10
-30.0
 20
225.0000000000004
 30
0.0
 11
-92.5
 21
225.0
 31
0.0
  0
LINE
  5
1FC
330
1F3
100
AcDbEntity
  8
0
100
AcDbLine
 10
-91.5
 20
225.0
 30
0.0
 11
-91.5
 21
0.0
 31
0.0
  0
LINE
  5
1FD
330
1F3
100
AcDbEntity
  8
03-01
100
AcDbLine
 10
-88.49999999999999
 20
3.0
 30
0.0
 11
88.49999999999999
 21
3.000000000000454
 31
0.0
  0
LINE
  5
1FE
330
1F3
100
AcDbEntity
  8
03-01
100
AcDbLine
 10
88.49999999999999
 20
3.0
 30
0.0
 11
88.49999999999999
 21
245.0000000000005
 31
0.0
  0
LINE
  5
1FF
330
1F3
100
AcDbEntity
  8
03-01
100
AcDbLine
 10
-88.49999999999999
 20
245.0000000000005
 30
0.0
 11
-88.49999999999999
 21
3.0
 31
0.0
  0
LINE
  5
200
330
1F3
100
AcDbEntity
  8
0
100
AcDbLine
 10
-92.5
 20
225.0
 30
0.0
 11
-92.5
 21
245.0
 31
0.0
  0
LINE
  5
201
330
1F3
100
AcDbEntity
  8
0
100
AcDbLine
 10
92.5
 20
245.0
 30
0.0
 11
92.5
 21
225.0
 31
0.0
  0
ARC
  5
202
330
1F3
100
AcDbEntity
  8
0
100
AcDbCircle
 10
-20.0
 20
225.0000000000004
 30
0.0
 40
10.0
100
AcDbArc
 50
90.0
 51
270.0
  0
ARC
  5
203
330
1F3
100
AcDbEntity
  8
0
100
AcDbCircle
 10
20.0
 20
225.0000000000004
 30
0.0
 40
10.0
100
AcDbArc
 50
270.0
 51
90.0
  0
ENDBLK
  5
204
330
1F3
100
AcDbEntity
  8
0
100
AcDbBlockEnd
  0
BLOCK
  5
1C2
330
1C1
100
AcDbEntity
  8
0
100
AcDbBlockBegin
  2
Hygienebehälter 023557-D
 70
     0
 10
0.0
 20
0.0
 30
0.0
  3
Hygienebehälter 023557-D
  1

  0
LINE
  5
1C3
330
1C1
100
AcDbEntity
  8
0
100
AcDbLine
 10
-92.5
 20
0.0
 30
0.0
 11
92.5
 21
0.0
 31
0.0
  0
LINE
  5
1C4
330
1C1
100
AcDbEntity
  8
03-01
100
AcDbLine
 10
-91.5000000000009
 20
1.0
 30
0.0
 11
91.5
 21
1.000000000000454
 31
0.0
  0
LINE
  5
1C5
330
1C1
100
AcDbEntity
  8
0
100
AcDbLine
 10
92.5
 20
0.0
 30
0.0
 11
92.5
 21
83.0
 31
0.0
  0
LINE
  5
1C6
330
1C1
100
AcDbEntity
  8
03-01
100
AcDbLine
 10
91.5
 20
1.000000000000454
 30
0.0
 11
91.5
 21
82.00000000000045
 31
0.0
  0
LINE
  5
1C7
330
1C1
100
AcDbEntity
  8
0
100
AcDbLine
 10
92.5
 20
83.0
 30
0.0
 11
-92.5
 21
83.0
 31
0.0
  0
LINE
  5
1C8
330
1C1
100
AcDbEntity
  8
03-01
100
AcDbLine
 10
91.5000000000009
 20
82.00000000000045
 30
0.0
 11
-91.49999999999909
 21
82.00000000000045
 31
0.0
  0
LINE
  5
1C9
330
1C1
100
AcDbEntity
  8
0
100
AcDbLine
 10
-92.5
 20
83.0
 30
0.0
 11
-92.5
 21
0.0
 31
0.0
  0
LINE
  5
1CA
330
1C1
100
AcDbEntity
  8
03-01
100
AcDbLine
 10
-91.5
 20
82.00000000000091
 30
0.0
 11
-91.5000000000009
 21
0.9999999999995452
 31
0.0
  0
LINE
  5
1CB
330
1C1
100
AcDbEntity
  8
0
100
AcDbLine
 10
-88.50000000000092
 20
3.999999999999545
 30
0.0
 11
88.49999999999999
 21
4.000000000000454
 31
0.0
  0
LINE
  5
1CC
330
1C1
100
AcDbEntity
  8
0
100
AcDbLine
 10
88.49999999999999
 20
4.000000000000909
 30
0.0
 11
88.49999999999999
 21
79.0
 31
0.0
  0
LINE
  5
1CD
330
1C1
100
AcDbEntity
  8
0
100
AcDbLine
 10
88.49999999999999
 20
78.99999999999955
 30
0.0
 11
-88.50000000000092
 21
78.99999999999955
 31
0.0
  0
LINE
  5
1CE
330
1C1
100
AcDbEntity
  8
0
100
AcDbLine
 10
-88.49999999999999
 20
78.99999999999909
 30
0.0
 11
-88.49999999999999
 21
3.999999999999545
 31
0.0
  0
LINE
  5
1CF
330
1C1
100
AcDbEntity
  8
03-01
100
AcDbLine
 10
-29.99999999999909
 20
83.00000000000045
 30
0.0
 11
-29.99999999999909
 21
78.99999999999955
 31
0.0
  0
LINE
  5
1D0
330
1C1
100
AcDbEntity
  8
03-01
100
AcDbLine
 10
30.00000000000091
 20
83.00000000000045
 30
0.0
 11
29.99999999999909
 21
79.0
 31
0.0
  0
ENDBLK
  5
1D1
330
1C1
100
AcDbEntity
  8
0
100
AcDbBlockEnd
  0
BLOCK
  5
16C
330
16B
100
AcDbEntity
  8
0
100
AcDbBlockBegin
  2
*D7
 70
     1
 10
0.0
 20
0.0
 30
0.0
  3
*D7
  1

  0
LINE
  5
16D
330
16B
100
AcDbEntity
  8
0
 62
     4
370
    -2
100
AcDbLine
 10
89.87101170415053
 20
337.0659455910486
 30
0.0
 11
89.87101170415053
 21
320.0524091801906
 31
0.0
  0
LINE
  5
16E
330
16B
100
AcDbEntity
  8
0
 62
     4
370
    -2
100
AcDbLine
 10
309.8710117041505
 20
337.0659455910486
 30
0.0
 11
309.8710117041505
 21
320.0524091801906
 31
0.0
  0
LINE
  5
16F
330
16B
100
AcDbEntity
  8
0
 62
     4
370
    -2
100
AcDbLine
 10
96.12101170415053
 20
322.5524091801906
 30
0.0
 11
303.6210117041505
 21
322.5524091801906
 31
0.0
  0
SOLID
  5
170
330
16B
100
AcDbEntity
  8
0
 62
     4
100
AcDbTrace
 10
96.12101170415053
 20
323.5940758468573
 30
0.0
 11
96.12101170415053
 21
321.5107425135239
 31
0.0
 12
89.87101170415053
 22
322.5524091801906
 32
0.0
 13
89.87101170415053
 23
322.5524091801906
 33
0.0
  0
SOLID
  5
171
330
16B
100
AcDbEntity
  8
0
 62
     4
100
AcDbTrace
 10
303.6210117041505
 20
323.5940758468573
 30
0.0
 11
303.6210117041505
 21
321.5107425135239
 31
0.0
 12
309.8710117041505
 22
322.5524091801906
 32
0.0
 13
309.8710117041505
 23
322.5524091801906
 33
0.0
  0
MTEXT
  5
172
330
16B
100
AcDbEntity
  8
0
 62
     1
100
AcDbMText
 10
199.8710117041505
 20
328.1774091801906
 30
0.0
 40
6.25
 41
0.0
 46
0.0
 71
     5
 72
     1
  1
220
 73
     1
 44
1.0
  0
POINT
  5
173
330
16B
100
AcDbEntity
  8
DEFPOINTS
 62
     0
100
AcDbPoint
 10
89.87101170415053
 20
339.5659455910486
 30
0.0
  0
POINT
  5
174
330
16B
100
AcDbEntity
  8
DEFPOINTS
 62
     0
100
AcDbPoint
 10
309.8710117041505
 20
339.5659455910486
 30
0.0
  0
POINT
  5
175
330
16B
100
AcDbEntity
  8
DEFPOINTS
 62
     0
100
AcDbPoint
 10
309.8710117041505
 20
322.5524091801906
 30
0.0
  0
ENDBLK
  5
176
330
16B
100
AcDbEntity
  8
0
100
AcDbBlockEnd
  0
BLOCK
  5
15B
330
15A
100
AcDbEntity
  8
0
100
AcDbBlockBegin
  2
*D8
 70
     1
 10
0.0
 20
0.0
 30
0.0
  3
*D8
  1

  0
LINE
  5
15C
330
15A
100
AcDbEntity
  8
0
 62
     4
370
    -2
100
AcDbLine
 10
264.6210117041523
 20
648.8659455910468
 30
0.0
 11
264.6210117041523
 21
655.4496799567314
 31
0.0
  0
LINE
  5
15D
330
15A
100
AcDbEntity
  8
0
 62
     4
370
    -2
100
AcDbLine
 10
270.1210117041524
 20
648.8659455910468
 30
0.0
 11
270.1210117041524
 21
655.4496799567314
 31
0.0
  0
LINE
  5
15E
330
15A
100
AcDbEntity
  8
0
 62
     4
370
    -2
100
AcDbLine
 10
258.3710117041523
 20
652.9496799567314
 30
0.0
 11
252.1210117041523
 21
652.9496799567314
 31
0.0
  0
LINE
  5
15F
330
15A
100
AcDbEntity
  8
0
 62
     4
370
    -2
100
AcDbLine
 10
276.3710117041524
 20
652.9496799567314
 30
0.0
 11
282.6210117041524
 21
652.9496799567314
 31
0.0
  0
MTEXT
  5
160
330
15A
100
AcDbEntity
  8
0
 62
     1
100
AcDbMText
 10
283.904689896779
 20
659.1419732037675
 30
0.0
 40
6.25
 41
0.0
 46
0.0
 71
     5
 72
     1
  1
5.5
 73
     1
 44
1.0
  0
LINE
  5
161
330
15A
100
AcDbEntity
  8
0
 62
     4
370
    -2
100
AcDbLine
 10
264.6210117041523
 20
652.9496799567314
 30
0.0
 11
270.1210117041524
 21
652.9496799567314
 31
0.0
  0
SOLID
  5
162
330
15A
100
AcDbEntity
  8
0
 62
     4
100
AcDbTrace
 10
258.3710117041523
 20
653.991346623398
 30
0.0
 11
258.3710117041523
 21
651.9080132900647
 31
0.0
 12
264.6210117041523
 22
652.9496799567314
 32
0.0
 13
264.6210117041523
 23
652.9496799567314
 33
0.0
  0
SOLID
  5
163
330
15A
100
AcDbEntity
  8
0
 62
     4
100
AcDbTrace
 10
276.3710117041524
 20
653.991346623398
 30
0.0
 11
276.3710117041524
 21
651.9080132900647
 31
0.0
 12
270.1210117041524
 22
652.9496799567314
 32
0.0
 13
270.1210117041524
 23
652.9496799567314
 33
0.0
  0
POINT
  5
164
330
15A
100
AcDbEntity
  8
DEFPOINTS
 62
     0
100
AcDbPoint
 10
264.6210117041523
 20
646.3659455910468
 30
0.0
  0
POINT
  5
165
330
15A
100
AcDbEntity
  8
DEFPOINTS
 62
     0
100
AcDbPoint
 10
270.1210117041524
 20
646.3659455910468
 30
0.0
  0
POINT
  5
166
330
15A
100
AcDbEntity
  8
DEFPOINTS
 62
     0
100
AcDbPoint
 10
270.1210117041524
 20
652.9496799567314
 30
0.0
  0
ENDBLK
  5
167
330
15A
100
AcDbEntity
  8
0
100
AcDbBlockEnd
  0
BLOCK
  5
14A
330
149
100
AcDbEntity
  8
0
100
AcDbBlockBegin
  2
*D9
 70
     1
 10
0.0
 20
0.0
 30
0.0
  3
*D9
  1

  0
LINE
  5
14B
330
149
100
AcDbEntity
  8
0
 62
     4
370
    -2
100
AcDbLine
 10
260.8710117041523
 20
646.3659455910468
 30
0.0
 11
244.1881748890501
 21
646.365945591047
 31
0.0
  0
LINE
  5
14C
330
149
100
AcDbEntity
  8
0
 62
     4
370
    -2
100
AcDbLine
 10
257.6210117041524
 20
634.3659455910469
 30
0.0
 11
244.1881748890501
 21
634.3659455910469
 31
0.0
  0
LINE
  5
14D
330
149
100
AcDbEntity
  8
0
 62
     4
370
    -2
100
AcDbLine
 10
246.6881748890501
 20
652.615945591047
 30
0.0
 11
246.6881748890501
 21
658.865945591047
 31
0.0
  0
LINE
  5
14E
330
149
100
AcDbEntity
  8
0
 62
     4
370
    -2
100
AcDbLine
 10
246.6881748890501
 20
628.1159455910469
 30
0.0
 11
246.6881748890501
 21
621.8659455910469
 31
0.0
  0
LINE
  5
14F
330
149
100
AcDbEntity
  8
0
 62
     4
370
    -2
100
AcDbLine
 10
246.6881748890501
 20
646.365945591047
 30
0.0
 11
246.6881748890501
 21
634.3659455910469
 31
0.0
  0
SOLID
  5
150
330
149
100
AcDbEntity
  8
0
 62
     4
100
AcDbTrace
 10
245.6465082223834
 20
652.615945591047
 30
0.0
 11
247.7298415557167
 21
652.615945591047
 31
0.0
 12
246.6881748890501
 22
646.365945591047
 32
0.0
 13
246.6881748890501
 23
646.365945591047
 33
0.0
  0
SOLID
  5
151
330
149
100
AcDbEntity
  8
0
 62
     4
100
AcDbTrace
 10
245.6465082223834
 20
628.1159455910469
 30
0.0
 11
247.7298415557167
 21
628.1159455910469
 31
0.0
 12
246.6881748890501
 22
634.3659455910469
 32
0.0
 13
246.6881748890501
 23
634.3659455910469
 33
0.0
  0
MTEXT
  5
152
330
149
100
AcDbEntity
  8
0
 62
     1
100
AcDbMText
 10
241.0631748890499
 20
640.3659455910469
 30
0.0
 40
6.25
 41
0.0
 46
0.0
 71
     5
 72
     1
  1
12
 11
0.0000000000000001
 21
1.0
 31
0.0
 73
     1
 44
1.0
  0
POINT
  5
153
330
149
100
AcDbEntity
  8
DEFPOINTS
 62
     0
100
AcDbPoint
 10
263.3710117041523
 20
646.3659455910468
 30
0.0
  0
POINT
  5
154
330
149
100
AcDbEntity
  8
DEFPOINTS
 62
     0
100
AcDbPoint
 10
260.1210117041524
 20
634.3659455910469
 30
0.0
  0
POINT
  5
155
330
149
100
AcDbEntity
  8
DEFPOINTS
 62
     0
100
AcDbPoint
 10
246.6881748890501
 20
634.3659455910469
 30
0.0
  0
ENDBLK
  5
156
330
149
100
AcDbEntity
  8
0
100
AcDbBlockEnd
  0
BLOCK
  5
139
330
138
100
AcDbEntity
  8
0
100
AcDbBlockBegin
  2
*D10
 70
     1
 10
0.0
 20
0.0
 30
0.0
  3
*D10
  1

  0
LINE
  5
13A
330
138
100
AcDbEntity
  8
0
 62
     4
370
    -2
100
AcDbLine
 10
261.1210117041523
 20
631.8659455910468
 30
0.0
 11
261.1210117041523
 21
607.9190793435432
 31
0.0
  0
LINE
  5
13B
330
138
100
AcDbEntity
  8
0
 62
     4
370
    -2
100
AcDbLine
 10
273.6210117041523
 20
631.8659455910468
 30
0.0
 11
273.6210117041523
 21
607.9190793435432
 31
0.0
  0
LINE
  5
13C
330
138
100
AcDbEntity
  8
0
 62
     4
370
    -2
100
AcDbLine
 10
254.8710117041523
 20
610.4190793435432
 30
0.0
 11
248.6210117041523
 21
610.4190793435432
 31
0.0
  0
LINE
  5
13D
330
138
100
AcDbEntity
  8
0
 62
     4
370
    -2
100
AcDbLine
 10
279.8710117041523
 20
610.4190793435432
 30
0.0
 11
286.1210117041523
 21
610.4190793435432
 31
0.0
  0
MTEXT
  5
13E
330
138
100
AcDbEntity
  8
0
 62
     1
100
AcDbMText
 10
246.9680236796157
 20
615.6403380677516
 30
0.0
 40
6.25
 41
0.0
 46
0.0
 71
     5
 72
     1
  1
12.5
 73
     1
 44
1.0
  0
LINE
  5
13F
330
138
100
AcDbEntity
  8
0
 62
     4
370
    -2
100
AcDbLine
 10
261.1210117041523
 20
610.4190793435432
 30
0.0
 11
273.6210117041523
 21
610.4190793435432
 31
0.0
  0
SOLID
  5
140
330
138
100
AcDbEntity
  8
0
 62
     4
100
AcDbTrace
 10
254.8710117041523
 20
611.4607460102098
 30
0.0
 11
254.8710117041523
 21
609.3774126768765
 31
0.0
 12
261.1210117041523
 22
610.4190793435432
 32
0.0
 13
261.1210117041523
 23
610.4190793435432
 33
0.0
  0
SOLID
  5
141
330
138
100
AcDbEntity
  8
0
 62
     4
100
AcDbTrace
 10
279.8710117041523
 20
611.4607460102098
 30
0.0
 11
279.8710117041523
 21
609.3774126768765
 31
0.0
 12
273.6210117041523
 22
610.4190793435432
 32
0.0
 13
273.6210117041523
 23
610.4190793435432
 33
0.0
  0
POINT
  5
142
330
138
100
AcDbEntity
  8
DEFPOINTS
 62
     0
100
AcDbPoint
 10
261.1210117041523
 20
634.3659455910469
 30
0.0
  0
POINT
  5
143
330
138
100
AcDbEntity
  8
DEFPOINTS
 62
     0
100
AcDbPoint
 10
273.6210117041523
 20
634.3659455910469
 30
0.0
  0
POINT
  5
144
330
138
100
AcDbEntity
  8
DEFPOINTS
 62
     0
100
AcDbPoint
 10
273.6210117041523
 20
610.4190793435432
 30
0.0
  0
ENDBLK
  5
145
330
138
100
AcDbEntity
  8
0
100
AcDbBlockEnd
  0
BLOCK
  5
12A
330
129
100
AcDbEntity
  8
0
100
AcDbBlockBegin
  2
*D11
 70
     1
 10
0.0
 20
0.0
 30
0.0
  3
*D11
  1

  0
LINE
  5
12B
330
129
100
AcDbEntity
  8
0
 62
     4
370
    -2
100
AcDbLine
 10
366.6178954338351
 20
673.8659455910508
 30
0.0
 11
366.6178954338351
 21
696.7077097707638
 31
0.0
  0
LINE
  5
12C
330
129
100
AcDbEntity
  8
0
 62
     4
370
    -2
100
AcDbLine
 10
482.1178632243823
 20
685.7659455910525
 30
0.0
 11
482.1178632243823
 21
696.7077097707638
 31
0.0
  0
LINE
  5
12D
330
129
100
AcDbEntity
  8
0
 62
     4
370
    -2
100
AcDbLine
 10
372.8678954338351
 20
694.2077097707638
 30
0.0
 11
475.8678632243823
 21
694.2077097707638
 31
0.0
  0
SOLID
  5
12E
330
129
100
AcDbEntity
  8
0
 62
     4
100
AcDbTrace
 10
372.8678954338351
 20
695.2493764374304
 30
0.0
 11
372.8678954338351
 21
693.1660431040971
 31
0.0
 12
366.6178954338351
 22
694.2077097707638
 32
0.0
 13
366.6178954338351
 23
694.2077097707638
 33
0.0
  0
SOLID
  5
12F
330
129
100
AcDbEntity
  8
0
 62
     4
100
AcDbTrace
 10
475.8678632243823
 20
695.2493764374304
 30
0.0
 11
475.8678632243823
 21
693.1660431040971
 31
0.0
 12
482.1178632243823
 22
694.2077097707638
 32
0.0
 13
482.1178632243823
 23
694.2077097707638
 33
0.0
  0
MTEXT
  5
130
330
129
100
AcDbEntity
  8
0
 62
     1
100
AcDbMText
 10
424.3678793291087
 20
699.8327097707638
 30
0.0
 40
6.25
 41
0.0
 46
0.0
 71
     5
 72
     1
  1
115.5
 73
     1
 44
1.0
  0
POINT
  5
131
330
129
100
AcDbEntity
  8
DEFPOINTS
 62
     0
100
AcDbPoint
 10
366.6178954338351
 20
671.3659455910508
 30
0.0
  0
POINT
  5
132
330
129
100
AcDbEntity
  8
DEFPOINTS
 62
     0
100
AcDbPoint
 10
482.1178632243823
 20
683.2659455910524
 30
0.0
  0
POINT
  5
133
330
129
100
AcDbEntity
  8
DEFPOINTS
 62
     0
100
AcDbPoint
 10
482.1178632243823
 20
694.2077097707638
 30
0.0
  0
ENDBLK
  5
134
330
129
100
AcDbEntity
  8
0
100
AcDbBlockEnd
  0
BLOCK
  5
119
330
118
100
AcDbEntity
  8
0
100
AcDbBlockBegin
  2
*D12
 70
     1
 10
0.0
 20
0.0
 30
0.0
  3
*D12
  1

  0
LINE
  5
11A
330
118
100
AcDbEntity
  8
0
 62
     4
370
    -2
100
AcDbLine
 10
469.1178954338352
 20
679.0659455910517
 30
0.0
 11
469.1178954338352
 21
665.9442081748757
 31
0.0
  0
LINE
  5
11B
330
118
100
AcDbEntity
  8
0
 62
     4
370
    -2
100
AcDbLine
 10
482.1178632243823
 20
679.2659455910524
 30
0.0
 11
482.1178632243823
 21
665.9442081748757
 31
0.0
  0
LINE
  5
11C
330
118
100
AcDbEntity
  8
0
 62
     4
370
    -2
100
AcDbLine
 10
462.8678954338352
 20
668.4442081748756
 30
0.0
 11
456.6178954338352
 21
668.4442081748756
 31
0.0
  0
LINE
  5
11D
330
118
100
AcDbEntity
  8
0
 62
     4
370
    -2
100
AcDbLine
 10
488.3678632243823
 20
668.4442081748756
 30
0.0
 11
494.6178632243823
 21
668.4442081748756
 31
0.0
  0
LINE
  5
11E
330
118
100
AcDbEntity
  8
0
 62
     4
370
    -2
100
AcDbLine
 10
469.1178954338352
 20
668.4442081748756
 30
0.0
 11
482.1178632243823
 21
668.4442081748756
 31
0.0
  0
SOLID
  5
11F
330
118
100
AcDbEntity
  8
0
 62
     4
100
AcDbTrace
 10
462.8678954338352
 20
669.4858748415423
 30
0.0
 11
462.8678954338352
 21
667.402541508209
 31
0.0
 12
469.1178954338352
 22
668.4442081748756
 32
0.0
 13
469.1178954338352
 23
668.4442081748756
 33
0.0
  0
SOLID
  5
120
330
118
100
AcDbEntity
  8
0
 62
     4
100
AcDbTrace
 10
488.3678632243823
 20
669.4858748415423
 30
0.0
 11
488.3678632243823
 21
667.402541508209
 31
0.0
 12
482.1178632243823
 22
668.4442081748756
 32
0.0
 13
482.1178632243823
 23
668.4442081748756
 33
0.0
  0
MTEXT
  5
121
330
118
100
AcDbEntity
  8
0
 62
     1
100
AcDbMText
 10
475.6178793291087
 20
674.0692081748757
 30
0.0
 40
6.25
 41
0.0
 46
0.0
 71
     5
 72
     1
  1
13
 73
     1
 44
1.0
  0
POINT
  5
122
330
118
100
AcDbEntity
  8
DEFPOINTS
 62
     0
100
AcDbPoint
 10
469.1178954338352
 20
681.5659455910516
 30
0.0
  0
POINT
  5
123
330
118
100
AcDbEntity
  8
DEFPOINTS
 62
     0
100
AcDbPoint
 10
482.1178632243823
 20
681.7659455910525
 30
0.0
  0
POINT
  5
124
330
118
100
AcDbEntity
  8
DEFPOINTS
 62
     0
100
AcDbPoint
 10
482.1178632243823
 20
668.4442081748756
 30
0.0
  0
ENDBLK
  5
125
330
118
100
AcDbEntity
  8
0
100
AcDbBlockEnd
  0
BLOCK
  5
EA
330
E9
100
AcDbEntity
  8
0
100
AcDbBlockBegin
  2
*D13
 70
     1
 10
0.0
 20
0.0
 30
0.0
  3
*D13
  1

  0
LINE
  5
EB
330
E9
100
AcDbEntity
  8
09-01
 62
     4
370
    -2
100
AcDbLine
 10
138.8710117041523
 20
646.3659455910468
 30
0.0
 11
155.2673385836642
 21
646.3659455910468
 31
0.0
  0
LINE
  5
EC
330
E9
100
AcDbEntity
  8
09-01
 62
     4
370
    -2
100
AcDbLine
 10
139.5880755001717
 20
683.265945591052
 30
0.0
 11
155.2673385836642
 21
683.265945591052
 31
0.0
  0
LINE
  5
ED
330
E9
100
AcDbEntity
  8
09-01
 62
     4
370
    -2
100
AcDbLine
 10
152.7673385836642
 20
652.6159455910468
 30
0.0
 11
152.7673385836642
 21
677.015945591052
 31
0.0
  0
SOLID
  5
EE
330
E9
100
AcDbEntity
  8
09-01
 62
     4
100
AcDbTrace
 10
151.7256719169976
 20
652.6159455910468
 30
0.0
 11
153.8090052503309
 21
652.6159455910468
 31
0.0
 12
152.7673385836642
 22
646.3659455910468
 32
0.0
 13
152.7673385836642
 23
646.3659455910468
 33
0.0
  0
SOLID
  5
EF
330
E9
100
AcDbEntity
  8
09-01
 62
     4
100
AcDbTrace
 10
151.7256719169976
 20
677.015945591052
 30
0.0
 11
153.8090052503309
 21
677.015945591052
 31
0.0
 12
152.7673385836642
 22
683.265945591052
 32
0.0
 13
152.7673385836642
 23
683.265945591052
 33
0.0
  0
MTEXT
  5
F0
330
E9
100
AcDbEntity
  8
09-01
 62
     1
100
AcDbMText
 10
147.1423385836641
 20
664.8159455910494
 30
0.0
 40
6.25
 41
0.0
 46
0.0
 71
     5
 72
     1
  1
37
 11
0.0000000000000001
 21
1.0
 31
0.0
 73
     1
 44
1.0
  0
POINT
  5
F1
330
E9
100
AcDbEntity
  8
DEFPOINTS
 62
     0
100
AcDbPoint
 10
136.3710117041523
 20
646.3659455910468
 30
0.0
  0
POINT
  5
F2
330
E9
100
AcDbEntity
  8
DEFPOINTS
 62
     0
100
AcDbPoint
 10
137.0880755001717
 20
683.265945591052
 30
0.0
  0
POINT
  5
F3
330
E9
100
AcDbEntity
  8
DEFPOINTS
 62
     0
100
AcDbPoint
 10
152.7673385836642
 20
683.265945591052
 30
0.0
  0
ENDBLK
  5
F4
330
E9
100
AcDbEntity
  8
0
100
AcDbBlockEnd
  0
BLOCK
  5
DB
330
DA
100
AcDbEntity
  8
0
100
AcDbBlockBegin
  2
*D14
 70
     1
 10
0.0
 20
0.0
 30
0.0
  3
*D14
  1

  0
LINE
  5
DC
330
DA
100
AcDbEntity
  8
09-01
 62
     4
370
    -2
100
AcDbLine
 10
138.8710117041523
 20
646.3659455910468
 30
0.0
 11
155.2673385836642
 21
646.3659455910468
 31
0.0
  0
LINE
  5
DD
330
DA
100
AcDbEntity
  8
09-01
 62
     4
370
    -2
100
AcDbLine
 10
138.8710117041523
 20
369.3659455910469
 30
0.0
 11
155.2673385836642
 21
369.3659455910469
 31
0.0
  0
LINE
  5
DE
330
DA
100
AcDbEntity
  8
09-01
 62
     4
370
    -2
100
AcDbLine
 10
152.7673385836642
 20
640.1159455910468
 30
0.0
 11
152.7673385836641
 21
375.6159455910469
 31
0.0
  0
SOLID
  5
DF
330
DA
100
AcDbEntity
  8
09-01
 62
     4
100
AcDbTrace
 10
151.7256719169976
 20
640.1159455910468
 30
0.0
 11
153.8090052503309
 21
640.1159455910468
 31
0.0
 12
152.7673385836642
 22
646.3659455910468
 32
0.0
 13
152.7673385836642
 23
646.3659455910468
 33
0.0
  0
SOLID
  5
E0
330
DA
100
AcDbEntity
  8
09-01
 62
     4
100
AcDbTrace
 10
151.7256719169975
 20
375.6159455910469
 30
0.0
 11
153.8090052503308
 21
375.6159455910469
 31
0.0
 12
152.7673385836641
 22
369.3659455910469
 32
0.0
 13
152.7673385836641
 23
369.3659455910469
 33
0.0
  0
MTEXT
  5
E1
330
DA
100
AcDbEntity
  8
09-01
 62
     1
100
AcDbMText
 10
147.1423385836641
 20
507.8659455910468
 30
0.0
 40
6.25
 41
0.0
 46
0.0
 71
     5
 72
     1
  1
277
 11
0.0000000000000001
 21
1.0
 31
0.0
 73
     1
 44
1.0
  0
POINT
  5
E2
330
DA
100
AcDbEntity
  8
DEFPOINTS
 62
     0
100
AcDbPoint
 10
136.3710117041523
 20
646.3659455910468
 30
0.0
  0
POINT
  5
E3
330
DA
100
AcDbEntity
  8
DEFPOINTS
 62
     0
100
AcDbPoint
 10
136.3710117041523
 20
369.3659455910469
 30
0.0
  0
POINT
  5
E4
330
DA
100
AcDbEntity
  8
DEFPOINTS
 62
     0
100
AcDbPoint
 10
152.7673385836641
 20
369.3659455910469
 30
0.0
  0
ENDBLK
  5
E5
330
DA
100
AcDbEntity
  8
0
100
AcDbBlockEnd
  0
BLOCK
  5
CC
330
CB
100
AcDbEntity
  8
0
100
AcDbBlockBegin
  2
*D15
 70
     1
 10
0.0
 20
0.0
 30
0.0
  3
*D15
  1

  0
LINE
  5
CD
330
CB
100
AcDbEntity
  8
09-01
 62
     4
370
    -2
100
AcDbLine
 10
89.87101170415053
 20
376.3399249230344
 30
0.0
 11
89.87101170415053
 21
384.2628307812411
 31
0.0
  0
LINE
  5
CE
330
CB
100
AcDbEntity
  8
09-01
 62
     4
370
    -2
100
AcDbLine
 10
132.3710117041523
 20
375.3659455910469
 30
0.0
 11
132.3710117041523
 21
384.2628307812411
 31
0.0
  0
LINE
  5
CF
330
CB
100
AcDbEntity
  8
09-01
 62
     4
370
    -2
100
AcDbLine
 10
96.12101170415053
 20
381.7628307812411
 30
0.0
 11
126.1210117041523
 21
381.7628307812411
 31
0.0
  0
SOLID
  5
D0
330
CB
100
AcDbEntity
  8
09-01
 62
     4
100
AcDbTrace
 10
96.12101170415053
 20
382.8044974479078
 30
0.0
 11
96.12101170415053
 21
380.7211641145744
 31
0.0
 12
89.87101170415053
 22
381.7628307812411
 32
0.0
 13
89.87101170415053
 23
381.7628307812411
 33
0.0
  0
SOLID
  5
D1
330
CB
100
AcDbEntity
  8
09-01
 62
     4
100
AcDbTrace
 10
126.1210117041523
 20
382.8044974479078
 30
0.0
 11
126.1210117041523
 21
380.7211641145744
 31
0.0
 12
132.3710117041523
 22
381.7628307812411
 32
0.0
 13
132.3710117041523
 23
381.7628307812411
 33
0.0
  0
MTEXT
  5
D2
330
CB
100
AcDbEntity
  8
09-01
 62
     1
100
AcDbMText
 10
111.1210117041514
 20
387.3878307812411
 30
0.0
 40
6.25
 41
0.0
 46
0.0
 71
     5
 72
     1
  1
42.5
 73
     1
 44
1.0
  0
POINT
  5
D3
330
CB
100
AcDbEntity
  8
DEFPOINTS
 62
     0
100
AcDbPoint
 10
89.87101170415053
 20
373.8399249230345
 30
0.0
  0
POINT
  5
D4
330
CB
100
AcDbEntity
  8
DEFPOINTS
 62
     0
100
AcDbPoint
 10
132.3710117041523
 20
372.8659455910468
 30
0.0
  0
POINT
  5
D5
330
CB
100
AcDbEntity
  8
DEFPOINTS
 62
     0
100
AcDbPoint
 10
132.3710117041523
 20
381.7628307812411
 30
0.0
  0
ENDBLK
  5
D6
330
CB
100
AcDbEntity
  8
0
100
AcDbBlockEnd
  0
BLOCK
  5
BD
330
BC
100
AcDbEntity
  8
0
100
AcDbBlockBegin
  2
*D16
 70
     1
 10
0.0
 20
0.0
 30
0.0
  3
*D16
  1

  0
LINE
  5
BE
330
BC
100
AcDbEntity
  8
09-01
 62
     4
370
    -2
100
AcDbLine
 10
132.3710117041523
 20
375.3659455910469
 30
0.0
 11
132.3710117041523
 21
384.2628307812411
 31
0.0
  0
LINE
  5
BF
330
BC
100
AcDbEntity
  8
09-01
 62
     4
370
    -2
100
AcDbLine
 10
267.3710117041523
 20
375.3659455910469
 30
0.0
 11
267.3710117041523
 21
384.2628307812411
 31
0.0
  0
LINE
  5
C0
330
BC
100
AcDbEntity
  8
09-01
 62
     4
370
    -2
100
AcDbLine
 10
138.6210117041523
 20
381.7628307812411
 30
0.0
 11
261.1210117041523
 21
381.7628307812411
 31
0.0
  0
SOLID
  5
C1
330
BC
100
AcDbEntity
  8
09-01
 62
     4
100
AcDbTrace
 10
138.6210117041523
 20
382.8044974479078
 30
0.0
 11
138.6210117041523
 21
380.7211641145744
 31
0.0
 12
132.3710117041523
 22
381.7628307812411
 32
0.0
 13
132.3710117041523
 23
381.7628307812411
 33
0.0
  0
SOLID
  5
C2
330
BC
100
AcDbEntity
  8
09-01
 62
     4
100
AcDbTrace
 10
261.1210117041523
 20
382.8044974479078
 30
0.0
 11
261.1210117041523
 21
380.7211641145744
 31
0.0
 12
267.3710117041523
 22
381.7628307812411
 32
0.0
 13
267.3710117041523
 23
381.7628307812411
 33
0.0
  0
MTEXT
  5
C3
330
BC
100
AcDbEntity
  8
09-01
 62
     1
100
AcDbMText
 10
199.8710117041523
 20
387.3878307812411
 30
0.0
 40
6.25
 41
0.0
 46
0.0
 71
     5
 72
     1
  1
135
 73
     1
 44
1.0
  0
POINT
  5
C4
330
BC
100
AcDbEntity
  8
DEFPOINTS
 62
     0
100
AcDbPoint
 10
132.3710117041523
 20
372.8659455910468
 30
0.0
  0
POINT
  5
C5
330
BC
100
AcDbEntity
  8
DEFPOINTS
 62
     0
100
AcDbPoint
 10
267.3710117041523
 20
372.8659455910468
 30
0.0
  0
POINT
  5
C6
330
BC
100
AcDbEntity
  8
DEFPOINTS
 62
     0
100
AcDbPoint
 10
267.3710117041523
 20
381.7628307812411
 30
0.0
  0
ENDBLK
  5
C7
330
BC
100
AcDbEntity
  8
0
100
AcDbBlockEnd
  0
BLOCK
  5
AE
330
AD
100
AcDbEntity
  8
0
100
AcDbBlockBegin
  2
*D17
 70
     1
 10
0.0
 20
0.0
 30
0.0
  3
*D17
  1

  0
LINE
  5
AF
330
AD
100
AcDbEntity
  8
09-01
 62
     4
370
    -2
100
AcDbLine
 10
267.3710117041523
 20
375.3659455910469
 30
0.0
 11
267.3710117041523
 21
384.2628307812411
 31
0.0
  0
LINE
  5
B0
330
AD
100
AcDbEntity
  8
09-01
 62
     4
370
    -2
100
AcDbLine
 10
309.8710117041507
 20
381.539332491001
 30
0.0
 11
309.8710117041507
 21
384.2628307812411
 31
0.0
  0
LINE
  5
B1
330
AD
100
AcDbEntity
  8
09-01
 62
     4
370
    -2
100
AcDbLine
 10
273.6210117041523
 20
381.7628307812411
 30
0.0
 11
303.6210117041507
 21
381.7628307812411
 31
0.0
  0
SOLID
  5
B2
330
AD
100
AcDbEntity
  8
09-01
 62
     4
100
AcDbTrace
 10
273.6210117041523
 20
382.8044974479078
 30
0.0
 11
273.6210117041523
 21
380.7211641145744
 31
0.0
 12
267.3710117041523
 22
381.7628307812411
 32
0.0
 13
267.3710117041523
 23
381.7628307812411
 33
0.0
  0
SOLID
  5
B3
330
AD
100
AcDbEntity
  8
09-01
 62
     4
100
AcDbTrace
 10
303.6210117041507
 20
382.8044974479078
 30
0.0
 11
303.6210117041507
 21
380.7211641145744
 31
0.0
 12
309.8710117041507
 22
381.7628307812411
 32
0.0
 13
309.8710117041507
 23
381.7628307812411
 33
0.0
  0
MTEXT
  5
B4
330
AD
100
AcDbEntity
  8
09-01
 62
     1
100
AcDbMText
 10
288.6210117041516
 20
387.3878307812411
 30
0.0
 40
6.25
 41
0.0
 46
0.0
 71
     5
 72
     1
  1
42.5
 73
     1
 44
1.0
  0
POINT
  5
B5
330
AD
100
AcDbEntity
  8
DEFPOINTS
 62
     0
100
AcDbPoint
 10
267.3710117041523
 20
372.8659455910468
 30
0.0
  0
POINT
  5
B6
330
AD
100
AcDbEntity
  8
DEFPOINTS
 62
     0
100
AcDbPoint
 10
309.8710117041507
 20
379.039332491001
 30
0.0
  0
POINT
  5
B7
330
AD
100
AcDbEntity
  8
DEFPOINTS
 62
     0
100
AcDbPoint
 10
309.8710117041507
 20
381.7628307812411
 30
0.0
  0
ENDBLK
  5
B8
330
AD
100
AcDbEntity
  8
0
100
AcDbBlockEnd
  0
BLOCK
  5
9F
330
9E
100
AcDbEntity
  8
0
100
AcDbBlockBegin
  2
*D18
 70
     1
 10
0.0
 20
0.0
 30
0.0
  3
*D18
  1

  0
LINE
  5
A0
330
9E
100
AcDbEntity
  8
09-01
 62
     4
370
    -2
100
AcDbLine
 10
89.87101170415053
 20
602.1085792626434
 30
0.0
 11
89.87101170415053
 21
588.3927897552646
 31
0.0
  0
LINE
  5
A1
330
9E
100
AcDbEntity
  8
09-01
 62
     4
370
    -2
100
AcDbLine
 10
199.8710117041523
 20
607.6159455910469
 30
0.0
 11
199.8710117041523
 21
588.3927897552646
 31
0.0
  0
LINE
  5
A2
330
9E
100
AcDbEntity
  8
09-01
 62
     4
370
    -2
100
AcDbLine
 10
96.12101170415053
 20
590.8927897552646
 30
0.0
 11
193.6210117041523
 21
590.8927897552646
 31
0.0
  0
SOLID
  5
A3
330
9E
100
AcDbEntity
  8
09-01
 62
     4
100
AcDbTrace
 10
96.12101170415053
 20
591.9344564219312
 30
0.0
 11
96.12101170415053
 21
589.8511230885979
 31
0.0
 12
89.87101170415053
 22
590.8927897552646
 32
0.0
 13
89.87101170415053
 23
590.8927897552646
 33
0.0
  0
SOLID
  5
A4
330
9E
100
AcDbEntity
  8
09-01
 62
     4
100
AcDbTrace
 10
193.6210117041523
 20
591.9344564219312
 30
0.0
 11
193.6210117041523
 21
589.8511230885979
 31
0.0
 12
199.8710117041523
 22
590.8927897552646
 32
0.0
 13
199.8710117041523
 23
590.8927897552646
 33
0.0
  0
MTEXT
  5
A5
330
9E
100
AcDbEntity
  8
09-01
 62
     1
100
AcDbMText
 10
144.8710117041514
 20
596.5177897552646
 30
0.0
 40
6.25
 41
0.0
 46
0.0
 71
     5
 72
     1
  1
110
 73
     1
 44
1.0
  0
POINT
  5
A6
330
9E
100
AcDbEntity
  8
DEFPOINTS
 62
     0
100
AcDbPoint
 10
89.87101170415053
 20
604.6085792626434
 30
0.0
  0
POINT
  5
A7
330
9E
100
AcDbEntity
  8
DEFPOINTS
 62
     0
100
AcDbPoint
 10
199.8710117041523
 20
610.1159455910468
 30
0.0
  0
POINT
  5
A8
330
9E
100
AcDbEntity
  8
DEFPOINTS
 62
     0
100
AcDbPoint
 10
199.8710117041523
 20
590.8927897552646
 30
0.0
  0
ENDBLK
  5
A9
330
9E
100
AcDbEntity
  8
0
100
AcDbBlockEnd
  0
BLOCK
  5
8E
330
8D
100
AcDbEntity
  8
0
100
AcDbBlockBegin
  2
*D19
 70
     1
 10
0.0
 20
0.0
 30
0.0
  3
*D19
  1

  0
LINE
  5
8F
330
8D
100
AcDbEntity
  8
09-01
 62
     4
370
    -2
100
AcDbLine
 10
196.6210117041523
 20
611.8659455910468
 30
0.0
 11
196.6210117041523
 21
595.6070898318146
 31
0.0
  0
LINE
  5
90
330
8D
100
AcDbEntity
  8
09-01
 62
     4
370
    -2
100
AcDbLine
 10
203.1210117041524
 20
611.8659455910468
 30
0.0
 11
203.1210117041524
 21
595.6070898318146
 31
0.0
  0
LINE
  5
91
330
8D
100
AcDbEntity
  8
09-01
 62
     4
370
    -2
100
AcDbLine
 10
190.3710117041523
 20
598.1070898318145
 30
0.0
 11
184.1210117041523
 21
598.1070898318145
 31
0.0
  0
LINE
  5
92
330
8D
100
AcDbEntity
  8
09-01
 62
     4
370
    -2
100
AcDbLine
 10
209.3710117041524
 20
598.1070898318145
 30
0.0
 11
215.6210117041524
 21
598.1070898318145
 31
0.0
  0
MTEXT
  5
93
330
8D
100
AcDbEntity
  8
09-01
 62
     1
100
AcDbMText
 10
216.6150161804958
 20
603.3121508961041
 30
0.0
 40
6.25
 41
0.0
 46
0.0
 71
     5
 72
     1
  1
6.5
 73
     1
 44
1.0
  0
LINE
  5
94
330
8D
100
AcDbEntity
  8
09-01
 62
     4
370
    -2
100
AcDbLine
 10
196.6210117041523
 20
598.1070898318145
 30
0.0
 11
203.1210117041524
 21
598.1070898318145
 31
0.0
  0
SOLID
  5
95
330
8D
100
AcDbEntity
  8
09-01
 62
     4
100
AcDbTrace
 10
190.3710117041523
 20
599.1487564984812
 30
0.0
 11
190.3710117041523
 21
597.0654231651479
 31
0.0
 12
196.6210117041523
 22
598.1070898318145
 32
0.0
 13
196.6210117041523
 23
598.1070898318145
 33
0.0
  0
SOLID
  5
96
330
8D
100
AcDbEntity
  8
09-01
 62
     4
100
AcDbTrace
 10
209.3710117041524
 20
599.1487564984812
 30
0.0
 11
209.3710117041524
 21
597.0654231651479
 31
0.0
 12
203.1210117041524
 22
598.1070898318145
 32
0.0
 13
203.1210117041524
 23
598.1070898318145
 33
0.0
  0
POINT
  5
97
330
8D
100
AcDbEntity
  8
DEFPOINTS
 62
     0
100
AcDbPoint
 10
196.6210117041523
 20
614.3659455910468
 30
0.0
  0
POINT
  5
98
330
8D
100
AcDbEntity
  8
DEFPOINTS
 62
     0
100
AcDbPoint
 10
203.1210117041524
 20
614.3659455910468
 30
0.0
  0
POINT
  5
99
330
8D
100
AcDbEntity
  8
DEFPOINTS
 62
     0
100
AcDbPoint
 10
203.1210117041524
 20
598.1070898318145
 30
0.0
  0
ENDBLK
  5
9A
330
8D
100
AcDbEntity
  8
0
100
AcDbBlockEnd
  0
BLOCK
  5
7F
330
7E
100
AcDbEntity
  8
0
100
AcDbBlockBegin
  2
*D20
 70
     1
 10
0.0
 20
0.0
 30
0.0
  3
*D20
  1

  0
LINE
  5
80
330
7E
100
AcDbEntity
  8
09-01
 62
     4
370
    -2
100
AcDbLine
 10
206.6210117041523
 20
614.3659455910468
 30
0.0
 11
228.0395623249528
 21
614.3659455910468
 31
0.0
  0
LINE
  5
81
330
7E
100
AcDbEntity
  8
09-01
 62
     4
370
    -2
100
AcDbLine
 10
206.8871294939559
 20
683.265945591052
 30
0.0
 11
228.0395623249528
 21
683.265945591052
 31
0.0
  0
LINE
  5
82
330
7E
100
AcDbEntity
  8
09-01
 62
     4
370
    -2
100
AcDbLine
 10
225.5395623249528
 20
620.6159455910468
 30
0.0
 11
225.5395623249528
 21
677.015945591052
 31
0.0
  0
SOLID
  5
83
330
7E
100
AcDbEntity
  8
09-01
 62
     4
100
AcDbTrace
 10
224.4978956582862
 20
620.6159455910468
 30
0.0
 11
226.5812289916195
 21
620.6159455910468
 31
0.0
 12
225.5395623249528
 22
614.3659455910468
 32
0.0
 13
225.5395623249528
 23
614.3659455910468
 33
0.0
  0
SOLID
  5
84
330
7E
100
AcDbEntity
  8
09-01
 62
     4
100
AcDbTrace
 10
224.4978956582862
 20
677.015945591052
 30
0.0
 11
226.5812289916195
 21
677.015945591052
 31
0.0
 12
225.5395623249528
 22
683.265945591052
 32
0.0
 13
225.5395623249528
 23
683.265945591052
 33
0.0
  0
MTEXT
  5
85
330
7E
100
AcDbEntity
  8
09-01
 62
     1
100
AcDbMText
 10
219.9145623249527
 20
648.8159455910495
 30
0.0
 40
6.25
 41
0.0
 46
0.0
 71
     5
 72
     1
  1
69
 11
0.0000000000000001
 21
1.0
 31
0.0
 73
     1
 44
1.0
  0
POINT
  5
86
330
7E
100
AcDbEntity
  8
DEFPOINTS
 62
     0
100
AcDbPoint
 10
204.1210117041523
 20
614.3659455910468
 30
0.0
  0
POINT
  5
87
330
7E
100
AcDbEntity
  8
DEFPOINTS
 62
     0
100
AcDbPoint
 10
204.3871294939559
 20
683.265945591052
 30
0.0
  0
POINT
  5
88
330
7E
100
AcDbEntity
  8
DEFPOINTS
 62
     0
100
AcDbPoint
 10
225.5395623249528
 20
683.265945591052
 30
0.0
  0
ENDBLK
  5
89
330
7E
100
AcDbEntity
  8
0
100
AcDbBlockEnd
  0
BLOCK
  5
6E
330
6D
100
AcDbEntity
  8
0
100
AcDbBlockBegin
  2
*D21
 70
     1
 10
0.0
 20
0.0
 30
0.0
  3
*D21
  1

  0
LINE
  5
6F
330
6D
100
AcDbEntity
  8
09-01
 62
     4
370
    -2
100
AcDbLine
 10
366.6178954338336
 20
337.0659455910502
 30
0.0
 11
366.6178954338336
 21
320.0524091801906
 31
0.0
  0
LINE
  5
70
330
6D
100
AcDbEntity
  8
09-01
 62
     4
370
    -2
100
AcDbLine
 10
469.1178954338345
 20
337.0659455910502
 30
0.0
 11
469.1178954338345
 21
320.0524091801906
 31
0.0
  0
LINE
  5
71
330
6D
100
AcDbEntity
  8
09-01
 62
     4
370
    -2
100
AcDbLine
 10
372.8678954338336
 20
322.5524091801906
 30
0.0
 11
462.8678954338345
 21
322.5524091801906
 31
0.0
  0
SOLID
  5
72
330
6D
100
AcDbEntity
  8
09-01
 62
     4
100
AcDbTrace
 10
372.8678954338336
 20
323.5940758468573
 30
0.0
 11
372.8678954338336
 21
321.5107425135239
 31
0.0
 12
366.6178954338336
 22
322.5524091801906
 32
0.0
 13
366.6178954338336
 23
322.5524091801906
 33
0.0
  0
SOLID
  5
73
330
6D
100
AcDbEntity
  8
09-01
 62
     4
100
AcDbTrace
 10
462.8678954338345
 20
323.5940758468573
 30
0.0
 11
462.8678954338345
 21
321.5107425135239
 31
0.0
 12
469.1178954338345
 22
322.5524091801906
 32
0.0
 13
469.1178954338345
 23
322.5524091801906
 33
0.0
  0
MTEXT
  5
74
330
6D
100
AcDbEntity
  8
09-01
 62
     1
100
AcDbMText
 10
417.867895433834
 20
328.1774091801906
 30
0.0
 40
6.25
 41
0.0
 46
0.0
 71
     5
 72
     1
  1
102.5
 73
     1
 44
1.0
  0
POINT
  5
75
330
6D
100
AcDbEntity
  8
DEFPOINTS
 62
     0
100
AcDbPoint
 10
366.6178954338336
 20
339.5659455910502
 30
0.0
  0
POINT
  5
77
330
6D
100
AcDbEntity
  8
DEFPOINTS
 62
     0
100
AcDbPoint
 10
469.1178954338345
 20
339.5659455910502
 30
0.0
  0
POINT
  5
78
330
6D
100
AcDbEntity
  8
DEFPOINTS
 62
     0
100
AcDbPoint
 10
469.1178954338345
 20
322.5524091801906
 30
0.0
  0
ENDBLK
  5
79
330
6D
100
AcDbEntity
  8
0
100
AcDbBlockEnd
  0
ENDSEC
  0
SECTION
  2
ENTITIES
  0
DIMENSION
  5
6A
102
{ACAD_XDICTIONARY
360
6B
102
}
102
{ACAD_REACTORS
330
6C
102
}
330
2
100
AcDbEntity
  8
09-01
100
AcDbDimension
280
     0
  2
*D21
 10
469.1178954338345
 20
322.5524091801906
 30
0.0
 11
417.867895433834
 21
328.1774091801906
 31
0.0
 71
     5
 42
102.5000000000009
 73
     0
 74
     0
 75
     0
  3
Wagner$0
100
AcDbAlignedDimension
 13
366.6178954338336
 23
339.5659455910502
 33
0.0
 14
469.1178954338345
 24
339.5659455910502
 34
0.0
100
AcDbRotatedDimension
1001
ACAD
1000
DSTYLE
1002
{
1070
    40
1040
2.5
1002
}
  0
DIMENSION
  5
7B
102
{ACAD_XDICTIONARY
360
7C
102
}
102
{ACAD_REACTORS
330
7D
102
}
330
2
100
AcDbEntity
  8
09-01
100
AcDbDimension
280
     0
  2
*D20
 10
225.5395623249528
 20
683.265945591052
 30
0.0
 11
219.9145623249527
 21
648.8159455910495
 31
0.0
 71
     5
 42
68.90000000000521
 73
     0
 74
     0
 75
     0
  3
Wagner$0
100
AcDbAlignedDimension
 13
204.1210117041523
 23
614.3659455910468
 33
0.0
 14
204.3871294939559
 24
683.265945591052
 34
0.0
 50
90.0
100
AcDbRotatedDimension
1001
ACAD
1000
DSTYLE
1002
{
1070
   271
1070
     0
1070
    40
1040
2.5
1002
}
  0
DIMENSION
  5
8A
102
{ACAD_XDICTIONARY
360
8B
102
}
102
{ACAD_REACTORS
330
8C
102
}
330
2
100
AcDbEntity
  8
09-01
100
AcDbDimension
280
     0
  2
*D19
 10
203.1210117041524
 20
598.1070898318145
 30
0.0
 11
216.6150161804958
 21
603.3121508961041
 31
0.0
 70
   128
 71
     5
 42
6.5
 73
     0
 74
     0
 75
     0
  3
Wagner$0
100
AcDbAlignedDimension
 13
196.6210117041523
 23
614.3659455910468
 33
0.0
 14
203.1210117041524
 24
614.3659455910468
 34
0.0
100
AcDbRotatedDimension
1001
ACAD
1000
DSTYLE
1002
{
1070
    40
1040
2.5
1002
}
  0
DIMENSION
  5
9B
102
{ACAD_XDICTIONARY
360
9C
102
}
102
{ACAD_REACTORS
330
9D
102
}
330
2
100
AcDbEntity
  8
09-01
100
AcDbDimension
280
     0
  2
*D18
 10
199.8710117041523
 20
590.8927897552646
 30
0.0
 11
144.8710117041514
 21
596.5177897552646
 31
0.0
 71
     5
 42
110.0000000000018
 73
     0
 74
     0
 75
     0
  3
Wagner$0
100
AcDbAlignedDimension
 13
89.87101170415053
 23
604.6085792626434
 33
0.0
 14
199.8710117041523
 24
610.1159455910468
 34
0.0
100
AcDbRotatedDimension
1001
ACAD
1000
DSTYLE
1002
{
1070
    40
1040
2.5
1002
}
  0
DIMENSION
  5
AA
102
{ACAD_XDICTIONARY
360
AB
102
}
102
{ACAD_REACTORS
330
AC
102
}
330
2
100
AcDbEntity
  8
09-01
100
AcDbDimension
280
     0
  2
*D17
 10
309.8710117041507
 20
381.7628307812411
 30
0.0
 11
288.6210117041516
 21
387.3878307812411
 31
0.0
 71
     5
 42
42.49999999999835
 73
     0
 74
     0
 75
     0
  3
Wagner$0
100
AcDbAlignedDimension
 13
267.3710117041523
 23
372.8659455910468
 33
0.0
 14
309.8710117041507
 24
379.039332491001
 34
0.0
100
AcDbRotatedDimension
1001
ACAD
1000
DSTYLE
1002
{
1070
    40
1040
2.5
1002
}
  0
DIMENSION
  5
B9
102
{ACAD_XDICTIONARY
360
BA
102
}
102
{ACAD_REACTORS
330
BB
102
}
330
2
100
AcDbEntity
  8
09-01
100
AcDbDimension
280
     0
  2
*D16
 10
267.3710117041523
 20
381.7628307812411
 30
0.0
 11
199.8710117041523
 21
387.3878307812411
 31
0.0
 71
     5
 42
135.0
 73
     0
 74
     0
 75
     0
  3
Wagner$0
100
AcDbAlignedDimension
 13
132.3710117041523
 23
372.8659455910468
 33
0.0
 14
267.3710117041523
 24
372.8659455910468
 34
0.0
100
AcDbRotatedDimension
1001
ACAD
1000
DSTYLE
1002
{
1070
    40
1040
2.5
1002
}
  0
DIMENSION
  5
C8
102
{ACAD_XDICTIONARY
360
C9
102
}
102
{ACAD_REACTORS
330
CA
102
}
330
2
100
AcDbEntity
  8
09-01
100
AcDbDimension
280
     0
  2
*D15
 10
132.3710117041523
 20
381.7628307812411
 30
0.0
 11
111.1210117041514
 21
387.3878307812411
 31
0.0
 71
     5
 42
42.50000000000182
 73
     0
 74
     0
 75
     0
  3
Wagner$0
100
AcDbAlignedDimension
 13
89.87101170415053
 23
373.8399249230345
 33
0.0
 14
132.3710117041523
 24
372.8659455910468
 34
0.0
100
AcDbRotatedDimension
1001
ACAD
1000
DSTYLE
1002
{
1070
    40
1040
2.5
1002
}
  0
DIMENSION
  5
D7
102
{ACAD_XDICTIONARY
360
D8
102
}
102
{ACAD_REACTORS
330
D9
102
}
330
2
100
AcDbEntity
  8
09-01
100
AcDbDimension
280
     0
  2
*D14
 10
152.7673385836641
 20
369.3659455910469
 30
0.0
 11
147.1423385836641
 21
507.8659455910468
 31
0.0
 71
     5
 42
277.0
 73
     0
 74
     0
 75
     0
  3
Wagner$0
100
AcDbAlignedDimension
 13
136.3710117041523
 23
646.3659455910468
 33
0.0
 14
136.3710117041523
 24
369.3659455910469
 34
0.0
 50
90.0
100
AcDbRotatedDimension
1001
ACAD
1000
DSTYLE
1002
{
1070
    40
1040
2.5
1002
}
  0
DIMENSION
  5
E6
102
{ACAD_XDICTIONARY
360
E7
102
}
102
{ACAD_REACTORS
330
E8
102
}
330
2
100
AcDbEntity
  8
09-01
100
AcDbDimension
280
     0
  2
*D13
 10
152.7673385836642
 20
683.265945591052
 30
0.0
 11
147.1423385836641
 21
664.8159455910494
 31
0.0
 71
     5
 42
36.90000000000521
 73
     0
 74
     0
 75
     0
  3
Wagner$0
100
AcDbAlignedDimension
 13
136.3710117041523
 23
646.3659455910468
 33
0.0
 14
137.0880755001717
 24
683.265945591052
 34
0.0
 50
90.0
100
AcDbRotatedDimension
1001
ACAD
1000
DSTYLE
1002
{
1070
   271
1070
     0
1070
    40
1040
2.5
1002
}
  0
TEXT
  5
F5
330
2
100
AcDbEntity
  8
02-01
100
AcDbText
 10
231.6125027911192
 20
56.4119960172384
 30
0.0
 40
6.25
  1
Pfrepper
  7
ISO
100
AcDbText
  0
TEXT
  5
FA
330
2
100
AcDbEntity
  8
02-01
100
AcDbText
 10
197.7874119763879
 20
56.4119960172384
 30
0.0
 40
6.25
  1
26.09.2012
 41
0.8
  7
ISO
100
AcDbText
  0
INSERT
  5
FB
330
2
100
AcDbEntity
  8
0
100
AcDbBlockReference
  2
aaaaWagner
 10
199.8710117041514
 20
616.5659455910488
 30
0.0
  0
DIMENSION
  5
115
102
{ACAD_XDICTIONARY
360
116
102
}
102
{ACAD_REACTORS
330
117
102
}
330
2
100
AcDbEntity
  8
0
100
AcDbDimension
280
     0
  2
*D12
 10
482.1178632243823
 20
668.4442081748756
 30
0.0
 11
475.6178793291087
 21
674.0692081748757
 31
0.0
 71
     5
 42
12.99996779054709
 73
     0
 74
     0
 75
     0
  3
Wagner$0
100
AcDbAlignedDimension
 13
469.1178954338352
 23
681.5659455910516
 33
0.0
 14
482.1178632243823
 24
681.7659455910525
 34
0.0
100
AcDbRotatedDimension
1001
ACAD
1000
DSTYLE
1002
{
1070
   271
1070
     1
1070
    40
1040
2.5
1002
}
  0
DIMENSION
  5
126
102
{ACAD_XDICTIONARY
360
127
102
}
102
{ACAD_REACTORS
330
128
102
}
330
2
100
AcDbEntity
  8
0
100
AcDbDimension
280
     0
  2
*D11
 10
482.1178632243823
 20
694.2077097707638
 30
0.0
 11
424.3678793291087
 21
699.8327097707638
 31
0.0
 71
     5
 42
115.4999677905472
 73
     0
 74
     0
 75
     0
  3
Wagner$0
100
AcDbAlignedDimension
 13
366.6178954338351
 23
671.3659455910508
 33
0.0
 14
482.1178632243823
 24
683.2659455910524
 34
0.0
100
AcDbRotatedDimension
1001
ACAD
1000
DSTYLE
1002
{
1070
   271
1070
     1
1070
    40
1040
2.5
1002
}
  0
DIMENSION
  5
135
102
{ACAD_XDICTIONARY
360
136
102
}
102
{ACAD_REACTORS
330
137
102
}
330
2
100
AcDbEntity
  8
0
100
AcDbDimension
280
     0
  2
*D10
 10
273.6210117041523
 20
610.4190793435432
 30
0.0
 11
246.9680236796157
 21
615.6403380677516
 31
0.0
 70
   128
 71
     5
 42
12.5
 73
     0
 74
     0
 75
     0
  3
Wagner$0
100
AcDbAlignedDimension
 13
261.1210117041523
 23
634.3659455910469
 33
0.0
 14
273.6210117041523
 24
634.3659455910469
 34
0.0
100
AcDbRotatedDimension
1001
ACAD
1000
DSTYLE
1002
{
1070
    40
1040
2.5
1002
}
  0
DIMENSION
  5
146
102
{ACAD_XDICTIONARY
360
147
102
}
102
{ACAD_REACTORS
330
148
102
}
330
2
100
AcDbEntity
  8
0
100
AcDbDimension
280
     0
  2
*D9
 10
246.6881748890501
 20
634.3659455910469
 30
0.0
 11
241.0631748890499
 21
640.3659455910469
 31
0.0
 71
     5
 42
12.0
 73
     0
 74
     0
 75
     0
  3
Wagner$0
100
AcDbAlignedDimension
 13
263.3710117041523
 23
646.3659455910468
 33
0.0
 14
260.1210117041524
 24
634.3659455910469
 34
0.0
 50
90.0
100
AcDbRotatedDimension
1001
ACAD
1000
DSTYLE
1002
{
1070
    40
1040
2.5
1002
}
  0
DIMENSION
  5
157
102
{ACAD_XDICTIONARY
360
158
102
}
102
{ACAD_REACTORS
330
159
102
}
330
2
100
AcDbEntity
  8
0
100
AcDbDimension
280
     0
  2
*D8
 10
270.1210117041524
 20
652.9496799567314
 30
0.0
 11
283.904689896779
 21
659.1419732037675
 31
0.0
 70
   128
 71
     5
 42
5.5
 73
     0
 74
     0
 75
     0
  3
Wagner$0
100
AcDbAlignedDimension
 13
264.6210117041523
 23
646.3659455910468
 33
0.0
 14
270.1210117041524
 24
646.3659455910468
 34
0.0
100
AcDbRotatedDimension
1001
ACAD
1000
DSTYLE
1002
{
1070
    40
1040
2.5
1002
}
  0
DIMENSION
  5
168
102
{ACAD_XDICTIONARY
360
169
102
}
102
{ACAD_REACTORS
330
16A
102
}
330
2
100
AcDbEntity
  8
0
100
AcDbDimension
280
     0
  2
*D7
 10
309.8710117041505
 20
322.5524091801906
 30
0.0
 11
199.8710117041505
 21
328.1774091801906
 31
0.0
 71
     5
 42
220.0
 73
     0
 74
     0
 75
     0
  3
Wagner$0
100
AcDbAlignedDimension
 13
89.87101170415053
 23
339.5659455910486
 33
0.0
 14
309.8710117041505
 24
339.5659455910486
 34
0.0
100
AcDbRotatedDimension
1001
ACAD
1000
DSTYLE
1002
{
1070
    40
1040
2.5
1002
}
  0
CIRCLE
  5
177
330
2
100
AcDbEntity
  8
0
100
AcDbCircle
 10
374.6178632243841
 20
678.1659455910521
 30
0.0
 40
0.9
  0
LWPOLYLINE
  5
178
330
2
100
AcDbEntity
  8
07-01
100
AcDbPolyline
 90
        5
 70
     0
 43
0.0
 10
91.37101170415233
 20
205.4996857748713
 10
111.3710117041523
 20
205.4996857748713
 10
111.3710117041523
 20
291.4996857748713
 10
91.37101170415233
 20
291.4996857748713
 10
91.37101170415233
 20
205.4996857748713
  0
ARC
  5
17C
330
2
100
AcDbEntity
  8
03-01
100
AcDbCircle
 10
110.871011704151
 20
662.1679245577753
 30
0.0
 40
18.00000000000011
100
AcDbArc
 50
89.99999999999964
 51
180.0
  0
LINE
  5
180
330
2
100
AcDbEntity
  8
03-01
100
AcDbLine
 10
92.87101170415088
 20
596.3679245577748
 30
0.0
 11
92.87101170415088
 21
662.1679245577754
 31
0.0
  0
ARC
  5
181
330
2
100
AcDbEntity
  8
03-01
100
AcDbCircle
 10
101.3710117041509
 20
596.3679245577748
 30
0.0
 40
8.5
100
AcDbArc
 50
180.0
 51
270.0
  0
LINE
  5
182
330
2
100
AcDbEntity
  8
03-01
100
AcDbLine
 10
298.3710117041536
 20
587.8679245577729
 30
0.0
 11
101.3710117041509
 21
587.8679245577748
 31
0.0
  0
ARC
  5
183
330
2
100
AcDbEntity
  8
03-01
100
AcDbCircle
 10
298.3710117041527
 20
596.3679245577739
 30
0.0
 40
8.500000000000909
100
AcDbArc
 50
270.0000000000061
 51
0.0000000000065138
  0
LINE
  5
184
330
2
100
AcDbEntity
  8
03-01
100
AcDbLine
 10
306.8710117041536
 20
611.7257889340418
 30
0.0
 11
306.8710117041536
 21
596.3679245577748
 31
0.0
  0
ARC
  5
185
330
2
100
AcDbEntity
  8
03-01
100
AcDbCircle
 10
303.8710117041536
 20
611.7257889340419
 30
0.0
 40
3.000000000000059
100
AcDbArc
 50
359.9999999999968
 51
70.52877936552697
  0
LINE
  5
186
330
2
100
AcDbEntity
  8
03-01
100
AcDbLine
 10
298.4239475919102
 20
614.5542160587876
 30
0.0
 11
304.8710117041527
 21
614.5542160587885
 31
0.0
  0
ARC
  5
187
330
2
100
AcDbEntity
  8
03-01
100
AcDbCircle
 10
298.4239475919108
 20
617.5542160587889
 30
0.0
 40
3.000000000001366
100
AcDbArc
 50
247.4799243447885
 51
269.9999999999881
  0
ARC
  5
188
330
2
100
AcDbEntity
  8
03-01
100
AcDbCircle
 10
301.8710117041522
 20
625.8679245577723
 30
0.0
 40
11.99999999999979
100
AcDbArc
 50
112.5200756551955
 51
247.4799243447961
  0
ARC
  5
189
330
2
100
AcDbEntity
  8
03-01
100
AcDbCircle
 10
298.4239475919127
 20
634.1816330567546
 30
0.0
 40
3.000000000003069
100
AcDbArc
 50
90.00000000000541
 51
112.5200756552048
  0
LINE
  5
18A
330
2
100
AcDbEntity
  8
03-01
100
AcDbLine
 10
304.8710117041531
 20
637.1816330567577
 30
0.0
 11
298.4239475919125
 21
637.1816330567577
 31
0.0
  0
ARC
  5
18B
330
2
100
AcDbEntity
  8
03-01
100
AcDbCircle
 10
303.8710117041529
 20
640.010060181504
 30
0.0
 40
3.000000000000227
100
AcDbArc
 50
289.4712206344938
 51
359.9999999999968
  0
LINE
  5
18C
330
2
100
AcDbEntity
  8
03-01
100
AcDbLine
 10
306.8710117041536
 20
662.1679245577726
 30
0.0
 11
306.8710117041531
 21
640.0100601815039
 31
0.0
  0
ARC
  5
18D
330
2
100
AcDbEntity
  8
03-01
100
AcDbCircle
 10
288.8710117041533
 20
662.1679245577728
 30
0.0
 40
18.00000000000034
100
AcDbArc
 50
0.0
 51
89.99999999999909
  0
LINE
  5
18E
330
2
100
AcDbEntity
  8
03-01
100
AcDbLine
 10
110.8710117041511
 20
680.1679245577754
 30
0.0
 11
288.8710117041536
 21
680.1679245577731
 31
0.0
  0
LINE
  5
18F
330
2
100
AcDbEntity
  8
03-01
100
AcDbLine
 10
385.7274021555822
 20
591.0573927735845
 30
0.0
 11
384.4480993576539
 21
590.318786958825
 31
0.0
  0
LINE
  5
190
330
2
100
AcDbEntity
  8
03-01
100
AcDbLine
 10
375.8178632243858
 20
680.1679245577743
 30
0.0
 11
374.3178632243858
 21
680.1679245577751
 31
0.0
  0
LINE
  5
191
330
2
100
AcDbEntity
  8
03-01
100
AcDbLine
 10
374.3178632243702
 20
607.8648706343219
 30
0.0
 11
384.4480993576464
 21
590.31878695882
 31
0.0
  0
LINE
  5
192
330
2
100
AcDbEntity
  8
03-01
100
AcDbLine
 10
375.817863224394
 20
608.2212176819662
 30
0.0
 11
385.7274021555758
 21
591.0573927735813
 31
0.0
  0
LINE
  5
193
330
2
100
AcDbEntity
  8
03-01
100
AcDbLine
 10
375.817863224394
 20
608.2212176819662
 30
0.0
 11
375.8178632243858
 21
680.1679245577751
 31
0.0
  0
LINE
  5
194
330
2
100
AcDbEntity
  8
03-01
100
AcDbLine
 10
374.3178632243941
 20
607.8648706342801
 30
0.0
 11
374.3178632243858
 21
680.1679245577751
 31
0.0
  0
CIRCLE
  5
195
330
2
100
AcDbEntity
  8
07-01
100
AcDbCircle
 10
421.6178954338351
 20
519.5659455910499
 30
0.0
 40
27.5
  0
LWPOLYLINE
  5
196
330
2
100
AcDbEntity
  8
07-01
100
AcDbPolyline
 90
        5
 70
     0
 43
0.0
 10
377.6178954338352
 20
457.0659455910499
 10
465.6178954338352
 20
457.0659455910499
 10
465.6178954338352
 20
582.0659455910499
 10
377.6178954338352
 20
582.0659455910499
 10
377.6178954338352
 20
457.0659455910499
  0
LINE
  5
197
330
2
100
AcDbEntity
  8
0
100
AcDbLine
 10
309.8710117041524
 20
681.5659455910488
 30
0.0
 11
89.87101170415053
 21
681.5659455910487
 31
0.0
  0
LINE
  5
198
330
2
100
AcDbEntity
  8
0
100
AcDbLine
 10
88.87101170415235
 20
681.7659455910516
 30
0.0
 11
88.87101170415235
 21
683.265945591052
 31
0.0
  0
LINE
  5
199
330
2
100
AcDbEntity
  8
0
100
AcDbLine
 10
310.8710117041523
 20
681.7659455910519
 30
0.0
 11
310.8710117041523
 21
683.2659455910519
 31
0.0
  0
LINE
  5
19A
330
2
100
AcDbEntity
  8
0
100
AcDbLine
 10
310.8710117041523
 20
681.7659455910519
 30
0.0
 11
88.87101170415235
 21
681.7659455910516
 31
0.0
  0
LINE
  5
19B
102
{ACAD_REACTORS
330
E8
330
7D
102
}
330
2
100
AcDbEntity
  8
0
100
AcDbLine
 10
310.8710117041523
 20
683.2659455910519
 30
0.0
 11
88.87101170415235
 21
683.265945591052
 31
0.0
  0
ARC
  5
19C
330
2
100
AcDbEntity
  8
0
100
AcDbCircle
 10
89.87101170415327
 20
284.1497179843228
 30
0.0
 40
1.0
100
AcDbArc
 50
90.0
 51
180.0
  0
LINE
  5
19D
330
2
100
AcDbEntity
  8
0
100
AcDbLine
 10
92.8139337046664
 20
286.1497179843224
 30
0.0
 11
91.37101170415252
 21
286.1497179843223
 31
0.0
  0
ARC
  5
19E
330
2
100
AcDbEntity
  8
0
100
AcDbCircle
 10
92.05560037133295
 20
285.6497179843228
 30
0.0
 40
0.9083333333333269
100
AcDbArc
 50
326.6015115320009
 51
33.3984884679991
  0
LINE
  5
19F
330
2
100
AcDbEntity
  8
0
100
AcDbLine
 10
92.8139337046664
 20
285.1497179843228
 30
0.0
 11
89.87101170415327
 21
285.1497179843228
 31
0.0
  0
ARC
  5
1A0
330
2
100
AcDbEntity
  8
0
100
AcDbCircle
 10
309.8710117041514
 20
284.1497179843228
 30
0.0
 40
1.0
100
AcDbArc
 50
0.0
 51
90.0
  0
LINE
  5
1A1
330
2
100
AcDbEntity
  8
0
100
AcDbLine
 10
306.9280897036383
 20
286.1497179843223
 30
0.0
 11
308.3710117041521
 21
286.1497179843224
 31
0.0
  0
ARC
  5
1A2
330
2
100
AcDbEntity
  8
0
100
AcDbCircle
 10
307.6864230369718
 20
285.6497179843227
 30
0.0
 40
0.9083333333333269
100
AcDbArc
 50
146.6015115320013
 51
213.3984884679987
  0
LINE
  5
1A3
330
2
100
AcDbEntity
  8
0
100
AcDbLine
 10
306.9280897036383
 20
285.1497179843228
 30
0.0
 11
309.8710117041514
 21
285.1497179843228
 31
0.0
  0
LINE
  5
1A4
330
2
100
AcDbEntity
  8
0
100
AcDbLine
 10
291.8710117041531
 20
297.8497179843225
 30
0.0
 11
107.8710117041515
 21
297.849717984324
 31
0.0
  0
LINE
  5
1A5
330
2
100
AcDbEntity
  8
0
100
AcDbLine
 10
308.3710117041521
 20
286.1497179843224
 30
0.0
 11
308.3710117041533
 21
295.7497179843232
 31
0.0
  0
LINE
  5
1A6
330
2
100
AcDbEntity
  8
0
100
AcDbLine
 10
107.8710117041514
 20
295.7497179843214
 30
0.0
 11
91.37101170415139
 21
295.7497179843235
 31
0.0
  0
LINE
  5
1A7
330
2
100
AcDbEntity
  8
0
100
AcDbLine
 10
107.8710117041515
 20
297.849717984324
 30
0.0
 11
107.8710117041514
 21
295.7497179843214
 31
0.0
  0
LINE
  5
1A8
330
2
100
AcDbEntity
  8
0
100
AcDbLine
 10
291.8710117041533
 20
295.7497179843204
 30
0.0
 11
291.8710117041531
 21
297.8497179843225
 31
0.0
  0
LINE
  5
1A9
330
2
100
AcDbEntity
  8
0
100
AcDbLine
 10
308.3710117041533
 20
295.7497179843232
 30
0.0
 11
291.8710117041533
 21
295.7497179843204
 31
0.0
  0
LINE
  5
1AA
330
2
100
AcDbEntity
  8
0
100
AcDbLine
 10
310.8710117041533
 20
205.0953179063591
 30
0.0
 11
310.8710117041513
 21
284.1497179843228
 31
0.0
  0
ARC
  5
1AB
330
2
100
AcDbEntity
  8
0
100
AcDbCircle
 10
300.8710117041534
 20
205.0953179063591
 30
0.0
 40
9.999999999999735
100
AcDbArc
 50
281.0229389674864
 51
0.0
  0
ARC
  5
1AC
330
2
100
AcDbEntity
  8
0
100
AcDbCircle
 10
199.8710117041552
 20
723.586912216412
 30
0.0
 40
538.2371942320798
100
AcDbArc
 50
258.9770610325207
 51
281.0229389674928
  0
ARC
  5
1AD
330
2
100
AcDbEntity
  8
0
100
AcDbCircle
 10
98.87101170425308
 20
205.0953179064423
 30
0.0
 40
10.00000000009976
100
AcDbArc
 50
180.000000000469
 51
258.977061032992
  0
LINE
  5
1AE
330
2
100
AcDbEntity
  8
0
100
AcDbLine
 10
88.87101170415121
 20
284.1497179843228
 30
0.0
 11
88.87101170415325
 21
205.0953179063591
 31
0.0
  0
LINE
  5
1AF
330
2
100
AcDbEntity
  8
0
100
AcDbLine
 10
91.37101170415252
 20
286.1497179843223
 30
0.0
 11
91.37101170415139
 21
295.7497179843235
 31
0.0
  0
LINE
  5
1B0
330
2
100
AcDbEntity
  8
0
100
AcDbLine
 10
381.3178632243849
 20
683.2659455910516
 30
0.0
 11
381.3178632243847
 21
681.5659455910518
 31
0.0
  0
LINE
  5
1B1
330
2
100
AcDbEntity
  8
0
100
AcDbLine
 10
382.3178632243839
 20
683.2659455910518
 30
0.0
 11
382.3178632243834
 21
681.7659455910525
 31
0.0
  0
LINE
  5
1B2
330
2
100
AcDbEntity
  8
0
100
AcDbLine
 10
371.1178632243823
 20
681.7659455910525
 30
0.0
 11
371.1178632243823
 21
681.5659455910518
 31
0.0
  0
LINE
  5
1B3
330
2
100
AcDbEntity
  8
0
100
AcDbLine
 10
369.6178632243823
 20
681.5659455910518
 30
0.0
 11
369.6178632243823
 21
683.2659455910516
 31
0.0
  0
LINE
  5
1B4
330
2
100
AcDbEntity
  8
05-01
100
AcDbLine
 10
374.6178632243841
 20
676.5659455910517
 30
0.0
 11
374.6178632243841
 21
679.7659455910525
 31
0.0
  0
LINE
  5
1B9
330
2
100
AcDbEntity
  8
05-01
100
AcDbLine
 10
376.2178632243845
 20
678.1659455910521
 30
0.0
 11
373.0178632243838
 21
678.1659455910521
 31
0.0
  0
CIRCLE
  5
1BA
330
2
100
AcDbEntity
  8
0
100
AcDbCircle
 10
374.6178632243841
 20
678.1659455910521
 30
0.0
 40
1.6
  0
LINE
  5
1BB
330
2
100
AcDbEntity
  8
0
100
AcDbLine
 10
371.7178632243872
 20
681.5659455910518
 30
0.0
 11
371.7178632243881
 21
683.2659455910524
 31
0.0
  0
LINE
  5
1BC
102
{ACAD_REACTORS
330
117
102
}
330
2
100
AcDbEntity
  8
0
100
AcDbLine
 10
381.3178632243849
 20
681.7659455910525
 30
0.0
 11
482.1178632243823
 21
681.7659455910525
 31
0.0
  0
LINE
  5
1BD
330
2
100
AcDbEntity
  8
0
100
AcDbLine
 10
371.1178632243859
 20
681.7659455910525
 30
0.0
 11
371.7178632243872
 21
681.7659455910525
 31
0.0
  0
LINE
  5
1BE
102
{ACAD_REACTORS
330
128
102
}
330
2
100
AcDbEntity
  8
0
100
AcDbLine
 10
369.6178632243823
 20
683.2659455910516
 30
0.0
 11
482.1178632243823
 21
683.2659455910524
 31
0.0
  0
LINE
  5
1BF
330
2
100
AcDbEntity
  8
0
100
AcDbLine
 10
482.1178632243823
 20
681.7659455910534
 30
0.0
 11
482.1178632243823
 21
683.2659455910516
 31
0.0
  0
INSERT
  5
1C0
330
2
100
AcDbEntity
  8
05-01
100
AcDbBlockReference
  2
Hygienebehälter 023557-D
 10
209.8710117041519
 20
292.0996857748717
 30
0.0
 41
-1.0
 50
180.0
  0
LINE
  5
1D2
330
2
100
AcDbEntity
  8
0
100
AcDbLine
 10
92.37101170415234
 20
299.3496857748717
 30
0.0
 11
307.3710117041526
 21
299.3496857748718
 31
0.0
  0
CIRCLE
  5
1D3
102
{ACAD_REACTORS
330
8C
102
}
330
2
100
AcDbEntity
  8
03-01
100
AcDbCircle
 10
199.8710117041523
 20
614.3659455910468
 30
0.0
 40
3.25
  0
LINE
  5
1D4
102
{ACAD_REACTORS
330
9D
102
}
330
2
100
AcDbEntity
  8
05-01
100
AcDbLine
 10
199.8710117041523
 20
618.6159455910468
 30
0.0
 11
199.8710117041523
 21
610.1159455910468
 31
0.0
  0
LINE
  5
1D5
102
{ACAD_REACTORS
330
8C
330
7D
102
}
330
2
100
AcDbEntity
  8
05-01
100
AcDbLine
 10
195.6210117041523
 20
614.3659455910468
 30
0.0
 11
204.1210117041523
 21
614.3659455910468
 31
0.0
  0
LINE
  5
1D6
102
{ACAD_REACTORS
330
D9
102
}
330
2
100
AcDbEntity
  8
05-01
100
AcDbLine
 10
128.3710117041523
 20
369.3659455910469
 30
0.0
 11
136.3710117041523
 21
369.3659455910469
 31
0.0
  0
LINE
  5
1D7
330
2
100
AcDbEntity
  8
03-01
100
AcDbLine
 10
270.1210117041524
 20
369.3659455910469
 30
0.0
 11
270.1210117041524
 21
362.9784316712076
 31
0.0
  0
ARC
  5
1D8
330
2
100
AcDbEntity
  8
03-01
100
AcDbCircle
 10
267.3710117041523
 20
369.3659455910469
 30
0.0
 40
2.75
100
AcDbArc
 50
0.0
 51
180.0
  0
LINE
  5
1D9
330
2
100
AcDbEntity
  8
03-01
100
AcDbLine
 10
264.6210117041523
 20
362.9784316712076
 30
0.0
 11
264.6210117041523
 21
369.3659455910469
 31
0.0
  0
LINE
  5
1DA
330
2
100
AcDbEntity
  8
03-01
100
AcDbLine
 10
135.1210117041523
 20
369.3659455910469
 30
0.0
 11
135.1210117041523
 21
362.9784316712076
 31
0.0
  0
ARC
  5
1DB
330
2
100
AcDbEntity
  8
03-01
100
AcDbCircle
 10
132.3710117041523
 20
369.3659455910469
 30
0.0
 40
2.75
100
AcDbArc
 50
0.0
 51
180.0
  0
LINE
  5
1DC
330
2
100
AcDbEntity
  8
03-01
100
AcDbLine
 10
129.6210117041523
 20
362.9784316712076
 30
0.0
 11
129.6210117041523
 21
369.3659455910469
 31
0.0
  0
ARC
  5
1DD
330
2
100
AcDbEntity
  8
03-01
100
AcDbCircle
 10
267.3710117041523
 20
357.3659455910469
 30
0.0
 40
6.25
100
AcDbArc
 50
116.1038811373423
 51
63.89611886265767
  0
LINE
  5
1DE
330
2
100
AcDbEntity
  8
05-01
100
AcDbLine
 10
274.6210117041524
 20
357.3659455910469
 30
0.0
 11
260.1210117041524
 21
357.3659455910469
 31
0.0
  0
LINE
  5
1DF
102
{ACAD_REACTORS
330
BB
330
AC
102
}
330
2
100
AcDbEntity
  8
05-01
100
AcDbLine
 10
267.3710117041523
 20
372.8659455910468
 30
0.0
 11
267.3710117041523
 21
350.1159455910468
 31
0.0
  0
LINE
  5
1E0
330
2
100
AcDbEntity
  8
05-01
100
AcDbLine
 10
271.3710117041523
 20
369.3659455910469
 30
0.0
 11
263.3710117041523
 21
369.3659455910469
 31
0.0
  0
ARC
  5
1E1
330
2
100
AcDbEntity
  8
03-01
100
AcDbCircle
 10
132.3710117041523
 20
357.3659455910469
 30
0.0
 40
6.25
100
AcDbArc
 50
116.1038811373423
 51
63.89611886265767
  0
LINE
  5
1E2
330
2
100
AcDbEntity
  8
05-01
100
AcDbLine
 10
125.1210117041523
 20
357.3659455910469
 30
0.0
 11
139.6210117041523
 21
357.3659455910469
 31
0.0
  0
LINE
  5
1E3
102
{ACAD_REACTORS
330
CA
330
BB
102
}
330
2
100
AcDbEntity
  8
05-01
100
AcDbLine
 10
132.3710117041523
 20
372.8659455910468
 30
0.0
 11
132.3710117041523
 21
350.1159455910468
 31
0.0
  0
ARC
  5
1E4
102
{ACAD_REACTORS
330
137
102
}
330
2
100
AcDbEntity
  8
03-01
100
AcDbCircle
 10
267.3710117041523
 20
634.3659455910469
 30
0.0
 40
6.25
100
AcDbArc
 50
116.1038811373423
 51
63.89611886265767
  0
LINE
  5
1E5
102
{ACAD_REACTORS
330
148
330
137
102
}
330
2
100
AcDbEntity
  8
05-01
100
AcDbLine
 10
274.6210117041524
 20
634.3659455910469
 30
0.0
 11
260.1210117041524
 21
634.3659455910469
 31
0.0
  0
LINE
  5
1E6
102
{ACAD_REACTORS
330
159
102
}
330
2
100
AcDbEntity
  8
03-01
100
AcDbLine
 10
270.1210117041524
 20
646.3659455910468
 30
0.0
 11
270.1210117041524
 21
639.9784316712076
 31
0.0
  0
ARC
  5
1E7
102
{ACAD_REACTORS
330
159
102
}
330
2
100
AcDbEntity
  8
03-01
100
AcDbCircle
 10
267.3710117041523
 20
646.3659455910468
 30
0.0
 40
2.75
100
AcDbArc
 50
0.0
 51
180.0
  0
LINE
  5
1E8
330
2
100
AcDbEntity
  8
03-01
100
AcDbLine
 10
264.6210117041523
 20
639.9784316712076
 30
0.0
 11
264.6210117041523
 21
646.3659455910468
 31
0.0
  0
LINE
  5
1E9
330
2
100
AcDbEntity
  8
05-01
100
AcDbLine
 10
267.3710117041523
 20
649.8659455910468
 30
0.0
 11
267.3710117041523
 21
627.1159455910468
 31
0.0
  0
LINE
  5
1EA
102
{ACAD_REACTORS
330
148
102
}
330
2
100
AcDbEntity
  8
05-01
100
AcDbLine
 10
271.3710117041523
 20
646.3659455910468
 30
0.0
 11
263.3710117041523
 21
646.3659455910468
 31
0.0
  0
ARC
  5
1EB
330
2
100
AcDbEntity
  8
03-01
100
AcDbCircle
 10
132.3710117041523
 20
634.3659455910469
 30
0.0
 40
6.25
100
AcDbArc
 50
116.1038811373423
 51
63.89611886265767
  0
LINE
  5
1EC
330
2
100
AcDbEntity
  8
05-01
100
AcDbLine
 10
125.1210117041523
 20
634.3659455910469
 30
0.0
 11
139.6210117041523
 21
634.3659455910469
 31
0.0
  0
LINE
  5
1ED
330
2
100
AcDbEntity
  8
03-01
100
AcDbLine
 10
129.6210117041523
 20
646.3659455910468
 30
0.0
 11
129.6210117041523
 21
639.9784316712076
 31
0.0
  0
ARC
  5
1EE
330
2
100
AcDbEntity
  8
03-01
100
AcDbCircle
 10
132.3710117041523
 20
646.3659455910468
 30
0.0
 40
2.75
100
AcDbArc
 50
0.0
 51
180.0
  0
LINE
  5
1EF
330
2
100
AcDbEntity
  8
03-01
100
AcDbLine
 10
135.1210117041523
 20
639.9784316712076
 30
0.0
 11
135.1210117041523
 21
646.3659455910468
 31
0.0
  0
LINE
  5
1F0
330
2
100
AcDbEntity
  8
05-01
100
AcDbLine
 10
132.3710117041523
 20
649.8659455910468
 30
0.0
 11
132.3710117041523
 21
627.1159455910468
 31
0.0
  0
LINE
  5
1F1
102
{ACAD_REACTORS
330
E8
330
D9
102
}
330
2
100
AcDbEntity
  8
05-01
100
AcDbLine
 10
128.3710117041523
 20
646.3659455910468
 30
0.0
 11
136.3710117041523
 21
646.3659455910468
 31
0.0
  0
INSERT
  5
1F2
330
2
100
AcDbEntity
  8
05-01
100
AcDbBlockReference
  2
Hygienebehälter 023557-V
 10
212.0105349336645
 20
340.3659455910529
 30
0.0
  0
INSERT
  5
205
330
2
100
AcDbEntity
  8
05-01
100
AcDbBlockReference
  2
Hygienebehälter 023557-S
 10
417.8678954338334
 20
340.365945591053
 30
0.0
  0
ARC
  5
215
330
2
100
AcDbEntity
  8
03-01
100
AcDbCircle
 10
93.87101170415141
 20
202.3496857748717
 30
0.0
 40
4.0
100
AcDbArc
 50
180.0
 51
270.0
  0
LINE
  5
216
330
2
100
AcDbEntity
  8
03-01
100
AcDbLine
 10
93.87101170415141
 20
198.3496857748717
 30
0.0
 11
305.8710117041522
 21
198.3496857748716
 31
0.0
  0
LINE
  5
217
330
2
100
AcDbEntity
  8
0
100
AcDbLine
 10
289.8710117041515
 20
299.3496857748717
 30
0.0
 11
289.8710117041515
 21
300.8496857748717
 31
0.0
  0
LINE
  5
218
330
2
100
AcDbEntity
  8
0
100
AcDbLine
 10
309.8710117041514
 20
300.8496857748717
 30
0.0
 11
89.87101170415142
 21
300.8496857748717
 31
0.0
  0
LINE
  5
219
330
2
100
AcDbEntity
  8
0
100
AcDbLine
 10
308.3710117041515
 20
299.3496857748717
 30
0.0
 11
289.8710117041515
 21
299.3496857748717
 31
0.0
  0
LINE
  5
21A
330
2
100
AcDbEntity
  8
0
100
AcDbLine
 10
91.37101170415233
 20
299.3496857748717
 30
0.0
 11
109.8710117041514
 21
299.3496857748717
 31
0.0
  0
LINE
  5
21B
330
2
100
AcDbEntity
  8
0
100
AcDbLine
 10
109.8710117041514
 20
299.3496857748717
 30
0.0
 11
109.8710117041514
 21
300.8496857748717
 31
0.0
  0
LINE
  5
21C
330
2
100
AcDbEntity
  8
0
100
AcDbLine
 10
308.3710117041515
 20
300.8496857748717
 30
0.0
 11
309.8710117041514
 21
300.8496857748717
 31
0.0
  0
ARC
  5
21D
330
2
100
AcDbEntity
  8
03-01
100
AcDbCircle
 10
305.8710117041522
 20
202.3496857748717
 30
0.0
 40
4.0
100
AcDbArc
 50
270.0
 51
0.0
  0
LINE
  5
21E
330
2
100
AcDbEntity
  8
0
100
AcDbLine
 10
309.8710117041516
 20
285.1497179843228
 30
0.0
 11
309.8710117041514
 21
300.8496857748717
 31
0.0
  0
LINE
  5
21F
330
2
100
AcDbEntity
  8
03-01
100
AcDbLine
 10
309.8710117041522
 20
202.3496857748717
 30
0.0
 11
309.8710117041516
 21
285.1497179843228
 31
0.0
  0
LINE
  5
220
330
2
100
AcDbEntity
  8
0
100
AcDbLine
 10
308.3710117041515
 20
285.1497179843228
 30
0.0
 11
308.3710117041515
 21
299.3496857748717
 31
0.0
  0
LINE
  5
221
330
2
100
AcDbEntity
  8
0
100
AcDbLine
 10
91.37101170415219
 20
285.1497179843228
 30
0.0
 11
91.37101170415233
 21
299.3496857748717
 31
0.0
  0
LINE
  5
222
330
2
100
AcDbEntity
  8
0
100
AcDbLine
 10
89.87101170415142
 20
285.1497179843228
 30
0.0
 11
89.87101170415142
 21
300.8496857748717
 31
0.0
  0
LINE
  5
223
330
2
100
AcDbEntity
  8
03-01
100
AcDbLine
 10
89.8710117041514
 20
202.3496857748717
 30
0.0
 11
89.87101170415142
 21
285.1497179843228
 31
0.0
  0
LINE
  5
224
330
2
100
AcDbEntity
  8
02-01
100
AcDbLine
 10
374.6178632243841
 20
676.5659455910517
 30
0.0
 11
374.6178632243841
 21
679.7659455910525
 31
0.0
  0
LINE
  5
225
330
2
100
AcDbEntity
  8
02-01
100
AcDbLine
 10
373.0178632243838
 20
678.1659455910521
 30
0.0
 11
376.2178632243845
 21
678.1659455910521
 31
0.0
  0
LINE
  5
226
330
2
100
AcDbEntity
  8
05-01
100
AcDbLine
 10
396.6178954338352
 20
519.5659455910499
 30
0.0
 11
446.6178954338352
 21
519.5659455910499
 31
0.0
  0
LINE
  5
227
330
2
100
AcDbEntity
  8
05-01
100
AcDbLine
 10
421.6178954338351
 20
494.5659455910499
 30
0.0
 11
421.6178954338351
 21
544.5659455910499
 31
0.0
  0
CIRCLE
  5
228
330
2
100
AcDbEntity
  8
0
100
AcDbCircle
 10
421.6178954338351
 20
519.5659455910499
 30
0.0
 40
25.0
  0
CIRCLE
  5
229
330
2
100
AcDbEntity
  8
0
100
AcDbCircle
 10
374.6178632243841
 20
678.1659455910521
 30
0.0
 40
1.6
  0
LINE
  5
22A
102
{ACAD_REACTORS
330
128
330
6C
102
}
330
2
100
AcDbEntity
  8
0
100
AcDbLine
 10
366.6178954338351
 20
671.3659455910508
 30
0.0
 11
366.6178954338336
 21
339.5659455910502
 31
0.0
  0
LINE
  5
22B
102
{ACAD_REACTORS
330
117
330
6C
102
}
330
2
100
AcDbEntity
  8
0
100
AcDbLine
 10
469.1178954338352
 20
681.5659455910516
 30
0.0
 11
469.1178954338345
 21
339.5659455910502
 31
0.0
  0
LINE
  5
22C
330
2
100
AcDbEntity
  8
0
100
AcDbLine
 10
367.6678954338345
 20
671.3659455910507
 30
0.0
 11
366.6178954338351
 21
671.3659455910508
 31
0.0
  0
ARC
  5
22D
330
2
100
AcDbEntity
  8
0
100
AcDbCircle
 10
367.6678954338345
 20
671.5159455910505
 30
0.0
 40
0.1499999999997499
100
AcDbArc
 50
270.0
 51
90.0
  0
LINE
  5
22E
330
2
100
AcDbEntity
  8
0
100
AcDbLine
 10
367.1178954338352
 20
671.6659455910504
 30
0.0
 11
367.6678954338345
 21
671.6659455910503
 31
0.0
  0
LINE
  5
22F
330
2
100
AcDbEntity
  8
0
100
AcDbLine
 10
367.1178954338352
 20
679.5659455910518
 30
0.0
 11
367.1178954338352
 21
671.6659455910504
 31
0.0
  0
ARC
  5
230
330
2
100
AcDbEntity
  8
0
100
AcDbCircle
 10
369.1178954338352
 20
679.5659455910518
 30
0.0
 40
1.999999999999886
100
AcDbArc
 50
90.0
 51
180.0
  0
LINE
  5
231
330
2
100
AcDbEntity
  8
0
100
AcDbLine
 10
469.1178954338352
 20
681.5659455910516
 30
0.0
 11
369.1178954338352
 21
681.5659455910518
 31
0.0
  0
LINE
  5
232
330
2
100
AcDbEntity
  8
0
100
AcDbLine
 10
366.6178954338336
 20
339.5659455910502
 30
0.0
 11
469.1178954338345
 21
339.5659455910502
 31
0.0
  0
INSERT
  5
233
330
2
100
AcDbEntity
  8
0
100
AcDbBlockReference
 66
     1
  2
DIN A4
 10
0.0
 20
0.0
 30
0.0
 41
2.5
 42
2.5
 43
2.5
  0
ATTRIB
  5
2A7
330
233
100
AcDbEntity
  8
06-99
100
AcDbText
 10
291.2386356285317
 20
65.46959171096176
 30
0.0
 40
10.0
  1
Hygiene-Abfallbehälter 
 41
0.9
  7
ROMANS8
100
AcDbAttribute
280
     0
  2
TEILE
 70
     0
280
     0
  0
ATTRIB
  5
2A8
330
233
100
AcDbEntity
  8
06-99
100
AcDbText
 10
291.2386356285317
 20
48.23869121524722
 30
0.0
 40
10.0
  1
WP 177-1
 41
0.9
  7
ROMANS8
100
AcDbAttribute
280
     0
  2
TEILE2
 70
     0
280
     0
  0
ATTRIB
  5
2A9
330
233
100
AcDbEntity
  8
06-99
100
AcDbText
 10
478.3684843098752
 20
113.3333283010895
 30
0.0
 40
8.4375
  1
1:2,5
  7
ROMANS8
100
AcDbAttribute
280
     0
  2
:
 70
     0
280
     0
  0
ATTRIB
  5
2AA
330
233
100
AcDbEntity
  8
06-99
100
AcDbText
 10
232.4926882790073
 20
68.60420863783446
 30
0.0
 40
6.25
  1
von Lehsten
 41
0.9
  7
ROMANS8
100
AcDbAttribute
280
     0
  2
NAME
 70
     0
280
     0
  0
ATTRIB
  5
2AB
330
233
100
AcDbEntity
  8
06-99
100
AcDbText
 10
198.7328849103239
 20
68.65308290303431
 30
0.0
 40
6.25
  1
07.07.2010
 50
359.9144597696142
 41
0.5557145111805318
  7
ROMANS8
 72
     5
 11
226.8493615816857
 21
68.61110613442292
 31
0.0
100
AcDbAttribute
280
     0
  2
DATUM
 70
     0
280
     0
  0
ATTRIB
  5
2AC
330
233
100
AcDbEntity
  8
06-99
100
AcDbText
 10
446.2658786984844
 20
18.732244468478
 30
0.0
 40
7.4844
  1
727240
  7
ROMANS8
100
AcDbAttribute
280
     0
  2
ID.NR
 70
     0
280
     0
  0
ATTRIB
  5
2AD
330
233
100
AcDbEntity
  8
06-99
100
AcDbText
 10
291.8281844198652
 20
94.16666157886737
 30
0.0
 40
7.5
  1

 41
0.9
  7
ROMANS8
100
AcDbAttribute
280
     0
  2
LÄNGE
 70
     0
280
     0
  0
ATTRIB
  5
2AE
330
233
100
AcDbEntity
  8
06-99
100
AcDbText
 10
375.4520310600132
 20
94.19525464386829
 30
0.0
 40
7.5
  1

 41
0.9
  7
ROMANS8
100
AcDbAttribute
280
     0
  2
BREITE
 70
     0
280
     0
  0
ATTRIB
  5
2AF
330
233
100
AcDbEntity
  8
06-99
100
AcDbText
 10
476.5227490974184
 20
94.16666163442314
 30
0.0
 40
7.734375
  1

  7
ROMANS8
100
AcDbAttribute
280
     0
  2
1.0
 70
     0
280
     0
  0
ATTRIB
  5
2B0
330
233
100
AcDbEntity
  8
06-99
100
AcDbText
 10
410.3194827840955
 20
113.3333283010898
 30
0.0
 40
7.5
  1

  7
ROMANS8
 72
     1
 11
410.3194827840955
 21
113.3333283010898
 31
0.0
100
AcDbAttribute
280
     0
  2
IV
 70
     0
280
     0
  0
ATTRIB
  5
2B1
330
233
100
AcDbEntity
  8
06-99
100
AcDbText
 10
308.1868701208784
 20
113.3333283010895
 30
0.0
 40
8.4375
  1
1.4301
  7
ROMANS8
100
AcDbAttribute
280
     0
  2
1.4301
 70
     0
280
     0
  0
ATTRIB
  5
2B2
330
233
100
AcDbEntity
  8
06-99
100
AcDbText
 10
365.001603497789
 20
18.76098647864282
 30
0.0
 40
7.919999999999999
  1

 41
0.9000000000000001
  7
ROMANS8
100
AcDbAttribute
280
     0
  2
AUFTRAGS.NR.
 70
     0
280
     0
  0
ATTRIB
  5
2B3
330
233
100
AcDbEntity
  8
06-99
100
AcDbText
 10
291.2500187805887
 20
18.74999496775629
 30
0.0
 40
7.919999999999999
  1

 41
0.9000000000000001
  7
ROMANS8
100
AcDbAttribute
280
     0
  2
SONDER-NR
 70
     0
280
     0
  0
ATTRIB
  5
2B4
330
233
100
AcDbEntity
  8
06-99
100
AcDbText
 10
116.2493962681095
 20
16.50452014090589
 30
0.0
 40
3.75
  1

 41
0.9
  7
ROMANS8
100
AcDbAttribute
280
     0
  2
ERSETZT.DURCH
 70
     0
280
     0
  0
ATTRIB
  5
2B5
330
233
100
AcDbEntity
  8
06-99
100
AcDbText
 10
53.74868823108506
 20
16.49363596243731
 30
0.0
 40
3.75
  1

 41
0.9
  7
ROMANS8
100
AcDbAttribute
280
     0
  2
ERSETZT.FÜR
 70
     0
280
     0
  0
ATTRIB
  5
2B6
330
233
100
AcDbEntity
  8
06-99
100
AcDbText
 10
249.9327003966827
 20
119.1712728177762
 30
0.0
 40
3.2175
  1
DIN A4
  7
ROMANS8
 72
     1
 11
258.129664682397
 21
119.1712728177762
 31
0.0
100
AcDbAttribute
280
     0
  2
FORMAT
 70
     0
280
     0
  0
ATTRIB
  5
2B7
330
233
100
AcDbEntity
  8
06-99
100
AcDbText
 10
239.9686162741045
 20
92.99241330241812
 30
0.0
 40
5.85
  1
DIN 2768
  7
ROMANS8
 72
     1
 11
260.0257591312474
 21
92.99241330241812
 31
0.0
100
AcDbAttribute
280
     0
  2
NORM2
 70
     0
280
     0
  0
ATTRIB
  5
2B8
330
233
100
AcDbEntity
  8
06-99
100
AcDbText
 10
232.0293305598187
 20
102.5757466357514
 30
0.0
 40
5.85
  1
DIN 6930-M
  7
ROMANS8
 72
     1
 11
258.7721877026758
 21
102.5757466357514
 31
0.0
100
AcDbAttribute
280
     0
  2
NORM1
 70
     0
280
     0
  0
SEQEND
  5
2B9
330
233
100
AcDbEntity
  8
0
  0
DIMENSION
  5
2BA
330
2
100
AcDbEntity
  8
0
100
AcDbDimension
280
     0
  2
*D1
 10
310.8710117041523
 20
693.2802089652523
 30
0.0
 11
199.8710117041523
 21
698.9052089652523
 31
0.0
 71
     5
 42
222.0
 73
     0
 74
     0
 75
     0
  3
Wagner$0
100
AcDbAlignedDimension
 13
88.87101170415235
 23
683.0659455910477
 33
0.0
 14
310.8710117041523
 24
683.0659455910477
 34
0.0
100
AcDbRotatedDimension
1001
ACAD
1000
DSTYLE
1002
{
1070
    40
1040
2.5
1002
}
  0
DIMENSION
  5
2C7
102
{ACAD_XDICTIONARY
360
2C8
102
}
102
{ACAD_REACTORS
330
2C9
102
}
330
2
100
AcDbEntity
  8
0
100
AcDbDimension
280
     0
  2
*D0
 10
71.21026137609533
 20
683.265945591052
 30
0.0
 11
65.5852613760952
 21
511.4159455910503
 31
0.0
 71
     5
 42
343.7000000000034
 73
     0
 74
     0
 75
     0
  3
Wagner$0
100
AcDbAlignedDimension
 13
89.87101170415053
 23
339.5659455910486
 33
0.0
 14
88.87101170415235
 24
683.265945591052
 34
0.0
 50
90.0
100
AcDbRotatedDimension
1001
ACAD
1000
DSTYLE
1002
{
1070
    40
1040
2.5
1002
}
  0
LWPOLYLINE
  5
2D6
330
2
100
AcDbEntity
  8
07-01
100
AcDbPolyline
 90
        5
 70
     0
 43
0.0
 10
91.87101170415052
 20
457.0659455910486
 10
109.8710117041505
 20
457.0659455910486
 10
109.8710117041505
 20
582.0659455910486
 10
91.87101170415052
 20
582.0659455910486
 10
91.87101170415052
 20
457.0659455910486
  0
LINE
  5
2D7
102
{ACAD_REACTORS
330
2C9
330
16A
330
CA
330
9D
102
}
330
2
100
AcDbEntity
  8
0
100
AcDbLine
 10
89.87101170415053
 20
681.5659455910487
 30
0.0
 11
89.87101170415053
 21
339.5659455910486
 31
0.0
  0
LINE
  5
2D8
102
{ACAD_REACTORS
330
16A
330
AC
102
}
330
2
100
AcDbEntity
  8
0
100
AcDbLine
 10
309.8710117041505
 20
339.5659455910486
 30
0.0
 11
309.8710117041524
 21
681.5659455910488
 31
0.0
  0
LINE
  5
2D9
330
2
100
AcDbEntity
  8
0
100
AcDbLine
 10
89.87101170415053
 20
339.5659455910486
 30
0.0
 11
309.8710117041505
 21
339.5659455910486
 31
0.0
  0
ENDSEC
  0
SECTION
  2
OBJECTS
  0
DICTIONARY
  5
B
330
0
100
AcDbDictionary
281
     1
  3
ACAD_COLOR
350
3D
  3
ACAD_GROUP
350
38
  3
ACAD_LAYOUT
350
17
  3
ACAD_MATERIAL
350
D
  3
ACAD_MLEADERSTYLE
350
40
  3
ACAD_MLINESTYLE
350
39
  3
ACAD_PLOTSETTINGS
350
3A
  3
ACAD_PLOTSTYLENAME
350
A
  3
ACAD_SCALELIST
350
3E
  3
ACAD_TABLESTYLE
350
3F
  3
ACAD_VISUALSTYLE
350
2F
  3
ACDB_RECOMPOSE_DATA
350
2E5
  3
AcDbVariableDictionary
350
2DD
  0
DICTIONARY
  5
20
330
1F
100
AcDbDictionary
280
     1
281
     1
  3
ACAD_LAYERFILTERS
360
21
  3
ACAD_LAYERSTATES
360
22
  3
ACLYDICTIONARY
360
23
  0
DICTIONARY
  5
7
330
6
100
AcDbDictionary
280
     1
281
     1
  3
ADSK_XREC_LAYER_RECONCILED
360
8
  0
DICTIONARY
  5
23A
330
239
100
AcDbDictionary
280
     1
281
     1
  3
ADSK_XREC_LAYER_RECONCILED
360
23B
  0
DICTIONARY
  5
240
330
23F
100
AcDbDictionary
280
     1
281
     1
  3
ADSK_XREC_LAYER_RECONCILED
360
241
  0
DICTIONARY
  5
278
330
277
100
AcDbDictionary
280
     1
281
     1
  3
ADSK_XREC_LAYER_RECONCILED
360
279
  0
DICTIONARY
  5
42
330
41
100
AcDbDictionary
280
     1
281
     1
  3
ADSK_XREC_LAYER_RECONCILED
360
43
  0
DICTIONARY
  5
262
330
261
100
AcDbDictionary
280
     1
281
     1
  3
ADSK_XREC_LAYER_RECONCILED
360
263
  0
DICTIONARY
  5
1B6
330
1B5
100
AcDbDictionary
280
     1
281
     1
  3
ADSK_XREC_LAYER_RECONCILED
360
1B7
  0
DICTIONARY
  5
17E
330
17D
100
AcDbDictionary
280
     1
281
     1
  3
ADSK_XREC_LAYER_RECONCILED
360
17F
  0
DICTIONARY
  5
F7
330
F6
100
AcDbDictionary
280
     1
281
     1
  3
ADSK_XREC_LAYER_RECONCILED
360
F8
  0
DICTIONARY
  5
17A
330
179
100
AcDbDictionary
280
     1
281
     1
  3
ADSK_XREC_LAYER_RECONCILED
360
17B
  0
DICTIONARY
  5
102
330
101
100
AcDbDictionary
280
     1
281
     1
  0
DICTIONARY
  5
3
330
2
100
AcDbDictionary
280
     1
281
     1
  3
ACAD_SORTENTS
360
2DC
  0
DICTIONARY
  5
235
330
234
100
AcDbDictionary
280
     1
281
     1
  3
ACAD_SORTENTS
360
2DA
  0
DICTIONARY
  5
FD
330
FC
100
AcDbDictionary
280
     1
281
     1
  3
ACAD_SORTENTS
360
2DB
  0
DICTIONARY
  5
6B
330
6A
100
AcDbDictionary
280
     1
281
     1
  3
ACAD_DIMASSOC
360
6C
  0
DICTIONARY
  5
7C
330
7B
100
AcDbDictionary
280
     1
281
     1
  3
ACAD_DIMASSOC
360
7D
  0
DICTIONARY
  5
8B
330
8A
100
AcDbDictionary
280
     1
281
     1
  3
ACAD_DIMASSOC
360
8C
  0
DICTIONARY
  5
9C
330
9B
100
AcDbDictionary
280
     1
281
     1
  3
ACAD_DIMASSOC
360
9D
  0
DICTIONARY
  5
AB
330
AA
100
AcDbDictionary
280
     1
281
     1
  3
ACAD_DIMASSOC
360
AC
  0
DICTIONARY
  5
BA
330
B9
100
AcDbDictionary
280
     1
281
     1
  3
ACAD_DIMASSOC
360
BB
  0
DICTIONARY
  5
C9
330
C8
100
AcDbDictionary
280
     1
281
     1
  3
ACAD_DIMASSOC
360
CA
  0
DICTIONARY
  5
D8
330
D7
100
AcDbDictionary
280
     1
281
     1
  3
ACAD_DIMASSOC
360
D9
  0
DICTIONARY
  5
E7
330
E6
100
AcDbDictionary
280
     1
281
     1
  3
ACAD_DIMASSOC
360
E8
  0
DICTIONARY
  5
116
330
115
100
AcDbDictionary
280
     1
281
     1
  3
ACAD_DIMASSOC
360
117
  0
DICTIONARY
  5
127
330
126
100
AcDbDictionary
280
     1
281
     1
  3
ACAD_DIMASSOC
360
128
  0
DICTIONARY
  5
136
330
135
100
AcDbDictionary
280
     1
281
     1
  3
ACAD_DIMASSOC
360
137
  0
DICTIONARY
  5
147
330
146
100
AcDbDictionary
280
     1
281
     1
  3
ACAD_DIMASSOC
360
148
  0
DICTIONARY
  5
158
330
157
100
AcDbDictionary
280
     1
281
     1
  3
ACAD_DIMASSOC
360
159
  0
DICTIONARY
  5
169
330
168
100
AcDbDictionary
280
     1
281
     1
  3
ACAD_DIMASSOC
360
16A
  0
DICTIONARY
  5
2C8
330
2C7
100
AcDbDictionary
280
     1
281
     1
  3
ACAD_DIMASSOC
360
2C9
  0
DICTIONARY
  5
3D
102
{ACAD_REACTORS
330
B
102
}
330
B
100
AcDbDictionary
281
     1
  0
DICTIONARY
  5
38
102
{ACAD_REACTORS
330
B
102
}
330
B
100
AcDbDictionary
281
     1
  0
DICTIONARY
  5
17
102
{ACAD_REACTORS
330
B
102
}
330
B
100
AcDbDictionary
281
     1
  3
Layout1
350
1E
  3
Model
350
16
  0
DICTIONARY
  5
D
102
{ACAD_REACTORS
330
B
102
}
330
B
100
AcDbDictionary
281
     1
  3
ByBlock
350
3C
  3
ByLayer
350
3B
  3
Global
350
C
  0
DICTIONARY
  5
40
102
{ACAD_REACTORS
330
B
102
}
330
B
100
AcDbDictionary
281
     1
  0
DICTIONARY
  5
39
102
{ACAD_REACTORS
330
B
102
}
330
B
100
AcDbDictionary
281
     1
  3
Standard
350
44
  0
DICTIONARY
  5
3A
102
{ACAD_REACTORS
330
B
102
}
330
B
100
AcDbDictionary
281
     1
  0
ACDBDICTIONARYWDFLT
  5
A
102
{ACAD_REACTORS
330
B
102
}
330
B
100
AcDbDictionary
281
     1
  3
Normal
350
9
100
AcDbDictionaryWithDefault
340
9
  0
DICTIONARY
  5
3E
102
{ACAD_REACTORS
330
B
102
}
330
B
100
AcDbDictionary
281
     1
  3
A0
350
49
  3
A1
350
4A
  3
A2
350
4B
  3
A3
350
4C
  3
A4
350
4D
  3
A5
350
4E
  3
A6
350
4F
  3
A7
350
50
  3
A8
350
51
  3
A9
350
52
  3
B0
350
53
  3
B1
350
54
  3
B2
350
55
  3
B3
350
56
  3
B4
350
57
  3
B5
350
58
  3
B6
350
59
  3
B7
350
5A
  3
B8
350
5B
  3
B9
350
5C
  3
C0
350
5D
  3
C1
350
5E
  3
C2
350
5F
  3
C3
350
60
  3
C4
350
61
  3
C5
350
62
  3
C6
350
63
  3
C7
350
64
  3
C8
350
65
  3
C9
350
66
  3
D0
350
67
  3
D1
350
68
  3
D2
350
69
  0
DICTIONARY
  5
3F
102
{ACAD_REACTORS
330
B
102
}
330
B
100
AcDbDictionary
281
     1
  3
Standard
350
45
  0
DICTIONARY
  5
2F
102
{ACAD_REACTORS
330
B
102
}
330
B
100
AcDbDictionary
281
     1
  3
2dWireframe
350
2E
  3
3dWireframe
350
48
  3
Realistic
350
47
  0
XRECORD
  5
2E5
102
{ACAD_REACTORS
330
B
102
}
330
B
100
AcDbXrecord
280
     1
 90
        1
330
45
  0
DICTIONARY
  5
2DD
102
{ACAD_REACTORS
330
B
102
}
330
B
100
AcDbDictionary
281
     1
  3
CANNOSCALE
350
2E0
  3
CMLEADERSTYLE
350
2DF
  3
CTABLESTYLE
350
2DE
  3
LAYEREVAL
350
2E1
  3
LAYERNOTIFY
350
2E2
  0
DICTIONARY
  5
21
102
{ACAD_REACTORS
330
20
102
}
330
20
100
AcDbDictionary
281
     1
  0
DICTIONARY
  5
22
102
{ACAD_REACTORS
330
20
102
}
330
20
100
AcDbDictionary
281
     1
  0
DICTIONARY
  5
23
102
{ACAD_REACTORS
330
20
102
}
330
20
100
AcDbDictionary
281
     1
1001
ACAD
1000
<All
  0
XRECORD
  5
8
102
{ACAD_REACTORS
330
7
102
}
330
7
100
AcDbXrecord
280
     1
290
     1
  0
XRECORD
  5
23B
102
{ACAD_REACTORS
330
23A
102
}
330
23A
100
AcDbXrecord
280
     1
290
     1
  0
XRECORD
  5
241
102
{ACAD_REACTORS
330
240
102
}
330
240
100
AcDbXrecord
280
     1
290
     1
  0
XRECORD
  5
279
102
{ACAD_REACTORS
330
278
102
}
330
278
100
AcDbXrecord
280
     1
290
     1
  0
XRECORD
  5
43
102
{ACAD_REACTORS
330
42
102
}
330
42
100
AcDbXrecord
280
     1
290
     1
  0
XRECORD
  5
263
102
{ACAD_REACTORS
330
262
102
}
330
262
100
AcDbXrecord
280
     1
290
     1
  0
XRECORD
  5
1B7
102
{ACAD_REACTORS
330
1B6
102
}
330
1B6
100
AcDbXrecord
280
     1
290
     1
  0
XRECORD
  5
17F
102
{ACAD_REACTORS
330
17E
102
}
330
17E
100
AcDbXrecord
280
     1
290
     1
  0
XRECORD
  5
F8
102
{ACAD_REACTORS
330
F7
102
}
330
F7
100
AcDbXrecord
280
     1
290
     1
  0
XRECORD
  5
17B
102
{ACAD_REACTORS
330
17A
102
}
330
17A
100
AcDbXrecord
280
     1
290
     1
  0
SORTENTSTABLE
  5
2DC
102
{ACAD_REACTORS
330
3
102
}
330
3
100
AcDbSortentsTable
330
2
331
1A5
  5
1DE
331
21F
  5
185
331
1A1
  5
1E2
331
21B
  5
189
331
1DC
  5
1A7
331
217
  5
18D
331
19D
  5
1E6
331
199
  5
1EA
331
1D8
  5
1AB
331
AA
  5
2C7
331
195
  5
1EE
331
1D4
  5
1AF
331
191
  5
1F2
331
18D
  5
217
331
2BA
  5
B9
331
189
  5
21B
331
157
  5
229
331
185
  5
21F
331
181
  5
223
331
1C0
  5
1B2
331
1BC
  5
1BA
331
232
  5
D7
331
8A
  5
2D7
331
1B4
  5
1BE
331
1EF
  5
194
331
22E
  5
FB
331
22A
  5
146
331
1B0
  5
1D3
331
1EB
  5
198
331
1E7
  5
19C
331
2D9
  5
6A
331
226
  5
178
331
1AC
  5
1D7
331
1A8
  5
1DB
331
1E3
  5
1A0
331
222
  5
182
331
B9
  5
2BA
331
1A4
  5
1DF
331
21E
  5
186
331
21A
  5
18A
331
1A0
  5
1E3
331
1DF
  5
1A4
331
1DB
  5
1A8
331
216
  5
18E
331
19C
  5
1E7
331
198
  5
1EB
331
1D7
  5
1AC
331
194
  5
1EF
331
1D3
  5
1B0
331
190
  5
205
331
18C
  5
218
331
188
  5
21C
331
184
  5
220
331
180
  5
224
331
1BF
  5
1B3
331
17C
  5
225
331
1F2
  5
191
331
231
  5
E6
331
178
  5
226
331
146
  5
22A
331
C8
  5
233
331
1B3
  5
1BF
331
1EE
  5
195
331
22D
  5
115
331
229
  5
157
331
1AF
  5
1D4
331
1EA
  5
199
331
1E6
  5
19D
331
2D8
  5
7B
331
225
  5
17C
331
1AB
  5
1D8
331
1E2
  5
1A1
331
221
  5
183
331
168
  5
228
331
FB
  5
22E
331
1A7
  5
1DC
331
1A3
  5
1E0
331
21D
  5
187
331
219
  5
18B
331
19F
  5
1E4
331
1DE
  5
1A5
331
1DA
  5
1A9
331
215
  5
18F
331
19B
  5
1E8
331
126
  5
22C
331
197
  5
1EC
331
1D6
  5
1AD
331
193
  5
1F0
331
1D2
  5
1B1
331
18F
  5
215
331
205
  5
190
331
18B
  5
219
331
187
  5
21D
331
183
  5
221
331
1BE
  5
1B4
331
1BA
  5
1BC
331
1F1
  5
192
331
230
  5
F5
331
D7
  5
232
331
177
  5
227
331
1B2
  5
1C0
331
1ED
  5
196
331
22C
  5
126
331
228
  5
168
331
1AE
  5
1D5
331
1E9
  5
19A
331
1AA
  5
1D9
331
1E5
  5
19E
331
2D7
  5
8A
331
224
  5
180
331
1E1
  5
1A2
331
220
  5
184
331
FA
  5
22F
331
135
  5
22B
331
1A6
  5
1DD
331
1A2
  5
1E1
331
21C
  5
188
331
1DD
  5
1A6
331
218
  5
18C
331
19E
  5
1E5
331
1D9
  5
1AA
331
19A
  5
1E9
331
196
  5
1ED
331
1D5
  5
1AE
331
2C7
  5
AA
331
192
  5
1F1
331
18E
  5
216
331
18A
  5
21A
331
6A
  5
2D9
331
E6
  5
231
331
115
  5
22D
331
9B
  5
2D6
331
186
  5
21E
331
182
  5
222
331
1BD
  5
1B9
331
1B9
  5
1BD
331
233
  5
C8
331
1F0
  5
193
331
22F
  5
FA
331
22B
  5
135
331
1B1
  5
1D2
331
1EC
  5
197
331
227
  5
177
331
1AD
  5
1D6
331
1E8
  5
19B
331
1A9
  5
1DA
331
1E4
  5
19F
331
2D6
  5
9B
331
223
  5
181
331
1E0
  5
1A3
331
F5
  5
230
331
7B
  5
2D8
  0
SORTENTSTABLE
  5
2DA
102
{ACAD_REACTORS
330
235
102
}
330
235
100
AcDbSortentsTable
330
234
  0
SORTENTSTABLE
  5
2DB
102
{ACAD_REACTORS
330
FD
102
}
330
FD
100
AcDbSortentsTable
330
FC
  0
DIMASSOC
  5
6C
102
{ACAD_REACTORS
330
6B
102
}
330
6B
100
AcDbDimAssoc
330
6A
 90
        3
 70
     0
 71
     0
  1
AcDbOsnapPointRef
 72
     1
331
22A
 73
     2
 91
        0
 40
1.0
 10
0.0
 20
0.0
 30
2.000000000000000E+50
 75
     0
  1
AcDbOsnapPointRef
 72
     1
331
22B
 73
     2
 91
        0
 40
1.0
 10
0.0
 20
0.0
 30
2.000000000000000E+50
 75
     0
  0
DIMASSOC
  5
7D
102
{ACAD_REACTORS
330
7C
102
}
330
7C
100
AcDbDimAssoc
330
7B
 90
        3
 70
     0
 71
     0
  1
AcDbOsnapPointRef
 72
     1
331
1D5
 73
     2
 91
        0
 40
1.0
 10
0.0
 20
0.0
 30
2.000000000000000E+50
 75
     0
  1
AcDbOsnapPointRef
 72
    10
331
19B
 73
     2
 91
        0
 40
0.4796571270729571
 10
0.0
 20
0.0
 30
0.0
 75
     0
  0
DIMASSOC
  5
8C
102
{ACAD_REACTORS
330
8B
102
}
330
8B
100
AcDbDimAssoc
330
8A
 90
        3
 70
     0
 71
     0
  1
AcDbOsnapPointRef
 72
     6
331
1D5
 73
     2
 91
        0
 40
0.1176470588235294
 10
0.0
 20
0.0
 30
0.0
332
1D3
 74
     2
 92
        0
 75
     0
  1
AcDbOsnapPointRef
 72
     6
331
1D5
 73
     2
 91
        0
 40
0.8823529411764706
 10
0.0
 20
0.0
 30
0.0
332
1D3
 74
     2
 92
        0
 75
     0
  0
DIMASSOC
  5
9D
102
{ACAD_REACTORS
330
9C
102
}
330
9C
100
AcDbDimAssoc
330
9B
 90
        3
 70
     0
 71
     0
  1
AcDbOsnapPointRef
 72
    10
331
2D7
 73
     2
 91
        0
 40
0.2250215389719454
 10
0.0
 20
0.0
 30
0.0
 75
     0
  1
AcDbOsnapPointRef
 72
     1
331
1D4
 73
     2
 91
        0
 40
1.0
 10
0.0
 20
0.0
 30
2.000000000000000E+50
 75
     0
  0
DIMASSOC
  5
AC
102
{ACAD_REACTORS
330
AB
102
}
330
AB
100
AcDbDimAssoc
330
AA
 90
        3
 70
     0
 71
     0
  1
AcDbOsnapPointRef
 72
    13
331
1DF
 73
     2
 91
        0
 40
0.0
 10
0.0
 20
0.0
 30
2.000000000000000E+50
 75
     0
  1
AcDbOsnapPointRef
 72
    10
331
2D8
 73
     2
 91
        0
 40
0.1154192599413811
 10
0.0
 20
0.0
 30
0.0
 75
     0
  0
DIMASSOC
  5
BB
102
{ACAD_REACTORS
330
BA
102
}
330
BA
100
AcDbDimAssoc
330
B9
 90
        3
 70
     0
 71
     0
  1
AcDbOsnapPointRef
 72
    13
331
1E3
 73
     2
 91
        0
 40
0.0
 10
0.0
 20
0.0
 30
2.000000000000000E+50
 75
     0
  1
AcDbOsnapPointRef
 72
    13
331
1DF
 73
     2
 91
        0
 40
0.0
 10
0.0
 20
0.0
 30
2.000000000000000E+50
 75
     0
  0
DIMASSOC
  5
CA
102
{ACAD_REACTORS
330
C9
102
}
330
C9
100
AcDbDimAssoc
330
C8
 90
        3
 70
     0
 71
     0
  1
AcDbOsnapPointRef
 72
    10
331
2D7
 73
     2
 91
        0
 40
0.8997836861637843
 10
0.0
 20
0.0
 30
0.0
 75
     0
  1
AcDbOsnapPointRef
 72
    13
331
1E3
 73
     2
 91
        0
 40
0.0
 10
0.0
 20
0.0
 30
2.000000000000000E+50
 75
     0
  0
DIMASSOC
  5
D9
102
{ACAD_REACTORS
330
D8
102
}
330
D8
100
AcDbDimAssoc
330
D7
 90
        3
 70
     0
 71
     0
  1
AcDbOsnapPointRef
 72
     1
331
1F1
 73
     2
 91
        0
 40
1.0
 10
0.0
 20
0.0
 30
2.000000000000000E+50
 75
     0
  1
AcDbOsnapPointRef
 72
     1
331
1D6
 73
     2
 91
        0
 40
1.0
 10
0.0
 20
0.0
 30
2.000000000000000E+50
 75
     0
  0
DIMASSOC
  5
E8
102
{ACAD_REACTORS
330
E7
102
}
330
E7
100
AcDbDimAssoc
330
E6
 90
        3
 70
     0
 71
     0
  1
AcDbOsnapPointRef
 72
     1
331
1F1
 73
     2
 91
        0
 40
1.0
 10
0.0
 20
0.0
 30
2.000000000000000E+50
 75
     0
  1
AcDbOsnapPointRef
 72
    10
331
19B
 73
     2
 91
        0
 40
0.7828060189368497
 10
0.0
 20
0.0
 30
0.0
 75
     0
  0
DIMASSOC
  5
117
102
{ACAD_REACTORS
330
116
102
}
330
116
100
AcDbDimAssoc
330
115
 90
        3
 70
     0
 71
     0
  1
AcDbOsnapPointRef
 72
    13
331
22B
 73
     2
 91
        0
 40
0.0
 10
0.0
 20
0.0
 30
2.000000000000000E+50
 75
     0
  1
AcDbOsnapPointRef
 72
     1
331
1BC
 73
     2
 91
        0
 40
1.0
 10
0.0
 20
0.0
 30
2.000000000000000E+50
 75
     0
  0
DIMASSOC
  5
128
102
{ACAD_REACTORS
330
127
102
}
330
127
100
AcDbDimAssoc
330
126
 90
        3
 70
     0
 71
     0
  1
AcDbOsnapPointRef
 72
    13
331
22A
 73
     2
 91
        0
 40
0.0
 10
0.0
 20
0.0
 30
2.000000000000000E+50
 75
     0
  1
AcDbOsnapPointRef
 72
     1
331
1BE
 73
     2
 91
        0
 40
1.0
 10
0.0
 20
0.0
 30
2.000000000000000E+50
 75
     0
  0
DIMASSOC
  5
137
102
{ACAD_REACTORS
330
136
102
}
330
136
100
AcDbDimAssoc
330
135
 90
        3
 70
     0
 71
     0
  1
AcDbOsnapPointRef
 72
     6
331
1E5
 73
     2
 91
        0
 40
0.9310344827586206
 10
0.0
 20
0.0
 30
0.0
332
1E4
 74
     2
 92
        0
 75
     0
  1
AcDbOsnapPointRef
 72
     6
331
1E5
 73
     2
 91
        0
 40
0.0689655172413793
 10
0.0
 20
0.0
 30
0.0
332
1E4
 74
     2
 92
        0
 75
     0
  0
DIMASSOC
  5
148
102
{ACAD_REACTORS
330
147
102
}
330
147
100
AcDbDimAssoc
330
146
 90
        3
 70
     0
 71
     0
  1
AcDbOsnapPointRef
 72
     1
331
1EA
 73
     2
 91
        0
 40
1.0
 10
0.0
 20
0.0
 30
2.000000000000000E+50
 75
     0
  1
AcDbOsnapPointRef
 72
     1
331
1E5
 73
     2
 91
        0
 40
1.0
 10
0.0
 20
0.0
 30
2.000000000000000E+50
 75
     0
  0
DIMASSOC
  5
159
102
{ACAD_REACTORS
330
158
102
}
330
158
100
AcDbDimAssoc
330
157
 90
        3
 70
     0
 71
     0
  1
AcDbOsnapPointRef
 72
     1
331
1E7
 73
     2
 91
        0
 40
3.141592653589793
 10
0.0
 20
0.0
 30
2.000000000000000E+50
 75
     0
  1
AcDbOsnapPointRef
 72
    13
331
1E6
 73
     2
 91
        0
 40
0.0
 10
0.0
 20
0.0
 30
2.000000000000000E+50
 75
     0
  0
DIMASSOC
  5
16A
102
{ACAD_REACTORS
330
169
102
}
330
169
100
AcDbDimAssoc
330
168
 90
        3
 70
     0
 71
     0
  1
AcDbOsnapPointRef
 72
     1
331
2D7
 73
     2
 91
        0
 40
1.0
 10
0.0
 20
0.0
 30
2.000000000000000E+50
 75
     0
  1
AcDbOsnapPointRef
 72
    13
331
2D8
 73
     2
 91
        0
 40
0.0
 10
0.0
 20
0.0
 30
2.000000000000000E+50
 75
     0
  0
DIMASSOC
  5
2C9
102
{ACAD_REACTORS
330
2C8
102
}
330
2C8
100
AcDbDimAssoc
330
2C7
 90
        1
 70
     0
 71
     0
  1
AcDbOsnapPointRef
 72
     1
331
2D7
 73
     2
 91
        0
 40
1.0
 10
0.0
 20
0.0
 30
2.000000000000000E+50
 75
     0
  0
LAYOUT
  5
1E
102
{ACAD_REACTORS
330
17
102
}
330
17
100
AcDbPlotSettings
  1

  2
C:\Documents and Settings\basas\Application Data\Autodesk\AutoCAD 2005\R16.1\enu\plotters\Default Windows System Printer.pc3
  4

  6

 40
0.0
 41
0.0
 42
0.0
 43
0.0
 44
0.0
 45
0.0
 46
0.0
 47
0.0
 48
0.0
 49
0.0
140
0.0
141
0.0
142
1.0
143
1.0
 70
   688
 72
     0
 73
     0
 74
     5
  7

 75
    16
147
1.0
 76
     0
 77
     2
 78
   300
148
0.0
149
0.0
100
AcDbLayout
  1
Layout1
 70
     1
 71
     1
 10
0.0
 20
0.0
 11
12.0
 21
9.0
 12
0.0
 22
0.0
 32
0.0
 14
0.0
 24
0.0
 34
0.0
 15
0.0
 25
0.0
 35
0.0
146
0.0
 13
0.0
 23
0.0
 33
0.0
 16
1.0
 26
0.0
 36
0.0
 17
0.0
 27
1.0
 37
0.0
 76
     0
330
1B
  0
LAYOUT
  5
16
102
{ACAD_XDICTIONARY
360
18
102
}
102
{ACAD_REACTORS
330
17
102
}
330
17
100
AcDbPlotSettings
  1

  2
none_device
  4
ISO_A4_(210.00_x_297.00_MM)
  6

 40
7.5
 41
20.0
 42
7.5
 43
20.0
 44
210.0
 45
297.0
 46
11.54999923706054
 47
-13.65000009536743
 48
0.0
 49
0.0
140
0.0
141
0.0
142
1.0
143
8.704084754739808
 70
 11952
 72
     1
 73
     0
 74
     0
  7

 75
     0
147
0.1148885871608098
 76
     0
 77
     2
 78
   300
148
0.0
149
0.0
100
AcDbLayout
  1
Model
 70
     1
 71
     0
 10
0.0
 20
0.0
 11
12.0
 21
9.0
 12
0.0
 22
0.0
 32
0.0
 14
0.0
 24
0.0
 34
0.0
 15
0.0
 25
0.0
 35
0.0
146
0.0
 13
0.0
 23
0.0
 33
0.0
 16
1.0
 26
0.0
 36
0.0
 17
0.0
 27
1.0
 37
0.0
 76
     0
330
2
331
2D
1001
ACAD_PSEXT
1000
None
1000
None
1000
Not applicable
1000
The layout will not be plotted unless a new plotter configuration name is selected.
1070
     0
  0
MATERIAL
  5
3C
102
{ACAD_REACTORS
330
D
102
}
330
D
100
AcDbMaterial
  1
ByBlock
 94
       63
  0
MATERIAL
  5
3B
102
{ACAD_REACTORS
330
D
102
}
330
D
100
AcDbMaterial
  1
ByLayer
 94
       63
  0
MATERIAL
  5
C
102
{ACAD_XDICTIONARY
360
E
102
}
102
{ACAD_REACTORS
330
D
102
}
330
D
100
AcDbMaterial
  1
Global
 43
0.0007999999797903
 43
0.0
 43
0.0
 43
0.0
 43
0.0
 43
0.0007999999797903
 43
0.0
 43
0.0
 43
0.0
 43
0.0
 43
1.0
 43
0.0
 43
0.0
 43
0.0
 43
0.0
 43
1.0
 49
0.0007999999797903
 49
0.0
 49
0.0
 49
0.0
 49
0.0
 49
0.0007999999797903
 49
0.0
 49
0.0
 49
0.0
 49
0.0
 49
1.0
 49
0.0
 49
0.0
 49
0.0
 49
0.0
 49
1.0
142
0.0007999999797903
142
0.0
142
0.0
142
0.0
142
0.0
142
0.0007999999797903
142
0.0
142
0.0
142
0.0
142
0.0
142
1.0
142
0.0
142
0.0
142
0.0
142
0.0
142
1.0
144
0.0007999999797903
144
0.0
144
0.0
144
0.0
144
0.0
144
0.0007999999797903
144
0.0
144
0.0
144
0.0
144
0.0
144
1.0
144
0.0
144
0.0
144
0.0
144
0.0
144
1.0
 94
       63
1001
ACAD
1070
    -1
1070
     3
1070
     0
1000

1071
        0
1070
     0
  0
MLINESTYLE
  5
44
102
{ACAD_REACTORS
330
39
102
}
330
39
100
AcDbMlineStyle
  2
STANDARD
 70
     0
  3

 62
   256
 51
90.0
 52
90.0
 71
     2
 49
0.5
 62
   256
  6
BYLAYER
 49
-0.5
 62
   256
  6
BYLAYER
  0
ACDBPLACEHOLDER
  5
9
102
{ACAD_REACTORS
330
A
102
}
330
A
  0
SCALE
  5
49
102
{ACAD_REACTORS
330
3E
102
}
330
3E
100
AcDbScale
 70
     0
300
1:1
140
1.0
141
1.0
290
     1
  0
SCALE
  5
4A
102
{ACAD_REACTORS
330
3E
102
}
330
3E
100
AcDbScale
 70
     0
300
1:2
140
1.0
141
2.0
290
     0
  0
SCALE
  5
4B
102
{ACAD_REACTORS
330
3E
102
}
330
3E
100
AcDbScale
 70
     0
300
1:4
140
1.0
141
4.0
290
     0
  0
SCALE
  5
4C
102
{ACAD_REACTORS
330
3E
102
}
330
3E
100
AcDbScale
 70
     0
300
1:5
140
1.0
141
5.0
290
     0
  0
SCALE
  5
4D
102
{ACAD_REACTORS
330
3E
102
}
330
3E
100
AcDbScale
 70
     0
300
1:8
140
1.0
141
8.0
290
     0
  0
SCALE
  5
4E
102
{ACAD_REACTORS
330
3E
102
}
330
3E
100
AcDbScale
 70
     0
300
1:10
140
1.0
141
10.0
290
     0
  0
SCALE
  5
4F
102
{ACAD_REACTORS
330
3E
102
}
330
3E
100
AcDbScale
 70
     0
300
1:16
140
1.0
141
16.0
290
     0
  0
SCALE
  5
50
102
{ACAD_REACTORS
330
3E
102
}
330
3E
100
AcDbScale
 70
     0
300
1:20
140
1.0
141
20.0
290
     0
  0
SCALE
  5
51
102
{ACAD_REACTORS
330
3E
102
}
330
3E
100
AcDbScale
 70
     0
300
1:30
140
1.0
141
30.0
290
     0
  0
SCALE
  5
52
102
{ACAD_REACTORS
330
3E
102
}
330
3E
100
AcDbScale
 70
     0
300
1:40
140
1.0
141
40.0
290
     0
  0
SCALE
  5
53
102
{ACAD_REACTORS
330
3E
102
}
330
3E
100
AcDbScale
 70
     0
300
1:50
140
1.0
141
50.0
290
     0
  0
SCALE
  5
54
102
{ACAD_REACTORS
330
3E
102
}
330
3E
100
AcDbScale
 70
     0
300
1:100
140
1.0
141
100.0
290
     0
  0
SCALE
  5
55
102
{ACAD_REACTORS
330
3E
102
}
330
3E
100
AcDbScale
 70
     0
300
2:1
140
2.0
141
1.0
290
     0
  0
SCALE
  5
56
102
{ACAD_REACTORS
330
3E
102
}
330
3E
100
AcDbScale
 70
     0
300
4:1
140
4.0
141
1.0
290
     0
  0
SCALE
  5
57
102
{ACAD_REACTORS
330
3E
102
}
330
3E
100
AcDbScale
 70
     0
300
8:1
140
8.0
141
1.0
290
     0
  0
SCALE
  5
58
102
{ACAD_REACTORS
330
3E
102
}
330
3E
100
AcDbScale
 70
     0
300
10:1
140
10.0
141
1.0
290
     0
  0
SCALE
  5
59
102
{ACAD_REACTORS
330
3E
102
}
330
3E
100
AcDbScale
 70
     0
300
100:1
140
100.0
141
1.0
290
     0
  0
SCALE
  5
5A
102
{ACAD_REACTORS
330
3E
102
}
330
3E
100
AcDbScale
 70
     0
300
1/128" = 1'-0"
140
0.0078125
141
12.0
290
     0
  0
SCALE
  5
5B
102
{ACAD_REACTORS
330
3E
102
}
330
3E
100
AcDbScale
 70
     0
300
1/64" = 1'-0"
140
0.015625
141
12.0
290
     0
  0
SCALE
  5
5C
102
{ACAD_REACTORS
330
3E
102
}
330
3E
100
AcDbScale
 70
     0
300
1/32" = 1'-0"
140
0.03125
141
12.0
290
     0
  0
SCALE
  5
5D
102
{ACAD_REACTORS
330
3E
102
}
330
3E
100
AcDbScale
 70
     0
300
1/16" = 1'-0"
140
0.0625
141
12.0
290
     0
  0
SCALE
  5
5E
102
{ACAD_REACTORS
330
3E
102
}
330
3E
100
AcDbScale
 70
     0
300
3/32" = 1'-0"
140
0.09375
141
12.0
290
     0
  0
SCALE
  5
5F
102
{ACAD_REACTORS
330
3E
102
}
330
3E
100
AcDbScale
 70
     0
300
1/8" = 1'-0"
140
0.125
141
12.0
290
     0
  0
SCALE
  5
60
102
{ACAD_REACTORS
330
3E
102
}
330
3E
100
AcDbScale
 70
     0
300
3/16" = 1'-0"
140
0.1875
141
12.0
290
     0
  0
SCALE
  5
61
102
{ACAD_REACTORS
330
3E
102
}
330
3E
100
AcDbScale
 70
     0
300
1/4" = 1'-0"
140
0.25
141
12.0
290
     0
  0
SCALE
  5
62
102
{ACAD_REACTORS
330
3E
102
}
330
3E
100
AcDbScale
 70
     0
300
3/8" = 1'-0"
140
0.375
141
12.0
290
     0
  0
SCALE
  5
63
102
{ACAD_REACTORS
330
3E
102
}
330
3E
100
AcDbScale
 70
     0
300
1/2" = 1'-0"
140
0.5
141
12.0
290
     0
  0
SCALE
  5
64
102
{ACAD_REACTORS
330
3E
102
}
330
3E
100
AcDbScale
 70
     0
300
3/4" = 1'-0"
140
0.75
141
12.0
290
     0
  0
SCALE
  5
65
102
{ACAD_REACTORS
330
3E
102
}
330
3E
100
AcDbScale
 70
     0
300
1" = 1'-0"
140
1.0
141
12.0
290
     0
  0
SCALE
  5
66
102
{ACAD_REACTORS
330
3E
102
}
330
3E
100
AcDbScale
 70
     0
300
1-1/2" = 1'-0"
140
1.5
141
12.0
290
     0
  0
SCALE
  5
67
102
{ACAD_REACTORS
330
3E
102
}
330
3E
100
AcDbScale
 70
     0
300
3" = 1'-0"
140
3.0
141
12.0
290
     0
  0
SCALE
  5
68
102
{ACAD_REACTORS
330
3E
102
}
330
3E
100
AcDbScale
 70
     0
300
6" = 1'-0"
140
6.0
141
12.0
290
     0
  0
SCALE
  5
69
102
{ACAD_REACTORS
330
3E
102
}
330
3E
100
AcDbScale
 70
     0
300
1'-0" = 1'-0"
140
12.0
141
12.0
290
     0
  0
TABLESTYLE
  5
45
102
{ACAD_XDICTIONARY
360
46
102
}
102
{ACAD_REACTORS
330
3F
102
}
330
3F
100
AcDbTableStyle
280
     0
  3
Standard
 70
     0
 71
     0
 40
1.5
 41
1.5
280
     0
281
     0
  7
Standard
140
4.5
170
     2
 62
     0
 63
     7
283
     0
 90
      512
 91
        0
  1

274
    -2
284
     1
 64
     0
275
    -2
285
     1
 65
     0
276
    -2
286
     1
 66
     0
277
    -2
287
     1
 67
     0
278
    -2
288
     1
 68
     0
279
    -2
289
     1
 69
     0
  7
Standard
140
6.0
170
     5
 62
     0
 63
     7
283
     0
 90
      512
 91
        0
  1

274
    -2
284
     1
 64
     0
275
    -2
285
     1
 65
     0
276
    -2
286
     1
 66
     0
277
    -2
287
     1
 67
     0
278
    -2
288
     1
 68
     0
279
    -2
289
     1
 69
     0
  7
Standard
140
4.5
170
     5
 62
     0
 63
     7
283
     0
 90
      512
 91
        0
  1

274
    -2
284
     1
 64
     0
275
    -2
285
     1
 65
     0
276
    -2
286
     1
 66
     0
277
    -2
287
     1
 67
     0
278
    -2
288
     1
 68
     0
279
    -2
289
     1
 69
     0
  0
VISUALSTYLE
  5
2E
102
{ACAD_REACTORS
330
2F
102
}
330
2F
100
AcDbVisualStyle
  2
2dWireframe
 70
     4
177
     2
291
     0
 71
     0
176
     1
 72
     2
176
     1
 73
     1
176
     1
 90
        0
176
     1
 40
0.6
176
     1
 41
30.0
176
     1
 63
     7
421
 16777215
176
     1
 74
     1
176
     1
 91
        4
176
     1
 64
     7
176
     1
 65
   257
176
     1
 75
     1
176
     1
175
     1
176
     1
 42
1.0
176
     1
 92
        0
176
     1
 66
   257
176
     1
 43
1.0
176
     1
 76
     1
176
     1
 77
     6
176
     1
 78
     2
176
     1
 67
     7
176
     1
 79
     5
176
     1
170
     0
176
     1
171
     0
176
     1
290
     0
176
     1
 93
        1
176
     1
 44
0.0
176
     1
173
     0
176
     1
  0
VISUALSTYLE
  5
48
102
{ACAD_REACTORS
330
2F
102
}
330
2F
100
AcDbVisualStyle
  2
3dWireframe
 70
     5
177
     2
291
     0
 71
     0
176
     1
 72
     2
176
     1
 73
     1
176
     1
 90
        0
176
     1
 40
0.6
176
     1
 41
30.0
176
     1
 63
     7
421
 16777215
176
     1
 74
     1
176
     1
 91
        4
176
     1
 64
     7
176
     1
 65
   257
176
     1
 75
     1
176
     1
175
     1
176
     1
 42
1.0
176
     1
 92
        0
176
     1
 66
   257
176
     1
 43
1.0
176
     1
 76
     1
176
     1
 77
     6
176
     1
 78
     2
176
     1
 67
     7
176
     1
 79
     5
176
     1
170
     0
176
     1
171
     0
176
     1
290
     0
176
     1
 93
        1
176
     1
 44
0.0
176
     1
173
     0
176
     1
  0
VISUALSTYLE
  5
47
102
{ACAD_REACTORS
330
2F
102
}
330
2F
100
AcDbVisualStyle
  2
Realistic
 70
     8
177
     2
291
     0
 71
     2
176
     1
 72
     2
176
     1
 73
     1
176
     1
 90
        0
176
     1
 40
0.6
176
     1
 41
30.0
176
     1
 63
     7
421
 16777215
176
     1
 74
     1
176
     1
 91
        0
176
     1
 64
     7
176
     1
 65
   257
176
     1
 75
     1
176
     1
175
     1
176
     1
 42
1.0
176
     1
 92
        8
176
     1
 66
     8
424
  7895160
176
     1
 43
1.0
176
     1
 76
     1
176
     1
 77
     6
176
     1
 78
     2
176
     1
 67
     7
176
     1
 79
     5
176
     1
170
     0
176
     1
171
     0
176
     1
290
     0
176
     1
 93
       13
176
     1
 44
0.0
176
     1
173
     0
176
     1
  0
DICTIONARYVAR
  5
2E0
102
{ACAD_REACTORS
330
2DD
102
}
330
2DD
100
DictionaryVariables
280
     0
  1
1:1
  0
DICTIONARYVAR
  5
2DF
102
{ACAD_REACTORS
330
2DD
102
}
330
2DD
100
DictionaryVariables
280
     0
  1
STANDARD
  0
DICTIONARYVAR
  5
2DE
102
{ACAD_REACTORS
330
2DD
102
}
330
2DD
100
DictionaryVariables
280
     0
  1
STANDARD
  0
DICTIONARYVAR
  5
2E1
102
{ACAD_REACTORS
330
2DD
102
}
330
2DD
100
DictionaryVariables
280
     0
  1
1
  0
DICTIONARYVAR
  5
2E2
102
{ACAD_REACTORS
330
2DD
102
}
330
2DD
100
DictionaryVariables
280
     0
  1
15
  0
DICTIONARY
  5
18
330
16
100
AcDbDictionary
280
     1
281
     1
  3
ADSK_XREC_LAYOUTTHUMBNAIL
360
19
  0
DICTIONARY
  5
E
330
C
100
AcDbDictionary
280
     1
281
     1
  3
BUMPTILE
360
F
  3
DIFFUSETILE
360
10
  3
OPACITYTILE
360
11
  3
REFLECTIONTILE
360
12
  0
DICTIONARY
  5
46
330
45
100
AcDbDictionary
280
     1
281
     1
  3
ACAD_ROUNDTRIP_2008_TABLESTYLE_CELLSTYLEMAP
360
2E3
  0
XRECORD
  5
19
102
{ACAD_REACTORS
330
18
102
}
330
18
100
AcDbXrecord
280
     1
310
28000000000100007E0000000100080000000000007E0000000000000000000000010000000000000000000000000000FFFFFF000000000000000000000000000000000000000000000000000000000000000000330000006600000099000000CC000000FF00000000330000333300006633000099330000CC330000FF3300
310
0000660000336600006666000099660000CC660000FF66000000990000339900006699000099990000CC990000FF99000000CC000033CC000066CC000099CC0000CCCC0000FFCC000000FF000033FF000066FF000099FF0000CCFF0000FFFF000000003300330033006600330099003300CC003300FF003300003333003333
310
33006633330099333300CC333300FF33330000663300336633006666330099663300CC663300FF66330000993300339933006699330099993300CC993300FF99330000CC330033CC330066CC330099CC3300CCCC3300FFCC330000FF330033FF330066FF330099FF3300CCFF3300FFFF330000006600330066006600660099
310
006600CC006600FF00660000336600333366006633660099336600CC336600FF33660000666600336666006666660099666600CC666600FF66660000996600339966006699660099996600CC996600FF99660000CC660033CC660066CC660099CC6600CCCC6600FFCC660000FF660033FF660066FF660099FF6600CCFF6600
310
FFFF660000009900330099006600990099009900CC009900FF00990000339900333399006633990099339900CC339900FF33990000669900336699006666990099669900CC669900FF66990000999900339999006699990099999900CC999900FF99990000CC990033CC990066CC990099CC9900CCCC9900FFCC990000FF99
310
0033FF990066FF990099FF9900CCFF9900FFFF99000000CC003300CC006600CC009900CC00CC00CC00FF00CC000033CC003333CC006633CC009933CC00CC33CC00FF33CC000066CC003366CC006666CC009966CC00CC66CC00FF66CC000099CC003399CC006699CC009999CC00CC99CC00FF99CC0000CCCC0033CCCC0066CC
310
CC0099CCCC00CCCCCC00FFCCCC0000FFCC0033FFCC0066FFCC0099FFCC00CCFFCC00FFFFCC000000FF003300FF006600FF009900FF00CC00FF00FF00FF000033FF003333FF006633FF009933FF00CC33FF00FF33FF000066FF003366FF006666FF009966FF00CC66FF00FF66FF000099FF003399FF006699FF009999FF00CC
310
99FF00FF99FF0000CCFF0033CCFF0066CCFF0099CCFF00CCCCFF00FFCCFF0000FFFF0033FFFF0066FFFF0099FFFF00CCFFFF00FFFFFF00000000000D0D0D001A1A1A00282828003535350043434300505050005D5D5D006B6B6B00787878008686860093939300A1A1A100AEAEAE00BBBBBB00C9C9C900D6D6D600E4E4E400
310
F1F1F100FFFFFF0000000000000000000000000000000000000000000000000000000000000000000000000000000000E2E2E2E2E2E2E2E2E2E2E2E2E2E2E2E2E2E2E2E2E2E2E2E2E2E2E2E2E2E2E2E2E2E2E2E2E2E2E2E2E2E2E2E2E2E2E2E2E2E2E2E2E2E2E2E2E2E2E2E2E2E2E2E2E2E2E2E2E2E2E2E2E2E2E2E2E2E2E2
310
E2E2E2E2E2E2E2E2E2E2E2E2E2E2E2E2E2E2E2E2E2E2E2E2E2E2E2E2E2E2E2E2E2E2E2E2E2E2E2E2E2E2E2E2E2E2E2E2E2E2E2E2E2E2E2E2E2E2E2E2E2E2E2E2E2E2E2E2E2E2E2E2E2E2E2E2E2E2E2E2E2E2E2E2E2E2E2E2E2E2E2E2E2E2E2E2E2E2E2E2E2E2E2E2E2E2E2E2E2E2E2E2E2E2E2E2E2E2E2E2E2E2E2E2E2E2E2
310
E2E2E2E2E2E2E2E2E2E2E2E2E2E2E2E2E2E2E2E2E2E2E2E2E2E2E2E2E2E2E2E2E2E2E2E2E2E2E2E2E2E2E2E2E2E2E2E2E2E2E2E2E2E2E2E2E2E2E2E2E2E2E2E2E2E2E2E2E2E2E2E2E2E2E2E2E2E2E2E2E2E2E2E2E2E2E2E2E2E2E2E2E2E2E2E2E2E2E2E2E2E2E2E2E2E2E2E2E2E2E2E2E2E2E2E2E2E2E2E2E2E2E2E2E2E2E2
310
E2E2E2E2E2E2BEBEBEBEBEBEBEBEBEBEBEBEBEBEBEBEBEBEBEBEBEBEBEBEBEBEBEBEBEBEBEBEBEBEBEBEBEBEBEBEBEBEBEBEBEBEBEBEBEBEBEBEBEBEBEBEBEBEBEBEBEBEBEBEBEBEBEBEBEBEBEBEBEBEBEBEBEBEBEBEBEBEBEBEBEBEBEBEBEBEE2E2E2E2E2E2E2E2E2E2E2E2E2E2E2E2E2E2E2E2E2E2E2E2E2E2E2E2E2E2E2
310
E2E2E2E2E2E2E2E2E2E2E2E2E2E2E2E2E2E2E2E2E2E2E2E2E2E2E2E2E2E2E2E2E2E2E2E2E2E2E2E2E2E2E2E2E2E2E2E2E2E2E2E2E2E2E2E2E2E2E2E2E2E2E2E2E2E2E2E2E2E2E2E2E2E2E2E2E2E2E2E2E2E2E2E2E2E2E2E2E2E2E2E2E2E2E2E2E2E2E2E2E2E2E2E2E2E2E2E2E2E2E2E2E2E2E2E2E2E2E2E2E2E2E2E2E2E2E2
310
E2E2E2E2E2E2E2E2BEE2E2E2E2E2E2E2E2E2E2E2E2E2E2E2E2E2E2E2E2E2E2E2E2E2E2E2E2E2E2E2E2E2E2E2E2E2E2E2E2E2E2E2E2E2E2E2E2E2E2E2E2E2E2E2E2E2E2E2E2E2E2E2E2E2E2E2E2E2E2E2E2E2E2E2E2E2E2E2E2E2E2E2E2E2E2E2E2BEE2E2E2E2E2E2E2E2E2E2E2E2E2E2E2E2E2E2E2E2E2E2E2E2E2E2E2E2E2
310
E2E2E2E2E2E2E2E2E2E2E2E2E2E2E2E2E2E2E2E2E2E2E2E2E2E2E2E2E2E2E2E2E2E2E2E2E2E2E2E2E2E2E2E2E2E2E2E2E2E2E2E2E2E2E2E2E2E2E2E2E2E2E2E2E2E2E2E2E2E2E2E2E2E2E2E2E2E2E2E2E2E2E2E2E2E2E2E2E2E2E2E2E2E2E2E2E2E2E2E2E2E2E2E2E2E2E2E2E2E2E2E2E2E2E2E2E2E2E2E2E2E2E2E2E2E2E2
310
E2E2E2E2E2E2E2E2E2E2BEE2E2E2E2E2E2E2E2DCDCDCDCDCDCDCDCDCDCDCDCDCDCDCDCDCDCDCDCDCDCDCDCDCDCDCDCDCDCDCDCDCDCDCDCDCDCDCDCDCDCDCDCDCDCDCDCDCDCDCDCDCDCDCDCDCDCDCDCDCDCDCDCDCDCDCDCDCDCDCDCDCDCDCDCDCC3E2E2BEE2E2E2E2E2E2E2E2E2E2E2E2E2E2E2E2E2E2E2E2E2E2E2E2E2E2E2
310
E2E2E2E2E2E2E2E2E2E2E2E2E2E2E2E2E2E2E2E2E2E2E2E2E2E2E2E2E2E2E2E2E2E2E2E2E2E2E2E2E2E2E2E2E2E2E2E2E2E2E2E2E2E2E2E2E2E2E2E2E2E2E2E2E2E2E2E2E2E2E2E2E2E2E2E2E2E2E2E2E2E2E2E2E2E2E2E2E2E2E2E2E2E2E2E2E2E2E2E2E2E2E2E2E2E2E2E2E2E2E2E2E2E2E2E2E2E2E2E2E2E2E2E2E2E2E2
310
E2E2E2E2E2E2E2E2E2E2E2E2BEE2E2E2E2E2E2E2E2DCDCDCE2DCDCDCDCDCDCE2E2E2E2E2E2E2E2E2E2E2E2E2E2E2E2E2E2E2E2E2E2E2E2E2E2E2E2E2DCE2E2E2DCDCDCE2E2E2DCDCDCDCDCDCDCDCDCE2E2E2E2BEE2E2E2E2E2E2E2DCDCDCDCDCE2E2DCE2E2BEE2E2E2E2E2E2E2E2E2E2E2E2E2E2E2E2E2E2E2E2E2E2E2E2E2
310
E2E2E2E2E2E2E2E2E2E2E2E2E2E2E2E2E2E2E2E2E2E2E2E2E2E2E2E2E2E2E2E2E2E2E2E2E2E2E2E2E2E2E2E2E2E2E2E2E2E2E2E2E2E2E2E2E2E2E2E2E2E2E2E2E2E2E2E2E2E2E2E2E2E2E2E2E2E2E2E2E2E2E2E2E2E2E2E2E2E2E2E2E2E2E2E2E2E2E2E2E2E2E2E2E2E2E2E2E2E2E2E2E2E2E2E2E2E2E2E2E2E2E2E2E2E2E2
310
E2E2E2E2E2E2E2E2E2E2E2E2E2E2BEE2E2E2E2E2E2E2E2DCDCDCE2DCDCDCDCDCDCE2E2E2E2E2E2E2E2E2E2E2E2E2E2E2E2E2E2E2E2E2E2E2E2E2E2E2E2E2DCE2E2E2DCDCDCE2E2E2DCDCDCDCDCDCDCDCDCDCE2E2E2DCE2E2E2E2E2E2E2DCDCE2DCDCE2E2DCE2E2BEE2E2E2E2E2E2E2E2E2E2E2E2E2E2E2E2E2E2E2E2E2E2E2
310
E2E2E2E2E2E2E2E2E2E2E2E2E2E2E2E2E2E2E2E2E2E2E2E2E2E2E2E2E2E2E2E2E2E2E2E2E2E2E2E2E2E2E2E2E2E2E2E2E2E2E2E2E2E2E2E2E2E2E2E2E2E2E2E2E2E2E2E2E2E2E2E2E2E2E2E2E2E2E2E2E2E2E2E2E2E2E2E2E2E2E2E2E2E2E2E2E2E2E2E2E2E2E2E2E2E2E2E2E2E2E2E2E2E2E2E2E2E2E2E2E2E2E2E2E2E2E2
310
E2E2E2E2E2E2E2E2E2E2E2E2E2E2E2E2BEE2E2E2E2E2E2E2E2F5F5F5F5F5F5F5F5F5F5F5F5F5F5E2E2E2E2E2E2E2E2E2E2E2E2E2E2E2E2E2E2E2E2E2E2E2E2E2DCF5F5F5F5F5F5F5E2E2DCF5F5F5F5F5F5F5F5E2E2E2E2F5F5F5F5F5F5F5F5F5F5F5F5DCF5F5F5E2E2BEE2E2E2E2E2E2E2E2E2E2E2E2E2E2E2E2E2E2E2E2E2
310
E2E2E2E2E2E2E2E2E2E2E2E2E2E2E2E2E2E2E2E2E2E2E2E2E2E2E2E2E2E2E2E2E2E2E2E2E2E2E2E2E2E2E2E2E2E2E2E2E2E2E2E2E2E2E2E2E2E2E2E2E2E2E2E2E2E2E2E2E2E2E2E2E2E2E2E2E2E2E2E2E2E2E2E2E2E2E2E2E2E2E2E2E2E2E2E2E2E2E2E2E2E2E2E2E2E2E2E2E2E2E2E2E2E2E2E2E2E2E2E2E2E2E2E2E2E2E2
310
E2E2E2E2E2E2E2E2E2E2E2E2E2E2E2E2E2E2BEE2E2E2E2E2E2E2E2DCF5F5F5F5F5F5F5F5F5F5F5F5F5E2E2E2E2E2E2E2E2E2E2E2E2E2E2E2E2E2E2E2E2E2E2E2E2E2DCF5F5F5F5F5F5F5E2E2DCF5F5F5F5F5F5F5F5E2E2E2E2F5F5F5F5F5F5F5F5F5F5F5F5DCF5F5F5E2E2BEE2E2E2E2E2E2E2E2E2E2E2E2E2E2E2E2E2E2E2
310
E2E2E2E2E2E2E2E2E2E2E2E2E2E2E2E2E2E2E2E2E2E2E2E2E2E2E2E2E2E2E2E2E2E2E2E2E2E2E2E2E2E2E2E2E2E2E2E2E2E2E2E2E2E2E2E2E2E2E2E2E2E2E2E2E2E2E2E2E2E2E2E2E2E2E2E2E2E2E2E2E2E2E2E2E2E2E2E2E2E2E2E2E2E2E2E2E2E2E2E2E2E2E2E2E2E2E2E2E2E2E2E2E2E2E2E2E2E2E2E2E2E2E2E2E2E2E2
310
E2E2E2E2E2E2E2E2E2E2E2E2E2E2E2E2E2E2E2E2BEE2E2E2E2E2E2E2E2F5F5F5F5F5F5F5F5F5F5F5F5F5F5BEBEBEBEBEBEBEBEF5F5F5F5F5F5BEBEBEBEBEBEBEDCDCDCDCDCDCDCDCDCDCDCDCDCDCDCDCDCDCDCDCDCDCDCDCDCDCDCDCDCDCDCDCDCDCDCDCDCDCDCDCDCDCDCE2E2BEE2E2E2E2E2E2E2E2E2E2E2E2E2E2E2E2E2
310
E2E2E2E2E2E2E2E2E2E2E2E2E2E2E2E2E2E2E2E2E2E2E2E2E2E2E2E2E2E2E2E2E2E2E2E2E2E2E2E2E2E2E2E2E2E2E2E2E2E2E2E2E2E2E2E2E2E2E2E2E2E2E2E2E2E2E2E2E2E2E2E2E2E2E2E2E2E2E2E2E2E2E2E2E2E2E2E2E2E2E2E2E2E2E2E2E2E2E2E2E2E2E2E2E2E2E2E2E2E2E2E2E2E2E2E2E2E2E2E2E2E2E2E2E2E2E2
310
E2E2E2E2E2E2E2E2E2E2E2E2E2E2E2E2E2E2E2E2E2E2BEE2E2E2E2E2E2E2E2F5F5F5F5F5F5F5F5F5F5F5F5F5F5BEBEBEBEBEBEBEBEE2F5F5F5F5F5BEBEBEBEBEBEBEE2E2E2E2E2E2E2E2E2E2E2E2E2E2E2E2E2E2E2E2E2E2DCE22D2D2D2D2D2D2D2D2D2D2D2D2D2D2D2D2DE2DCE2E2BEE2E2E2E2E2E2E2E2E2E2E2E2E2E2E2
310
E2E2E2E2E2E2E2E2E2E2E2E2E2E2E2E2E2E2E2E2E2E2E2E2E2E2E2E2E2E2E2E2E2E2E2E2E2E2E2E2E2E2E2E2E2E2E2E2E2E2E2E2E2E2E2E2E2E2E2E2E2E2E2E2E2E2E2E2E2E2E2E2E2E2E2E2E2E2E2E2E2E2E2E2E2E2E2E2E2E2E2E2E2E2E2E2E2E2E2E2E2E2E2E2E2E2E2E2E2E2E2E2E2E2E2E2E2E2E2E2E2E2E2E2E2E2E2
310
E2E2E2E2E2E2E2E2E2E2E2E2E2E2E2E2E2E2E2E2E2E2E2E2BEE2E2E2E2E2E2E2E2DCDCDCDCDCDCDCDCDCDCDCDCDCDCDCDCDCDCDCDCDCDCDCDCDCDCDCDCDCDCDCDCDCDCDCDCDCDCDCDCDCDCDCDCDCDCDCDCDCDCDCDCDCDCDCDCDCDCE2E2E2E2E2E2E2E2E22D2D2D2D2D2DE22D2DE2DCE2E2BEE2E2E2E2E2E2E2E2E2E2E2E2E2
310
E2E2E2E2E2E2E2E2E2E2E2E2E2E2E2E2E2E2E2E2E2E2E2E2E2E2E2E2E2E2E2E2E2E2E2E2E2E2E2E2E2E2E2E2E2E2E2E2E2E2E2E2E2E2E2E2E2E2E2E2E2E2E2E2E2E2E2E2E2E2E2E2E2E2E2E2E2E2E2E2E2E2E2E2E2E2E2E2E2E2E2E2E2E2E2E2E2E2E2E2E2E2E2E2E2E2E2E2E2E2E2E2E2E2E2E2E2E2E2E2E2E2E2E2E2E2E2
310
E2E2E2E2E2E2E2E2E2E2E2E2E2E2E2E2E2E2E2E2E2E2E2E2E2E2BEE2E2E2E2E2E2E2E2DCE2E2E2E2E2E2E2E2E2E2E2E2E2E2E2E2E2E2E2E2E2E2E2E2E2E2E2E2E2E2E2E2E2E2E2E2E2E2E2E2E2E2E2E2E2E2E2E2E2E2E2E2E2E2E2E2DCE2E2E2E22D2D2D2D2D2D2D2D2D2D2D2D2D2DE2DCE2E2BEE2E2E2E2E2E2E2E2E2E2E2
310
E2E2E2E2E2E2E2E2E2E2E2E2E2E2E2E2E2E2E2E2E2E2E2E2E2E2E2E2E2E2E2E2E2E2E2E2E2E2E2E2E2E2E2E2E2E2E2E2E2E2E2E2E2E2E2E2E2E2E2E2E2E2E2E2E2E2E2E2E2E2E2E2E2E2E2E2E2E2E2E2E2E2E2E2E2E2E2E2E2E2E2E2E2E2E2E2E2E2E2E2E2E2E2E2E2E2E2E2E2E2E2E2E2E2E2E2E2E2E2E2E2E2E2E2E2E2E2
310
E2E2E2E2E2E2E2E2E2E2E2E2E2E2E2E2E2E2E2E2E2E2E2E2E2E2E2E2BEE2E2E2E2E2E2E2E2F5F5F5F5F5F5F5F5F5BEBEBEBEBEBEBEBEBEBEBEBEBEBEBEBEBEBEBEBEBEBEBEBEBEBEBEBEBEBEBEBEBEBEBEBEBEBEBEBEBEBEBEBEBEBEBEBEBEE2E2E2E22D2D2D2D2D2D2D2D2D2D2D2D2DE2E2DCE2E2BEE2E2E2E2E2E2E2E2E2
310
E2E2E2E2E2E2E2E2E2E2E2E2E2E2E2E2E2E2E2E2E2E2E2E2E2E2E2E2E2E2E2E2E2E2E2E2E2E2E2E2E2E2E2E2E2E2E2E2E2E2E2E2E2E2E2E2E2E2E2E2E2E2E2E2E2E2E2E2E2E2E2E2E2E2E2E2E2E2E2E2E2E2E2E2E2E2E2E2E2E2E2E2E2E2E2E2E2E2E2E2E2E2E2E2E2E2E2E2E2E2E2E2E2E2E2E2E2E2E2E2E2E2E2E2E2E2E2
310
E2E2E2E2E2E2E2E2E2E2E2E2E2E2E2E2E2E2E2E2E2E2E2E2E2E2E2E2E2E2BEE2E2E2E2E2E2E2E2DCF5F5F5F5F5F5F5F5E2E2E2E2E2E2E2E2E2E2E2E2E2E2E2E2E2E2E2E2E2E2E2E2E2E2E2E2E2E2E2E2E2E2E2E2E2E2E2E2E2E2E2E2E2E2E2E2DCE2E2E22D2D2D2D2DE22D2D2D2D2D2D2D2DE2E2DCE2E2BEE2E2E2E2E2E2E2
310
E2E2E2E2E2E2E2E2E2E2E2E2E2E2E2E2E2E2E2E2E2E2E2E2E2E2E2E2E2E2E2E2E2E2E2E2E2E2E2E2E2E2E2E2E2E2E2E2E2E2E2E2E2E2E2E2E2E2E2E2E2E2E2E2E2E2E2E2E2E2E2E2E2E2E2E2E2E2E2E2E2E2E2E2E2E2E2E2E2E2E2E2E2E2E2E2E2E2E2E2E2E2E2E2E2E2E2E2E2E2E2E2E2E2E2E2E2E2E2E2E2E2E2E2E2E2E2
310
E2E2E2E2E2E2E2E2E2E2E2E2E2E2E2E2E2E2E2E2E2E2E2E2E2E2E2E2E2E2E2E2BEE2E2E2E2E2E2E2E2DCDCDCDCDCDCDCDCDCDCDCDCDCDCDCDCDCDCDCDCDCDCDCDCDCDCDCDCDCDCDCDCDCDCDCDCDCDCDCDCDCDCDCDCDCDCDCDCDCDCDCDCDCDCDCDCDCDCDCDCDCDCDCDCDCDCDCDCDCDCDCDCDCDCDCDCDCDCE2E2BEE2E2E2E2E2
310
E2E2E2E2E2E2E2E2E2E2E2E2E2E2E2E2E2E2E2E2E2E2E2E2E2E2E2E2E2E2E2E2E2E2E2E2E2E2E2E2E2E2E2E2E2E2E2E2E2E2E2E2E2E2E2E2E2E2E2E2E2E2E2E2E2E2E2E2E2E2E2E2E2E2E2E2E2E2E2E2E2E2E2E2E2E2E2E2E2E2E2E2E2E2E2E2E2E2E2E2E2E2E2E2E2E2E2E2E2E2E2E2E2E2E2E2E2E2E2E2E2E2E2E2E2E2E2
310
E2E2E2E2E2E2E2E2E2E2E2E2E2E2E2E2E2E2E2E2E2E2E2E2E2E2E2E2E2E2E2E2E2E2BEE2E2E2E2E2E2E2E2DCE2E2E2E2E2E2E2E2E2E2E2E2E2E2E2E2E2E2E2E2E2E2E2E2E2E2E2E2E2E2E2E2E2E2E2E2E2BEE2E2E2E2E2E2E2E2E2E2E2E2E2E2E2E2E2E2E2E2E2E2E2E2E2E2E2E2E2E2E2E2E2E2E2E2E2E2DCE2E2BEE2E2E2
310
E2E2E2E2E2E2E2E2E2E2E2E2E2E2E2E2E2E2E2E2E2E2E2E2E2E2E2E2E2E2E2E2E2E2E2E2E2E2E2E2E2E2E2E2E2E2E2E2E2E2E2E2E2E2E2E2E2E2E2E2E2E2E2E2E2E2E2E2E2E2E2E2E2E2E2E2E2E2E2E2E2E2E2E2E2E2E2E2E2E2E2E2E2E2E2E2E2E2E2E2E2E2E2E2E2E2E2E2E2E2E2E2E2E2E2E2E2E2E2E2E2E2E2E2E2E2E2
310
E2E2E2E2E2E2E2E2E2E2E2E2E2E2E2E2E2E2E2E2E2E2E2E2E2E2E2E2E2E2E2E2E2E2E2E2BEE2E2E2E2E2E2E2E2DCF5F5F5F5E2E2E2E2E2E2E2E2E2E2E2E2E2E2E2E2E2E2E2E2E2E2E2E2E2E2E2E2E2E2E2E2E2F5F5F5F5E2E2E2E2E2E2E2E2E2E2E2E2E2E2E2E2E2E2E2E2E2E2E2E2E2E2E2E2E2E2E2E2E2E2E2DCE2E2BEE2
310
E2E2E2E2E2E2E2E2E2E2E2E2E2E2E2E2E2E2E2E2E2E2E2E2E2E2E2E2E2E2E2E2E2E2E2E2E2E2E2E2E2E2E2E2E2E2E2E2E2E2E2E2E2E2E2E2E2E2E2E2E2E2E2E2E2E2E2E2E2E2E2E2E2E2E2E2E2E2E2E2E2E2E2E2E2E2E2E2E2E2E2E2E2E2E2E2E2E2E2E2E2E2E2E2E2E2E2E2E2E2E2E2E2E2E2E2E2E2E2E2E2E2E2E2E2E2E2
310
E2E2E2E2E2E2E2E2E2E2E2E2E2E2E2E2E2E2E2E2E2E2E2E2E2E2E2E2E2E2E2E2E2E2E2E2E2E2BEE2E2E2E2E2E2E2E2DCF5F5F5F5E2E2E2E2E2E2E2E2E2E2E2E2E2E2E2E2E2E2E2E2E2E2E2E2E2E2E2E2E2E2E2E2E2F5F5F5F5E2E2E2E2E2E2E2E2E2E2E2E2E2E2E2E2E2E2E2E2E2E2E2E2E2E2E2E2E2E2E2E2E2E2E2DCE2E2
310
BEE2E2E2E2E2E2E2E2E2E2E2E2E2E2E2E2E2E2E2E2E2E2E2E2E2E2E2E2E2E2E2E2E2E2E2E2E2E2E2E2E2E2E2E2E2E2E2E2E2E2E2E2E2E2E2E2E2E2E2E2E2E2E2E2E2E2E2E2E2E2E2E2E2E2E2E2E2E2E2E2E2E2E2E2E2E2E2E2E2E2E2E2E2E2E2E2E2E2E2E2E2E2E2E2E2E2E2E2E2E2E2E2E2E2E2E2E2E2E2E2E2E2E2E2E2E2
310
E2E2E2E2E2E2E2E2E2E2E2E2E2E2E2E2E2E2E2E2E2E2E2E2E2E2E2E2E2E2E2E2E2E2E2E2E2E2E2E2BEE2E2E2E2E2E2E2E2DCBEBEBEBEBEBEBEBEBEBEBEBEBEBEBEBEBEBEBEBEBEBEBEBEBEBEBEBEBEBEBEBEBEBEBEBEBEDCBEBEBEBEBEBEBEBEBEBEBEBEBEBEBEBEBEBEBEBEBEBEBEBEBEBEBEBEBEBEBEBEBEBEBEBEBEBEBE
310
E2E2BEE2E2E2E2E2E2E2E2E2E2E2E2E2E2E2E2E2E2E2E2E2E2E2E2E2E2E2E2E2E2E2E2E2E2E2E2E2E2E2E2E2E2E2E2E2E2E2E2E2E2E2E2E2E2E2E2E2E2E2E2E2E2E2E2E2E2E2E2E2E2E2E2E2E2E2E2E2E2E2E2E2E2E2E2E2E2E2E2E2E2E2E2E2E2E2E2E2E2E2E2E2E2E2E2E2E2E2E2E2E2E2E2E2E2E2E2E2E2E2E2E2E2E2E2
310
E2E2E2E2E2E2E2E2E2E2E2E2E2E2E2E2E2E2E2E2E2E2E2E2E2E2E2E2E2E2E2E2E2E2E2E2E2E2E2E2E2E2BEE2E2E2E2E2E2E2E2DCDCE2E2E2E2E2E2E2E2E2E2E2E2E2E2E2E2E2E2E2E2E2E2E2E2E2E2E2E2E2E2E2E2E2E2E2E2DCE2E2E2E2E2E2E2E2E2E2E2E2E2E2E2E2E2E2E2E2E2E2E2E2E2E2E2E2E2E2E2E2E2E2E2E2E2
310
E2DCE2E2BEE2E2E2E2E2E2E2E2E2E2E2E2E2E2E2E2E2E2E2E2E2E2E2E2E2E2E2E2E2E2E2E2E2E2E2E2E2E2E2E2E2E2E2E2E2E2E2E2E2E2E2E2E2E2E2E2E2E2E2E2E2E2E2E2E2E2E2E2E2E2E2E2E2E2E2E2E2E2E2E2E2E2E2E2E2E2E2E2E2E2E2E2E2E2E2E2E2E2E2E2E2E2E2E2E2E2E2E2E2E2E2E2E2E2E2E2E2E2E2E2E2E2
310
E2E2E2E2E2E2E2E2E2E2E2E2E2E2E2E2E2E2E2E2E2E2E2E2E2E2E2E2E2E2E2E2E2E2E2E2E2E2E2E2E2E2E2E2BEE2E2E2E2E2E2E2E2DCE2E2E2E2E2E2E2E2E2E2E2E2E2E2E2E2E2E2E2E2E2E2E2E2E2E2E2E2E2E2E2E2E2E2E2E2E2BEE2E2F5E2E2E2E2E2E2E2E2E2E2E2E2E2E2E2E2E2E2E2E2E2E2E2E2E2E2E2E2E2E2E2E2
310
E2E2E2DCE2E2BEE2E2E2E2E2E2E2E2E2E2E2E2E2E2E2E2E2E2E2E2E2E2E2E2E2E2E2E2E2E2E2E2E2E2E2E2E2E2E2E2E2E2E2E2E2E2E2E2E2E2E2E2E2E2E2E2E2E2E2E2E2E2E2E2E2E2E2E2E2E2E2E2E2E2E2E2E2E2E2E2E2E2E2E2E2E2E2E2E2E2E2E2E2E2E2E2E2E2E2E2E2E2E2E2E2E2E2E2E2E2E2E2E2E2E2E2E2E2E2E2
310
E2E2E2E2E2E2E2E2E2E2E2E2E2E2E2E2E2E2E2E2E2E2E2E2E2E2E2E2E2E2E2E2E2E2E2E2E2E2E2E2E2E2E2E2E2E2BEE2E2E2E2E2E2E2E2F5F5F5F5F5F5E2E2E2E2E2E2E2E2E2E2E2E2E2E2E2E2E2E2E2E2E2E2E2E2E2E2E2E2E2E2E2E2F5F5F5F5F5F5F5E2E2E2E2E2E2E2E2E2E2E2E2E2E2E2E2E2E2E2E2E2E2E2E2E2E2E2
310
E2E2E2E2E2DCE2E2BEE2E2E2E2E2E2E2E2E2E2E2E2E2E2E2E2E2E2E2E2E2E2E2E2E2E2E2E2E2E2E2E2E2E2E2E2E2E2E2E2E2E2E2E2E2E2E2E2E2E2E2E2E2E2E2E2E2E2E2E2E2E2E2E2E2E2E2E2E2E2E2E2E2E2E2E2E2E2E2E2E2E2E2E2E2E2E2E2E2E2E2E2E2E2E2E2E2E2E2E2E2E2E2E2E2E2E2E2E2E2E2E2E2E2E2E2E2E2
310
E2E2E2E2E2E2E2E2E2E2E2E2E2E2E2E2E2E2E2E2E2E2E2E2E2E2E2E2E2E2E2E2E2E2E2E2E2E2E2E2E2E2E2E2E2E2E2E2BEE2E2E2E2E2E2E2E2DCF5DCDCF5DCDCDCDCDCDCDCDCDCDCDCDCDCDCDCDCDCDCDCDCDCDCDCDCDCDCDCDCDCDCDCDCDCDCF5DCF5DCF5F5DCDCDCDCDCDCDCDCDCDCDCDCDCDCDCDCDCDCDCDCDCDCDCDCDC
310
DCDCDCDCDCDCDCDCE2E2BEE2E2E2E2E2E2E2E2E2E2E2E2E2E2E2E2E2E2E2E2E2E2E2E2E2E2E2E2E2E2E2E2E2E2E2E2E2E2E2E2E2E2E2E2E2E2E2E2E2E2E2E2E2E2E2E2E2E2E2E2E2E2E2E2E2E2E2E2E2E2E2E2E2E2E2E2E2E2E2E2E2E2E2E2E2E2E2E2E2E2E2E2E2E2E2E2E2E2E2E2E2E2E2E2E2E2E2E2E2E2E2E2E2E2E2E2
310
E2E2E2E2E2E2E2E2E2E2E2E2E2E2E2E2E2E2E2E2E2E2E2E2E2E2E2E2E2E2E2E2E2E2E2E2E2E2E2E2E2E2E2E2E2E2E2E2E2E2BEE2E2E2E2E2E2E2E2DCE2E2E2E2E2E2E2E2E2E2E2E2E2E2E2E2E2E2E2E2E2E2E2E2E2E2E2E2E2E2E2E2E2E2E2E2E2E2E2E2E2E2E2E2E2E2E2E2E2E2E2E2E2E2E2E2E2E2E2E2E2E2E2E2E2E2E2
310
E2E2E2E2E2E2E2E2E2DCE2E2BEE2E2E2E2E2E2E2E2E2E2E2E2E2E2E2E2E2E2E2E2E2E2E2E2E2E2E2E2E2E2E2E2E2E2E2E2E2E2E2E2E2E2E2E2E2E2E2E2E2E2E2E2E2E2E2E2E2E2E2E2E2E2E2E2E2E2E2E2E2E2E2E2E2E2E2E2E2E2E2E2E2E2E2E2E2E2E2E2E2E2E2E2E2E2E2E2E2E2E2E2E2E2E2E2E2E2E2E2E2E2E2E2E2E2
310
E2E2E2E2E2E2E2E2E2E2E2E2E2E2E2E2E2E2E2E2E2E2E2E2E2E2E2E2E2E2E2E2E2E2E2E2E2E2E2E2E2E2E2E2E2E2E2E2E2E2E2E2BEE2E2E2E2E2E2E2E2DCE2E2E2E2E2E2E2E2E2E2E2E2E2E2E2E2E2E2E2E2E2E2E2E2E2E2E2E2E2E2E2E2E2E2E2E2E2E2E2E2E2E2E2E2E2E2E2E2E2E2E2E2E2E2E2E2E2E2E2E2E2E2E2E2E2
310
E2E2E2E2E2E2E2E2E2E2E2DCE2E2BEE2E2E2E2E2E2E2E2E2E2E2E2E2E2E2E2E2E2E2E2E2E2E2E2E2E2E2E2E2E2E2E2E2E2E2E2E2E2E2E2E2E2E2E2E2E2E2E2E2E2E2E2E2E2E2E2E2E2E2E2E2E2E2E2E2E2E2E2E2E2E2E2E2E2E2E2E2E2E2E2E2E2E2E2E2E2E2E2E2E2E2E2E2E2E2E2E2E2E2E2E2E2E2E2E2E2E2E2E2E2E2E2
310
E2E2E2E2E2E2E2E2E2E2E2E2E2E2E2E2E2E2E2E2E2E2E2E2E2E2E2E2E2E2E2E2E2E2E2E2E2E2E2E2E2E2E2E2E2E2E2E2E2E2E2E2E2E2BEE2E2E2E2E2E2E2E2DCE2E2E2E2E2E2E2E2E2E2E2E2E2E2E2E2E2E2E2E2E2E2E2E2E2E2E2E2E2E2E2E2E2E2E2E2E2E2E2E2E2E2E2E2E2E2E2E2E2E2E2E2E2E2E2E2E2E2E2E2E2E2E2
310
E2E2E2E2E2E2E2E2E2E2E2E2E2DCE2E2BEE2E2E2E2E2E2E2E2E2E2E2E2E2E2E2E2E2E2E2E2E2E2E2E2E2E2E2E2E2E2E2E2E2E2E2E2E2E2E2E2E2E2E2E2E2E2E2E2E2E2E2E2E2E2E2E2E2E2E2E2E2E2E2E2E2E2E2E2E2E2E2E2E2E2E2E2E2E2E2E2E2E2E2E2E2E2E2E2E2E2E2E2E2E2E2E2E2E2E2E2E2E2E2E2E2E2E2E2E2E2
310
E2E2E2E2E2E2E2E2E2E2E2E2E2E2E2E2E2E2E2E2E2E2E2E2E2E2E2E2E2E2E2E2E2E2E2E2E2E2E2E2E2E2E2E2E2E2E2E2E2E2E2E2E2E2E2E2BEE2E2E2E2E2E2E2E2DCE2E2E2E2E2E2E2E2E2E2E2E2E2E2E2E2E2E2E2E2E2E2E2E2E2E2E2E2E2E2E2E2E2E2E2E2E2E2E2E2E2E2E2E2E2E2E2E2E2E2E2E2E2E2E2E2E2E2E2E2E2
310
E2E2E2E2E2E2E2E2E2E2E2E2E2E2E2DCE2E2BEE2E2E2E2E2E2E2E2E2E2E2E2E2E2E2E2E2E2E2E2E2E2E2E2E2E2E2E2E2E2E2E2E2E2E2E2E2E2E2E2E2E2E2E2E2E2E2E2E2E2E2E2E2E2E2E2E2E2E2E2E2E2E2E2E2E2E2E2E2E2E2E2E2E2E2E2E2E2E2E2E2E2E2E2E2E2E2E2E2E2E2E2E2E2E2E2E2E2E2E2E2E2E2E2E2E2E2E2
310
E2E2E2E2E2E2E2E2E2E2E2E2E2E2E2E2E2E2E2E2E2E2E2E2E2E2E2E2E2E2E2E2E2E2E2E2E2E2E2E2E2E2E2E2E2E2E2E2E2E2E2E2E2E2E2E2E2E2BEE2E2E2E2E2E2E2E2DCE2E2E2E2E2E2E2E2E2E2E2E2E2E2E2E2E2E2E2E2E2E2E2E2E2E2E2E2E2E2E2E2E2E2E2E2E2E2E2E2E2E2E2E2E2E2E2E2E2E2E2E2E2E2E2E2E2E2E2
310
E2E2E2E2E2E2E2E2E2E2E2E2E2E2E2E2E2DCE2E2BEE2E2E2E2E2E2E2E2E2E2E2E2E2E2E2E2E2E2E2E2E2E2E2E2E2E2E2E2E2E2E2E2E2E2E2E2E2E2E2E2E2E2E2E2E2E2E2E2E2E2E2E2E2E2E2E2E2E2E2E2E2E2E2E2E2E2E2E2E2E2E2E2E2E2E2E2E2E2E2E2E2E2E2E2E2E2E2E2E2E2E2E2E2E2E2E2E2E2E2E2E2E2E2E2E2E2
310
E2E2E2E2E2E2E2E2E2E2E2E2E2E2E2E2E2E2E2E2E2E2E2E2E2E2E2E2E2E2E2E2E2E2E2E2E2E2E2E2E2E2E2E2E2E2E2E2E2E2E2E2E2E2E2E2E2E2E2E2BEE2E2E2E2E2E2E2E2DCE2E2E2E2E2E2E2E2E2E2E2E2E2E2E2E2E2E2E2E2E2E2E2E2E2E2E2E2E2E2E2E2E2E2E2E2E2E2E2E2E2E2E2E2E2E2E2E2E2E2E2E2E2E2E2E2E2
310
E2E2E2E2E2E2E2E2E2E2E2E2E2E2E2E2E2E2E2DCE2E2BEE2E2E2E2E2E2E2E2E2E2E2E2E2E2E2E2E2E2E2E2E2E2E2E2E2E2E2E2E2E2E2E2E2E2E2E2E2E2E2E2E2E2E2E2E2E2E2E2E2E2E2E2E2E2E2E2E2E2E2E2E2E2E2E2E2E2E2E2E2E2E2E2E2E2E2E2E2E2E2E2E2E2E2E2E2E2E2E2E2E2E2E2E2E2E2E2E2E2E2E2E2E2E2E2
310
E2E2E2E2E2E2E2E2E2E2E2E2E2E2E2E2E2E2E2E2E2E2E2E2E2E2E2E2E2E2E2E2E2E2E2E2E2E2E2E2E2E2E2E2E2E2E2E2E2E2E2E2E2E2E2E2E2E2E2E2E2E2BEE2E2E2E2E2E2E2E2DCE2E2E2E2E2E2E2E2E2E2E2E2E2E2E2E2E2E2E2E2E2E2E2E2E2E2E2E2E2E2E2E2E2E2E2E2E2E2E2E2E2E2E2E2E2E2E2E2E2E2E2E2E2E2E2
310
E2E2E2E2E2E2E2E2E2E2E2E2E2E2E2E2E2E2E2E2E2DCE2E2BEE2E2E2E2E2E2E2E2E2E2E2E2E2E2E2E2E2E2E2E2E2E2E2E2E2E2E2E2E2E2E2E2E2E2E2E2E2E2E2E2E2E2E2E2E2E2E2E2E2E2E2E2E2E2E2E2E2E2E2E2E2E2E2E2E2E2E2E2E2E2E2E2E2E2E2E2E2E2E2E2E2E2E2E2E2E2E2E2E2E2E2E2E2E2E2E2E2E2E2E2E2E2
310
E2E2E2E2E2E2E2E2E2E2E2E2E2E2E2E2E2E2E2E2E2E2E2E2E2E2E2E2E2E2E2E2E2E2E2E2E2E2E2E2E2E2E2E2E2E2E2E2E2E2E2E2E2E2E2E2E2E2E2E2E2E2E2E2BEE2E2E2E2E2E2E2E2DCE2E2E2E2E2E2E2E2E2E2E2E2E2E2E2E2E2E2E2E2E2E2E2E2E2E2E2E2E2E2E2E2E2E2E2E2E2E2E2E2E2E2E2E2E2E2E2E2E2E2E2E2E2
310
E2E2E2E2E2E2E2E2E2E2E2E2E2E2E2E2E2E2E2E2E2E2E2DCE2E2BEE2E2E2E2E2E2E2E2E2E2E2E2E2E2E2E2E2E2E2E2E2E2E2E2E2E2E2E2E2E2E2E2E2E2E2E2E2E2E2E2E2E2E2E2E2E2E2E2E2E2E2E2E2E2E2E2E2E2E2E2E2E2E2E2E2E2E2E2E2E2E2E2E2E2E2E2E2E2E2E2E2E2E2E2E2E2E2E2E2E2E2E2E2E2E2E2E2E2E2E2
310
E2E2E2E2E2E2E2E2E2E2E2E2E2E2E2E2E2E2E2E2E2E2E2E2E2E2E2E2E2E2E2E2E2E2E2E2E2E2E2E2E2E2E2E2E2E2E2E2E2E2E2E2E2E2E2E2E2E2E2E2E2E2E2E2E2E2BEE2E2E2E2E2E2E2E2DCE2E2E2E2E2E2E2E2E2E2E2E2E2E2E2E2E2E2E2E2E2E2E2E2E2E2E2E2E2E2E2E2E2E2E2E2E2E2E2E2E2E2E2E2E2E2E2E2E2E2E2
310
E2E2E2E2E2E2E2E2E2E2E2E2E2E2E2E2E2E2E2E2E2E2E2E2E2DCE2E2BEE2E2E2E2E2E2E2E2E2E2E2E2E2E2E2E2E2E2E2E2E2E2E2E2E2E2E2E2E2E2E2E2E2E2E2E2E2E2E2E2E2E2E2E2E2E2E2E2E2E2E2E2E2E2E2E2E2E2E2E2E2E2E2E2E2E2E2E2E2E2E2E2E2E2E2E2E2E2E2E2E2E2E2E2E2E2E2E2E2E2E2E2E2E2E2E2E2E2
310
E2E2E2E2E2E2E2E2E2E2E2E2E2E2E2E2E2E2E2E2E2E2E2E2E2E2E2E2E2E2E2E2E2E2E2E2E2E2E2E2E2E2E2E2E2E2E2E2E2E2E2E2E2E2E2E2E2E2E2E2E2E2E2E2E2E2E2E2BEE2E2E2E2E2E2E2E2DCE2E2E2E2E2E2E2E2E2E2E2E2E2E2E2E2E2E2E2E2E2E2E2E2E2E2E2E2E2E2E2E2E2E2E2E2E2E2E2E2E2E2E2E2E2E2E2E2E2
310
E2E2E2E2E2E2E2E2E2E2E2E2E2E2E2E2E2E2E2E2E2E2E2E2E2E2E2DCE2E2BEE2E2E2E2E2E2E2E2E2E2E2E2E2E2E2E2E2E2E2E2E2E2E2E2E2E2E2E2E2E2E2E2E2E2E2E2E2E2E2E2E2E2E2E2E2E2E2E2E2E2E2E2E2E2E2E2E2E2E2E2E2E2E2E2E2E2E2E2E2E2E2E2E2E2E2E2E2E2E2E2E2E2E2E2E2E2E2E2E2E2E2E2E2E2E2E2
310
E2E2E2E2E2E2E2E2E2E2E2E2E2E2E2E2E2E2E2E2E2E2E2E2E2E2E2E2E2E2E2E2E2E2E2E2E2E2E2E2E2E2E2E2E2E2E2E2E2E2E2E2E2E2E2E2E2E2E2E2E2E2E2E2E2E2E2E2E2E2BEE2E2E2E2E2E2E2E2DCE2E2E2E2E2E2E2E2E2E2E2E2E2E2E2E2E2E2E2E2E2E2E2E2E2E2E2E2E2E2E2E2E2E2E2E2E2E2E2E2E2E2E2E2E2E2E2
310
E2E2E2E2E2E2E2E2E2E2E2E2E2E2E2E2E2E2E2E2E2E2E2E2E2E2E2E2E2DCE2E2BEE2E2E2E2E2E2E2E2E2E2E2E2E2E2E2E2E2E2E2E2E2E2E2E2E2E2E2E2E2E2E2E2E2E2E2E2E2E2E2E2E2E2E2E2E2E2E2E2E2E2E2E2E2E2E2E2E2E2E2E2E2E2E2E2E2E2E2E2E2E2E2E2E2E2E2E2E2E2E2E2E2E2E2E2E2E2E2E2E2E2E2E2E2E2
310
E2E2E2E2E2E2E2E2E2E2E2E2E2E2E2E2E2E2E2E2E2E2E2E2E2E2E2E2E2E2E2E2E2E2E2E2E2E2E2E2E2E2E2E2E2E2E2E2E2E2E2E2E2E2E2E2E2E2E2E2E2E2E2E2E2E2E2E2E2E2E2E2BEE2E2E2E2E2E2E2E2DCE2E2E2E2E2E2E2E2E2E2E2E2E2E2F5F5F5F5F5F5F5F5F5F5F5F5F5F5F5F5F5F5F5F5F5F5F5F5E2E2E2E2E2E2E2
310
E2E2E2E2E2E2E2E2E2E2E2E2E2E2E2E2E2E2E2E2E2E2E2E2E2E2E2E2E2E2E2DCE2E2BEE2E2E2E2E2E2E2E2E2E2E2E2E2E2E2E2E2E2E2E2E2E2E2E2E2E2E2E2E2E2E2E2E2E2E2E2E2E2E2E2E2E2E2E2E2E2E2E2E2E2E2E2E2E2E2E2E2E2E2E2E2E2E2E2E2E2E2E2E2E2E2E2E2E2E2E2E2E2E2E2E2E2E2E2E2E2E2E2E2E2E2E2
310
E2E2E2E2E2E2E2E2E2E2E2E2E2E2E2E2E2E2E2E2E2E2E2E2E2E2E2E2E2E2E2E2E2E2E2E2E2E2E2E2E2E2E2E2E2E2E2E2E2E2E2E2E2E2E2E2E2E2E2E2E2E2E2E2E2E2E2E2E2E2E2E2E2E2BEE2E2E2E2E2E2E2E2DCE2E2E2E2E2E2E2E2E2E2E2F5F5F5E2E2E2E2E2E2E2E2E2E2E2E2E2E2E2E2E2E2E2E2E2E2E2E2F5F5F5F5E2
310
E2E2E2E2E2E2E2E2E2E2E2E2E2E2E2E2E2E2E2E2E2E2E2E2E2E2E2E2E2E2E2E2E2DCE2E2BEE2E2E2E2E2E2E2E2E2E2E2E2E2E2E2E2E2E2E2E2E2E2E2E2E2E2E2E2E2E2E2E2E2E2E2E2E2E2E2E2E2E2E2E2E2E2E2E2E2E2E2E2E2E2E2E2E2E2E2E2E2E2E2E2E2E2E2E2E2E2E2E2E2E2E2E2E2E2E2E2E2E2E2E2E2E2E2E2E2E2
310
E2E2E2E2E2E2E2E2E2E2E2E2E2E2E2E2E2E2E2E2E2E2E2E2E2E2E2E2E2E2E2E2E2E2E2E2E2E2E2E2E2E2E2E2E2E2E2E2E2E2E2E2E2E2E2E2E2E2E2E2E2E2E2E2E2E2E2E2E2E2E2E2E2E2E2E2BEE2E2E2E2E2E2E2E2DCE2E2E2E2E2E2E2E2E2E2F5C3C3C3282828282828282828282828282828282828282828282828282828
310
F5E2E2E2E2E2E2E2E2E2E2E2E2E2E2E2E2E2E2E2E2E2E2E2E2E2E2E2E2E2E2E2E2E2E2DCE2E2BEE2E2E2E2E2E2E2E2E2E2E2E2E2E2E2E2E2E2E2E2E2E2E2E2E2E2E2E2E2E2E2E2E2E2E2E2E2E2E2E2E2E2E2E2E2E2E2E2E2E2E2E2E2E2E2E2E2E2E2E2E2E2E2E2E2E2E2E2E2E2E2E2E2E2E2E2E2E2E2E2E2E2E2E2E2E2E2E2
310
E2E2E2E2E2E2E2E2E2E2E2E2E2E2E2E2E2E2E2E2E2E2E2E2E2E2E2E2E2E2E2E2E2E2E2E2E2E2E2E2E2E2E2E2E2E2E2E2E2E2E2E2E2E2E2E2E2E2E2E2E2E2E2E2E2E2E2E2E2E2E2E2E2E2E2E2E2E2BEE2E2E2E2E2E2E2E2DCE2E2E2E2E2E2E2E2E2E2F5C3E2C32828E2E2E2E2E2E2E2E2E2E2E2E2E2E2E2E2E2E2E2E2E2E2E2
310
E228F5E2E2E2E2E2E2E2E2E2E2E2E2E2E2E2E2E2E2E2E2E2E2E2E2E2E2E2E2E2E2E2E2E2E2DCE2E2BEE2E2E2E2E2E2E2E2E2E2E2E2E2E2E2E2E2E2E2E2E2E2E2E2E2E2E2E2E2E2E2E2E2E2E2E2E2E2E2E2E2E2E2E2E2E2E2E2E2E2E2E2E2E2E2E2E2E2E2E2E2E2E2E2E2E2E2E2E2E2E2E2E2E2E2E2E2E2E2E2E2E2E2E2E2E2
310
E2E2E2E2E2E2E2E2E2E2E2E2E2E2E2E2E2E2E2E2E2E2E2E2E2E2E2E2E2E2E2E2E2E2E2E2E2E2E2E2E2E2E2E2E2E2E2E2E2E2E2E2E2E2E2E2E2E2E2E2E2E2E2E2E2E2E2E2E2E2E2E2E2E2E2E2E2E2E2E2BEE2E2E2E2E2E2E2E2DCE2E2E2E2E2E2E2E2E2E2F5C3E2C32828E2E2E2E2E2E2E2E2E2E2E2E2E2E2E2E2E2E2E2E2E2
310
E2E2E228F5E2E2E2E2E2E2E2E2E2E2E2E2E2E2E2E2E2E2E2E2E2E2E2E2E2E2E2E2E2E2E2E2E2E2DCE2E2BEE2E2E2E2E2E2E2E2E2E2E2E2E2E2E2E2E2E2E2E2E2E2E2E2E2E2E2E2E2E2E2E2E2E2E2E2E2E2E2E2E2E2E2E2E2E2E2E2E2E2E2E2E2E2E2E2E2E2E2E2E2E2E2E2E2E2E2E2E2E2E2E2E2E2E2E2E2E2E2E2E2E2E2E2
310
E2E2E2E2E2E2E2E2E2E2E2E2E2E2E2E2E2E2E2E2E2E2E2E2E2E2E2E2E2E2E2E2E2E2E2E2E2E2E2E2E2E2E2E2E2E2E2E2E2E2E2E2E2E2E2E2E2E2E2E2E2E2E2E2E2E2E2E2E2E2E2E2E2E2E2E2E2E2E2E2E2E2BEE2E2E2E2E2E2E2E2DCE2E2E2E2E2E2E2E2E2E2F5C3E2C32828E2E2E2E2E2E2E2E2E2E2E2E2E2E2E2E2E2E2E2
310
E2E2E2E2E228F5E2E2E2E2E2E2E2E2E2E2E2E2E2E2E2E2E2E2E2E2E2E2E2E2E2E2E2E2E2E2E2E2E2E2DCE2E2BEE2E2E2E2E2E2E2E2E2E2E2E2E2E2E2E2E2E2E2E2E2E2E2E2E2E2E2E2E2E2E2E2E2E2E2E2E2E2E2E2E2E2E2E2E2E2E2E2E2E2E2E2E2E2E2E2E2E2E2E2E2E2E2E2E2E2E2E2E2E2E2E2E2E2E2E2E2E2E2E2E2E2
310
E2E2E2E2E2E2E2E2E2E2E2E2E2E2E2E2E2E2E2E2E2E2E2E2E2E2E2E2E2E2E2E2E2E2E2E2E2E2E2E2E2E2E2E2E2E2E2E2E2E2E2E2E2E2E2E2E2E2E2E2E2E2E2E2E2E2E2E2E2E2E2E2E2E2E2E2E2E2E2E2E2E2E2E2BEE2E2E2E2E2E2E2E2DCE2E2E2E2E2E2E2E2E2E2F5C3E2C32828E2E2E2E2E2E2E2E2E2E2E2E2E2E2E2E2E2
310
E2E2E2E2E2E2E228F5E2E2E2E2E2E2E2E2E2E2E2E2E2E2E2E2E2E2E2E2E2E2E2E2E2E2E2E2E2E2E2E2E2E2DCE2E2BEE2E2E2E2E2E2E2E2E2E2E2E2E2E2E2E2E2E2E2E2E2E2E2E2E2E2E2E2E2E2E2E2E2E2E2E2E2E2E2E2E2E2E2E2E2E2E2E2E2E2E2E2E2E2E2E2E2E2E2E2E2E2E2E2E2E2E2E2E2E2E2E2E2E2E2E2E2E2E2E2
310
E2E2E2E2E2E2E2E2E2E2E2E2E2E2E2E2E2E2E2E2E2E2E2E2E2E2E2E2E2E2E2E2E2E2E2E2E2E2E2E2E2E2E2E2E2E2E2E2E2E2E2E2E2E2E2E2E2E2E2E2E2E2E2E2E2E2E2E2E2E2E2E2E2E2E2E2E2E2E2E2E2E2E2E2E2E2BEE2E2E2E2E2E2E2E2DCE2E2E2E2E2E2E2E2E2E2F5C3E2C32828E2E2E2E2E2E2E2E2E2E2E2E2E2E2E2
310
E2E2E2E2E2E2E2E2E228F5E2E2E2E2E2E2E2E2E2E2E2E2E2E2E2E2E2E2E2E2E2E2E2E2E2E2E2E2E2E2E2E2E2E2DCE2E2BEE2E2E2E2E2E2E2E2E2E2E2E2E2E2E2E2E2E2E2E2E2E2E2E2E2E2E2E2E2E2E2E2E2E2E2E2E2E2E2E2E2E2E2E2E2E2E2E2E2E2E2E2E2E2E2E2E2E2E2E2E2E2E2E2E2E2E2E2E2E2E2E2E2E2E2E2E2E2
310
E2E2E2E2E2E2E2E2E2E2E2E2E2E2E2E2E2E2E2E2E2E2E2E2E2E2E2E2E2E2E2E2E2E2E2E2E2E2E2E2E2E2E2E2E2E2E2E2E2E2E2E2E2E2E2E2E2E2E2E2E2E2E2E2E2E2E2E2E2E2E2E2E2E2E2E2E2E2E2E2E2E2E2E2E2E2E2E2BEE2E2E2E2E2E2E2E2DCE2E2E2E2E2E2E2E2E2E2F5C3E2C32828E2E2E2E2E2E2E2E2E2E2E2E2E2
310
E2E2E2E2E2E2E2E2E2E2E228F5E2E2E2E2E2E2E2E2E2E2E2E2E2E2E2E2E2E2E2E2E2E2E2E2E2E2E2E2E2E2E2E2E2E2DCE2E2BEE2E2E2E2E2E2E2E2E2E2E2E2E2E2E2E2E2E2E2E2E2E2E2E2E2E2E2E2E2E2E2E2E2E2E2E2E2E2E2E2E2E2E2E2E2E2E2E2E2E2E2E2E2E2E2E2E2E2E2E2E2E2E2E2E2E2E2E2E2E2E2E2E2E2E2E2
310
E2E2E2E2E2E2E2E2E2E2E2E2E2E2E2E2E2E2E2E2E2E2E2E2E2E2E2E2E2E2E2E2E2E2E2E2E2E2E2E2E2E2E2E2E2E2E2E2E2E2E2E2E2E2E2E2E2E2E2E2E2E2E2E2E2E2E2E2E2E2E2E2E2E2E2E2E2E2E2E2E2E2E2E2E2E2E2E2E2E2BEE2E2E2E2E2E2E2E2DCE2E2E2E2E2E2E2E2E2E2F5C3E2C32828E2E2E2E2E2E2E2E2E2E2E2
310
E2E2E2E2E2E2E2E2E2E2E2E2E228F5E2E2E2E2E2E2E2E2E2E2E2E2E2E2E2E2E2E2E2E2E2E2E2E2E2E2E2E2E2E2E2E2E2E2DCE2E2BEE2E2E2E2E2E2E2E2E2E2E2E2E2E2E2E2E2E2E2E2E2E2E2E2E2E2E2E2E2E2E2E2E2E2E2E2E2E2E2E2E2E2E2E2E2E2E2E2E2E2E2E2E2E2E2E2E2E2E2E2E2E2E2E2E2E2E2E2E2E2E2E2E2E2
310
E2E2E2E2E2E2E2E2E2E2E2E2E2E2E2E2E2E2E2E2E2E2E2E2E2E2E2E2E2E2E2E2E2E2E2E2E2E2E2E2E2E2E2E2E2E2E2E2E2E2E2E2E2E2E2E2E2E2E2E2E2E2E2E2E2E2E2E2E2E2E2E2E2E2E2E2E2E2E2E2E2E2E2E2E2E2E2E2E2E2E2E2BEE2E2E2E2E2E2E2E2DCE2E2E2E2E2E2E2E2E2E2F5C3E2C32828E2E2E2E2E2E2E2E2E2
310
E2E2E2E2E2E2E2E2E2E2E2E2E2E2E228F5E2E2E2E2E2E2E2E2E2E2E2E2E2E2E2E2E2E2E2E2E2E2E2E2E2E2E2E2E2E2E2E2E2E2DCE2E2BEE2E2E2E2E2E2E2E2E2E2E2E2E2E2E2E2E2E2E2E2E2E2E2E2E2E2E2E2E2E2E2E2E2E2E2E2E2E2E2E2E2E2E2E2E2E2E2E2E2E2E2E2E2E2E2E2E2E2E2E2E2E2E2E2E2E2E2E2E2E2E2E2
310
E2E2E2E2E2E2E2E2E2E2E2E2E2E2E2E2E2E2E2E2E2E2E2E2E2E2E2E2E2E2E2E2E2E2E2E2E2E2E2E2E2E2E2E2E2E2E2E2E2E2E2E2E2E2E2E2E2E2E2E2E2E2E2E2E2E2E2E2E2E2E2E2E2E2E2E2E2E2E2E2E2E2E2E2E2E2E2E2E2E2E2E2E2E2BEE2E2E2E2E2E2E2E2DCE2E2E2E2E2E2E2E2E2E2F5C3E2C32828E2E2E2E2E2E2E2
310
E2E2E2E2E2E2E2E2E2E2E2E2E2E2E2E2E228F5E2E2E2E2E2E2E2E2E2E2E2E2E2E2E2E2E2E2E2E2E2E2E2E2E2E2E2E2E2E2E2E2E2E2DCE2E2BEE2E2E2E2E2E2E2E2E2E2E2E2E2E2E2E2E2E2E2E2E2E2E2E2E2E2E2E2E2E2E2E2E2E2E2E2E2E2E2E2E2E2E2E2E2E2E2E2E2E2E2E2E2E2E2E2E2E2E2E2E2E2E2E2E2E2E2E2E2E2
310
E2E2E2E2E2E2E2E2E2E2E2E2E2E2E2E2E2E2E2E2E2E2E2E2E2E2E2E2E2E2E2E2E2E2E2E2E2E2E2E2E2E2E2E2E2E2E2E2E2E2E2E2E2E2E2E2E2E2E2E2E2E2E2E2E2E2E2E2E2E2E2E2E2E2E2E2E2E2E2E2E2E2E2E2E2E2E2E2E2E2E2E2E2E2E2E2BEE2E2E2E2E2E2E2E2DCE2E2E2E2E2E2E2E2E2E2F5C3E2C32828E2E2E2E2E2
310
E2E2E2E2E2E2E2E2E2E2E2E2E2E2E2E2E2E2E228F5E2E2E2E2E2E2E2E2E2E2E2E2E2E2E2E2E2E2E2E2E2E2E2E2E2E2E2E2E2E2E2E2E2E2DCE2E2BEE2E2E2E2E2E2E2E2E2E2E2E2E2E2E2E2E2E2E2E2E2E2E2E2E2E2E2E2E2E2E2E2E2E2E2E2E2E2E2E2E2E2E2E2E2E2E2E2E2E2E2E2E2E2E2E2E2E2E2E2E2E2E2E2E2E2E2E2
310
E2E2E2E2E2E2E2E2E2E2E2E2E2E2E2E2E2E2E2E2E2E2E2E2E2E2E2E2E2E2E2E2E2E2E2E2E2E2E2E2E2E2E2E2E2E2E2E2E2E2E2E2E2E2E2E2E2E2E2E2E2E2E2E2E2E2E2E2E2E2E2E2E2E2E2E2E2E2E2E2E2E2E2E2E2E2E2E2E2E2E2E2E2E2E2E2E2E2BEE2E2E2E2E2E2E2E2DCE2E2E2E2E2E2E2E2E2E2F5C3E2C32828E2E2E2
310
E2E2E2E2E2E2E2E2E2E2E2E2E2E2E2E2E2E2E2E2E228F5E2E2E2E2E2E2E2E2E2E2E2E2E2E2E2E2E2E2E2E2E2E2E2E2E2E2E2E2E2E2E2E2E2E2DCE2E2BEE2E2E2E2E2E2E2E2E2E2E2E2E2E2E2E2E2E2E2E2E2E2E2E2E2E2E2E2E2E2E2E2E2E2E2E2E2E2E2E2E2E2E2E2E2E2E2E2E2E2E2E2E2E2E2E2E2E2E2E2E2E2E2E2E2E2
310
E2E2E2E2E2E2E2E2E2E2E2E2E2E2E2E2E2E2E2E2E2E2E2E2E2E2E2E2E2E2E2E2E2E2E2E2E2E2E2E2E2E2E2E2E2E2E2E2E2E2E2E2E2E2E2E2E2E2E2E2E2E2E2E2E2E2E2E2E2E2E2E2E2E2E2E2E2E2E2E2E2E2E2E2E2E2E2E2E2E2E2E2E2E2E2E2E2E2E2E2BEE2E2E2E2E2E2E2E2DCE2E2E2E2E2E2E2E2E2E2F5C3C3C3282828
310
282828282828282828282828282828282828282828282828F5E2E2E2E2E2E2E2E2E2E2E2E2E2E2E2E2E2E2E2E2E2E2E2E2E2E2E2E2E2E2E2E2E2E2DCE2E2BEE2E2E2E2E2E2E2E2E2E2E2E2E2E2E2E2E2E2E2E2E2E2E2E2E2E2E2E2E2E2E2E2E2E2E2E2E2E2E2E2E2E2E2E2E2E2E2E2E2E2E2E2E2E2E2E2E2E2E2E2E2E2E2E2
310
E2E2E2E2E2E2E2E2E2E2E2E2E2E2E2E2E2E2E2E2E2E2E2E2E2E2E2E2E2E2E2E2E2E2E2E2E2E2E2E2E2E2E2E2E2E2E2E2E2E2E2E2E2E2E2E2E2E2E2E2E2E2E2E2E2E2E2E2E2E2E2E2E2E2E2E2E2E2E2E2E2E2E2E2E2E2E2E2E2E2E2E2E2E2E2E2E2E2E2E2E2E2BEE2E2E2E2E2E2E2E2DCE2E2E2E2E2E2E2E2E2E2F5F5F5F5F5
310
F5F5F5F5F5F5F5F5F5F5F5F5F5F5F5F5F5F5F5F5F5F5F5F5F5F5F5E2E2E2E2E2E2E2E2E2E2E2E2E2E2E2E2E2E2E2E2E2E2E2E2E2E2E2E2E2E2E2E2E2E2DCE2E2BEE2E2E2E2E2E2E2E2E2E2E2E2E2E2E2E2E2E2E2E2E2E2E2E2E2E2E2E2E2E2E2E2E2E2E2E2E2E2E2E2E2E2E2E2E2E2E2E2E2E2E2E2E2E2E2E2E2E2E2E2E2E2
310
E2E2E2E2E2E2E2E2E2E2E2E2E2E2E2E2E2E2E2E2E2E2E2E2E2E2E2E2E2E2E2E2E2E2E2E2E2E2E2E2E2E2E2E2E2E2E2E2E2E2E2E2E2E2E2E2E2E2E2E2E2E2E2E2E2E2E2E2E2E2E2E2E2E2E2E2E2E2E2E2E2E2E2E2E2E2E2E2E2E2E2E2E2E2E2E2E2E2E2E2E2E2E2E2BEE2E2E2E2E2E2E2E2DCE2E2E2E2E2E2E2E2E2E2F5F5F5
310
F5E2E2E2E2E2E2E2E2E2E2E2E2E2E2E2E2E2E2E2E2E2E2E2E2E2F5F5F5E2E2E2E2E2E2E2E2E2E2E2E2E2E2E2E2E2E2E2E2E2E2E2E2E2E2E2E2E2E2E2E2E2E2DCE2E2BEE2E2E2E2E2E2E2E2E2E2E2E2E2E2E2E2E2E2E2E2E2E2E2E2E2E2E2E2E2E2E2E2E2E2E2E2E2E2E2E2E2E2E2E2E2E2E2E2E2E2E2E2E2E2E2E2E2E2E2E2
310
E2E2E2E2E2E2E2E2E2E2E2E2E2E2E2E2E2E2E2E2E2E2E2E2E2E2E2E2E2E2E2E2E2E2E2E2E2E2E2E2E2E2E2E2E2E2E2E2E2E2E2E2E2E2E2E2E2E2E2E2E2E2E2E2E2E2E2E2E2E2E2E2E2E2E2E2E2E2E2E2E2E2E2E2E2E2E2E2E2E2E2E2E2E2E2E2E2E2E2E2E2E2E2E2E2E2BEE2E2E2E2E2E2E2E2DCE2E2E2E2E2E2E2E2E2E22D
310
E2E2E2E2E2E2E2E2E2E2E2E2E2E2E2E2E2E2E2E2E2E2E2E2E2E2E2E2E2E22DE2E2E2E2E2E2E2E2E2E2E2E2E2E2E2E2E2E2E2E2E2E2E2E2E2E2E2E2E2E2E2E2E2E2DCE2E2BEE2E2E2E2E2E2E2E2E2E2E2E2E2E2E2E2E2E2E2E2E2E2E2E2E2E2E2E2E2E2E2E2E2E2E2E2E2E2E2E2E2E2E2E2E2E2E2E2E2E2E2E2E2E2E2E2E2E2
310
E2E2E2E2E2E2E2E2E2E2E2E2E2E2E2E2E2E2E2E2E2E2E2E2E2E2E2E2E2E2E2E2E2E2E2E2E2E2E2E2E2E2E2E2E2E2E2E2E2E2E2E2E2E2E2E2E2E2E2E2E2E2E2E2E2E2E2E2E2E2E2E2E2E2E2E2E2E2E2E2E2E2E2E2E2E2E2E2E2E2E2E2E2E2E2E2E2E2E2E2E2E2E2E2E2E2E2E2BEE2E2E2E2E2E2E2E2DCE2E2E2E2E2E2E2E2E2
310
E22DE2E2E2E2E2E2E2E2E2E2E2E2E2E2E2E2E2E2E2E2E2E2E2E2E2E2E2E2E2E22DE2E2E2E2E2E2E2E2E2E2E2E2E2E2E2E2E2E2E2E2E2E2E2E2E2E2E2E2E2E2E2E2E2E2DCE2E2BEE2E2E2E2E2E2E2E2E2E2E2E2E2E2E2E2E2E2E2E2E2E2E2E2E2E2E2E2E2E2E2E2E2E2E2E2E2E2E2E2E2E2E2E2E2E2E2E2E2E2E2E2E2E2E2E2
310
E2E2E2E2E2E2E2E2E2E2E2E2E2E2E2E2E2E2E2E2E2E2E2E2E2E2E2E2E2E2E2E2E2E2E2E2E2E2E2E2E2E2E2E2E2E2E2E2E2E2E2E2E2E2E2E2E2E2E2E2E2E2E2E2E2E2E2E2E2E2E2E2E2E2E2E2E2E2E2E2E2E2E2E2E2E2E2E2E2E2E2E2E2E2E2E2E2E2E2E2E2E2E2E2E2E2E2E2E2E2BEE2E2E2E2E2E2E2E2DCE2E2E2E2E2E2E2
310
E2E2E22D2D2D2D2D2D2D2D2D2D2D2D2D2D2DBEBEBE2D2D2D2D2D2D2D2D2D2D2D2D2DF5E2E2E2E2E2E2E2E2E2E2E2E2E2E2E2E2E2E2E2E2E2E2E2E2E2E2E2E2E2E2E2E2E2E2DCE2E2BEE2E2E2E2E2E2E2E2E2E2E2E2E2E2E2E2E2E2E2E2E2E2E2E2E2E2E2E2E2E2E2E2E2E2E2E2E2E2E2E2E2E2E2E2E2E2E2E2E2E2E2E2E2E2
310
E2E2E2E2E2E2E2E2E2E2E2E2E2E2E2E2E2E2E2E2E2E2E2E2E2E2E2E2E2E2E2E2E2E2E2E2E2E2E2E2E2E2E2E2E2E2E2E2E2E2E2E2E2E2E2E2E2E2E2E2E2E2E2E2E2E2E2E2E2E2E2E2E2E2E2E2E2E2E2E2E2E2E2E2E2E2E2E2E2E2E2E2E2E2E2E2E2E2E2E2E2E2E2E2E2E2E2E2E2E2E2E2BEE2E2E2E2E2E2E2E2DCE2E2E2E2E2
310
E2E2E2E2E2E2E2E2E2E2E2E2E2E2E2E2E2E2E2E2BEBEBEE2E2E2E2E2E2E2E2E2E2E2E2E2E2E2E2E2E2E2E2E2E2E2E2E2E2E2E2E2E2E2E2E2E2E2E2E2E2E2E2E2E2E2E2E2E2E2E2DCE2E2BEE2E2E2E2E2E2E2E2E2E2E2E2E2E2E2E2E2E2E2E2E2E2E2E2E2E2E2E2E2E2E2E2E2E2E2E2E2E2E2E2E2E2E2E2E2E2E2E2E2E2E2E2
310
E2E2E2E2E2E2E2E2E2E2E2E2E2E2E2E2E2E2E2E2E2E2E2E2E2E2E2E2E2E2E2E2E2E2E2E2E2E2E2E2E2E2E2E2E2E2E2E2E2E2E2E2E2E2E2E2E2E2E2E2E2E2E2E2E2E2E2E2E2E2E2E2E2E2E2E2E2E2E2E2E2E2E2E2E2E2E2E2E2E2E2E2E2E2E2E2E2E2E2E2E2E2E2E2E2E2E2E2E2E2E2E2E2E2BEE2E2E2E2E2E2E2E2DCE2E2E2
310
E2E2E2E2E2E2E2E2E2E2E2E2E2E2E2E2E2E2E2E2E2E2E2E2E2E2E2E2E2E2E2E2E2E2E2E2E2E2E2E2E2E2E2E2E2E2E2E2E2E2E2E2E2E2E2E2E2E2E2E2E2E2E2E2E2E2E2E2E2E2E2E2E2DCE2E2BEE2E2E2E2E2E2E2E2E2E2E2E2E2E2E2E2E2E2E2E2E2E2E2E2E2E2E2E2E2E2E2E2E2E2E2E2E2E2E2E2E2E2E2E2E2E2E2E2E2E2
310
E2E2E2E2E2E2E2E2E2E2E2E2E2E2E2E2E2E2E2E2E2E2E2E2E2E2E2E2E2E2E2E2E2E2E2E2E2E2E2E2E2E2E2E2E2E2E2E2E2E2E2E2E2E2E2E2E2E2E2E2E2E2E2E2E2E2E2E2E2E2E2E2E2E2E2E2E2E2E2E2E2E2E2E2E2E2E2E2E2E2E2E2E2E2E2E2E2E2E2E2E2E2E2E2E2E2E2E2E2E2E2E2E2E2E2E2BEE2E2E2E2E2E2E2E2DCE2
310
E2E2E2E2E2E2E2E2E2E2E2E2E2E2E2E2E2E2E2E2E2E2E2E2E2E2E2E2E2E2E2E2E2E2E2E2E2E2E2E2E2E2E2E2E2E2E2E2E22D2D2D2D2D2D2D2D2D2D2D2D2D2D2DF5E2E2E2E2E2E2E2E2E2E2DCE2E2BEE2E2E2E2E2E2E2E2E2E2E2E2E2E2E2E2E2E2E2E2E2E2E2E2E2E2E2E2E2E2E2E2E2E2E2E2E2E2E2E2E2E2E2E2E2E2E2E2
310
E2E2E2E2E2E2E2E2E2E2E2E2E2E2E2E2E2E2E2E2E2E2E2E2E2E2E2E2E2E2E2E2E2E2E2E2E2E2E2E2E2E2E2E2E2E2E2E2E2E2E2E2E2E2E2E2E2E2E2E2E2E2E2E2E2E2E2E2E2E2E2E2E2E2E2E2E2E2E2E2E2E2E2E2E2E2E2E2E2E2E2E2E2E2E2E2E2E2E2E2E2E2E2E2E2E2E2E2E2E2E2E2E2E2E2E2E2E2BEE2E2E2E2E2E2E2E2
310
DCE2E2E2E2E2E2E2E2E2E2E2E2E2E2E2E2E2E2E2E2E2E2E2E2E2E2E2E2E2E2E2E2E2E2E2E2E2E2E2E2E2E2E2E2E2E2E2E2E2E22DE2E2E2E2E2BEBEBEBEE2E2E2E2E22DE2E2E2E2E2E2E2E2E2E2DCE2E2BEE2E2E2E2E2E2E2E2E2E2E2E2E2E2E2E2E2E2E2E2E2E2E2E2E2E2E2E2E2E2E2E2E2E2E2E2E2E2E2E2E2E2E2E2E2E2
310
E2E2E2E2E2E2E2E2E2E2E2E2E2E2E2E2E2E2E2E2E2E2E2E2E2E2E2E2E2E2E2E2E2E2E2E2E2E2E2E2E2E2E2E2E2E2E2E2E2E2E2E2E2E2E2E2E2E2E2E2E2E2E2E2E2E2E2E2E2E2E2E2E2E2E2E2E2E2E2E2E2E2E2E2E2E2E2E2E2E2E2E2E2E2E2E2E2E2E2E2E2E2E2E2E2E2E2E2E2E2E2E2E2E2E2E2E2E2E2E2BEE2E2E2E2E2E2
310
E2E2DCE2E2E2E2E2E2E2E2E2E2E2E2E2E2E2E2E2E2E2E2E2E2E2E2E2E2E2E2E2E2E2E2E2E2E2E2E2E2E2E2E2E2E2E2E2E2E2E2E2E22DE2E2E2E2E2BEBEBEBEE2E2E2E2E22DE2E2E2E2E2E2E2E2E2E2DCE2E2BEE2E2E2E2E2E2E2E2E2E2E2E2E2E2E2E2E2E2E2E2E2E2E2E2E2E2E2E2E2E2E2E2E2E2E2E2E2E2E2E2E2E2E2E2
310
E2E2E2E2E2E2E2E2E2E2E2E2E2E2E2E2E2E2E2E2E2E2E2E2E2E2E2E2E2E2E2E2E2E2E2E2E2E2E2E2E2E2E2E2E2E2E2E2E2E2E2E2E2E2E2E2E2E2E2E2E2E2E2E2E2E2E2E2E2E2E2E2E2E2E2E2E2E2E2E2E2E2E2E2E2E2E2E2E2E2E2E2E2E2E2E2E2E2E2E2E2E2E2E2E2E2E2E2E2E2E2E2E2E2E2E2E2E2E2E2E2E2BEE2E2E2E2
310
E2E2E2E2DCE2E2E2E2E2E2E2E2E2E2E2E2E2E2E2E2E2E2E2E2E2E2E2E2E2E2E2E2E2E2E2E2E2E2E2E2E2E2E2E2E2E2E2E2E2E2E2E2E2E22DE2E2E2E2E2E2E2E2E2E2E2E2E2E22DE2E2E2E2E2E2E2E2E2E2DCE2E2BEE2E2E2E2E2E2E2E2E2E2E2E2E2E2E2E2E2E2E2E2E2E2E2E2E2E2E2E2E2E2E2E2E2E2E2E2E2E2E2E2E2E2
310
E2E2E2E2E2E2E2E2E2E2E2E2E2E2E2E2E2E2E2E2E2E2E2E2E2E2E2E2E2E2E2E2E2E2E2E2E2E2E2E2E2E2E2E2E2E2E2E2E2E2E2E2E2E2E2E2E2E2E2E2E2E2E2E2E2E2E2E2E2E2E2E2E2E2E2E2E2E2E2E2E2E2E2E2E2E2E2E2E2E2E2E2E2E2E2E2E2E2E2E2E2E2E2E2E2E2E2E2E2E2E2E2E2E2E2E2E2E2E2E2E2E2E2E2BEE2E2
310
E2E2E2E2E2E2DCE2E2E2E2E2E22D2D2DF528282828282828282828282828282828282828282828282828282828282828E2E2E2E2E2E2E2E2E2F52828282828282828282828282828F5E2E2E2E2E2E2E2E2E2E2DCE2E2BEE2E2E2E2E2E2E2E2E2E2E2E2E2E2E2E2E2E2E2E2E2E2E2E2E2E2E2E2E2E2E2E2E2E2E2E2E2E2E2E2
310
E2E2E2E2E2E2E2E2E2E2E2E2E2E2E2E2E2E2E2E2E2E2E2E2E2E2E2E2E2E2E2E2E2E2E2E2E2E2E2E2E2E2E2E2E2E2E2E2E2E2E2E2E2E2E2E2E2E2E2E2E2E2E2E2E2E2E2E2E2E2E2E2E2E2E2E2E2E2E2E2E2E2E2E2E2E2E2E2E2E2E2E2E2E2E2E2E2E2E2E2E2E2E2E2E2E2E2E2E2E2E2E2E2E2E2E2E2E2E2E2E2E2E2E2E2E2BE
310
E2E2E2E2E2E2E2E2DCE2E2E2E2E2E2E22DE2F528282828282828282828282828282828282828282828282828282828282828E2E2E2E2E2E2E2E2E2F5282828282828282828282828282828E2E2E2E2E2E2E2E2E2E2DCE2E2BEE2E2E2E2E2E2E2E2E2E2E2E2E2E2E2E2E2E2E2E2E2E2E2E2E2E2E2E2E2E2E2E2E2E2E2E2E2E2
310
E2E2E2E2E2E2E2E2E2E2E2E2E2E2E2E2E2E2E2E2E2E2E2E2E2E2E2E2E2E2E2E2E2E2E2E2E2E2E2E2E2E2E2E2E2E2E2E2E2E2E2E2E2E2E2E2E2E2E2E2E2E2E2E2E2E2E2E2E2E2E2E2E2E2E2E2E2E2E2E2E2E2E2E2E2E2E2E2E2E2E2E2E2E2E2E2E2E2E2E2E2E2E2E2E2E2E2E2E2E2E2E2E2E2E2E2E2E2E2E2E2E2E2E2E2E2E2
310
E2BEE2E2E2E2E2E2E2E2DCE2E2E2E2E2E2E22DE2F528E2282828E2E2E2E2E2E2E2E2E2E2E2E2E2E2E2E2E2E2E2E2E2E2E2282828E2E2E2E2E2E2E2E2E2F52828E2E2E2E2E2E2E2E2E2E2282828E2E2E2E2E2E2E2E2E2E2DCE2E2BEE2E2E2E2E2E2E2E2E2E2E2E2E2E2E2E2E2E2E2E2E2E2E2E2E2E2E2E2E2E2E2E2E2E2E2E2
310
E2E2E2E2E2E2E2E2E2E2E2E2E2E2E2E2E2E2E2E2E2E2E2E2E2E2E2E2E2E2E2E2E2E2E2E2E2E2E2E2E2E2E2E2E2E2E2E2E2E2E2E2E2E2E2E2E2E2E2E2E2E2E2E2E2E2E2E2E2E2E2E2E2E2E2E2E2E2E2E2E2E2E2E2E2E2E2E2E2E2E2E2E2E2E2E2E2E2E2E2E2E2E2E2E2E2E2E2E2E2E2E2E2E2E2E2E2E2E2E2E2E2E2E2E2E2E2
310
E2E2E2BEE2E2E2E2E2E2E2E2DCE2E2E2E2E2E2E22DE2F528E2282828E2E2E2E2E2E2E2E2E2E2E2E2E2E2E2E2E2E2E2E2E2E2E2282828E2E2E2E2E2E2E2E2E2F52828E2E2E2E2E2E2E2E2E2E2282828E2E2E2E2E2E2E2E2E2E2DCE2E2BEE2E2E2E2E2E2E2E2E2E2E2E2E2E2E2E2E2E2E2E2E2E2E2E2E2E2E2E2E2E2E2E2E2E2
310
E2E2E2E2E2E2E2E2E2E2E2E2E2E2E2E2E2E2E2E2E2E2E2E2E2E2E2E2E2E2E2E2E2E2E2E2E2E2E2E2E2E2E2E2E2E2E2E2E2E2E2E2E2E2E2E2E2E2E2E2E2E2E2E2E2E2E2E2E2E2E2E2E2E2E2E2E2E2E2E2E2E2E2E2E2E2E2E2E2E2E2E2E2E2E2E2E2E2E2E2E2E2E2E2E2E2E2E2E2E2E2E2E2E2E2E2E2E2E2E2E2E2E2E2E2E2E2
310
E2E2E2E2E2BEE2E2E2E2E2E2E2E2DCE2E2E2E2E2E2E22DE2F528E2282828E2E2E2E2E2E2E2E2E2E2E2E2E2E2E2E2E2E2E2E2E2E2E2282828E2E2E2E2E2E2E2E2E2F52828E2E2E2E2E2E2E2E2E2E2282828E2E2E2E2E2E2E2E2E2E2DCE2E2BEE2E2E2E2E2E2E2E2E2E2E2E2E2E2E2E2E2E2E2E2E2E2E2E2E2E2E2E2E2E2E2E2
310
E2E2E2E2E2E2E2E2E2E2E2E2E2E2E2E2E2E2E2E2E2E2E2E2E2E2E2E2E2E2E2E2E2E2E2E2E2E2E2E2E2E2E2E2E2E2E2E2E2E2E2E2E2E2E2E2E2E2E2E2E2E2E2E2E2E2E2E2E2E2E2E2E2E2E2E2E2E2E2E2E2E2E2E2E2E2E2E2E2E2E2E2E2E2E2E2E2E2E2E2E2E2E2E2E2E2E2E2E2E2E2E2E2E2E2E2E2E2E2E2E2E2E2E2E2E2E2
310
E2E2E2E2E2E2E2BEE2E2E2E2E2E2E2E2DCE2E2E2E2E2E2E22DE2F528E2282828E2E2E2E2E2E2E2E2E2E2E2E2E2E2E2E2E2E2E2E2E2E2E2282828E2E2E2E2E2E2E2E2E2F52828E2E2E2E2E2E2E2E2E2E2282828E2E2E2E2E2E2E2E2E2E2DCE2E2BEE2E2E2E2E2E2E2E2E2E2E2E2E2E2E2E2E2E2E2E2E2E2E2E2E2E2E2E2E2E2
310
E2E2E2E2E2E2E2E2E2E2E2E2E2E2E2E2E2E2E2E2E2E2E2E2E2E2E2E2E2E2E2E2E2E2E2E2E2E2E2E2E2E2E2E2E2E2E2E2E2E2E2E2E2E2E2E2E2E2E2E2E2E2E2E2E2E2E2E2E2E2E2E2E2E2E2E2E2E2E2E2E2E2E2E2E2E2E2E2E2E2E2E2E2E2E2E2E2E2E2E2E2E2E2E2E2E2E2E2E2E2E2E2E2E2E2E2E2E2E2E2E2E2E2E2E2E2E2
310
E2E2E2E2E2E2E2E2E2BEE2E2E2E2E2E2E2E2DCE2E2E2E2E2E2E22DE2F528E2282828E2E2E2E2E2E2E2E2E2E2E2E2E2E2E2E2E2E2E2E2E2E2E2282828E2E2E2E2E2E2E2E2E2F52828E2E2E2E2E2E2E2E2E2E2282828E2E2E2E2E2E2E2E2E2E2DCE2E2BEE2E2E2E2E2E2E2E2E2E2E2E2E2E2E2E2E2E2E2E2E2E2E2E2E2E2E2E2
310
E2E2E2E2E2E2E2E2E2E2E2E2E2E2E2E2E2E2E2E2E2E2E2E2E2E2E2E2E2E2E2E2E2E2E2E2E2E2E2E2E2E2E2E2E2E2E2E2E2E2E2E2E2E2E2E2E2E2E2E2E2E2E2E2E2E2E2E2E2E2E2E2E2E2E2E2E2E2E2E2E2E2E2E2E2E2E2E2E2E2E2E2E2E2E2E2E2E2E2E2E2E2E2E2E2E2E2E2E2E2E2E2E2E2E2E2E2E2E2E2E2E2E2E2E2E2E2
310
E2E2E2E2E2E2E2E2E2E2E2BEE2E2E2E2E2E2E2E2DCE2E2E2E2E2E2E22DE2F528E2282828E2E2E2E2E2E2E2E2E2E2E2E2E2E2E2E2E2E2E2E2E2E2E2282828E2E2E2E2E2E2E2E2E2F52828E2E2E2E2E2E2E2E2E2E2282828E2E2E2E2E2E2E2E2E2E2DCE2E2BEE2E2E2E2E2E2E2E2E2E2E2E2E2E2E2E2E2E2E2E2E2E2E2E2E2E2
310
E2E2E2E2E2E2E2E2E2E2E2E2E2E2E2E2E2E2E2E2E2E2E2E2E2E2E2E2E2E2E2E2E2E2E2E2E2E2E2E2E2E2E2E2E2E2E2E2E2E2E2E2E2E2E2E2E2E2E2E2E2E2E2E2E2E2E2E2E2E2E2E2E2E2E2E2E2E2E2E2E2E2E2E2E2E2E2E2E2E2E2E2E2E2E2E2E2E2E2E2E2E2E2E2E2E2E2E2E2E2E2E2E2E2E2E2E2E2E2E2E2E2E2E2E2E2E2
310
E2E2E2E2E2E2E2E2E2E2E2E2E2BEE2E2E2E2E2E2E2E2DCE2E2E2E2E2E2E22DE2F528E2282828E2E2E2E2E2E2E2E2E2E2E2E2E2E2E2E2E2E2E2E2E2E2E2282828E2E2E2E2E2E2E2E2E2F52828E2E2E2E2E2E2E2E2E2E2282828E2E2E2E2E2E2E2E2E2E2DCE2E2BEE2E2E2E2E2E2E2E2E2E2E2E2E2E2E2E2E2E2E2E2E2E2E2E2
310
E2E2E2E2E2E2E2E2E2E2E2E2E2E2E2E2E2E2E2E2E2E2E2E2E2E2E2E2E2E2E2E2E2E2E2E2E2E2E2E2E2E2E2E2E2E2E2E2E2E2E2E2E2E2E2E2E2E2E2E2E2E2E2E2E2E2E2E2E2E2E2E2E2E2E2E2E2E2E2E2E2E2E2E2E2E2E2E2E2E2E2E2E2E2E2E2E2E2E2E2E2E2E2E2E2E2E2E2E2E2E2E2E2E2E2E2E2E2E2E2E2E2E2E2E2E2E2
310
E2E2E2E2E2E2E2E2E2E2E2E2E2E2E2BEE2E2E2E2E2E2E2E2DCE2E2E2E2E2E2E22DE2F528E2282828E2E2E2E2E2E2E2E2E2E2E2E2E2E2E2E2E2E2E2E2E2E2E2282828E2E2E2E2E2E2E2E2E2F52828E2E2E2E2E2E2E2E2E2E2282828E2E2E2E2E2E2E2E2E2E2DCE2E2BEE2E2E2E2E2E2E2E2E2E2E2E2E2E2E2E2E2E2E2E2E2E2
310
E2E2E2E2E2E2E2E2E2E2E2E2E2E2E2E2E2E2E2E2E2E2E2E2E2E2E2E2E2E2E2E2E2E2E2E2E2E2E2E2E2E2E2E2E2E2E2E2E2E2E2E2E2E2E2E2E2E2E2E2E2E2E2E2E2E2E2E2E2E2E2E2E2E2E2E2E2E2E2E2E2E2E2E2E2E2E2E2E2E2E2E2E2E2E2E2E2E2E2E2E2E2E2E2E2E2E2E2E2E2E2E2E2E2E2E2E2E2E2E2E2E2E2E2E2E2E2
310
E2E2E2E2E2E2E2E2E2E2E2E2E2E2E2E2E2BEE2E2E2E2E2E2E2E2DCE2E2E2E2E2E2E22DE2F528E2282828E2E2E2E2E2E2E2E2E2E2E2E2E2E2E2E2E2E2E2E2E2E2E2282828E2E2E2E2E2E2E2E2E2F52828E2E2E2E2E2E2E2E2E2E2282828E2E2E2E2E2E2E2E2E2E2DCE2E2BEE2E2E2E2E2E2E2E2E2E2E2E2E2E2E2E2E2E2E2E2
310
E2E2E2E2E2E2E2E2E2E2E2E2E2E2E2E2E2E2E2E2E2E2E2E2E2E2E2E2E2E2E2E2E2E2E2E2E2E2E2E2E2E2E2E2E2E2E2E2E2E2E2E2E2E2E2E2E2E2E2E2E2E2E2E2E2E2E2E2E2E2E2E2E2E2E2E2E2E2E2E2E2E2E2E2E2E2E2E2E2E2E2E2E2E2E2E2E2E2E2E2E2E2E2E2E2E2E2E2E2E2E2E2E2E2E2E2E2E2E2E2E2E2E2E2E2E2E2
310
E2E2E2E2E2E2E2E2E2E2E2E2E2E2E2E2E2E2E2BEE2E2E2E2E2E2E2E2DCE2E2E2E2E2E2E22DE2F528E2282828E2E2E2E2E2E2E2E2E2E2E2E2E2E2E2E2E2E2E2E2E2E2E2282828E2E2E2E2E2E2E2E2E2F52828E2E2E2E2E2E2E2E2E2E2282828E2E2E2E2E2E2E2E2E2E2DCE2E2BEE2E2E2E2E2E2E2E2E2E2E2E2E2E2E2E2E2E2
310
E2E2E2E2E2E2E2E2E2E2E2E2E2E2E2E2E2E2E2E2E2E2E2E2E2E2E2E2E2E2E2E2E2E2E2E2E2E2E2E2E2E2E2E2E2E2E2E2E2E2E2E2E2E2E2E2E2E2E2E2E2E2E2E2E2E2E2E2E2E2E2E2E2E2E2E2E2E2E2E2E2E2E2E2E2E2E2E2E2E2E2E2E2E2E2E2E2E2E2E2E2E2E2E2E2E2E2E2E2E2E2E2E2E2E2E2E2E2E2E2E2E2E2E2E2E2E2
310
E2E2E2E2E2E2E2E2E2E2E2E2E2E2E2E2E2E2E2E2E2BEE2E2E2E2E2E2E2E2DCE2E2E2E2E2E2E22DE2F528E2282828E2E2E2E2E2E2E2E2E2E2E2E2E2E2E2E2E2E2E2E2E2E2E2282828E2E2E2E2E2E2E2E2E2F52828E2E2E2E2E2E2E2E2E2E2282828E2E2E2E2E2E2E2E2E2E2DCE2E2BEE2E2E2E2E2E2E2E2E2E2E2E2E2E2E2E2
310
E2E2E2E2E2E2E2E2E2E2E2E2E2E2E2E2E2E2E2E2E2E2E2E2E2E2E2E2E2E2E2E2E2E2E2E2E2E2E2E2E2E2E2E2E2E2E2E2E2E2E2E2E2E2E2E2E2E2E2E2E2E2E2E2E2E2E2E2E2E2E2E2E2E2E2E2E2E2E2E2E2E2E2E2E2E2E2E2E2E2E2E2E2E2E2E2E2E2E2E2E2E2E2E2E2E2E2E2E2E2E2E2E2E2E2E2E2E2E2E2E2E2E2E2E2E2E2
310
E2E2E2E2E2E2E2E2E2E2E2E2E2E2E2E2E2E2E2E2E2E2E2BEE2E2E2E2E2E2E2E2DCE2E2E2E2E2E2E22DE2F528E2282828E2E2E2E2E2E2E2E2E2E2E2E2E2E2E2E2E2E2E2E2E2E2E2282828E2E2E2E2E2E2E2E2E2F52828E2E2E2E2E2E2E2E2E2E2282828E2E2E2E2E2E2E2E2E2E2DCE2E2BEE2E2E2E2E2E2E2E2E2E2E2E2E2E2
310
E2E2E2E2E2E2E2E2E2E2E2E2E2E2E2E2E2E2E2E2E2E2E2E2E2E2E2E2E2E2E2E2E2E2E2E2E2E2E2E2E2E2E2E2E2E2E2E2E2E2E2E2E2E2E2E2E2E2E2E2E2E2E2E2E2E2E2E2E2E2E2E2E2E2E2E2E2E2E2E2E2E2E2E2E2E2E2E2E2E2E2E2E2E2E2E2E2E2E2E2E2E2E2E2E2E2E2E2E2E2E2E2E2E2E2E2E2E2E2E2E2E2E2E2E2E2E2
310
E2E2E2E2E2E2E2E2E2E2E2E2E2E2E2E2E2E2E2E2E2E2E2E2E2BEE2E2E2E2E2E2E2E2DCE2E2E2E2E2E2E22DE2F528E2282828E2E2E2E2E2E2E2E2E2E2E2E2E2E2E2E2E2E2E2E2E2E2E2282828E2E2E2E2E2E2E2E2E2F52828E2E2E2E2E2E2E2E2E2E2282828E2E2E2E2E2E2E2E2E2E2DCE2E2BEE2E2E2E2E2E2E2E2E2E2E2E2
310
E2E2E2E2E2E2E2E2E2E2E2E2E2E2E2E2E2E2E2E2E2E2E2E2E2E2E2E2E2E2E2E2E2E2E2E2E2E2E2E2E2E2E2E2E2E2E2E2E2E2E2E2E2E2E2E2E2E2E2E2E2E2E2E2E2E2E2E2E2E2E2E2E2E2E2E2E2E2E2E2E2E2E2E2E2E2E2E2E2E2E2E2E2E2E2E2E2E2E2E2E2E2E2E2E2E2E2E2E2E2E2E2E2E2E2E2E2E2E2E2E2E2E2E2E2E2E2
310
E2E2E2E2E2E2E2E2E2E2E2E2E2E2E2E2E2E2E2E2E2E2E2E2E2E2E2BEE2E2E2E2E2E2E2E2DCE2E2E2E2E2E2E22DE2F528E2282828E2E2E2E2E2E2E2E2E2E2E2E2E2E2E2E2E2E2E2E2E2E2E2282828E2E2E2E2E2E2E2E2E2F52828E2E2E2E2E2E2E2E2E2E2282828E2E2E2E2E2E2E2E2E2E2DCE2E2BEE2E2E2E2E2E2E2E2E2E2
310
E2E2E2E2E2E2E2E2E2E2E2E2E2E2E2E2E2E2E2E2E2E2E2E2E2E2E2E2E2E2E2E2E2E2E2E2E2E2E2E2E2E2E2E2E2E2E2E2E2E2E2E2E2E2E2E2E2E2E2E2E2E2E2E2E2E2E2E2E2E2E2E2E2E2E2E2E2E2E2E2E2E2E2E2E2E2E2E2E2E2E2E2E2E2E2E2E2E2E2E2E2E2E2E2E2E2E2E2E2E2E2E2E2E2E2E2E2E2E2E2E2E2E2E2E2E2E2
310
E2E2E2E2E2E2E2E2E2E2E2E2E2E2E2E2E2E2E2E2E2E2E2E2E2E2E2E2E2BEE2E2E2E2E2E2E2E2DCE2E2E2E2E2E2E22DE2F528E2282828E2E2E2E2E2E2E2E2E2E2E2E2E2E2E2E2E2E2E2E2E2E2E2282828E2E2E2E2E2E2E2E2E2F52828E2E2E2E2E2E2E2E2E2E2282828E2E2E2E2E2E2E2E2E2E2DCE2E2BEE2E2E2E2E2E2E2E2
310
E2E2E2E2E2E2E2E2E2E2E2E2E2E2E2E2E2E2E2E2E2E2E2E2E2E2E2E2E2E2E2E2E2E2E2E2E2E2E2E2E2E2E2E2E2E2E2E2E2E2E2E2E2E2E2E2E2E2E2E2E2E2E2E2E2E2E2E2E2E2E2E2E2E2E2E2E2E2E2E2E2E2E2E2E2E2E2E2E2E2E2E2E2E2E2E2E2E2E2E2E2E2E2E2E2E2E2E2E2E2E2E2E2E2E2E2E2E2E2E2E2E2E2E2E2E2E2
310
E2E2E2E2E2E2E2E2E2E2E2E2E2E2E2E2E2E2E2E2E2E2E2E2E2E2E2E2E2E2E2BEE2E2E2E2E2E2E2E2DCE2E2E2E2E2E2E22DE2F5C3C3C32828E2E2E2E2E2E2E2E2E2E2E2E2E2E2E2E2E2E2E2E2E2E2E2282828E2E2E2E2E2E2E2E2E2F528C3C3C3C3C3C3C3C3C3C3C3C3C328E2E2E2E2E2E2E2E2E2E2DCE2E2BEE2E2E2E2E2E2
310
E2E2E2E2E2E2E2E2E2E2E2E2E2E2E2E2E2E2E2E2E2E2E2E2E2E2E2E2E2E2E2E2E2E2E2E2E2E2E2E2E2E2E2E2E2E2E2E2E2E2E2E2E2E2E2E2E2E2E2E2E2E2E2E2E2E2E2E2E2E2E2E2E2E2E2E2E2E2E2E2E2E2E2E2E2E2E2E2E2E2E2E2E2E2E2E2E2E2E2E2E2E2E2E2E2E2E2E2E2E2E2E2E2E2E2E2E2E2E2E2E2E2E2E2E2E2E2
310
E2E2E2E2E2E2E2E2E2E2E2E2E2E2E2E2E2E2E2E2E2E2E2E2E2E2E2E2E2E2E2E2E2BEE2E2E2E2E2E2E2E2DCE2E2E2E2E2E2E22DE2F5C3E2C32828E2E2E2E2E2E2E2E2E2E2E2E2E2E2E2E2E2E2E2E2E2E2E2282828E2E2E2E2E2E2E2E2E2F528C3E2E2E2E2E2E2E2E2E2E228C328E2E2E2E2E2E2E2E2E2E2DCE2E2BEE2E2E2E2
310
E2E2E2E2E2E2E2E2E2E2E2E2E2E2E2E2E2E2E2E2E2E2E2E2E2E2E2E2E2E2E2E2E2E2E2E2E2E2E2E2E2E2E2E2E2E2E2E2E2E2E2E2E2E2E2E2E2E2E2E2E2E2E2E2E2E2E2E2E2E2E2E2E2E2E2E2E2E2E2E2E2E2E2E2E2E2E2E2E2E2E2E2E2E2E2E2E2E2E2E2E2E2E2E2E2E2E2E2E2E2E2E2E2E2E2E2E2E2E2E2E2E2E2E2E2E2E2
310
E2E2E2E2E2E2E2E2E2E2E2E2E2E2E2E2E2E2E2E2E2E2E2E2E2E2E2E2E2E2E2E2E2E2E2BEE2E2E2E2E2E2E2E2DCE2E2E2E2E2E2E22DE2F5C3E2C32828E2E2E2E2E2E2E2E2E2E2E2E2E2E2E2E2E2E2E2E2E2E2E2282828E2E2E2E2E2E2E2E2E2F528C3E2E2E2E2E2E2E2E2E2E228C328E2E2E2E2E2E2E2E2E2E2DCE2E2BEE2E2
310
E2E2E2E2E2E2E2E2E2E2E2E2E2E2E2E2E2E2E2E2E2E2E2E2E2E2E2E2E2E2E2E2E2E2E2E2E2E2E2E2E2E2E2E2E2E2E2E2E2E2E2E2E2E2E2E2E2E2E2E2E2E2E2E2E2E2E2E2E2E2E2E2E2E2E2E2E2E2E2E2E2E2E2E2E2E2E2E2E2E2E2E2E2E2E2E2E2E2E2E2E2E2E2E2E2E2E2E2E2E2E2E2E2E2E2E2E2E2E2E2E2E2E2E2E2E2E2
310
E2E2E2E2E2E2E2E2E2E2E2E2E2E2E2E2E2E2E2E2E2E2E2E2E2E2E2E2E2E2E2E2E2E2E2E2E2BEE2E2E2E2E2E2E2E2DCE2E2E2E2E2E2E22DE2F5C3E2C32828E2E2E2E2E2E2E2E2E2E2E2E2E2E2E2E2E2E2E2E2E2E2E2282828E2E2E2E2E2E2E2E2E2F528C3E2E2E2E2E2BEE2E2E2E228C328E2E2E2E2E2E2E2E2E2E2DCE2E2BE
310
E2E2E2E2E2E2E2E2E2E2E2E2E2E2E2E2E2E2E2E2E2E2E2E2E2E2E2E2E2E2E2E2E2E2E2E2E2E2E2E2E2E2E2E2E2E2E2E2E2E2E2E2E2E2E2E2E2E2E2E2E2E2E2E2E2E2E2E2E2E2E2E2E2E2E2E2E2E2E2E2E2E2E2E2E2E2E2E2E2E2E2E2E2E2E2E2E2E2E2E2E2E2E2E2E2E2E2E2E2E2E2E2E2E2E2E2E2E2E2E2E2E2E2E2E2E2E2
310
E2E2E2E2E2E2E2E2E2E2E2E2E2E2E2E2E2E2E2E2E2E2E2E2E2E2E2E2E2E2E2E2E2E2E2E2E2E2E2BEE2E2E2E2E2E2E2E2DCE2E2E2E2E2E2E22DE2F5C3E2C32828E2E2E2E2E2E2E2E2E2E2E2E2E2E2E2E2E2E2E2E2E2E2E2282828E2E2E2E2E2E2E2E2E2F528C3E2E2E2E2E2C3E2E2E2E228C328E2E2E2E2E2E2E2E2E2E2DCE2
310
E2BEE2E2E2E2E2E2E2E2E2E2E2E2E2E2E2E2E2E2E2E2E2E2E2E2E2E2E2E2E2E2E2E2E2E2E2E2E2E2E2E2E2E2E2E2E2E2E2E2E2E2E2E2E2E2E2E2E2E2E2E2E2E2E2E2E2E2E2E2E2E2E2E2E2E2E2E2E2E2E2E2E2E2E2E2E2E2E2E2E2E2E2E2E2E2E2E2E2E2E2E2E2E2E2E2E2E2E2E2E2E2E2E2E2E2E2E2E2E2E2E2E2E2E2E2E2
310
E2E2E2E2E2E2E2E2E2E2E2E2E2E2E2E2E2E2E2E2E2E2E2E2E2E2E2E2E2E2E2E2E2E2E2E2E2E2E2E2E2BEE2E2E2E2E2E2E2E2DCE2E2E2E2E2BEBE2DE2F5C3E2C32828E2E2E2E2E2E2E2E2E2E2E2E2E2E2E2E2E2E2E2E2E2E2E2282828E2E2E2E2E2E2E2E2E2F528C3E2E2E2C3C3BEC3C3E2E228C328E2E2E2E2E2E2E2E2E2E2
310
DCE2E2BEE2E2E2E2E2E2E2E2E2E2E2E2E2E2E2E2E2E2E2E2E2E2E2E2E2E2E2E2E2E2E2E2E2E2E2E2E2E2E2E2E2E2E2E2E2E2E2E2E2E2E2E2E2E2E2E2E2E2E2E2E2E2E2E2E2E2E2E2E2E2E2E2E2E2E2E2E2E2E2E2E2E2E2E2E2E2E2E2E2E2E2E2E2E2E2E2E2E2E2E2E2E2E2E2E2E2E2E2E2E2E2E2E2E2E2E2E2E2E2E2E2E2E2
310
E2E2E2E2E2E2E2E2E2E2E2E2E2E2E2E2E2E2E2E2E2E2E2E2E2E2E2E2E2E2E2E2E2E2E2E2E2E2E2E2E2E2E2BEE2E2E2E2E2E2E2E2DCE2E2E2E2E2BEBE2DE2F5C3E2C32828E2E2E2E2E2E2E2E2E2E2E2E2E2E2E2E2E2E2E2E2E2E2E2282828E2E2E2E2E2E2E2E2E2F528C3E2C3C3E2E2BEE2C3C3E228C328E2E2E2E2E2E2E2E2
310
E2E2DCE2E2BEE2E2E2E2E2E2E2E2E2E2E2E2E2E2E2E2E2E2E2E2E2E2E2E2E2E2E2E2E2E2E2E2E2E2E2E2E2E2E2E2E2E2E2E2E2E2E2E2E2E2E2E2E2E2E2E2E2E2E2E2E2E2E2E2E2E2E2E2E2E2E2E2E2E2E2E2E2E2E2E2E2E2E2E2E2E2E2E2E2E2E2E2E2E2E2E2E2E2E2E2E2E2E2E2E2E2E2E2E2E2E2E2E2E2E2E2E2E2E2E2E2
310
E2E2E2E2E2E2E2E2E2E2E2E2E2E2E2E2E2E2E2E2E2E2E2E2E2E2E2E2E2E2E2E2E2E2E2E2E2E2E2E2E2E2E2E2E2BEE2E2E2E2E2E2E2E2DCE2E2E2E2E2BEBE2DE2F5C3E2C32828E2E2E2E2E2E2E2E2E2E2E2E2E2E2E2E2E2E2E2E2E2E2E2282828E2E2E2E2E2E2E2E2E2F528C3E2C3E2E2E2BEE2E2C3E228C328E2E2E2E2E2E2
310
E2E2E2E2DCE2E2BEE2E2E2E2E2E2E2E2E2E2E2E2E2E2E2E2E2E2E2E2E2E2E2E2E2E2E2E2E2E2E2E2E2E2E2E2E2E2E2E2E2E2E2E2E2E2E2E2E2E2E2E2E2E2E2E2E2E2E2E2E2E2E2E2E2E2E2E2E2E2E2E2E2E2E2E2E2E2E2E2E2E2E2E2E2E2E2E2E2E2E2E2E2E2E2E2E2E2E2E2E2E2E2E2E2E2E2E2E2E2E2E2E2E2E2E2E2E2E2
310
E2E2E2E2E2E2E2E2E2E2E2E2E2E2E2E2E2E2E2E2E2E2E2E2E2E2E2E2E2E2E2E2E2E2E2E2E2E2E2E2E2E2E2E2E2E2E2BEE2E2E2E2E2E2E2E2DCE2E2E2E2E2BEBE2DE2F5C3E2C32828E2E2E2E2E2E2E2E2E2E2E2E2E2E2E2E2E2E2E2E2E2E2E2282828E2E2E2E2E2E2E2E2E2F528C3BEC3BEBEBEBEBEBEBEC3BEC328E2E2E2E2
310
E2E2E2E2E2E2DCE2E2BEE2E2E2E2E2E2E2E2E2E2E2E2E2E2E2E2E2E2E2E2E2E2E2E2E2E2E2E2E2E2E2E2E2E2E2E2E2E2E2E2E2E2E2E2E2E2E2E2E2E2E2E2E2E2E2E2E2E2E2E2E2E2E2E2E2E2E2E2E2E2E2E2E2E2E2E2E2E2E2E2E2E2E2E2E2E2E2E2E2E2E2E2E2E2E2E2E2E2E2E2E2E2E2E2E2E2E2E2E2E2E2E2E2E2E2E2E2
310
E2E2E2E2E2E2E2E2E2E2E2E2E2E2E2E2E2E2E2E2E2E2E2E2E2E2E2E2E2E2E2E2E2E2E2E2E2E2E2E2E2E2E2E2E2E2E2E2E2BEE2E2E2E2E2E2E2E2DCE2E2E2E2E2BEBE2DE2F5C3E2C32828E2E2E2E2E2E2E2E2E2E2E2E2E2E2E2E2E2E2E2E2E2E2E2282828E2E2E2E2E2E2E2E2E2F528C3E2C3E2E2E2BEE2E2C3E228C328E2E2
310
E2E2E2E2E2E2E2E2DCE2E2BEE2E2E2E2E2E2E2E2E2E2E2E2E2E2E2E2E2E2E2E2E2E2E2E2E2E2E2E2E2E2E2E2E2E2E2E2E2E2E2E2E2E2E2E2E2E2E2E2E2E2E2E2E2E2E2E2E2E2E2E2E2E2E2E2E2E2E2E2E2E2E2E2E2E2E2E2E2E2E2E2E2E2E2E2E2E2E2E2E2E2E2E2E2E2E2E2E2E2E2E2E2E2E2E2E2E2E2E2E2E2E2E2E2E2E2
310
E2E2E2E2E2E2E2E2E2E2E2E2E2E2E2E2E2E2E2E2E2E2E2E2E2E2E2E2E2E2E2E2E2E2E2E2E2E2E2E2E2E2E2E2E2E2E2E2E2E2E2BEE2E2E2E2E2E2E2E2DCE2E2E2E2E2E2E22DE2F5C3E2C32828E2E2E2E2E2E2E2E2BEBEBEBEE2E2E2E2E2E2E2E2E2E2E2282828E2E2E2E2E2E2E2E2E2F528C3E2C3F5E2E2BEE2E2C3E228C328
310
E2E2E2E2E2E2E2E2E2E2DCE2E2BEE2E2E2E2E2E2E2E2E2E2E2E2E2E2E2E2E2E2E2E2E2E2E2E2E2E2E2E2E2E2E2E2E2E2E2E2E2E2E2E2E2E2E2E2E2E2E2E2E2E2E2E2E2E2E2E2E2E2E2E2E2E2E2E2E2E2E2E2E2E2E2E2E2E2E2E2E2E2E2E2E2E2E2E2E2E2E2E2E2E2E2E2E2E2E2E2E2E2E2E2E2E2E2E2E2E2E2E2E2E2E2E2E2
310
E2E2E2E2E2E2E2E2E2E2E2E2E2E2E2E2E2E2E2E2E2E2E2E2E2E2E2E2E2E2E2E2E2E2E2E2E2E2E2E2E2E2E2E2E2E2E2E2E2E2E2E2E2BEE2E2E2E2E2E2E2E2DCE2E2E2E2E2E2E22DE2F5C3E2C32828E2E2E2E2E2E2E2E228282828E2E2E2E2E2E2E2E2E2E2E2282828E2E2E2E2E2E2E2E2E2F528C3E2E2C3F5E2BEF5C3E2E228
310
C328E2E2E2E2E2E2E2E2E2E2DCE2E2BEE2E2E2E2E2E2E2E2E2E2E2E2E2E2E2E2E2E2E2E2E2E2E2E2E2E2E2E2E2E2E2E2E2E2E2E2E2E2E2E2E2E2E2E2E2E2E2E2E2E2E2E2E2E2E2E2E2E2E2E2E2E2E2E2E2E2E2E2E2E2E2E2E2E2E2E2E2E2E2E2E2E2E2E2E2E2E2E2E2E2E2E2E2E2E2E2E2E2E2E2E2E2E2E2E2E2E2E2E2E2E2
310
E2E2E2E2E2E2E2E2E2E2E2E2E2E2E2E2E2E2E2E2E2E2E2E2E2E2E2E2E2E2E2E2E2E2E2E2E2E2E2E2E2E2E2E2E2E2E2E2E2E2E2E2E2E2E2BEE2E2E2E2E2E2E2E2DCE2E2E2E2E2E2E22DE2F5C3E2C32828E2E2E2E2E2E2E2E228E2E2E228E2E2E2E2E2E2E2E2E2E2282828E2E2E2E2E2E2E2E2E2F528C3E2E2E2C3C3C3C3C3E2
310
E228C328E2E2E2E2E2E2E2E2E2E2DCE2E2BEE2E2E2E2E2E2E2E2E2E2E2E2E2E2E2E2E2E2E2E2E2E2E2E2E2E2E2E2E2E2E2E2E2E2E2E2E2E2E2E2E2E2E2E2E2E2E2E2E2E2E2E2E2E2E2E2E2E2E2E2E2E2E2E2E2E2E2E2E2E2E2E2E2E2E2E2E2E2E2E2E2E2E2E2E2E2E2E2E2E2E2E2E2E2E2E2E2E2E2E2E2E2E2E2E2E2E2E2E2
310
E2E2E2E2E2E2E2E2E2E2E2E2E2E2E2E2E2E2E2E2E2E2E2E2E2E2E2E2E2E2E2E2E2E2E2E2E2E2E2E2E2E2E2E2E2E2E2E2E2E2E2E2E2E2E2E2E2BEE2E2E2E2E2E2E2E2DCE2E2E2E2E2E2E22DE2F5C3E2C32828E2E2E2E2E2E2E2E228E2E2E228E2E2E2E2E2E2E2E2E2E2282828E2E2E2E2E2E2E2E2E2F528C3E2E2E2E2E2BEE2
310
E2E2E228C328E2E2E2E2E2E2E2E2E2E2DCE2E2BEE2E2E2E2E2E2E2E2E2E2E2E2E2E2E2E2E2E2E2E2E2E2E2E2E2E2E2E2E2E2E2E2E2E2E2E2E2E2E2E2E2E2E2E2E2E2E2E2E2E2E2E2E2E2E2E2E2E2E2E2E2E2E2E2E2E2E2E2E2E2E2E2E2E2E2E2E2E2E2E2E2E2E2E2E2E2E2E2E2E2E2E2E2E2E2E2E2E2E2E2E2E2E2E2E2E2E2
310
E2E2E2E2E2E2E2E2E2E2E2E2E2E2E2E2E2E2E2E2E2E2E2E2E2E2E2E2E2E2E2E2E2E2E2E2E2E2E2E2E2E2E2E2E2E2E2E2E2E2E2E2E2E2E2E2E2E2E2BEE2E2E2E2E2E2E2E2DCE2E2E2E2E2E2E22DE2F5C3E2C32828E2E2E2E2E2E2E2E228E2E22828E2E2E2E2E2E2E2E2E2E2282828E2E2E2E2E2E2E2E2E2F528C3E2E2E2E2E2
310
BEE2E2E2E228C328E2E2E2E2E2E2E2E2E2E2DCE2E2BEE2E2E2E2E2E2E2E2E2E2E2E2E2E2E2E2E2E2E2E2E2E2E2E2E2E2E2E2E2E2E2E2E2E2E2E2E2E2E2E2E2E2E2E2E2E2E2E2E2E2E2E2E2E2E2E2E2E2E2E2E2E2E2E2E2E2E2E2E2E2E2E2E2E2E2E2E2E2E2E2E2E2E2E2E2E2E2E2E2E2E2E2E2E2E2E2E2E2E2E2E2E2E2E2E2
310
E2E2E2E2E2E2E2E2E2E2E2E2E2E2E2E2E2E2E2E2E2E2E2E2E2E2E2E2E2E2E2E2E2E2E2E2E2E2E2E2E2E2E2E2E2E2E2E2E2E2E2E2E2E2E2E2E2E2E2E2E2BEE2E2E2E2E2E2E2E2DCE2E2E2E2E2E2E22DE2F5C3E2C32828E2E2E2E2E2E2E2E2E2282828E2E2E2E2E2E2E2E2E2E2E2282828E2E2E2E2E2E2E2E2E2F528C3E2E2E2
310
E2E2E2E2E2E2E228C328E2E2E2E2E2E2E2E2E2E2DCE2E2BEE2E2E2E2E2E2E2E2E2E2E2E2E2E2E2E2E2E2E2E2E2E2E2E2E2E2E2E2E2E2E2E2E2E2E2E2E2E2E2E2E2E2E2E2E2E2E2E2E2E2E2E2E2E2E2E2E2E2E2E2E2E2E2E2E2E2E2E2E2E2E2E2E2E2E2E2E2E2E2E2E2E2E2E2E2E2E2E2E2E2E2E2E2E2E2E2E2E2E2E2E2E2E2
310
E2E2E2E2E2E2E2E2E2E2E2E2E2E2E2E2E2E2E2E2E2E2E2E2E2E2E2E2E2E2E2E2E2E2E2E2E2E2E2E2E2E2E2E2E2E2E2E2E2E2E2E2E2E2E2E2E2E2E2E2E2E2E2BEE2E2E2E2E2E2E2E2DCE2E2E2E2E2E2E22DE2F5C3E2C32828E2E2E2E2E2E2E2E2E2E2E2E2E2E2E2E2E2E2E2E2E2E2E2282828E2E2E2E2E2E2E2E2E2F528C3E2
310
E2E2E2E2E2E2E2E2E228C328E2E2E2E2E2E2E2E2E2E2DCE2E2BEE2E2E2E2E2E2E2E2E2E2E2E2E2E2E2E2E2E2E2E2E2E2E2E2E2E2E2E2E2E2E2E2E2E2E2E2E2E2E2E2E2E2E2E2E2E2E2E2E2E2E2E2E2E2E2E2E2E2E2E2E2E2E2E2E2E2E2E2E2E2E2E2E2E2E2E2E2E2E2E2E2E2E2E2E2E2E2E2E2E2E2E2E2E2E2E2E2E2E2E2E2
310
E2E2E2E2E2E2E2E2E2E2E2E2E2E2E2E2E2E2E2E2E2E2E2E2E2E2E2E2E2E2E2E2E2E2E2E2E2E2E2E2E2E2E2E2E2E2E2E2E2E2E2E2E2E2E2E2E2E2E2E2E2E2E2E2E2BEE2E2E2E2E2E2E2E2DCE2E2E2E2E2E2E22DE2F5C3C3C32828E2E2E2E2E2E2E2E2E2E2E2E2E2E2E2E2E2E2E2E2E2E2E2282828E2E2E2E2E2E2E2E2E2F528
310
C3C3C3C3C3C3C3C3C3C3C3C3C328E2E2E2E2E2E2E2E2E2E2DCE2E2BEE2E2E2E2E2E2E2E2E2E2E2E2E2E2E2E2E2E2E2E2E2E2E2E2E2E2E2E2E2E2E2E2E2E2E2E2E2E2E2E2E2E2E2E2E2E2E2E2E2E2E2E2E2E2E2E2E2E2E2E2E2E2E2E2E2E2E2E2E2E2E2E2E2E2E2E2E2E2E2E2E2E2E2E2E2E2E2E2E2E2E2E2E2E2E2E2E2E2E2
310
E2E2E2E2E2E2E2E2E2E2E2E2E2E2E2E2E2E2E2E2E2E2E2E2E2E2E2E2E2E2E2E2E2E2E2E2E2E2E2E2E2E2E2E2E2E2E2E2E2E2E2E2E2E2E2E2E2E2E2E2E2E2E2E2E2E2E2BEE2E2E2E2E2E2E2E2DCE2E2E2E2E2E2E22DE2F528282828282828282828282828282828282828282828282828282828282828E2E2E2E2E2E2E2E2E2
310
F528F528282828282828282828282828E2E2E2E2E2E2E2E2E2E2DCE2E2BEE2E2E2E2E2E2E2E2E2E2E2E2E2E2E2E2E2E2E2E2E2E2E2E2E2E2E2E2E2E2E2E2E2E2E2E2E2E2E2E2E2E2E2E2E2E2E2E2E2E2E2E2E2E2E2E2E2E2E2E2E2E2E2E2E2E2E2E2E2E2E2E2E2E2E2E2E2E2E2E2E2E2E2E2E2E2E2E2E2E2E2E2E2E2E2E2E2
310
E2E2E2E2E2E2E2E2E2E2E2E2E2E2E2E2E2E2E2E2E2E2E2E2E2E2E2E2E2E2E2E2E2E2E2E2E2E2E2E2E2E2E2E2E2E2E2E2E2E2E2E2E2E2E2E2E2E2E2E2E2E2E2E2E2E2E2E2E2BEE2E2E2E2E2E2E2E2DCE2E2E2E2E2E2E22DE2F528E228E2E2E2E2E2E2E2E2E2E2E2E2E2E2E2E2E2E2E2E2E2E2E2E2E228E228E2E2E2E2E2E2E2
310
E2E2F528F5E2E2E2E2E2E2E2E2E2E2E2E228E2E2E2E2E2E2E2E2E2E2DCE2E2BEE2E2E2E2E2E2E2E2E2E2E2E2E2E2E2E2E2E2E2E2E2E2E2E2E2E2E2E2E2E2E2E2E2E2E2E2E2E2E2E2E2E2E2E2E2E2E2E2E2E2E2E2E2E2E2E2E2E2E2E2E2E2E2E2E2E2E2E2E2E2E2E2E2E2E2E2E2E2E2E2E2E2E2E2E2E2E2E2E2E2E2E2E2E2E2
310
E2E2E2E2E2E2E2E2E2E2E2E2E2E2E2E2E2E2E2E2E2E2E2E2E2E2E2E2E2E2E2E2E2E2E2E2E2E2E2E2E2E2E2E2E2E2E2E2E2E2E2E2E2E2E2E2E2E2E2E2E2E2E2E2E2E2E2E2E2E2E2BEE2E2E2E2E2E2E2E2DCE2E2E2E2E2E2E22DE2F528E228E2E2E2E2E2E2E2E2E2E2E2E2E2E2E2E2E2E2E2E2E2E2E2E2E228E228E2E2E2E2E2
310
E2E2E2E2F528F5E2E2E2E2E2E2E2E2E2E2E2E228E2E2E2E2E2E2E2E2E2E2DCE2E2BEE2E2E2E2E2E2E2E2E2E2E2E2E2E2E2E2E2E2E2E2E2E2E2E2E2E2E2E2E2E2E2E2E2E2E2E2E2E2E2E2E2E2E2E2E2E2E2E2E2E2E2E2E2E2E2E2E2E2E2E2E2E2E2E2E2E2E2E2E2E2E2E2E2E2E2E2E2E2E2E2E2E2E2E2E2E2E2E2E2E2E2E2E2
310
E2E2E2E2E2E2E2E2E2E2E2E2E2E2E2E2E2E2E2E2E2E2E2E2E2E2E2E2E2E2E2E2E2E2E2E2E2E2E2E2E2E2E2E2E2E2E2E2E2E2E2E2E2E2E2E2E2E2E2E2E2E2E2E2E2E2E2E2E2E2E2E2E2BEE2E2E2E2E2E2E2E2DCE2E2E2E2E2E2E22DE2F528E228E2E2E2E2E2E2E2E2E2E2E2E2E2E2E2E2E2E2E2E2E2E2E2E2E2282828E2E2E2
310
E2E2E2E2E2E2F528F5E2E2E2E2E2E2E2E2E2E2E2E228E2E2E2E2E2E2E2E2E2E2DCE2E2BEE2E2E2E2E2E2E2E2E2E2E2E2E2E2E2E2E2E2E2E2E2E2E2E2E2E2E2E2E2E2E2E2E2E2E2E2E2E2E2E2E2E2E2E2E2E2E2E2E2E2E2E2E2E2E2E2E2E2E2E2E2E2E2E2E2E2E2E2E2E2E2E2E2E2E2E2E2E2E2E2E2E2E2E2E2E2E2E2E2E2E2
310
E2E2E2E2E2E2E2E2E2E2E2E2E2E2E2E2E2E2E2E2E2E2E2E2E2E2E2E2E2E2E2E2E2E2E2E2E2E2E2E2E2E2E2E2E2E2E2E2E2E2E2E2E2E2E2E2E2E2E2E2E2E2E2E2E2E2E2E2E2E2E2E2E2E2E2BEE2E2E2E2E2E2E2E2DCE2E2E2E2E2E2E22DE2F528E228E2E2E2E2E2E2E2E2E2E2E2E2E2E2E2E2E2E2E2E2E2E2E2E22828E228E2
310
E2E2E2E2E2E2E2E2F528F5E2E2E2E2E2E2E2E2E2E2E2E228E2E2E2E2E2E2E2E2E2E2DCE2E2BEE2E2E2E2E2E2E2E2E2E2E2E2E2E2E2E2E2E2E2E2E2E2E2E2E2E2E2E2E2E2E2E2E2E2E2E2E2E2E2E2E2E2E2E2E2E2E2E2E2E2E2E2E2E2E2E2E2E2E2E2E2E2E2E2E2E2E2E2E2E2E2E2E2E2E2E2E2E2E2E2E2E2E2E2E2E2E2E2E2
310
E2E2E2E2E2E2E2E2E2E2E2E2E2E2E2E2E2E2E2E2E2E2E2E2E2E2E2E2E2E2E2E2E2E2E2E2E2E2E2E2E2E2E2E2E2E2E2E2E2E2E2E2E2E2E2E2E2E2E2E2E2E2E2E2E2E2E2E2E2E2E2E2E2E2E2E2E2BEE2E2E2E2E2E2E2E2DCE2E2E2E2E2E2E22DE2F528E228E2E2E2E2E2E2E2E2E2E2E2E2E2E2E2E2E2E2E2E2E2E2E2E2E228E2
310
28E2E2E2E2E2E2E2E2E2F528F5E2E2E2E2E2E2E2E2E2E2E2E228E2E2E2E2E2E2E2E2E2E2DCE2E2BEE2E2E2E2E2E2E2E2E2E2E2E2E2E2E2E2E2E2E2E2E2E2E2E2E2E2E2E2E2E2E2E2E2E2E2E2E2E2E2E2E2E2E2E2E2E2E2E2E2E2E2E2E2E2E2E2E2E2E2E2E2E2E2E2E2E2E2E2E2E2E2E2E2E2E2E2E2E2E2E2E2E2E2E2E2E2E2
310
E2E2E2E2E2E2E2E2E2E2E2E2E2E2E2E2E2E2E2E2E2E2E2E2E2E2E2E2E2E2E2E2E2E2E2E2E2E2E2E2E2E2E2E2E2E2E2E2E2E2E2E2E2E2E2E2E2E2E2E2E2E2E2E2E2E2E2E2E2E2E2E2E2E2E2E2E2E2E2BEE2E2E2E2E2E2E2E2DCE2E2E2E2E2E2E22DE2F528E228E2E2E2E2E2E2E2E2E2E2E2E2E2E2E2E2E2E2E2E2E2E2E2E2E2
310
282828E2E2E2E2E2E2E2E2E2F528F5E2E2E2E2E2E2E2E2E2E2E2E228E2E2E2E2E2E2E2E2E2E2DCE2E2BEE2E2E2E2E2E2E2E2E2E2E2E2E2E2E2E2E2E2E2E2E2E2E2E2E2E2E2E2E2E2E2E2E2E2E2E2E2E2E2E2E2E2E2E2E2E2E2E2E2E2E2E2E2E2E2E2E2E2E2E2E2E2E2E2E2E2E2E2E2E2E2E2E2E2E2E2E2E2E2E2E2E2E2E2E2
310
E2E2E2E2E2E2E2E2E2E2E2E2E2E2E2E2E2E2E2E2E2E2E2E2E2E2E2E2E2E2E2E2E2E2E2E2E2E2E2E2E2E2E2E2E2E2E2E2E2E2E2E2E2E2E2E2E2E2E2E2E2E2E2E2E2E2E2E2E2E2E2E2E2E2E2E2E2E2E2E2E2BEE2E2E2E2E2E2E2E2DCE2E2E2E2E2E2E22DE2F528E228E2E2E2E2E2E2E2E2E2E2E2E2E2E2E2E2E2E2E2E2E2E2E2
310
E2E228E228E2E2E2E2E2E2E2E2E2F528F5E2E2E2E2E2E2E2E2E2E2E2E228E2E2E2E2E2E2E2E2E2E2DCE2E2BEE2E2E2E2E2E2E2E2E2E2E2E2E2E2E2E2E2E2E2E2E2E2E2E2E2E2E2E2E2E2E2E2E2E2E2E2E2E2E2E2E2E2E2E2E2E2E2E2E2E2E2E2E2E2E2E2E2E2E2E2E2E2E2E2E2E2E2E2E2E2E2E2E2E2E2E2E2E2E2E2E2E2E2
310
E2E2E2E2E2E2E2E2E2E2E2E2E2E2E2E2E2E2E2E2E2E2E2E2E2E2E2E2E2E2E2E2E2E2E2E2E2E2E2E2E2E2E2E2E2E2E2E2E2E2E2E2E2E2E2E2E2E2E2E2E2E2E2E2E2E2E2E2E2E2E2E2E2E2E2E2E2E2E2E2E2E2E2BEE2E2E2E2E2E2E2E2DCE2E2E2E2E2E2E22DE2F528E228E2BEBEBEE2E2E2E2E2E2E2E2E2E2E2E2E2E2E2E2E2
310
28BEBEE228E228E2E2E2E2E2E2E2E2E2F528F5E2E2E2E2E2E2E2E2E2E2E2E228E2E2E2E2E2E2E2E2E2E2DCE2E2BEE2E2E2E2E2E2E2E2E2E2E2E2E2E2E2E2E2E2E2E2E2E2E2E2E2E2E2E2E2E2E2E2E2E2E2E2E2E2E2E2E2E2E2E2E2E2E2E2E2E2E2E2E2E2E2E2E2E2E2E2E2E2E2E2E2E2E2E2E2E2E2E2E2E2E2E2E2E2E2E2E2
310
E2E2E2E2E2E2E2E2E2E2E2E2E2E2E2E2E2E2E2E2E2E2E2E2E2E2E2E2E2E2E2E2E2E2E2E2E2E2E2E2E2E2E2E2E2E2E2E2E2E2E2E2E2E2E2E2E2E2E2E2E2E2E2E2E2E2E2E2E2E2E2E2E2E2E2E2E2E2E2E2E2E2E2E2E2BEE2E2E2E2E2E2E2E2DCE2E2E2E2E2E2E22DE2F528E228E228BE28E2E2E2E2E2E2E2E2E2E2E2E2E2E2E2
310
E2E228BEE2E228E228E2E2E2E2E2E2E2E2E2F528F5E2E2E2E2E2E2E2E2E2E2E2E228E2E2E2E2E2E2E2E2E2E2DCE2E2BEE2E2E2E2E2E2E2E2E2E2E2E2E2E2E2E2E2E2E2E2E2E2E2E2E2E2E2E2E2E2E2E2E2E2E2E2E2E2E2E2E2E2E2E2E2E2E2E2E2E2E2E2E2E2E2E2E2E2E2E2E2E2E2E2E2E2E2E2E2E2E2E2E2E2E2E2E2E2E2
310
E2E2E2E2E2E2E2E2E2E2E2E2E2E2E2E2E2E2E2E2E2E2E2E2E2E2E2E2E2E2E2E2E2E2E2E2E2E2E2E2E2E2E2E2E2E2E2E2E2E2E2E2E2E2E2E2E2E2E2E2E2E2E2E2E2E2E2E2E2E2E2E2E2E2E2E2E2E2E2E2E2E2E2E2E2E2E2BEE2E2E2E2E2E2E2E2DCE2E2E2E2E2E2E22DE2F528E228E2E2BEE2E2E2E2E2E2E2E2E2E2E2E2E2E2
310
E2E2E2E22828E2E228E228E2E2E2E2E2E2E2E2E2F528F5E2E2E2E2E2E2E2E2E2E2E2E228E2E2E2E2E2E2E2E2E2E2DCE2E2BEE2E2E2E2E2E2E2E2E2E2E2E2E2E2E2E2E2E2E2E2E2E2E2E2E2E2E2E2E2E2E2E2E2E2E2E2E2E2E2E2E2E2E2E2E2E2E2E2E2E2E2E2E2E2E2E2E2E2E2E2E2E2E2E2E2E2E2E2E2E2E2E2E2E2E2E2E2
310
E2E2E2E2E2E2E2E2E2E2E2E2E2E2E2E2E2E2E2E2E2E2E2E2E2E2E2E2E2E2E2E2E2E2E2E2E2E2E2E2E2E2E2E2E2E2E2E2E2E2E2E2E2E2E2E2E2E2E2E2E2E2E2E2E2E2E2E2E2E2E2E2E2E2E2E2E2E2E2E2E2E2E2E2E2E2E2E2E2BEE2E2E2E2E2E2E2E2DCE2E2E2E2E2E2E22DE2F528F528F5F5F5282828282828282828282828
310
282828282828F5F5F5F528F528E2E2E2E2E2E2E2E2E22828F5E2E2E2E2E2E2E2E2E2E2E2E228E2E2E2E2E2E2E2E2E2E2DCE2E2BEE2E2E2E2E2E2E2E2E2E2E2E2E2E2E2E2E2E2E2E2E2E2E2E2E2E2E2E2E2E2E2E2E2E2E2E2E2E2E2E2E2E2E2E2E2E2E2E2E2E2E2E2E2E2E2E2E2E2E2E2E2E2E2E2E2E2E2E2E2E2E2E2E2E2E2
310
E2E2E2E2E2E2E2E2E2E2E2E2E2E2E2E2E2E2E2E2E2E2E2E2E2E2E2E2E2E2E2E2E2E2E2E2E2E2E2E2E2E2E2E2E2E2E2E2E2E2E2E2E2E2E2E2E2E2E2E2E2E2E2E2E2E2E2E2E2E2E2E2E2E2E2E2E2E2E2E2E2E2E2E2E2E2E2E2E2E2E2BEE2E2E2E2E2E2E2E2DCE2E2E2E2E2E2E22DE2BEBEBE2828282828282828282828282828
310
282828282828282828282828282828E2E2E2E2E2E2E2E2E2F5BEBEF5E2E2E2E2E2E2E2E2E2E2E228E2E2E2E2E2E2E2E2E2E2DCE2E2BEE2E2E2E2E2E2E2E2E2E2E2E2E2E2E2E2E2E2E2E2E2E2E2E2E2E2E2E2E2E2E2E2E2E2E2E2E2E2E2E2E2E2E2E2E2E2E2E2E2E2E2E2E2E2E2E2E2E2E2E2E2E2E2E2E2E2E2E2E2E2E2E2E2
310
E2E2E2E2E2E2E2E2E2E2E2E2E2E2E2E2E2E2E2E2E2E2E2E2E2E2E2E2E2E2E2E2E2E2E2E2E2E2E2E2E2E2E2E2E2E2E2E2E2E2E2E2E2E2E2E2E2E2E2E2E2E2E2E2E2E2E2E2E2E2E2E2E2E2E2E2E2E2E2E2E2E2E2E2E2E2E2E2E2E2E2E2E2BEE2E2E2E2E2E2E2E2DCE2E2E2E2E2E22DF52DF528F528F5F5F5F5F5F5F5F5F5F5F5
310
F5F5F5F5F5F5F5F5F5F5F5F5F5F528F528E2E2E2E2E2E2E2E2E2F5F5F5F5F5F5F5F5F5BEF5F5F5F5F5F5F5F5E2E2E2E2E2E2E2E2DCE2E2BEE2E2E2E2E2E2E2E2E2E2E2E2E2E2E2E2E2E2E2E2E2E2E2E2E2E2E2E2E2E2E2E2E2E2E2E2E2E2E2E2E2E2E2E2E2E2E2E2E2E2E2E2E2E2E2E2E2E2E2E2E2E2E2E2E2E2E2E2E2E2E2
310
E2E2E2E2E2E2E2E2E2E2E2E2E2E2E2E2E2E2E2E2E2E2E2E2E2E2E2E2E2E2E2E2E2E2E2E2E2E2E2E2E2E2E2E2E2E2E2E2E2E2E2E2E2E2E2E2E2E2E2E2E2E2E2E2E2E2E2E2E2E2E2E2E2E2E2E2E2E2E2E2E2E2E2E2E2E2E2E2E2E2E2E2E2E2E2BEE2E2E2E2E2E2E2E2DCE2E2E2E2E2E2E2E2E2E2E2E2E2E2E2E2E2E2E2E2E2E2
310
E2E2E2E2E2E2E2E2E2E2E2E2E2E2E2E2E2E2E2E2E2E2E2E2E2E2E2E2E22DE2E2E2E2E2E2BEBEE2E2E2E2E2E2E22DE2E2E2E2E2E2E2E2DCE2E2BEE2E2E2E2E2E2E2E2E2E2E2E2E2E2E2E2E2E2E2E2E2E2E2E2E2E2E2E2E2E2E2E2E2E2E2E2E2E2E2E2E2E2E2E2E2E2E2E2E2E2E2E2E2E2E2E2E2E2E2E2E2E2E2E2E2E2E2E2E2
310
E2E2E2E2E2E2E2E2E2E2E2E2E2E2E2E2E2E2E2E2E2E2E2E2E2E2E2E2E2E2E2E2E2E2E2E2E2E2E2E2E2E2E2E2E2E2E2E2E2E2E2E2E2E2E2E2E2E2E2E2E2E2E2E2E2E2E2E2E2E2E2E2E2E2E2E2E2E2E2E2E2E2E2E2E2E2E2E2E2E2E2E2E2E2E2E2E2BEE2E2E2E2E2E2E2E2DCE2E2E2E2E2E2E2E2E2E2E2E2E2E2E2E2E2E2E2E2
310
E2E2E2E2E2E2E2E2E2E2E2E2E2E2E2E2E2E2E2E2E2E2E2E2E2E2E2E2E2E2E22DE2E2E2E2E2E2E2E2BEE2E2E2E2E2E22DE2E2E2E2E2E2E2E2DCE2E2BEE2E2E2E2E2E2E2E2E2E2E2E2E2E2E2E2E2E2E2E2E2E2E2E2E2E2E2E2E2E2E2E2E2E2E2E2E2E2E2E2E2E2E2E2E2E2E2E2E2E2E2E2E2E2E2E2E2E2E2E2E2E2E2E2E2E2E2
310
E2E2E2E2E2E2E2E2E2E2E2E2E2E2E2E2E2E2E2E2E2E2E2E2E2E2E2E2E2E2E2E2E2E2E2E2E2E2E2E2E2E2E2E2E2E2E2E2E2E2E2E2E2E2E2E2E2E2E2E2E2E2E2E2E2E2E2E2E2E2E2E2E2E2E2E2E2E2E2E2E2E2E2E2E2E2E2E2E2E2E2E2E2E2E2E2E2E2E2BEE2E2E2E2E2E2E2E2DCE2E2E2E2E2E2E2E2E2E2E2E2E2E2E2E2E2E2
310
E2E2E2E2E2E2E2E2E2E2E2E2E2E2E2E2E2E2E2E2E2E2E2E2E2E2E2E2E2E2E2E2E22DE2E2E2E2E2E2E2E2E2E2E2E2E2E2E22DE2E2E2E2E2E2E2E2DCE2E2BEE2E2E2E2E2E2E2E2E2E2E2E2E2E2E2E2E2E2E2E2E2E2E2E2E2E2E2E2E2E2E2E2E2E2E2E2E2E2E2E2E2E2E2E2E2E2E2E2E2E2E2E2E2E2E2E2E2E2E2E2E2E2E2E2E2
310
E2E2E2E2E2E2E2E2E2E2E2E2E2E2E2E2E2E2E2E2E2E2E2E2E2E2E2E2E2E2E2E2E2E2E2E2E2E2E2E2E2E2E2E2E2E2E2E2E2E2E2E2E2E2E2E2E2E2E2E2E2E2E2E2E2E2E2E2E2E2E2E2E2E2E2E2E2E2E2E2E2E2E2E2E2E2E2E2E2E2E2E2E2E2E2E2E2E2E2E2E2BEE2E2E2E2E2E2E2E2DCE2E2E2E2E2E2E2E2E2E2E2E2E2E2E2E2
310
E2E2E2E2E2E2E2E2E2E2E2E2E2E2E2E2E2E2E2E2E2E2E2E2E2E2E2E2E2E2E2E2E2E2E22DE2E2E2E2E2E2E2E2E2E2E2E2E2E2E22DE2E2E2E2E2E2E2E2DCE2E2BEE2E2E2E2E2E2E2E2E2E2E2E2E2E2E2E2E2E2E2E2E2E2E2E2E2E2E2E2E2E2E2E2E2E2E2E2E2E2E2E2E2E2E2E2E2E2E2E2E2E2E2E2E2E2E2E2E2E2E2E2E2E2E2
310
E2E2E2E2E2E2E2E2E2E2E2E2E2E2E2E2E2E2E2E2E2E2E2E2E2E2E2E2E2E2E2E2E2E2E2E2E2E2E2E2E2E2E2E2E2E2E2E2E2E2E2E2E2E2E2E2E2E2E2E2E2E2E2E2E2E2E2E2E2E2E2E2E2E2E2E2E2E2E2E2E2E2E2E2E2E2E2E2E2E2E2E2E2E2E2E2E2E2E2E2E2E2E2BEE2E2E2E2E2E2E2E2DCE2E2E2E2E2E2E2E2E2E2E2E2E2E2
310
E2E2E2E2E2E2E2E2E2E2E2E2E2E2E2E2E2E2E2E2E2E2E2E2E2E2E2E2E2E2E2E2E2E2E2E2E22D2D2D2D2D2D2D2D2D2D2D2D2D2D2D2DF5E2E2E2E2E2E2E2E2DCE2E2BEE2E2E2E2E2E2E2E2E2E2E2E2E2E2E2E2E2E2E2E2E2E2E2E2E2E2E2E2E2E2E2E2E2E2E2E2E2E2E2E2E2E2E2E2E2E2E2E2E2E2E2E2E2E2E2E2E2E2E2E2E2
310
E2E2E2E2E2E2E2E2E2E2E2E2E2E2E2E2E2E2E2E2E2E2E2E2E2E2E2E2E2E2E2E2E2E2E2E2E2E2E2E2E2E2E2E2E2E2E2E2E2E2E2E2E2E2E2E2E2E2E2E2E2E2E2E2E2E2E2E2E2E2E2E2E2E2E2E2E2E2E2E2E2E2E2E2E2E2E2E2E2E2E2E2E2E2E2E2E2E2E2E2E2E2E2E2E2BEE2E2E2E2E2E2E2E2DCE2E2E2E2E2E2E2E2E2E2E2E2
310
E2E2E2E2E2E2E2E2E2E2E2E2E2E2E2E2E2E2E2E2E2E2E2E2E2E2E2E2E2E2E2E2E2E2E2E2E2E2E22DE2E2E2E2E2BEBEBEBEE2E2E2E2E2E22DE2E2E2E2E2E2E2E2DCE2E2BEE2E2E2E2E2E2E2E2E2E2E2E2E2E2E2E2E2E2E2E2E2E2E2E2E2E2E2E2E2E2E2E2E2E2E2E2E2E2E2E2E2E2E2E2E2E2E2E2E2E2E2E2E2E2E2E2E2E2E2
310
E2E2E2E2E2E2E2E2E2E2E2E2E2E2E2E2E2E2E2E2E2E2E2E2E2E2E2E2E2E2E2E2E2E2E2E2E2E2E2E2E2E2E2E2E2E2E2E2E2E2E2E2E2E2E2E2E2E2E2E2E2E2E2E2E2E2E2E2E2E2E2E2E2E2E2E2E2E2E2E2E2E2E2E2E2E2E2E2E2E2E2E2E2E2E2E2E2E2E2E2E2E2E2E2E2E2E2BEE2E2E2E2E2E2E2E2DCE2E2E2E2E2E2E2E2E2E2
310
E2E2E2E2E2E2E2E2E2E2E2E2E2E2E2E2E2E2E2E2E2E2E2E2E2E2E2E2E2E2E2E2E2E2E2E2E2E2E2E2E2E2E2E2E2E2E2BEBEBEBEE2E2E2E2E2E2E2E2E2E2E2E2E2E2E2DCE2E2BEE2E2E2E2E2E2E2E2E2E2E2E2E2E2E2E2E2E2E2E2E2E2E2E2E2E2E2E2E2E2E2E2E2E2E2E2E2E2E2E2E2E2E2E2E2E2E2E2E2E2E2E2E2E2E2E2E2
310
E2E2E2E2E2E2E2E2E2E2E2E2E2E2E2E2E2E2E2E2E2E2E2E2E2E2E2E2E2E2E2E2E2E2E2E2E2E2E2E2E2E2E2E2E2E2E2E2E2E2E2E2E2E2E2E2E2E2E2E2E2E2E2E2E2E2E2E2E2E2E2E2E2E2E2E2E2E2E2E2E2E2E2E2E2E2E2E2E2E2E2E2E2E2E2E2E2E2E2E2E2E2E2E2E2E2E2E2E2BEE2E2E2E2E2E2E2E2DCE2E2E2E2E2E2E2E2
310
E2E2E2E2E2E2E2E2E2E2E2E2E2E2E2E2E2E2E2E2E2E2E2E2E2E2E2E2E2E2E2E2E2E2E2E2E2E2E2E2E2E2E2E2E2E2E2E2E2E2E2E2E2E2E2E2E2E2E2E2E2E2E2E2E2E2E2E2DCE2E2BEE2E2E2E2E2E2E2E2E2E2E2E2E2E2E2E2E2E2E2E2E2E2E2E2E2E2E2E2E2E2E2E2E2E2E2E2E2E2E2E2E2E2E2E2E2E2E2E2E2E2E2E2E2E2E2
310
E2E2E2E2E2E2E2E2E2E2E2E2E2E2E2E2E2E2E2E2E2E2E2E2E2E2E2E2E2E2E2E2E2E2E2E2E2E2E2E2E2E2E2E2E2E2E2E2E2E2E2E2E2E2E2E2E2E2E2E2E2E2E2E2E2E2E2E2E2E2E2E2E2E2E2E2E2E2E2E2E2E2E2E2E2E2E2E2E2E2E2E2E2E2E2E2E2E2E2E2E2E2E2E2E2E2E2E2E2E2E2BEE2E2E2E2E2E2E2E2DCE2E2E2E2E2E2
310
E2E2E2E2E2E2E2E2E2E2E2E2E2E2E2E2E2E2E2E2E2E2E2E2E2E2E2E2E2E2E2E2E2E2E2E2E2E2E2E2E2E2E2E2E2E2E2E2E2E2E2E2E2E2E2E2E2E2E2E2E2E2E2E2E2E2E2E2E2E2DCE2E2BEE2E2E2E2E2E2E2E2E2E2E2E2E2E2E2E2E2E2E2E2E2E2E2E2E2E2E2E2E2E2E2E2E2E2E2E2E2E2E2E2E2E2E2E2E2E2E2E2E2E2E2E2E2
310
E2E2E2E2E2E2E2E2E2E2E2E2E2E2E2E2E2E2E2E2E2E2E2E2E2E2E2E2E2E2E2E2E2E2E2E2E2E2E2E2E2E2E2E2E2E2E2E2E2E2E2E2E2E2E2E2E2E2E2E2E2E2E2E2E2E2E2E2E2E2E2E2E2E2E2E2E2E2E2E2E2E2E2E2E2E2E2E2E2E2E2E2E2E2E2E2E2E2E2E2E2E2E2E2E2E2E2E2E2E2E2E2E2BEE2E2E2E2E2E2E2E2DCE2E2E2E2
310
E2E2E2E2E2E2E2E2E2E2E2E2E2E2E2E2E2E2E2E2E2E2E2E2E2E2E2E2E2E2E2E2E2E2E2E2E2E2E2E2E2E2E2E2E2E2E2E2E2E2E2E2E2E2E2E2E2E2E2E2E2E2E2E2E2E2E2E2E2E2E2E2DCE2E2BEE2E2E2E2E2E2E2E2E2E2E2E2E2E2E2E2E2E2E2E2E2E2E2E2E2E2E2E2E2E2E2E2E2E2E2E2E2E2E2E2E2E2E2E2E2E2E2E2E2E2E2
310
E2E2E2E2E2E2E2E2E2E2E2E2E2E2E2E2E2E2E2E2E2E2E2E2E2E2E2E2E2E2E2E2E2E2E2E2E2E2E2E2E2E2E2E2E2E2E2E2E2E2E2E2E2E2E2E2E2E2E2E2E2E2E2E2E2E2E2E2E2E2E2E2E2E2E2E2E2E2E2E2E2E2E2E2E2E2E2E2E2E2E2E2E2E2E2E2E2E2E2E2E2E2E2E2E2E2E2E2E2E2E2E2E2E2E2BEE2E2E2E2E2E2E2E2DCE2E2
310
E2E2E2E2E2E2E2E2E2E2E2E2E2E2E2E2E2E2E2E2E2E2E2E2E2E2E2E2E2E2E2E2E2E2E2E2E2E2E2E2E2E2E2E2E2E2E2E2E2E2E2E2E2E2E2E2E2E2E2E2E2E2E2E2E2E2E2E2E2E2E2E2E2E2DCE2E2BEE2E2E2E2E2E2E2E2E2E2E2E2E2E2E2E2E2E2E2E2E2E2E2E2E2E2E2E2E2E2E2E2E2E2E2E2E2E2E2E2E2E2E2E2E2E2E2E2E2
310
E2E2E2E2E2E2E2E2E2E2E2E2E2E2E2E2E2E2E2E2E2E2E2E2E2E2E2E2E2E2E2E2E2E2E2E2E2E2E2E2E2E2E2E2E2E2E2E2E2E2E2E2E2E2E2E2E2E2E2E2E2E2E2E2E2E2E2E2E2E2E2E2E2E2E2E2E2E2E2E2E2E2E2E2E2E2E2E2E2E2E2E2E2E2E2E2E2E2E2E2E2E2E2E2E2E2E2E2E2E2E2E2E2E2E2E2E2BEE2E2E2E2E2E2E2E2DC
310
E2E2E2E2E2E2E2E2E2E2E2E2E2E2E2E2E2E2E2E2E2E2E2E2E2E2E2E2E2E2E2E2E2E2E2E2E2E2E2E2E2E2E2E2E2E2E2E2E2E2E2E2E2E2E2E2E2E2E2E2E2E2E2E2E2E2E2E2E2E2E2E2E2E2E2E2DCE2E2BEE2E2E2E2E2E2E2E2E2E2E2E2E2E2E2E2E2E2E2E2E2E2E2E2E2E2E2E2E2E2E2E2E2E2E2E2E2E2E2E2E2E2E2E2E2E2E2
310
E2E2E2E2E2E2E2E2E2E2E2E2E2E2E2E2E2E2E2E2E2E2E2E2E2E2E2E2E2E2E2E2E2E2E2E2E2E2E2E2E2E2E2E2E2E2E2E2E2E2E2E2E2E2E2E2E2E2E2E2E2E2E2E2E2E2E2E2E2E2E2E2E2E2E2E2E2E2E2E2E2E2E2E2E2E2E2E2E2E2E2E2E2E2E2E2E2E2E2E2E2E2E2E2E2E2E2E2E2E2E2E2E2E2E2E2E2E2E2BEE2E2E2E2E2E2E2
310
E2DCE2E2E2E2E2E2E2E2E2E2E2E2E2E2E2E2E2E2E2E2E2E2E2E2E2E2E2E2E2E2E2E2E2E2E2E2E2E2E2E2E2E2E2E2E2E2E2E2E2E2E2E2E2E2E2E2E2E2E2E2E2E2E2E2E2E2E2E2E2E2E2E2E2E2E2E2DCE2E2BEE2E2E2E2E2E2E2E2E2E2E2E2E2E2E2E2E2E2E2E2E2E2E2E2E2E2E2E2E2E2E2E2E2E2E2E2E2E2E2E2E2E2E2E2E2
310
E2E2E2E2E2E2E2E2E2E2E2E2E2E2E2E2E2E2E2E2E2E2E2E2E2E2E2E2E2E2E2E2E2E2E2E2E2E2E2E2E2E2E2E2E2E2E2E2E2E2E2E2E2E2E2E2E2E2E2E2E2E2E2E2E2E2E2E2E2E2E2E2E2E2E2E2E2E2E2E2E2E2E2E2E2E2E2E2E2E2E2E2E2E2E2E2E2E2E2E2E2E2E2E2E2E2E2E2E2E2E2E2E2E2E2E2E2E2E2E2E2BEE2E2E2E2E2
310
E2E2E2DCDCDCDCDCDCDCDCDCDCDCDCDCDCDCDCDCDCDCDCDCDCDCDCDCDCDCDCDCDCDCDCDCDCDCDCDCDCDCDCDCDCDCDCDCDCDCDCDCDCDCDCDCDCDCDCDCDCDCDCDCDCDCDCDCDCDCDCDCDCDCDCDCDCDCDCDCDCE2E2BEE2E2E2E2E2E2E2E2E2E2E2E2E2E2E2E2E2E2E2E2E2E2E2E2E2E2E2E2E2E2E2E2E2E2E2E2E2E2E2E2E2E2E2
310
E2E2E2E2E2E2E2E2E2E2E2E2E2E2E2E2E2E2E2E2E2E2E2E2E2E2E2E2E2E2E2E2E2E2E2E2E2E2E2E2E2E2E2E2E2E2E2E2E2E2E2E2E2E2E2E2E2E2E2E2E2E2E2E2E2E2E2E2E2E2E2E2E2E2E2E2E2E2E2E2E2E2E2E2E2E2E2E2E2E2E2E2E2E2E2E2E2E2E2E2E2E2E2E2E2E2E2E2E2E2E2E2E2E2E2E2E2E2E2E2E2E2E2BEE2E2E2
310
E2E2E2E2E2E2E2E2E2E2E2E2E2E2E2E2E2E2E2E2E2E2E2E2E2E2E2E2E2E2E2E2E2E2E2E2E2E2E2E2E2E2E2E2E2E2E2E2E2E2E2E2E2E2E2E2E2E2E2E2E2E2E2E2E2E2E2E2E2E2E2E2E2E2E2E2E2E2E2E2E2E2E2E2E2BEE2E2E2E2E2E2E2E2E2E2E2E2E2E2E2E2E2E2E2E2E2E2E2E2E2E2E2E2E2E2E2E2E2E2E2E2E2E2E2E2E2
310
E2E2E2E2E2E2E2E2E2E2E2E2E2E2E2E2E2E2E2E2E2E2E2E2E2E2E2E2E2E2E2E2E2E2E2E2E2E2E2E2E2E2E2E2E2E2E2E2E2E2E2E2E2E2E2E2E2E2E2E2E2E2E2E2E2E2E2E2E2E2E2E2E2E2E2E2E2E2E2E2E2E2E2E2E2E2E2E2E2E2E2E2E2E2E2E2E2E2E2E2E2E2E2E2E2E2E2E2E2E2E2E2E2E2E2E2E2E2E2E2E2E2E2E2E2BEBE
310
BEBEBEBEBEBEBEBEBEBEBEBEBEBEBEBEBEBEBEBEBEBEBEBEBEBEBEBEBEBEBEBEBEBEBEBEBEBEBEBEBEBEBEBEBEBEBEBEBEBEBEBEBEBEBEBEBEBEBEBEBEBEBEBEBEBEBEBEBEBEBEBEBEBEBEBEBEBEBEBEBEBEBEBEBEBEBEBEE2E2E2E2E2E2E2E2E2E2E2E2E2E2E2E2E2E2E2E2E2E2E2E2E2E2E2E2E2E2E2E2E2E2E2E2E2E2E2
310
E2E2E2E2E2E2E2E2E2E2E2E2E2E2E2E2E2E2E2E2E2E2E2E2E2E2E2E2E2E2E2E2E2E2E2E2E2E2E2E2E2E2E2E2E2E2E2E2E2E2E2E2E2E2E2E2E2E2E2E2E2E2E2E2E2E2E2E2E2E2E2E2E2E2E2E2E2E2E2E2E2E2E2E2E2E2E2E2E2E2E2E2E2E2E2E2E2E2E2E2E2E2E2E2E2E2E2E2E2E2E2E2E2E2E2E2E2E2E2E2E2E2E2E2E2E2E2
310
E2E2E2E2E2E2E2E2E2E2E2E2E2E2E2E2E2E2E2E2E2E2E2E2E2E2E2E2E2E2E2E2E2E2E2E2E2E2E2E2E2E2E2E2E2E2E2E2E2E2E2E2E2E2E2E2E2E2E2E2E2E2E2E2E2E2E2E2E2E2E2E2E2E2E2E2E2E2E2E2E2E2E2E2E2E2E2E2E2E2E2E2E2E2E2E2E2E2E2E2E2E2E2E2E2E2E2E2E2E2E2E2E2E2E2E2E2E2E2E2E2E2E2E2E2E2E2
310
E2E2E2E2E2E2E2E2E2E2E2E2E2E2E2E2E2E2E2E2E2E2E2E2E2E2E2E2E2E2E2E2E2E2E2E2E2E2E2E2E2E2E2E2E2E2
  0
XRECORD
  5
F
102
{ACAD_REACTORS
330
E
102
}
330
E
100
AcDbXrecord
280
     1
270
     1
271
     1
  0
XRECORD
  5
10
102
{ACAD_REACTORS
330
E
102
}
330
E
100
AcDbXrecord
280
     1
270
     1
271
     1
  0
XRECORD
  5
11
102
{ACAD_REACTORS
330
E
102
}
330
E
100
AcDbXrecord
280
     1
270
     1
271
     1
  0
XRECORD
  5
12
102
{ACAD_REACTORS
330
E
102
}
330
E
100
AcDbXrecord
280
     1
270
     1
271
     1
  0
CELLSTYLEMAP
  5
2E3
102
{ACAD_REACTORS
330
46
102
}
330
46
100
AcDbCellStyleMap
 90
        3
300
CELLSTYLE
  1
TABLEFORMAT_BEGIN
 90
        5
170
     1
 91
        0
 92
    32768
 62
   257
 93
        1
300
CONTENTFORMAT
  1
CONTENTFORMAT_BEGIN
 90
        0
 91
        0
 92
      512
 93
        0
300

 40
0.0
140
1.0
 94
        5
 62
     0
340
25
144
6.0
309
CONTENTFORMAT_END
171
     1
301
MARGIN
  1
CELLMARGIN_BEGIN
 40
1.5
 40
1.5
 40
1.5
 40
1.5
 40
4.5
 40
4.5
309
CELLMARGIN_END
 94
        6
 95
        1
302
GRIDFORMAT
  1
GRIDFORMAT_BEGIN
 90
        0
 91
        1
 62
     0
 92
       -2
340
28
 93
        0
 40
1.125
309
GRIDFORMAT_END
 95
        2
302
GRIDFORMAT
  1
GRIDFORMAT_BEGIN
 90
        0
 91
        1
 62
     0
 92
       -2
340
28
 93
        0
 40
1.125
309
GRIDFORMAT_END
 95
        4
302
GRIDFORMAT
  1
GRIDFORMAT_BEGIN
 90
        0
 91
        1
 62
     0
 92
       -2
340
28
 93
        0
 40
1.125
309
GRIDFORMAT_END
 95
        8
302
GRIDFORMAT
  1
GRIDFORMAT_BEGIN
 90
        0
 91
        1
 62
     0
 92
       -2
340
28
 93
        0
 40
1.125
309
GRIDFORMAT_END
 95
       16
302
GRIDFORMAT
  1
GRIDFORMAT_BEGIN
 90
        0
 91
        1
 62
     0
 92
       -2
340
28
 93
        0
 40
1.125
309
GRIDFORMAT_END
 95
       32
302
GRIDFORMAT
  1
GRIDFORMAT_BEGIN
 90
        0
 91
        1
 62
     0
 92
       -2
340
28
 93
        0
 40
1.125
309
GRIDFORMAT_END
309
TABLEFORMAT_END
  1
CELLSTYLE_BEGIN
 90
        1
 91
        1
300
_TITLE
309
CELLSTYLE_END
300
CELLSTYLE
  1
TABLEFORMAT_BEGIN
 90
        5
170
     1
 91
        0
 92
        0
 62
   257
 93
        1
300
CONTENTFORMAT
  1
CONTENTFORMAT_BEGIN
 90
        0
 91
        0
 92
      512
 93
        0
300

 40
0.0
140
1.0
 94
        5
 62
     0
340
25
144
4.5
309
CONTENTFORMAT_END
171
     1
301
MARGIN
  1
CELLMARGIN_BEGIN
 40
1.5
 40
1.5
 40
1.5
 40
1.5
 40
4.5
 40
4.5
309
CELLMARGIN_END
 94
        6
 95
        1
302
GRIDFORMAT
  1
GRIDFORMAT_BEGIN
 90
        0
 91
        1
 62
     0
 92
       -2
340
28
 93
        0
 40
1.125
309
GRIDFORMAT_END
 95
        2
302
GRIDFORMAT
  1
GRIDFORMAT_BEGIN
 90
        0
 91
        1
 62
     0
 92
       -2
340
28
 93
        0
 40
1.125
309
GRIDFORMAT_END
 95
        4
302
GRIDFORMAT
  1
GRIDFORMAT_BEGIN
 90
        0
 91
        1
 62
     0
 92
       -2
340
28
 93
        0
 40
1.125
309
GRIDFORMAT_END
 95
        8
302
GRIDFORMAT
  1
GRIDFORMAT_BEGIN
 90
        0
 91
        1
 62
     0
 92
       -2
340
28
 93
        0
 40
1.125
309
GRIDFORMAT_END
 95
       16
302
GRIDFORMAT
  1
GRIDFORMAT_BEGIN
 90
        0
 91
        1
 62
     0
 92
       -2
340
28
 93
        0
 40
1.125
309
GRIDFORMAT_END
 95
       32
302
GRIDFORMAT
  1
GRIDFORMAT_BEGIN
 90
        0
 91
        1
 62
     0
 92
       -2
340
28
 93
        0
 40
1.125
309
GRIDFORMAT_END
309
TABLEFORMAT_END
  1
CELLSTYLE_BEGIN
 90
        2
 91
        1
300
_HEADER
309
CELLSTYLE_END
300
CELLSTYLE
  1
TABLEFORMAT_BEGIN
 90
        5
170
     1
 91
        0
 92
        0
 62
   257
 93
        1
300
CONTENTFORMAT
  1
CONTENTFORMAT_BEGIN
 90
        0
 91
        0
 92
      512
 93
        0
300

 40
0.0
140
1.0
 94
        2
 62
     0
340
25
144
4.5
309
CONTENTFORMAT_END
171
     1
301
MARGIN
  1
CELLMARGIN_BEGIN
 40
1.5
 40
1.5
 40
1.5
 40
1.5
 40
4.5
 40
4.5
309
CELLMARGIN_END
 94
        6
 95
        1
302
GRIDFORMAT
  1
GRIDFORMAT_BEGIN
 90
        0
 91
        1
 62
     0
 92
       -2
340
28
 93
        0
 40
1.125
309
GRIDFORMAT_END
 95
        2
302
GRIDFORMAT
  1
GRIDFORMAT_BEGIN
 90
        0
 91
        1
 62
     0
 92
       -2
340
28
 93
        0
 40
1.125
309
GRIDFORMAT_END
 95
        4
302
GRIDFORMAT
  1
GRIDFORMAT_BEGIN
 90
        0
 91
        1
 62
     0
 92
       -2
340
28
 93
        0
 40
1.125
309
GRIDFORMAT_END
 95
        8
302
GRIDFORMAT
  1
GRIDFORMAT_BEGIN
 90
        0
 91
        1
 62
     0
 92
       -2
340
28
 93
        0
 40
1.125
309
GRIDFORMAT_END
 95
       16
302
GRIDFORMAT
  1
GRIDFORMAT_BEGIN
 90
        0
 91
        1
 62
     0
 92
       -2
340
28
 93
        0
 40
1.125
309
GRIDFORMAT_END
 95
       32
302
GRIDFORMAT
  1
GRIDFORMAT_BEGIN
 90
        0
 91
        1
 62
     0
 92
       -2
340
28
 93
        0
 40
1.125
309
GRIDFORMAT_END
309
TABLEFORMAT_END
  1
CELLSTYLE_BEGIN
 90
        3
 91
        2
300
_DATA
309
CELLSTYLE_END
  0
ENDSEC
  0
EOF
