  0
SECTION
  2
HEADER
  9
$ACADVER
  1
AC1024
  9
$ACADMAINTVER
 70
     6
  9
$DWGCODEPAGE
  3
ANSI_1252
  9
$INSBASE
 10
0.0
 20
0.0
 30
0.0
  9
$EXTMIN
 10
0.0
 20
0.0
 30
0.0
  9
$EXTMAX
 10
525.0
 20
742.4999999999999
 30
0.0
  9
$LIMMIN
 10
0.0
 20
0.0
  9
$LIMMAX
 10
525.0
 20
742.4999999999999
  9
$ORTHOMODE
 70
     1
  9
$REGENMODE
 70
     1
  9
$FILLMODE
 70
     1
  9
$QTEXTMODE
 70
     0
  9
$MIRRTEXT
 70
     0
  9
$LTSCALE
 40
20.0
  9
$ATTMODE
 70
     1
  9
$TEXTSIZE
 40
2.5
  9
$TRACEWID
 40
1.0
  9
$TEXTSTYLE
  7
Standard
  9
$CLAYER
  8
0
  9
$CELTYPE
  6
ByLayer
  9
$CECOLOR
 62
   256
  9
$CELTSCALE
 40
1.0
  9
$DISPSILH
 70
     0
  9
$DIMSCALE
 40
2.5
  9
$DIMASZ
 40
2.5
  9
$DIMEXO
 40
1.0
  9
$DIMDLI
 40
10.0
  9
$DIMRND
 40
0.0
  9
$DIMDLE
 40
0.0
  9
$DIMEXE
 40
1.0
  9
$DIMTP
 40
0.0
  9
$DIMTM
 40
0.0
  9
$DIMTXT
 40
2.5
  9
$DIMCEN
 40
0.0
  9
$DIMTSZ
 40
0.0
  9
$DIMTOL
 70
     0
  9
$DIMLIM
 70
     0
  9
$DIMTIH
 70
     0
  9
$DIMTOH
 70
     0
  9
$DIMSE1
 70
     0
  9
$DIMSE2
 70
     0
  9
$DIMTAD
 70
     1
  9
$DIMZIN
 70
     8
  9
$DIMBLK
  1

  9
$DIMASO
 70
     1
  9
$DIMSHO
 70
     1
  9
$DIMPOST
  1

  9
$DIMAPOST
  1

  9
$DIMALT
 70
     0
  9
$DIMALTD
 70
     3
  9
$DIMALTF
 40
0.03937007874016
  9
$DIMLFAC
 40
1.0
  9
$DIMTOFL
 70
     1
  9
$DIMTVP
 40
0.0
  9
$DIMTIX
 70
     0
  9
$DIMSOXD
 70
     0
  9
$DIMSAH
 70
     0
  9
$DIMBLK1
  1

  9
$DIMBLK2
  1

  9
$DIMSTYLE
  2
Wagner
  9
$DIMCLRD
 70
     4
  9
$DIMCLRE
 70
     4
  9
$DIMCLRT
 70
     1
  9
$DIMTFAC
 40
1.0
  9
$DIMGAP
 40
1.0
  9
$DIMJUST
 70
     0
  9
$DIMSD1
 70
     0
  9
$DIMSD2
 70
     0
  9
$DIMTOLJ
 70
     0
  9
$DIMTZIN
 70
     8
  9
$DIMALTZ
 70
     0
  9
$DIMALTTZ
 70
     0
  9
$DIMUPT
 70
     0
  9
$DIMDEC
 70
     8
  9
$DIMTDEC
 70
     8
  9
$DIMALTU
 70
     2
  9
$DIMALTTD
 70
     3
  9
$DIMTXSTY
  7
Standard
  9
$DIMAUNIT
 70
     0
  9
$DIMADEC
 70
     2
  9
$DIMALTRND
 40
0.0
  9
$DIMAZIN
 70
     2
  9
$DIMDSEP
 70
    46
  9
$DIMATFIT
 70
     3
  9
$DIMFRAC
 70
     0
  9
$DIMLDRBLK
  1

  9
$DIMLUNIT
 70
     2
  9
$DIMLWD
 70
    -2
  9
$DIMLWE
 70
    -2
  9
$DIMTMOVE
 70
     0
  9
$DIMFXL
 40
1.0
  9
$DIMFXLON
 70
     0
  9
$DIMJOGANG
 40
0.7853981633974483
  9
$DIMTFILL
 70
     0
  9
$DIMTFILLCLR
 70
     0
  9
$DIMARCSYM
 70
     0
  9
$DIMLTYPE
  6

  9
$DIMLTEX1
  6

  9
$DIMLTEX2
  6

  9
$DIMTXTDIRECTION
 70
     0
  9
$LUNITS
 70
     2
  9
$LUPREC
 70
     4
  9
$SKETCHINC
 40
1.0
  9
$FILLETRAD
 40
0.0
  9
$AUNITS
 70
     0
  9
$AUPREC
 70
     0
  9
$MENU
  1
.
  9
$ELEVATION
 40
0.0
  9
$PELEVATION
 40
0.0
  9
$THICKNESS
 40
0.0
  9
$LIMCHECK
 70
     0
  9
$CHAMFERA
 40
0.0
  9
$CHAMFERB
 40
0.0
  9
$CHAMFERC
 40
0.0
  9
$CHAMFERD
 40
0.0
  9
$SKPOLY
 70
     0
  9
$TDCREATE
 40
2455366.490386273
  9
$TDUCREATE
 40
2455366.407052940
  9
$TDUPDATE
 40
2456486.417713044
  9
$TDUUPDATE
 40
2456486.334379711
  9
$TDINDWG
 40
0.0936279861
  9
$TDUSRTIMER
 40
0.0936279861
  9
$USRTIMER
 70
     1
  9
$ANGBASE
 50
0.0
  9
$ANGDIR
 70
     0
  9
$PDMODE
 70
     0
  9
$PDSIZE
 40
0.0
  9
$PLINEWID
 40
0.0
  9
$SPLFRAME
 70
     0
  9
$SPLINETYPE
 70
     6
  9
$SPLINESEGS
 70
     8
  9
$HANDSEED
  5
2B2
  9
$SURFTAB1
 70
     6
  9
$SURFTAB2
 70
     6
  9
$SURFTYPE
 70
     6
  9
$SURFU
 70
     6
  9
$SURFV
 70
     6
  9
$UCSBASE
  2

  9
$UCSNAME
  2

  9
$UCSORG
 10
0.0
 20
0.0
 30
0.0
  9
$UCSXDIR
 10
1.0
 20
0.0
 30
0.0
  9
$UCSYDIR
 10
0.0
 20
1.0
 30
0.0
  9
$UCSORTHOREF
  2

  9
$UCSORTHOVIEW
 70
     0
  9
$UCSORGTOP
 10
0.0
 20
0.0
 30
0.0
  9
$UCSORGBOTTOM
 10
0.0
 20
0.0
 30
0.0
  9
$UCSORGLEFT
 10
0.0
 20
0.0
 30
0.0
  9
$UCSORGRIGHT
 10
0.0
 20
0.0
 30
0.0
  9
$UCSORGFRONT
 10
0.0
 20
0.0
 30
0.0
  9
$UCSORGBACK
 10
0.0
 20
0.0
 30
0.0
  9
$PUCSBASE
  2

  9
$PUCSNAME
  2

  9
$PUCSORG
 10
0.0
 20
0.0
 30
0.0
  9
$PUCSXDIR
 10
1.0
 20
0.0
 30
0.0
  9
$PUCSYDIR
 10
0.0
 20
1.0
 30
0.0
  9
$PUCSORTHOREF
  2

  9
$PUCSORTHOVIEW
 70
     0
  9
$PUCSORGTOP
 10
0.0
 20
0.0
 30
0.0
  9
$PUCSORGBOTTOM
 10
0.0
 20
0.0
 30
0.0
  9
$PUCSORGLEFT
 10
0.0
 20
0.0
 30
0.0
  9
$PUCSORGRIGHT
 10
0.0
 20
0.0
 30
0.0
  9
$PUCSORGFRONT
 10
0.0
 20
0.0
 30
0.0
  9
$PUCSORGBACK
 10
0.0
 20
0.0
 30
0.0
  9
$USERI1
 70
     0
  9
$USERI2
 70
     0
  9
$USERI3
 70
     0
  9
$USERI4
 70
     0
  9
$USERI5
 70
     0
  9
$USERR1
 40
0.0
  9
$USERR2
 40
0.0
  9
$USERR3
 40
0.0
  9
$USERR4
 40
0.0
  9
$USERR5
 40
0.0
  9
$WORLDVIEW
 70
     1
  9
$SHADEDGE
 70
     3
  9
$SHADEDIF
 70
    70
  9
$TILEMODE
 70
     1
  9
$MAXACTVP
 70
    64
  9
$PINSBASE
 10
0.0
 20
0.0
 30
0.0
  9
$PLIMCHECK
 70
     0
  9
$PEXTMIN
 10
0.0
 20
0.0
 30
0.0
  9
$PEXTMAX
 10
0.0
 20
0.0
 30
0.0
  9
$PLIMMIN
 10
0.0
 20
0.0
  9
$PLIMMAX
 10
12.0
 20
9.0
  9
$UNITMODE
 70
     0
  9
$VISRETAIN
 70
     1
  9
$PLINEGEN
 70
     0
  9
$PSLTSCALE
 70
     1
  9
$TREEDEPTH
 70
  3020
  9
$CMLSTYLE
  2
Standard
  9
$CMLJUST
 70
     0
  9
$CMLSCALE
 40
20.0
  9
$PROXYGRAPHICS
 70
     1
  9
$MEASUREMENT
 70
     1
  9
$CELWEIGHT
370
    -1
  9
$ENDCAPS
280
     0
  9
$JOINSTYLE
280
     0
  9
$LWDISPLAY
290
     0
  9
$INSUNITS
 70
     4
  9
$HYPERLINKBASE
  1

  9
$STYLESHEET
  1

  9
$XEDIT
290
     1
  9
$CEPSNTYPE
380
     0
  9
$PSTYLEMODE
290
     1
  9
$FINGERPRINTGUID
  2
{E26CBDB0-31BC-46A1-A27B-8932809DEE04}
  9
$VERSIONGUID
  2
{04E1CFC2-658C-4A8E-A23B-CE49A0364F29}
  9
$EXTNAMES
290
     1
  9
$PSVPSCALE
 40
0.0
  9
$OLESTARTUP
290
     0
  9
$SORTENTS
280
   127
  9
$INDEXCTL
280
     0
  9
$HIDETEXT
280
     1
  9
$XCLIPFRAME
280
     0
  9
$HALOGAP
280
     0
  9
$OBSCOLOR
 70
   257
  9
$OBSLTYPE
280
     0
  9
$INTERSECTIONDISPLAY
280
     0
  9
$INTERSECTIONCOLOR
 70
   257
  9
$DIMASSOC
280
     2
  9
$PROJECTNAME
  1

  9
$CAMERADISPLAY
290
     0
  9
$LENSLENGTH
 40
50.0
  9
$CAMERAHEIGHT
 40
0.0
  9
$STEPSPERSEC
 40
2.0
  9
$STEPSIZE
 40
6.0
  9
$3DDWFPREC
 40
2.0
  9
$PSOLWIDTH
 40
5.0
  9
$PSOLHEIGHT
 40
80.0
  9
$LOFTANG1
 40
1.570796326794896
  9
$LOFTANG2
 40
1.570796326794896
  9
$LOFTMAG1
 40
0.0
  9
$LOFTMAG2
 40
0.0
  9
$LOFTPARAM
 70
     7
  9
$LOFTNORMALS
280
     1
  9
$LATITUDE
 40
37.795
  9
$LONGITUDE
 40
-122.394
  9
$NORTHDIRECTION
 40
0.0
  9
$TIMEZONE
 70
 -8000
  9
$LIGHTGLYPHDISPLAY
280
     1
  9
$TILEMODELIGHTSYNCH
280
     1
  9
$CMATERIAL
347
38
  9
$SOLIDHIST
280
     1
  9
$SHOWHIST
280
     1
  9
$DWFFRAME
280
     2
  9
$DGNFRAME
280
     0
  9
$REALWORLDSCALE
290
     1
  9
$INTERFERECOLOR
 62
     1
  9
$INTERFEREOBJVS
345
41
  9
$INTERFEREVPVS
346
42
  9
$CSHADOW
280
     0
  9
$SHADOWPLANELOCATION
 40
0.0
  0
ENDSEC
  0
SECTION
  2
CLASSES
  0
CLASS
  1
ACDBDICTIONARYWDFLT
  2
AcDbDictionaryWithDefault
  3
ObjectDBX Classes
 90
        0
 91
        1
280
     0
281
     0
  0
CLASS
  1
DICTIONARYVAR
  2
AcDbDictionaryVar
  3
ObjectDBX Classes
 90
        0
 91
        5
280
     0
281
     0
  0
CLASS
  1
TABLESTYLE
  2
AcDbTableStyle
  3
ObjectDBX Classes
 90
     4095
 91
        1
280
     0
281
     0
  0
CLASS
  1
MATERIAL
  2
AcDbMaterial
  3
ObjectDBX Classes
 90
     1153
 91
        3
280
     0
281
     0
  0
CLASS
  1
VISUALSTYLE
  2
AcDbVisualStyle
  3
ObjectDBX Classes
 90
     4095
 91
        3
280
     0
281
     0
  0
CLASS
  1
SCALE
  2
AcDbScale
  3
ObjectDBX Classes
 90
     1153
 91
       33
280
     0
281
     0
  0
CLASS
  1
MLEADERSTYLE
  2
AcDbMLeaderStyle
  3
ACDB_MLEADERSTYLE_CLASS
 90
     4095
 91
        0
280
     0
281
     0
  0
CLASS
  1
CELLSTYLEMAP
  2
AcDbCellStyleMap
  3
ObjectDBX Classes
 90
     1152
 91
        1
280
     0
281
     0
  0
CLASS
  1
SORTENTSTABLE
  2
AcDbSortentsTable
  3
ObjectDBX Classes
 90
        0
 91
        6
280
     0
281
     0
  0
CLASS
  1
ACAD_EVALUATION_GRAPH
  2
AcDbEvalGraph
  3
ObjectDBX Classes
 90
     1153
 91
        0
280
     0
281
     0
  0
CLASS
  1
BLOCKBASEPOINTPARAMETER
  2
AcDbBlockBasepointParameter
  3
ObjectDBX Classes
 90
     1153
 91
        0
280
     0
281
     0
  0
CLASS
  1
ACDB_DYNAMICBLOCKPURGEPREVENTER_VERSION
  2
AcDbDynamicBlockPurgePreventer
  3
ObjectDBX Classes
 90
     1153
 91
        0
280
     0
281
     0
  0
CLASS
  1
ACDB_BLOCKREPRESENTATION_DATA
  2
AcDbBlockRepresentationData
  3
ObjectDBX Classes
 90
     1153
 91
        0
280
     0
281
     0
  0
CLASS
  1
AEC_REFEDIT_STATUS_TRACKER
  2
AecDbRefEditStatusTracker
  3
AecArchBase60|Product Desc: Autodesk Architectural Desktop 2007 |Company: Autodesk,Inc. |WEB Address: www.autodesk.com
 90
      129
 91
        0
280
     0
281
     0
  0
CLASS
  1
NPOCOLLECTION
  2
AcDbImpNonPersistentObjectsCollection
  3
ObjectDBX Classes
 90
     1153
 91
        0
280
     0
281
     0
  0
CLASS
  1
DIMASSOC
  2
AcDbDimAssoc
  3
"AcDbDimAssoc|Product Desc:     AcDim ARX App For Dimension|Company:          Autodesk, Inc.|WEB Address:      www.autodesk.com"
 90
        0
 91
        4
280
     0
281
     0
  0
ENDSEC
  0
SECTION
  2
TABLES
  0
TABLE
  2
VPORT
  5
2A
330
0
100
AcDbSymbolTable
 70
     1
  0
VPORT
  5
2B
330
2A
100
AcDbSymbolTableRecord
100
AcDbViewportTableRecord
  2
*Active
 70
     0
 10
0.0
 20
0.0
 11
1.0
 21
1.0
 12
369.2283613971116
 22
363.6174160351846
 13
0.0
 23
0.0
 14
10.0
 24
10.0
 15
10.0
 25
10.0
 16
0.0
 26
0.0
 36
1.0
 17
0.0
 27
0.0
 37
0.0
 40
858.0671762580848
 41
1.937738246505718
 42
50.0
 43
0.0
 44
0.0
 50
0.0
 51
0.0
 71
     0
 72
  1000
 73
     1
 74
     3
 75
     0
 76
     0
 77
     0
 78
     0
281
     0
 65
     1
110
0.0
120
0.0
130
0.0
111
1.0
121
0.0
131
0.0
112
0.0
122
1.0
132
0.0
 79
     0
146
0.0
348
2C
 60
     2
 61
     5
292
     1
282
     1
141
0.0
142
0.0
 63
   250
421
  3355443
  0
ENDTAB
  0
TABLE
  2
LTYPE
  5
25
330
0
100
AcDbSymbolTable
 70
     4
  0
LTYPE
  5
26
330
25
100
AcDbSymbolTableRecord
100
AcDbLinetypeTableRecord
  2
ByBlock
 70
     0
  3

 72
    65
 73
     0
 40
0.0
  0
LTYPE
  5
27
330
25
100
AcDbSymbolTableRecord
100
AcDbLinetypeTableRecord
  2
ByLayer
 70
     0
  3

 72
    65
 73
     0
 40
0.0
  0
LTYPE
  5
14
330
25
100
AcDbSymbolTableRecord
100
AcDbLinetypeTableRecord
  2
Continuous
 70
     0
  3
Solid line
 72
    65
 73
     0
 40
0.0
  0
LTYPE
  5
180
330
25
100
AcDbSymbolTableRecord
100
AcDbLinetypeTableRecord
  2
AUSGEZOGEN
 70
     0
  3
Ausgezogene Linie
 72
    65
 73
     0
 40
0.0
  0
LTYPE
  5
144
330
25
100
AcDbSymbolTableRecord
100
AcDbLinetypeTableRecord
  2
STRICHPUNKT
 70
     0
  3
__ . __ . __ . __ . __ . __ . __ . __ . __ . __
 72
    65
 73
     4
 40
1.0
 49
0.5
 74
     0
 49
-0.25
 74
     0
 49
0.0
 74
     0
 49
-0.25
 74
     0
  0
LTYPE
  5
16F
330
25
100
AcDbSymbolTableRecord
100
AcDbLinetypeTableRecord
  2
VERDECKT
 70
     0
  3
__ __ __ __ __ __ __ __ __ __ __ __ __ __ __ __
 72
    65
 73
     2
 40
0.375
 49
0.25
 74
     0
 49
-0.125
 74
     0
  0
ENDTAB
  0
TABLE
  2
LAYER
  5
1D
102
{ACAD_XDICTIONARY
360
1E
102
}
330
0
100
AcDbSymbolTable
 70
    11
  0
LAYER
  5
6
102
{ACAD_XDICTIONARY
360
7
102
}
330
1D
100
AcDbSymbolTableRecord
100
AcDbLayerTableRecord
  2
0
 70
     0
 62
     7
  6
Continuous
370
    -3
390
9
347
C
  0
LAYER
  5
177
102
{ACAD_XDICTIONARY
360
178
102
}
330
1D
100
AcDbSymbolTableRecord
100
AcDbLayerTableRecord
  2
01-99
 70
     0
 62
     2
  6
Continuous
370
    -3
390
9
347
C
  0
LAYER
  5
17D
102
{ACAD_XDICTIONARY
360
17E
102
}
330
1D
100
AcDbSymbolTableRecord
100
AcDbLayerTableRecord
  2
02-99
 70
     0
 62
     1
  6
AUSGEZOGEN
370
    -3
390
9
347
C
  0
LAYER
  5
1B5
102
{ACAD_XDICTIONARY
360
1B6
102
}
330
1D
100
AcDbSymbolTableRecord
100
AcDbLayerTableRecord
  2
06-99
 70
     0
 62
     1
  6
AUSGEZOGEN
370
    -3
390
9
347
C
  0
LAYER
  5
89
102
{ACAD_XDICTIONARY
360
8A
102
}
330
1D
100
AcDbSymbolTableRecord
100
AcDbLayerTableRecord
  2
09-01
 70
     0
 62
     7
  6
Continuous
370
    -3
390
9
347
C
  0
LAYER
  5
74
330
1D
100
AcDbSymbolTableRecord
100
AcDbLayerTableRecord
  2
DEFPOINTS
 70
     0
 62
     7
  6
Continuous
290
     0
370
    -3
390
9
347
C
  0
LAYER
  5
19F
102
{ACAD_XDICTIONARY
360
1A0
102
}
330
1D
100
AcDbSymbolTableRecord
100
AcDbLayerTableRecord
  2
08-99
 70
     0
 62
     7
  6
Continuous
370
    -3
390
9
347
C
  0
LAYER
  5
141
102
{ACAD_XDICTIONARY
360
142
102
}
330
1D
100
AcDbSymbolTableRecord
100
AcDbLayerTableRecord
  2
05-01
 70
     0
 62
     1
  6
STRICHPUNKT
370
    -3
390
9
347
C
  0
LAYER
  5
200
102
{ACAD_XDICTIONARY
360
201
102
}
330
1D
100
AcDbSymbolTableRecord
100
AcDbLayerTableRecord
  2
03-01
 70
     0
 62
     3
  6
VERDECKT
370
    -3
390
9
347
C
  0
LAYER
  5
15C
102
{ACAD_XDICTIONARY
360
15D
102
}
330
1D
100
AcDbSymbolTableRecord
100
AcDbLayerTableRecord
  2
02TNR-01
 70
     0
 62
     1
  6
Continuous
370
    -3
390
9
347
C
  0
LAYER
  5
29D
102
{ACAD_XDICTIONARY
360
29E
102
}
330
1D
100
AcDbSymbolTableRecord
100
AcDbLayerTableRecord
  2
02-01
 70
     0
 62
     1
  6
Continuous
370
    -3
390
9
347
C
  0
ENDTAB
  0
TABLE
  2
STYLE
  5
22
330
0
100
AcDbSymbolTable
 70
     3
  0
STYLE
  5
23
330
22
100
AcDbSymbolTableRecord
100
AcDbTextStyleTableRecord
  2
Standard
 70
     0
 40
0.0
 41
1.0
 50
0.0
 71
     0
 42
2.5
  3
txt.shx
  4

  0
STYLE
  5
1A2
330
22
100
AcDbSymbolTableRecord
100
AcDbTextStyleTableRecord
  2
ROMANS8
 70
     0
 40
0.0
 41
1.0
 50
0.0
 71
     0
 42
2.5
  3
ROMANS8
  4

  0
STYLE
  5
1C8
330
22
100
AcDbSymbolTableRecord
100
AcDbTextStyleTableRecord
  2
ROMAND8
 70
     0
 40
0.0
 41
1.0
 50
0.0
 71
     0
 42
3.5
  3
ROMAND8
  4

  0
ENDTAB
  0
TABLE
  2
VIEW
  5
28
330
0
100
AcDbSymbolTable
 70
     0
  0
ENDTAB
  0
TABLE
  2
UCS
  5
29
330
0
100
AcDbSymbolTable
 70
     0
  0
ENDTAB
  0
TABLE
  2
APPID
  5
2E
330
0
100
AcDbSymbolTable
 70
     6
  0
APPID
  5
13
330
2E
100
AcDbSymbolTableRecord
100
AcDbRegAppTableRecord
  2
ACAD
 70
     0
  0
APPID
  5
18
330
2E
100
AcDbSymbolTableRecord
100
AcDbRegAppTableRecord
  2
ACAD_PSEXT
 70
     0
  0
APPID
  5
32
330
2E
100
AcDbSymbolTableRecord
100
AcDbRegAppTableRecord
  2
ACAD_DSTYLE_DIMJAG
 70
     0
  0
APPID
  5
33
330
2E
100
AcDbSymbolTableRecord
100
AcDbRegAppTableRecord
  2
ACAD_DSTYLE_DIMTALN
 70
     0
  0
APPID
  5
31
330
2E
100
AcDbSymbolTableRecord
100
AcDbRegAppTableRecord
  2
ACAD_DSTYLE_DIMJOGGED_JOGANGLE_SYMBOL
 70
     0
  0
APPID
  5
27D
330
2E
100
AcDbSymbolTableRecord
100
AcDbRegAppTableRecord
  2
AcDbBlockRepETag
 70
     0
  0
ENDTAB
  0
TABLE
  2
DIMSTYLE
  5
2F
330
0
100
AcDbSymbolTable
 70
     2
100
AcDbDimStyleTable
 71
     1
340
30
  0
DIMSTYLE
105
30
330
2F
100
AcDbSymbolTableRecord
100
AcDbDimStyleTableRecord
  2
Wagner
 70
     0
 41
2.5
 42
1.0
 43
10.0
 44
1.0
 73
     0
 74
     0
 77
     1
 78
     8
 79
     2
140
2.5
141
0.0
143
0.03937007874016
147
1.0
171
     3
172
     1
176
     4
177
     4
178
     1
179
     2
271
     8
272
     8
274
     3
283
     0
284
     8
340
23
1001
ACAD_DSTYLE_DIMJOGGED_JOGANGLE_SYMBOL
1070
   384
1040
0.7853981633974483
1001
ACAD_DSTYLE_DIMJAG
1070
   388
1040
1.5
1001
ACAD_DSTYLE_DIMTALN
1070
   392
1070
     0
  0
DIMSTYLE
105
78
102
{ACAD_REACTORS
330
25E
330
251
330
131
330
122
330
115
330
108
330
FB
330
EE
330
E1
330
D2
330
C5
330
B6
330
A7
330
98
330
88
330
79
330
66
102
}
330
2F
100
AcDbSymbolTableRecord
100
AcDbDimStyleTableRecord
  2
Wagner$0
 70
     0
 41
2.5
 42
1.0
 43
10.0
 44
1.0
 73
     0
 74
     0
 77
     1
 78
     8
 79
     2
140
2.5
141
0.0
143
0.03937007874016
147
1.0
171
     3
172
     1
174
     1
176
     4
177
     4
178
     1
179
     2
271
     8
272
     8
274
     3
279
     2
283
     0
284
     8
340
23
1001
ACAD_DSTYLE_DIMJOGGED_JOGANGLE_SYMBOL
1070
   384
1040
0.7853981633974483
1001
ACAD_DSTYLE_DIMJAG
1070
   388
1040
1.5
1001
ACAD_DSTYLE_DIMTALN
1070
   392
1070
     0
  0
ENDTAB
  0
TABLE
  2
BLOCK_RECORD
  5
1
330
0
100
AcDbSymbolTable
 70
    22
  0
BLOCK_RECORD
  5
2
102
{ACAD_XDICTIONARY
360
3
102
}
330
1
100
AcDbSymbolTableRecord
100
AcDbBlockTableRecord
  2
*Model_Space
340
16
 70
     0
280
     1
281
     0
  0
BLOCK_RECORD
  5
19
330
1
100
AcDbSymbolTableRecord
100
AcDbBlockTableRecord
  2
*Paper_Space
340
1C
 70
     0
280
     1
281
     0
  0
BLOCK_RECORD
  5
172
102
{ACAD_XDICTIONARY
360
173
102
}
330
1
100
AcDbSymbolTableRecord
100
AcDbBlockTableRecord
  2
DIN A4
340
0
102
{BLKREFS
331
171
102
}
 70
     4
280
     1
281
     0
  0
BLOCK_RECORD
  5
1F8
330
1
100
AcDbSymbolTableRecord
100
AcDbBlockTableRecord
  2
Hygienebehälter 023557-S
340
0
310
2800000020000000200000000100080000000000000400000000000000000000000000000000000000000000000080000080000000808000800000008000800080800000C0C0C000C0DCC000F0CAA6000020400000206000002080000020A0000020C0000020E00000400000004020000040400000406000004080000040A0
310
000040C0000040E00000600000006020000060400000606000006080000060A0000060C0000060E00000800000008020000080400000806000008080000080A0000080C0000080E00000A0000000A0200000A0400000A0600000A0800000A0A00000A0C00000A0E00000C0000000C0200000C0400000C0600000C0800000C0
310
A00000C0C00000C0E00000E0000000E0200000E0400000E0600000E0800000E0A00000E0C00000E0E00040000000400020004000400040006000400080004000A0004000C0004000E00040200000402020004020400040206000402080004020A0004020C0004020E000404000004040200040404000404060004040800040
310
40A0004040C0004040E00040600000406020004060400040606000406080004060A0004060C0004060E00040800000408020004080400040806000408080004080A0004080C0004080E00040A0000040A0200040A0400040A0600040A0800040A0A00040A0C00040A0E00040C0000040C0200040C0400040C0600040C08000
310
40C0A00040C0C00040C0E00040E0000040E0200040E0400040E0600040E0800040E0A00040E0C00040E0E00080000000800020008000400080006000800080008000A0008000C0008000E00080200000802020008020400080206000802080008020A0008020C0008020E00080400000804020008040400080406000804080
310
008040A0008040C0008040E00080600000806020008060400080606000806080008060A0008060C0008060E00080800000808020008080400080806000808080008080A0008080C0008080E00080A0000080A0200080A0400080A0600080A0800080A0A00080A0C00080A0E00080C0000080C0200080C0400080C0600080C0
310
800080C0A00080C0C00080C0E00080E0000080E0200080E0400080E0600080E0800080E0A00080E0C00080E0E000C0000000C0002000C0004000C0006000C0008000C000A000C000C000C000E000C0200000C0202000C0204000C0206000C0208000C020A000C020C000C020E000C0400000C0402000C0404000C0406000C0
310
408000C040A000C040C000C040E000C0600000C0602000C0604000C0606000C0608000C060A000C060C000C060E000C0800000C0802000C0804000C0806000C0808000C080A000C080C000C080E000C0A00000C0A02000C0A04000C0A06000C0A08000C0A0A000C0A0C000C0A0E000C0C00000C0C02000C0C04000C0C06000
310
C0C08000C0C0A000F0FBFF00A4A0A000808080000000FF0000FF000000FFFF00FF000000FF00FF00FFFF0000FFFFFF0000000000000000000000000000000000000000000000000000000000000000000000000000000000000000FFFFFFFFFFFFFFFFFFFF00000000000000000000000000000000000000000000FAFAFAFA
310
FAFAFAFAFAFA00000000000000000000000000000000000000000000FA0000000000000000FA00000000000000000000000000000000000000000000FA0000000000000000FA00000000000000000000000000000000000000000000FA0000000000000000FA00000000000000000000000000000000000000000000FA0000
310
000000000000FA00000000000000000000000000000000000000000000FA0000000000000000FA00000000000000000000000000000000000000000000FA0000000000000000FA00000000000000000000000000000000000000000000FA0000000000000000FA00000000000000000000000000000000000000000000FA00
310
00000000000000FA00000000000000000000000000000000000000000000FA0000000000000000FA00000000000000000000000000000000000000000000FA0000000000000000FA00000000000000000000000000000000000000000000FA0000000000000000FA00000000000000000000000000000000000000000000FA
310
0000000000000000FA00000000000000000000000000000000000000000000FA0000000000000000FA00000000000000000000000000000000000000000000FA0000000000000000FA00000000000000000000000000000000000000000000FA0000000000000000FA00000000000000000000000000000000000000000000
310
FA0000000000000000FA00000000000000000000000000000000000000000000FA0000000000000000FA00000000000000000000000000000000000000000000FA0000000000000000FA00000000000000000000000000000000000000000000FA0000000000000000FA000000000000000000000000000000000000000000
310
00FA0000000000000000FA00000000000000000000000000000000000000000000FA0000000000000000FA00000000000000000000000000000000000000000000FA0000000000000000FA00000000000000000000000000000000000000000000FA0000000000000000FA0000000000000000000000000000000000000000
310
0000FA0000000000000000FA00000000000000000000000000000000000000000000FFFFFFFFFFFFFFFFFFFF00000000000000000000000000000000000000000000FF0000000000000000FF00000000000000000000000000000000000000000000FF0000000000000000FF00000000000000000000000000000000000000
310
000000FFFFFFFFFFFFFFFFFFFF00000000000000000000000000000000000000000000000000000000000000000000000000000000000000
102
{BLKREFS
331
1F7
102
}
 70
     4
280
     1
281
     1
  0
BLOCK_RECORD
  5
20B
330
1
100
AcDbSymbolTableRecord
100
AcDbBlockTableRecord
  2
Hygienebehälter 023557-V
340
0
310
2800000020000000200000000100080000000000000400000000000000000000000000000000000000000000000080000080000000808000800000008000800080800000C0C0C000C0DCC000F0CAA6000020400000206000002080000020A0000020C0000020E00000400000004020000040400000406000004080000040A0
310
000040C0000040E00000600000006020000060400000606000006080000060A0000060C0000060E00000800000008020000080400000806000008080000080A0000080C0000080E00000A0000000A0200000A0400000A0600000A0800000A0A00000A0C00000A0E00000C0000000C0200000C0400000C0600000C0800000C0
310
A00000C0C00000C0E00000E0000000E0200000E0400000E0600000E0800000E0A00000E0C00000E0E00040000000400020004000400040006000400080004000A0004000C0004000E00040200000402020004020400040206000402080004020A0004020C0004020E000404000004040200040404000404060004040800040
310
40A0004040C0004040E00040600000406020004060400040606000406080004060A0004060C0004060E00040800000408020004080400040806000408080004080A0004080C0004080E00040A0000040A0200040A0400040A0600040A0800040A0A00040A0C00040A0E00040C0000040C0200040C0400040C0600040C08000
310
40C0A00040C0C00040C0E00040E0000040E0200040E0400040E0600040E0800040E0A00040E0C00040E0E00080000000800020008000400080006000800080008000A0008000C0008000E00080200000802020008020400080206000802080008020A0008020C0008020E00080400000804020008040400080406000804080
310
008040A0008040C0008040E00080600000806020008060400080606000806080008060A0008060C0008060E00080800000808020008080400080806000808080008080A0008080C0008080E00080A0000080A0200080A0400080A0600080A0800080A0A00080A0C00080A0E00080C0000080C0200080C0400080C0600080C0
310
800080C0A00080C0C00080C0E00080E0000080E0200080E0400080E0600080E0800080E0A00080E0C00080E0E000C0000000C0002000C0004000C0006000C0008000C000A000C000C000C000E000C0200000C0202000C0204000C0206000C0208000C020A000C020C000C020E000C0400000C0402000C0404000C0406000C0
310
408000C040A000C040C000C040E000C0600000C0602000C0604000C0606000C0608000C060A000C060C000C060E000C0800000C0802000C0804000C0806000C0808000C080A000C080C000C080E000C0A00000C0A02000C0A04000C0A06000C0A08000C0A0A000C0A0C000C0A0E000C0C00000C0C02000C0C04000C0C06000
310
C0C08000C0C0A000F0FBFF00A4A0A000808080000000FF0000FF000000FFFF00FF000000FF00FF00FFFF0000FFFFFF0000000000000000000000000000000000000000000000000000000000000000000000000000FFFFFFFFFFFFFFFFFFFFFFFFFFFFFFFFFFFFFFFFFFFF00000000000000000000FAFAFAFAFAFAFAFAFAFA
310
FAFAFAFAFAFAFAFAFAFAFAFA00000000000000000000FA0000000000000000000000000000000000000000FA00000000000000000000FA0000000000000000000000000000000000000000FA00000000000000000000FA0000000000000000000000000000000000000000FA00000000000000000000FA0000000000000000
310
000000000000000000000000FA00000000000000000000FA0000000000000000000000000000000000000000FA00000000000000000000FA0000000000000000000000000000000000000000FA00000000000000000000FA0000000000000000000000000000000000000000FA00000000000000000000FA00000000000000
310
00000000000000000000000000FA00000000000000000000FA0000000000000000000000000000000000000000FA00000000000000000000FA0000000000000000000000000000000000000000FA00000000000000000000FA0000000000000000000000000000000000000000FA00000000000000000000FA000000000000
310
0000000000000000000000000000FA00000000000000000000FA0000000000000000000000000000000000000000FA00000000000000000000FA0000000000000000000000000000000000000000FA00000000000000000000FA0000000000000000000000000000000000000000FA00000000000000000000FA0000000000
310
000000000000000000000000000000FA00000000000000000000FA0000000000000000000000000000000000000000FA00000000000000000000FA0000000000000000000000000000000000000000FA00000000000000000000FA0000000000000000000000000000000000000000FA00000000000000000000FA00000000
310
00000000000000000000000000000000FA00000000000000000000FA0000000000000000000000000000000000000000FA00000000000000000000FA0000000000000000000000000000000000000000FA00000000000000000000FA0000000000000000000000000000000000000000FA00000000000000000000FA000000
310
000000FFFFFFFFFFFFFFFF000000000000FA00000000000000000000FFFFFFFFFFFFFFFF000000000000FFFFFFFFFFFFFFFF00000000000000000000FF000000000000FFFFFFFFFFFFFFFF000000000000FF00000000000000000000FF0000000000000000000000000000000000000000FF00000000000000000000FFFFFF
310
FFFFFFFFFFFFFFFFFFFFFFFFFFFFFFFFFFFFFF00000000000000000000000000000000000000000000000000000000000000000000000000
102
{BLKREFS
331
20A
102
}
 70
     4
280
     1
281
     1
  0
BLOCK_RECORD
  5
240
330
1
100
AcDbSymbolTableRecord
100
AcDbBlockTableRecord
  2
Hygienebehälter 023557-D
340
0
310
2800000020000000200000000100080000000000000400000000000000000000000000000000000000000000000080000080000000808000800000008000800080800000C0C0C000C0DCC000F0CAA6000020400000206000002080000020A0000020C0000020E00000400000004020000040400000406000004080000040A0
310
000040C0000040E00000600000006020000060400000606000006080000060A0000060C0000060E00000800000008020000080400000806000008080000080A0000080C0000080E00000A0000000A0200000A0400000A0600000A0800000A0A00000A0C00000A0E00000C0000000C0200000C0400000C0600000C0800000C0
310
A00000C0C00000C0E00000E0000000E0200000E0400000E0600000E0800000E0A00000E0C00000E0E00040000000400020004000400040006000400080004000A0004000C0004000E00040200000402020004020400040206000402080004020A0004020C0004020E000404000004040200040404000404060004040800040
310
40A0004040C0004040E00040600000406020004060400040606000406080004060A0004060C0004060E00040800000408020004080400040806000408080004080A0004080C0004080E00040A0000040A0200040A0400040A0600040A0800040A0A00040A0C00040A0E00040C0000040C0200040C0400040C0600040C08000
310
40C0A00040C0C00040C0E00040E0000040E0200040E0400040E0600040E0800040E0A00040E0C00040E0E00080000000800020008000400080006000800080008000A0008000C0008000E00080200000802020008020400080206000802080008020A0008020C0008020E00080400000804020008040400080406000804080
310
008040A0008040C0008040E00080600000806020008060400080606000806080008060A0008060C0008060E00080800000808020008080400080806000808080008080A0008080C0008080E00080A0000080A0200080A0400080A0600080A0800080A0A00080A0C00080A0E00080C0000080C0200080C0400080C0600080C0
310
800080C0A00080C0C00080C0E00080E0000080E0200080E0400080E0600080E0800080E0A00080E0C00080E0E000C0000000C0002000C0004000C0006000C0008000C000A000C000C000C000E000C0200000C0202000C0204000C0206000C0208000C020A000C020C000C020E000C0400000C0402000C0404000C0406000C0
310
408000C040A000C040C000C040E000C0600000C0602000C0604000C0606000C0608000C060A000C060C000C060E000C0800000C0802000C0804000C0806000C0808000C080A000C080C000C080E000C0A00000C0A02000C0A04000C0A06000C0A08000C0A0A000C0A0C000C0A0E000C0C00000C0C02000C0C04000C0C06000
310
C0C08000C0C0A000F0FBFF00A4A0A000808080000000FF0000FF000000FFFF00FF000000FF00FF00FFFF0000FFFFFF0000000000000000000000000000000000000000000000000000000000000000000000000000000000000000000000000000000000000000000000000000000000000000000000000000000000000000
310
00000000000000000000000000000000000000000000000000000000000000000000000000000000000000000000000000000000000000000000000000000000000000000000000000000000000000000000000000000000000000000000000000000000000000000000000000000000000000000000000000000000000000
310
0000000000000000000000000000000000000000000000000000000000000000000000000000000000000000000000000000000000000000000000000000000000000000000000000000000000000000000000FFFAFAFAFAFAFAFAFAFAFAFAFAFAFAFAFAFAFAFAFAFAFAFAFAFAFAFAFAFF0000FFFFFFFFFFFFFFFFFFFFFFFF
310
FFFFFFFFFFFFFFFFFFFFFFFFFFFFFFFFFFFF0000FFFF0000000000000000000000000000000000000000000000000000FFFF0000FFFF0000000000000000000000000000000000000000000000000000FFFF0000FFFF0000000000000000000000000000000000000000000000000000FFFF0000FFFF000000000000000000
310
0000000000000000000000000000000000FFFF0000FFFF0000000000000000000000000000000000000000000000000000FFFF0000FFFF0000000000000000000000000000000000000000000000000000FFFF0000FFFF0000000000000000000000000000000000000000000000000000FFFF0000FFFF0000000000000000
310
000000000000000000000000000000000000FFFF0000FFFF0000000000000000000000000000000000000000000000000000FFFF0000FFFF0000000000000000000000000000000000000000000000000000FFFF0000FFFFFFFFFFFFFFFFFFFFFAFFFFFFFFFFFFFFFFFAFFFFFFFFFFFFFFFFFFFF0000FFFAFAFAFAFAFAFAFA
310
FAFAFAFAFAFAFAFAFAFAFAFAFAFAFAFAFAFAFAFAFF00000000000000000000000000000000000000000000000000000000000000000000000000000000000000000000000000000000000000000000000000000000000000000000000000000000000000000000000000000000000000000000000000000000000000000000
310
00000000000000000000000000000000000000000000000000000000000000000000000000000000000000000000000000000000000000000000000000000000000000000000000000000000000000000000000000000000000000000000000000000000000000000000000000000000000000000000000000000000000000
310
0000000000000000000000000000000000000000000000000000000000000000000000000000000000000000000000000000000000000000
102
{BLKREFS
331
23F
102
}
 70
     4
280
     1
281
     1
  0
BLOCK_RECORD
  5
157
102
{ACAD_XDICTIONARY
360
158
102
}
330
1
100
AcDbSymbolTableRecord
100
AcDbBlockTableRecord
  2
aaaaWagner
340
0
102
{BLKREFS
331
156
102
}
 70
     4
280
     1
281
     0
  0
BLOCK_RECORD
  5
25F
330
1
100
AcDbSymbolTableRecord
100
AcDbBlockTableRecord
  2
*D5
340
0
 70
     0
280
     1
281
     0
  0
BLOCK_RECORD
  5
252
330
1
100
AcDbSymbolTableRecord
100
AcDbBlockTableRecord
  2
*D6
340
0
 70
     0
280
     1
281
     0
  0
BLOCK_RECORD
  5
134
330
1
100
AcDbSymbolTableRecord
100
AcDbBlockTableRecord
  2
*D7
340
0
 70
     0
280
     1
281
     0
  0
BLOCK_RECORD
  5
125
330
1
100
AcDbSymbolTableRecord
100
AcDbBlockTableRecord
  2
*D8
340
0
 70
     0
280
     1
281
     0
  0
BLOCK_RECORD
  5
116
330
1
100
AcDbSymbolTableRecord
100
AcDbBlockTableRecord
  2
*D9
340
0
 70
     0
280
     1
281
     0
  0
BLOCK_RECORD
  5
109
330
1
100
AcDbSymbolTableRecord
100
AcDbBlockTableRecord
  2
*D10
340
0
 70
     0
280
     1
281
     0
  0
BLOCK_RECORD
  5
FC
330
1
100
AcDbSymbolTableRecord
100
AcDbBlockTableRecord
  2
*D11
340
0
 70
     0
280
     1
281
     0
  0
BLOCK_RECORD
  5
EF
330
1
100
AcDbSymbolTableRecord
100
AcDbBlockTableRecord
  2
*D12
340
0
 70
     0
280
     1
281
     0
  0
BLOCK_RECORD
  5
E2
330
1
100
AcDbSymbolTableRecord
100
AcDbBlockTableRecord
  2
*D13
340
0
 70
     0
280
     1
281
     0
  0
BLOCK_RECORD
  5
D3
330
1
100
AcDbSymbolTableRecord
100
AcDbBlockTableRecord
  2
*D14
340
0
 70
     0
280
     1
281
     0
  0
BLOCK_RECORD
  5
C6
330
1
100
AcDbSymbolTableRecord
100
AcDbBlockTableRecord
  2
*D15
340
0
 70
     0
280
     1
281
     0
  0
BLOCK_RECORD
  5
B7
330
1
100
AcDbSymbolTableRecord
100
AcDbBlockTableRecord
  2
*D16
340
0
 70
     0
280
     1
281
     0
  0
BLOCK_RECORD
  5
A8
330
1
100
AcDbSymbolTableRecord
100
AcDbBlockTableRecord
  2
*D17
340
0
 70
     0
280
     1
281
     0
  0
BLOCK_RECORD
  5
99
330
1
100
AcDbSymbolTableRecord
100
AcDbBlockTableRecord
  2
*D18
340
0
 70
     0
280
     1
281
     0
  0
BLOCK_RECORD
  5
8C
330
1
100
AcDbSymbolTableRecord
100
AcDbBlockTableRecord
  2
*D19
340
0
 70
     0
280
     1
281
     0
  0
BLOCK_RECORD
  5
7C
330
1
100
AcDbSymbolTableRecord
100
AcDbBlockTableRecord
  2
*D20
340
0
 70
     0
280
     1
281
     0
  0
BLOCK_RECORD
  5
69
330
1
100
AcDbSymbolTableRecord
100
AcDbBlockTableRecord
  2
*D21
340
0
 70
     0
280
     1
281
     0
  0
ENDTAB
  0
ENDSEC
  0
SECTION
  2
BLOCKS
  0
BLOCK
  5
5
330
2
100
AcDbEntity
  8
0
100
AcDbBlockBegin
  2
*Model_Space
 70
     0
 10
0.0
 20
0.0
 30
0.0
  3
*Model_Space
  1

  0
ENDBLK
  5
15
330
2
100
AcDbEntity
  8
0
100
AcDbBlockEnd
  0
BLOCK
  5
1A
330
19
100
AcDbEntity
 67
     1
  8
0
100
AcDbBlockBegin
  2
*Paper_Space
 70
     0
 10
0.0
 20
0.0
 30
0.0
  3
*Paper_Space
  1

  0
ENDBLK
  5
1B
330
19
100
AcDbEntity
 67
     1
  8
0
100
AcDbBlockEnd
  0
BLOCK
  5
175
330
172
100
AcDbEntity
  8
0
100
AcDbBlockBegin
  2
DIN A4
 70
     2
 10
0.0
 20
0.0
 30
0.0
  3
DIN A4
  1

  0
LINE
  5
176
330
172
100
AcDbEntity
  8
01-99
100
AcDbLine
 10
204.0000000617172
 20
290.9999999563947
 30
0.0
 11
20.0000000617174
 21
290.9999999563947
 31
0.0
  0
LINE
  5
17A
330
172
100
AcDbEntity
  8
01-99
100
AcDbLine
 10
203.9999999999998
 20
291.0
 30
0.0
 11
204.0
 21
6.0
 31
0.0
  0
LINE
  5
17B
330
172
100
AcDbEntity
  8
01-99
100
AcDbLine
 10
20.0
 20
5.999999999999886
 30
0.0
 11
20.0
 21
291.0
 31
0.0
  0
LWPOLYLINE
  5
17C
330
172
100
AcDbEntity
  8
02-99
100
AcDbPolyline
 90
        4
 70
     1
 43
0.0
 10
0.0
 20
0.0
 10
210.0
 20
0.0
 10
210.0
 20
297.0
 10
0.0
 20
297.0
  0
LINE
  5
181
330
172
100
AcDbEntity
  8
01-99
100
AcDbLine
 10
20.0
 20
5.999999999999886
 30
0.0
 11
204.0
 21
6.000000000000056
 31
0.0
  0
LINE
  5
182
330
172
100
AcDbEntity
  8
01-99
100
AcDbLine
 10
70.0
 20
11.1111111109999
 30
0.0
 11
20.0
 21
11.1111111109999
 31
0.0
  0
LINE
  5
183
330
172
100
AcDbEntity
  8
01-99
370
     5
100
AcDbLine
 10
70.0
 20
16.22222222199991
 30
0.0
 11
20.0
 21
16.22222222199991
 31
0.0
  0
LINE
  5
184
330
172
100
AcDbEntity
  8
01-99
370
     5
100
AcDbLine
 10
70.0
 20
21.33333333299993
 30
0.0
 11
20.0
 21
21.33333333299987
 31
0.0
  0
LINE
  5
185
330
172
100
AcDbEntity
  8
01-99
370
     5
100
AcDbLine
 10
115.0
 20
26.44444444399994
 30
0.0
 11
20.0
 21
26.44444444399989
 31
0.0
  0
LINE
  5
186
330
172
100
AcDbEntity
  8
01-99
100
AcDbLine
 10
115.0
 20
31.55555555499996
 30
0.0
 11
20.0
 21
31.5555555549999
 31
0.0
  0
LINE
  5
187
330
172
100
AcDbEntity
  8
01-99
100
AcDbLine
 10
45.0
 20
5.999999999999886
 30
0.0
 11
45.0
 21
11.1111111109999
 31
0.0
  0
LINE
  5
188
330
172
100
AcDbEntity
  8
01-99
100
AcDbLine
 10
28.0
 20
11.1111111109999
 30
0.0
 11
28.0
 21
36.66666666666657
 31
0.0
  0
LINE
  5
189
330
172
100
AcDbEntity
  8
01-99
100
AcDbLine
 10
70.0
 20
5.999999999999886
 30
0.0
 11
70.0
 21
51.99999999999988
 31
0.0
  0
LINE
  5
18A
330
172
100
AcDbEntity
  8
01-99
370
    50
100
AcDbLine
 10
115.0
 20
5.999999999999886
 30
0.0
 11
115.0
 21
51.99999999999988
 31
0.0
  0
LINE
  5
18B
330
172
100
AcDbEntity
  8
01-99
100
AcDbLine
 10
144.5
 20
5.999999999999886
 30
0.0
 11
144.5
 21
16.22222222199997
 31
0.0
  0
LINE
  5
18C
330
172
100
AcDbEntity
  8
01-99
100
AcDbLine
 10
177.0
 20
5.999999999999886
 30
0.0
 11
177.0
 21
16.22222222200003
 31
0.0
  0
LINE
  5
18D
330
172
100
AcDbEntity
  8
01-99
100
AcDbLine
 10
148.5
 20
36.66666666666663
 30
0.0
 11
148.5
 21
52.0
 31
0.0
  0
LINE
  5
18E
330
172
100
AcDbEntity
  8
01-99
100
AcDbLine
 10
182.0
 20
36.66666666666663
 30
0.0
 11
182.0
 21
52.0
 31
0.0
  0
LINE
  5
18F
330
172
100
AcDbEntity
  8
01-99
100
AcDbLine
 10
78.0
 20
21.33333333333326
 30
0.0
 11
78.0
 21
36.66666666666663
 31
0.0
  0
LINE
  5
190
330
172
100
AcDbEntity
  8
01-99
100
AcDbLine
 10
60.00318833942947
 20
11.1111111109999
 30
0.0
 11
60.00318833942947
 21
36.66666666666657
 31
0.0
  0
LINE
  5
191
330
172
100
AcDbEntity
  8
01-99
100
AcDbLine
 10
48.00318833942947
 20
11.1111111109999
 30
0.0
 11
48.00318833942947
 21
36.66666666666657
 31
0.0
  0
LINE
  5
192
330
172
100
AcDbEntity
  8
01-99
100
AcDbLine
 10
204.0
 20
52.0
 30
0.0
 11
19.99999999999818
 21
51.99999999999988
 31
0.0
  0
LINE
  5
193
330
172
100
AcDbEntity
  8
01-99
100
AcDbLine
 10
115.0
 20
21.33333333333326
 30
0.0
 11
70.0
 21
21.33333333333326
 31
0.0
  0
LINE
  5
194
330
172
100
AcDbEntity
  8
01-99
370
    50
100
AcDbLine
 10
115.0
 20
36.66666666666663
 30
0.0
 11
20.0
 21
36.66666666666652
 31
0.0
  0
LINE
  5
195
330
172
100
AcDbEntity
  8
01-99
100
AcDbLine
 10
92.0
 20
21.33333333333326
 30
0.0
 11
92.0
 21
51.99999999999994
 31
0.0
  0
LINE
  5
196
330
172
100
AcDbEntity
  8
01-99
100
AcDbLine
 10
70.0
 20
36.66666666666657
 30
0.0
 11
78.0
 21
31.55555556666661
 31
0.0
  0
LINE
  5
197
330
172
100
AcDbEntity
  8
01-99
100
AcDbLine
 10
70.0
 20
31.55555556666661
 30
0.0
 11
78.0
 21
36.66666666666663
 31
0.0
  0
LINE
  5
198
330
172
100
AcDbEntity
  8
01-99
100
AcDbLine
 10
204.0
 20
44.33333333333325
 30
0.0
 11
115.0
 21
44.3333333333332
 31
0.0
  0
LINE
  5
199
330
172
100
AcDbEntity
  8
01-99
100
AcDbLine
 10
115.0
 20
16.22222222199991
 30
0.0
 11
204.0
 21
16.22222222200003
 31
0.0
  0
LINE
  5
19A
330
172
100
AcDbEntity
  8
01-99
100
AcDbLine
 10
115.0
 20
36.66666666666663
 30
0.0
 11
204.0
 21
36.66666666666669
 31
0.0
  0
LINE
  5
19B
330
172
100
AcDbEntity
  8
01-99
370
     5
100
AcDbLine
 10
92.0
 20
41.77777777799991
 30
0.0
 11
70.0
 21
41.77777777799991
 31
0.0
  0
LINE
  5
19C
330
172
100
AcDbEntity
  8
01-99
370
     5
100
AcDbLine
 10
92.0
 20
46.88888888899993
 30
0.0
 11
70.0
 21
46.88888888899987
 31
0.0
  0
LINE
  5
19D
330
172
100
AcDbEntity
  8
01-99
100
AcDbLine
 10
19.99999999999818
 20
51.99999999999988
 30
0.0
 11
19.99999999999818
 21
5.999999999999886
 31
0.0
  0
TEXT
  5
19E
330
172
100
AcDbEntity
  8
08-99
100
AcDbText
 10
116.4997011683063
 20
32.66987370785785
 30
0.0
 40
2.5
  1
Benennung/Teil:
 51
15.0
  7
ROMANS8
100
AcDbText
  0
TEXT
  5
1A3
330
172
100
AcDbEntity
  8
08-99
100
AcDbText
 10
178.5028274475673
 20
12.01760269423056
 30
0.0
 40
2.7
  1
Ident-Nr.
 51
15.0
  7
ROMANS8
100
AcDbText
  0
TEXT
  5
1A4
330
172
100
AcDbEntity
  8
08-99
100
AcDbText
 10
93.50002173316807
 20
33.05557696178232
 30
0.0
 40
2.5
  1
Name:
 51
15.0
  7
ROMANS8
100
AcDbText
  0
TEXT
  5
1A5
330
172
100
AcDbEntity
  8
08-99
100
AcDbText
 10
79.50776914254493
 20
33.04841796100436
 30
0.0
 40
2.5
  1
Datum:
 50
0.102528160689452
 41
0.8933771909280748
 51
15.0
  7
ROMANS8
 72
     5
 11
90.67496614962692
 21
33.06840116746434
 31
0.0
100
AcDbText
  0
TEXT
  5
1A6
330
172
100
AcDbEntity
  8
08-99
100
AcDbText
 10
29.50000808173536
 20
33.05597709897978
 30
0.0
 40
1.6
  1
Änderung:
 51
15.0
  7
ROMANS8
100
AcDbText
  0
TEXT
  5
1A7
330
172
100
AcDbEntity
  8
08-99
100
AcDbText
 10
46.49993807575287
 20
9.111119299162339
 30
0.0
 40
1.0
  1
ERSETZT.DURCH:
 51
15.0
  7
ROMANS8
100
AcDbText
  0
TEXT
  5
1A8
330
172
100
AcDbEntity
  8
08-99
100
AcDbText
 10
21.49936081567171
 20
9.110854202936138
 30
0.0
 40
1.0
  1
ERSETZT.FÜR:
 51
15.0
  7
ROMANS8
100
AcDbText
  0
TEXT
  5
1A9
330
172
100
AcDbEntity
  8
08-99
100
AcDbText
 10
145.9909068421542
 20
12.61295686406368
 30
0.0
 40
2.112
  1
AUFTRAGS.NR.:
 51
15.0
  7
ROMANS8
100
AcDbText
  0
TEXT
  5
1AA
330
172
100
AcDbEntity
  8
08-99
100
AcDbText
 10
116.5034642050124
 20
12.61092865603024
 30
0.0
 40
2.112
  1
Artikel-Nr:
 51
15.0
  7
ROMANS8
100
AcDbText
  0
TEXT
  5
1AB
330
172
100
AcDbEntity
  8
08-99
100
AcDbText
 10
99.69630749507826
 20
49.92370850704219
 30
0.0
 40
1.349999999999999
  1
Format
 51
15.0
  7
ROMANS8
100
AcDbText
  0
TEXT
  5
1AC
330
172
100
AcDbEntity
  8
08-99
100
AcDbText
 10
98.30437974676783
 20
44.64161879310063
 30
0.0
 40
1.822499999999999
  1
Normen
 51
15.0
  7
ROMANS8
100
AcDbText
  0
TEXT
  5
1AD
330
172
100
AcDbEntity
  8
08-99
100
AcDbText
 10
21.50002960390157
 20
33.05556783555801
 30
0.0
 40
1.6
  1
Zust.
 51
15.0
  7
ROMANS8
100
AcDbText
  0
TEXT
  5
1AE
330
172
100
AcDbEntity
  8
08-99
100
AcDbText
 10
49.50318070116918
 20
33.05555925149645
 30
0.0
 40
1.6
  1
Datum:
 51
15.0
  7
ROMANS8
100
AcDbText
  0
TEXT
  5
1AF
330
172
100
AcDbEntity
  8
08-99
100
AcDbText
 10
61.50321361693205
 20
33.05556405794533
 30
0.0
 40
1.6
  1
Name:
 51
15.0
  7
ROMANS8
100
AcDbText
  0
TEXT
  5
1B0
330
172
100
AcDbEntity
  8
08-99
100
AcDbText
 10
71.1545544455912
 20
28.03813956794875
 30
0.0
 40
1.6
  1
Erst.
 51
15.0
  7
ROMANS8
100
AcDbText
  0
TEXT
  5
1B1
330
172
100
AcDbEntity
  8
08-99
100
AcDbText
 10
70.51718036231068
 20
23.19745105942093
 30
0.0
 40
1.6
  1
Bearb.
 51
15.0
  7
ROMANS8
100
AcDbText
  0
TEXT
  5
1B2
330
172
100
AcDbEntity
  8
08-99
100
AcDbText
 10
149.430804911768
 20
41.61949749270681
 30
0.0
 40
2.0
  1
Zuschnittsbreite:
 51
15.0
  7
ROMANS8
100
AcDbText
  0
TEXT
  5
1B3
330
172
100
AcDbEntity
  8
08-99
100
AcDbText
 10
115.9849947740322
 20
41.73762362811351
 30
0.0
 40
2.0
  1
Zuschnittslänge:
 51
15.0
  7
ROMANS8
100
AcDbText
  0
LWPOLYLINE
  5
1B4
330
172
100
AcDbEntity
  8
06-99
100
AcDbPolyline
 90
      133
 70
     1
 43
0.010692
 10
93.767539812
 20
18.8765648493333
 10
94.00904714400008
 20
19.08724714533332
 10
93.92285180400007
 20
19.22625740133321
 10
93.82426443600001
 20
19.35180642933335
 10
93.71362718400019
 20
19.46394056133334
 10
93.59129644799997
 20
19.5627132573332
 10
93.45761437200009
 20
19.64816372133327
 10
93.31292666400008
 20
19.72033828533324
 10
93.15758616000005
 20
19.77929040933327
 10
92.9919350040002
 20
19.82505929733327
 10
92.81632246800006
 20
19.85769128133336
 10
92.63109782400022
 20
19.87723982133332
 10
92.43660678000015
 20
19.88374412133328
 10
92.27568148800003
 20
19.87768175733328
 10
92.11994181599994
 20
19.85975840133324
 10
91.96971921600015
 20
19.8303625293334
 10
91.82534870400013
 20
19.78988974533325
 10
91.68716173200005
 20
19.73873565333338
 10
91.55548262400008
 20
19.67729229333327
 10
91.43065352400014
 20
19.60595170533327
 10
91.31299875600006
 20
19.52510592933322
 10
91.20284977200004
 20
19.4351470053333
 10
91.1005451520001
 20
19.33647410133329
 10
91.0064056560002
 20
19.22947212933332
 10
90.92076986400014
 20
19.11454382133331
 10
90.8439692280001
 20
18.9920740893333
 10
90.77633163600012
 20
18.86245853733334
 10
90.71819210400008
 20
18.72608920533327
 10
90.66987852000011
 20
18.58336526133325
 10
90.63172233600017
 20
18.43467161733326
 10
90.60406213199996
 20
18.28040744133324
 10
90.58721866800011
 20
18.1209612093333
 10
90.58153408800013
 20
17.95672852533329
 10
90.58714738800006
 20
17.78762385333334
 10
90.60379839600022
 20
17.62428929733329
 10
90.6311877359999
 20
17.46704205333327
 10
90.66901603199994
 20
17.3161957533332
 10
90.71698747200002
 20
17.17206402933328
 10
90.77480624400015
 20
17.03496051333331
 10
90.84217653600012
 20
16.90519527333328
 10
90.9187989720001
 20
16.78308550533325
 10
91.00437774000011
 20
16.66894127733326
 10
91.09862059200009
 20
16.56307978533329
 10
91.20122102400001
 20
16.4658110973333
 10
91.31189391600003
 20
16.37745240933321
 10
91.43033276400013
 20
16.29831378933335
 10
91.55624532000002
 20
16.22870886933333
 10
91.68933220799999
 20
16.16895484533324
 10
91.82930118000001
 20
16.11936178533329
 10
91.9758492960002
 20
16.08024332133334
 10
92.12868787199999
 20
16.05191308533335
 10
92.28751040400004
 20
16.0346847093333
 10
92.45202820800011
 20
16.02887182533334
 10
92.61602566800013
 20
16.03412516133329
 10
92.77335844800006
 20
16.04976399333333
 10
92.92383765600005
 20
16.0755958653333
 10
93.06727439999997
 20
16.11142832133333
 10
93.20348335200014
 20
16.15707246933328
 10
93.33227205599996
 20
16.21233941733328
 10
93.45345518400007
 20
16.27703670933328
 10
93.56683671600013
 20
16.35097901733331
 10
93.6722384520001
 20
16.43397388533327
 10
93.76946080800008
 20
16.5258252933333
 10
93.85832202000006
 20
16.62635504133328
 10
93.93863319600018
 20
16.73535998133326
 10
94.01020188000007
 20
16.85266191333329
 10
94.07283918000008
 20
16.97806125333329
 10
94.12635976800016
 20
17.11137267333322
 10
94.170574752
 20
17.25240371733326
 10
94.20528811200005
 20
17.40096549333327
 10
94.23032164800009
 20
17.55686910933332
 10
94.2454793400002
 20
17.71992567333325
 10
94.25057229599998
 20
17.88993916533326
 10
94.25057229599998
 20
17.88993916533326
 10
94.25057229599998
 20
17.94132135333331
 10
92.61646404000009
 20
17.94132135333331
 10
92.61646404000009
 20
17.65354973733326
 10
93.88572561599994
 20
17.65354973733326
 10
93.87498728399998
 20
17.49100638933328
 10
93.84765496800003
 20
17.33636086533329
 10
93.80443434000017
 20
17.19027606933332
 10
93.74603107200005
 20
17.05341846933328
 10
93.67315796400021
 20
16.92644384133331
 10
93.58652425200011
 20
16.81002578133331
 10
93.48682848000009
 20
16.70481650133331
 10
93.37478701200007
 20
16.61148959733327
 10
93.25110552000001
 20
16.53069728133329
 10
93.11648967600012
 20
16.46310958533331
 10
92.97164871600001
 20
16.40938584933326
 10
92.81729187600012
 20
16.37019254133338
 10
92.65412482800014
 20
16.34618900133324
 10
92.48285680800018
 20
16.33804169733332
 10
92.31819644400014
 20
16.34599298133327
 10
92.15990138400002
 20
16.36937638533322
 10
92.00856325200005
 20
16.40748267333328
 10
91.8647701079999
 20
16.45960617333327
 10
91.72910288400009
 20
16.52503764933328
 10
91.60215320400004
 20
16.60306786533334
 10
91.48450556400007
 20
16.69299471333329
 10
91.37675158800005
 20
16.79410539333338
 10
91.27947577200018
 20
16.90569423333329
 10
91.19326261200001
 20
17.02705556133327
 10
91.11870373200009
 20
17.15747657733328
 10
91.05638362800005
 20
17.29625517333329
 10
91.00689036000005
 20
17.44268211333326
 10
90.97081198799992
 20
17.59604459733333
 10
90.94873300799998
 20
17.7556440813334
 10
90.94124504400008
 20
17.92076776533321
 10
90.94763173200021
 20
18.08914181733331
 10
90.96653518800009
 20
18.25115412933326
 10
90.99755624400017
 20
18.40630574133325
 10
91.04029929600006
 20
18.55410125733328
 10
91.09437230399999
 20
18.69404528133327
 10
91.15937610000003
 20
18.82564598133331
 10
91.23491508000006
 20
18.94840083333332
 10
91.32059720400013
 20
19.06182156933329
 10
91.41602330399996
 20
19.16540566533337
 10
91.52080490399999
 20
19.25866128933325
 10
91.63453570800015
 20
19.34108948133331
 10
91.75683080400018
 20
19.41219840933331
 10
91.88728745999993
 20
19.47148911333329
 10
92.02551363600013
 20
19.51846619733328
 10
92.17111729200018
 20
19.55263426533327
 10
92.32369569600018
 20
19.57350148533328
 10
92.48285680800018
 20
19.58056533333331
 10
92.6605614120001
 20
19.5716482053333
 10
92.83031473200015
 20
19.54501086933328
 10
92.99177818800012
 20
19.50082083333331
 10
93.1446132000001
 20
19.43924560533327
 10
93.2884811880001
 20
19.36045982133328
 10
93.42304713600015
 20
19.26462742533334
 10
93.54797246400005
 20
19.15192305333329
 10
93.66291502800015
 20
19.02251064933335
  0
LWPOLYLINE
  5
1B8
330
172
100
AcDbEntity
  8
06-99
100
AcDbPolyline
 90
       12
 70
     1
 43
0.010692
 10
90.43899547199998
 20
12.25281382533336
 10
92.32226296800012
 20
12.25281382533336
 10
92.46759932400005
 20
13.0076797173333
 10
91.56487020000009
 20
13.0076797173333
 10
91.62105309599997
 20
13.29950716533324
 10
92.41871550000007
 20
13.29950716533324
 10
92.55580119599995
 20
14.01156228933325
 10
91.75813879199996
 20
14.01156228933325
 10
91.80984530399996
 20
14.28005622933324
 10
92.68922666399999
 20
14.28005622933324
 10
92.83455232800008
 20
15.03490786533331
 10
90.9746325960001
 20
15.03490786533331
  0
LWPOLYLINE
  5
1B9
330
172
100
AcDbEntity
  8
06-99
100
AcDbPolyline
 90
        4
 70
     1
 43
0.010692
 10
76.60861191600009
 20
12.88042709733327
 10
89.06586111599995
 20
12.88042709733327
 10
88.94228298000006
 20
12.25209746133328
 10
76.48503734400003
 20
12.25209746133328
  0
SOLID
  5
1BA
330
172
100
AcDbEntity
  8
06-99
100
AcDbTrace
 10
76.60861191600009
 20
12.88042709733327
 30
0.0
 11
89.06586111599995
 21
12.88042709733327
 31
0.0
 12
76.48503734400003
 22
12.25209746133328
 32
0.0
 13
88.94228298000006
 23
12.25209746133328
 33
0.0
  0
LWPOLYLINE
  5
1BB
330
172
100
AcDbEntity
  8
06-99
100
AcDbPolyline
 90
       10
 70
     1
 43
0.010692
 10
82.34584288800011
 20
16.02887182533334
 10
83.32218286800003
 20
19.10266857333329
 10
84.33964784399995
 20
16.02887182533334
 10
85.56779868000012
 20
19.80153333333328
 10
85.22350915200002
 20
19.80153333333328
 10
84.33964784399995
 20
16.89303134133325
 10
83.32218286800003
 20
19.94541201333322
 10
82.34584288800011
 20
16.86733846533332
 10
81.42601012800014
 20
19.80153333333328
 10
81.07658131200015
 20
19.80153333333328
  0
LWPOLYLINE
  5
1BC
330
172
100
AcDbEntity
  8
06-99
100
AcDbPolyline
 90
        3
 70
     1
 43
0.010692
 10
87.32441587200014
 20
17.65868546133333
 10
87.97703416800004
 20
19.25683295733324
 10
88.603963152
 20
17.65868546133333
  0
LWPOLYLINE
  5
1BD
330
172
100
AcDbEntity
  8
06-99
100
AcDbPolyline
 90
        7
 70
     1
 43
0.010692
 10
86.38318129200014
 20
16.12735940133325
 10
86.72319402000004
 20
16.12735940133325
 10
87.21136222799998
 20
17.37092810133328
 10
88.71186325200017
 20
17.37092810133328
 10
89.17949212799999
 20
16.12735940133325
 10
89.54433880800001
 20
16.12735940133325
 10
87.99759132000009
 20
19.94541201333322
  0
LWPOLYLINE
  5
1BE
330
172
100
AcDbEntity
  8
06-99
100
AcDbPolyline
 90
        8
 70
     1
 43
0.010692
 10
98.92980491999992
 20
12.25281382533336
 10
100.0043794319999
 20
12.25281382533336
 10
100.1574069000001
 20
12.60301246533328
 10
100.9122727920001
 20
12.60301246533328
 10
100.934344644
 20
12.25281382533336
 10
102.0082740719999
 20
12.25281382533336
 10
101.571149472
 20
15.03490786533331
 10
100.458311856
 20
15.03490786533331
  0
LWPOLYLINE
  5
1BF
330
172
100
AcDbEntity
  8
06-99
100
AcDbPolyline
 90
       34
 70
     1
 43
0.010692
 10
96.04345675200011
 20
13.66137790533327
 10
96.07848017999993
 20
13.66137790533327
 10
96.06422418000011
 20
13.48699851333333
 10
96.06380006400002
 20
13.33510083333328
 10
96.06789866400005
 20
13.20222778533332
 10
96.09523098000011
 20
12.25281382533336
 10
96.96682856399991
 20
12.25281382533336
 10
98.31568851599991
 20
15.03490786533331
 10
97.31180594400008
 20
15.03490786533331
 10
96.85791272400003
 20
13.80923044533324
 10
96.80781001200012
 20
13.66872687333324
 10
96.74884006799993
 20
13.48671339333322
 10
96.69002693999994
 20
13.26059897733336
 10
96.66669343199998
 20
13.26059897733336
 10
96.68841957600001
 20
13.45803388533329
 10
96.69297793200009
 20
13.61569455333324
 10
96.69193724399997
 20
13.7353130853333
 10
96.67755293999995
 20
15.03490786533331
 10
95.97328515599997
 20
15.03490786533331
 10
95.45848317600007
 20
13.7353130853333
 10
95.41138135199991
 20
13.61569455333324
 10
95.35522696800013
 20
13.45803388533329
 10
95.30092230000002
 20
13.26059897733336
 10
95.27758879199996
 20
13.26059897733336
 10
95.30584418400009
 20
13.48671339333322
 10
95.31696386400005
 20
13.66872687333324
 10
95.320959108
 20
13.80923044533324
 10
95.33903215199996
 20
15.03490786533331
 10
94.33450449600002
 20
15.03490786533331
 10
94.61273528400012
 20
12.25281382533336
 10
95.48432930399997
 20
12.25281382533336
 10
95.87723892000008
 20
13.20222778533332
 10
95.93251299600002
 20
13.33510083333328
 10
95.99057768400006
 20
13.48699851333333
  0
LWPOLYLINE
  5
1C0
330
172
100
AcDbEntity
  8
06-99
100
AcDbPolyline
 90
       10
 70
     1
 43
0.010692
 10
100.4520677279999
 20
13.26448373733331
 10
100.5983592359999
 20
13.57965894933329
 10
100.673110572
 20
13.74409478133339
 10
100.754152368
 20
13.94571026133332
 10
100.82882886
 20
14.19056418933337
 10
100.8482883
 20
14.19056418933337
 10
100.8286649159999
 20
13.94571026133332
 10
100.8320721
 20
13.74409478133339
 10
100.843505412
 20
13.57965894933329
 10
100.8684106440001
 20
13.26448373733331
  0
LWPOLYLINE
  5
1C1
330
172
100
AcDbEntity
  8
06-99
100
AcDbPolyline
 90
       23
 70
     1
 43
0.010692
 10
103.5867055200001
 20
12.25281382533336
 10
104.5672403279999
 20
12.25281382533336
 10
104.744036112
 20
13.17110337333327
 10
105.0536265360001
 20
12.25281382533336
 10
106.1742372359999
 20
12.25281382533336
 10
105.64906758
 20
13.38511444533327
 10
105.808428276
 20
13.42380879333331
 10
105.9537004799999
 20
13.4988167373333
 10
106.081348704
 20
13.60690216533328
 10
106.187830332
 20
13.74481827333329
 10
106.2695991839999
 20
13.90932182133326
 10
106.3231126439999
 20
14.09716956933329
 10
106.3446
 20
14.2680918813333
 10
106.3403018159999
 20
14.42330051733336
 10
106.310228784
 20
14.5622608773333
 10
106.2543915959999
 20
14.68443479733321
 10
106.1728080719999
 20
14.78928767733333
 10
106.065492468
 20
14.8762777893333
 10
105.932451912
 20
14.9448740973333
 10
105.7737077879999
 20
14.99453487333335
 10
105.58926366
 20
15.02472551733331
 10
105.3791444759999
 20
15.03490786533331
 10
104.122342644
 20
15.03490786533331
  0
LWPOLYLINE
  5
1C2
330
172
100
AcDbEntity
  8
06-99
100
AcDbPolyline
 90
        9
 70
     1
 43
0.010692
 10
104.965032624
 20
14.31896441733329
 10
105.120683196
 20
14.31896441733329
 10
105.2773530720001
 20
14.28538440933323
 10
105.3582202319999
 20
14.19041093733335
 10
105.36321696
 20
14.04270095733329
 10
105.30086478
 20
13.89700107333334
 10
105.183291984
 20
13.80578049333331
 10
105.0158124959999
 20
13.77422127333324
 10
104.860161924
 20
13.77422127333324
  0
LWPOLYLINE
  5
1C3
330
172
100
AcDbEntity
  8
06-99
100
AcDbPolyline
 90
       12
 70
     1
 43
0.010692
 10
100.5798014880001
 20
16.12735940133325
 10
102.3988991640001
 20
16.12735940133325
 10
102.3988991640001
 20
16.44082389333323
 10
100.9138195680001
 20
16.44082389333323
 10
100.9138195680001
 20
18.02353214133336
 10
102.3988991640001
 20
18.02353214133336
 10
102.3988991640001
 20
18.33699663333334
 10
100.9138195680001
 20
18.33699663333334
 10
100.9138195680001
 20
19.4880688413333
 10
102.3988991640001
 20
19.4880688413333
 10
102.3988991640001
 20
19.80153333333328
 10
100.5798014880001
 20
19.80153333333328
  0
LWPOLYLINE
  5
1C4
330
172
100
AcDbEntity
  8
06-99
100
AcDbPolyline
 90
        8
 70
     1
 43
0.010692
 10
95.85302510400016
 20
16.12735940133325
 10
96.18704674800007
 20
16.12735940133325
 10
96.18704674800007
 20
19.09753284933328
 10
98.76666638400003
 20
16.01858612133327
 10
98.76666638400003
 20
19.80153333333328
 10
98.43265899600011
 20
19.80153333333328
 10
98.43265899600011
 20
16.8827456373333
 10
95.85302510400016
 20
19.95568346133325
  0
LWPOLYLINE
  5
1C5
330
172
100
AcDbEntity
  8
06-99
100
AcDbPolyline
 90
       19
 70
     1
 43
0.010692
 10
104.4484236960002
 20
19.50862599333322
 10
104.7824310840001
 20
19.50862599333322
 10
104.986616208
 20
19.5003076173333
 10
105.160446744
 20
19.47385917333327
 10
105.3048956640001
 20
19.42705672533321
 10
105.4209181200001
 20
19.35767277333326
 10
105.5094799560001
 20
19.26347981733323
 10
105.571543452
 20
19.14225035733335
 10
105.608078016
 20
18.99174976533322
 10
105.620042364
 20
18.80976123333329
 10
105.607447188
 20
18.63100881333327
 10
105.5693765400001
 20
18.48586134933327
 10
105.5054169960001
 20
18.37130369733336
 10
105.415137312
 20
18.28432784133332
 10
105.2981240640001
 20
18.22192220133331
 10
105.1539495720001
 20
18.18107163333326
 10
104.9821897199999
 20
18.15877168533336
 10
104.7824310840001
 20
18.15200721333332
 10
104.4484236960002
 20
18.15200721333332
  0
LWPOLYLINE
  5
1C6
330
172
100
AcDbEntity
  8
06-99
100
AcDbPolyline
 90
       29
 70
     1
 43
0.010692
 10
106.3446
 20
16.12735940133325
 10
105.023956236
 20
17.8796534613333
 10
105.2123742240002
 20
17.89225220133335
 10
105.3829009320001
 20
17.92942115733325
 10
105.5343994440001
 20
17.99023012533337
 10
105.665722152
 20
18.07375602933331
 10
105.7757285760001
 20
18.17905797333327
 10
105.863274672
 20
18.30521644533331
 10
105.927223524
 20
18.45129411333335
 10
105.966431088
 20
18.61636077333333
 10
105.9797533199998
 20
18.79948978533332
 10
105.9699380640002
 20
18.97455346533331
 10
105.9404816040002
 20
19.13261686533332
 10
105.8913554280001
 20
19.27374770133332
 10
105.8225417160001
 20
19.3980136893332
 10
105.7340155200001
 20
19.50548610933333
 10
105.6257518920001
 20
19.59623624133331
 10
105.4977294480001
 20
19.67032823733325
 10
105.3499232399999
 20
19.7278333773333
 10
105.182311884
 20
19.76882650533332
 10
104.994873996
 20
19.79336820933332
 10
104.787581064
 20
19.80153333333328
 10
104.787581064
 20
19.80153333333328
 10
104.1144056160001
 20
19.80153333333328
 10
104.1144056160001
 20
16.12735940133325
 10
104.4484236960002
 20
16.12735940133325
 10
104.4484236960002
 20
17.8796534613333
 10
104.648838108
 20
17.8796534613333
 10
105.938639016
 20
16.12735940133325
  0
TEXT
  5
1C7
330
172
100
AcDbEntity
  8
06-99
100
AcDbText
 10
85.60835809905961
 20
9.633208985719136
 30
0.0
 40
1.4256
  1
GmbH & Co KG
 41
1.199203187251
 51
15.0
  7
ROMAND8
 72
     5
 11
106.0419580990597
 21
9.633208985719136
 31
0.0
100
AcDbText
  0
TEXT
  5
1C9
330
172
100
AcDbEntity
  8
06-99
100
AcDbText
 10
85.70981485364347
 20
7.391015713295587
 30
0.0
 40
1.4256
  1
72774 Reutlingen
 50
0.5663244663116128
 41
1.087840993687879
 51
15.0
  7
ROMAND8
 72
     5
 11
105.9434148536435
 21
7.591015713295576
 31
0.0
100
AcDbText
  0
TEXT
  5
1CA
330
172
100
AcDbEntity
  8
08-99
100
AcDbText
 10
73.41411819983751
 20
48.45009163044323
 30
0.0
 40
2.25
  1
Zul. Abw.
 51
15.0
  7
ROMANS8
100
AcDbText
  0
TEXT
  5
1CB
330
172
100
AcDbEntity
  8
08-99
100
AcDbText
 10
123.2099263202836
 20
49.28616415937344
 30
0.0
 40
2.0
  1
Mat. Art.
 51
15.0
  7
ROMANS8
100
AcDbText
  0
TEXT
  5
1CC
330
172
100
AcDbEntity
  8
08-99
100
AcDbText
 10
155.4865309703727
 20
49.40431338334462
 30
0.0
 40
2.0
  1
Oberfläche:
 51
15.0
  7
ROMANS8
100
AcDbText
  0
TEXT
  5
1CD
330
172
100
AcDbEntity
  8
08-99
100
AcDbText
 10
184.7625378385805
 20
41.73764671667789
 30
0.0
 40
2.0
  1
Blech Dicke:
 51
15.0
  7
ROMANS8
100
AcDbText
  0
TEXT
  5
1CE
330
172
100
AcDbEntity
  8
08-99
100
AcDbText
 10
187.4380280285577
 20
49.28616415937347
 30
0.0
 40
2.0
  1
Maßstab:
 51
15.0
  7
ROMANS8
100
AcDbText
  0
LINE
  5
1CF
330
172
100
AcDbEntity
  8
01-99
100
AcDbLine
 10
115.0
 20
46.88888888899993
 30
0.0
 11
92.0
 21
46.88888888899993
 31
0.0
  0
LINE
  5
1D0
330
172
100
AcDbEntity
  8
01-99
370
     5
100
AcDbLine
 10
115.0
 20
44.3333333333332
 30
0.0
 11
92.0
 21
44.3333333333332
 31
0.0
  0
LINE
  5
1D1
330
172
100
AcDbEntity
  8
01-99
370
     5
100
AcDbLine
 10
115.0
 20
40.49999999999989
 30
0.0
 11
91.99999999999993
 21
40.49999999999989
 31
0.0
  0
ATTDEF
  5
1D2
330
172
100
AcDbEntity
  8
06-99
100
AcDbText
 10
116.4954467391771
 20
26.18783869728213
 30
0.0
 40
4.0
  1

 41
0.9
  7
ROMANS8
100
AcDbAttributeDefinition
280
     0
  3
Benennung/Teil
  2
TEILE
 70
     0
280
     0
  0
ATTDEF
  5
1D3
330
172
100
AcDbEntity
  8
06-99
100
AcDbText
 10
92.99706779936741
 20
27.44168546803121
 30
0.0
 40
2.5
  1

 41
0.9
  7
ROMANS8
100
AcDbAttributeDefinition
280
     0
  3
Name
  2
NAME
 70
     0
280
     0
  0
ATTDEF
  5
1D4
330
172
100
AcDbEntity
  8
06-99
100
AcDbText
 10
79.49314645189407
 20
27.46123517411116
 30
0.0
 40
2.5
  1

 50
359.9144597696142
 41
0.9542572414211148
  7
ROMANS8
 72
     5
 11
90.7397371204388
 21
27.4444444666666
 31
0.0
100
AcDbAttributeDefinition
280
     0
  3
Datum
  2
DATUM
 70
     0
280
     0
  0
ATTDEF
  5
1D5
330
172
100
AcDbEntity
  8
06-99
100
AcDbText
 10
191.3473862117146
 20
45.33333333333326
 30
0.0
 40
3.375
  1

  7
ROMANS8
100
AcDbAttributeDefinition
280
     0
  3
Maßstab
  2
:
 70
     0
280
     0
  0
ATTDEF
  5
1D6
330
172
100
AcDbEntity
  8
06-99
100
AcDbText
 10
178.5063439671582
 20
7.492899800288626
 30
0.0
 40
2.99376
  1

  7
ROMANS8
100
AcDbAttributeDefinition
280
     0
  3
Ident-Nummer
  2
ID.NR
 70
     0
280
     0
  0
ATTDEF
  5
1D7
330
172
100
AcDbEntity
  8
06-99
100
AcDbText
 10
116.5
 20
7.499999999999943
 30
0.0
 40
3.168
  1

 41
0.9
  7
ROMANS8
100
AcDbAttributeDefinition
280
     0
  3
ARTIKEL-NR,WPS
  2
ARTIKEL-NR
 70
     0
280
     0
  0
ATTDEF
  5
1D8
330
172
100
AcDbEntity
  8
06-99
100
AcDbText
 10
146.0006338868801
 20
7.504396604354553
 30
0.0
 40
3.168
  1

 41
0.9
  7
ROMANS8
100
AcDbAttributeDefinition
280
     0
  3
Auftrags Nr.
  2
AUFTRAGS.NR.
 70
     0
280
     0
  0
ATTDEF
  5
1D9
330
172
100
AcDbEntity
  8
06-99
100
AcDbText
 10
116.7312662557105
 20
37.66666664444438
 30
0.0
 40
3.0
  1

 41
0.9
  7
ROMANS8
100
AcDbAttributeDefinition
280
     0
  3
Zuschnitts.Länge
  2
LÄNGE
 70
     0
280
     0
  0
ATTDEF
  5
1DA
330
172
100
AcDbEntity
  8
06-99
100
AcDbText
 10
150.1808049117697
 20
37.67810387044475
 30
0.0
 40
3.0
  1

 41
0.9
  7
ROMANS8
100
AcDbAttributeDefinition
280
     0
  3
Zuschnitts Breite
  2
BREITE
 70
     0
280
     0
  0
ATTDEF
  5
1DB
330
172
100
AcDbEntity
  8
06-99
100
AcDbText
 10
190.6090921267318
 20
37.66666666666669
 30
0.0
 40
3.09375
  1

  7
ROMANS8
100
AcDbAttributeDefinition
280
     0
  3
Blech.Dicke
  2
1.0
 70
     0
280
     0
  0
ATTDEF
  5
1DC
330
172
100
AcDbEntity
  8
06-99
100
AcDbText
 10
164.1277856014027
 20
45.33333333333337
 30
0.0
 40
3.0
  1

  7
ROMANS8
 72
     1
 11
164.1277856014027
 21
45.33333333333337
 31
0.0
100
AcDbAttributeDefinition
280
     0
  3
Oberfläche
  2
IV
 70
     0
280
     0
  0
ATTDEF
  5
1DD
330
172
100
AcDbEntity
  8
06-99
100
AcDbText
 10
21.49946778019853
 20
6.597456397872349
 30
0.0
 40
1.5
  1

 41
0.9
  7
ROMANS8
100
AcDbAttributeDefinition
280
     0
  3
ERSETZT.Für
  2
ERSETZT.FÜR
 70
     0
280
     0
  0
ATTDEF
  5
1DE
330
172
100
AcDbEntity
  8
06-99
100
AcDbText
 10
46.4997509950083
 20
6.601810069259784
 30
0.0
 40
1.5
  1

 41
0.9
  7
ROMANS8
100
AcDbAttributeDefinition
280
     0
  3
ERSETZT.Durch
  2
ERSETZT.DURCH
 70
     0
280
     0
  0
ATTDEF
  5
1DF
330
172
100
AcDbEntity
  8
06-99
100
AcDbText
 10
92.81172471169201
 20
41.03030066719799
 30
0.0
 40
2.34
  1
DIN 6930-M
  7
ROMANS8
 72
     1
 11
103.5088675688348
 21
41.03030066719799
 31
0.0
100
AcDbAttributeDefinition
280
     0
  3
Norm / Fräsen
  2
NORM1
 70
     0
280
     0
  0
ATTDEF
  5
1E0
330
172
100
AcDbEntity
  8
06-99
100
AcDbText
 10
95.98743899740631
 20
37.19696733386469
 30
0.0
 40
2.34
  1
DIN 2768
  7
ROMANS8
 72
     1
 11
104.0102961402634
 21
37.19696733386469
 31
0.0
100
AcDbAttributeDefinition
280
     0
  3
Norm / Kanten
  2
NORM2
 70
     0
280
     0
  0
ATTDEF
  5
1E1
330
172
100
AcDbEntity
  8
06-99
100
AcDbText
 10
99.97307264643758
 20
47.66851114000792
 30
0.0
 40
1.287
  1
DIN A4
  7
ROMANS8
 72
     1
 11
103.2518583607233
 21
47.66851114000792
 31
0.0
100
AcDbAttributeDefinition
280
     0
  3
Format
  2
FORMAT
 70
     0
280
     0
  0
ATTDEF
  5
1E2
330
172
100
AcDbEntity
  8
06-99
100
AcDbText
 10
123.2747405361158
 20
45.33333333333323
 30
0.0
 40
3.375
  1
1.4301
  7
ROMANS8
100
AcDbAttributeDefinition
280
     0
  3
Mat.Art
  2
1.4301
 70
     0
280
     0
  0
ENDBLK
  5
1E3
330
172
100
AcDbEntity
  8
0
100
AcDbBlockEnd
  0
BLOCK
  5
1F9
330
1F8
100
AcDbEntity
  8
0
100
AcDbBlockBegin
  2
Hygienebehälter 023557-S
 70
     0
 10
0.0
 20
0.0
 30
0.0
  3
Hygienebehälter 023557-S
  1

  0
LINE
  5
1FA
330
1F8
100
AcDbEntity
  8
0
100
AcDbLine
 10
-40.49999999999999
 20
0.0
 30
0.0
 11
40.49999999999999
 21
0.0
 31
0.0
  0
LINE
  5
1FB
330
1F8
100
AcDbEntity
  8
0
100
AcDbLine
 10
40.49999999999999
 20
0.0
 30
0.0
 11
40.49999999999999
 21
225.0
 31
0.0
  0
LINE
  5
1FC
330
1F8
100
AcDbEntity
  8
0
100
AcDbLine
 10
41.5
 20
245.0
 30
0.0
 11
-41.5
 21
245.0
 31
0.0
  0
LINE
  5
1FD
330
1F8
100
AcDbEntity
  8
0
100
AcDbLine
 10
41.5
 20
225.0
 30
0.0
 11
-41.5
 21
225.0
 31
0.0
  0
LINE
  5
1FE
330
1F8
100
AcDbEntity
  8
0
100
AcDbLine
 10
-40.49999999999999
 20
225.0
 30
0.0
 11
-40.49999999999999
 21
0.0
 31
0.0
  0
LINE
  5
1FF
330
1F8
100
AcDbEntity
  8
03-01
100
AcDbLine
 10
-37.5
 20
3.0
 30
0.0
 11
37.49999999999909
 21
2.999999999999545
 31
0.0
  0
LINE
  5
203
330
1F8
100
AcDbEntity
  8
03-01
100
AcDbLine
 10
37.5
 20
3.0
 30
0.0
 11
37.50000000000091
 21
245.0000000000005
 31
0.0
  0
LINE
  5
204
330
1F8
100
AcDbEntity
  8
03-01
100
AcDbLine
 10
-37.49999999999909
 20
245.0000000000005
 30
0.0
 11
-37.5
 21
3.0
 31
0.0
  0
LINE
  5
205
330
1F8
100
AcDbEntity
  8
03-01
100
AcDbLine
 10
-41.5
 20
235.0000000000004
 30
0.0
 11
-37.49999999999909
 21
235.0000000000004
 31
0.0
  0
LINE
  5
206
330
1F8
100
AcDbEntity
  8
03-01
100
AcDbLine
 10
-40.49999999999999
 20
215.0
 30
0.0
 11
-37.49999999999909
 21
215.0000000000005
 31
0.0
  0
LINE
  5
207
330
1F8
100
AcDbEntity
  8
0
100
AcDbLine
 10
-41.5
 20
245.0
 30
0.0
 11
-41.5
 21
225.0000000000004
 31
0.0
  0
LINE
  5
208
330
1F8
100
AcDbEntity
  8
0
100
AcDbLine
 10
41.5
 20
245.0
 30
0.0
 11
41.5
 21
225.0000000000004
 31
0.0
  0
ENDBLK
  5
209
330
1F8
100
AcDbEntity
  8
0
100
AcDbBlockEnd
  0
BLOCK
  5
20C
330
20B
100
AcDbEntity
  8
0
100
AcDbBlockBegin
  2
Hygienebehälter 023557-V
 70
     0
 10
0.0
 20
0.0
 30
0.0
  3
Hygienebehälter 023557-V
  1

  0
LINE
  5
20D
330
20B
100
AcDbEntity
  8
0
100
AcDbLine
 10
-91.5
 20
0.0000000000004547
 30
0.0
 11
91.5
 21
0.0
 31
0.0
  0
LINE
  5
20E
330
20B
100
AcDbEntity
  8
0
100
AcDbLine
 10
91.5
 20
0.0
 30
0.0
 11
91.5
 21
225.0
 31
0.0
  0
LINE
  5
20F
330
20B
100
AcDbEntity
  8
0
100
AcDbLine
 10
92.5
 20
245.0
 30
0.0
 11
-92.5
 21
245.0
 31
0.0
  0
LINE
  5
210
330
20B
100
AcDbEntity
  8
0
100
AcDbLine
 10
20.0
 20
235.0
 30
0.0
 11
-20.0
 21
235.0000000000004
 31
0.0
  0
LINE
  5
211
330
20B
100
AcDbEntity
  8
0
100
AcDbLine
 10
20.0
 20
215.0
 30
0.0
 11
-20.0
 21
215.0
 31
0.0
  0
LINE
  5
212
330
20B
100
AcDbEntity
  8
0
100
AcDbLine
 10
92.5
 20
225.0
 30
0.0
 11
30.0
 21
225.0000000000004
 31
0.0
  0
LINE
  5
213
330
20B
100
AcDbEntity
  8
0
100
AcDbLine
 10
-30.0
 20
225.0000000000004
 30
0.0
 11
-92.5
 21
225.0
 31
0.0
  0
LINE
  5
214
330
20B
100
AcDbEntity
  8
0
100
AcDbLine
 10
-91.5
 20
225.0
 30
0.0
 11
-91.5
 21
0.0
 31
0.0
  0
LINE
  5
215
330
20B
100
AcDbEntity
  8
03-01
100
AcDbLine
 10
-88.49999999999999
 20
3.0
 30
0.0
 11
88.49999999999999
 21
3.000000000000454
 31
0.0
  0
LINE
  5
216
330
20B
100
AcDbEntity
  8
03-01
100
AcDbLine
 10
88.49999999999999
 20
3.0
 30
0.0
 11
88.49999999999999
 21
245.0000000000005
 31
0.0
  0
LINE
  5
217
330
20B
100
AcDbEntity
  8
03-01
100
AcDbLine
 10
-88.49999999999999
 20
245.0000000000005
 30
0.0
 11
-88.49999999999999
 21
3.0
 31
0.0
  0
LINE
  5
218
330
20B
100
AcDbEntity
  8
0
100
AcDbLine
 10
-92.5
 20
225.0
 30
0.0
 11
-92.5
 21
245.0
 31
0.0
  0
LINE
  5
219
330
20B
100
AcDbEntity
  8
0
100
AcDbLine
 10
92.5
 20
245.0
 30
0.0
 11
92.5
 21
225.0
 31
0.0
  0
ARC
  5
21A
330
20B
100
AcDbEntity
  8
0
100
AcDbCircle
 10
-20.0
 20
225.0000000000004
 30
0.0
 40
10.0
100
AcDbArc
 50
90.0
 51
270.0
  0
ARC
  5
21B
330
20B
100
AcDbEntity
  8
0
100
AcDbCircle
 10
20.0
 20
225.0000000000004
 30
0.0
 40
10.0
100
AcDbArc
 50
270.0
 51
90.0
  0
ENDBLK
  5
21C
330
20B
100
AcDbEntity
  8
0
100
AcDbBlockEnd
  0
BLOCK
  5
241
330
240
100
AcDbEntity
  8
0
100
AcDbBlockBegin
  2
Hygienebehälter 023557-D
 70
     0
 10
0.0
 20
0.0
 30
0.0
  3
Hygienebehälter 023557-D
  1

  0
LINE
  5
242
330
240
100
AcDbEntity
  8
0
100
AcDbLine
 10
-92.5
 20
0.0
 30
0.0
 11
92.5
 21
0.0
 31
0.0
  0
LINE
  5
243
330
240
100
AcDbEntity
  8
03-01
100
AcDbLine
 10
-91.5000000000009
 20
1.0
 30
0.0
 11
91.5
 21
1.000000000000454
 31
0.0
  0
LINE
  5
244
330
240
100
AcDbEntity
  8
0
100
AcDbLine
 10
92.5
 20
0.0
 30
0.0
 11
92.5
 21
83.0
 31
0.0
  0
LINE
  5
245
330
240
100
AcDbEntity
  8
03-01
100
AcDbLine
 10
91.5
 20
1.000000000000454
 30
0.0
 11
91.5
 21
82.00000000000045
 31
0.0
  0
LINE
  5
246
330
240
100
AcDbEntity
  8
0
100
AcDbLine
 10
92.5
 20
83.0
 30
0.0
 11
-92.5
 21
83.0
 31
0.0
  0
LINE
  5
247
330
240
100
AcDbEntity
  8
03-01
100
AcDbLine
 10
91.5000000000009
 20
82.00000000000045
 30
0.0
 11
-91.49999999999909
 21
82.00000000000045
 31
0.0
  0
LINE
  5
248
330
240
100
AcDbEntity
  8
0
100
AcDbLine
 10
-92.5
 20
83.0
 30
0.0
 11
-92.5
 21
0.0
 31
0.0
  0
LINE
  5
249
330
240
100
AcDbEntity
  8
03-01
100
AcDbLine
 10
-91.5
 20
82.00000000000091
 30
0.0
 11
-91.5000000000009
 21
0.9999999999995452
 31
0.0
  0
LINE
  5
24A
330
240
100
AcDbEntity
  8
0
100
AcDbLine
 10
-88.50000000000092
 20
3.999999999999545
 30
0.0
 11
88.49999999999999
 21
4.000000000000454
 31
0.0
  0
LINE
  5
24B
330
240
100
AcDbEntity
  8
0
100
AcDbLine
 10
88.49999999999999
 20
4.000000000000909
 30
0.0
 11
88.49999999999999
 21
79.0
 31
0.0
  0
LINE
  5
24C
330
240
100
AcDbEntity
  8
0
100
AcDbLine
 10
88.49999999999999
 20
78.99999999999955
 30
0.0
 11
-88.50000000000092
 21
78.99999999999955
 31
0.0
  0
LINE
  5
24D
330
240
100
AcDbEntity
  8
0
100
AcDbLine
 10
-88.49999999999999
 20
78.99999999999909
 30
0.0
 11
-88.49999999999999
 21
3.999999999999545
 31
0.0
  0
LINE
  5
24E
330
240
100
AcDbEntity
  8
03-01
100
AcDbLine
 10
-29.99999999999909
 20
83.00000000000045
 30
0.0
 11
-29.99999999999909
 21
78.99999999999955
 31
0.0
  0
LINE
  5
24F
330
240
100
AcDbEntity
  8
03-01
100
AcDbLine
 10
30.00000000000091
 20
83.00000000000045
 30
0.0
 11
29.99999999999909
 21
79.0
 31
0.0
  0
ENDBLK
  5
250
330
240
100
AcDbEntity
  8
0
100
AcDbBlockEnd
  0
BLOCK
  5
15A
330
157
100
AcDbEntity
  8
0
100
AcDbBlockBegin
  2
aaaaWagner
 70
     0
 10
0.0
 20
0.0
 30
0.0
  3
aaaaWagner
  1

  0
LWPOLYLINE
  5
15B
330
157
100
AcDbEntity
  8
02TNR-01
100
AcDbPolyline
 90
      133
 70
     1
 43
0.0135
 10
2.64276749999999
 20
8.613321999999925
 10
2.947701000000051
 20
8.879334999999969
 10
2.838868499999989
 20
9.054852999999866
 10
2.714389500000038
 20
9.213374499999986
 10
2.57469600000013
 20
9.35495800000001
 10
2.420237999999926
 20
9.479670999999882
 10
2.25144750000004
 20
9.587562999999931
 10
2.068760999999994
 20
9.678692499999897
 10
1.872623999999973
 20
9.753126999999949
 10
1.663468500000135
 20
9.810915999999906
 10
1.441735500000049
 20
9.852118000000018
 10
1.20786600000008
 20
9.876800499999944
 10
0.9622965000000931
 20
9.885012999999958
 10
0.759108000000083
 20
9.8773584999999
 10
0.5624669999999697
 20
9.854727999999909
 10
0.372792000000004
 20
9.817611999999996
 10
0.1905060000001413
 20
9.766509999999925
 10
0.0160275000000638
 20
9.701921499999969
 10
-0.1502339999999549
 20
9.6243414999999
 10
-0.3078464999999824
 20
9.534264999999891
 10
-0.4564004999999725
 20
9.432186999999885
 10
-0.5954774999999018
 20
9.318602499999997
 10
-0.7246499999999969
 20
9.194015499999977
 10
-0.8435129999999162
 20
9.058911999999963
 10
-0.9516390000000001
 20
8.913800499999979
 10
-1.048609499999884
 20
8.759166999999933
 10
-1.134010499999931
 20
8.595510999999987
 10
-1.207418999999958
 20
8.42332749999997
 10
-1.268420999999875
 20
8.243120499999918
 10
-1.316597999999885
 20
8.05537599999991
 10
-1.351522499999987
 20
7.860597999999868
 10
-1.372789499999953
 20
7.659276999999974
 10
-1.379966999999965
 20
7.451912499999991
 10
-1.372879499999953
 20
7.238396500000021
 10
-1.351855499999942
 20
7.032165999999961
 10
-1.317273
 20
6.833621499999935
 10
-1.269509999999968
 20
6.643158999999855
 10
-1.208939999999984
 20
6.46117449999997
 10
-1.135936499999957
 20
6.288063999999963
 10
-1.050873000000024
 20
6.124218999999925
 10
-0.9541274999999131
 20
5.970039999999926
 10
-0.8460734999999885
 20
5.825918499999943
 10
-0.7270800000000009
 20
5.692254999999931
 10
-0.5975339999999961
 20
5.569440999999983
 10
-0.4577954999999747
 20
5.457876999999882
 10
-0.308251499999983
 20
5.357954499999948
 10
-0.1492709999999988
 20
5.270069499999976
 10
0.0187680000000228
 20
5.194622499999979
 10
0.1954964999999902
 20
5.132004999999992
 10
0.3805320000001302
 20
5.082613000000037
 10
0.5735100000000557
 20
5.046842500000025
 10
0.7740435000000617
 20
5.025089499999921
 10
0.9817679999999882
 20
5.017749999999921
 10
1.188835500000095
 20
5.024382999999943
 10
1.387488000000075
 20
5.044128999999998
 10
1.577487000000019
 20
5.076744999999959
 10
1.758594000000016
 20
5.121987999999987
 10
1.930574999999976
 20
5.179619500000001
 10
2.093186999999943
 20
5.24940099999992
 10
2.246196000000054
 20
5.331089499999961
 10
2.389354500000081
 20
5.424450999999976
 10
2.522437500000023
 20
5.529242499999895
 10
2.645193000000062
 20
5.645216499999946
 10
2.757391500000039
 20
5.772147999999901
 10
2.858794500000044
 20
5.909780499999897
 10
2.949159000000122
 20
6.057888999999931
 10
3.028246500000022
 20
6.21622149999996
 10
3.095823000000109
 20
6.384543999999891
 10
3.151650000000017
 20
6.562613499999883
 10
3.195480000000088
 20
6.750191499999914
 10
3.227088000000094
 20
6.947039499999959
 10
3.246226500000034
 20
7.152918999999883
 10
3.252657000000112
 20
7.367582499999912
 10
3.252657000000112
 20
7.367582499999912
 10
3.252657000000112
 20
7.432458999999994
 10
1.189389000000005
 20
7.432458999999994
 10
1.189389000000005
 20
7.069110999999907
 10
2.79199200000005
 20
7.069110999999907
 10
2.778433500000005
 20
6.863879499999995
 10
2.743922999999995
 20
6.668619999999918
 10
2.689351500000043
 20
6.48416949999995
 10
2.61561000000006
 20
6.311369499999955
 10
2.523598500000048
 20
6.151047999999946
 10
2.414212500000076
 20
6.004055499999935
 10
2.288334000000077
 20
5.871215499999948
 10
2.146867500000098
 20
5.753378499999939
 10
1.99070400000005
 20
5.651367999999933
 10
1.820734500000071
 20
5.566030000000012
 10
1.637854500000003
 20
5.49819699999989
 10
1.442959500000142
 20
5.448710500000004
 10
1.236940500000059
 20
5.418402999999898
 10
1.020693000000051
 20
5.408115999999949
 10
0.8127885000001242
 20
5.418155499999897
 10
0.6129210000000285
 20
5.447679999999877
 10
0.4218375000000379
 20
5.495793999999932
 10
0.2402805000000399
 20
5.561606499999925
 10
0.0689835000000585
 20
5.644221999999899
 10
-0.0913064999998596
 20
5.742744999999956
 10
-0.2398514999999861
 20
5.856288999999947
 10
-0.3759045000000469
 20
5.983954000000039
 10
-0.4987274999999727
 20
6.124848999999926
 10
-0.6075824999999213
 20
6.27808299999998
 10
-0.7017224999999599
 20
6.442755999999917
 10
-0.7804095000000189
 20
6.617981499999928
 10
-0.8429009999998697
 20
6.802863999999885
 10
-0.8884544999999661
 20
6.996503500000017
 10
-0.9163320000000112
 20
7.19801799999999
 10
-0.9257864999999583
 20
7.406507499999861
 10
-0.9177224999998543
 20
7.619100999999943
 10
-0.8938544999999749
 20
7.823661999999899
 10
-0.854686499999957
 20
8.019560499999897
 10
-0.8007179999999607
 20
8.206170999999926
 10
-0.7324439999999868
 20
8.382867999999916
 10
-0.6503685000000133
 20
8.549030499999958
 10
-0.5549909999999727
 20
8.704024000000003
 10
-0.446806499999866
 20
8.847231999999962
 10
-0.3263190000000122
 20
8.978020000000014
 10
-0.194018999999912
 20
9.095766999999909
 10
-0.0504194999998617
 20
9.199842999999987
 10
0.1039935000001151
 20
9.289626999999995
 10
0.2687114999999949
 20
9.364488999999935
 10
0.443239500000118
 20
9.423803499999962
 10
0.6270825000000287
 20
9.466944999999896
 10
0.8197320000000445
 20
9.493292499999938
 10
1.020693000000051
 20
9.50221149999993
 10
1.245067500000004
 20
9.490952499999934
 10
1.45940250000001
 20
9.457319499999925
 10
1.663270500000066
 20
9.401523999999994
 10
1.85624400000006
 20
9.323777499999891
 10
2.037895500000104
 20
9.224300499999912
 10
2.207802000000015
 20
9.10329999999999
 10
2.365536000000133
 20
8.960996499999964
 10
2.510665500000072
 20
8.797596999999939
  0
LWPOLYLINE
  5
15F
330
157
100
AcDbEntity
  8
02TNR-01
100
AcDbPolyline
 90
       12
 70
     1
 43
0.0135
 10
-1.117729499999995
 20
0.25
 10
1.260133500000165
 20
0.25
 10
1.443639000000075
 20
1.203113499999972
 10
0.3038295000001199
 20
1.203113499999972
 10
0.3747675000000754
 20
1.571582499999863
 10
1.381917000000157
 20
1.571582499999863
 10
1.555004999999937
 20
2.470641999999884
 10
0.5478555000000825
 20
2.470641999999884
 10
0.6131415000000971
 20
2.809649499999864
 10
1.723471500000073
 20
2.809649499999864
 10
1.906963500000074
 20
3.762744999999995
 10
-0.4414199999999937
 20
3.762744999999995
  0
LWPOLYLINE
  5
160
330
157
100
AcDbEntity
  8
02TNR-01
100
AcDbPolyline
 90
        4
 70
     1
 43
0.0135
 10
-18.58033499999988
 20
1.042440999999939
 10
-2.851485000000025
 20
1.042440999999939
 10
-3.007518000000004
 20
0.2490954999999531
 10
-18.73636349999992
 20
0.2490954999999531
  0
SOLID
  5
161
330
157
100
AcDbEntity
  8
02TNR-01
100
AcDbTrace
 10
-18.58033499999988
 20
1.042440999999939
 30
0.0
 11
-2.851485000000025
 21
1.042440999999939
 31
0.0
 12
-18.73636349999992
 22
0.2490954999999531
 32
0.0
 13
-3.007518000000004
 23
0.2490954999999531
 33
0.0
  0
LWPOLYLINE
  5
162
330
157
100
AcDbEntity
  8
02TNR-01
100
AcDbPolyline
 90
       10
 70
     1
 43
0.0135
 10
-11.77856699999995
 20
5.017749999999921
 10
-10.54581449999989
 20
8.898806499999977
 10
-9.261136499999906
 20
5.017749999999921
 10
-7.710440999999946
 20
9.781211499999926
 10
-8.145149999999944
 20
9.781211499999926
 10
-9.261136499999906
 20
6.108860499999877
 10
-10.54581449999989
 20
9.962876499999879
 10
-11.77856699999995
 20
6.076419999999984
 10
-12.93997200000001
 20
9.781211499999926
 10
-13.38116999999988
 20
9.781211499999926
  0
LWPOLYLINE
  5
163
330
157
100
AcDbEntity
  8
02TNR-01
100
AcDbPolyline
 90
        3
 70
     1
 43
0.0135
 10
-5.492489999999861
 20
7.075595499999963
 10
-4.668476999999938
 20
9.093458499999883
 10
-3.876899999999977
 20
7.075595499999963
  0
LWPOLYLINE
  5
164
330
157
100
AcDbEntity
  8
02TNR-01
100
AcDbPolyline
 90
        7
 70
     1
 43
0.0135
 10
-6.68091749999985
 20
5.142102999999906
 10
-6.251608499999974
 20
5.142102999999906
 10
-5.63523449999991
 20
6.712265499999944
 10
-3.740662499999871
 20
6.712265499999944
 10
-3.150221999999985
 20
5.142102999999906
 10
-2.689556999999922
 20
5.142102999999906
 10
-4.642520999999987
 20
9.962876499999879
  0
LWPOLYLINE
  5
165
330
157
100
AcDbEntity
  8
02TNR-01
100
AcDbPolyline
 90
        8
 70
     1
 43
0.0135
 10
9.602989500000035
 20
0.25
 10
10.95977550000009
 20
0.25
 10
11.15299200000004
 20
0.6921699999999192
 10
12.10610550000001
 20
0.6921699999999192
 10
12.13397400000008
 20
0.25
 10
13.48994549999998
 20
0.25
 10
12.93802049999999
 20
3.762744999999995
 10
11.53292250000004
 20
3.762744999999995
  0
LWPOLYLINE
  5
166
330
157
100
AcDbEntity
  8
02TNR-01
100
AcDbPolyline
 90
       34
 70
     1
 43
0.0135
 10
5.958610500000077
 20
2.028489999999919
 10
6.002832000000012
 20
2.028489999999919
 10
5.984831999999983
 20
1.808313999999995
 10
5.984296500000141
 20
1.616523999999913
 10
5.989471500000036
 20
1.448755000000005
 10
6.023982000000046
 20
0.25
 10
7.124483999999938
 20
0.25
 10
8.827589999999986
 20
3.762744999999995
 10
7.560061500000074
 20
3.762744999999995
 10
6.986964000000057
 20
2.215172499999937
 10
6.923703000000045
 20
2.037768999999912
 10
6.849245999999993
 20
1.807953999999881
 10
6.77498700000001
 20
1.522456000000033
 10
6.745525500000098
 20
1.522456000000033
 10
6.772957500000075
 20
1.771742499999959
 10
6.778713000000038
 20
1.970808999999917
 10
6.777399000000059
 20
2.121842499999956
 10
6.759236999999984
 20
3.762744999999995
 10
5.870010000000092
 20
3.762744999999995
 10
5.220007500000065
 20
2.121842499999956
 10
5.160535500000037
 20
1.970808999999917
 10
5.089633500000104
 20
1.771742499999959
 10
5.021067000000016
 20
1.522456000000033
 10
4.991605499999991
 20
1.522456000000033
 10
5.027281500000071
 20
1.807953999999881
 10
5.041321500000094
 20
2.037768999999912
 10
5.046366000000034
 20
2.215172499999937
 10
5.069185500000003
 20
3.762744999999995
 10
3.800842500000044
 20
3.762744999999995
 10
4.152144000000021
 20
0.25
 10
5.252641499999981
 20
0.25
 10
5.748739500000056
 20
1.448755000000005
 10
5.818530000000009
 20
1.616523999999913
 10
5.891844000000105
 20
1.808313999999995
  0
LWPOLYLINE
  5
167
330
157
100
AcDbEntity
  8
02TNR-01
100
AcDbPolyline
 90
       10
 70
     1
 43
0.0135
 10
11.52503850000005
 20
1.527360999999928
 10
11.7097500000001
 20
1.925309499999912
 10
11.80413300000009
 20
2.132930500000043
 10
11.9064585000001
 20
2.387495499999999
 10
12.00074700000004
 20
2.696654500000022
 10
12.02531700000008
 20
2.696654500000022
 10
12.00054
 20
2.387495499999999
 10
12.00484200000005
 20
2.132930500000043
 10
12.0192780000001
 20
1.925309499999912
 10
12.05072400000006
 20
1.527360999999928
  0
LWPOLYLINE
  5
168
330
157
100
AcDbEntity
  8
02TNR-01
100
AcDbPolyline
 90
       23
 70
     1
 43
0.0135
 10
15.4829145000001
 20
0.25
 10
16.72096350000004
 20
0.25
 10
16.9441905000001
 20
1.409456499999919
 10
17.33508749999998
 20
0.25
 10
18.75
 20
0.25
 10
18.08690700000011
 20
1.679672499999924
 10
18.28812000000016
 20
1.72852899999998
 10
18.47154450000005
 20
1.823235999999951
 10
18.63271650000001
 20
1.959707499999922
 10
18.76716300000009
 20
2.133843999999953
 10
18.87040650000006
 20
2.341550499999925
 10
18.93797400000005
 20
2.578731999999945
 10
18.96510450000016
 20
2.794542999999976
 10
18.9596775
 20
2.99051350000002
 10
18.92170650000003
 20
3.165968499999962
 10
18.85120500000005
 20
3.320228499999871
 10
18.74819550000006
 20
3.452618499999971
 10
18.61269600000003
 20
3.562454499999944
 10
18.44471550000003
 20
3.649065999999947
 10
18.244281
 20
3.711769000000003
 10
18.0113970000001
 20
3.74988849999994
 10
17.74609500000008
 20
3.762744999999995
 10
16.15922399999999
 20
3.762744999999995
  0
LWPOLYLINE
  5
169
330
157
100
AcDbEntity
  8
02TNR-01
100
AcDbPolyline
 90
        9
 70
     1
 43
0.0135
 10
17.22322650000001
 20
2.85877599999992
 10
17.41975500000012
 20
2.85877599999992
 10
17.61757050000005
 20
2.816376999999931
 10
17.71967549999999
 20
2.696460999999999
 10
17.72598450000009
 20
2.509958499999925
 10
17.64725700000008
 20
2.32599399999998
 10
17.4988065
 20
2.210816499999964
 10
17.28734250000002
 20
2.1709689999999
 10
17.09081400000002
 20
2.1709689999999
  0
LWPOLYLINE
  5
16A
330
157
100
AcDbEntity
  8
02TNR-01
100
AcDbPolyline
 90
       12
 70
     1
 43
0.0135
 10
11.24410800000009
 20
5.142102999999906
 10
13.54094850000001
 20
5.142102999999906
 10
13.54094850000001
 20
5.537891499999943
 10
11.66584800000009
 20
5.537891499999943
 10
11.66584800000009
 20
7.536260500000025
 10
13.54094850000001
 20
7.536260500000025
 10
13.54094850000001
 20
7.932049000000006
 10
11.66584800000009
 20
7.932049000000006
 10
11.66584800000009
 20
9.385422999999946
 10
13.54094850000001
 20
9.385422999999946
 10
13.54094850000001
 20
9.781211499999926
 10
11.24410800000009
 20
9.781211499999926
  0
LWPOLYLINE
  5
16B
330
157
100
AcDbEntity
  8
02TNR-01
100
AcDbPolyline
 90
        8
 70
     1
 43
0.0135
 10
5.275956000000064
 20
5.142102999999906
 10
5.697700499999996
 20
5.142102999999906
 10
5.697700499999996
 20
8.892321999999921
 10
8.954796000000101
 20
5.004762999999968
 10
8.954796000000101
 20
9.781211499999926
 10
8.53306950000001
 20
9.781211499999926
 10
8.53306950000001
 20
6.095873499999925
 10
5.275956000000064
 20
9.975845499999877
  0
LWPOLYLINE
  5
16C
330
157
100
AcDbEntity
  8
02TNR-01
100
AcDbPolyline
 90
       19
 70
     1
 43
0.0135
 10
16.12873200000001
 20
9.411378999999897
 10
16.55045849999999
 20
9.411378999999897
 10
16.80826800000011
 20
9.400875999999925
 10
17.02775099999996
 20
9.367481499999939
 10
17.21013600000015
 20
9.308387499999867
 10
17.35662900000011
 20
9.22078149999993
 10
17.46844950000002
 20
9.101850999999896
 10
17.5468125000001
 20
8.94878349999999
 10
17.59294199999999
 20
8.758757499999887
 10
17.60804850000011
 20
8.528973999999948
 10
17.59214550000013
 20
8.303276499999924
 10
17.54407650000007
 20
8.120009499999923
 10
17.46331950000012
 20
7.975366000000008
 10
17.34933000000001
 20
7.865547999999989
 10
17.20158600000002
 20
7.786752999999976
 10
17.01954750000004
 20
7.735173999999915
 10
16.80267900000001
 20
7.707017500000006
 10
16.55045849999999
 20
7.698476499999969
 10
16.12873200000001
 20
7.698476499999969
  0
LWPOLYLINE
  5
16D
330
157
100
AcDbEntity
  8
02TNR-01
100
AcDbPolyline
 90
       29
 70
     1
 43
0.0135
 10
18.52289400000006
 20
5.142102999999906
 10
16.85541450000005
 20
7.354595499999959
 10
17.09331600000007
 20
7.370502999999985
 10
17.30862750000006
 20
7.417433499999901
 10
17.49991350000005
 20
7.494212500000003
 10
17.66572500000006
 20
7.599674499999991
 10
17.80462199999999
 20
7.732631499999911
 10
17.91516000000001
 20
7.891922499999964
 10
17.99590350000005
 20
8.076364000000012
 10
18.04540800000006
 20
8.284781500000008
 10
18.062229
 20
8.51600499999995
 10
18.04983600000014
 20
8.737044999999966
 10
18.01264350000008
 20
8.936619999999891
 10
17.95061550000002
 20
9.114815499999963
 10
17.86372950000009
 20
9.271716999999853
 10
17.75195399999995
 20
9.407414499999958
 10
17.6152575000001
 20
9.521997999999939
 10
17.45361300000002
 20
9.615548499999931
 10
17.26698900000008
 20
9.688155999999935
 10
17.05535850000001
 20
9.739914999999996
 10
16.81869449999999
 20
9.770901999999978
 10
16.55696100000011
 20
9.781211499999926
 10
16.55696100000011
 20
9.781211499999926
 10
15.70699200000001
 20
9.781211499999926
 10
15.70699200000001
 20
5.142102999999906
 10
16.12873200000001
 20
5.142102999999906
 10
16.12873200000001
 20
7.354595499999959
 10
16.3817805000001
 20
7.354595499999959
 10
18.0103170000001
 20
5.142102999999906
  0
LWPOLYLINE
  5
16E
330
157
100
AcDbEntity
  8
02TNR-01
  6
VERDECKT
100
AcDbPolyline
 90
        4
 70
     1
 43
0.0
 10
-19.0
 20
0.0
 10
19.0
 20
0.0
 10
19.0
 20
10.0
 10
-19.0
 20
10.0
  0
ENDBLK
  5
170
330
157
100
AcDbEntity
  8
0
100
AcDbBlockEnd
  0
BLOCK
  5
260
330
25F
100
AcDbEntity
  8
0
100
AcDbBlockBegin
  2
*D5
 70
     1
 10
0.0
 20
0.0
 30
0.0
  3
*D5
  1

  0
LINE
  5
261
330
25F
100
AcDbEntity
  8
09-01
 62
     4
370
    -2
100
AcDbLine
 10
112.6745303438336
 20
621.3743069576317
 30
0.0
 11
98.10378071400151
 21
621.3743069576317
 31
0.0
  0
LINE
  5
262
330
25F
100
AcDbEntity
  8
09-01
 62
     4
370
    -2
100
AcDbLine
 10
113.6745303438334
 20
369.674306957631
 30
0.0
 11
98.10378071400146
 21
369.674306957631
 31
0.0
  0
LINE
  5
263
330
25F
100
AcDbEntity
  8
09-01
 62
     4
370
    -2
100
AcDbLine
 10
100.6037807140015
 20
615.1243069576317
 30
0.0
 11
100.6037807140014
 21
375.924306957631
 31
0.0
  0
SOLID
  5
264
330
25F
100
AcDbEntity
  8
09-01
 62
     4
100
AcDbTrace
 10
99.56211404733485
 20
615.1243069576317
 30
0.0
 11
101.6454473806682
 21
615.1243069576317
 31
0.0
 12
100.6037807140015
 22
621.3743069576317
 32
0.0
 13
100.6037807140015
 23
621.3743069576317
 33
0.0
  0
SOLID
  5
265
330
25F
100
AcDbEntity
  8
09-01
 62
     4
100
AcDbTrace
 10
99.5621140473348
 20
375.924306957631
 30
0.0
 11
101.6454473806681
 21
375.924306957631
 31
0.0
 12
100.6037807140014
 22
369.674306957631
 32
0.0
 13
100.6037807140014
 23
369.674306957631
 33
0.0
  0
MTEXT
  5
266
330
25F
100
AcDbEntity
  8
09-01
 62
     1
100
AcDbMText
 10
94.9787807140014
 20
495.5243069576312
 30
0.0
 40
6.25
 41
0.0
 46
0.0
 71
     5
 72
     1
  1
251.7
 11
0.0000000000000001
 21
1.0
 31
0.0
 73
     1
 44
1.0
  0
POINT
  5
267
330
25F
100
AcDbEntity
  8
DEFPOINTS
 62
     0
100
AcDbPoint
 10
115.1745303438336
 20
621.3743069576317
 30
0.0
  0
POINT
  5
268
330
25F
100
AcDbEntity
  8
DEFPOINTS
 62
     0
100
AcDbPoint
 10
116.1745303438334
 20
369.674306957631
 30
0.0
  0
POINT
  5
269
330
25F
100
AcDbEntity
  8
DEFPOINTS
 62
     0
100
AcDbPoint
 10
100.6037807140014
 20
369.674306957631
 30
0.0
  0
ENDBLK
  5
26A
330
25F
100
AcDbEntity
  8
0
100
AcDbBlockEnd
  0
BLOCK
  5
253
330
252
100
AcDbEntity
  8
0
100
AcDbBlockBegin
  2
*D6
 70
     1
 10
0.0
 20
0.0
 30
0.0
  3
*D6
  1

  0
LINE
  5
254
330
252
100
AcDbEntity
  8
09-01
 62
     4
370
    -2
100
AcDbLine
 10
115.1745303438336
 20
623.8743069576316
 30
0.0
 11
115.1745303438336
 21
639.6974669688297
 31
0.0
  0
LINE
  5
255
330
252
100
AcDbEntity
  8
09-01
 62
     4
370
    -2
100
AcDbLine
 10
337.1745303438336
 20
623.8743069576314
 30
0.0
 11
337.1745303438336
 21
639.6974669688297
 31
0.0
  0
LINE
  5
256
330
252
100
AcDbEntity
  8
09-01
 62
     4
370
    -2
100
AcDbLine
 10
121.4245303438336
 20
637.1974669688297
 30
0.0
 11
330.9245303438336
 21
637.1974669688297
 31
0.0
  0
SOLID
  5
257
330
252
100
AcDbEntity
  8
09-01
 62
     4
100
AcDbTrace
 10
121.4245303438336
 20
638.2391336354963
 30
0.0
 11
121.4245303438336
 21
636.1558003021631
 31
0.0
 12
115.1745303438336
 22
637.1974669688297
 32
0.0
 13
115.1745303438336
 23
637.1974669688297
 33
0.0
  0
SOLID
  5
258
330
252
100
AcDbEntity
  8
09-01
 62
     4
100
AcDbTrace
 10
330.9245303438336
 20
638.2391336354963
 30
0.0
 11
330.9245303438336
 21
636.1558003021631
 31
0.0
 12
337.1745303438336
 22
637.1974669688297
 32
0.0
 13
337.1745303438336
 23
637.1974669688297
 33
0.0
  0
MTEXT
  5
259
330
252
100
AcDbEntity
  8
09-01
 62
     1
100
AcDbMText
 10
226.1745303438336
 20
642.8224669688297
 30
0.0
 40
6.25
 41
0.0
 46
0.0
 71
     5
 72
     1
  1
222
 73
     1
 44
1.0
  0
POINT
  5
25A
330
252
100
AcDbEntity
  8
DEFPOINTS
 62
     0
100
AcDbPoint
 10
115.1745303438336
 20
621.3743069576317
 30
0.0
  0
POINT
  5
25B
330
252
100
AcDbEntity
  8
DEFPOINTS
 62
     0
100
AcDbPoint
 10
337.1745303438336
 20
621.3743069576314
 30
0.0
  0
POINT
  5
25C
330
252
100
AcDbEntity
  8
DEFPOINTS
 62
     0
100
AcDbPoint
 10
337.1745303438336
 20
637.1974669688297
 30
0.0
  0
ENDBLK
  5
25D
330
252
100
AcDbEntity
  8
0
100
AcDbBlockEnd
  0
BLOCK
  5
135
330
134
100
AcDbEntity
  8
0
100
AcDbBlockBegin
  2
*D7
 70
     1
 10
0.0
 20
0.0
 30
0.0
  3
*D7
  1

  0
LINE
  5
136
330
134
100
AcDbEntity
  8
0
 62
     4
370
    -2
100
AcDbLine
 10
116.1745303438334
 20
367.174306957631
 30
0.0
 11
116.1745303438334
 21
348.5274214090914
 31
0.0
  0
LINE
  5
137
330
134
100
AcDbEntity
  8
0
 62
     4
370
    -2
100
AcDbLine
 10
336.1745303438334
 20
367.1743069576328
 30
0.0
 11
336.1745303438334
 21
348.5274214090914
 31
0.0
  0
LINE
  5
138
330
134
100
AcDbEntity
  8
0
 62
     4
370
    -2
100
AcDbLine
 10
122.4245303438334
 20
351.0274214090914
 30
0.0
 11
329.9245303438334
 21
351.0274214090914
 31
0.0
  0
SOLID
  5
139
330
134
100
AcDbEntity
  8
0
 62
     4
100
AcDbTrace
 10
122.4245303438334
 20
352.0690880757581
 30
0.0
 11
122.4245303438334
 21
349.9857547424247
 31
0.0
 12
116.1745303438334
 22
351.0274214090914
 32
0.0
 13
116.1745303438334
 23
351.0274214090914
 33
0.0
  0
SOLID
  5
13A
330
134
100
AcDbEntity
  8
0
 62
     4
100
AcDbTrace
 10
329.9245303438334
 20
352.0690880757581
 30
0.0
 11
329.9245303438334
 21
349.9857547424247
 31
0.0
 12
336.1745303438334
 22
351.0274214090914
 32
0.0
 13
336.1745303438334
 23
351.0274214090914
 33
0.0
  0
MTEXT
  5
13B
330
134
100
AcDbEntity
  8
0
 62
     1
100
AcDbMText
 10
226.1745303438334
 20
356.6524214090914
 30
0.0
 40
6.25
 41
0.0
 46
0.0
 71
     5
 72
     1
  1
220
 73
     1
 44
1.0
  0
POINT
  5
13C
330
134
100
AcDbEntity
  8
DEFPOINTS
 62
     0
100
AcDbPoint
 10
116.1745303438334
 20
369.674306957631
 30
0.0
  0
POINT
  5
13D
330
134
100
AcDbEntity
  8
DEFPOINTS
 62
     0
100
AcDbPoint
 10
336.1745303438334
 20
369.6743069576328
 30
0.0
  0
POINT
  5
13E
330
134
100
AcDbEntity
  8
DEFPOINTS
 62
     0
100
AcDbPoint
 10
336.1745303438334
 20
351.0274214090914
 30
0.0
  0
ENDBLK
  5
13F
330
134
100
AcDbEntity
  8
0
100
AcDbBlockEnd
  0
BLOCK
  5
126
330
125
100
AcDbEntity
  8
0
100
AcDbBlockBegin
  2
*D8
 70
     1
 10
0.0
 20
0.0
 30
0.0
  3
*D8
  1

  0
LINE
  5
127
330
125
100
AcDbEntity
  8
0
 62
     4
370
    -2
100
AcDbLine
 10
376.4991354402835
 20
367.174306957631
 30
0.0
 11
376.4991354402835
 21
348.5274214090914
 31
0.0
  0
LINE
  5
128
330
125
100
AcDbEntity
  8
0
 62
     4
370
    -2
100
AcDbLine
 10
478.9991354402835
 20
367.174306957631
 30
0.0
 11
478.9991354402835
 21
348.5274214090914
 31
0.0
  0
LINE
  5
129
330
125
100
AcDbEntity
  8
0
 62
     4
370
    -2
100
AcDbLine
 10
382.7491354402835
 20
351.0274214090914
 30
0.0
 11
472.7491354402835
 21
351.0274214090914
 31
0.0
  0
SOLID
  5
12A
330
125
100
AcDbEntity
  8
0
 62
     4
100
AcDbTrace
 10
382.7491354402835
 20
352.0690880757581
 30
0.0
 11
382.7491354402835
 21
349.9857547424247
 31
0.0
 12
376.4991354402835
 22
351.0274214090914
 32
0.0
 13
376.4991354402835
 23
351.0274214090914
 33
0.0
  0
SOLID
  5
12B
330
125
100
AcDbEntity
  8
0
 62
     4
100
AcDbTrace
 10
472.7491354402835
 20
352.0690880757581
 30
0.0
 11
472.7491354402835
 21
349.9857547424247
 31
0.0
 12
478.9991354402835
 22
351.0274214090914
 32
0.0
 13
478.9991354402835
 23
351.0274214090914
 33
0.0
  0
MTEXT
  5
12C
330
125
100
AcDbEntity
  8
0
 62
     1
100
AcDbMText
 10
427.7491354402835
 20
356.6524214090914
 30
0.0
 40
6.25
 41
0.0
 46
0.0
 71
     5
 72
     1
  1
102.5
 73
     1
 44
1.0
  0
POINT
  5
12D
330
125
100
AcDbEntity
  8
DEFPOINTS
 62
     0
100
AcDbPoint
 10
376.4991354402835
 20
369.674306957631
 30
0.0
  0
POINT
  5
12E
330
125
100
AcDbEntity
  8
DEFPOINTS
 62
     0
100
AcDbPoint
 10
478.9991354402835
 20
369.674306957631
 30
0.0
  0
POINT
  5
12F
330
125
100
AcDbEntity
  8
DEFPOINTS
 62
     0
100
AcDbPoint
 10
478.9991354402835
 20
351.0274214090914
 30
0.0
  0
ENDBLK
  5
130
330
125
100
AcDbEntity
  8
0
100
AcDbBlockEnd
  0
BLOCK
  5
117
330
116
100
AcDbEntity
  8
0
100
AcDbBlockBegin
  2
*D9
 70
     1
 10
0.0
 20
0.0
 30
0.0
  3
*D9
  1

  0
LINE
  5
118
330
116
100
AcDbEntity
  8
09-01
 62
     4
370
    -2
100
AcDbLine
 10
116.1745303438334
 20
410.0762006474014
 30
0.0
 11
116.1745303438334
 21
415.4417534508096
 31
0.0
  0
LINE
  5
119
330
116
100
AcDbEntity
  8
09-01
 62
     4
370
    -2
100
AcDbLine
 10
158.6745303438334
 20
405.4743069576291
 30
0.0
 11
158.6745303438334
 21
415.4417534508096
 31
0.0
  0
LINE
  5
11A
330
116
100
AcDbEntity
  8
09-01
 62
     4
370
    -2
100
AcDbLine
 10
122.4245303438334
 20
412.9417534508097
 30
0.0
 11
152.4245303438334
 21
412.9417534508097
 31
0.0
  0
SOLID
  5
11B
330
116
100
AcDbEntity
  8
09-01
 62
     4
100
AcDbTrace
 10
122.4245303438334
 20
413.9834201174763
 30
0.0
 11
122.4245303438334
 21
411.900086784143
 31
0.0
 12
116.1745303438334
 22
412.9417534508097
 32
0.0
 13
116.1745303438334
 23
412.9417534508097
 33
0.0
  0
SOLID
  5
11C
330
116
100
AcDbEntity
  8
09-01
 62
     4
100
AcDbTrace
 10
152.4245303438334
 20
413.9834201174763
 30
0.0
 11
152.4245303438334
 21
411.900086784143
 31
0.0
 12
158.6745303438334
 22
412.9417534508097
 32
0.0
 13
158.6745303438334
 23
412.9417534508097
 33
0.0
  0
MTEXT
  5
11D
330
116
100
AcDbEntity
  8
09-01
 62
     1
100
AcDbMText
 10
137.4245303438334
 20
418.5667534508096
 30
0.0
 40
6.25
 41
0.0
 46
0.0
 71
     5
 72
     1
  1
42.5
 73
     1
 44
1.0
  0
POINT
  5
11E
330
116
100
AcDbEntity
  8
DEFPOINTS
 62
     0
100
AcDbPoint
 10
116.1745303438334
 20
407.5762006474014
 30
0.0
  0
POINT
  5
11F
330
116
100
AcDbEntity
  8
DEFPOINTS
 62
     0
100
AcDbPoint
 10
158.6745303438334
 20
402.9743069576291
 30
0.0
  0
POINT
  5
120
330
116
100
AcDbEntity
  8
DEFPOINTS
 62
     0
100
AcDbPoint
 10
158.6745303438334
 20
412.9417534508097
 30
0.0
  0
ENDBLK
  5
121
330
116
100
AcDbEntity
  8
0
100
AcDbBlockEnd
  0
BLOCK
  5
10A
330
109
100
AcDbEntity
  8
0
100
AcDbBlockBegin
  2
*D10
 70
     1
 10
0.0
 20
0.0
 30
0.0
  3
*D10
  1

  0
LINE
  5
10B
330
109
100
AcDbEntity
  8
09-01
 62
     4
370
    -2
100
AcDbLine
 10
158.6745303438334
 20
405.4743069576291
 30
0.0
 11
158.6745303438334
 21
415.4417534508096
 31
0.0
  0
LINE
  5
10C
330
109
100
AcDbEntity
  8
09-01
 62
     4
370
    -2
100
AcDbLine
 10
293.6745303438334
 20
405.4743069576291
 30
0.0
 11
293.6745303438334
 21
415.4417534508096
 31
0.0
  0
LINE
  5
10D
330
109
100
AcDbEntity
  8
09-01
 62
     4
370
    -2
100
AcDbLine
 10
164.9245303438334
 20
412.9417534508097
 30
0.0
 11
287.4245303438334
 21
412.9417534508097
 31
0.0
  0
SOLID
  5
10E
330
109
100
AcDbEntity
  8
09-01
 62
     4
100
AcDbTrace
 10
164.9245303438334
 20
413.9834201174763
 30
0.0
 11
164.9245303438334
 21
411.900086784143
 31
0.0
 12
158.6745303438334
 22
412.9417534508097
 32
0.0
 13
158.6745303438334
 23
412.9417534508097
 33
0.0
  0
SOLID
  5
10F
330
109
100
AcDbEntity
  8
09-01
 62
     4
100
AcDbTrace
 10
287.4245303438334
 20
413.9834201174763
 30
0.0
 11
287.4245303438334
 21
411.900086784143
 31
0.0
 12
293.6745303438334
 22
412.9417534508097
 32
0.0
 13
293.6745303438334
 23
412.9417534508097
 33
0.0
  0
MTEXT
  5
110
330
109
100
AcDbEntity
  8
09-01
 62
     1
100
AcDbMText
 10
226.1745303438334
 20
418.5667534508096
 30
0.0
 40
6.25
 41
0.0
 46
0.0
 71
     5
 72
     1
  1
135
 73
     1
 44
1.0
  0
POINT
  5
111
330
109
100
AcDbEntity
  8
DEFPOINTS
 62
     0
100
AcDbPoint
 10
158.6745303438334
 20
402.9743069576291
 30
0.0
  0
POINT
  5
112
330
109
100
AcDbEntity
  8
DEFPOINTS
 62
     0
100
AcDbPoint
 10
293.6745303438334
 20
402.9743069576291
 30
0.0
  0
POINT
  5
113
330
109
100
AcDbEntity
  8
DEFPOINTS
 62
     0
100
AcDbPoint
 10
293.6745303438334
 20
412.9417534508097
 30
0.0
  0
ENDBLK
  5
114
330
109
100
AcDbEntity
  8
0
100
AcDbBlockEnd
  0
BLOCK
  5
FD
330
FC
100
AcDbEntity
  8
0
100
AcDbBlockBegin
  2
*D11
 70
     1
 10
0.0
 20
0.0
 30
0.0
  3
*D11
  1

  0
LINE
  5
FE
330
FC
100
AcDbEntity
  8
09-01
 62
     4
370
    -2
100
AcDbLine
 10
170.5031122283474
 20
621.3743069576314
 30
0.0
 11
177.1643781128885
 21
621.3743069576314
 31
0.0
  0
LINE
  5
FF
330
FC
100
AcDbEntity
  8
09-01
 62
     4
370
    -2
100
AcDbLine
 10
165.1745303438334
 20
584.474306957629
 30
0.0
 11
177.1643781128885
 21
584.474306957629
 31
0.0
  0
LINE
  5
100
330
FC
100
AcDbEntity
  8
09-01
 62
     4
370
    -2
100
AcDbLine
 10
174.6643781128885
 20
615.1243069576314
 30
0.0
 11
174.6643781128885
 21
590.724306957629
 31
0.0
  0
SOLID
  5
101
330
FC
100
AcDbEntity
  8
09-01
 62
     4
100
AcDbTrace
 10
173.6227114462218
 20
615.1243069576314
 30
0.0
 11
175.7060447795551
 21
615.1243069576314
 31
0.0
 12
174.6643781128885
 22
621.3743069576314
 32
0.0
 13
174.6643781128885
 23
621.3743069576314
 33
0.0
  0
SOLID
  5
102
330
FC
100
AcDbEntity
  8
09-01
 62
     4
100
AcDbTrace
 10
173.6227114462218
 20
590.724306957629
 30
0.0
 11
175.7060447795551
 21
590.724306957629
 31
0.0
 12
174.6643781128885
 22
584.474306957629
 32
0.0
 13
174.6643781128885
 23
584.474306957629
 33
0.0
  0
MTEXT
  5
103
330
FC
100
AcDbEntity
  8
09-01
 62
     1
100
AcDbMText
 10
169.0393781128884
 20
602.9243069576303
 30
0.0
 40
6.25
 41
0.0
 46
0.0
 71
     5
 72
     1
  1
37
 11
0.0000000000000001
 21
1.0
 31
0.0
 73
     1
 44
1.0
  0
POINT
  5
104
330
FC
100
AcDbEntity
  8
DEFPOINTS
 62
     0
100
AcDbPoint
 10
168.0031122283474
 20
621.3743069576314
 30
0.0
  0
POINT
  5
105
330
FC
100
AcDbEntity
  8
DEFPOINTS
 62
     0
100
AcDbPoint
 10
162.6745303438334
 20
584.474306957629
 30
0.0
  0
POINT
  5
106
330
FC
100
AcDbEntity
  8
DEFPOINTS
 62
     0
100
AcDbPoint
 10
174.6643781128885
 20
584.474306957629
 30
0.0
  0
ENDBLK
  5
107
330
FC
100
AcDbEntity
  8
0
100
AcDbBlockEnd
  0
BLOCK
  5
F0
330
EF
100
AcDbEntity
  8
0
100
AcDbBlockBegin
  2
*D12
 70
     1
 10
0.0
 20
0.0
 30
0.0
  3
*D12
  1

  0
LINE
  5
F1
330
EF
100
AcDbEntity
  8
09-01
 62
     4
370
    -2
100
AcDbLine
 10
165.1745303438334
 20
584.474306957629
 30
0.0
 11
177.1643781128886
 21
584.474306957629
 31
0.0
  0
LINE
  5
F2
330
EF
100
AcDbEntity
  8
09-01
 62
     4
370
    -2
100
AcDbLine
 10
165.1745303438334
 20
399.4743069576291
 30
0.0
 11
177.1643781128885
 21
399.4743069576291
 31
0.0
  0
LINE
  5
F3
330
EF
100
AcDbEntity
  8
09-01
 62
     4
370
    -2
100
AcDbLine
 10
174.6643781128886
 20
578.224306957629
 30
0.0
 11
174.6643781128885
 21
405.7243069576291
 31
0.0
  0
SOLID
  5
F4
330
EF
100
AcDbEntity
  8
09-01
 62
     4
100
AcDbTrace
 10
173.6227114462219
 20
578.224306957629
 30
0.0
 11
175.7060447795552
 21
578.224306957629
 31
0.0
 12
174.6643781128886
 22
584.474306957629
 32
0.0
 13
174.6643781128886
 23
584.474306957629
 33
0.0
  0
SOLID
  5
F5
330
EF
100
AcDbEntity
  8
09-01
 62
     4
100
AcDbTrace
 10
173.6227114462218
 20
405.7243069576291
 30
0.0
 11
175.7060447795551
 21
405.7243069576291
 31
0.0
 12
174.6643781128885
 22
399.4743069576291
 32
0.0
 13
174.6643781128885
 23
399.4743069576291
 33
0.0
  0
MTEXT
  5
F6
330
EF
100
AcDbEntity
  8
09-01
 62
     1
100
AcDbMText
 10
169.0393781128884
 20
491.9743069576291
 30
0.0
 40
6.25
 41
0.0
 46
0.0
 71
     5
 72
     1
  1
185
 11
0.0000000000000001
 21
1.0
 31
0.0
 73
     1
 44
1.0
  0
POINT
  5
F7
330
EF
100
AcDbEntity
  8
DEFPOINTS
 62
     0
100
AcDbPoint
 10
162.6745303438334
 20
584.474306957629
 30
0.0
  0
POINT
  5
F8
330
EF
100
AcDbEntity
  8
DEFPOINTS
 62
     0
100
AcDbPoint
 10
162.6745303438334
 20
399.4743069576291
 30
0.0
  0
POINT
  5
F9
330
EF
100
AcDbEntity
  8
DEFPOINTS
 62
     0
100
AcDbPoint
 10
174.6643781128885
 20
399.4743069576291
 30
0.0
  0
ENDBLK
  5
FA
330
EF
100
AcDbEntity
  8
0
100
AcDbBlockEnd
  0
BLOCK
  5
E3
330
E2
100
AcDbEntity
  8
0
100
AcDbBlockBegin
  2
*D13
 70
     1
 10
0.0
 20
0.0
 30
0.0
  3
*D13
  1

  0
LINE
  5
E4
330
E2
100
AcDbEntity
  8
09-01
 62
     4
370
    -2
100
AcDbLine
 10
158.6745303438334
 20
562.7243069576291
 30
0.0
 11
158.6745303438334
 21
521.9780480315603
 31
0.0
  0
LINE
  5
E5
330
E2
100
AcDbEntity
  8
09-01
 62
     4
370
    -2
100
AcDbLine
 10
226.1745303438334
 20
545.7243069576291
 30
0.0
 11
226.1745303438334
 21
521.9780480315603
 31
0.0
  0
LINE
  5
E6
330
E2
100
AcDbEntity
  8
09-01
 62
     4
370
    -2
100
AcDbLine
 10
164.9245303438334
 20
524.4780480315603
 30
0.0
 11
219.9245303438334
 21
524.4780480315603
 31
0.0
  0
SOLID
  5
E7
330
E2
100
AcDbEntity
  8
09-01
 62
     4
100
AcDbTrace
 10
164.9245303438334
 20
525.5197146982269
 30
0.0
 11
164.9245303438334
 21
523.4363813648936
 31
0.0
 12
158.6745303438334
 22
524.4780480315603
 32
0.0
 13
158.6745303438334
 23
524.4780480315603
 33
0.0
  0
SOLID
  5
E8
330
E2
100
AcDbEntity
  8
09-01
 62
     4
100
AcDbTrace
 10
219.9245303438334
 20
525.5197146982269
 30
0.0
 11
219.9245303438334
 21
523.4363813648936
 31
0.0
 12
226.1745303438334
 22
524.4780480315603
 32
0.0
 13
226.1745303438334
 23
524.4780480315603
 33
0.0
  0
MTEXT
  5
E9
330
E2
100
AcDbEntity
  8
09-01
 62
     1
100
AcDbMText
 10
192.4245303438334
 20
530.1030480315603
 30
0.0
 40
6.25
 41
0.0
 46
0.0
 71
     5
 72
     1
  1
67.5
 73
     1
 44
1.0
  0
POINT
  5
EA
330
E2
100
AcDbEntity
  8
DEFPOINTS
 62
     0
100
AcDbPoint
 10
158.6745303438334
 20
565.224306957629
 30
0.0
  0
POINT
  5
EB
330
E2
100
AcDbEntity
  8
DEFPOINTS
 62
     0
100
AcDbPoint
 10
226.1745303438334
 20
548.224306957629
 30
0.0
  0
POINT
  5
EC
330
E2
100
AcDbEntity
  8
DEFPOINTS
 62
     0
100
AcDbPoint
 10
226.1745303438334
 20
524.4780480315603
 30
0.0
  0
ENDBLK
  5
ED
330
E2
100
AcDbEntity
  8
0
100
AcDbBlockEnd
  0
BLOCK
  5
D4
330
D3
100
AcDbEntity
  8
0
100
AcDbBlockBegin
  2
*D14
 70
     1
 10
0.0
 20
0.0
 30
0.0
  3
*D14
  1

  0
LINE
  5
D5
330
D3
100
AcDbEntity
  8
09-01
 62
     4
370
    -2
100
AcDbLine
 10
222.9245303438334
 20
549.974306957629
 30
0.0
 11
222.9245303438334
 21
533.3431950576055
 31
0.0
  0
LINE
  5
D6
330
D3
100
AcDbEntity
  8
09-01
 62
     4
370
    -2
100
AcDbLine
 10
229.4245303438334
 20
549.974306957629
 30
0.0
 11
229.4245303438334
 21
533.3431950576055
 31
0.0
  0
LINE
  5
D7
330
D3
100
AcDbEntity
  8
09-01
 62
     4
370
    -2
100
AcDbLine
 10
216.6745303438334
 20
535.8431950576054
 30
0.0
 11
210.4245303438334
 21
535.8431950576054
 31
0.0
  0
LINE
  5
D8
330
D3
100
AcDbEntity
  8
09-01
 62
     4
370
    -2
100
AcDbLine
 10
235.6745303438334
 20
535.8431950576054
 30
0.0
 11
241.9245303438334
 21
535.8431950576054
 31
0.0
  0
MTEXT
  5
D9
330
D3
100
AcDbEntity
  8
09-01
 62
     1
100
AcDbMText
 10
241.6614103252489
 20
541.3296712139627
 30
0.0
 40
6.25
 41
0.0
 46
0.0
 71
     5
 72
     1
  1
6.5
 73
     1
 44
1.0
  0
LINE
  5
DA
330
D3
100
AcDbEntity
  8
09-01
 62
     4
370
    -2
100
AcDbLine
 10
222.9245303438334
 20
535.8431950576054
 30
0.0
 11
229.4245303438334
 21
535.8431950576054
 31
0.0
  0
SOLID
  5
DB
330
D3
100
AcDbEntity
  8
09-01
 62
     4
100
AcDbTrace
 10
216.6745303438334
 20
536.8848617242721
 30
0.0
 11
216.6745303438334
 21
534.8015283909388
 31
0.0
 12
222.9245303438334
 22
535.8431950576054
 32
0.0
 13
222.9245303438334
 23
535.8431950576054
 33
0.0
  0
SOLID
  5
DC
330
D3
100
AcDbEntity
  8
09-01
 62
     4
100
AcDbTrace
 10
235.6745303438334
 20
536.8848617242721
 30
0.0
 11
235.6745303438334
 21
534.8015283909388
 31
0.0
 12
229.4245303438334
 22
535.8431950576054
 32
0.0
 13
229.4245303438334
 23
535.8431950576054
 33
0.0
  0
POINT
  5
DD
330
D3
100
AcDbEntity
  8
DEFPOINTS
 62
     0
100
AcDbPoint
 10
222.9245303438334
 20
552.4743069576291
 30
0.0
  0
POINT
  5
DE
330
D3
100
AcDbEntity
  8
DEFPOINTS
 62
     0
100
AcDbPoint
 10
229.4245303438334
 20
552.4743069576291
 30
0.0
  0
POINT
  5
DF
330
D3
100
AcDbEntity
  8
DEFPOINTS
 62
     0
100
AcDbPoint
 10
229.4245303438334
 20
535.8431950576054
 30
0.0
  0
ENDBLK
  5
E0
330
D3
100
AcDbEntity
  8
0
100
AcDbBlockEnd
  0
BLOCK
  5
C7
330
C6
100
AcDbEntity
  8
0
100
AcDbBlockBegin
  2
*D15
 70
     1
 10
0.0
 20
0.0
 30
0.0
  3
*D15
  1

  0
LINE
  5
C8
330
C6
100
AcDbEntity
  8
09-01
 62
     4
370
    -2
100
AcDbLine
 10
232.9245303438334
 20
552.4743069576291
 30
0.0
 11
261.818432491167
 21
552.4743069576289
 31
0.0
  0
LINE
  5
C9
330
C6
100
AcDbEntity
  8
09-01
 62
     4
370
    -2
100
AcDbLine
 10
236.0408985392808
 20
621.3743069576316
 30
0.0
 11
261.818432491167
 21
621.3743069576314
 31
0.0
  0
LINE
  5
CA
330
C6
100
AcDbEntity
  8
09-01
 62
     4
370
    -2
100
AcDbLine
 10
259.318432491167
 20
558.7243069576289
 30
0.0
 11
259.318432491167
 21
615.1243069576314
 31
0.0
  0
MTEXT
  5
CB
330
C6
100
AcDbEntity
  8
09-01
 62
     1
100
AcDbMText
 10
253.6254138635675
 20
573.6493883850717
 30
0.0
 40
6.25
 41
0.0
 46
0.0
 71
     5
 72
     1
  1
69
 11
0.0000000000000001
 21
1.0
 31
0.0
 73
     1
 44
1.0
  0
SOLID
  5
CC
330
C6
100
AcDbEntity
  8
09-01
 62
     4
100
AcDbTrace
 10
258.2767658245003
 20
558.7243069576289
 30
0.0
 11
260.3600991578337
 21
558.7243069576289
 31
0.0
 12
259.318432491167
 22
552.4743069576289
 32
0.0
 13
259.318432491167
 23
552.4743069576289
 33
0.0
  0
SOLID
  5
CD
330
C6
100
AcDbEntity
  8
09-01
 62
     4
100
AcDbTrace
 10
258.2767658245003
 20
615.1243069576314
 30
0.0
 11
260.3600991578337
 21
615.1243069576314
 31
0.0
 12
259.318432491167
 22
621.3743069576314
 32
0.0
 13
259.318432491167
 23
621.3743069576314
 33
0.0
  0
POINT
  5
CE
330
C6
100
AcDbEntity
  8
DEFPOINTS
 62
     0
100
AcDbPoint
 10
230.4245303438334
 20
552.4743069576291
 30
0.0
  0
POINT
  5
CF
330
C6
100
AcDbEntity
  8
DEFPOINTS
 62
     0
100
AcDbPoint
 10
233.5408985392808
 20
621.3743069576316
 30
0.0
  0
POINT
  5
D0
330
C6
100
AcDbEntity
  8
DEFPOINTS
 62
     0
100
AcDbPoint
 10
259.318432491167
 20
621.3743069576314
 30
0.0
  0
ENDBLK
  5
D1
330
C6
100
AcDbEntity
  8
0
100
AcDbBlockEnd
  0
BLOCK
  5
B8
330
B7
100
AcDbEntity
  8
0
100
AcDbBlockBegin
  2
*D16
 70
     1
 10
0.0
 20
0.0
 30
0.0
  3
*D16
  1

  0
LINE
  5
B9
330
B7
100
AcDbEntity
  8
09-01
 62
     4
370
    -2
100
AcDbLine
 10
290.9245303438334
 20
586.9743069576291
 30
0.0
 11
290.9245303438334
 21
594.8852461235719
 31
0.0
  0
LINE
  5
BA
330
B7
100
AcDbEntity
  8
09-01
 62
     4
370
    -2
100
AcDbLine
 10
296.4245303438334
 20
586.9743069576291
 30
0.0
 11
296.4245303438334
 21
594.8852461235719
 31
0.0
  0
LINE
  5
BB
330
B7
100
AcDbEntity
  8
09-01
 62
     4
370
    -2
100
AcDbLine
 10
284.6745303438334
 20
592.3852461235719
 30
0.0
 11
278.4245303438334
 21
592.3852461235719
 31
0.0
  0
LINE
  5
BC
330
B7
100
AcDbEntity
  8
09-01
 62
     4
370
    -2
100
AcDbLine
 10
302.6745303438334
 20
592.3852461235719
 30
0.0
 11
308.9245303438334
 21
592.3852461235719
 31
0.0
  0
MTEXT
  5
BD
330
B7
100
AcDbEntity
  8
09-01
 62
     1
100
AcDbMText
 10
310.4332720909586
 20
597.516750943801
 30
0.0
 40
6.25
 41
0.0
 46
0.0
 71
     5
 72
     1
  1
5.5
 73
     1
 44
1.0
  0
LINE
  5
BE
330
B7
100
AcDbEntity
  8
09-01
 62
     4
370
    -2
100
AcDbLine
 10
290.9245303438334
 20
592.3852461235719
 30
0.0
 11
296.4245303438334
 21
592.3852461235719
 31
0.0
  0
SOLID
  5
BF
330
B7
100
AcDbEntity
  8
09-01
 62
     4
100
AcDbTrace
 10
284.6745303438334
 20
593.4269127902386
 30
0.0
 11
284.6745303438334
 21
591.3435794569052
 31
0.0
 12
290.9245303438334
 22
592.3852461235719
 32
0.0
 13
290.9245303438334
 23
592.3852461235719
 33
0.0
  0
SOLID
  5
C0
330
B7
100
AcDbEntity
  8
09-01
 62
     4
100
AcDbTrace
 10
302.6745303438334
 20
593.4269127902386
 30
0.0
 11
302.6745303438334
 21
591.3435794569052
 31
0.0
 12
296.4245303438334
 22
592.3852461235719
 32
0.0
 13
296.4245303438334
 23
592.3852461235719
 33
0.0
  0
POINT
  5
C1
330
B7
100
AcDbEntity
  8
DEFPOINTS
 62
     0
100
AcDbPoint
 10
290.9245303438334
 20
584.474306957629
 30
0.0
  0
POINT
  5
C2
330
B7
100
AcDbEntity
  8
DEFPOINTS
 62
     0
100
AcDbPoint
 10
296.4245303438334
 20
584.474306957629
 30
0.0
  0
POINT
  5
C3
330
B7
100
AcDbEntity
  8
DEFPOINTS
 62
     0
100
AcDbPoint
 10
296.4245303438334
 20
592.3852461235719
 30
0.0
  0
ENDBLK
  5
C4
330
B7
100
AcDbEntity
  8
0
100
AcDbBlockEnd
  0
BLOCK
  5
A9
330
A8
100
AcDbEntity
  8
0
100
AcDbBlockBegin
  2
*D17
 70
     1
 10
0.0
 20
0.0
 30
0.0
  3
*D17
  1

  0
LINE
  5
AA
330
A8
100
AcDbEntity
  8
09-01
 62
     4
370
    -2
100
AcDbLine
 10
287.1745303438334
 20
584.474306957629
 30
0.0
 11
279.5446875110713
 21
584.474306957629
 31
0.0
  0
LINE
  5
AB
330
A8
100
AcDbEntity
  8
09-01
 62
     4
370
    -2
100
AcDbLine
 10
283.9245303438334
 20
572.474306957629
 30
0.0
 11
279.5446875110713
 21
572.474306957629
 31
0.0
  0
LINE
  5
AC
330
A8
100
AcDbEntity
  8
09-01
 62
     4
370
    -2
100
AcDbLine
 10
282.0446875110714
 20
590.724306957629
 30
0.0
 11
282.0446875110714
 21
596.974306957629
 31
0.0
  0
LINE
  5
AD
330
A8
100
AcDbEntity
  8
09-01
 62
     4
370
    -2
100
AcDbLine
 10
282.0446875110714
 20
566.224306957629
 30
0.0
 11
282.0446875110714
 21
559.974306957629
 31
0.0
  0
LINE
  5
AE
330
A8
100
AcDbEntity
  8
09-01
 62
     4
370
    -2
100
AcDbLine
 10
282.0446875110714
 20
584.474306957629
 30
0.0
 11
282.0446875110714
 21
572.474306957629
 31
0.0
  0
SOLID
  5
AF
330
A8
100
AcDbEntity
  8
09-01
 62
     4
100
AcDbTrace
 10
281.0030208444047
 20
590.724306957629
 30
0.0
 11
283.086354177738
 21
590.724306957629
 31
0.0
 12
282.0446875110714
 22
584.474306957629
 32
0.0
 13
282.0446875110714
 23
584.474306957629
 33
0.0
  0
SOLID
  5
B0
330
A8
100
AcDbEntity
  8
09-01
 62
     4
100
AcDbTrace
 10
281.0030208444047
 20
566.224306957629
 30
0.0
 11
283.086354177738
 21
566.224306957629
 31
0.0
 12
282.0446875110714
 22
572.474306957629
 32
0.0
 13
282.0446875110714
 23
572.474306957629
 33
0.0
  0
MTEXT
  5
B1
330
A8
100
AcDbEntity
  8
09-01
 62
     1
100
AcDbMText
 10
276.4196875110713
 20
578.4743069576292
 30
0.0
 40
6.25
 41
0.0
 46
0.0
 71
     5
 72
     1
  1
12
 11
0.0000000000000001
 21
1.0
 31
0.0
 73
     1
 44
1.0
  0
POINT
  5
B2
330
A8
100
AcDbEntity
  8
DEFPOINTS
 62
     0
100
AcDbPoint
 10
289.6745303438334
 20
584.474306957629
 30
0.0
  0
POINT
  5
B3
330
A8
100
AcDbEntity
  8
DEFPOINTS
 62
     0
100
AcDbPoint
 10
286.4245303438334
 20
572.474306957629
 30
0.0
  0
POINT
  5
B4
330
A8
100
AcDbEntity
  8
DEFPOINTS
 62
     0
100
AcDbPoint
 10
282.0446875110714
 20
572.474306957629
 30
0.0
  0
ENDBLK
  5
B5
330
A8
100
AcDbEntity
  8
0
100
AcDbBlockEnd
  0
BLOCK
  5
9A
330
99
100
AcDbEntity
  8
0
100
AcDbBlockBegin
  2
*D18
 70
     1
 10
0.0
 20
0.0
 30
0.0
  3
*D18
  1

  0
LINE
  5
9B
330
99
100
AcDbEntity
  8
09-01
 62
     4
370
    -2
100
AcDbLine
 10
287.4245303438334
 20
569.9743069576291
 30
0.0
 11
287.4245303438334
 21
548.2817631410093
 31
0.0
  0
LINE
  5
9C
330
99
100
AcDbEntity
  8
09-01
 62
     4
370
    -2
100
AcDbLine
 10
299.9245303438334
 20
569.9743069576291
 30
0.0
 11
299.9245303438334
 21
548.2817631410093
 31
0.0
  0
LINE
  5
9D
330
99
100
AcDbEntity
  8
09-01
 62
     4
370
    -2
100
AcDbLine
 10
281.1745303438334
 20
550.7817631410094
 30
0.0
 11
274.9245303438334
 21
550.7817631410094
 31
0.0
  0
LINE
  5
9E
330
99
100
AcDbEntity
  8
09-01
 62
     4
370
    -2
100
AcDbLine
 10
306.1745303438334
 20
550.7817631410094
 30
0.0
 11
312.4245303438334
 21
550.7817631410094
 31
0.0
  0
MTEXT
  5
9F
330
99
100
AcDbEntity
  8
09-01
 62
     1
100
AcDbMText
 10
315.2351261169181
 20
556.4808550012721
 30
0.0
 40
6.25
 41
0.0
 46
0.0
 71
     5
 72
     1
  1
12.5
 73
     1
 44
1.0
  0
LINE
  5
A0
330
99
100
AcDbEntity
  8
09-01
 62
     4
370
    -2
100
AcDbLine
 10
287.4245303438334
 20
550.7817631410094
 30
0.0
 11
299.9245303438334
 21
550.7817631410094
 31
0.0
  0
SOLID
  5
A1
330
99
100
AcDbEntity
  8
09-01
 62
     4
100
AcDbTrace
 10
281.1745303438334
 20
551.823429807676
 30
0.0
 11
281.1745303438334
 21
549.7400964743427
 31
0.0
 12
287.4245303438334
 22
550.7817631410094
 32
0.0
 13
287.4245303438334
 23
550.7817631410094
 33
0.0
  0
SOLID
  5
A2
330
99
100
AcDbEntity
  8
09-01
 62
     4
100
AcDbTrace
 10
306.1745303438334
 20
551.823429807676
 30
0.0
 11
306.1745303438334
 21
549.7400964743427
 31
0.0
 12
299.9245303438334
 22
550.7817631410094
 32
0.0
 13
299.9245303438334
 23
550.7817631410094
 33
0.0
  0
POINT
  5
A3
330
99
100
AcDbEntity
  8
DEFPOINTS
 62
     0
100
AcDbPoint
 10
287.4245303438334
 20
572.474306957629
 30
0.0
  0
POINT
  5
A4
330
99
100
AcDbEntity
  8
DEFPOINTS
 62
     0
100
AcDbPoint
 10
299.9245303438334
 20
572.474306957629
 30
0.0
  0
POINT
  5
A5
330
99
100
AcDbEntity
  8
DEFPOINTS
 62
     0
100
AcDbPoint
 10
299.9245303438334
 20
550.7817631410094
 30
0.0
  0
ENDBLK
  5
A6
330
99
100
AcDbEntity
  8
0
100
AcDbBlockEnd
  0
BLOCK
  5
8D
330
8C
100
AcDbEntity
  8
0
100
AcDbBlockBegin
  2
*D19
 70
     1
 10
0.0
 20
0.0
 30
0.0
  3
*D19
  1

  0
LINE
  5
8E
330
8C
100
AcDbEntity
  8
09-01
 62
     4
370
    -2
100
AcDbLine
 10
293.6745303438334
 20
405.4743069576291
 30
0.0
 11
293.6745303438334
 21
415.4417534508096
 31
0.0
  0
LINE
  5
8F
330
8C
100
AcDbEntity
  8
09-01
 62
     4
370
    -2
100
AcDbLine
 10
336.1745303438334
 20
405.0787875497079
 30
0.0
 11
336.1745303438334
 21
415.4417534508096
 31
0.0
  0
LINE
  5
90
330
8C
100
AcDbEntity
  8
09-01
 62
     4
370
    -2
100
AcDbLine
 10
299.9245303438334
 20
412.9417534508097
 30
0.0
 11
329.9245303438334
 21
412.9417534508097
 31
0.0
  0
SOLID
  5
91
330
8C
100
AcDbEntity
  8
09-01
 62
     4
100
AcDbTrace
 10
299.9245303438334
 20
413.9834201174763
 30
0.0
 11
299.9245303438334
 21
411.900086784143
 31
0.0
 12
293.6745303438334
 22
412.9417534508097
 32
0.0
 13
293.6745303438334
 23
412.9417534508097
 33
0.0
  0
SOLID
  5
92
330
8C
100
AcDbEntity
  8
09-01
 62
     4
100
AcDbTrace
 10
329.9245303438334
 20
413.9834201174763
 30
0.0
 11
329.9245303438334
 21
411.900086784143
 31
0.0
 12
336.1745303438334
 22
412.9417534508097
 32
0.0
 13
336.1745303438334
 23
412.9417534508097
 33
0.0
  0
MTEXT
  5
93
330
8C
100
AcDbEntity
  8
09-01
 62
     1
100
AcDbMText
 10
314.9245303438334
 20
418.5667534508096
 30
0.0
 40
6.25
 41
0.0
 46
0.0
 71
     5
 72
     1
  1
42.5
 73
     1
 44
1.0
  0
POINT
  5
94
330
8C
100
AcDbEntity
  8
DEFPOINTS
 62
     0
100
AcDbPoint
 10
293.6745303438334
 20
402.9743069576291
 30
0.0
  0
POINT
  5
95
330
8C
100
AcDbEntity
  8
DEFPOINTS
 62
     0
100
AcDbPoint
 10
336.1745303438334
 20
402.578787549708
 30
0.0
  0
POINT
  5
96
330
8C
100
AcDbEntity
  8
DEFPOINTS
 62
     0
100
AcDbPoint
 10
336.1745303438334
 20
412.9417534508097
 30
0.0
  0
ENDBLK
  5
97
330
8C
100
AcDbEntity
  8
0
100
AcDbBlockEnd
  0
BLOCK
  5
7D
330
7C
100
AcDbEntity
  8
0
100
AcDbBlockBegin
  2
*D20
 70
     1
 10
0.0
 20
0.0
 30
0.0
  3
*D20
  1

  0
LINE
  5
7E
330
7C
100
AcDbEntity
  8
0
 62
     4
370
    -2
100
AcDbLine
 10
376.4991354402835
 20
622.174306957631
 30
0.0
 11
376.4991354402835
 21
639.6974669688297
 31
0.0
  0
LINE
  5
7F
330
7C
100
AcDbEntity
  8
0
 62
     4
370
    -2
100
AcDbLine
 10
491.9991354402802
 20
623.8743069576275
 30
0.0
 11
491.9991354402802
 21
639.6974669688297
 31
0.0
  0
LINE
  5
80
330
7C
100
AcDbEntity
  8
0
 62
     4
370
    -2
100
AcDbLine
 10
382.7491354402835
 20
637.1974669688297
 30
0.0
 11
485.7491354402802
 21
637.1974669688297
 31
0.0
  0
SOLID
  5
81
330
7C
100
AcDbEntity
  8
0
 62
     4
100
AcDbTrace
 10
382.7491354402835
 20
638.2391336354963
 30
0.0
 11
382.7491354402835
 21
636.1558003021631
 31
0.0
 12
376.4991354402835
 22
637.1974669688297
 32
0.0
 13
376.4991354402835
 23
637.1974669688297
 33
0.0
  0
SOLID
  5
82
330
7C
100
AcDbEntity
  8
0
 62
     4
100
AcDbTrace
 10
485.7491354402802
 20
638.2391336354963
 30
0.0
 11
485.7491354402802
 21
636.1558003021631
 31
0.0
 12
491.9991354402802
 22
637.1974669688297
 32
0.0
 13
491.9991354402802
 23
637.1974669688297
 33
0.0
  0
MTEXT
  5
83
330
7C
100
AcDbEntity
  8
0
 62
     1
100
AcDbMText
 10
434.2491354402818
 20
642.8224669688297
 30
0.0
 40
6.25
 41
0.0
 46
0.0
 71
     5
 72
     1
  1
115.5
 73
     1
 44
1.0
  0
POINT
  5
84
330
7C
100
AcDbEntity
  8
DEFPOINTS
 62
     0
100
AcDbPoint
 10
376.4991354402835
 20
619.6743069576309
 30
0.0
  0
POINT
  5
85
330
7C
100
AcDbEntity
  8
DEFPOINTS
 62
     0
100
AcDbPoint
 10
491.9991354402802
 20
621.3743069576276
 30
0.0
  0
POINT
  5
86
330
7C
100
AcDbEntity
  8
DEFPOINTS
 62
     0
100
AcDbPoint
 10
491.9991354402802
 20
637.1974669688297
 30
0.0
  0
ENDBLK
  5
87
330
7C
100
AcDbEntity
  8
0
100
AcDbBlockEnd
  0
BLOCK
  5
6A
330
69
100
AcDbEntity
  8
0
100
AcDbBlockBegin
  2
*D21
 70
     1
 10
0.0
 20
0.0
 30
0.0
  3
*D21
  1

  0
LINE
  5
6B
330
69
100
AcDbEntity
  8
0
 62
     4
370
    -2
100
AcDbLine
 10
478.9991354402835
 20
617.1743069576309
 30
0.0
 11
478.9991354402835
 21
603.6923887637875
 31
0.0
  0
LINE
  5
6C
330
69
100
AcDbEntity
  8
0
 62
     4
370
    -2
100
AcDbLine
 10
491.9991354402802
 20
617.3743069576276
 30
0.0
 11
491.9991354402802
 21
603.6923887637875
 31
0.0
  0
LINE
  5
6D
330
69
100
AcDbEntity
  8
0
 62
     4
370
    -2
100
AcDbLine
 10
472.7491354402835
 20
606.1923887637874
 30
0.0
 11
466.4991354402835
 21
606.1923887637874
 31
0.0
  0
LINE
  5
6E
330
69
100
AcDbEntity
  8
0
 62
     4
370
    -2
100
AcDbLine
 10
498.2491354402802
 20
606.1923887637874
 30
0.0
 11
504.4991354402802
 21
606.1923887637874
 31
0.0
  0
LINE
  5
6F
330
69
100
AcDbEntity
  8
0
 62
     4
370
    -2
100
AcDbLine
 10
478.9991354402835
 20
606.1923887637874
 30
0.0
 11
491.9991354402802
 21
606.1923887637874
 31
0.0
  0
SOLID
  5
70
330
69
100
AcDbEntity
  8
0
 62
     4
100
AcDbTrace
 10
472.7491354402835
 20
607.234055430454
 30
0.0
 11
472.7491354402835
 21
605.1507220971208
 31
0.0
 12
478.9991354402835
 22
606.1923887637874
 32
0.0
 13
478.9991354402835
 23
606.1923887637874
 33
0.0
  0
SOLID
  5
71
330
69
100
AcDbEntity
  8
0
 62
     4
100
AcDbTrace
 10
498.2491354402802
 20
607.234055430454
 30
0.0
 11
498.2491354402802
 21
605.1507220971208
 31
0.0
 12
491.9991354402802
 22
606.1923887637874
 32
0.0
 13
491.9991354402802
 23
606.1923887637874
 33
0.0
  0
MTEXT
  5
72
330
69
100
AcDbEntity
  8
0
 62
     1
100
AcDbMText
 10
485.4991354402819
 20
611.8173887637874
 30
0.0
 40
6.25
 41
0.0
 46
0.0
 71
     5
 72
     1
  1
13
 73
     1
 44
1.0
  0
POINT
  5
73
330
69
100
AcDbEntity
  8
DEFPOINTS
 62
     0
100
AcDbPoint
 10
478.9991354402835
 20
619.6743069576309
 30
0.0
  0
POINT
  5
75
330
69
100
AcDbEntity
  8
DEFPOINTS
 62
     0
100
AcDbPoint
 10
491.9991354402802
 20
619.8743069576275
 30
0.0
  0
POINT
  5
76
330
69
100
AcDbEntity
  8
DEFPOINTS
 62
     0
100
AcDbPoint
 10
491.9991354402802
 20
606.1923887637874
 30
0.0
  0
ENDBLK
  5
77
330
69
100
AcDbEntity
  8
0
100
AcDbBlockEnd
  0
ENDSEC
  0
SECTION
  2
ENTITIES
  0
LINE
  5
64
330
2
100
AcDbEntity
  8
0
100
AcDbLine
 10
138.3140535733456
 20
322.620951120882
 30
0.0
 11
318.3140535733456
 21
322.620951120882
 31
0.0
  0
LINE
  5
65
330
2
100
AcDbEntity
  8
0
100
AcDbLine
 10
138.3140535733456
 20
324.120951120882
 30
0.0
 11
318.3140535733456
 21
324.120951120882
 31
0.0
  0
DIMENSION
  5
66
102
{ACAD_XDICTIONARY
360
67
102
}
102
{ACAD_REACTORS
330
68
102
}
330
2
100
AcDbEntity
  8
0
100
AcDbDimension
280
     0
  2
*D21
 10
491.9991354402802
 20
606.1923887637874
 30
0.0
 11
485.4991354402819
 21
611.8173887637874
 31
0.0
 71
     5
 42
12.9999999999967
 73
     0
 74
     0
 75
     0
  3
Wagner$0
100
AcDbAlignedDimension
 13
478.9991354402835
 23
619.6743069576309
 33
0.0
 14
491.9991354402802
 24
619.8743069576275
 34
0.0
100
AcDbRotatedDimension
1001
ACAD
1000
DSTYLE
1002
{
1070
    40
1040
2.5
1002
}
  0
DIMENSION
  5
79
102
{ACAD_XDICTIONARY
360
7A
102
}
102
{ACAD_REACTORS
330
7B
102
}
330
2
100
AcDbEntity
  8
0
100
AcDbDimension
280
     0
  2
*D20
 10
491.9991354402802
 20
637.1974669688297
 30
0.0
 11
434.2491354402818
 21
642.8224669688297
 31
0.0
 71
     5
 42
115.4999999999967
 73
     0
 74
     0
 75
     0
  3
Wagner$0
100
AcDbAlignedDimension
 13
376.4991354402835
 23
619.6743069576309
 33
0.0
 14
491.9991354402802
 24
621.3743069576276
 34
0.0
100
AcDbRotatedDimension
1001
ACAD
1000
DSTYLE
1002
{
1070
    40
1040
2.5
1002
}
  0
DIMENSION
  5
88
330
2
100
AcDbEntity
  8
09-01
100
AcDbDimension
280
     0
  2
*D19
 10
336.1745303438334
 20
412.9417534508097
 30
0.0
 11
314.9245303438334
 21
418.5667534508096
 31
0.0
 71
     5
 42
42.5
 73
     0
 74
     0
 75
     0
  3
Wagner$0
100
AcDbAlignedDimension
 13
293.6745303438334
 23
402.9743069576291
 33
0.0
 14
336.1745303438334
 24
402.578787549708
 34
0.0
100
AcDbRotatedDimension
1001
ACAD
1000
DSTYLE
1002
{
1070
    40
1040
2.5
1002
}
  0
DIMENSION
  5
98
330
2
100
AcDbEntity
  8
09-01
100
AcDbDimension
280
     0
  2
*D18
 10
299.9245303438334
 20
550.7817631410094
 30
0.0
 11
315.2351261169181
 21
556.4808550012721
 31
0.0
 70
   128
 71
     5
 42
12.5
 73
     0
 74
     0
 75
     0
  3
Wagner$0
100
AcDbAlignedDimension
 13
287.4245303438334
 23
572.474306957629
 33
0.0
 14
299.9245303438334
 24
572.474306957629
 34
0.0
100
AcDbRotatedDimension
1001
ACAD
1000
DSTYLE
1002
{
1070
    40
1040
2.5
1002
}
  0
DIMENSION
  5
A7
330
2
100
AcDbEntity
  8
09-01
100
AcDbDimension
280
     0
  2
*D17
 10
282.0446875110714
 20
572.474306957629
 30
0.0
 11
276.4196875110713
 21
578.4743069576292
 31
0.0
 71
     5
 42
12.0
 73
     0
 74
     0
 75
     0
  3
Wagner$0
100
AcDbAlignedDimension
 13
289.6745303438334
 23
584.474306957629
 33
0.0
 14
286.4245303438334
 24
572.474306957629
 34
0.0
 50
90.0
100
AcDbRotatedDimension
1001
ACAD
1000
DSTYLE
1002
{
1070
    40
1040
2.5
1002
}
  0
DIMENSION
  5
B6
330
2
100
AcDbEntity
  8
09-01
100
AcDbDimension
280
     0
  2
*D16
 10
296.4245303438334
 20
592.3852461235719
 30
0.0
 11
310.4332720909586
 21
597.516750943801
 31
0.0
 70
   128
 71
     5
 42
5.5
 73
     0
 74
     0
 75
     0
  3
Wagner$0
100
AcDbAlignedDimension
 13
290.9245303438334
 23
584.474306957629
 33
0.0
 14
296.4245303438334
 24
584.474306957629
 34
0.0
100
AcDbRotatedDimension
1001
ACAD
1000
DSTYLE
1002
{
1070
    40
1040
2.5
1002
}
  0
DIMENSION
  5
C5
330
2
100
AcDbEntity
  8
09-01
100
AcDbDimension
280
     0
  2
*D15
 10
259.318432491167
 20
621.3743069576314
 30
0.0
 11
253.6254138635675
 21
573.6493883850717
 31
0.0
 70
   128
 71
     5
 42
68.90000000000248
 73
     0
 74
     0
 75
     0
  3
Wagner$0
100
AcDbAlignedDimension
 13
230.4245303438334
 23
552.4743069576291
 33
0.0
 14
233.5408985392808
 24
621.3743069576316
 34
0.0
 50
90.0
100
AcDbRotatedDimension
1001
ACAD
1000
DSTYLE
1002
{
1070
   271
1070
     0
1070
    40
1040
2.5
1002
}
  0
DIMENSION
  5
D2
330
2
100
AcDbEntity
  8
09-01
100
AcDbDimension
280
     0
  2
*D14
 10
229.4245303438334
 20
535.8431950576054
 30
0.0
 11
241.6614103252489
 21
541.3296712139627
 31
0.0
 70
   128
 71
     5
 42
6.5
 73
     0
 74
     0
 75
     0
  3
Wagner$0
100
AcDbAlignedDimension
 13
222.9245303438334
 23
552.4743069576291
 33
0.0
 14
229.4245303438334
 24
552.4743069576291
 34
0.0
100
AcDbRotatedDimension
1001
ACAD
1000
DSTYLE
1002
{
1070
    40
1040
2.5
1002
}
  0
DIMENSION
  5
E1
330
2
100
AcDbEntity
  8
09-01
100
AcDbDimension
280
     0
  2
*D13
 10
226.1745303438334
 20
524.4780480315603
 30
0.0
 11
192.4245303438334
 21
530.1030480315603
 31
0.0
 71
     5
 42
67.5
 73
     0
 74
     0
 75
     0
  3
Wagner$0
100
AcDbAlignedDimension
 13
158.6745303438334
 23
565.224306957629
 33
0.0
 14
226.1745303438334
 24
548.224306957629
 34
0.0
100
AcDbRotatedDimension
1001
ACAD
1000
DSTYLE
1002
{
1070
    40
1040
2.5
1002
}
  0
DIMENSION
  5
EE
330
2
100
AcDbEntity
  8
09-01
100
AcDbDimension
280
     0
  2
*D12
 10
174.6643781128885
 20
399.4743069576291
 30
0.0
 11
169.0393781128884
 21
491.9743069576291
 31
0.0
 71
     5
 42
184.9999999999999
 73
     0
 74
     0
 75
     0
  3
Wagner$0
100
AcDbAlignedDimension
 13
162.6745303438334
 23
584.474306957629
 33
0.0
 14
162.6745303438334
 24
399.4743069576291
 34
0.0
 50
90.0
100
AcDbRotatedDimension
1001
ACAD
1000
DSTYLE
1002
{
1070
    40
1040
2.5
1002
}
  0
DIMENSION
  5
FB
330
2
100
AcDbEntity
  8
09-01
100
AcDbDimension
280
     0
  2
*D11
 10
174.6643781128885
 20
584.474306957629
 30
0.0
 11
169.0393781128884
 21
602.9243069576303
 31
0.0
 71
     5
 42
36.90000000000237
 73
     0
 74
     0
 75
     0
  3
Wagner$0
100
AcDbAlignedDimension
 13
168.0031122283474
 23
621.3743069576314
 33
0.0
 14
162.6745303438334
 24
584.474306957629
 34
0.0
 50
90.0
100
AcDbRotatedDimension
1001
ACAD
1000
DSTYLE
1002
{
1070
   271
1070
     0
1070
    40
1040
2.5
1002
}
  0
DIMENSION
  5
108
330
2
100
AcDbEntity
  8
09-01
100
AcDbDimension
280
     0
  2
*D10
 10
293.6745303438334
 20
412.9417534508097
 30
0.0
 11
226.1745303438334
 21
418.5667534508096
 31
0.0
 71
     5
 42
135.0
 73
     0
 74
     0
 75
     0
  3
Wagner$0
100
AcDbAlignedDimension
 13
158.6745303438334
 23
402.9743069576291
 33
0.0
 14
293.6745303438334
 24
402.9743069576291
 34
0.0
100
AcDbRotatedDimension
1001
ACAD
1000
DSTYLE
1002
{
1070
    40
1040
2.5
1002
}
  0
DIMENSION
  5
115
330
2
100
AcDbEntity
  8
09-01
100
AcDbDimension
280
     0
  2
*D9
 10
158.6745303438334
 20
412.9417534508097
 30
0.0
 11
137.4245303438334
 21
418.5667534508096
 31
0.0
 71
     5
 42
42.5
 73
     0
 74
     0
 75
     0
  3
Wagner$0
100
AcDbAlignedDimension
 13
116.1745303438334
 23
407.5762006474014
 33
0.0
 14
158.6745303438334
 24
402.9743069576291
 34
0.0
100
AcDbRotatedDimension
1001
ACAD
1000
DSTYLE
1002
{
1070
    40
1040
2.5
1002
}
  0
DIMENSION
  5
122
102
{ACAD_XDICTIONARY
360
123
102
}
102
{ACAD_REACTORS
330
124
102
}
330
2
100
AcDbEntity
  8
0
100
AcDbDimension
280
     0
  2
*D8
 10
478.9991354402835
 20
351.0274214090914
 30
0.0
 11
427.7491354402835
 21
356.6524214090914
 31
0.0
 71
     5
 42
102.5
 73
     0
 74
     0
 75
     0
  3
Wagner$0
100
AcDbAlignedDimension
 13
376.4991354402835
 23
369.674306957631
 33
0.0
 14
478.9991354402835
 24
369.674306957631
 34
0.0
100
AcDbRotatedDimension
1001
ACAD
1000
DSTYLE
1002
{
1070
    40
1040
2.5
1002
}
  0
DIMENSION
  5
131
102
{ACAD_XDICTIONARY
360
132
102
}
102
{ACAD_REACTORS
330
133
102
}
330
2
100
AcDbEntity
  8
0
100
AcDbDimension
280
     0
  2
*D7
 10
336.1745303438334
 20
351.0274214090914
 30
0.0
 11
226.1745303438334
 21
356.6524214090914
 31
0.0
 71
     5
 42
220.0
 73
     0
 74
     0
 75
     0
  3
Wagner$0
100
AcDbAlignedDimension
 13
116.1745303438334
 23
369.674306957631
 33
0.0
 14
336.1745303438334
 24
369.6743069576328
 34
0.0
100
AcDbRotatedDimension
1001
ACAD
1000
DSTYLE
1002
{
1070
    40
1040
2.5
1002
}
  0
LINE
  5
140
330
2
100
AcDbEntity
  8
05-01
100
AcDbLine
 10
337.9439858203008
 20
316.1209511208819
 30
0.0
 11
334.7439858203001
 21
316.1209511208819
 31
0.0
  0
LINE
  5
145
330
2
100
AcDbEntity
  8
0
100
AcDbLine
 10
120.0640535733455
 20
321.4209511208812
 30
0.0
 11
120.0640535733456
 21
309.4209511208819
 31
0.0
  0
LINE
  5
146
330
2
100
AcDbEntity
  8
0
100
AcDbLine
 10
336.5640535733456
 20
321.4209511208793
 30
0.0
 11
336.5640535733456
 21
309.4209511208816
 31
0.0
  0
ARC
  5
147
330
2
100
AcDbEntity
  8
0
100
AcDbCircle
 10
338.3140535733447
 20
307.4209511208823
 30
0.0
 40
1.0
100
AcDbArc
 50
0.0
 51
90.0
  0
LINE
  5
148
330
2
100
AcDbEntity
  8
0
100
AcDbLine
 10
335.3711315728316
 20
309.4209511208816
 30
0.0
 11
336.5640535733456
 21
309.4209511208816
 31
0.0
  0
ARC
  5
149
330
2
100
AcDbEntity
  8
0
100
AcDbCircle
 10
336.1294649061649
 20
308.9209511208819
 30
0.0
 40
0.9083333333333269
100
AcDbArc
 50
146.6015115320152
 51
213.3984884679848
  0
LINE
  5
14A
330
2
100
AcDbEntity
  8
0
100
AcDbLine
 10
335.3711315728316
 20
308.4209511208823
 30
0.0
 11
338.3140535733447
 21
308.4209511208823
 31
0.0
  0
LINE
  5
14B
330
2
100
AcDbEntity
  8
05-01
100
AcDbLine
 10
118.6841213263904
 20
316.1209511208819
 30
0.0
 11
121.8841213263911
 21
316.1209511208819
 31
0.0
  0
ARC
  5
14C
330
2
100
AcDbEntity
  8
0
100
AcDbCircle
 10
127.3140535733465
 20
228.3665510429166
 30
0.0
 40
10.0
100
AcDbArc
 50
180.0
 51
258.9770610325138
  0
ARC
  5
14D
330
2
100
AcDbEntity
  8
0
100
AcDbCircle
 10
329.3140535733465
 20
228.3665510429166
 30
0.0
 40
10.0
100
AcDbArc
 50
281.0229389674862
 51
0.0
  0
ARC
  5
14E
330
2
100
AcDbEntity
  8
0
100
AcDbCircle
 10
118.3140535733465
 20
307.4209511208823
 30
0.0
 40
1.0
100
AcDbArc
 50
90.0
 51
180.0
  0
LINE
  5
14F
330
2
100
AcDbEntity
  8
0
100
AcDbLine
 10
121.2569755738578
 20
309.4209511208816
 30
0.0
 11
120.0640535733456
 21
309.4209511208819
 31
0.0
  0
ARC
  5
150
330
2
100
AcDbEntity
  8
0
100
AcDbCircle
 10
120.4986422405244
 20
308.9209511208819
 30
0.0
 40
0.9083333333333031
100
AcDbArc
 50
326.6015115320152
 51
33.39848846798481
  0
LINE
  5
151
330
2
100
AcDbEntity
  8
0
100
AcDbLine
 10
339.3140535733447
 20
307.4209511208823
 30
0.0
 11
339.3140535733465
 21
228.3665510429166
 31
0.0
  0
LINE
  5
152
330
2
100
AcDbEntity
  8
0
100
AcDbLine
 10
121.2569755738578
 20
308.4209511208823
 30
0.0
 11
118.3140535733465
 21
308.4209511208823
 31
0.0
  0
LINE
  5
153
330
2
100
AcDbEntity
  8
0
100
AcDbLine
 10
117.3140535733464
 20
228.3665510429166
 30
0.0
 11
117.3140535733447
 21
307.4209511208823
 31
0.0
  0
LINE
  5
154
330
2
100
AcDbEntity
  8
0
100
AcDbLine
 10
120.0640535733455
 20
321.4209511208812
 30
0.0
 11
336.5640535733456
 21
321.4209511208793
 31
0.0
  0
ARC
  5
155
330
2
100
AcDbEntity
  8
0
100
AcDbCircle
 10
228.3140535733466
 20
746.8581453525368
 30
0.0
 40
538.2371942316545
100
AcDbArc
 50
258.9770610325138
 51
281.0229389674862
  0
INSERT
  5
156
330
2
100
AcDbEntity
  8
0
100
AcDbBlockReference
  2
aaaaWagner
 10
226.1745303438336
 20
564.6743069576309
 30
0.0
  0
INSERT
  5
171
330
2
100
AcDbEntity
  8
0
100
AcDbBlockReference
 66
     1
  2
DIN A4
 10
0.0
 20
0.0
 30
0.0
 41
2.5
 42
2.5
 43
2.5
  0
ATTRIB
  5
1E4
330
171
100
AcDbEntity
  8
06-99
100
AcDbText
 10
291.2386356285317
 20
65.46959171096176
 30
0.0
 40
10.0
  1
Hygiene-Abfallbehälter WP 177
 41
0.9
  7
ROMANS8
100
AcDbAttribute
280
     0
  2
TEILE
 70
     0
280
     0
  0
ATTRIB
  5
1E5
330
171
100
AcDbEntity
  8
06-99
100
AcDbText
 10
291.2386356285317
 20
48.23869121524722
 30
0.0
 40
10.0
  1

 41
0.9
  7
ROMANS8
100
AcDbAttribute
280
     0
  2
TEILE2
 70
     0
280
     0
  0
ATTRIB
  5
1E6
330
171
100
AcDbEntity
  8
06-99
100
AcDbText
 10
478.3684843098752
 20
113.3333283010895
 30
0.0
 40
8.4375
  1
1:2.5
  7
ROMANS8
100
AcDbAttribute
280
     0
  2
:
 70
     0
280
     0
  0
ATTRIB
  5
1E7
330
171
100
AcDbEntity
  8
06-99
100
AcDbText
 10
232.4926882790073
 20
68.60420863783446
 30
0.0
 40
6.25
  1
von Lehsten
 41
0.9
  7
ROMANS8
100
AcDbAttribute
280
     0
  2
NAME
 70
     0
280
     0
  0
ATTRIB
  5
1E8
330
171
100
AcDbEntity
  8
06-99
100
AcDbText
 10
198.7328849103239
 20
68.65308290303431
 30
0.0
 40
6.249999999999999
  1
18.06.2010
 50
359.9144597696142
 41
0.5691052222933158
  7
ROMANS8
 72
     5
 11
226.8493615816858
 21
68.61110613442292
 31
0.0
100
AcDbAttribute
280
     0
  2
DATUM
 70
     0
280
     0
  0
ATTRIB
  5
1E9
330
171
100
AcDbEntity
  8
06-99
100
AcDbText
 10
446.2658786984844
 20
18.732244468478
 30
0.0
 40
7.4844
  1
727085
  7
ROMANS8
100
AcDbAttribute
280
     0
  2
ID.NR
 70
     0
280
     0
  0
ATTRIB
  5
1EA
330
171
100
AcDbEntity
  8
06-99
100
AcDbText
 10
291.8281844198652
 20
94.16666157886737
 30
0.0
 40
7.5
  1

 41
0.9
  7
ROMANS8
100
AcDbAttribute
280
     0
  2
LÄNGE
 70
     0
280
     0
  0
ATTRIB
  5
1EB
330
171
100
AcDbEntity
  8
06-99
100
AcDbText
 10
375.4520310600132
 20
94.19525464386829
 30
0.0
 40
7.5
  1

 41
0.9
  7
ROMANS8
100
AcDbAttribute
280
     0
  2
BREITE
 70
     0
280
     0
  0
ATTRIB
  5
1EC
330
171
100
AcDbEntity
  8
06-99
100
AcDbText
 10
476.5227490974184
 20
94.16666163442314
 30
0.0
 40
7.734375000000001
  1

  7
ROMANS8
100
AcDbAttribute
280
     0
  2
1.0
 70
     0
280
     0
  0
ATTRIB
  5
1ED
330
171
100
AcDbEntity
  8
06-99
100
AcDbText
 10
410.3194827840956
 20
113.3333283010898
 30
0.0
 40
7.5
  1

  7
ROMANS8
 72
     1
 11
410.3194827840956
 21
113.3333283010898
 31
0.0
100
AcDbAttribute
280
     0
  2
IV
 70
     0
280
     0
  0
ATTRIB
  5
1EE
330
171
100
AcDbEntity
  8
06-99
100
AcDbText
 10
308.1868701208785
 20
113.3333283010895
 30
0.0
 40
8.4375
  1
1.4301
  7
ROMANS8
100
AcDbAttribute
280
     0
  2
1.4301
 70
     0
280
     0
  0
ATTRIB
  5
1EF
330
171
100
AcDbEntity
  8
06-99
100
AcDbText
 10
365.0016034977891
 20
18.76098647864282
 30
0.0
 40
7.919999999999999
  1

 41
0.9000000000000001
  7
ROMANS8
100
AcDbAttribute
280
     0
  2
AUFTRAGS.NR.
 70
     0
280
     0
  0
ATTRIB
  5
1F0
330
171
100
AcDbEntity
  8
06-99
100
AcDbText
 10
291.2500187805888
 20
18.74999496775629
 30
0.0
 40
7.919999999999999
  1

 41
0.9000000000000001
  7
ROMANS8
100
AcDbAttribute
280
     0
  2
SONDER-NR
 70
     0
280
     0
  0
ATTRIB
  5
1F1
330
171
100
AcDbEntity
  8
06-99
100
AcDbText
 10
116.2493962681095
 20
16.50452014090589
 30
0.0
 40
3.75
  1

 41
0.9
  7
ROMANS8
100
AcDbAttribute
280
     0
  2
ERSETZT.DURCH
 70
     0
280
     0
  0
ATTRIB
  5
1F2
330
171
100
AcDbEntity
  8
06-99
100
AcDbText
 10
53.74868823108511
 20
16.49363596243731
 30
0.0
 40
3.75
  1

 41
0.9
  7
ROMANS8
100
AcDbAttribute
280
     0
  2
ERSETZT.FÜR
 70
     0
280
     0
  0
ATTRIB
  5
1F3
330
171
100
AcDbEntity
  8
06-99
100
AcDbText
 10
249.9327003966828
 20
119.1712728177762
 30
0.0
 40
3.217500000000001
  1
DIN A4
  7
ROMANS8
 72
     1
 11
258.129664682397
 21
119.1712728177762
 31
0.0
100
AcDbAttribute
280
     0
  2
FORMAT
 70
     0
280
     0
  0
ATTRIB
  5
1F4
330
171
100
AcDbEntity
  8
06-99
100
AcDbText
 10
239.9686162741045
 20
92.99241330241812
 30
0.0
 40
5.85
  1
DIN 2768
  7
ROMANS8
 72
     1
 11
260.0257591312474
 21
92.99241330241812
 31
0.0
100
AcDbAttribute
280
     0
  2
NORM2
 70
     0
280
     0
  0
ATTRIB
  5
1F5
330
171
100
AcDbEntity
  8
06-99
100
AcDbText
 10
232.0293305598188
 20
102.5757466357514
 30
0.0
 40
5.85
  1
DIN 6930-M
  7
ROMANS8
 72
     1
 11
258.7721877026758
 21
102.5757466357514
 31
0.0
100
AcDbAttribute
280
     0
  2
NORM1
 70
     0
280
     0
  0
SEQEND
  5
1F6
330
171
100
AcDbEntity
  8
0
  0
INSERT
  5
1F7
330
2
100
AcDbEntity
  8
05-01
100
AcDbBlockReference
  2
Hygienebehälter 023557-S
 10
427.7491354402835
 20
370.474306957632
 30
0.0
  0
INSERT
  5
20A
330
2
100
AcDbEntity
  8
05-01
100
AcDbBlockReference
  2
Hygienebehälter 023557-V
 10
238.3140535733456
 20
370.4743069576305
 30
0.0
  0
LINE
  5
21D
330
2
100
AcDbEntity
  8
0
100
AcDbLine
 10
391.1991354402833
 20
619.6743069576309
 30
0.0
 11
391.1991354402833
 21
621.3743069576278
 31
0.0
  0
CIRCLE
  5
21E
330
2
100
AcDbEntity
  8
03-01
100
AcDbCircle
 10
226.1745303438334
 20
552.4743069576291
 30
0.0
 40
3.25
  0
LINE
  5
21F
330
2
100
AcDbEntity
  8
03-01
100
AcDbLine
 10
296.4245303438334
 20
399.4743069576291
 30
0.0
 11
296.4245303438334
 21
393.08679303779
 31
0.0
  0
ARC
  5
220
330
2
100
AcDbEntity
  8
03-01
100
AcDbCircle
 10
293.6745303438334
 20
399.4743069576291
 30
0.0
 40
2.75
100
AcDbArc
 50
0.0
 51
180.0
  0
LINE
  5
221
330
2
100
AcDbEntity
  8
03-01
100
AcDbLine
 10
290.9245303438334
 20
393.08679303779
 30
0.0
 11
290.9245303438334
 21
399.4743069576291
 31
0.0
  0
LINE
  5
222
330
2
100
AcDbEntity
  8
03-01
100
AcDbLine
 10
161.4245303438334
 20
399.4743069576291
 30
0.0
 11
161.4245303438334
 21
393.08679303779
 31
0.0
  0
ARC
  5
223
330
2
100
AcDbEntity
  8
03-01
100
AcDbCircle
 10
158.6745303438334
 20
399.4743069576291
 30
0.0
 40
2.75
100
AcDbArc
 50
0.0
 51
180.0
  0
LINE
  5
224
330
2
100
AcDbEntity
  8
03-01
100
AcDbLine
 10
155.9245303438334
 20
393.08679303779
 30
0.0
 11
155.9245303438334
 21
399.4743069576291
 31
0.0
  0
LINE
  5
225
330
2
100
AcDbEntity
  8
05-01
100
AcDbLine
 10
226.1745303438334
 20
556.724306957629
 30
0.0
 11
226.1745303438334
 21
548.224306957629
 31
0.0
  0
LINE
  5
226
330
2
100
AcDbEntity
  8
05-01
100
AcDbLine
 10
221.9245303438334
 20
552.4743069576291
 30
0.0
 11
230.4245303438334
 21
552.4743069576291
 31
0.0
  0
ARC
  5
227
330
2
100
AcDbEntity
  8
03-01
100
AcDbCircle
 10
293.6745303438334
 20
387.4743069576291
 30
0.0
 40
6.25
100
AcDbArc
 50
116.1038811373434
 51
63.89611886265661
  0
LINE
  5
228
330
2
100
AcDbEntity
  8
05-01
100
AcDbLine
 10
300.9245303438334
 20
387.4743069576291
 30
0.0
 11
286.4245303438334
 21
387.4743069576291
 31
0.0
  0
LINE
  5
229
330
2
100
AcDbEntity
  8
05-01
100
AcDbLine
 10
293.6745303438334
 20
402.9743069576291
 30
0.0
 11
293.6745303438334
 21
380.2243069576292
 31
0.0
  0
LINE
  5
22A
330
2
100
AcDbEntity
  8
05-01
100
AcDbLine
 10
297.6745303438334
 20
399.4743069576291
 30
0.0
 11
289.6745303438334
 21
399.4743069576291
 31
0.0
  0
ARC
  5
22B
330
2
100
AcDbEntity
  8
03-01
100
AcDbCircle
 10
158.6745303438334
 20
387.4743069576291
 30
0.0
 40
6.25
100
AcDbArc
 50
116.1038811373434
 51
63.89611886265661
  0
LINE
  5
22C
330
2
100
AcDbEntity
  8
05-01
100
AcDbLine
 10
151.4245303438334
 20
387.4743069576291
 30
0.0
 11
165.9245303438334
 21
387.4743069576291
 31
0.0
  0
LINE
  5
22D
330
2
100
AcDbEntity
  8
05-01
100
AcDbLine
 10
158.6745303438334
 20
402.9743069576291
 30
0.0
 11
158.6745303438334
 21
380.2243069576292
 31
0.0
  0
LINE
  5
22E
330
2
100
AcDbEntity
  8
05-01
100
AcDbLine
 10
154.6745303438334
 20
399.4743069576291
 30
0.0
 11
162.6745303438334
 21
399.4743069576291
 31
0.0
  0
ARC
  5
22F
330
2
100
AcDbEntity
  8
03-01
100
AcDbCircle
 10
293.6745303438334
 20
572.474306957629
 30
0.0
 40
6.25
100
AcDbArc
 50
116.1038811373434
 51
63.89611886265661
  0
LINE
  5
230
330
2
100
AcDbEntity
  8
05-01
100
AcDbLine
 10
300.9245303438334
 20
572.474306957629
 30
0.0
 11
286.4245303438334
 21
572.474306957629
 31
0.0
  0
LINE
  5
231
330
2
100
AcDbEntity
  8
03-01
100
AcDbLine
 10
296.4245303438334
 20
584.474306957629
 30
0.0
 11
296.4245303438334
 21
578.0867930377898
 31
0.0
  0
ARC
  5
232
330
2
100
AcDbEntity
  8
03-01
100
AcDbCircle
 10
293.6745303438334
 20
584.474306957629
 30
0.0
 40
2.75
100
AcDbArc
 50
0.0
 51
180.0
  0
LINE
  5
233
330
2
100
AcDbEntity
  8
03-01
100
AcDbLine
 10
290.9245303438334
 20
578.0867930377898
 30
0.0
 11
290.9245303438334
 21
584.474306957629
 31
0.0
  0
LINE
  5
234
330
2
100
AcDbEntity
  8
05-01
100
AcDbLine
 10
293.6745303438334
 20
587.974306957629
 30
0.0
 11
293.6745303438334
 21
565.224306957629
 31
0.0
  0
LINE
  5
235
330
2
100
AcDbEntity
  8
05-01
100
AcDbLine
 10
297.6745303438334
 20
584.474306957629
 30
0.0
 11
289.6745303438334
 21
584.474306957629
 31
0.0
  0
ARC
  5
236
330
2
100
AcDbEntity
  8
03-01
100
AcDbCircle
 10
158.6745303438334
 20
572.474306957629
 30
0.0
 40
6.25
100
AcDbArc
 50
116.1038811373434
 51
63.89611886265661
  0
LINE
  5
237
330
2
100
AcDbEntity
  8
05-01
100
AcDbLine
 10
151.4245303438334
 20
572.474306957629
 30
0.0
 11
165.9245303438334
 21
572.474306957629
 31
0.0
  0
LINE
  5
238
330
2
100
AcDbEntity
  8
03-01
100
AcDbLine
 10
155.9245303438334
 20
584.474306957629
 30
0.0
 11
155.9245303438334
 21
578.0867930377898
 31
0.0
  0
ARC
  5
239
330
2
100
AcDbEntity
  8
03-01
100
AcDbCircle
 10
158.6745303438334
 20
584.474306957629
 30
0.0
 40
2.75
100
AcDbArc
 50
0.0
 51
180.0
  0
LINE
  5
23A
330
2
100
AcDbEntity
  8
03-01
100
AcDbLine
 10
161.4245303438334
 20
578.0867930377898
 30
0.0
 11
161.4245303438334
 21
584.474306957629
 31
0.0
  0
LINE
  5
23B
330
2
100
AcDbEntity
  8
05-01
100
AcDbLine
 10
158.6745303438334
 20
587.974306957629
 30
0.0
 11
158.6745303438334
 21
565.224306957629
 31
0.0
  0
LINE
  5
23C
330
2
100
AcDbEntity
  8
05-01
100
AcDbLine
 10
154.6745303438334
 20
584.474306957629
 30
0.0
 11
162.6745303438334
 21
584.474306957629
 31
0.0
  0
ARC
  5
23D
330
2
100
AcDbEntity
  8
03-01
100
AcDbCircle
 10
283.8140535733456
 20
311.8209511208825
 30
0.0
 40
3.0
100
AcDbArc
 50
90.0
 51
180.0
  0
ARC
  5
23E
330
2
100
AcDbEntity
  8
03-01
100
AcDbCircle
 10
172.8140535733456
 20
311.8209511208825
 30
0.0
 40
3.0
100
AcDbArc
 50
0.0
 51
90.0
  0
INSERT
  5
23F
330
2
100
AcDbEntity
  8
05-01
100
AcDbBlockReference
  2
Hygienebehälter 023557-D
 10
238.3140535733456
 20
315.370951120882
 30
0.0
 41
-1.0
 50
180.0
  0
DIMENSION
  5
251
330
2
100
AcDbEntity
  8
09-01
100
AcDbDimension
280
     0
  2
*D6
 10
337.1745303438336
 20
637.1974669688297
 30
0.0
 11
226.1745303438336
 21
642.8224669688297
 31
0.0
 71
     5
 42
222.0
 73
     0
 74
     0
 75
     0
  3
Wagner$0
100
AcDbAlignedDimension
 13
115.1745303438336
 23
621.3743069576317
 33
0.0
 14
337.1745303438336
 24
621.3743069576314
 34
0.0
100
AcDbRotatedDimension
1001
ACAD
1000
DSTYLE
1002
{
1070
    40
1040
2.5
1002
}
  0
DIMENSION
  5
25E
330
2
100
AcDbEntity
  8
09-01
100
AcDbDimension
280
     0
  2
*D5
 10
100.6037807140014
 20
369.674306957631
 30
0.0
 11
94.9787807140014
 21
495.5243069576312
 31
0.0
 71
     5
 42
251.7000000000007
 73
     0
 74
     0
 75
     0
  3
Wagner$0
100
AcDbAlignedDimension
 13
115.1745303438336
 23
621.3743069576317
 33
0.0
 14
116.1745303438334
 24
369.674306957631
 34
0.0
 50
90.0
100
AcDbRotatedDimension
1001
ACAD
1000
DSTYLE
1002
{
1070
    40
1040
2.5
1002
}
  0
LWPOLYLINE
  5
26B
330
2
100
AcDbEntity
  8
05-01
100
AcDbPolyline
 90
        5
 70
     0
 43
0.0
 10
387.3955178659688
 20
487.1743069576318
 10
475.3955178659687
 20
487.1743069576318
 10
475.3955178659687
 20
612.1743069576318
 10
387.3955178659688
 20
612.1743069576318
 10
387.3955178659688
 20
487.1743069576318
  0
LINE
  5
26C
330
2
100
AcDbEntity
  8
03-01
100
AcDbLine
 10
280.8140535733456
 20
300.6209511208833
 30
0.0
 11
280.8140535733456
 21
311.8209511208825
 31
0.0
  0
LINE
  5
26D
330
2
100
AcDbEntity
  8
03-01
100
AcDbLine
 10
175.8140535733456
 20
300.6209511208833
 30
0.0
 11
175.8140535733455
 21
311.8209511208825
 31
0.0
  0
LINE
  5
26E
330
2
100
AcDbEntity
  8
0
100
AcDbLine
 10
318.3140535733461
 20
322.6209511208821
 30
0.0
 11
335.8140535733451
 21
322.6209511208824
 31
0.0
  0
LINE
  5
26F
330
2
100
AcDbEntity
  8
0
100
AcDbLine
 10
119.8140535733462
 20
322.6209511208819
 30
0.0
 11
138.3140535733456
 21
322.620951120882
 31
0.0
  0
ARC
  5
270
330
2
100
AcDbEntity
  8
03-01
100
AcDbCircle
 10
272.8140535733456
 20
300.6209511208833
 30
0.0
 40
8.0
100
AcDbArc
 50
270.0
 51
0.0
  0
ARC
  5
271
330
2
100
AcDbEntity
  8
03-01
100
AcDbCircle
 10
183.8140535733455
 20
300.6209511208833
 30
0.0
 40
8.0
100
AcDbArc
 50
180.0
 51
270.0
  0
LINE
  5
272
330
2
100
AcDbEntity
  8
03-01
100
AcDbLine
 10
183.8140535733455
 20
292.6209511208833
 30
0.0
 11
272.8140535733456
 21
292.6209511208833
 31
0.0
  0
LINE
  5
273
330
2
100
AcDbEntity
  8
0
100
AcDbLine
 10
391.4991354402805
 20
619.8743069576281
 30
0.0
 11
391.4991354402831
 21
621.3743069576271
 31
0.0
  0
LINE
  5
274
330
2
100
AcDbEntity
  8
05-01
100
AcDbLine
 10
384.4991354402826
 20
614.6743069576291
 30
0.0
 11
384.4991354402826
 21
617.8743069576299
 31
0.0
  0
LINE
  5
275
330
2
100
AcDbEntity
  8
05-01
100
AcDbLine
 10
386.099135440283
 20
616.2743069576294
 30
0.0
 11
382.8991354402822
 21
616.2743069576294
 31
0.0
  0
CIRCLE
  5
276
330
2
100
AcDbEntity
  8
0
100
AcDbCircle
 10
384.4991354402826
 20
616.2743069576294
 30
0.0
 40
1.6
  0
LINE
  5
277
330
2
100
AcDbEntity
  8
0
100
AcDbLine
 10
379.1991354402834
 20
619.6743069576309
 30
0.0
 11
379.1991354402834
 21
621.3743069576276
 31
0.0
  0
LINE
  5
278
102
{ACAD_REACTORS
330
68
102
}
330
2
100
AcDbEntity
  8
0
100
AcDbLine
 10
391.1991354402834
 20
619.8743069576281
 30
0.0
 11
491.9991354402802
 21
619.8743069576275
 31
0.0
  0
LINE
  5
279
102
{ACAD_REACTORS
330
7B
102
}
330
2
100
AcDbEntity
  8
0
100
AcDbLine
 10
379.1991354402834
 20
621.3743069576276
 30
0.0
 11
491.9991354402802
 21
621.3743069576276
 31
0.0
  0
LINE
  5
27A
330
2
100
AcDbEntity
  8
0
100
AcDbLine
 10
491.9991354402802
 20
619.8743069576275
 30
0.0
 11
491.9991354402802
 21
621.3743069576276
 31
0.0
  0
LINE
  5
27B
330
2
100
AcDbEntity
  8
05-01
100
AcDbLine
 10
123.1110757060572
 20
316.120951120882
 30
0.0
 11
118.0170314406344
 21
316.120951120882
 31
0.0
  0
LINE
  5
27C
330
2
100
AcDbEntity
  8
0
100
AcDbLine
 10
337.1745303438336
 20
619.8743069576314
 30
0.0
 11
337.1745303438336
 21
621.3743069576314
 31
0.0
1001
AcDbBlockRepETag
1070
     1
1071
        5
1005
27C
  0
LINE
  5
27E
330
2
100
AcDbEntity
  8
0
100
AcDbLine
 10
115.1745303438336
 20
621.3743069576314
 30
0.0
 11
115.1745303438336
 21
619.8743069576314
 31
0.0
1001
AcDbBlockRepETag
1070
     1
1071
        3
1005
27E
  0
LINE
  5
27F
330
2
100
AcDbEntity
  8
0
100
AcDbLine
 10
115.1745303438336
 20
619.8743069576314
 30
0.0
 11
337.1745303438336
 21
619.8743069576314
 31
0.0
1001
AcDbBlockRepETag
1070
     1
1071
        1
1005
27F
  0
LINE
  5
280
330
2
100
AcDbEntity
  8
0
100
AcDbLine
 10
115.1745303438336
 20
621.3743069576314
 30
0.0
 11
337.1745303438336
 21
621.3743069576314
 31
0.0
1001
AcDbBlockRepETag
1070
     1
1071
        0
1005
280
  0
LINE
  5
281
330
2
100
AcDbEntity
  8
05-01
100
AcDbLine
 10
121.545518062109
 20
316.120951120882
 30
0.0
 11
116.5825890845834
 21
316.120951120882
 31
0.0
  0
LINE
  5
282
330
2
100
AcDbEntity
  8
05-01
100
AcDbLine
 10
340.0455180621084
 20
316.120951120882
 30
0.0
 11
335.0825890845828
 21
316.120951120882
 31
0.0
  0
LINE
  5
283
330
2
100
AcDbEntity
  8
0
100
AcDbLine
 10
338.3140535733456
 20
324.120951120882
 30
0.0
 11
318.3140535733456
 21
324.120951120882
 31
0.0
  0
LINE
  5
284
330
2
100
AcDbEntity
  8
0
100
AcDbLine
 10
336.8140535733456
 20
322.620951120882
 30
0.0
 11
318.3140535733456
 21
322.620951120882
 31
0.0
  0
LINE
  5
285
330
2
100
AcDbEntity
  8
0
100
AcDbLine
 10
138.3140535733456
 20
322.620951120882
 30
0.0
 11
138.3140535733456
 21
324.120951120882
 31
0.0
  0
LINE
  5
286
330
2
100
AcDbEntity
  8
0
100
AcDbLine
 10
336.8140535733456
 20
324.120951120882
 30
0.0
 11
338.3140535733456
 21
324.120951120882
 31
0.0
  0
ARC
  5
287
330
2
100
AcDbEntity
  8
03-01
100
AcDbCircle
 10
335.3140535733463
 20
224.620951120882
 30
0.0
 40
3.0
100
AcDbArc
 50
270.0
 51
0.0
  0
LINE
  5
288
330
2
100
AcDbEntity
  8
0
100
AcDbLine
 10
338.3140535733457
 20
308.4209511208823
 30
0.0
 11
338.3140535733456
 21
324.120951120882
 31
0.0
  0
LINE
  5
289
330
2
100
AcDbEntity
  8
03-01
100
AcDbLine
 10
338.3140535733462
 20
224.620951120882
 30
0.0
 11
338.3140535733457
 21
308.4209511208823
 31
0.0
  0
LINE
  5
28A
330
2
100
AcDbEntity
  8
0
100
AcDbLine
 10
336.8140535733456
 20
308.4209511208823
 30
0.0
 11
336.8140535733456
 21
322.620951120882
 31
0.0
  0
LINE
  5
28B
330
2
100
AcDbEntity
  8
0
100
AcDbLine
 10
119.8140535733461
 20
308.4209511208823
 30
0.0
 11
119.8140535733462
 21
322.6209511208819
 31
0.0
  0
LINE
  5
28C
330
2
100
AcDbEntity
  8
0
100
AcDbLine
 10
118.3140535733455
 20
308.4209511208823
 30
0.0
 11
118.3140535733455
 21
324.120951120882
 31
0.0
  0
LINE
  5
28D
330
2
100
AcDbEntity
  8
03-01
100
AcDbLine
 10
118.3140535733453
 20
224.620951120882
 30
0.0
 11
118.3140535733455
 21
308.4209511208823
 31
0.0
  0
LINE
  5
28E
330
2
100
AcDbEntity
  8
0
100
AcDbLine
 10
118.3140535733455
 20
324.120951120882
 30
0.0
 11
138.3140535733456
 21
324.120951120882
 31
0.0
  0
ARC
  5
28F
330
2
100
AcDbEntity
  8
03-01
100
AcDbCircle
 10
121.3140535733453
 20
224.620951120882
 30
0.0
 40
3.0
100
AcDbArc
 50
180.0
 51
270.0
  0
LINE
  5
290
330
2
100
AcDbEntity
  8
03-01
100
AcDbLine
 10
121.3140535733453
 20
221.620951120882
 30
0.0
 11
335.3140535733463
 21
221.620951120882
 31
0.0
  0
LINE
  5
291
330
2
100
AcDbEntity
  8
0
100
AcDbLine
 10
318.3140535733456
 20
322.620951120882
 30
0.0
 11
318.3140535733456
 21
324.120951120882
 31
0.0
  0
LINE
  5
292
330
2
100
AcDbEntity
  8
05-01
100
AcDbLine
 10
406.3955178659687
 20
549.6743069576318
 30
0.0
 11
456.3955178659687
 21
549.6743069576318
 31
0.0
  0
LINE
  5
293
330
2
100
AcDbEntity
  8
05-01
100
AcDbLine
 10
431.3955178659687
 20
524.6743069576318
 30
0.0
 11
431.3955178659687
 21
574.6743069576318
 31
0.0
  0
CIRCLE
  5
294
330
2
100
AcDbEntity
  8
0
100
AcDbCircle
 10
431.3955178659687
 20
549.6743069576318
 30
0.0
 40
25.0
  0
LINE
  5
295
102
{ACAD_REACTORS
330
124
102
}
330
2
100
AcDbEntity
  8
0
100
AcDbLine
 10
376.4991354402835
 20
369.674306957631
 30
0.0
 11
478.9991354402835
 21
369.6743069576328
 31
0.0
  0
LINE
  5
296
102
{ACAD_REACTORS
330
124
330
68
102
}
330
2
100
AcDbEntity
  8
0
100
AcDbLine
 10
478.9991354402835
 20
619.6743069576309
 30
0.0
 11
478.9991354402835
 21
369.674306957631
 31
0.0
  0
LINE
  5
297
102
{ACAD_REACTORS
330
7B
102
}
330
2
100
AcDbEntity
  8
0
100
AcDbLine
 10
376.4991354402835
 20
619.6743069576309
 30
0.0
 11
376.4991354402835
 21
369.674306957631
 31
0.0
  0
LINE
  5
298
330
2
100
AcDbEntity
  8
0
100
AcDbLine
 10
478.9991354402835
 20
619.6743069576309
 30
0.0
 11
376.4991354402835
 21
619.6743069576309
 31
0.0
  0
CIRCLE
  5
299
330
2
100
AcDbEntity
  8
0
100
AcDbCircle
 10
384.4991354402817
 20
616.2743069576294
 30
0.0
 40
1.6
  0
LINE
  5
29A
330
2
100
AcDbEntity
  8
05-01
100
AcDbLine
 10
386.0991354402821
 20
616.2743069576294
 30
0.0
 11
382.8991354402831
 21
616.2743069576294
 31
0.0
  0
LINE
  5
29B
330
2
100
AcDbEntity
  8
05-01
100
AcDbLine
 10
384.4991354402817
 20
614.6743069576291
 30
0.0
 11
384.4991354402817
 21
617.8743069576299
 31
0.0
  0
LINE
  5
29C
330
2
100
AcDbEntity
  8
02-01
100
AcDbLine
 10
333.574530343833
 20
616.2743069576315
 30
0.0
 11
337.0245303438338
 21
616.2743069576315
 31
0.0
  0
LINE
  5
29F
102
{ACAD_REACTORS
330
133
102
}
330
2
100
AcDbEntity
  8
0
100
AcDbLine
 10
336.1745303438334
 20
619.6743069576328
 30
0.0
 11
336.1745303438334
 21
369.6743069576328
 31
0.0
  0
LINE
  5
2A0
330
2
100
AcDbEntity
  8
0
100
AcDbLine
 10
116.1745303438334
 20
619.6743069576309
 30
0.0
 11
116.1745303438334
 21
369.674306957631
 31
0.0
  0
LINE
  5
2A1
102
{ACAD_REACTORS
330
133
102
}
330
2
100
AcDbEntity
  8
0
100
AcDbLine
 10
116.1745303438334
 20
369.674306957631
 30
0.0
 11
336.1745303438334
 21
369.674306957631
 31
0.0
  0
LINE
  5
2A2
330
2
100
AcDbEntity
  8
03-01
100
AcDbLine
 10
318.1745303438334
 20
369.674306957631
 30
0.0
 11
334.6745303438334
 21
369.674306957631
 31
0.0
  0
LINE
  5
2A3
330
2
100
AcDbEntity
  8
0
100
AcDbLine
 10
336.1745303438336
 20
619.6743069576309
 30
0.0
 11
116.1745303438334
 21
619.6743069576309
 31
0.0
  0
LWPOLYLINE
  5
2A4
330
2
100
AcDbEntity
  8
05-01
100
AcDbPolyline
 90
        5
 70
     0
 43
0.0
 10
120.1745303438359
 20
487.2004924970532
 10
138.1745303438359
 20
487.2004924970532
 10
138.1745303438359
 20
612.2004924970533
 10
120.1745303438359
 20
612.2004924970533
 10
120.1745303438359
 20
487.2004924970532
  0
LWPOLYLINE
  5
2A5
330
2
100
AcDbEntity
  8
05-01
100
AcDbPolyline
 90
        5
 70
     0
 43
0.0
 10
122.3167361719725
 20
233.9027355129537
 10
140.3167361719725
 20
233.9027355129537
 10
140.3167361719725
 20
319.9027355129536
 10
122.3167361719725
 20
319.9027355129536
 10
122.3167361719725
 20
233.9027355129537
  0
ENDSEC
  0
SECTION
  2
OBJECTS
  0
DICTIONARY
  5
B
330
0
100
AcDbDictionary
281
     1
  3
ACAD_COLOR
350
3A
  3
ACAD_GROUP
350
35
  3
ACAD_LAYOUT
350
17
  3
ACAD_MATERIAL
350
D
  3
ACAD_MLEADERSTYLE
350
3D
  3
ACAD_MLINESTYLE
350
36
  3
ACAD_PLOTSETTINGS
350
37
  3
ACAD_PLOTSTYLENAME
350
A
  3
ACAD_SCALELIST
350
3B
  3
ACAD_TABLESTYLE
350
3C
  3
ACAD_VISUALSTYLE
350
2D
  3
ACDB_RECOMPOSE_DATA
350
2B1
  3
AcDbVariableDictionary
350
2A9
  0
DICTIONARY
  5
1E
330
1D
100
AcDbDictionary
280
     1
281
     1
  3
ACAD_LAYERFILTERS
360
1F
  3
ACAD_LAYERSTATES
360
20
  3
ACLYDICTIONARY
360
21
  0
DICTIONARY
  5
7
330
6
100
AcDbDictionary
280
     1
281
     1
  3
ADSK_XREC_LAYER_RECONCILED
360
8
  0
DICTIONARY
  5
178
330
177
100
AcDbDictionary
280
     1
281
     1
  3
ADSK_XREC_LAYER_RECONCILED
360
179
  0
DICTIONARY
  5
17E
330
17D
100
AcDbDictionary
280
     1
281
     1
  3
ADSK_XREC_LAYER_RECONCILED
360
17F
  0
DICTIONARY
  5
1B6
330
1B5
100
AcDbDictionary
280
     1
281
     1
  3
ADSK_XREC_LAYER_RECONCILED
360
1B7
  0
DICTIONARY
  5
8A
330
89
100
AcDbDictionary
280
     1
281
     1
  3
ADSK_XREC_LAYER_RECONCILED
360
8B
  0
DICTIONARY
  5
1A0
330
19F
100
AcDbDictionary
280
     1
281
     1
  3
ADSK_XREC_LAYER_RECONCILED
360
1A1
  0
DICTIONARY
  5
142
330
141
100
AcDbDictionary
280
     1
281
     1
  3
ADSK_XREC_LAYER_RECONCILED
360
143
  0
DICTIONARY
  5
201
330
200
100
AcDbDictionary
280
     1
281
     1
  3
ADSK_XREC_LAYER_RECONCILED
360
202
  0
DICTIONARY
  5
15D
330
15C
100
AcDbDictionary
280
     1
281
     1
  3
ADSK_XREC_LAYER_RECONCILED
360
15E
  0
DICTIONARY
  5
29E
330
29D
100
AcDbDictionary
280
     1
281
     1
  0
DICTIONARY
  5
3
330
2
100
AcDbDictionary
280
     1
281
     1
  3
ACAD_SORTENTS
360
2A8
  0
DICTIONARY
  5
173
330
172
100
AcDbDictionary
280
     1
281
     1
  3
ACAD_SORTENTS
360
2A6
  0
DICTIONARY
  5
158
330
157
100
AcDbDictionary
280
     1
281
     1
  3
ACAD_SORTENTS
360
2A7
  0
DICTIONARY
  5
67
330
66
100
AcDbDictionary
280
     1
281
     1
  3
ACAD_DIMASSOC
360
68
  0
DICTIONARY
  5
7A
330
79
100
AcDbDictionary
280
     1
281
     1
  3
ACAD_DIMASSOC
360
7B
  0
DICTIONARY
  5
123
330
122
100
AcDbDictionary
280
     1
281
     1
  3
ACAD_DIMASSOC
360
124
  0
DICTIONARY
  5
132
330
131
100
AcDbDictionary
280
     1
281
     1
  3
ACAD_DIMASSOC
360
133
  0
DICTIONARY
  5
3A
102
{ACAD_REACTORS
330
B
102
}
330
B
100
AcDbDictionary
281
     1
  0
DICTIONARY
  5
35
102
{ACAD_REACTORS
330
B
102
}
330
B
100
AcDbDictionary
281
     1
  0
DICTIONARY
  5
17
102
{ACAD_REACTORS
330
B
102
}
330
B
100
AcDbDictionary
281
     1
  3
Layout1
350
1C
  3
Model
350
16
  0
DICTIONARY
  5
D
102
{ACAD_REACTORS
330
B
102
}
330
B
100
AcDbDictionary
281
     1
  3
ByBlock
350
39
  3
ByLayer
350
38
  3
Global
350
C
  0
DICTIONARY
  5
3D
102
{ACAD_REACTORS
330
B
102
}
330
B
100
AcDbDictionary
281
     1
  0
DICTIONARY
  5
36
102
{ACAD_REACTORS
330
B
102
}
330
B
100
AcDbDictionary
281
     1
  3
Standard
350
3E
  0
DICTIONARY
  5
37
102
{ACAD_REACTORS
330
B
102
}
330
B
100
AcDbDictionary
281
     1
  0
ACDBDICTIONARYWDFLT
  5
A
102
{ACAD_REACTORS
330
B
102
}
330
B
100
AcDbDictionary
281
     1
  3
Normal
350
9
100
AcDbDictionaryWithDefault
340
9
  0
DICTIONARY
  5
3B
102
{ACAD_REACTORS
330
B
102
}
330
B
100
AcDbDictionary
281
     1
  3
A0
350
43
  3
A1
350
44
  3
A2
350
45
  3
A3
350
46
  3
A4
350
47
  3
A5
350
48
  3
A6
350
49
  3
A7
350
4A
  3
A8
350
4B
  3
A9
350
4C
  3
B0
350
4D
  3
B1
350
4E
  3
B2
350
4F
  3
B3
350
50
  3
B4
350
51
  3
B5
350
52
  3
B6
350
53
  3
B7
350
54
  3
B8
350
55
  3
B9
350
56
  3
C0
350
57
  3
C1
350
58
  3
C2
350
59
  3
C3
350
5A
  3
C4
350
5B
  3
C5
350
5C
  3
C6
350
5D
  3
C7
350
5E
  3
C8
350
5F
  3
C9
350
60
  3
D0
350
61
  3
D1
350
62
  3
D2
350
63
  0
DICTIONARY
  5
3C
102
{ACAD_REACTORS
330
B
102
}
330
B
100
AcDbDictionary
281
     1
  3
Standard
350
3F
  0
DICTIONARY
  5
2D
102
{ACAD_REACTORS
330
B
102
}
330
B
100
AcDbDictionary
281
     1
  3
2dWireframe
350
2C
  3
3dWireframe
350
42
  3
Realistic
350
41
  0
XRECORD
  5
2B1
102
{ACAD_REACTORS
330
B
102
}
330
B
100
AcDbXrecord
280
     1
 90
        1
330
3F
  0
DICTIONARY
  5
2A9
102
{ACAD_REACTORS
330
B
102
}
330
B
100
AcDbDictionary
281
     1
  3
CANNOSCALE
350
2AC
  3
CMLEADERSTYLE
350
2AB
  3
CTABLESTYLE
350
2AA
  3
LAYEREVAL
350
2AD
  3
LAYERNOTIFY
350
2AE
  0
DICTIONARY
  5
1F
102
{ACAD_REACTORS
330
1E
102
}
330
1E
100
AcDbDictionary
281
     1
  0
DICTIONARY
  5
20
102
{ACAD_REACTORS
330
1E
102
}
330
1E
100
AcDbDictionary
281
     1
  0
DICTIONARY
  5
21
102
{ACAD_REACTORS
330
1E
102
}
330
1E
100
AcDbDictionary
281
     1
1001
ACAD
1000
<All
  0
XRECORD
  5
8
102
{ACAD_REACTORS
330
7
102
}
330
7
100
AcDbXrecord
280
     1
290
     1
  0
XRECORD
  5
179
102
{ACAD_REACTORS
330
178
102
}
330
178
100
AcDbXrecord
280
     1
290
     1
  0
XRECORD
  5
17F
102
{ACAD_REACTORS
330
17E
102
}
330
17E
100
AcDbXrecord
280
     1
290
     1
  0
XRECORD
  5
1B7
102
{ACAD_REACTORS
330
1B6
102
}
330
1B6
100
AcDbXrecord
280
     1
290
     1
  0
XRECORD
  5
8B
102
{ACAD_REACTORS
330
8A
102
}
330
8A
100
AcDbXrecord
280
     1
290
     1
  0
XRECORD
  5
1A1
102
{ACAD_REACTORS
330
1A0
102
}
330
1A0
100
AcDbXrecord
280
     1
290
     1
  0
XRECORD
  5
143
102
{ACAD_REACTORS
330
142
102
}
330
142
100
AcDbXrecord
280
     1
290
     1
  0
XRECORD
  5
202
102
{ACAD_REACTORS
330
201
102
}
330
201
100
AcDbXrecord
280
     1
290
     1
  0
XRECORD
  5
15E
102
{ACAD_REACTORS
330
15D
102
}
330
15D
100
AcDbXrecord
280
     1
290
     1
  0
SORTENTSTABLE
  5
2A8
102
{ACAD_REACTORS
330
3
102
}
330
3
100
AcDbSortentsTable
330
2
331
21E
  5
27A
331
251
  5
22F
331
296
  5
108
331
292
  5
140
331
28E
  5
148
331
28A
  5
14C
331
20A
  5
27C
331
65
  5
2A4
331
286
  5
150
331
282
  5
154
331
156
  5
280
331
27E
  5
1F7
331
152
  5
284
331
27A
  5
21E
331
23D
  5
232
331
239
  5
236
331
235
  5
23A
331
231
  5
23E
331
14E
  5
288
331
276
  5
222
331
14A
  5
28C
331
272
  5
226
331
146
  5
290
331
26E
  5
22A
331
22D
  5
26B
331
229
  5
26F
331
225
  5
273
331
221
  5
277
331
2A5
  5
64
331
2A1
  5
88
331
FB
  5
297
331
25E
  5
22E
331
79
  5
2A2
331
299
  5
E1
331
21D
  5
27B
331
295
  5
115
331
291
  5
145
331
28D
  5
149
331
122
  5
294
331
289
  5
14D
331
64
  5
2A5
331
285
  5
151
331
281
  5
155
331
155
  5
281
331
151
  5
285
331
279
  5
21F
331
98
  5
2A0
331
23C
  5
233
331
238
  5
237
331
234
  5
23B
331
230
  5
23F
331
275
  5
223
331
14D
  5
289
331
149
  5
28D
331
271
  5
227
331
145
  5
291
331
26D
  5
22B
331
88
  5
2A1
331
22C
  5
26C
331
228
  5
270
331
224
  5
274
331
220
  5
278
331
2A4
  5
65
331
2A0
  5
98
331
29C
  5
B6
331
131
  5
293
331
298
  5
EE
331
294
  5
122
331
290
  5
146
331
EE
  5
298
331
28C
  5
14A
331
288
  5
14E
331
A7
  5
29F
331
284
  5
152
331
280
  5
156
331
115
  5
295
331
154
  5
282
331
27C
  5
20A
331
150
  5
286
331
278
  5
220
331
23F
  5
230
331
23B
  5
234
331
237
  5
238
331
233
  5
23C
331
274
  5
224
331
D2
  5
29A
331
14C
  5
28A
331
148
  5
28E
331
270
  5
228
331
26C
  5
22C
331
140
  5
292
331
22F
  5
251
331
22B
  5
26D
331
227
  5
271
331
223
  5
275
331
2A3
  5
66
331
29F
  5
A7
331
29B
  5
C5
331
21F
  5
279
331
297
  5
FB
331
B6
  5
29C
331
293
  5
131
331
28F
  5
147
331
28B
  5
14B
331
66
  5
2A3
331
287
  5
14F
331
283
  5
153
331
E1
  5
299
331
27F
  5
171
331
153
  5
283
331
27B
  5
21D
331
23E
  5
231
331
23A
  5
235
331
1F7
  5
27E
331
236
  5
239
331
232
  5
23D
331
14F
  5
287
331
277
  5
221
331
273
  5
225
331
14B
  5
28B
331
147
  5
28F
331
26F
  5
229
331
108
  5
296
331
26B
  5
22D
331
22E
  5
25E
331
22A
  5
26E
331
171
  5
27F
331
226
  5
272
331
222
  5
276
331
C5
  5
29B
331
2A2
  5
79
331
29A
  5
D2
  0
SORTENTSTABLE
  5
2A6
102
{ACAD_REACTORS
330
173
102
}
330
173
100
AcDbSortentsTable
330
172
  0
SORTENTSTABLE
  5
2A7
102
{ACAD_REACTORS
330
158
102
}
330
158
100
AcDbSortentsTable
330
157
  0
DIMASSOC
  5
68
102
{ACAD_REACTORS
330
67
102
}
330
67
100
AcDbDimAssoc
330
66
 90
        3
 70
     0
 71
     0
  1
AcDbOsnapPointRef
 72
    13
331
296
 73
     2
 91
        0
 40
0.0
 10
0.0
 20
0.0
 30
2.000000000000000E+50
 75
     0
  1
AcDbOsnapPointRef
 72
     1
331
278
 73
     2
 91
        0
 40
1.0
 10
0.0
 20
0.0
 30
2.000000000000000E+50
 75
     0
  0
DIMASSOC
  5
7B
102
{ACAD_REACTORS
330
7A
102
}
330
7A
100
AcDbDimAssoc
330
79
 90
        3
 70
     0
 71
     0
  1
AcDbOsnapPointRef
 72
    13
331
297
 73
     2
 91
        0
 40
0.0
 10
0.0
 20
0.0
 30
2.000000000000000E+50
 75
     0
  1
AcDbOsnapPointRef
 72
     1
331
279
 73
     2
 91
        0
 40
1.0
 10
0.0
 20
0.0
 30
2.000000000000000E+50
 75
     0
  0
DIMASSOC
  5
124
102
{ACAD_REACTORS
330
123
102
}
330
123
100
AcDbDimAssoc
330
122
 90
        3
 70
     0
 71
     0
  1
AcDbOsnapPointRef
 72
    13
331
295
 73
     2
 91
        0
 40
0.0
 10
0.0
 20
0.0
 30
2.000000000000000E+50
 75
     0
  1
AcDbOsnapPointRef
 72
     1
331
296
 73
     2
 91
        0
 40
1.0
 10
0.0
 20
0.0
 30
2.000000000000000E+50
 75
     0
  0
DIMASSOC
  5
133
102
{ACAD_REACTORS
330
132
102
}
330
132
100
AcDbDimAssoc
330
131
 90
        3
 70
     0
 71
     0
  1
AcDbOsnapPointRef
 72
    13
331
2A1
 73
     2
 91
        0
 40
0.0
 10
0.0
 20
0.0
 30
2.000000000000000E+50
 75
     0
  1
AcDbOsnapPointRef
 72
     1
331
29F
 73
     2
 91
        0
 40
1.0
 10
0.0
 20
0.0
 30
2.000000000000000E+50
 75
     0
  0
LAYOUT
  5
1C
102
{ACAD_REACTORS
330
17
102
}
330
17
100
AcDbPlotSettings
  1

  2
C:\Documents and Settings\basas\Application Data\Autodesk\AutoCAD 2005\R16.1\enu\plotters\Default Windows System Printer.pc3
  4

  6

 40
0.0
 41
0.0
 42
0.0
 43
0.0
 44
0.0
 45
0.0
 46
0.0
 47
0.0
 48
0.0
 49
0.0
140
0.0
141
0.0
142
1.0
143
1.0
 70
   688
 72
     0
 73
     0
 74
     5
  7

 75
    16
147
1.0
 76
     0
 77
     2
 78
   300
148
0.0
149
0.0
100
AcDbLayout
  1
Layout1
 70
     1
 71
     1
 10
0.0
 20
0.0
 11
12.0
 21
9.0
 12
0.0
 22
0.0
 32
0.0
 14
0.0
 24
0.0
 34
0.0
 15
0.0
 25
0.0
 35
0.0
146
0.0
 13
0.0
 23
0.0
 33
0.0
 16
1.0
 26
0.0
 36
0.0
 17
0.0
 27
1.0
 37
0.0
 76
     0
330
19
  0
LAYOUT
  5
16
102
{ACAD_REACTORS
330
17
102
}
330
17
100
AcDbPlotSettings
  1

  2
none_device
  4
ISO_A4_(210.00_x_297.00_MM)
  6

 40
7.5
 41
20.0
 42
7.5
 43
20.0
 44
210.0
 45
297.0
 46
11.54999923706054
 47
-13.65000009536743
 48
0.0
 49
0.0
140
0.0
141
0.0
142
1.0
143
8.704084754739808
 70
 11952
 72
     1
 73
     0
 74
     0
  7

 75
     0
147
0.1148885871608098
 76
     0
 77
     2
 78
   300
148
0.0
149
0.0
100
AcDbLayout
  1
Model
 70
     1
 71
     0
 10
0.0
 20
0.0
 11
12.0
 21
9.0
 12
0.0
 22
0.0
 32
0.0
 14
0.0
 24
0.0
 34
0.0
 15
0.0
 25
0.0
 35
0.0
146
0.0
 13
0.0
 23
0.0
 33
0.0
 16
1.0
 26
0.0
 36
0.0
 17
0.0
 27
1.0
 37
0.0
 76
     0
330
2
331
2B
1001
ACAD_PSEXT
1000
None
1000
None
1000
Not applicable
1000
The layout will not be plotted unless a new plotter configuration name is selected.
1070
     0
  0
MATERIAL
  5
39
102
{ACAD_REACTORS
330
D
102
}
330
D
100
AcDbMaterial
  1
ByBlock
 94
       63
  0
MATERIAL
  5
38
102
{ACAD_REACTORS
330
D
102
}
330
D
100
AcDbMaterial
  1
ByLayer
 94
       63
  0
MATERIAL
  5
C
102
{ACAD_XDICTIONARY
360
E
102
}
102
{ACAD_REACTORS
330
D
102
}
330
D
100
AcDbMaterial
  1
Global
 43
0.0007999999797903
 43
0.0
 43
0.0
 43
0.0
 43
0.0
 43
0.0007999999797903
 43
0.0
 43
0.0
 43
0.0
 43
0.0
 43
1.0
 43
0.0
 43
0.0
 43
0.0
 43
0.0
 43
1.0
 49
0.0007999999797903
 49
0.0
 49
0.0
 49
0.0
 49
0.0
 49
0.0007999999797903
 49
0.0
 49
0.0
 49
0.0
 49
0.0
 49
1.0
 49
0.0
 49
0.0
 49
0.0
 49
0.0
 49
1.0
142
0.0007999999797903
142
0.0
142
0.0
142
0.0
142
0.0
142
0.0007999999797903
142
0.0
142
0.0
142
0.0
142
0.0
142
1.0
142
0.0
142
0.0
142
0.0
142
0.0
142
1.0
144
0.0007999999797903
144
0.0
144
0.0
144
0.0
144
0.0
144
0.0007999999797903
144
0.0
144
0.0
144
0.0
144
0.0
144
1.0
144
0.0
144
0.0
144
0.0
144
0.0
144
1.0
 94
       63
1001
ACAD
1070
    -1
1070
     3
1070
     0
1000

1071
        0
1070
     0
  0
MLINESTYLE
  5
3E
102
{ACAD_REACTORS
330
36
102
}
330
36
100
AcDbMlineStyle
  2
STANDARD
 70
     0
  3

 62
   256
 51
90.0
 52
90.0
 71
     2
 49
0.5
 62
   256
  6
BYLAYER
 49
-0.5
 62
   256
  6
BYLAYER
  0
ACDBPLACEHOLDER
  5
9
102
{ACAD_REACTORS
330
A
102
}
330
A
  0
SCALE
  5
43
102
{ACAD_REACTORS
330
3B
102
}
330
3B
100
AcDbScale
 70
     0
300
1:1
140
1.0
141
1.0
290
     1
  0
SCALE
  5
44
102
{ACAD_REACTORS
330
3B
102
}
330
3B
100
AcDbScale
 70
     0
300
1:2
140
1.0
141
2.0
290
     0
  0
SCALE
  5
45
102
{ACAD_REACTORS
330
3B
102
}
330
3B
100
AcDbScale
 70
     0
300
1:4
140
1.0
141
4.0
290
     0
  0
SCALE
  5
46
102
{ACAD_REACTORS
330
3B
102
}
330
3B
100
AcDbScale
 70
     0
300
1:5
140
1.0
141
5.0
290
     0
  0
SCALE
  5
47
102
{ACAD_REACTORS
330
3B
102
}
330
3B
100
AcDbScale
 70
     0
300
1:8
140
1.0
141
8.0
290
     0
  0
SCALE
  5
48
102
{ACAD_REACTORS
330
3B
102
}
330
3B
100
AcDbScale
 70
     0
300
1:10
140
1.0
141
10.0
290
     0
  0
SCALE
  5
49
102
{ACAD_REACTORS
330
3B
102
}
330
3B
100
AcDbScale
 70
     0
300
1:16
140
1.0
141
16.0
290
     0
  0
SCALE
  5
4A
102
{ACAD_REACTORS
330
3B
102
}
330
3B
100
AcDbScale
 70
     0
300
1:20
140
1.0
141
20.0
290
     0
  0
SCALE
  5
4B
102
{ACAD_REACTORS
330
3B
102
}
330
3B
100
AcDbScale
 70
     0
300
1:30
140
1.0
141
30.0
290
     0
  0
SCALE
  5
4C
102
{ACAD_REACTORS
330
3B
102
}
330
3B
100
AcDbScale
 70
     0
300
1:40
140
1.0
141
40.0
290
     0
  0
SCALE
  5
4D
102
{ACAD_REACTORS
330
3B
102
}
330
3B
100
AcDbScale
 70
     0
300
1:50
140
1.0
141
50.0
290
     0
  0
SCALE
  5
4E
102
{ACAD_REACTORS
330
3B
102
}
330
3B
100
AcDbScale
 70
     0
300
1:100
140
1.0
141
100.0
290
     0
  0
SCALE
  5
4F
102
{ACAD_REACTORS
330
3B
102
}
330
3B
100
AcDbScale
 70
     0
300
2:1
140
2.0
141
1.0
290
     0
  0
SCALE
  5
50
102
{ACAD_REACTORS
330
3B
102
}
330
3B
100
AcDbScale
 70
     0
300
4:1
140
4.0
141
1.0
290
     0
  0
SCALE
  5
51
102
{ACAD_REACTORS
330
3B
102
}
330
3B
100
AcDbScale
 70
     0
300
8:1
140
8.0
141
1.0
290
     0
  0
SCALE
  5
52
102
{ACAD_REACTORS
330
3B
102
}
330
3B
100
AcDbScale
 70
     0
300
10:1
140
10.0
141
1.0
290
     0
  0
SCALE
  5
53
102
{ACAD_REACTORS
330
3B
102
}
330
3B
100
AcDbScale
 70
     0
300
100:1
140
100.0
141
1.0
290
     0
  0
SCALE
  5
54
102
{ACAD_REACTORS
330
3B
102
}
330
3B
100
AcDbScale
 70
     0
300
1/128" = 1'-0"
140
0.0078125
141
12.0
290
     0
  0
SCALE
  5
55
102
{ACAD_REACTORS
330
3B
102
}
330
3B
100
AcDbScale
 70
     0
300
1/64" = 1'-0"
140
0.015625
141
12.0
290
     0
  0
SCALE
  5
56
102
{ACAD_REACTORS
330
3B
102
}
330
3B
100
AcDbScale
 70
     0
300
1/32" = 1'-0"
140
0.03125
141
12.0
290
     0
  0
SCALE
  5
57
102
{ACAD_REACTORS
330
3B
102
}
330
3B
100
AcDbScale
 70
     0
300
1/16" = 1'-0"
140
0.0625
141
12.0
290
     0
  0
SCALE
  5
58
102
{ACAD_REACTORS
330
3B
102
}
330
3B
100
AcDbScale
 70
     0
300
3/32" = 1'-0"
140
0.09375
141
12.0
290
     0
  0
SCALE
  5
59
102
{ACAD_REACTORS
330
3B
102
}
330
3B
100
AcDbScale
 70
     0
300
1/8" = 1'-0"
140
0.125
141
12.0
290
     0
  0
SCALE
  5
5A
102
{ACAD_REACTORS
330
3B
102
}
330
3B
100
AcDbScale
 70
     0
300
3/16" = 1'-0"
140
0.1875
141
12.0
290
     0
  0
SCALE
  5
5B
102
{ACAD_REACTORS
330
3B
102
}
330
3B
100
AcDbScale
 70
     0
300
1/4" = 1'-0"
140
0.25
141
12.0
290
     0
  0
SCALE
  5
5C
102
{ACAD_REACTORS
330
3B
102
}
330
3B
100
AcDbScale
 70
     0
300
3/8" = 1'-0"
140
0.375
141
12.0
290
     0
  0
SCALE
  5
5D
102
{ACAD_REACTORS
330
3B
102
}
330
3B
100
AcDbScale
 70
     0
300
1/2" = 1'-0"
140
0.5
141
12.0
290
     0
  0
SCALE
  5
5E
102
{ACAD_REACTORS
330
3B
102
}
330
3B
100
AcDbScale
 70
     0
300
3/4" = 1'-0"
140
0.75
141
12.0
290
     0
  0
SCALE
  5
5F
102
{ACAD_REACTORS
330
3B
102
}
330
3B
100
AcDbScale
 70
     0
300
1" = 1'-0"
140
1.0
141
12.0
290
     0
  0
SCALE
  5
60
102
{ACAD_REACTORS
330
3B
102
}
330
3B
100
AcDbScale
 70
     0
300
1-1/2" = 1'-0"
140
1.5
141
12.0
290
     0
  0
SCALE
  5
61
102
{ACAD_REACTORS
330
3B
102
}
330
3B
100
AcDbScale
 70
     0
300
3" = 1'-0"
140
3.0
141
12.0
290
     0
  0
SCALE
  5
62
102
{ACAD_REACTORS
330
3B
102
}
330
3B
100
AcDbScale
 70
     0
300
6" = 1'-0"
140
6.0
141
12.0
290
     0
  0
SCALE
  5
63
102
{ACAD_REACTORS
330
3B
102
}
330
3B
100
AcDbScale
 70
     0
300
1'-0" = 1'-0"
140
12.0
141
12.0
290
     0
  0
TABLESTYLE
  5
3F
102
{ACAD_XDICTIONARY
360
40
102
}
102
{ACAD_REACTORS
330
3C
102
}
330
3C
100
AcDbTableStyle
280
     0
  3
Standard
 70
     0
 71
     0
 40
1.5
 41
1.5
280
     0
281
     0
  7
Standard
140
4.5
170
     2
 62
     0
 63
     7
283
     0
 90
      512
 91
        0
  1

274
    -2
284
     1
 64
     0
275
    -2
285
     1
 65
     0
276
    -2
286
     1
 66
     0
277
    -2
287
     1
 67
     0
278
    -2
288
     1
 68
     0
279
    -2
289
     1
 69
     0
  7
Standard
140
6.0
170
     5
 62
     0
 63
     7
283
     0
 90
      512
 91
        0
  1

274
    -2
284
     1
 64
     0
275
    -2
285
     1
 65
     0
276
    -2
286
     1
 66
     0
277
    -2
287
     1
 67
     0
278
    -2
288
     1
 68
     0
279
    -2
289
     1
 69
     0
  7
Standard
140
4.5
170
     5
 62
     0
 63
     7
283
     0
 90
      512
 91
        0
  1

274
    -2
284
     1
 64
     0
275
    -2
285
     1
 65
     0
276
    -2
286
     1
 66
     0
277
    -2
287
     1
 67
     0
278
    -2
288
     1
 68
     0
279
    -2
289
     1
 69
     0
  0
VISUALSTYLE
  5
2C
102
{ACAD_REACTORS
330
2D
102
}
330
2D
100
AcDbVisualStyle
  2
2dWireframe
 70
     4
177
     2
291
     0
 71
     0
176
     1
 72
     2
176
     1
 73
     1
176
     1
 90
        0
176
     1
 40
0.6
176
     1
 41
30.0
176
     1
 63
     7
421
 16777215
176
     1
 74
     1
176
     1
 91
        4
176
     1
 64
     7
176
     1
 65
   257
176
     1
 75
     1
176
     1
175
     1
176
     1
 42
1.0
176
     1
 92
        0
176
     1
 66
   257
176
     1
 43
1.0
176
     1
 76
     1
176
     1
 77
     6
176
     1
 78
     2
176
     1
 67
     7
176
     1
 79
     5
176
     1
170
     0
176
     1
171
     0
176
     1
290
     0
176
     1
 93
        1
176
     1
 44
0.0
176
     1
173
     0
176
     1
  0
VISUALSTYLE
  5
42
102
{ACAD_REACTORS
330
2D
102
}
330
2D
100
AcDbVisualStyle
  2
3dWireframe
 70
     5
177
     2
291
     0
 71
     0
176
     1
 72
     2
176
     1
 73
     1
176
     1
 90
        0
176
     1
 40
0.6
176
     1
 41
30.0
176
     1
 63
     7
421
 16777215
176
     1
 74
     1
176
     1
 91
        4
176
     1
 64
     7
176
     1
 65
   257
176
     1
 75
     1
176
     1
175
     1
176
     1
 42
1.0
176
     1
 92
        0
176
     1
 66
   257
176
     1
 43
1.0
176
     1
 76
     1
176
     1
 77
     6
176
     1
 78
     2
176
     1
 67
     7
176
     1
 79
     5
176
     1
170
     0
176
     1
171
     0
176
     1
290
     0
176
     1
 93
        1
176
     1
 44
0.0
176
     1
173
     0
176
     1
  0
VISUALSTYLE
  5
41
102
{ACAD_REACTORS
330
2D
102
}
330
2D
100
AcDbVisualStyle
  2
Realistic
 70
     8
177
     2
291
     0
 71
     2
176
     1
 72
     2
176
     1
 73
     1
176
     1
 90
        0
176
     1
 40
0.6
176
     1
 41
30.0
176
     1
 63
     7
421
 16777215
176
     1
 74
     1
176
     1
 91
        0
176
     1
 64
     7
176
     1
 65
   257
176
     1
 75
     1
176
     1
175
     1
176
     1
 42
1.0
176
     1
 92
        8
176
     1
 66
     8
424
  7895160
176
     1
 43
1.0
176
     1
 76
     1
176
     1
 77
     6
176
     1
 78
     2
176
     1
 67
     7
176
     1
 79
     5
176
     1
170
     0
176
     1
171
     0
176
     1
290
     0
176
     1
 93
       13
176
     1
 44
0.0
176
     1
173
     0
176
     1
  0
DICTIONARYVAR
  5
2AC
102
{ACAD_REACTORS
330
2A9
102
}
330
2A9
100
DictionaryVariables
280
     0
  1
1:1
  0
DICTIONARYVAR
  5
2AB
102
{ACAD_REACTORS
330
2A9
102
}
330
2A9
100
DictionaryVariables
280
     0
  1
STANDARD
  0
DICTIONARYVAR
  5
2AA
102
{ACAD_REACTORS
330
2A9
102
}
330
2A9
100
DictionaryVariables
280
     0
  1
STANDARD
  0
DICTIONARYVAR
  5
2AD
102
{ACAD_REACTORS
330
2A9
102
}
330
2A9
100
DictionaryVariables
280
     0
  1
1
  0
DICTIONARYVAR
  5
2AE
102
{ACAD_REACTORS
330
2A9
102
}
330
2A9
100
DictionaryVariables
280
     0
  1
15
  0
DICTIONARY
  5
E
330
C
100
AcDbDictionary
280
     1
281
     1
  3
BUMPTILE
360
F
  3
DIFFUSETILE
360
10
  3
OPACITYTILE
360
11
  3
REFLECTIONTILE
360
12
  0
DICTIONARY
  5
40
330
3F
100
AcDbDictionary
280
     1
281
     1
  3
ACAD_ROUNDTRIP_2008_TABLESTYLE_CELLSTYLEMAP
360
2AF
  0
XRECORD
  5
F
102
{ACAD_REACTORS
330
E
102
}
330
E
100
AcDbXrecord
280
     1
270
     1
271
     1
  0
XRECORD
  5
10
102
{ACAD_REACTORS
330
E
102
}
330
E
100
AcDbXrecord
280
     1
270
     1
271
     1
  0
XRECORD
  5
11
102
{ACAD_REACTORS
330
E
102
}
330
E
100
AcDbXrecord
280
     1
270
     1
271
     1
  0
XRECORD
  5
12
102
{ACAD_REACTORS
330
E
102
}
330
E
100
AcDbXrecord
280
     1
270
     1
271
     1
  0
CELLSTYLEMAP
  5
2AF
102
{ACAD_REACTORS
330
40
102
}
330
40
100
AcDbCellStyleMap
 90
        3
300
CELLSTYLE
  1
TABLEFORMAT_BEGIN
 90
        5
170
     1
 91
        0
 92
    32768
 62
   257
 93
        1
300
CONTENTFORMAT
  1
CONTENTFORMAT_BEGIN
 90
        0
 91
        0
 92
      512
 93
        0
300

 40
0.0
140
1.0
 94
        5
 62
     0
340
23
144
6.0
309
CONTENTFORMAT_END
171
     1
301
MARGIN
  1
CELLMARGIN_BEGIN
 40
1.5
 40
1.5
 40
1.5
 40
1.5
 40
4.5
 40
4.5
309
CELLMARGIN_END
 94
        6
 95
        1
302
GRIDFORMAT
  1
GRIDFORMAT_BEGIN
 90
        0
 91
        1
 62
     0
 92
       -2
340
26
 93
        0
 40
1.125
309
GRIDFORMAT_END
 95
        2
302
GRIDFORMAT
  1
GRIDFORMAT_BEGIN
 90
        0
 91
        1
 62
     0
 92
       -2
340
26
 93
        0
 40
1.125
309
GRIDFORMAT_END
 95
        4
302
GRIDFORMAT
  1
GRIDFORMAT_BEGIN
 90
        0
 91
        1
 62
     0
 92
       -2
340
26
 93
        0
 40
1.125
309
GRIDFORMAT_END
 95
        8
302
GRIDFORMAT
  1
GRIDFORMAT_BEGIN
 90
        0
 91
        1
 62
     0
 92
       -2
340
26
 93
        0
 40
1.125
309
GRIDFORMAT_END
 95
       16
302
GRIDFORMAT
  1
GRIDFORMAT_BEGIN
 90
        0
 91
        1
 62
     0
 92
       -2
340
26
 93
        0
 40
1.125
309
GRIDFORMAT_END
 95
       32
302
GRIDFORMAT
  1
GRIDFORMAT_BEGIN
 90
        0
 91
        1
 62
     0
 92
       -2
340
26
 93
        0
 40
1.125
309
GRIDFORMAT_END
309
TABLEFORMAT_END
  1
CELLSTYLE_BEGIN
 90
        1
 91
        1
300
_TITLE
309
CELLSTYLE_END
300
CELLSTYLE
  1
TABLEFORMAT_BEGIN
 90
        5
170
     1
 91
        0
 92
        0
 62
   257
 93
        1
300
CONTENTFORMAT
  1
CONTENTFORMAT_BEGIN
 90
        0
 91
        0
 92
      512
 93
        0
300

 40
0.0
140
1.0
 94
        5
 62
     0
340
23
144
4.5
309
CONTENTFORMAT_END
171
     1
301
MARGIN
  1
CELLMARGIN_BEGIN
 40
1.5
 40
1.5
 40
1.5
 40
1.5
 40
4.5
 40
4.5
309
CELLMARGIN_END
 94
        6
 95
        1
302
GRIDFORMAT
  1
GRIDFORMAT_BEGIN
 90
        0
 91
        1
 62
     0
 92
       -2
340
26
 93
        0
 40
1.125
309
GRIDFORMAT_END
 95
        2
302
GRIDFORMAT
  1
GRIDFORMAT_BEGIN
 90
        0
 91
        1
 62
     0
 92
       -2
340
26
 93
        0
 40
1.125
309
GRIDFORMAT_END
 95
        4
302
GRIDFORMAT
  1
GRIDFORMAT_BEGIN
 90
        0
 91
        1
 62
     0
 92
       -2
340
26
 93
        0
 40
1.125
309
GRIDFORMAT_END
 95
        8
302
GRIDFORMAT
  1
GRIDFORMAT_BEGIN
 90
        0
 91
        1
 62
     0
 92
       -2
340
26
 93
        0
 40
1.125
309
GRIDFORMAT_END
 95
       16
302
GRIDFORMAT
  1
GRIDFORMAT_BEGIN
 90
        0
 91
        1
 62
     0
 92
       -2
340
26
 93
        0
 40
1.125
309
GRIDFORMAT_END
 95
       32
302
GRIDFORMAT
  1
GRIDFORMAT_BEGIN
 90
        0
 91
        1
 62
     0
 92
       -2
340
26
 93
        0
 40
1.125
309
GRIDFORMAT_END
309
TABLEFORMAT_END
  1
CELLSTYLE_BEGIN
 90
        2
 91
        1
300
_HEADER
309
CELLSTYLE_END
300
CELLSTYLE
  1
TABLEFORMAT_BEGIN
 90
        5
170
     1
 91
        0
 92
        0
 62
   257
 93
        1
300
CONTENTFORMAT
  1
CONTENTFORMAT_BEGIN
 90
        0
 91
        0
 92
      512
 93
        0
300

 40
0.0
140
1.0
 94
        2
 62
     0
340
23
144
4.5
309
CONTENTFORMAT_END
171
     1
301
MARGIN
  1
CELLMARGIN_BEGIN
 40
1.5
 40
1.5
 40
1.5
 40
1.5
 40
4.5
 40
4.5
309
CELLMARGIN_END
 94
        6
 95
        1
302
GRIDFORMAT
  1
GRIDFORMAT_BEGIN
 90
        0
 91
        1
 62
     0
 92
       -2
340
26
 93
        0
 40
1.125
309
GRIDFORMAT_END
 95
        2
302
GRIDFORMAT
  1
GRIDFORMAT_BEGIN
 90
        0
 91
        1
 62
     0
 92
       -2
340
26
 93
        0
 40
1.125
309
GRIDFORMAT_END
 95
        4
302
GRIDFORMAT
  1
GRIDFORMAT_BEGIN
 90
        0
 91
        1
 62
     0
 92
       -2
340
26
 93
        0
 40
1.125
309
GRIDFORMAT_END
 95
        8
302
GRIDFORMAT
  1
GRIDFORMAT_BEGIN
 90
        0
 91
        1
 62
     0
 92
       -2
340
26
 93
        0
 40
1.125
309
GRIDFORMAT_END
 95
       16
302
GRIDFORMAT
  1
GRIDFORMAT_BEGIN
 90
        0
 91
        1
 62
     0
 92
       -2
340
26
 93
        0
 40
1.125
309
GRIDFORMAT_END
 95
       32
302
GRIDFORMAT
  1
GRIDFORMAT_BEGIN
 90
        0
 91
        1
 62
     0
 92
       -2
340
26
 93
        0
 40
1.125
309
GRIDFORMAT_END
309
TABLEFORMAT_END
  1
CELLSTYLE_BEGIN
 90
        3
 91
        2
300
_DATA
309
CELLSTYLE_END
  0
ENDSEC
  0
EOF
