  0
SECTION
  2
HEADER
  9
$ACADVER
  1
AC1024
  9
$ACADMAINTVER
 70
     6
  9
$DWGCODEPAGE
  3
ANSI_1252
  9
$INSBASE
 10
0.0
 20
0.0
 30
0.0
  9
$EXTMIN
 10
-0.048570102429494
 20
-0.0205886680046206
 30
-0.0015258207003583
  9
$EXTMAX
 10
1591.715126598668
 20
674.7215397915674
 30
0.0000000349246037
  9
$LIMMIN
 10
0.0
 20
0.0
  9
$LIMMAX
 10
210.0
 20
297.0000000000001
  9
$ORTHOMODE
 70
     1
  9
$REGENMODE
 70
     1
  9
$FILLMODE
 70
     1
  9
$QTEXTMODE
 70
     0
  9
$MIRRTEXT
 70
     1
  9
$LTSCALE
 40
10.0
  9
$ATTMODE
 70
     1
  9
$TEXTSIZE
 40
1.0
  9
$TRACEWID
 40
0.05
  9
$TEXTSTYLE
  7
Standard
  9
$CLAYER
  8
0
  9
$CELTYPE
  6
ByLayer
  9
$CECOLOR
 62
   256
  9
$CELTSCALE
 40
1.0
  9
$DISPSILH
 70
     0
  9
$DIMSCALE
 40
2.0
  9
$DIMASZ
 40
2.5
  9
$DIMEXO
 40
1.0
  9
$DIMDLI
 40
10.0
  9
$DIMRND
 40
0.0
  9
$DIMDLE
 40
0.0
  9
$DIMEXE
 40
1.0
  9
$DIMTP
 40
0.0
  9
$DIMTM
 40
0.0
  9
$DIMTXT
 40
2.5
  9
$DIMCEN
 40
0.0
  9
$DIMTSZ
 40
0.0
  9
$DIMTOL
 70
     0
  9
$DIMLIM
 70
     0
  9
$DIMTIH
 70
     0
  9
$DIMTOH
 70
     0
  9
$DIMSE1
 70
     0
  9
$DIMSE2
 70
     0
  9
$DIMTAD
 70
     1
  9
$DIMZIN
 70
     8
  9
$DIMBLK
  1

  9
$DIMASO
 70
     1
  9
$DIMSHO
 70
     1
  9
$DIMPOST
  1

  9
$DIMAPOST
  1

  9
$DIMALT
 70
     0
  9
$DIMALTD
 70
     3
  9
$DIMALTF
 40
0.03937007874016
  9
$DIMLFAC
 40
1.0
  9
$DIMTOFL
 70
     1
  9
$DIMTVP
 40
0.0
  9
$DIMTIX
 70
     0
  9
$DIMSOXD
 70
     0
  9
$DIMSAH
 70
     0
  9
$DIMBLK1
  1

  9
$DIMBLK2
  1

  9
$DIMSTYLE
  2
Wagner
  9
$DIMCLRD
 70
     4
  9
$DIMCLRE
 70
     4
  9
$DIMCLRT
 70
     1
  9
$DIMTFAC
 40
1.0
  9
$DIMGAP
 40
1.0
  9
$DIMJUST
 70
     0
  9
$DIMSD1
 70
     0
  9
$DIMSD2
 70
     0
  9
$DIMTOLJ
 70
     0
  9
$DIMTZIN
 70
     8
  9
$DIMALTZ
 70
     0
  9
$DIMALTTZ
 70
     0
  9
$DIMUPT
 70
     0
  9
$DIMDEC
 70
     8
  9
$DIMTDEC
 70
     8
  9
$DIMALTU
 70
     2
  9
$DIMALTTD
 70
     3
  9
$DIMTXSTY
  7
Standard
  9
$DIMAUNIT
 70
     0
  9
$DIMADEC
 70
     2
  9
$DIMALTRND
 40
0.0
  9
$DIMAZIN
 70
     2
  9
$DIMDSEP
 70
    46
  9
$DIMATFIT
 70
     3
  9
$DIMFRAC
 70
     0
  9
$DIMLDRBLK
  1

  9
$DIMLUNIT
 70
     2
  9
$DIMLWD
 70
    -2
  9
$DIMLWE
 70
    -2
  9
$DIMTMOVE
 70
     0
  9
$DIMFXL
 40
1.0
  9
$DIMFXLON
 70
     0
  9
$DIMJOGANG
 40
0.7853981633974483
  9
$DIMTFILL
 70
     0
  9
$DIMTFILLCLR
 70
     0
  9
$DIMARCSYM
 70
     0
  9
$DIMLTYPE
  6

  9
$DIMLTEX1
  6

  9
$DIMLTEX2
  6

  9
$DIMTXTDIRECTION
 70
     0
  9
$LUNITS
 70
     2
  9
$LUPREC
 70
     1
  9
$SKETCHINC
 40
0.1
  9
$FILLETRAD
 40
0.0
  9
$AUNITS
 70
     0
  9
$AUPREC
 70
     0
  9
$MENU
  1
acad
  9
$ELEVATION
 40
0.0
  9
$PELEVATION
 40
0.0
  9
$THICKNESS
 40
0.0
  9
$LIMCHECK
 70
     0
  9
$CHAMFERA
 40
0.5
  9
$CHAMFERB
 40
0.5
  9
$CHAMFERC
 40
0.0
  9
$CHAMFERD
 40
0.0
  9
$SKPOLY
 70
     0
  9
$TDCREATE
 40
2453508.474145822
  9
$TDUCREATE
 40
2453508.390812488
  9
$TDUPDATE
 40
2457364.748195278
  9
$TDUUPDATE
 40
2457364.664861945
  9
$TDINDWG
 40
0.3828765394
  9
$TDUSRTIMER
 40
0.3828722569
  9
$USRTIMER
 70
     1
  9
$ANGBASE
 50
0.0
  9
$ANGDIR
 70
     0
  9
$PDMODE
 70
     0
  9
$PDSIZE
 40
-1.0
  9
$PLINEWID
 40
0.0
  9
$SPLFRAME
 70
     0
  9
$SPLINETYPE
 70
     6
  9
$SPLINESEGS
 70
     8
  9
$HANDSEED
  5
3A8
  9
$SURFTAB1
 70
     6
  9
$SURFTAB2
 70
     6
  9
$SURFTYPE
 70
     6
  9
$SURFU
 70
     6
  9
$SURFV
 70
     6
  9
$UCSBASE
  2

  9
$UCSNAME
  2

  9
$UCSORG
 10
0.0
 20
0.0
 30
0.0
  9
$UCSXDIR
 10
1.0
 20
0.0
 30
0.0
  9
$UCSYDIR
 10
0.0
 20
1.0
 30
0.0
  9
$UCSORTHOREF
  2

  9
$UCSORTHOVIEW
 70
     0
  9
$UCSORGTOP
 10
0.0
 20
0.0
 30
0.0
  9
$UCSORGBOTTOM
 10
0.0
 20
0.0
 30
0.0
  9
$UCSORGLEFT
 10
0.0
 20
0.0
 30
0.0
  9
$UCSORGRIGHT
 10
0.0
 20
0.0
 30
0.0
  9
$UCSORGFRONT
 10
0.0
 20
0.0
 30
0.0
  9
$UCSORGBACK
 10
0.0
 20
0.0
 30
0.0
  9
$PUCSBASE
  2

  9
$PUCSNAME
  2

  9
$PUCSORG
 10
0.0
 20
0.0
 30
0.0
  9
$PUCSXDIR
 10
1.0
 20
0.0
 30
0.0
  9
$PUCSYDIR
 10
0.0
 20
1.0
 30
0.0
  9
$PUCSORTHOREF
  2

  9
$PUCSORTHOVIEW
 70
     0
  9
$PUCSORGTOP
 10
0.0
 20
0.0
 30
0.0
  9
$PUCSORGBOTTOM
 10
0.0
 20
0.0
 30
0.0
  9
$PUCSORGLEFT
 10
0.0
 20
0.0
 30
0.0
  9
$PUCSORGRIGHT
 10
0.0
 20
0.0
 30
0.0
  9
$PUCSORGFRONT
 10
0.0
 20
0.0
 30
0.0
  9
$PUCSORGBACK
 10
0.0
 20
0.0
 30
0.0
  9
$USERI1
 70
     0
  9
$USERI2
 70
     0
  9
$USERI3
 70
     0
  9
$USERI4
 70
     0
  9
$USERI5
 70
     0
  9
$USERR1
 40
0.0
  9
$USERR2
 40
0.0
  9
$USERR3
 40
0.0
  9
$USERR4
 40
0.0
  9
$USERR5
 40
0.0
  9
$WORLDVIEW
 70
     1
  9
$SHADEDGE
 70
     3
  9
$SHADEDIF
 70
    70
  9
$TILEMODE
 70
     1
  9
$MAXACTVP
 70
    16
  9
$PINSBASE
 10
0.0
 20
0.0
 30
0.0
  9
$PLIMCHECK
 70
     0
  9
$PEXTMIN
 10
1.000000000000000E+20
 20
1.000000000000000E+20
 30
1.000000000000000E+20
  9
$PEXTMAX
 10
-1.000000000000000E+20
 20
-1.000000000000000E+20
 30
-1.000000000000000E+20
  9
$PLIMMIN
 10
0.0
 20
0.0
  9
$PLIMMAX
 10
12.0
 20
9.0
  9
$UNITMODE
 70
     0
  9
$VISRETAIN
 70
     0
  9
$PLINEGEN
 70
     1
  9
$PSLTSCALE
 70
     1
  9
$TREEDEPTH
 70
  3020
  9
$CMLSTYLE
  2
Standard
  9
$CMLJUST
 70
     0
  9
$CMLSCALE
 40
1.0
  9
$PROXYGRAPHICS
 70
     0
  9
$MEASUREMENT
 70
     0
  9
$CELWEIGHT
370
    -1
  9
$ENDCAPS
280
     0
  9
$JOINSTYLE
280
     0
  9
$LWDISPLAY
290
     0
  9
$INSUNITS
 70
     0
  9
$HYPERLINKBASE
  1

  9
$STYLESHEET
  1

  9
$XEDIT
290
     1
  9
$CEPSNTYPE
380
     0
  9
$PSTYLEMODE
290
     1
  9
$FINGERPRINTGUID
  2
{970F1B66-C563-45CA-9862-271862A6D3ED}
  9
$VERSIONGUID
  2
{15B4EEE8-9ABC-42C8-9CA2-3D008217EEA8}
  9
$EXTNAMES
290
     1
  9
$PSVPSCALE
 40
0.0
  9
$OLESTARTUP
290
     0
  9
$SORTENTS
280
   127
  9
$INDEXCTL
280
     0
  9
$HIDETEXT
280
     1
  9
$XCLIPFRAME
280
     0
  9
$HALOGAP
280
     0
  9
$OBSCOLOR
 70
   257
  9
$OBSLTYPE
280
     0
  9
$INTERSECTIONDISPLAY
280
     0
  9
$INTERSECTIONCOLOR
 70
   257
  9
$DIMASSOC
280
     1
  9
$PROJECTNAME
  1

  9
$CAMERADISPLAY
290
     0
  9
$LENSLENGTH
 40
50.0
  9
$CAMERAHEIGHT
 40
0.0
  9
$STEPSPERSEC
 40
2.0
  9
$STEPSIZE
 40
6.0
  9
$3DDWFPREC
 40
2.0
  9
$PSOLWIDTH
 40
0.25
  9
$PSOLHEIGHT
 40
4.0
  9
$LOFTANG1
 40
1.570796326794896
  9
$LOFTANG2
 40
1.570796326794896
  9
$LOFTMAG1
 40
0.0
  9
$LOFTMAG2
 40
0.0
  9
$LOFTPARAM
 70
     7
  9
$LOFTNORMALS
280
     1
  9
$LATITUDE
 40
37.795
  9
$LONGITUDE
 40
-122.394
  9
$NORTHDIRECTION
 40
0.0
  9
$TIMEZONE
 70
 -8000
  9
$LIGHTGLYPHDISPLAY
280
     1
  9
$TILEMODELIGHTSYNCH
280
     1
  9
$CMATERIAL
347
3E
  9
$SOLIDHIST
280
     1
  9
$SHOWHIST
280
     1
  9
$DWFFRAME
280
     2
  9
$DGNFRAME
280
     0
  9
$REALWORLDSCALE
290
     1
  9
$INTERFERECOLOR
 62
     1
  9
$INTERFEREOBJVS
345
55
  9
$INTERFEREVPVS
346
56
  9
$CSHADOW
280
     0
  9
$SHADOWPLANELOCATION
 40
0.0
  0
ENDSEC
  0
SECTION
  2
CLASSES
  0
CLASS
  1
IMAGE
  2
AcDbRasterImage
  3
ISM
 90
     2175
 91
        0
280
     0
281
     1
  0
CLASS
  1
DICTIONARYVAR
  2
AcDbDictionaryVar
  3
ObjectDBX Classes
 90
        0
 91
        7
280
     0
281
     0
  0
CLASS
  1
RASTERVARIABLES
  2
AcDbRasterVariables
  3
ISM
 90
        0
 91
        0
280
     0
281
     0
  0
CLASS
  1
IMAGEDEF
  2
AcDbRasterImageDef
  3
ISM
 90
        0
 91
        0
280
     0
281
     0
  0
CLASS
  1
IMAGEDEF_REACTOR
  2
AcDbRasterImageDefReactor
  3
ISM
 90
        1
 91
        0
280
     0
281
     0
  0
CLASS
  1
IDBUFFER
  2
AcDbIdBuffer
  3
ObjectDBX Classes
 90
        0
 91
        0
280
     0
281
     0
  0
CLASS
  1
SPATIAL_FILTER
  2
AcDbSpatialFilter
  3
ObjectDBX Classes
 90
        0
 91
        0
280
     0
281
     0
  0
CLASS
  1
SORTENTSTABLE
  2
AcDbSortentsTable
  3
ObjectDBX Classes
 90
        0
 91
        4
280
     0
281
     0
  0
CLASS
  1
LAYER_INDEX
  2
AcDbLayerIndex
  3
ObjectDBX Classes
 90
        0
 91
        0
280
     0
281
     0
  0
CLASS
  1
SPATIAL_INDEX
  2
AcDbSpatialIndex
  3
ObjectDBX Classes
 90
        0
 91
        0
280
     0
281
     0
  0
CLASS
  1
OBJECT_PTR
  2
CAseDLPNTableRecord
  3
ASE-LPNTableRecord
 90
        1
 91
        0
280
     0
281
     0
  0
CLASS
  1
PLOTSETTINGS
  2
AcDbPlotSettings
  3
ObjectDBX Classes
 90
        0
 91
        0
280
     0
281
     0
  0
CLASS
  1
ACDBDICTIONARYWDFLT
  2
AcDbDictionaryWithDefault
  3
ObjectDBX Classes
 90
        0
 91
        1
280
     0
281
     0
  0
CLASS
  1
WIPEOUT
  2
AcDbWipeout
  3
"WipeOut|Product Desc: Object Enabler for WipeOut entity                        |Company: Autodesk, Inc.                        |WEB Address: www.autodesk.com"
 90
     2175
 91
        0
280
     0
281
     1
  0
CLASS
  1
WIPEOUTVARIABLES
  2
AcDbWipeoutVariables
  3
"WipeOut|Product Desc:     WipeOut Dbx Application|Company:          Autodesk, Inc.|WEB Address:      www.autodesk.com"
 90
        0
 91
        0
280
     0
281
     0
  0
CLASS
  1
RTEXT
  2
RText
  3
RText|AutoCAD Express Tool|expresstools@autodesk.com
 90
     3071
 91
        0
280
     1
281
     1
  0
CLASS
  1
ARCALIGNEDTEXT
  2
AcDbArcAlignedText
  3
ATEXT|AutoCAD Express Tool|expresstools@autodesk.com
 90
        0
 91
        0
280
     1
281
     1
  0
CLASS
  1
MATERIAL
  2
AcDbMaterial
  3
ObjectDBX Classes
 90
     1153
 91
        3
280
     0
281
     0
  0
CLASS
  1
VISUALSTYLE
  2
AcDbVisualStyle
  3
ObjectDBX Classes
 90
     4095
 91
        3
280
     0
281
     0
  0
CLASS
  1
TABLESTYLE
  2
AcDbTableStyle
  3
ObjectDBX Classes
 90
     4095
 91
        1
280
     0
281
     0
  0
CLASS
  1
SCALE
  2
AcDbScale
  3
ObjectDBX Classes
 90
     1153
 91
       33
280
     0
281
     0
  0
CLASS
  1
MLEADERSTYLE
  2
AcDbMLeaderStyle
  3
ACDB_MLEADERSTYLE_CLASS
 90
     4095
 91
        0
280
     0
281
     0
  0
CLASS
  1
CELLSTYLEMAP
  2
AcDbCellStyleMap
  3
ObjectDBX Classes
 90
     1152
 91
        1
280
     0
281
     0
  0
CLASS
  1
SOLID_BACKGROUND
  2
AcDbSolidBackground
  3
SCENEOE
 90
     4095
 91
        0
280
     0
281
     0
  0
CLASS
  1
NPOCOLLECTION
  2
AcDbImpNonPersistentObjectsCollection
  3
ObjectDBX Classes
 90
     1153
 91
        0
280
     0
281
     0
  0
CLASS
  1
DIMASSOC
  2
AcDbDimAssoc
  3
"AcDbDimAssoc|Product Desc:     AcDim ARX App For Dimension|Company:          Autodesk, Inc.|WEB Address:      www.autodesk.com"
 90
        0
 91
        0
280
     0
281
     0
  0
CLASS
  1
AEC_REFEDIT_STATUS_TRACKER
  2
AecDbRefEditStatusTracker
  3
AecArchBase60|Product Desc: Autodesk Architectural Desktop 2007 |Company: Autodesk,Inc. |WEB Address: www.autodesk.com
 90
      129
 91
        0
280
     0
281
     0
  0
ENDSEC
  0
SECTION
  2
TABLES
  0
TABLE
  2
VPORT
  5
2E
102
{ACAD_XDICTIONARY
360
32
102
}
330
0
100
AcDbSymbolTable
 70
     1
  0
VPORT
  5
2F
330
2E
100
AcDbSymbolTableRecord
100
AcDbViewportTableRecord
  2
*Active
 70
     0
 10
0.0
 20
0.0
 11
1.0
 21
1.0
 12
676.1592927482947
 22
273.1776741957299
 13
0.0
 23
0.0
 14
1.0
 24
1.0
 15
0.0
 25
0.0
 16
0.0
 26
0.0
 36
1.0
 17
0.0
 27
0.0
 37
0.0
 40
733.3212971552425
 41
1.98076923076923
 42
50.0
 43
0.0
 44
0.0
 50
0.0
 51
0.0
 71
     0
 72
  1000
 73
     1
 74
     0
 75
     0
 76
     0
 77
     0
 78
     0
281
     0
 65
     0
110
0.0
120
0.0
130
0.0
111
1.0
121
0.0
131
0.0
112
0.0
122
1.0
132
0.0
 79
     0
146
0.0
348
30
 60
     3
 61
     5
292
     1
282
     1
141
0.0
142
0.0
 63
   250
421
  3355443
  0
ENDTAB
  0
TABLE
  2
LTYPE
  5
29
330
0
100
AcDbSymbolTable
 70
     4
  0
LTYPE
  5
2A
330
29
100
AcDbSymbolTableRecord
100
AcDbLinetypeTableRecord
  2
ByBlock
 70
     0
  3

 72
    65
 73
     0
 40
0.0
  0
LTYPE
  5
2B
330
29
100
AcDbSymbolTableRecord
100
AcDbLinetypeTableRecord
  2
ByLayer
 70
     0
  3

 72
    65
 73
     0
 40
0.0
  0
LTYPE
  5
15
330
29
100
AcDbSymbolTableRecord
100
AcDbLinetypeTableRecord
  2
Continuous
 70
     0
  3
Solid line
 72
    65
 73
     0
 40
0.0
  0
LTYPE
  5
320
330
29
100
AcDbSymbolTableRecord
100
AcDbLinetypeTableRecord
  2
AUSGEZOGEN
 70
     0
  3
Ausgezogene Linie
 72
    65
 73
     0
 40
0.0
  0
LTYPE
  5
BE
330
29
100
AcDbSymbolTableRecord
100
AcDbLinetypeTableRecord
  2
STRICHPUNKT
 70
     0
  3
Strichpunkt __ . __ . __ . __ . __ . __ . __ . 
 72
    65
 73
     4
 40
1.0
 49
0.5
 74
     0
 49
-0.25
 74
     0
 49
0.0
 74
     0
 49
-0.25
 74
     0
  0
LTYPE
  5
1C0
330
29
100
AcDbSymbolTableRecord
100
AcDbLinetypeTableRecord
  2
VERDECKT
 70
     0
  3
__ __ __ __ __ __ __ __ __ __ __ __ __ __ __ __
 72
    65
 73
     2
 40
0.375
 49
0.25
 74
     0
 49
-0.125
 74
     0
  0
ENDTAB
  0
TABLE
  2
LAYER
  5
20
102
{ACAD_XDICTIONARY
360
21
102
}
330
0
100
AcDbSymbolTable
 70
     9
  0
LAYER
  5
6
102
{ACAD_XDICTIONARY
360
7
102
}
330
20
100
AcDbSymbolTableRecord
100
AcDbLayerTableRecord
  2
0
 70
     0
 62
     7
  6
Continuous
370
    -3
390
9
347
C
  0
LAYER
  5
104
102
{ACAD_XDICTIONARY
360
105
102
}
330
20
100
AcDbSymbolTableRecord
100
AcDbLayerTableRecord
  2
09-01
 70
     0
 62
     7
  6
Continuous
370
    -3
390
9
347
C
  0
LAYER
  5
82
330
20
100
AcDbSymbolTableRecord
100
AcDbLayerTableRecord
  2
Defpoints
 70
     0
 62
     7
  6
Continuous
290
     0
370
    -3
390
9
347
C
  0
LAYER
  5
31E
102
{ACAD_XDICTIONARY
360
31F
102
}
330
20
100
AcDbSymbolTableRecord
100
AcDbLayerTableRecord
  2
01-99
 70
     0
 62
     2
  6
AUSGEZOGEN
370
    -3
390
9
347
C
  0
LAYER
  5
359
102
{ACAD_XDICTIONARY
360
35A
102
}
330
20
100
AcDbSymbolTableRecord
100
AcDbLayerTableRecord
  2
06-99
 70
     0
 62
     1
  6
AUSGEZOGEN
370
    -3
390
9
347
C
  0
LAYER
  5
324
102
{ACAD_XDICTIONARY
360
325
102
}
330
20
100
AcDbSymbolTableRecord
100
AcDbLayerTableRecord
  2
02-99
 70
     0
 62
     1
  6
AUSGEZOGEN
370
    -3
390
9
347
C
  0
LAYER
  5
344
102
{ACAD_XDICTIONARY
360
345
102
}
330
20
100
AcDbSymbolTableRecord
100
AcDbLayerTableRecord
  2
08-99
 70
     0
 62
     7
  6
Continuous
370
    -3
390
9
347
C
  0
LAYER
  5
BC
102
{ACAD_XDICTIONARY
360
BD
102
}
330
20
100
AcDbSymbolTableRecord
100
AcDbLayerTableRecord
  2
05-01
 70
     0
 62
     1
  6
STRICHPUNKT
370
    -3
390
9
347
C
  0
LAYER
  5
1BE
102
{ACAD_XDICTIONARY
360
1BF
102
}
330
20
100
AcDbSymbolTableRecord
100
AcDbLayerTableRecord
  2
03-01
 70
     0
 62
     3
  6
VERDECKT
370
    -3
390
9
347
C
  0
ENDTAB
  0
TABLE
  2
STYLE
  5
26
330
0
100
AcDbSymbolTable
 70
     3
  0
STYLE
  5
27
330
26
100
AcDbSymbolTableRecord
100
AcDbTextStyleTableRecord
  2
Standard
 70
     0
 40
0.0
 41
1.0
 50
0.0
 71
     0
 42
1.0
  3
txt
  4

  0
STYLE
  5
346
330
26
100
AcDbSymbolTableRecord
100
AcDbTextStyleTableRecord
  2
ROMANS8
 70
     0
 40
0.0
 41
1.0
 50
0.0
 71
     0
 42
2.5
  3
ROMANS8
  4

  0
STYLE
  5
36B
330
26
100
AcDbSymbolTableRecord
100
AcDbTextStyleTableRecord
  2
ROMAND8
 70
     0
 40
0.0
 41
1.0
 50
0.0
 71
     0
 42
3.5
  3
ROMAND8
  4

  0
ENDTAB
  0
TABLE
  2
VIEW
  5
2C
330
0
100
AcDbSymbolTable
 70
     0
  0
ENDTAB
  0
TABLE
  2
UCS
  5
2D
330
0
100
AcDbSymbolTable
 70
     0
  0
ENDTAB
  0
TABLE
  2
APPID
  5
33
330
0
100
AcDbSymbolTable
 70
     5
  0
APPID
  5
25
330
33
100
AcDbSymbolTableRecord
100
AcDbRegAppTableRecord
  2
ACAD
 70
     0
  0
APPID
  5
1B
330
33
100
AcDbSymbolTableRecord
100
AcDbRegAppTableRecord
  2
ACAD_PSEXT
 70
     0
  0
APPID
  5
36
330
33
100
AcDbSymbolTableRecord
100
AcDbRegAppTableRecord
  2
ACAD_DSTYLE_DIMJOGGED_JOGANGLE_SYMBOL
 70
     0
  0
APPID
  5
37
330
33
100
AcDbSymbolTableRecord
100
AcDbRegAppTableRecord
  2
ACAD_DSTYLE_DIMJAG
 70
     0
  0
APPID
  5
38
330
33
100
AcDbSymbolTableRecord
100
AcDbRegAppTableRecord
  2
ACAD_DSTYLE_DIMTALN
 70
     0
  0
ENDTAB
  0
TABLE
  2
DIMSTYLE
  5
34
330
0
100
AcDbSymbolTable
 70
     3
100
AcDbDimStyleTable
 71
     2
340
35
340
39
  0
DIMSTYLE
105
39
330
34
100
AcDbSymbolTableRecord
100
AcDbDimStyleTableRecord
  2
Standard
 70
     0
340
27
  0
DIMSTYLE
105
35
102
{ACAD_REACTORS
330
12F
102
}
330
34
100
AcDbSymbolTableRecord
100
AcDbDimStyleTableRecord
  2
Wagner
 70
     0
 41
2.5
 42
1.0
 43
10.0
 44
1.0
 73
     0
 74
     0
 77
     1
 78
     8
 79
     2
140
2.5
141
0.0
143
0.03937007874016
147
1.0
171
     3
172
     1
176
     4
177
     4
178
     1
179
     2
271
     8
272
     8
274
     3
283
     0
284
     8
340
27
1001
ACAD_DSTYLE_DIMJOGGED_JOGANGLE_SYMBOL
1070
   384
1040
0.7853981633974483
1001
ACAD_DSTYLE_DIMJAG
1070
   388
1040
1.5
1001
ACAD_DSTYLE_DIMTALN
1070
   392
1070
     0
  0
DIMSTYLE
105
86
102
{ACAD_REACTORS
330
2C3
330
246
330
2D0
330
2DD
330
237
330
224
330
1AC
330
171
330
164
330
157
330
14A
330
13D
330
120
330
113
330
103
330
DA
330
AE
330
A1
330
94
330
87
330
78
102
}
330
34
100
AcDbSymbolTableRecord
100
AcDbDimStyleTableRecord
  2
Wagner$0
 70
     0
 41
2.5
 42
1.0
 43
10.0
 44
1.0
 73
     0
 74
     0
 77
     1
 78
     8
 79
     2
140
2.5
141
0.0
143
0.03937007874016
147
1.0
171
     3
172
     1
174
     1
176
     4
177
     4
178
     1
179
     2
271
     8
272
     8
274
     3
279
     2
283
     0
284
     8
340
27
1001
ACAD_DSTYLE_DIMJOGGED_JOGANGLE_SYMBOL
1070
   384
1040
0.7853981633974483
1001
ACAD_DSTYLE_DIMJAG
1070
   388
1040
1.5
1001
ACAD_DSTYLE_DIMTALN
1070
   392
1070
     0
  0
ENDTAB
  0
TABLE
  2
BLOCK_RECORD
  5
1
330
0
100
AcDbSymbolTable
 70
    25
  0
BLOCK_RECORD
  5
2
102
{ACAD_XDICTIONARY
360
3
102
}
330
1
100
AcDbSymbolTableRecord
100
AcDbBlockTableRecord
  2
*MODEL_SPACE
340
17
 70
     0
280
     1
281
     0
  0
BLOCK_RECORD
  5
1C
330
1
100
AcDbSymbolTableRecord
100
AcDbBlockTableRecord
  2
*PAPER_SPACE
340
1F
 70
     0
280
     1
281
     0
  0
BLOCK_RECORD
  5
319
102
{ACAD_XDICTIONARY
360
31A
102
}
330
1
100
AcDbSymbolTableRecord
100
AcDbBlockTableRecord
  2
DIN A4
340
0
102
{BLKREFS
331
318
102
}
 70
     4
280
     1
281
     0
  0
BLOCK_RECORD
  5
2DE
330
1
100
AcDbSymbolTableRecord
100
AcDbBlockTableRecord
  2
*D1
340
0
 70
     0
280
     1
281
     0
  0
BLOCK_RECORD
  5
2D1
330
1
100
AcDbSymbolTableRecord
100
AcDbBlockTableRecord
  2
*D2
340
0
 70
     0
280
     1
281
     0
  0
BLOCK_RECORD
  5
2C4
330
1
100
AcDbSymbolTableRecord
100
AcDbBlockTableRecord
  2
*D3
340
0
 70
     0
280
     1
281
     0
  0
BLOCK_RECORD
  5
247
330
1
100
AcDbSymbolTableRecord
100
AcDbBlockTableRecord
  2
*D4
340
0
 70
     0
280
     1
281
     0
  0
BLOCK_RECORD
  5
238
330
1
100
AcDbSymbolTableRecord
100
AcDbBlockTableRecord
  2
*D5
340
0
 70
     0
280
     1
281
     0
  0
BLOCK_RECORD
  5
225
330
1
100
AcDbSymbolTableRecord
100
AcDbBlockTableRecord
  2
*D6
340
0
 70
     0
280
     1
281
     0
  0
BLOCK_RECORD
  5
1AD
330
1
100
AcDbSymbolTableRecord
100
AcDbBlockTableRecord
  2
*D7
340
0
 70
     0
280
     1
281
     0
  0
BLOCK_RECORD
  5
172
330
1
100
AcDbSymbolTableRecord
100
AcDbBlockTableRecord
  2
*D8
340
0
 70
     0
280
     1
281
     0
  0
BLOCK_RECORD
  5
165
330
1
100
AcDbSymbolTableRecord
100
AcDbBlockTableRecord
  2
*D9
340
0
 70
     0
280
     1
281
     0
  0
BLOCK_RECORD
  5
158
330
1
100
AcDbSymbolTableRecord
100
AcDbBlockTableRecord
  2
*D10
340
0
 70
     0
280
     1
281
     0
  0
BLOCK_RECORD
  5
14B
330
1
100
AcDbSymbolTableRecord
100
AcDbBlockTableRecord
  2
*D11
340
0
 70
     0
280
     1
281
     0
  0
BLOCK_RECORD
  5
13E
330
1
100
AcDbSymbolTableRecord
100
AcDbBlockTableRecord
  2
*D12
340
0
 70
     0
280
     1
281
     0
  0
BLOCK_RECORD
  5
130
330
1
100
AcDbSymbolTableRecord
100
AcDbBlockTableRecord
  2
*D13
340
0
 70
     0
280
     1
281
     0
  0
BLOCK_RECORD
  5
121
330
1
100
AcDbSymbolTableRecord
100
AcDbBlockTableRecord
  2
*D14
340
0
 70
     0
280
     1
281
     0
  0
BLOCK_RECORD
  5
114
330
1
100
AcDbSymbolTableRecord
100
AcDbBlockTableRecord
  2
*D15
340
0
 70
     0
280
     1
281
     0
  0
BLOCK_RECORD
  5
107
330
1
100
AcDbSymbolTableRecord
100
AcDbBlockTableRecord
  2
*D16
340
0
 70
     0
280
     1
281
     0
  0
BLOCK_RECORD
  5
E8
330
1
100
AcDbSymbolTableRecord
100
AcDbBlockTableRecord
  2
Seifenflasche250-01-s
340
0
310
2800000020000000200000000100080000000000000400000000000000000000000000000000000000000000000080000080000000808000800000008000800080800000C0C0C000C0DCC000F0CAA6000020400000206000002080000020A0000020C0000020E00000400000004020000040400000406000004080000040A0
310
000040C0000040E00000600000006020000060400000606000006080000060A0000060C0000060E00000800000008020000080400000806000008080000080A0000080C0000080E00000A0000000A0200000A0400000A0600000A0800000A0A00000A0C00000A0E00000C0000000C0200000C0400000C0600000C0800000C0
310
A00000C0C00000C0E00000E0000000E0200000E0400000E0600000E0800000E0A00000E0C00000E0E00040000000400020004000400040006000400080004000A0004000C0004000E00040200000402020004020400040206000402080004020A0004020C0004020E000404000004040200040404000404060004040800040
310
40A0004040C0004040E00040600000406020004060400040606000406080004060A0004060C0004060E00040800000408020004080400040806000408080004080A0004080C0004080E00040A0000040A0200040A0400040A0600040A0800040A0A00040A0C00040A0E00040C0000040C0200040C0400040C0600040C08000
310
40C0A00040C0C00040C0E00040E0000040E0200040E0400040E0600040E0800040E0A00040E0C00040E0E00080000000800020008000400080006000800080008000A0008000C0008000E00080200000802020008020400080206000802080008020A0008020C0008020E00080400000804020008040400080406000804080
310
008040A0008040C0008040E00080600000806020008060400080606000806080008060A0008060C0008060E00080800000808020008080400080806000808080008080A0008080C0008080E00080A0000080A0200080A0400080A0600080A0800080A0A00080A0C00080A0E00080C0000080C0200080C0400080C0600080C0
310
800080C0A00080C0C00080C0E00080E0000080E0200080E0400080E0600080E0800080E0A00080E0C00080E0E000C0000000C0002000C0004000C0006000C0008000C000A000C000C000C000E000C0200000C0202000C0204000C0206000C0208000C020A000C020C000C020E000C0400000C0402000C0404000C0406000C0
310
408000C040A000C040C000C040E000C0600000C0602000C0604000C0606000C0608000C060A000C060C000C060E000C0800000C0802000C0804000C0806000C0808000C080A000C080C000C080E000C0A00000C0A02000C0A04000C0A06000C0A08000C0A0A000C0A0C000C0A0E000C0C00000C0C02000C0C04000C0C06000
310
C0C08000C0C0A000F0FBFF00A4A0A000808080000000FF0000FF000000FFFF00FF000000FF00FF00FFFF0000FFFFFF000000000000000000000000000000000000000000000000000000000000000000000000000000000000000000FFFFFFFFFFFFFFFF0000000000000000000000000000000000000000000000FF000000
310
0000000000FF000000000000000000000000000000000000000000FF00000000000000000000FF0000000000000000000000000000000000000000FF00000000000000000000FF0000000000000000000000000000000000000000FF00000000000000000000FF0000000000000000000000000000000000000000FF000000
310
00000000000000FF0000000000000000000000000000000000000000FF00000000000000000000FF0000000000000000000000000000000000000000FF00000000000000000000FF0000000000000000000000000000000000000000FF00000000000000000000FF0000000000000000000000000000000000000000FF0000
310
0000000000000000FF0000000000000000000000000000000000000000FF00000000000000000000FF0000000000000000000000000000000000000000FF00000000000000000000FF0000000000000000000000000000000000000000FF00000000000000000000FF0000000000000000000000000000000000000000FF00
310
000000000000000000FF0000000000000000000000000000000000000000FF00000000000000000000FF0000000000000000000000000000000000000000FF00000000000000000000FF0000000000000000000000000000000000000000FF00000000000000000000FF0000000000000000000000000000000000000000FF
310
00000000000000000000FF0000000000000000000000000000000000000000FF00000000000000000000FF0000000000000000000000000000000000000000FF00000000000000000000FF0000000000000000000000000000000000000000FF00000000000000000000FF0000000000000000000000000000000000000000
310
FF00000000000000000000FF0000000000000000000000000000000000000000FF00000000000000000000FF0000000000000000000000000000000000000000FF00000000000000000000FF0000000000000000000000000000000000000000FF00000000000000000000FF00000000000000000000000000000000000000
310
00FF00000000000000000000FF000000000000000000000000000000000000000000FF0000000000000000FF0000000000000000000000000000000000000000000000FFFFFFFFFFFFFFFF00000000000000000000000000000000000000000000000000FFFFFFFFFFFF000000000000000000000000000000000000000000
310
0000000000FF00000000FF000000000000000000000000000000000000000000000000000000000000000000000000000000000000000000
102
{BLKREFS
331
E7
102
}
 70
     4
280
     1
281
     0
  0
BLOCK_RECORD
  5
DB
330
1
100
AcDbSymbolTableRecord
100
AcDbBlockTableRecord
  2
*D18
340
0
 70
     0
280
     1
281
     0
  0
BLOCK_RECORD
  5
BF
330
1
100
AcDbSymbolTableRecord
100
AcDbBlockTableRecord
  2
Seifenflasche1000ml-01-s
340
0
310
2800000020000000200000000100080000000000000400000000000000000000000000000000000000000000000080000080000000808000800000008000800080800000C0C0C000C0DCC000F0CAA6000020400000206000002080000020A0000020C0000020E00000400000004020000040400000406000004080000040A0
310
000040C0000040E00000600000006020000060400000606000006080000060A0000060C0000060E00000800000008020000080400000806000008080000080A0000080C0000080E00000A0000000A0200000A0400000A0600000A0800000A0A00000A0C00000A0E00000C0000000C0200000C0400000C0600000C0800000C0
310
A00000C0C00000C0E00000E0000000E0200000E0400000E0600000E0800000E0A00000E0C00000E0E00040000000400020004000400040006000400080004000A0004000C0004000E00040200000402020004020400040206000402080004020A0004020C0004020E000404000004040200040404000404060004040800040
310
40A0004040C0004040E00040600000406020004060400040606000406080004060A0004060C0004060E00040800000408020004080400040806000408080004080A0004080C0004080E00040A0000040A0200040A0400040A0600040A0800040A0A00040A0C00040A0E00040C0000040C0200040C0400040C0600040C08000
310
40C0A00040C0C00040C0E00040E0000040E0200040E0400040E0600040E0800040E0A00040E0C00040E0E00080000000800020008000400080006000800080008000A0008000C0008000E00080200000802020008020400080206000802080008020A0008020C0008020E00080400000804020008040400080406000804080
310
008040A0008040C0008040E00080600000806020008060400080606000806080008060A0008060C0008060E00080800000808020008080400080806000808080008080A0008080C0008080E00080A0000080A0200080A0400080A0600080A0800080A0A00080A0C00080A0E00080C0000080C0200080C0400080C0600080C0
310
800080C0A00080C0C00080C0E00080E0000080E0200080E0400080E0600080E0800080E0A00080E0C00080E0E000C0000000C0002000C0004000C0006000C0008000C000A000C000C000C000E000C0200000C0202000C0204000C0206000C0208000C020A000C020C000C020E000C0400000C0402000C0404000C0406000C0
310
408000C040A000C040C000C040E000C0600000C0602000C0604000C0606000C0608000C060A000C060C000C060E000C0800000C0802000C0804000C0806000C0808000C080A000C080C000C080E000C0A00000C0A02000C0A04000C0A06000C0A08000C0A0A000C0A0C000C0A0E000C0C00000C0C02000C0C04000C0C06000
310
C0C08000C0C0A000F0FBFF00A4A0A000808080000000FF0000FF000000FFFF00FF000000FF00FF00FFFF0000FFFFFF000000000000000000000000000000000000000000000000000000000000000000000000000000000000000000FFFFFFFFFFFFFFFF000000000000000000000000000000000000000000000000FF0000
310
0000000000FF00000000000000000000000000000000000000000000FF0000000000000000FF00000000000000000000000000000000000000000000FF0000000000000000FF00000000000000000000000000000000000000000000FF0000000000000000FF00000000000000000000000000000000000000000000FF0000
310
000000000000FF00000000000000000000000000000000000000000000FF0000000000000000FF00000000000000000000000000000000000000000000FF0000000000000000FF00000000000000000000000000000000000000000000FF0000000000000000FF00000000000000000000000000000000000000000000FF00
310
00000000000000FF00000000000000000000000000000000000000000000FF0000000000000000FF00000000000000000000000000000000000000000000FF0000000000000000FF00000000000000000000000000000000000000000000FF0000000000000000FF00000000000000000000000000000000000000000000FF
310
0000000000000000FF00000000000000000000000000000000000000000000FF0000000000000000FF00000000000000000000000000000000000000000000FF0000000000000000FF00000000000000000000000000000000000000000000FF0000000000000000FF00000000000000000000000000000000000000000000
310
FF0000000000000000FF00000000000000000000000000000000000000000000FF0000000000000000FF00000000000000000000000000000000000000000000FF0000000000000000FF00000000000000000000000000000000000000000000FF0000000000000000FF000000000000000000000000000000000000000000
310
00FF0000000000000000FF00000000000000000000000000000000000000000000FF0000000000000000FF00000000000000000000000000000000000000000000FF0000000000000000FF00000000000000000000000000000000000000000000FF0000000000000000FF0000000000000000000000000000000000000000
310
0000FF0000000000000000FF0000000000000000000000000000000000000000000000FF000000000000FF000000000000000000000000000000000000000000000000FF000000000000FF00000000000000000000000000000000000000000000000000FFFFFFFFFFFF000000000000000000000000000000000000000000
310
000000000000FFFFFFFF00000000000000000000000000000000000000000000000000000000000000000000000000000000000000000000
102
{BLKREFS
331
BB
102
}
 70
     4
280
     1
281
     0
  0
BLOCK_RECORD
  5
AF
330
1
100
AcDbSymbolTableRecord
100
AcDbBlockTableRecord
  2
*D20
340
0
 70
     0
280
     1
281
     0
  0
BLOCK_RECORD
  5
A2
330
1
100
AcDbSymbolTableRecord
100
AcDbBlockTableRecord
  2
*D21
340
0
 70
     0
280
     1
281
     0
  0
BLOCK_RECORD
  5
95
330
1
100
AcDbSymbolTableRecord
100
AcDbBlockTableRecord
  2
*D22
340
0
 70
     0
280
     1
281
     0
  0
BLOCK_RECORD
  5
88
330
1
100
AcDbSymbolTableRecord
100
AcDbBlockTableRecord
  2
*D23
340
0
 70
     0
280
     1
281
     0
  0
BLOCK_RECORD
  5
79
330
1
100
AcDbSymbolTableRecord
100
AcDbBlockTableRecord
  2
*D24
340
0
 70
     0
280
     1
281
     0
  0
ENDTAB
  0
ENDSEC
  0
SECTION
  2
BLOCKS
  0
BLOCK
  5
5
330
2
100
AcDbEntity
  8
0
100
AcDbBlockBegin
  2
*MODEL_SPACE
 70
     0
 10
0.0
 20
0.0
 30
0.0
  3
*MODEL_SPACE
  1

  0
ENDBLK
  5
16
330
2
100
AcDbEntity
  8
0
100
AcDbBlockEnd
  0
BLOCK
  5
1D
330
1C
100
AcDbEntity
 67
     1
  8
0
100
AcDbBlockBegin
  2
*PAPER_SPACE
 70
     0
 10
0.0
 20
0.0
 30
0.0
  3
*PAPER_SPACE
  1

  0
ENDBLK
  5
1E
330
1C
100
AcDbEntity
 67
     1
  8
0
100
AcDbBlockEnd
  0
BLOCK
  5
31C
330
319
100
AcDbEntity
  8
0
370
     0
100
AcDbBlockBegin
  2
DIN A4
 70
     2
 10
0.0
 20
0.0
 30
0.0
  3
DIN A4
  1

  0
LINE
  5
31D
330
319
100
AcDbEntity
  8
01-99
100
AcDbLine
 10
204.0000075739527
 20
290.9999979434973
 30
0.0
 11
20.0000075739529
 21
290.9999979434973
 31
0.0
  0
LINE
  5
321
330
319
100
AcDbEntity
  8
01-99
100
AcDbLine
 10
204.0000075122353
 20
290.9999979871026
 30
0.0
 11
204.0000075122355
 21
5.999997987102574
 31
0.0
  0
LINE
  5
322
330
319
100
AcDbEntity
  8
01-99
100
AcDbLine
 10
20.0000075122355
 20
5.99999798710246
 30
0.0
 11
20.0000075122355
 21
290.9999979871026
 31
0.0
  0
LWPOLYLINE
  5
323
330
319
100
AcDbEntity
  8
02-99
100
AcDbPolyline
 90
        4
 70
     1
 43
0.0
 10
0.0000075122354986
 20
-0.0000020128974256
 10
210.0000075122355
 20
-0.0000020128974256
 10
210.0000075122355
 20
296.9999979871026
 10
0.0000075122354986
 20
296.9999979871026
  0
LINE
  5
326
330
319
100
AcDbEntity
  8
01-99
100
AcDbLine
 10
20.0000075122355
 20
5.99999798710246
 30
0.0
 11
204.0000075122355
 21
5.999997987102631
 31
0.0
  0
LINE
  5
327
330
319
100
AcDbEntity
  8
01-99
100
AcDbLine
 10
70.0000075122355
 20
11.11110909810247
 30
0.0
 11
20.0000075122355
 21
11.11110909810247
 31
0.0
  0
LINE
  5
328
330
319
100
AcDbEntity
  8
01-99
100
AcDbLine
 10
70.0000075122355
 20
16.22222020910249
 30
0.0
 11
20.0000075122355
 21
16.22222020910249
 31
0.0
  0
LINE
  5
329
330
319
100
AcDbEntity
  8
01-99
100
AcDbLine
 10
70.0000075122355
 20
21.3333313201025
 30
0.0
 11
20.0000075122355
 21
21.33333132010244
 31
0.0
  0
LINE
  5
32A
330
319
100
AcDbEntity
  8
01-99
100
AcDbLine
 10
115.0000075122355
 20
26.44444243110252
 30
0.0
 11
20.0000075122355
 21
26.44444243110246
 31
0.0
  0
LINE
  5
32B
330
319
100
AcDbEntity
  8
01-99
100
AcDbLine
 10
115.0000075122355
 20
31.55555354210253
 30
0.0
 11
20.0000075122355
 21
31.55555354210247
 31
0.0
  0
LINE
  5
32C
330
319
100
AcDbEntity
  8
01-99
100
AcDbLine
 10
45.0000075122355
 20
5.99999798710246
 30
0.0
 11
45.0000075122355
 21
11.11110909810247
 31
0.0
  0
LINE
  5
32D
330
319
100
AcDbEntity
  8
01-99
100
AcDbLine
 10
28.0000075122355
 20
11.11110909810247
 30
0.0
 11
28.0000075122355
 21
36.66666465376915
 31
0.0
  0
LINE
  5
32E
330
319
100
AcDbEntity
  8
01-99
100
AcDbLine
 10
70.0000075122355
 20
5.99999798710246
 30
0.0
 11
70.0000075122355
 21
51.99999798710246
 31
0.0
  0
LINE
  5
32F
330
319
100
AcDbEntity
  8
01-99
100
AcDbLine
 10
115.0000075122355
 20
5.99999798710246
 30
0.0
 11
115.0000075122355
 21
51.99999798710246
 31
0.0
  0
LINE
  5
330
330
319
100
AcDbEntity
  8
01-99
100
AcDbLine
 10
144.5000075122355
 20
5.99999798710246
 30
0.0
 11
144.5000075122355
 21
16.22222020910254
 31
0.0
  0
LINE
  5
331
330
319
100
AcDbEntity
  8
01-99
100
AcDbLine
 10
177.0000075122355
 20
5.99999798710246
 30
0.0
 11
177.0000075122355
 21
16.2222202091026
 31
0.0
  0
LINE
  5
332
330
319
100
AcDbEntity
  8
01-99
100
AcDbLine
 10
148.5000075122355
 20
36.6666646537692
 30
0.0
 11
148.5000075122355
 21
51.99999798710257
 31
0.0
  0
LINE
  5
333
330
319
100
AcDbEntity
  8
01-99
100
AcDbLine
 10
182.0000075122355
 20
36.6666646537692
 30
0.0
 11
182.0000075122355
 21
51.99999798710257
 31
0.0
  0
LINE
  5
334
330
319
100
AcDbEntity
  8
01-99
100
AcDbLine
 10
78.00000751223549
 20
21.33333132043583
 30
0.0
 11
78.00000751223549
 21
36.6666646537692
 31
0.0
  0
LINE
  5
335
330
319
100
AcDbEntity
  8
01-99
100
AcDbLine
 10
60.00319585166497
 20
11.11110909810247
 30
0.0
 11
60.00319585166497
 21
36.66666465376915
 31
0.0
  0
LINE
  5
336
330
319
100
AcDbEntity
  8
01-99
100
AcDbLine
 10
48.00319585166497
 20
11.11110909810247
 30
0.0
 11
48.00319585166497
 21
36.66666465376915
 31
0.0
  0
LINE
  5
337
330
319
100
AcDbEntity
  8
01-99
100
AcDbLine
 10
204.0000075122355
 20
51.99999798710257
 30
0.0
 11
20.00000751223368
 21
51.99999798710246
 31
0.0
  0
LINE
  5
338
330
319
100
AcDbEntity
  8
01-99
100
AcDbLine
 10
115.0000075122355
 20
21.33333132043583
 30
0.0
 11
70.0000075122355
 21
21.33333132043583
 31
0.0
  0
LINE
  5
339
330
319
100
AcDbEntity
  8
01-99
100
AcDbLine
 10
115.0000075122355
 20
36.6666646537692
 30
0.0
 11
20.0000075122355
 21
36.66666465376909
 31
0.0
  0
LINE
  5
33A
330
319
100
AcDbEntity
  8
01-99
100
AcDbLine
 10
92.0000075122355
 20
21.33333132043583
 30
0.0
 11
92.0000075122355
 21
51.99999798710251
 31
0.0
  0
LINE
  5
33B
330
319
100
AcDbEntity
  8
01-99
100
AcDbLine
 10
70.0000075122355
 20
36.66666465376915
 30
0.0
 11
78.00000751223549
 21
31.55555355376919
 31
0.0
  0
LINE
  5
33C
330
319
100
AcDbEntity
  8
01-99
100
AcDbLine
 10
70.0000075122355
 20
31.55555355376919
 30
0.0
 11
78.00000751223549
 21
36.6666646537692
 31
0.0
  0
LINE
  5
33D
330
319
100
AcDbEntity
  8
01-99
100
AcDbLine
 10
204.0000075122355
 20
44.33333132043583
 30
0.0
 11
115.0000075122355
 21
44.33333132043578
 31
0.0
  0
LINE
  5
33E
330
319
100
AcDbEntity
  8
01-99
100
AcDbLine
 10
115.0000075122355
 20
16.22222020910249
 30
0.0
 11
204.0000075122355
 21
16.2222202091026
 31
0.0
  0
LINE
  5
33F
330
319
100
AcDbEntity
  8
01-99
100
AcDbLine
 10
115.0000075122355
 20
36.6666646537692
 30
0.0
 11
204.0000075122355
 21
36.66666465376926
 31
0.0
  0
LINE
  5
340
330
319
100
AcDbEntity
  8
01-99
100
AcDbLine
 10
92.0000075122355
 20
41.77777576510249
 30
0.0
 11
70.0000075122355
 21
41.77777576510249
 31
0.0
  0
LINE
  5
341
330
319
100
AcDbEntity
  8
01-99
100
AcDbLine
 10
92.0000075122355
 20
46.8888868761025
 30
0.0
 11
70.0000075122355
 21
46.88888687610244
 31
0.0
  0
LINE
  5
342
330
319
100
AcDbEntity
  8
01-99
100
AcDbLine
 10
20.00000751223368
 20
51.99999798710246
 30
0.0
 11
20.00000751223368
 21
5.99999798710246
 31
0.0
  0
TEXT
  5
343
330
319
100
AcDbEntity
  8
08-99
100
AcDbText
 10
116.4997086805418
 20
32.66987169496042
 30
0.0
 40
2.5
  1
Benennung/Teil:
 51
15.0
  7
ROMANS8
100
AcDbText
  0
TEXT
  5
347
330
319
100
AcDbEntity
  8
08-99
100
AcDbText
 10
178.5028349598029
 20
12.01760068133313
 30
0.0
 40
2.7
  1
Ident-Nr.
 51
15.0
  7
ROMANS8
100
AcDbText
  0
TEXT
  5
348
330
319
100
AcDbEntity
  8
08-99
100
AcDbText
 10
93.50002924540357
 20
33.0555749488849
 30
0.0
 40
2.5
  1
Name:
 51
15.0
  7
ROMANS8
100
AcDbText
  0
TEXT
  5
349
330
319
100
AcDbEntity
  8
08-99
100
AcDbText
 10
79.50777665478042
 20
33.04841594810694
 30
0.0
 40
2.5
  1
Datum:
 50
0.102528160689452
 41
0.8933771909280748
 51
15.0
  7
ROMANS8
 72
     5
 11
90.67497366186243
 21
33.06839915456692
 31
0.0
100
AcDbText
  0
TEXT
  5
34A
330
319
100
AcDbEntity
  8
08-99
100
AcDbText
 10
29.50001559397086
 20
33.05597508608236
 30
0.0
 40
1.6
  1
Änderung:
 51
15.0
  7
ROMANS8
100
AcDbText
  0
TEXT
  5
34B
330
319
100
AcDbEntity
  8
08-99
100
AcDbText
 10
46.49994558798837
 20
9.111117286264914
 30
0.0
 40
1.0
  1
ERSETZT.DURCH:
 51
15.0
  7
ROMANS8
100
AcDbText
  0
TEXT
  5
34C
330
319
100
AcDbEntity
  8
08-99
100
AcDbText
 10
21.49936832790721
 20
9.110852190038713
 30
0.0
 40
1.0
  1
ERSETZT.FÜR:
 51
15.0
  7
ROMANS8
100
AcDbText
  0
TEXT
  5
34D
330
319
100
AcDbEntity
  8
08-99
100
AcDbText
 10
145.9909143543897
 20
12.61295485116625
 30
0.0
 40
2.112
  1
AUFTRAGS.NR.:
 51
15.0
  7
ROMANS8
100
AcDbText
  0
TEXT
  5
34E
330
319
100
AcDbEntity
  8
08-99
100
AcDbText
 10
116.5034717172479
 20
12.61092664313281
 30
0.0
 40
2.112
  1
Sonder-Nr:
 51
15.0
  7
ROMANS8
100
AcDbText
  0
TEXT
  5
34F
330
319
100
AcDbEntity
  8
08-99
100
AcDbText
 10
99.69631500731376
 20
49.92370649414477
 30
0.0
 40
1.349999999999999
  1
Format
 51
15.0
  7
ROMANS8
100
AcDbText
  0
TEXT
  5
350
330
319
100
AcDbEntity
  8
08-99
100
AcDbText
 10
98.30438725900334
 20
44.6416167802032
 30
0.0
 40
1.822499999999999
  1
Normen
 51
15.0
  7
ROMANS8
100
AcDbText
  0
TEXT
  5
351
330
319
100
AcDbEntity
  8
08-99
100
AcDbText
 10
21.50003711613706
 20
33.05556582266059
 30
0.0
 40
1.6
  1
Zust.
 51
15.0
  7
ROMANS8
100
AcDbText
  0
TEXT
  5
352
330
319
100
AcDbEntity
  8
08-99
100
AcDbText
 10
49.50318821340468
 20
33.05555723859902
 30
0.0
 40
1.6
  1
Datum:
 51
15.0
  7
ROMANS8
100
AcDbText
  0
TEXT
  5
353
330
319
100
AcDbEntity
  8
08-99
100
AcDbText
 10
61.50322112916754
 20
33.05556204504791
 30
0.0
 40
1.6
  1
Name:
 51
15.0
  7
ROMANS8
100
AcDbText
  0
TEXT
  5
354
330
319
100
AcDbEntity
  8
08-99
100
AcDbText
 10
71.1545619578267
 20
28.03813755505132
 30
0.0
 40
1.6
  1
Erst.
 51
15.0
  7
ROMANS8
100
AcDbText
  0
TEXT
  5
355
330
319
100
AcDbEntity
  8
08-99
100
AcDbText
 10
70.51718787454618
 20
23.1974490465235
 30
0.0
 40
1.6
  1
Bearb.
 51
15.0
  7
ROMANS8
100
AcDbText
  0
TEXT
  5
356
330
319
100
AcDbEntity
  8
08-99
100
AcDbText
 10
149.4308124240035
 20
41.61949547980938
 30
0.0
 40
2.0
  1
Zuschnittsbreite:
 51
15.0
  7
ROMANS8
100
AcDbText
  0
TEXT
  5
357
330
319
100
AcDbEntity
  8
08-99
100
AcDbText
 10
115.9850022862677
 20
41.73762161521608
 30
0.0
 40
2.0
  1
Zuschnittslänge:
 51
15.0
  7
ROMANS8
100
AcDbText
  0
LWPOLYLINE
  5
358
330
319
100
AcDbEntity
  8
06-99
100
AcDbPolyline
 90
      133
 70
     1
 43
0.010692
 10
93.76754732423549
 20
18.87656283643588
 10
94.00905465623557
 20
19.08724513243589
 10
93.92285931623556
 20
19.22625538843579
 10
93.82427194823552
 20
19.35180441643592
 10
93.71363469623569
 20
19.46393854843592
 10
93.59130396023548
 20
19.56271124443577
 10
93.45762188423558
 20
19.64816170843585
 10
93.31293417623559
 20
19.72033627243581
 10
93.15759367223554
 20
19.77928839643584
 10
92.99194251623569
 20
19.82505728443584
 10
92.81632998023557
 20
19.85768926843593
 10
92.63110533623573
 20
19.87723780843589
 10
92.43661429223564
 20
19.88374210843585
 10
92.27568900023554
 20
19.87767974443585
 10
92.11994932823543
 20
19.85975638843581
 10
91.96972672823566
 20
19.83036051643597
 10
91.82535621623562
 20
19.78988773243583
 10
91.68716924423554
 20
19.73873364043595
 10
91.55549013623559
 20
19.67729028043584
 10
91.43066103623565
 20
19.60594969243584
 10
91.31300626823557
 20
19.52510391643579
 10
91.20285728423553
 20
19.43514499243588
 10
91.10055266423561
 20
19.33647208843587
 10
91.00641316823569
 20
19.22947011643589
 10
90.92077737623563
 20
19.11454180843589
 10
90.84397674023561
 20
18.99207207643587
 10
90.77633914823563
 20
18.86245652443591
 10
90.71819961623559
 20
18.72608719243584
 10
90.66988603223562
 20
18.58336324843583
 10
90.63172984823566
 20
18.43466960443584
 10
90.60406964423547
 20
18.28040542843581
 10
90.5872261802356
 20
18.12095919643588
 10
90.58154160023562
 20
17.95672651243586
 10
90.58715490023557
 20
17.78762184043592
 10
90.60380590823573
 20
17.62428728443586
 10
90.63119524823539
 20
17.46704004043585
 10
90.66902354423545
 20
17.31619374043578
 10
90.71699498423553
 20
17.17206201643586
 10
90.77481375623566
 20
17.03495850043589
 10
90.84218404823563
 20
16.90519326043585
 10
90.91880648423559
 20
16.78308349243582
 10
91.00438525223561
 20
16.66893926443583
 10
91.09862810423559
 20
16.56307777243586
 10
91.2012285362355
 20
16.46580908443587
 10
91.31190142823554
 20
16.37745039643579
 10
91.43034027623562
 20
16.29831177643592
 10
91.55625283223551
 20
16.2287068564359
 10
91.6893397202355
 20
16.16895283243582
 10
91.82930869223552
 20
16.11935977243587
 10
91.9758568082357
 20
16.08024130843591
 10
92.1286953842355
 20
16.05191107243593
 10
92.28751791623555
 20
16.03468269643588
 10
92.45203572023561
 20
16.02886981243591
 10
92.61603318023563
 20
16.03412314843587
 10
92.77336596023557
 20
16.0497619804359
 10
92.92384516823554
 20
16.07559385243587
 10
93.06728191223546
 20
16.11142630843591
 10
93.20349086423565
 20
16.15707045643586
 10
93.33227956823547
 20
16.21233740443585
 10
93.45346269623556
 20
16.27703469643586
 10
93.56684422823562
 20
16.35097700443589
 10
93.67224596423559
 20
16.43397187243585
 10
93.76946832023557
 20
16.52582328043587
 10
93.85832953223555
 20
16.62635302843586
 10
93.93864070823568
 20
16.73535796843583
 10
94.01020939223556
 20
16.85265990043587
 10
94.07284669223557
 20
16.97805924043587
 10
94.12636728023565
 20
17.11137066043579
 10
94.17058226423549
 20
17.25240170443584
 10
94.20529562423556
 20
17.40096348043585
 10
94.23032916023558
 20
17.55686709643589
 10
94.2454868522357
 20
17.71992366043582
 10
94.25057980823547
 20
17.88993715243583
 10
94.25057980823547
 20
17.88993715243583
 10
94.25057980823547
 20
17.94131934043588
 10
92.6164715522356
 20
17.94131934043588
 10
92.6164715522356
 20
17.65354772443584
 10
93.88573312823544
 20
17.65354772443584
 10
93.87499479623548
 20
17.49100437643585
 10
93.84766248023552
 20
17.33635885243586
 10
93.80444185223566
 20
17.19027405643589
 10
93.74603858423554
 20
17.05341645643585
 10
93.67316547623572
 20
16.92644182843588
 10
93.58653176423562
 20
16.81002376843588
 10
93.4868359922356
 20
16.70481448843588
 10
93.37479452423556
 20
16.61148758443585
 10
93.2511130322355
 20
16.53069526843586
 10
93.11649718823563
 20
16.46310757243589
 10
92.9716562282355
 20
16.40938383643583
 10
92.81729938823563
 20
16.37019052843595
 10
92.65413234023563
 20
16.34618698843581
 10
92.48286432023567
 20
16.3380396844359
 10
92.31820395623563
 20
16.34599096843584
 10
92.15990889623553
 20
16.3693743724358
 10
92.00857076423554
 20
16.40748066043585
 10
91.86477762023541
 20
16.45960416043584
 10
91.7291103962356
 20
16.52503563643586
 10
91.60216071623555
 20
16.60306585243592
 10
91.48451307623558
 20
16.69299270043586
 10
91.37675910023554
 20
16.79410338043595
 10
91.27948328423569
 20
16.90569222043587
 10
91.19327012423552
 20
17.02705354843584
 10
91.11871124423558
 20
17.15747456443586
 10
91.05639114023555
 20
17.29625316043587
 10
91.00689787223556
 20
17.44268010043583
 10
90.97081950023541
 20
17.5960425844359
 10
90.94874052023547
 20
17.75564206843597
 10
90.94125255623557
 20
17.92076575243578
 10
90.94763924423572
 20
18.08913980443589
 10
90.96654270023558
 20
18.25115211643583
 10
90.99756375623568
 20
18.40630372843583
 10
91.04030680823555
 20
18.55409924443586
 10
91.09437981623548
 20
18.69404326843585
 10
91.15938361223554
 20
18.82564396843588
 10
91.23492259223556
 20
18.9483988204359
 10
91.32060471623564
 20
19.06181955643586
 10
91.41603081623546
 20
19.16540365243594
 10
91.52081241623548
 20
19.25865927643582
 10
91.63454322023566
 20
19.34108746843589
 10
91.75683831623567
 20
19.41219639643589
 10
91.88729497223542
 20
19.47148710043586
 10
92.02552114823564
 20
19.51846418443586
 10
92.17112480423569
 20
19.55263225243584
 10
92.32370320823568
 20
19.57349947243585
 10
92.48286432023567
 20
19.58056332043588
 10
92.66056892423561
 20
19.57164619243588
 10
92.83032224423564
 20
19.54500885643586
 10
92.99178570023562
 20
19.50081882043588
 10
93.14462071223559
 20
19.43924359243584
 10
93.28848870023561
 20
19.36045780843585
 10
93.42305464823565
 20
19.26462541243592
 10
93.54797997623554
 20
19.15192104043586
 10
93.66292254023566
 20
19.02250863643593
  0
LWPOLYLINE
  5
35B
330
319
100
AcDbEntity
  8
06-99
100
AcDbPolyline
 90
       12
 70
     1
 43
0.010692
 10
90.43900298423549
 20
12.25281181243593
 10
92.32227048023563
 20
12.25281181243593
 10
92.46760683623554
 20
13.00767770443588
 10
91.56487771223558
 20
13.00767770443588
 10
91.62106060823546
 20
13.29950515243581
 10
92.41872301223557
 20
13.29950515243581
 10
92.55580870823544
 20
14.01156027643583
 10
91.75814630423545
 20
14.01156027643583
 10
91.80985281623547
 20
14.28005421643581
 10
92.68923417623549
 20
14.28005421643581
 10
92.83455984023559
 20
15.03490585243588
 10
90.97464010823561
 20
15.03490585243588
  0
LWPOLYLINE
  5
35C
330
319
100
AcDbEntity
  8
06-99
100
AcDbPolyline
 90
        4
 70
     1
 43
0.010692
 10
76.60861942823558
 20
12.88042508443584
 10
89.06586862823544
 20
12.88042508443584
 10
88.94229049223557
 20
12.25209544843585
 10
76.48504485623553
 20
12.25209544843585
  0
SOLID
  5
35D
330
319
100
AcDbEntity
  8
06-99
100
AcDbTrace
 10
76.60861942823558
 20
12.88042508443584
 30
0.0
 11
89.06586862823544
 21
12.88042508443584
 31
0.0
 12
76.48504485623553
 22
12.25209544843585
 32
0.0
 13
88.94229049223557
 23
12.25209544843585
 33
0.0
  0
LWPOLYLINE
  5
35E
330
319
100
AcDbEntity
  8
06-99
100
AcDbPolyline
 90
       10
 70
     1
 43
0.010692
 10
82.3458504002356
 20
16.02886981243591
 10
83.32219038023552
 20
19.10266656043586
 10
84.33965535623546
 20
16.02886981243591
 10
85.56780619223562
 20
19.80153132043585
 10
85.22351666423551
 20
19.80153132043585
 10
84.33965535623546
 20
16.89302932843583
 10
83.32219038023552
 20
19.9454100004358
 10
82.3458504002356
 20
16.86733645243589
 10
81.42601764023565
 20
19.80153132043585
 10
81.07658882423564
 20
19.80153132043585
  0
LWPOLYLINE
  5
35F
330
319
100
AcDbEntity
  8
06-99
100
AcDbPolyline
 90
        3
 70
     1
 43
0.010692
 10
87.32442338423565
 20
17.65868344843591
 10
87.97704168023555
 20
19.25683094443582
 10
88.6039706642355
 20
17.65868344843591
  0
LWPOLYLINE
  5
360
330
319
100
AcDbEntity
  8
06-99
100
AcDbPolyline
 90
        7
 70
     1
 43
0.010692
 10
86.38318880423563
 20
16.12735738843582
 10
86.72320153223555
 20
16.12735738843582
 10
87.21136974023549
 20
17.37092608843585
 10
88.71187076423566
 20
17.37092608843585
 10
89.17949964023549
 20
16.12735738843582
 10
89.54434632023552
 20
16.12735738843582
 10
87.99759883223558
 20
19.9454100004358
  0
LWPOLYLINE
  5
361
330
319
100
AcDbEntity
  8
06-99
100
AcDbPolyline
 90
        8
 70
     1
 43
0.010692
 10
98.92981243223543
 20
12.25281181243593
 10
100.0043869442354
 20
12.25281181243593
 10
100.1574144122356
 20
12.60301045243585
 10
100.9122803042355
 20
12.60301045243585
 10
100.9343521562355
 20
12.25281181243593
 10
102.0082815842354
 20
12.25281181243593
 10
101.5711569842355
 20
15.03490585243588
 10
100.4583193682355
 20
15.03490585243588
  0
LWPOLYLINE
  5
362
330
319
100
AcDbEntity
  8
06-99
100
AcDbPolyline
 90
       34
 70
     1
 43
0.010692
 10
96.0434642642356
 20
13.66137589243584
 10
96.07848769223544
 20
13.66137589243584
 10
96.0642316922356
 20
13.48699650043591
 10
96.06380757623552
 20
13.33509882043586
 10
96.06790617623554
 20
13.20222577243589
 10
96.09523849223561
 20
12.25281181243593
 10
96.9668360762354
 20
12.25281181243593
 10
98.31569602823542
 20
15.03490585243588
 10
97.31181345623557
 20
15.03490585243588
 10
96.85792023623552
 20
13.80922843243581
 10
96.80781752423563
 20
13.66872486043581
 10
96.74884758023544
 20
13.48671138043579
 10
96.69003445223545
 20
13.26059696443593
 10
96.66670094423549
 20
13.26059696443593
 10
96.6884270882355
 20
13.45803187243587
 10
96.69298544423558
 20
13.61569254043581
 10
96.69194475623548
 20
13.73531107243588
 10
96.67756045223544
 20
15.03490585243588
 10
95.97329266823548
 20
15.03490585243588
 10
95.45849068823557
 20
13.73531107243588
 10
95.41138886423542
 20
13.61569254043581
 10
95.35523448023562
 20
13.45803187243587
 10
95.30092981223551
 20
13.26059696443593
 10
95.27759630423545
 20
13.26059696443593
 10
95.30585169623558
 20
13.48671138043579
 10
95.31697137623556
 20
13.66872486043581
 10
95.32096662023551
 20
13.80922843243581
 10
95.33903966423546
 20
15.03490585243588
 10
94.33451200823553
 20
15.03490585243588
 10
94.61274279623561
 20
12.25281181243593
 10
95.48433681623547
 20
12.25281181243593
 10
95.87724643223557
 20
13.20222577243589
 10
95.93252050823551
 20
13.33509882043586
 10
95.99058519623557
 20
13.48699650043591
  0
LWPOLYLINE
  5
363
330
319
100
AcDbEntity
  8
06-99
100
AcDbPolyline
 90
       10
 70
     1
 43
0.010692
 10
100.4520752402354
 20
13.26448172443588
 10
100.5983667482354
 20
13.57965693643587
 10
100.6731180842355
 20
13.74409276843596
 10
100.7541598802355
 20
13.94570824843589
 10
100.8288363722355
 20
14.19056217643595
 10
100.8482958122355
 20
14.19056217643595
 10
100.8286724282354
 20
13.94570824843589
 10
100.8320796122355
 20
13.74409276843596
 10
100.8435129242355
 20
13.57965693643587
 10
100.8684181562356
 20
13.26448172443588
  0
LWPOLYLINE
  5
364
330
319
100
AcDbEntity
  8
06-99
100
AcDbPolyline
 90
       23
 70
     1
 43
0.010692
 10
103.5867130322356
 20
12.25281181243593
 10
104.5672478402354
 20
12.25281181243593
 10
104.7440436242355
 20
13.17110136043584
 10
105.0536340482356
 20
12.25281181243593
 10
106.1742447482354
 20
12.25281181243593
 10
105.6490750922355
 20
13.38511243243585
 10
105.8084357882355
 20
13.42380678043588
 10
105.9537079922354
 20
13.49881472443587
 10
106.0813562162355
 20
13.60690015243585
 10
106.1878378442354
 20
13.74481626043587
 10
106.2696066962354
 20
13.90931980843584
 10
106.3231201562354
 20
14.09716755643586
 10
106.3446075122355
 20
14.26808986843588
 10
106.3403093282354
 20
14.42329850443593
 10
106.3102362962355
 20
14.56225886443587
 10
106.2543991082354
 20
14.68443278443578
 10
106.1728155842354
 20
14.78928566443591
 10
106.0654999802355
 20
14.87627577643587
 10
105.9324594242355
 20
14.94487208443587
 10
105.7737153002354
 20
14.99453286043592
 10
105.5892711722355
 20
15.02472350443588
 10
105.3791519882354
 20
15.03490585243588
 10
104.1223501562355
 20
15.03490585243588
  0
LWPOLYLINE
  5
365
330
319
100
AcDbEntity
  8
06-99
100
AcDbPolyline
 90
        9
 70
     1
 43
0.010692
 10
104.9650401362355
 20
14.31896240443586
 10
105.1206907082355
 20
14.31896240443586
 10
105.2773605842356
 20
14.28538239643581
 10
105.3582277442354
 20
14.19040892443593
 10
105.3632244722355
 20
14.04269894443587
 10
105.3008722922355
 20
13.89699906043591
 10
105.1832994962355
 20
13.80577848043589
 10
105.0158200082354
 20
13.77421926043581
 10
104.8601694362355
 20
13.77421926043581
  0
LWPOLYLINE
  5
366
330
319
100
AcDbEntity
  8
06-99
100
AcDbPolyline
 90
       12
 70
     1
 43
0.010692
 10
100.5798090002356
 20
16.12735738843582
 10
102.3989066762356
 20
16.12735738843582
 10
102.3989066762356
 20
16.4408218804358
 10
100.9138270802356
 20
16.4408218804358
 10
100.9138270802356
 20
18.02353012843594
 10
102.3989066762356
 20
18.02353012843594
 10
102.3989066762356
 20
18.33699462043592
 10
100.9138270802356
 20
18.33699462043592
 10
100.9138270802356
 20
19.48806682843587
 10
102.3989066762356
 20
19.48806682843587
 10
102.3989066762356
 20
19.80153132043585
 10
100.5798090002356
 20
19.80153132043585
  0
LWPOLYLINE
  5
367
330
319
100
AcDbEntity
  8
06-99
100
AcDbPolyline
 90
        8
 70
     1
 43
0.010692
 10
95.85303261623565
 20
16.12735738843582
 10
96.18705426023556
 20
16.12735738843582
 10
96.18705426023556
 20
19.09753083643585
 10
98.76667389623552
 20
16.01858410843584
 10
98.76667389623552
 20
19.80153132043585
 10
98.4326665082356
 20
19.80153132043585
 10
98.4326665082356
 20
16.88274362443587
 10
95.85303261623565
 20
19.95568144843582
  0
LWPOLYLINE
  5
368
330
319
100
AcDbEntity
  8
06-99
100
AcDbPolyline
 90
       19
 70
     1
 43
0.010692
 10
104.4484312082357
 20
19.5086239804358
 10
104.7824385962356
 20
19.5086239804358
 10
104.9866237202355
 20
19.50030560443588
 10
105.1604542562355
 20
19.47385716043584
 10
105.3049031762356
 20
19.42705471243579
 10
105.4209256322356
 20
19.35767076043584
 10
105.5094874682356
 20
19.26347780443581
 10
105.5715509642355
 20
19.14224834443593
 10
105.6080855282355
 20
18.9917477524358
 10
105.6200498762355
 20
18.80975922043586
 10
105.6074547002355
 20
18.63100680043584
 10
105.5693840522356
 20
18.48585933643585
 10
105.5054245082356
 20
18.37130168443593
 10
105.4151448242355
 20
18.28432582843589
 10
105.2981315762356
 20
18.22192018843589
 10
105.1539570842356
 20
18.18106962043583
 10
104.9821972322354
 20
18.15876967243594
 10
104.7824385962356
 20
18.15200520043589
 10
104.4484312082357
 20
18.15200520043589
  0
LWPOLYLINE
  5
369
330
319
100
AcDbEntity
  8
06-99
100
AcDbPolyline
 90
       29
 70
     1
 43
0.010692
 10
106.3446075122355
 20
16.12735738843582
 10
105.0239637482355
 20
17.87965144843588
 10
105.2123817362357
 20
17.89225018843592
 10
105.3829084442356
 20
17.92941914443582
 10
105.5344069562356
 20
17.99022811243594
 10
105.6657296642355
 20
18.07375401643588
 10
105.7757360882356
 20
18.17905596043584
 10
105.8632821842355
 20
18.30521443243589
 10
105.9272310362355
 20
18.45129210043592
 10
105.9664386002355
 20
18.6163587604359
 10
105.9797608322353
 20
18.79948777243589
 10
105.9699455762357
 20
18.97455145243589
 10
105.9404891162357
 20
19.13261485243589
 10
105.8913629402356
 20
19.27374568843589
 10
105.8225492282356
 20
19.39801167643577
 10
105.7340230322356
 20
19.50548409643591
 10
105.6257594042356
 20
19.59623422843589
 10
105.4977369602356
 20
19.67032622443582
 10
105.3499307522354
 20
19.72783136443587
 10
105.1823193962355
 20
19.76882449243589
 10
104.9948815082355
 20
19.79336619643589
 10
104.7875885762355
 20
19.80153132043585
 10
104.7875885762355
 20
19.80153132043585
 10
104.1144131282356
 20
19.80153132043585
 10
104.1144131282356
 20
16.12735738843582
 10
104.4484312082357
 20
16.12735738843582
 10
104.4484312082357
 20
17.87965144843588
 10
104.6488456202355
 20
17.87965144843588
 10
105.9386465282355
 20
16.12735738843582
  0
TEXT
  5
36A
330
319
100
AcDbEntity
  8
06-99
100
AcDbText
 10
85.6083656112951
 20
9.63320697282171
 30
0.0
 40
1.4256
  1
GmbH & Co KG
 41
1.199203187251
 51
15.0
  7
ROMAND8
 72
     5
 11
106.0419656112951
 21
9.63320697282171
 31
0.0
100
AcDbText
  0
TEXT
  5
36C
330
319
100
AcDbEntity
  8
06-99
100
AcDbText
 10
85.70982236587898
 20
7.391013700398161
 30
0.0
 40
1.4256
  1
72774 Reutlingen
 50
0.5663244663116128
 41
1.087840993687879
 51
15.0
  7
ROMAND8
 72
     5
 11
105.943422365879
 21
7.59101370039815
 31
0.0
100
AcDbText
  0
TEXT
  5
36D
330
319
100
AcDbEntity
  8
08-99
100
AcDbText
 10
73.414125712073
 20
48.45008961754581
 30
0.0
 40
2.25
  1
Zul. Abw.
 51
15.0
  7
ROMANS8
100
AcDbText
  0
TEXT
  5
36E
330
319
100
AcDbEntity
  8
08-99
100
AcDbText
 10
123.2099338325191
 20
49.28616214647601
 30
0.0
 40
2.0
  1
Mat. Art.
 51
15.0
  7
ROMANS8
100
AcDbText
  0
TEXT
  5
36F
330
319
100
AcDbEntity
  8
08-99
100
AcDbText
 10
155.4865384826082
 20
49.4043113704472
 30
0.0
 40
2.0
  1
Oberfläche:
 51
15.0
  7
ROMANS8
100
AcDbText
  0
TEXT
  5
370
330
319
100
AcDbEntity
  8
08-99
100
AcDbText
 10
184.762545350816
 20
41.73764470378046
 30
0.0
 40
2.0
  1
Blech Dicke:
 51
15.0
  7
ROMANS8
100
AcDbText
  0
TEXT
  5
371
330
319
100
AcDbEntity
  8
08-99
100
AcDbText
 10
187.4380355407932
 20
49.28616214647604
 30
0.0
 40
2.0
  1
Maßstab:
 51
15.0
  7
ROMANS8
100
AcDbText
  0
LINE
  5
372
330
319
100
AcDbEntity
  8
01-99
100
AcDbLine
 10
115.0000075122355
 20
46.8888868761025
 30
0.0
 11
92.0000075122355
 21
46.8888868761025
 31
0.0
  0
LINE
  5
373
330
319
100
AcDbEntity
  8
01-99
100
AcDbLine
 10
115.0000075122355
 20
44.33333132043578
 30
0.0
 11
92.0000075122355
 21
44.33333132043578
 31
0.0
  0
LINE
  5
374
330
319
100
AcDbEntity
  8
01-99
100
AcDbLine
 10
115.0000075122355
 20
40.49999798710246
 30
0.0
 11
92.00000751223544
 21
40.49999798710246
 31
0.0
  0
ATTDEF
  5
375
330
319
100
AcDbEntity
  8
06-99
100
AcDbText
 10
116.4954542514127
 20
26.18783668438471
 30
0.0
 40
4.0
  1

 41
0.9
  7
ROMANS8
100
AcDbAttributeDefinition
280
     0
  3
Benennung/Teil
  2
TEILE
 70
     0
280
     0
  0
ATTDEF
  5
376
330
319
100
AcDbEntity
  8
06-99
100
AcDbText
 10
116.4954542514127
 20
19.29547648609889
 30
0.0
 40
4.0
  1

 41
0.9
  7
ROMANS8
100
AcDbAttributeDefinition
280
     0
  3
Benennung/Teil2
  2
TEILE2
 70
     0
280
     0
  0
ATTDEF
  5
377
330
319
100
AcDbEntity
  8
06-99
100
AcDbText
 10
191.3473937239501
 20
45.33333132043583
 30
0.0
 40
3.375
  1

  7
ROMANS8
100
AcDbAttributeDefinition
280
     0
  3
Maßstab
  2
:
 70
     0
280
     0
  0
ATTDEF
  5
378
330
319
100
AcDbEntity
  8
06-99
100
AcDbText
 10
92.99707531160292
 20
27.44168345513378
 30
0.0
 40
2.5
  1

 41
0.9
  7
ROMANS8
100
AcDbAttributeDefinition
280
     0
  3
Name
  2
NAME
 70
     0
280
     0
  0
ATTDEF
  5
379
330
319
100
AcDbEntity
  8
06-99
100
AcDbText
 10
79.49315396412956
 20
27.46123316121373
 30
0.0
 40
2.5
  1

 50
359.9144597696142
 41
0.9542572414211148
  7
ROMANS8
 72
     5
 11
90.73974463267431
 21
27.44444245376917
 31
0.0
100
AcDbAttributeDefinition
280
     0
  3
Datum
  2
DATUM
 70
     0
280
     0
  0
ATTDEF
  5
37A
330
319
100
AcDbEntity
  8
06-99
100
AcDbText
 10
178.5063514793938
 20
7.4928977873912
 30
0.0
 40
2.99376
  1

  7
ROMANS8
100
AcDbAttributeDefinition
280
     0
  3
Ident-Nummer
  2
ID.NR
 70
     0
280
     0
  0
ATTDEF
  5
37B
330
319
100
AcDbEntity
  8
06-99
100
AcDbText
 10
116.731273767946
 20
37.66666463154695
 30
0.0
 40
3.0
  1

 41
0.9
  7
ROMANS8
100
AcDbAttributeDefinition
280
     0
  3
Zuschnitts.Länge
  2
LÄNGE
 70
     0
280
     0
  0
ATTDEF
  5
37C
330
319
100
AcDbEntity
  8
06-99
100
AcDbText
 10
150.1808124240052
 20
37.67810185754732
 30
0.0
 40
3.0
  1

 41
0.9
  7
ROMANS8
100
AcDbAttributeDefinition
280
     0
  3
Zuschnitts Breite
  2
BREITE
 70
     0
280
     0
  0
ATTDEF
  5
37D
330
319
100
AcDbEntity
  8
06-99
100
AcDbText
 10
190.6090996389673
 20
37.66666465376926
 30
0.0
 40
3.09375
  1

  7
ROMANS8
100
AcDbAttributeDefinition
280
     0
  3
Blech.Dicke
  2
1.0
 70
     0
280
     0
  0
ATTDEF
  5
37E
330
319
100
AcDbEntity
  8
06-99
100
AcDbText
 10
164.1277931136382
 20
45.33333132043594
 30
0.0
 40
3.0
  1

  7
ROMANS8
 72
     1
 11
164.1277931136382
 21
45.33333132043594
 31
0.0
100
AcDbAttributeDefinition
280
     0
  3
Oberfläche
  2
IV
 70
     0
280
     0
  0
ATTDEF
  5
37F
330
319
100
AcDbEntity
  8
06-99
100
AcDbText
 10
123.2747480483513
 20
45.3333313204358
 30
0.0
 40
3.375
  1
1.4301
  7
ROMANS8
100
AcDbAttributeDefinition
280
     0
  3
Mat.Art
  2
1.4301
 70
     0
280
     0
  0
ATTDEF
  5
380
330
319
100
AcDbEntity
  8
06-99
100
AcDbText
 10
146.0006413991156
 20
7.504394591457128
 30
0.0
 40
3.168
  1

 41
0.9
  7
ROMANS8
100
AcDbAttributeDefinition
280
     0
  3
Auftrags Nr.
  2
AUFTRAGS.NR.
 70
     0
280
     0
  0
ATTDEF
  5
381
330
319
100
AcDbEntity
  8
06-99
100
AcDbText
 10
116.5000075122355
 20
7.499997987102517
 30
0.0
 40
3.168
  1

 41
0.9
  7
ROMANS8
100
AcDbAttributeDefinition
280
     0
  3
Sonder-NR,WPS
  2
SONDER-NR
 70
     0
280
     0
  0
ATTDEF
  5
382
330
319
100
AcDbEntity
  8
06-99
100
AcDbText
 10
46.4997585072438
 20
6.601808056362358
 30
0.0
 40
1.5
  1

 41
0.9
  7
ROMANS8
100
AcDbAttributeDefinition
280
     0
  3
ERSETZT.Durch
  2
ERSETZT.DURCH
 70
     0
280
     0
  0
ATTDEF
  5
383
330
319
100
AcDbEntity
  8
06-99
100
AcDbText
 10
21.49947529243403
 20
6.597454384974923
 30
0.0
 40
1.5
  1

 41
0.9
  7
ROMANS8
100
AcDbAttributeDefinition
280
     0
  3
ERSETZT.Für
  2
ERSETZT.FÜR
 70
     0
280
     0
  0
ATTDEF
  5
384
330
319
100
AcDbEntity
  8
06-99
100
AcDbText
 10
99.97308015867309
 20
47.66850912711049
 30
0.0
 40
1.287
  1
DIN A4
  7
ROMANS8
 72
     1
 11
103.2518658729588
 21
47.66850912711049
 31
0.0
100
AcDbAttributeDefinition
280
     0
  3
Format
  2
FORMAT
 70
     0
280
     0
  0
ATTDEF
  5
385
330
319
100
AcDbEntity
  8
06-99
100
AcDbText
 10
95.9874465096418
 20
37.19696532096725
 30
0.0
 40
2.34
  1
DIN 2768
  7
ROMANS8
 72
     1
 11
104.0103036524989
 21
37.19696532096725
 31
0.0
100
AcDbAttributeDefinition
280
     0
  3
Norm / Kanten
  2
NORM2
 70
     0
280
     0
  0
ATTDEF
  5
386
330
319
100
AcDbEntity
  8
06-99
100
AcDbText
 10
92.81173222392748
 20
41.03029865430056
 30
0.0
 40
2.34
  1
DIN 6930-M
  7
ROMANS8
 72
     1
 11
103.5088750810703
 21
41.03029865430056
 31
0.0
100
AcDbAttributeDefinition
280
     0
  3
Norm / Fräsen
  2
NORM1
 70
     0
280
     0
  0
ENDBLK
  5
387
330
319
100
AcDbEntity
  8
0
370
     0
100
AcDbBlockEnd
  0
BLOCK
  5
2DF
330
2DE
100
AcDbEntity
  8
0
370
     0
100
AcDbBlockBegin
  2
*D1
 70
     1
 10
0.0
 20
0.0
 30
0.0
  3
*D1
  1

  0
LINE
  5
2E0
330
2DE
100
AcDbEntity
  8
09-01
 62
     4
440
 16777216
370
    -2
100
AcDbLine
 10
148.2098580707654
 20
513.9774058986662
 30
0.0
 11
167.5046109850816
 21
513.9774058986662
 31
0.0
  0
LINE
  5
2E1
330
2DE
100
AcDbEntity
  8
09-01
 62
     4
440
 16777216
370
    -2
100
AcDbLine
 10
147.4098580707653
 20
451.9774058986662
 30
0.0
 11
167.5046109850816
 21
451.9774058986662
 31
0.0
  0
LINE
  5
2E2
330
2DE
100
AcDbEntity
  8
09-01
 62
     4
440
 16777216
370
    -2
100
AcDbLine
 10
165.5046109850816
 20
508.9774058986662
 30
0.0
 11
165.5046109850816
 21
456.9774058986662
 31
0.0
  0
SOLID
  5
2E3
330
2DE
100
AcDbEntity
  8
09-01
 62
     4
440
 16777216
100
AcDbTrace
 10
164.6712776517482
 20
508.9774058986662
 30
0.0
 11
166.3379443184149
 21
508.9774058986662
 31
0.0
 12
165.5046109850816
 22
513.9774058986662
 32
0.0
 13
165.5046109850816
 23
513.9774058986662
 33
0.0
  0
SOLID
  5
2E4
330
2DE
100
AcDbEntity
  8
09-01
 62
     4
440
 16777216
100
AcDbTrace
 10
164.6712776517482
 20
456.9774058986662
 30
0.0
 11
166.3379443184149
 21
456.9774058986662
 31
0.0
 12
165.5046109850816
 22
451.9774058986662
 32
0.0
 13
165.5046109850816
 23
451.9774058986662
 33
0.0
  0
MTEXT
  5
2E5
330
2DE
100
AcDbEntity
  8
09-01
 62
     1
440
 16777216
100
AcDbMText
 10
161.0046109850815
 20
482.9774058986662
 30
0.0
 40
5.0
 41
0.0
 46
0.0
 71
     5
 72
     1
  1
62
 11
0.0000000000000001
 21
1.0
 31
0.0
 73
     1
 44
1.0
  0
POINT
  5
2E6
330
2DE
100
AcDbEntity
  8
Defpoints
 62
     0
440
 16777216
100
AcDbPoint
 10
146.2098580707654
 20
513.9774058986662
 30
0.0
  0
POINT
  5
2E7
330
2DE
100
AcDbEntity
  8
Defpoints
 62
     0
440
 16777216
100
AcDbPoint
 10
145.4098580707653
 20
451.9774058986662
 30
0.0
  0
POINT
  5
2E8
330
2DE
100
AcDbEntity
  8
Defpoints
 62
     0
440
 16777216
100
AcDbPoint
 10
165.5046109850816
 20
451.9774058986662
 30
0.0
  0
ENDBLK
  5
2E9
330
2DE
100
AcDbEntity
  8
0
370
     0
100
AcDbBlockEnd
  0
BLOCK
  5
2D2
330
2D1
100
AcDbEntity
  8
0
370
     0
100
AcDbBlockBegin
  2
*D2
 70
     1
 10
0.0
 20
0.0
 30
0.0
  3
*D2
  1

  0
LINE
  5
2D3
330
2D1
100
AcDbEntity
  8
09-01
 62
     4
440
 16777216
370
    -2
100
AcDbLine
 10
108.4098580707652
 20
515.7774058986661
 30
0.0
 11
108.4098580707652
 21
525.8666973062183
 31
0.0
  0
LINE
  5
2D4
330
2D1
100
AcDbEntity
  8
09-01
 62
     4
440
 16777216
370
    -2
100
AcDbLine
 10
146.4098580707652
 20
515.7774058986661
 30
0.0
 11
146.4098580707652
 21
525.8666973062183
 31
0.0
  0
LINE
  5
2D5
330
2D1
100
AcDbEntity
  8
09-01
 62
     4
440
 16777216
370
    -2
100
AcDbLine
 10
113.4098580707652
 20
523.8666973062183
 30
0.0
 11
141.4098580707652
 21
523.8666973062183
 31
0.0
  0
SOLID
  5
2D6
330
2D1
100
AcDbEntity
  8
09-01
 62
     4
440
 16777216
100
AcDbTrace
 10
113.4098580707652
 20
524.7000306395517
 30
0.0
 11
113.4098580707652
 21
523.033363972885
 31
0.0
 12
108.4098580707652
 22
523.8666973062183
 32
0.0
 13
108.4098580707652
 23
523.8666973062183
 33
0.0
  0
SOLID
  5
2D7
330
2D1
100
AcDbEntity
  8
09-01
 62
     4
440
 16777216
100
AcDbTrace
 10
141.4098580707652
 20
524.7000306395517
 30
0.0
 11
141.4098580707652
 21
523.033363972885
 31
0.0
 12
146.4098580707652
 22
523.8666973062183
 32
0.0
 13
146.4098580707652
 23
523.8666973062183
 33
0.0
  0
MTEXT
  5
2D8
330
2D1
100
AcDbEntity
  8
09-01
 62
     1
440
 16777216
100
AcDbMText
 10
127.4098580707652
 20
528.3666973062183
 30
0.0
 40
5.0
 41
0.0
 46
0.0
 71
     5
 72
     1
  1
%%c38
 73
     1
 44
1.0
  0
POINT
  5
2D9
330
2D1
100
AcDbEntity
  8
Defpoints
 62
     0
440
 16777216
100
AcDbPoint
 10
108.4098580707652
 20
513.7774058986662
 30
0.0
  0
POINT
  5
2DA
330
2D1
100
AcDbEntity
  8
Defpoints
 62
     0
440
 16777216
100
AcDbPoint
 10
146.4098580707652
 20
513.7774058986662
 30
0.0
  0
POINT
  5
2DB
330
2D1
100
AcDbEntity
  8
Defpoints
 62
     0
440
 16777216
100
AcDbPoint
 10
146.4098580707652
 20
523.8666973062183
 30
0.0
  0
ENDBLK
  5
2DC
330
2D1
100
AcDbEntity
  8
0
370
     0
100
AcDbBlockEnd
  0
BLOCK
  5
2C5
330
2C4
100
AcDbEntity
  8
0
370
     0
100
AcDbBlockBegin
  2
*D3
 70
     1
 10
0.0
 20
0.0
 30
0.0
  3
*D3
  1

  0
LINE
  5
2C6
330
2C4
100
AcDbEntity
  8
09-01
 62
     4
440
 16777216
370
    -2
100
AcDbLine
 10
269.9820564500612
 20
387.9774058986662
 30
0.0
 11
269.9820564500612
 21
376.0653797432289
 31
0.0
  0
LINE
  5
2C7
330
2C4
100
AcDbEntity
  8
09-01
 62
     4
440
 16777216
370
    -2
100
AcDbLine
 10
290.9820564500612
 20
387.9774058986662
 30
0.0
 11
290.9820564500612
 21
376.0653797432289
 31
0.0
  0
LINE
  5
2C8
330
2C4
100
AcDbEntity
  8
09-01
 62
     4
440
 16777216
370
    -2
100
AcDbLine
 10
274.9820564500612
 20
378.0653797432289
 30
0.0
 11
285.9820564500612
 21
378.0653797432289
 31
0.0
  0
MTEXT
  5
2C9
330
2C4
100
AcDbEntity
  8
09-01
 62
     1
440
 16777216
100
AcDbMText
 10
301.384779821998
 20
382.414565427971
 30
0.0
 40
5.0
 41
0.0
 46
0.0
 71
     5
 72
     1
  1
1/2"
 73
     1
 44
1.0
  0
SOLID
  5
2CA
330
2C4
100
AcDbEntity
  8
09-01
 62
     4
440
 16777216
370
     0
100
AcDbTrace
 10
274.9820564500612
 20
378.8987130765621
 30
0.0
 11
274.9820564500612
 21
377.2320464098955
 31
0.0
 12
269.9820564500612
 22
378.0653797432289
 32
0.0
 13
269.9820564500612
 23
378.0653797432289
 33
0.0
  0
SOLID
  5
2CB
330
2C4
100
AcDbEntity
  8
09-01
 62
     4
440
 16777216
370
     0
100
AcDbTrace
 10
285.9820564500612
 20
378.8987130765621
 30
0.0
 11
285.9820564500612
 21
377.2320464098955
 31
0.0
 12
290.9820564500612
 22
378.0653797432289
 32
0.0
 13
290.9820564500612
 23
378.0653797432289
 33
0.0
  0
POINT
  5
2CC
330
2C4
100
AcDbEntity
  8
Defpoints
 62
     0
440
 16777216
370
     0
100
AcDbPoint
 10
269.9820564500612
 20
389.9774058986663
 30
0.0
  0
POINT
  5
2CD
330
2C4
100
AcDbEntity
  8
Defpoints
 62
     0
440
 16777216
370
     0
100
AcDbPoint
 10
290.9820564500612
 20
389.9774058986663
 30
0.0
  0
POINT
  5
2CE
330
2C4
100
AcDbEntity
  8
Defpoints
 62
     0
440
 16777216
370
     0
100
AcDbPoint
 10
290.9820564500612
 20
378.0653797432289
 30
0.0
  0
ENDBLK
  5
2CF
330
2C4
100
AcDbEntity
  8
0
370
     0
100
AcDbBlockEnd
  0
BLOCK
  5
248
330
247
100
AcDbEntity
  8
0
370
     0
100
AcDbBlockBegin
  2
*D4
 70
     1
 10
0.0
 20
0.0
 30
0.0
  3
*D4
  1

  0
LINE
  5
249
330
247
100
AcDbEntity
  8
09-01
 62
     4
440
 16777216
370
    -2
100
AcDbLine
 10
106.4098580707652
 20
451.9774058986662
 30
0.0
 11
97.54771202410568
 21
451.9774058986662
 31
0.0
  0
LINE
  5
24A
330
247
100
AcDbEntity
  8
09-01
 62
     4
440
 16777216
370
    -2
100
AcDbLine
 10
106.6098580707652
 20
493.9774058986662
 30
0.0
 11
97.54771202410569
 21
493.9774058986662
 31
0.0
  0
LINE
  5
24B
330
247
100
AcDbEntity
  8
09-01
 62
     4
440
 16777216
370
    -2
100
AcDbLine
 10
99.54771202410569
 20
456.9774058986662
 30
0.0
 11
99.54771202410569
 21
488.9774058986662
 31
0.0
  0
SOLID
  5
24C
330
247
100
AcDbEntity
  8
09-01
 62
     4
440
 16777216
370
     0
100
AcDbTrace
 10
98.71437869077235
 20
456.9774058986662
 30
0.0
 11
100.381045357439
 21
456.9774058986662
 31
0.0
 12
99.54771202410569
 22
451.9774058986662
 32
0.0
 13
99.54771202410569
 23
451.9774058986662
 33
0.0
  0
SOLID
  5
24D
330
247
100
AcDbEntity
  8
09-01
 62
     4
440
 16777216
370
     0
100
AcDbTrace
 10
98.71437869077237
 20
488.9774058986662
 30
0.0
 11
100.381045357439
 21
488.9774058986662
 31
0.0
 12
99.54771202410569
 22
493.9774058986662
 32
0.0
 13
99.54771202410569
 23
493.9774058986662
 33
0.0
  0
MTEXT
  5
24E
330
247
100
AcDbEntity
  8
09-01
 62
     1
440
 16777216
100
AcDbMText
 10
95.04771202410561
 20
472.9774058986662
 30
0.0
 40
5.0
 41
0.0
 46
0.0
 71
     5
 72
     1
  1
42
 11
0.0000000000000001
 21
1.0
 31
0.0
 73
     1
 44
1.0
  0
POINT
  5
24F
330
247
100
AcDbEntity
  8
Defpoints
 62
     0
440
 16777216
370
     0
100
AcDbPoint
 10
108.4098580707652
 20
451.9774058986662
 30
0.0
  0
POINT
  5
250
330
247
100
AcDbEntity
  8
Defpoints
 62
     0
440
 16777216
370
     0
100
AcDbPoint
 10
108.6098580707652
 20
493.9774058986662
 30
0.0
  0
POINT
  5
251
330
247
100
AcDbEntity
  8
Defpoints
 62
     0
440
 16777216
370
     0
100
AcDbPoint
 10
99.54771202410569
 20
493.9774058986662
 30
0.0
  0
ENDBLK
  5
252
330
247
100
AcDbEntity
  8
0
370
     0
100
AcDbBlockEnd
  0
BLOCK
  5
239
330
238
100
AcDbEntity
  8
0
370
     0
100
AcDbBlockBegin
  2
*D5
 70
     1
 10
0.0
 20
0.0
 30
0.0
  3
*D5
  1

  0
LINE
  5
23A
330
238
100
AcDbEntity
  8
09-01
 62
     4
440
 16777216
370
    -2
100
AcDbLine
 10
106.6098580707652
 20
513.9774058986662
 30
0.0
 11
97.54771202410569
 21
513.9774058986662
 31
0.0
  0
LINE
  5
23B
330
238
100
AcDbEntity
  8
09-01
 62
     4
440
 16777216
370
    -2
100
AcDbLine
 10
106.6098580707652
 20
503.9774058986662
 30
0.0
 11
97.54771202410569
 21
503.9774058986662
 31
0.0
  0
LINE
  5
23C
330
238
100
AcDbEntity
  8
09-01
 62
     4
440
 16777216
370
    -2
100
AcDbLine
 10
99.54771202410569
 20
518.9774058986662
 30
0.0
 11
99.54771202410569
 21
523.9774058986662
 31
0.0
  0
LINE
  5
23D
330
238
100
AcDbEntity
  8
09-01
 62
     4
440
 16777216
370
    -2
100
AcDbLine
 10
99.54771202410569
 20
498.9774058986662
 30
0.0
 11
99.54771202410569
 21
493.9774058986662
 31
0.0
  0
LINE
  5
23E
330
238
100
AcDbEntity
  8
09-01
 62
     4
440
 16777216
370
    -2
100
AcDbLine
 10
99.54771202410569
 20
513.9774058986662
 30
0.0
 11
99.54771202410569
 21
503.9774058986662
 31
0.0
  0
SOLID
  5
23F
330
238
100
AcDbEntity
  8
09-01
 62
     4
440
 16777216
100
AcDbTrace
 10
98.71437869077237
 20
518.9774058986662
 30
0.0
 11
100.381045357439
 21
518.9774058986662
 31
0.0
 12
99.54771202410569
 22
513.9774058986662
 32
0.0
 13
99.54771202410569
 23
513.9774058986662
 33
0.0
  0
SOLID
  5
240
330
238
100
AcDbEntity
  8
09-01
 62
     4
440
 16777216
100
AcDbTrace
 10
98.71437869077237
 20
498.9774058986662
 30
0.0
 11
100.381045357439
 21
498.9774058986662
 31
0.0
 12
99.54771202410569
 22
503.9774058986662
 32
0.0
 13
99.54771202410569
 23
503.9774058986662
 33
0.0
  0
MTEXT
  5
241
330
238
100
AcDbEntity
  8
09-01
 62
     1
440
 16777216
100
AcDbMText
 10
95.04771202410561
 20
508.9774058986662
 30
0.0
 40
5.0
 41
0.0
 46
0.0
 71
     5
 72
     1
  1
10
 11
0.0000000000000001
 21
1.0
 31
0.0
 73
     1
 44
1.0
  0
POINT
  5
242
330
238
100
AcDbEntity
  8
Defpoints
 62
     0
440
 16777216
100
AcDbPoint
 10
108.6098580707652
 20
513.9774058986662
 30
0.0
  0
POINT
  5
243
330
238
100
AcDbEntity
  8
Defpoints
 62
     0
440
 16777216
100
AcDbPoint
 10
108.6098580707652
 20
503.9774058986662
 30
0.0
  0
POINT
  5
244
330
238
100
AcDbEntity
  8
Defpoints
 62
     0
440
 16777216
100
AcDbPoint
 10
99.54771202410569
 20
503.9774058986662
 30
0.0
  0
ENDBLK
  5
245
330
238
100
AcDbEntity
  8
0
370
     0
100
AcDbBlockEnd
  0
BLOCK
  5
226
330
225
100
AcDbEntity
  8
0
370
     0
100
AcDbBlockBegin
  2
*D6
 70
     1
 10
0.0
 20
0.0
 30
0.0
  3
*D6
  1

  0
LINE
  5
227
330
225
100
AcDbEntity
  8
09-01
 62
     4
440
 16777216
370
    -2
100
AcDbLine
 10
259.4820564500612
 20
451.9774058986662
 30
0.0
 11
251.9985769171576
 21
451.9774058986662
 31
0.0
  0
LINE
  5
228
330
225
100
AcDbEntity
  8
09-01
 62
     4
440
 16777216
370
    -2
100
AcDbLine
 10
268.9820564500613
 20
388.9774058986662
 30
0.0
 11
251.9985769171575
 21
388.9774058986662
 31
0.0
  0
LINE
  5
229
330
225
100
AcDbEntity
  8
09-01
 62
     4
440
 16777216
370
    -2
100
AcDbLine
 10
253.9985769171575
 20
446.9774058986662
 30
0.0
 11
253.9985769171575
 21
393.9774058986662
 31
0.0
  0
SOLID
  5
22A
330
225
100
AcDbEntity
  8
09-01
 62
     4
440
 16777216
370
     0
100
AcDbTrace
 10
253.1652435838242
 20
446.9774058986662
 30
0.0
 11
254.8319102504909
 21
446.9774058986662
 31
0.0
 12
253.9985769171576
 22
451.9774058986662
 32
0.0
 13
253.9985769171576
 23
451.9774058986662
 33
0.0
  0
SOLID
  5
22B
330
225
100
AcDbEntity
  8
09-01
 62
     4
440
 16777216
370
     0
100
AcDbTrace
 10
253.1652435838242
 20
393.9774058986662
 30
0.0
 11
254.8319102504909
 21
393.9774058986662
 31
0.0
 12
253.9985769171575
 22
388.9774058986662
 32
0.0
 13
253.9985769171575
 23
388.9774058986662
 33
0.0
  0
MTEXT
  5
22C
330
225
100
AcDbEntity
  8
09-01
 62
     1
440
 16777216
100
AcDbMText
 10
249.4985769171575
 20
420.4774058986663
 30
0.0
 40
5.0
 41
0.0
 46
0.0
 71
     5
 72
     1
  1
63
 11
0.0000000000000001
 21
1.0
 31
0.0
 73
     1
 44
1.0
  0
POINT
  5
22D
330
225
100
AcDbEntity
  8
Defpoints
 62
     0
440
 16777216
370
     0
100
AcDbPoint
 10
261.4820564500612
 20
451.9774058986662
 30
0.0
  0
POINT
  5
22E
330
225
100
AcDbEntity
  8
Defpoints
 62
     0
440
 16777216
370
     0
100
AcDbPoint
 10
270.9820564500613
 20
388.9774058986662
 30
0.0
  0
POINT
  5
22F
330
225
100
AcDbEntity
  8
Defpoints
 62
     0
440
 16777216
370
     0
100
AcDbPoint
 10
253.9985769171575
 20
388.9774058986662
 30
0.0
  0
ENDBLK
  5
230
330
225
100
AcDbEntity
  8
0
370
     0
100
AcDbBlockEnd
  0
BLOCK
  5
1AE
330
1AD
100
AcDbEntity
  8
0
370
     0
100
AcDbBlockBegin
  2
*D7
 70
     1
 10
0.0
 20
0.0
 30
0.0
  3
*D7
  1

  0
LINE
  5
1AF
330
1AD
100
AcDbEntity
  8
09-01
 62
     4
440
 16777216
370
    -2
100
AcDbLine
 10
148.4098580707653
 20
451.9774058986662
 30
0.0
 11
167.5046109850816
 21
451.9774058986662
 31
0.0
  0
LINE
  5
1B0
330
1AD
100
AcDbEntity
  8
09-01
 62
     4
440
 16777216
370
    -2
100
AcDbLine
 10
149.1598580707653
 20
411.9774058986662
 30
0.0
 11
167.5046109850815
 21
411.9774058986662
 31
0.0
  0
LINE
  5
1B1
330
1AD
100
AcDbEntity
  8
09-01
 62
     4
440
 16777216
370
    -2
100
AcDbLine
 10
165.5046109850815
 20
446.9774058986662
 30
0.0
 11
165.5046109850815
 21
416.9774058986662
 31
0.0
  0
SOLID
  5
1B2
330
1AD
100
AcDbEntity
  8
09-01
 62
     4
440
 16777216
370
     0
100
AcDbTrace
 10
164.6712776517482
 20
446.9774058986662
 30
0.0
 11
166.3379443184149
 21
446.9774058986662
 31
0.0
 12
165.5046109850816
 22
451.9774058986662
 32
0.0
 13
165.5046109850816
 23
451.9774058986662
 33
0.0
  0
SOLID
  5
1B3
330
1AD
100
AcDbEntity
  8
09-01
 62
     4
440
 16777216
370
     0
100
AcDbTrace
 10
164.6712776517482
 20
416.9774058986662
 30
0.0
 11
166.3379443184149
 21
416.9774058986662
 31
0.0
 12
165.5046109850815
 22
411.9774058986662
 32
0.0
 13
165.5046109850815
 23
411.9774058986662
 33
0.0
  0
MTEXT
  5
1B4
330
1AD
100
AcDbEntity
  8
09-01
 62
     1
440
 16777216
100
AcDbMText
 10
161.0046109850815
 20
431.9774058986662
 30
0.0
 40
5.0
 41
0.0
 46
0.0
 71
     5
 72
     1
  1
max.40
 11
0.0000000000000001
 21
1.0
 31
0.0
 73
     1
 44
1.0
  0
POINT
  5
1B5
330
1AD
100
AcDbEntity
  8
Defpoints
 62
     0
440
 16777216
370
     0
100
AcDbPoint
 10
146.4098580707653
 20
451.9774058986662
 30
0.0
  0
POINT
  5
1B6
330
1AD
100
AcDbEntity
  8
Defpoints
 62
     0
440
 16777216
370
     0
100
AcDbPoint
 10
147.1598580707653
 20
411.9774058986662
 30
0.0
  0
POINT
  5
1B7
330
1AD
100
AcDbEntity
  8
Defpoints
 62
     0
440
 16777216
370
     0
100
AcDbPoint
 10
165.5046109850815
 20
411.9774058986662
 30
0.0
  0
ENDBLK
  5
1B8
330
1AD
100
AcDbEntity
  8
0
370
     0
100
AcDbBlockEnd
  0
BLOCK
  5
173
330
172
100
AcDbEntity
  8
0
370
     0
100
AcDbBlockBegin
  2
*D8
 70
     1
 10
0.0
 20
0.0
 30
0.0
  3
*D8
  1

  0
LINE
  5
174
330
172
100
AcDbEntity
  8
09-01
 62
     4
440
 16777216
370
    -2
100
AcDbLine
 10
101.4098580707653
 20
203.9774058986663
 30
0.0
 11
65.68823547113827
 21
203.9774058986663
 31
0.0
  0
LINE
  5
175
330
172
100
AcDbEntity
  8
09-01
 62
     4
440
 16777216
370
    -2
100
AcDbLine
 10
106.6098580707652
 20
513.9774058986662
 30
0.0
 11
65.68823547113834
 21
513.9774058986662
 31
0.0
  0
LINE
  5
176
330
172
100
AcDbEntity
  8
09-01
 62
     4
440
 16777216
370
    -2
100
AcDbLine
 10
67.68823547113827
 20
208.9774058986662
 30
0.0
 11
67.68823547113834
 21
508.9774058986662
 31
0.0
  0
SOLID
  5
177
330
172
100
AcDbEntity
  8
09-01
 62
     4
440
 16777216
100
AcDbTrace
 10
66.85490213780494
 20
208.9774058986662
 30
0.0
 11
68.5215688044716
 21
208.9774058986662
 31
0.0
 12
67.68823547113827
 22
203.9774058986663
 32
0.0
 13
67.68823547113827
 23
203.9774058986663
 33
0.0
  0
SOLID
  5
178
330
172
100
AcDbEntity
  8
09-01
 62
     4
440
 16777216
100
AcDbTrace
 10
66.85490213780501
 20
508.9774058986662
 30
0.0
 11
68.52156880447167
 21
508.9774058986662
 31
0.0
 12
67.68823547113834
 22
513.9774058986662
 32
0.0
 13
67.68823547113834
 23
513.9774058986662
 33
0.0
  0
MTEXT
  5
179
330
172
100
AcDbEntity
  8
09-01
 62
     1
440
 16777216
100
AcDbMText
 10
63.18823547113825
 20
358.9774058986662
 30
0.0
 40
5.0
 41
0.0
 46
0.0
 71
     5
 72
     1
  1
310
 11
0.0000000000000001
 21
1.0
 31
0.0
 73
     1
 44
1.0
  0
POINT
  5
17A
330
172
100
AcDbEntity
  8
Defpoints
 62
     0
440
 16777216
100
AcDbPoint
 10
103.4098580707653
 20
203.9774058986663
 30
0.0
  0
POINT
  5
17B
330
172
100
AcDbEntity
  8
Defpoints
 62
     0
440
 16777216
100
AcDbPoint
 10
108.6098580707652
 20
513.9774058986662
 30
0.0
  0
POINT
  5
17C
330
172
100
AcDbEntity
  8
Defpoints
 62
     0
440
 16777216
100
AcDbPoint
 10
67.68823547113834
 20
513.9774058986662
 30
0.0
  0
ENDBLK
  5
17D
330
172
100
AcDbEntity
  8
0
370
     0
100
AcDbBlockEnd
  0
BLOCK
  5
166
330
165
100
AcDbEntity
  8
0
370
     0
100
AcDbBlockBegin
  2
*D9
 70
     1
 10
0.0
 20
0.0
 30
0.0
  3
*D9
  1

  0
LINE
  5
167
330
165
100
AcDbEntity
  8
09-01
 62
     4
440
 16777216
370
    -2
100
AcDbLine
 10
148.4098580707653
 20
451.9774058986662
 30
0.0
 11
196.9420257802849
 21
451.9774058986662
 31
0.0
  0
LINE
  5
168
330
165
100
AcDbEntity
  8
09-01
 62
     4
440
 16777216
370
    -2
100
AcDbLine
 10
153.4098580707653
 20
203.9774058986663
 30
0.0
 11
196.9420257802848
 21
203.9774058986662
 31
0.0
  0
LINE
  5
169
330
165
100
AcDbEntity
  8
09-01
 62
     4
440
 16777216
370
    -2
100
AcDbLine
 10
194.9420257802849
 20
446.9774058986662
 30
0.0
 11
194.9420257802849
 21
208.9774058986662
 31
0.0
  0
SOLID
  5
16A
330
165
100
AcDbEntity
  8
09-01
 62
     4
440
 16777216
370
     0
100
AcDbTrace
 10
194.1086924469515
 20
446.9774058986662
 30
0.0
 11
195.7753591136182
 21
446.9774058986662
 31
0.0
 12
194.9420257802849
 22
451.9774058986662
 32
0.0
 13
194.9420257802849
 23
451.9774058986662
 33
0.0
  0
SOLID
  5
16B
330
165
100
AcDbEntity
  8
09-01
 62
     4
440
 16777216
370
     0
100
AcDbTrace
 10
194.1086924469515
 20
208.9774058986662
 30
0.0
 11
195.7753591136182
 21
208.9774058986662
 31
0.0
 12
194.9420257802849
 22
203.9774058986662
 32
0.0
 13
194.9420257802849
 23
203.9774058986662
 33
0.0
  0
MTEXT
  5
16C
330
165
100
AcDbEntity
  8
09-01
 62
     1
440
 16777216
100
AcDbMText
 10
190.4420257802848
 20
327.9774058986663
 30
0.0
 40
5.0
 41
0.0
 46
0.0
 71
     5
 72
     1
  1
Standard 248 (500ml)
 11
0.0000000000000001
 21
1.0
 31
0.0
 73
     1
 44
1.0
  0
POINT
  5
16D
330
165
100
AcDbEntity
  8
Defpoints
 62
     0
440
 16777216
370
     0
100
AcDbPoint
 10
146.4098580707653
 20
451.9774058986662
 30
0.0
  0
POINT
  5
16E
330
165
100
AcDbEntity
  8
Defpoints
 62
     0
440
 16777216
370
     0
100
AcDbPoint
 10
151.4098580707653
 20
203.9774058986663
 30
0.0
  0
POINT
  5
16F
330
165
100
AcDbEntity
  8
Defpoints
 62
     0
440
 16777216
370
     0
100
AcDbPoint
 10
194.9420257802849
 20
203.9774058986662
 30
0.0
  0
ENDBLK
  5
170
330
165
100
AcDbEntity
  8
0
370
     0
100
AcDbBlockEnd
  0
BLOCK
  5
159
330
158
100
AcDbEntity
  8
0
370
     0
100
AcDbBlockBegin
  2
*D10
 70
     1
 10
0.0
 20
0.0
 30
0.0
  3
*D10
  1

  0
LINE
  5
15A
330
158
100
AcDbEntity
  8
09-01
 62
     4
440
 16777216
370
    -2
100
AcDbLine
 10
266.9820564500613
 20
388.9774058986662
 30
0.0
 11
251.9985769171575
 21
388.9774058986662
 31
0.0
  0
LINE
  5
15B
330
158
100
AcDbEntity
  8
09-01
 62
     4
440
 16777216
370
    -2
100
AcDbLine
 10
282.9820564500612
 20
213.9774058986662
 30
0.0
 11
251.9985769171575
 21
213.9774058986662
 31
0.0
  0
LINE
  5
15C
330
158
100
AcDbEntity
  8
09-01
 62
     4
440
 16777216
370
    -2
100
AcDbLine
 10
253.9985769171575
 20
383.9774058986662
 30
0.0
 11
253.9985769171575
 21
218.9774058986662
 31
0.0
  0
SOLID
  5
15D
330
158
100
AcDbEntity
  8
09-01
 62
     4
440
 16777216
370
     0
100
AcDbTrace
 10
253.1652435838242
 20
383.9774058986662
 30
0.0
 11
254.8319102504909
 21
383.9774058986662
 31
0.0
 12
253.9985769171575
 22
388.9774058986662
 32
0.0
 13
253.9985769171575
 23
388.9774058986662
 33
0.0
  0
SOLID
  5
15E
330
158
100
AcDbEntity
  8
09-01
 62
     4
440
 16777216
370
     0
100
AcDbTrace
 10
253.1652435838242
 20
218.9774058986662
 30
0.0
 11
254.8319102504909
 21
218.9774058986662
 31
0.0
 12
253.9985769171575
 22
213.9774058986662
 32
0.0
 13
253.9985769171575
 23
213.9774058986662
 33
0.0
  0
MTEXT
  5
15F
330
158
100
AcDbEntity
  8
09-01
 62
     1
440
 16777216
100
AcDbMText
 10
249.4985769171575
 20
301.4774058986663
 30
0.0
 40
5.0
 41
0.0
 46
0.0
 71
     5
 72
     1
  1
175
 11
0.0000000000000001
 21
1.0
 31
0.0
 73
     1
 44
1.0
  0
POINT
  5
160
330
158
100
AcDbEntity
  8
Defpoints
 62
     0
440
 16777216
370
     0
100
AcDbPoint
 10
268.9820564500613
 20
388.9774058986662
 30
0.0
  0
POINT
  5
161
330
158
100
AcDbEntity
  8
Defpoints
 62
     0
440
 16777216
370
     0
100
AcDbPoint
 10
284.9820564500612
 20
213.9774058986662
 30
0.0
  0
POINT
  5
162
330
158
100
AcDbEntity
  8
Defpoints
 62
     0
440
 16777216
370
     0
100
AcDbPoint
 10
253.9985769171575
 20
213.9774058986662
 30
0.0
  0
ENDBLK
  5
163
330
158
100
AcDbEntity
  8
0
370
     0
100
AcDbBlockEnd
  0
BLOCK
  5
14C
330
14B
100
AcDbEntity
  8
0
370
     0
100
AcDbBlockBegin
  2
*D11
 70
     1
 10
0.0
 20
0.0
 30
0.0
  3
*D11
  1

  0
LINE
  5
14D
330
14B
100
AcDbEntity
  8
09-01
 62
     4
440
 16777216
370
    -2
100
AcDbLine
 10
93.40985807076533
 20
211.9774058986663
 30
0.0
 11
93.40985807076533
 21
186.5148685395302
 31
0.0
  0
LINE
  5
14E
330
14B
100
AcDbEntity
  8
09-01
 62
     4
440
 16777216
370
    -2
100
AcDbLine
 10
161.4098580707653
 20
211.9774058986663
 30
0.0
 11
161.4098580707653
 21
186.5148685395302
 31
0.0
  0
LINE
  5
14F
330
14B
100
AcDbEntity
  8
09-01
 62
     4
440
 16777216
370
    -2
100
AcDbLine
 10
98.40985807076533
 20
188.5148685395302
 30
0.0
 11
156.4098580707653
 21
188.5148685395302
 31
0.0
  0
SOLID
  5
150
330
14B
100
AcDbEntity
  8
09-01
 62
     4
440
 16777216
370
     0
100
AcDbTrace
 10
98.40985807076533
 20
189.3482018728635
 30
0.0
 11
98.40985807076533
 21
187.6815352061968
 31
0.0
 12
93.40985807076533
 22
188.5148685395302
 32
0.0
 13
93.40985807076533
 23
188.5148685395302
 33
0.0
  0
SOLID
  5
151
330
14B
100
AcDbEntity
  8
09-01
 62
     4
440
 16777216
370
     0
100
AcDbTrace
 10
156.4098580707653
 20
189.3482018728635
 30
0.0
 11
156.4098580707653
 21
187.6815352061968
 31
0.0
 12
161.4098580707653
 22
188.5148685395302
 32
0.0
 13
161.4098580707653
 23
188.5148685395302
 33
0.0
  0
MTEXT
  5
152
330
14B
100
AcDbEntity
  8
09-01
 62
     1
440
 16777216
100
AcDbMText
 10
127.4098580707653
 20
193.0148685395302
 30
0.0
 40
5.0
 41
0.0
 46
0.0
 71
     5
 72
     1
  1
%%C68
 73
     1
 44
1.0
  0
POINT
  5
153
330
14B
100
AcDbEntity
  8
Defpoints
 62
     0
440
 16777216
370
     0
100
AcDbPoint
 10
93.40985807076533
 20
213.9774058986663
 30
0.0
  0
POINT
  5
154
330
14B
100
AcDbEntity
  8
Defpoints
 62
     0
440
 16777216
370
     0
100
AcDbPoint
 10
161.4098580707653
 20
213.9774058986663
 30
0.0
  0
POINT
  5
155
330
14B
100
AcDbEntity
  8
Defpoints
 62
     0
440
 16777216
370
     0
100
AcDbPoint
 10
161.4098580707653
 20
188.5148685395302
 30
0.0
  0
ENDBLK
  5
156
330
14B
100
AcDbEntity
  8
0
370
     0
100
AcDbBlockEnd
  0
BLOCK
  5
13F
330
13E
100
AcDbEntity
  8
0
370
     0
100
AcDbBlockBegin
  2
*D12
 70
     1
 10
0.0
 20
0.0
 30
0.0
  3
*D12
  1

  0
LINE
  5
140
330
13E
100
AcDbEntity
  8
09-01
 62
     4
440
 16777216
370
    -2
100
AcDbLine
 10
301.4820564500612
 20
451.9774058986662
 30
0.0
 11
316.6980159274572
 21
451.9774058986662
 31
0.0
  0
LINE
  5
141
330
13E
100
AcDbEntity
  8
09-01
 62
     4
440
 16777216
370
    -2
100
AcDbLine
 10
301.4820564500612
 20
473.9774058986661
 30
0.0
 11
316.6980159274572
 21
473.9774058986661
 31
0.0
  0
LINE
  5
142
330
13E
100
AcDbEntity
  8
09-01
 62
     4
440
 16777216
370
    -2
100
AcDbLine
 10
314.6980159274572
 20
456.9774058986662
 30
0.0
 11
314.6980159274572
 21
468.9774058986661
 31
0.0
  0
SOLID
  5
143
330
13E
100
AcDbEntity
  8
09-01
 62
     4
440
 16777216
370
     0
100
AcDbTrace
 10
313.8646825941239
 20
456.9774058986662
 30
0.0
 11
315.5313492607905
 21
456.9774058986662
 31
0.0
 12
314.6980159274572
 22
451.9774058986662
 32
0.0
 13
314.6980159274572
 23
451.9774058986662
 33
0.0
  0
SOLID
  5
144
330
13E
100
AcDbEntity
  8
09-01
 62
     4
440
 16777216
370
     0
100
AcDbTrace
 10
313.8646825941239
 20
468.9774058986661
 30
0.0
 11
315.5313492607905
 21
468.9774058986661
 31
0.0
 12
314.6980159274572
 22
473.9774058986661
 32
0.0
 13
314.6980159274572
 23
473.9774058986661
 33
0.0
  0
MTEXT
  5
145
330
13E
100
AcDbEntity
  8
09-01
 62
     1
440
 16777216
100
AcDbMText
 10
310.1980159274571
 20
462.9774058986662
 30
0.0
 40
5.0
 41
0.0
 46
0.0
 71
     5
 72
     1
  1
22
 11
0.0000000000000001
 21
1.0
 31
0.0
 73
     1
 44
1.0
  0
POINT
  5
146
330
13E
100
AcDbEntity
  8
Defpoints
 62
     0
440
 16777216
370
     0
100
AcDbPoint
 10
299.4820564500612
 20
451.9774058986662
 30
0.0
  0
POINT
  5
147
330
13E
100
AcDbEntity
  8
Defpoints
 62
     0
440
 16777216
370
     0
100
AcDbPoint
 10
299.4820564500612
 20
473.9774058986661
 30
0.0
  0
POINT
  5
148
330
13E
100
AcDbEntity
  8
Defpoints
 62
     0
440
 16777216
370
     0
100
AcDbPoint
 10
314.6980159274572
 20
473.9774058986661
 30
0.0
  0
ENDBLK
  5
149
330
13E
100
AcDbEntity
  8
0
370
     0
100
AcDbBlockEnd
  0
BLOCK
  5
131
330
130
100
AcDbEntity
  8
0
370
     0
100
AcDbBlockBegin
  2
*D13
 70
     1
 10
0.0
 20
0.0
 30
0.0
  3
*D13
  1

  0
LINE
  5
132
330
130
100
AcDbEntity
  8
09-01
 62
     4
440
 16777216
370
    -2
100
AcDbLine
 10
299.4820564500612
 20
449.9774058986662
 30
0.0
 11
299.4820564500612
 21
430.6723696646659
 31
0.0
  0
ARC
  5
133
330
130
100
AcDbEntity
  8
09-01
 62
     4
440
 16777216
370
    -2
100
AcDbCircle
 10
299.4820564500612
 20
469.3186630868208
 30
0.0
 40
36.64629342215492
100
AcDbArc
 50
277.8234808017723
 51
7.176519198227779
  0
SOLID
  5
134
330
130
100
AcDbEntity
  8
09-01
 62
     4
440
 16777216
370
     0
100
AcDbTrace
 10
304.5272578243863
 20
432.1820763474029
 30
0.0
 11
304.413558285427
 21
433.8448602156847
 31
0.0
 12
299.4820564500612
 22
432.6723696646659
 32
0.0
 13
299.4820564500612
 23
432.6723696646659
 33
0.0
  0
SOLID
  5
135
330
130
100
AcDbEntity
  8
09-01
 62
     4
440
 16777216
370
     0
100
AcDbTrace
 10
335.0234853959295
 20
473.7364938869117
 30
0.0
 11
336.6590388839418
 21
474.0570286987942
 31
0.0
 12
334.8796577042878
 22
478.8034217568898
 32
0.0
 13
334.8796577042878
 23
478.8034217568898
 33
0.0
  0
MTEXT
  5
136
330
130
100
AcDbEntity
  8
09-01
 62
     1
440
 16777216
100
AcDbMText
 10
319.2822496141074
 20
443.9940400600167
 30
0.0
 40
5.0
 41
0.0
 46
0.0
 71
     5
 72
     1
  1
105\U+00B0
 11
0.7877929406738579
 21
0.6159401615615234
 31
0.0
 73
     1
 44
1.0
  0
POINT
  5
137
330
130
100
AcDbEntity
  8
Defpoints
 62
     0
440
 16777216
370
     0
100
AcDbPoint
 10
333.9183079580154
 20
456.784892558221
 30
0.0
  0
POINT
  5
138
330
130
100
AcDbEntity
  8
Defpoints
 62
     0
440
 16777216
370
     0
100
AcDbPoint
 10
299.4820564500611
 20
451.9774058986662
 30
0.0
  0
POINT
  5
139
330
130
100
AcDbEntity
  8
Defpoints
 62
     0
440
 16777216
370
     0
100
AcDbPoint
 10
362.9489579486674
 20
486.324568089478
 30
0.0
  0
POINT
  5
13A
330
130
100
AcDbEntity
  8
Defpoints
 62
     0
440
 16777216
370
     0
100
AcDbPoint
 10
299.4820564500613
 20
469.3186630868209
 30
0.0
  0
POINT
  5
13B
330
130
100
AcDbEntity
  8
Defpoints
 62
     0
440
 16777216
370
     0
100
AcDbPoint
 10
299.4820564500612
 20
469.3186630868208
 30
0.0
  0
ENDBLK
  5
13C
330
130
100
AcDbEntity
  8
0
370
     0
100
AcDbBlockEnd
  0
BLOCK
  5
122
330
121
100
AcDbEntity
  8
0
370
     0
100
AcDbBlockBegin
  2
*D14
 70
     1
 10
0.0
 20
0.0
 30
0.0
  3
*D14
  1

  0
LINE
  5
123
330
121
100
AcDbEntity
  8
09-01
 62
     4
440
 16777216
370
    -2
100
AcDbLine
 10
344.9491136368314
 20
490.8190099659263
 30
0.0
 11
343.6534454519136
 21
490.4718367221189
 31
0.0
  0
LINE
  5
124
330
121
100
AcDbEntity
  8
09-01
 62
     4
440
 16777216
370
    -2
100
AcDbLine
 10
347.278485042754
 20
482.1256775293247
 30
0.0
 11
345.9828168578363
 21
481.7785042855173
 31
0.0
  0
LINE
  5
125
330
121
100
AcDbEntity
  8
09-01
 62
     4
440
 16777216
370
    -2
100
AcDbLine
 10
344.2912018789792
 20
495.8191039437692
 30
0.0
 11
342.9971066534666
 21
500.6487330752145
 31
0.0
  0
LINE
  5
126
330
121
100
AcDbEntity
  8
09-01
 62
     4
440
 16777216
370
    -2
100
AcDbLine
 10
349.208763735927
 20
477.466513244277
 30
0.0
 11
350.5028589614396
 21
472.6368841128316
 31
0.0
  0
MTEXT
  5
127
330
121
100
AcDbEntity
  8
09-01
 62
     1
440
 16777216
100
AcDbMText
 10
347.8847905767604
 20
500.322898126534
 30
0.0
 40
5.0
 41
0.0
 46
0.0
 71
     5
 72
     1
  1
9
 11
0.2588190451025171
 21
-0.9659258262890693
 31
0.0
 73
     1
 44
1.0
  0
LINE
  5
128
330
121
100
AcDbEntity
  8
09-01
 62
     4
440
 16777216
370
    -2
100
AcDbLine
 10
345.5852971044918
 20
490.9894748123239
 30
0.0
 11
347.9146685104145
 21
482.2961423757223
 31
0.0
  0
SOLID
  5
129
330
121
100
AcDbEntity
  8
09-01
 62
     4
440
 16777216
370
     0
100
AcDbTrace
 10
345.0961400675534
 20
496.0347864813546
 30
0.0
 11
343.4862636904051
 21
495.6034214061839
 31
0.0
 12
345.5852971044918
 22
490.9894748123239
 32
0.0
 13
345.5852971044918
 23
490.9894748123239
 33
0.0
  0
SOLID
  5
12A
330
121
100
AcDbEntity
  8
09-01
 62
     4
440
 16777216
370
     0
100
AcDbTrace
 10
350.0137019245012
 20
477.6821957818624
 30
0.0
 11
348.4038255473528
 21
477.2508307066915
 31
0.0
 12
347.9146685104145
 22
482.2961423757223
 32
0.0
 13
347.9146685104145
 23
482.2961423757223
 33
0.0
  0
POINT
  5
12B
330
121
100
AcDbEntity
  8
Defpoints
 62
     0
440
 16777216
370
     0
100
AcDbPoint
 10
346.8809652894096
 20
491.3366480561313
 30
0.0
  0
POINT
  5
12C
330
121
100
AcDbEntity
  8
Defpoints
 62
     0
440
 16777216
370
     0
100
AcDbPoint
 10
349.2103366953322
 20
482.6433156195297
 30
0.0
  0
POINT
  5
12D
330
121
100
AcDbEntity
  8
Defpoints
 62
     0
440
 16777216
370
     0
100
AcDbPoint
 10
347.9146685104145
 20
482.2961423757223
 30
0.0
  0
ENDBLK
  5
12E
330
121
100
AcDbEntity
  8
0
370
     0
100
AcDbBlockEnd
  0
BLOCK
  5
115
330
114
100
AcDbEntity
  8
0
370
     0
100
AcDbBlockBegin
  2
*D15
 70
     1
 10
0.0
 20
0.0
 30
0.0
  3
*D15
  1

  0
LINE
  5
116
330
114
100
AcDbEntity
  8
09-01
 62
     4
440
 16777216
370
    -2
100
AcDbLine
 10
299.4820564500612
 20
449.9774058986662
 30
0.0
 11
299.4820564500612
 21
422.3755960607158
 31
0.0
  0
LINE
  5
117
330
114
100
AcDbEntity
  8
09-01
 62
     4
440
 16777216
370
    -2
100
AcDbLine
 10
373.0911791247026
 20
487.0421680630545
 30
0.0
 11
373.0911791247026
 21
422.3755960607158
 31
0.0
  0
LINE
  5
118
330
114
100
AcDbEntity
  8
09-01
 62
     4
440
 16777216
370
    -2
100
AcDbLine
 10
304.4820564500612
 20
424.3755960607159
 30
0.0
 11
368.0911791247026
 21
424.3755960607159
 31
0.0
  0
SOLID
  5
119
330
114
100
AcDbEntity
  8
09-01
 62
     4
440
 16777216
370
     0
100
AcDbTrace
 10
304.4820564500612
 20
425.2089293940492
 30
0.0
 11
304.4820564500612
 21
423.5422627273825
 31
0.0
 12
299.4820564500612
 22
424.3755960607159
 32
0.0
 13
299.4820564500612
 23
424.3755960607159
 33
0.0
  0
SOLID
  5
11A
330
114
100
AcDbEntity
  8
09-01
 62
     4
440
 16777216
370
     0
100
AcDbTrace
 10
368.0911791247026
 20
425.2089293940492
 30
0.0
 11
368.0911791247026
 21
423.5422627273825
 31
0.0
 12
373.0911791247026
 22
424.3755960607159
 32
0.0
 13
373.0911791247026
 23
424.3755960607159
 33
0.0
  0
MTEXT
  5
11B
330
114
100
AcDbEntity
  8
09-01
 62
     1
440
 16777216
100
AcDbMText
 10
336.2866177873819
 20
428.8755960607159
 30
0.0
 40
5.0
 41
0.0
 46
0.0
 71
     5
 72
     1
  1
74
 73
     1
 44
1.0
  0
POINT
  5
11C
330
114
100
AcDbEntity
  8
Defpoints
 62
     0
440
 16777216
370
     0
100
AcDbPoint
 10
299.4820564500612
 20
451.9774058986662
 30
0.0
  0
POINT
  5
11D
330
114
100
AcDbEntity
  8
Defpoints
 62
     0
440
 16777216
370
     0
100
AcDbPoint
 10
373.0911791247026
 20
489.0421680630544
 30
0.0
  0
POINT
  5
11E
330
114
100
AcDbEntity
  8
Defpoints
 62
     0
440
 16777216
370
     0
100
AcDbPoint
 10
373.0911791247026
 20
424.3755960607159
 30
0.0
  0
ENDBLK
  5
11F
330
114
100
AcDbEntity
  8
0
370
     0
100
AcDbBlockEnd
  0
BLOCK
  5
108
330
107
100
AcDbEntity
  8
0
370
     0
100
AcDbBlockBegin
  2
*D16
 70
     1
 10
0.0
 20
0.0
 30
0.0
  3
*D16
  1

  0
LINE
  5
109
330
107
100
AcDbEntity
  8
09-01
 62
     4
440
 16777216
370
    -2
100
AcDbLine
 10
301.4820564500612
 20
451.9774058986662
 30
0.0
 11
392.0863692298872
 21
451.9774058986661
 31
0.0
  0
LINE
  5
10A
330
107
100
AcDbEntity
  8
09-01
 62
     4
440
 16777216
370
    -2
100
AcDbLine
 10
375.0911791247026
 20
489.0421680630544
 30
0.0
 11
392.0863692298872
 21
489.0421680630544
 31
0.0
  0
LINE
  5
10B
330
107
100
AcDbEntity
  8
09-01
 62
     4
440
 16777216
370
    -2
100
AcDbLine
 10
390.0863692298872
 20
456.9774058986661
 30
0.0
 11
390.0863692298872
 21
484.0421680630544
 31
0.0
  0
SOLID
  5
10C
330
107
100
AcDbEntity
  8
09-01
 62
     4
440
 16777216
370
     0
100
AcDbTrace
 10
389.2530358965538
 20
456.9774058986661
 30
0.0
 11
390.9197025632205
 21
456.9774058986661
 31
0.0
 12
390.0863692298872
 22
451.9774058986661
 32
0.0
 13
390.0863692298872
 23
451.9774058986661
 33
0.0
  0
SOLID
  5
10D
330
107
100
AcDbEntity
  8
09-01
 62
     4
440
 16777216
370
     0
100
AcDbTrace
 10
389.2530358965538
 20
484.0421680630544
 30
0.0
 11
390.9197025632205
 21
484.0421680630544
 31
0.0
 12
390.0863692298872
 22
489.0421680630544
 32
0.0
 13
390.0863692298872
 23
489.0421680630544
 33
0.0
  0
MTEXT
  5
10E
330
107
100
AcDbEntity
  8
09-01
 62
     1
440
 16777216
100
AcDbMText
 10
385.5863692298871
 20
470.5097869808604
 30
0.0
 40
5.0
 41
0.0
 46
0.0
 71
     5
 72
     1
  1
37
 11
0.0000000000000001
 21
1.0
 31
0.0
 73
     1
 44
1.0
  0
POINT
  5
10F
330
107
100
AcDbEntity
  8
Defpoints
 62
     0
440
 16777216
370
     0
100
AcDbPoint
 10
299.4820564500612
 20
451.9774058986662
 30
0.0
  0
POINT
  5
110
330
107
100
AcDbEntity
  8
Defpoints
 62
     0
440
 16777216
370
     0
100
AcDbPoint
 10
373.0911791247026
 20
489.0421680630544
 30
0.0
  0
POINT
  5
111
330
107
100
AcDbEntity
  8
Defpoints
 62
     0
440
 16777216
370
     0
100
AcDbPoint
 10
390.0863692298872
 20
489.0421680630544
 30
0.0
  0
ENDBLK
  5
112
330
107
100
AcDbEntity
  8
0
370
     0
100
AcDbBlockEnd
  0
BLOCK
  5
E9
330
E8
100
AcDbEntity
  8
0
370
     0
100
AcDbBlockBegin
  2
Seifenflasche250-01-s
 70
     0
 10
0.0
 20
0.0
 30
0.0
  3
Seifenflasche250-01-s
  1

  0
LINE
  5
EA
330
E8
100
AcDbEntity
  8
0
370
     0
100
AcDbLine
 10
0.0
 20
0.0
 30
0.0
 11
0.0
 21
-3.0
 31
0.0
  0
LINE
  5
EB
330
E8
100
AcDbEntity
  8
0
370
     0
100
AcDbLine
 10
-28.0
 20
0.0
 30
0.0
 11
-28.0
 21
-3.000000000000056
 31
0.0
  0
LINE
  5
EC
330
E8
100
AcDbEntity
  8
0
370
     0
100
AcDbLine
 10
-26.50000000000023
 20
4.999999999999886
 30
0.0
 11
-26.5
 21
4.5
 31
0.0
  0
LINE
  5
ED
330
E8
100
AcDbEntity
  8
0
370
     0
100
AcDbLine
 10
-2.5
 20
3.5
 30
0.0
 11
-2.5
 21
0.0
 31
0.0
  0
LINE
  5
EE
330
E8
100
AcDbEntity
  8
0
370
     0
100
AcDbLine
 10
-25.49999999999978
 20
3.5
 30
0.0
 11
-25.5
 21
-0.0000000000000568
 31
0.0
  0
LINE
  5
EF
330
E8
100
AcDbEntity
  8
0
370
     0
100
AcDbLine
 10
-31.5
 20
-130.5000000000001
 30
0.0
 11
3.5
 21
-130.5
 31
0.0
  0
ARC
  5
F0
330
E8
100
AcDbEntity
  8
0
370
     0
100
AcDbCircle
 10
-31.5
 20
-120.5000000000001
 30
0.0
 40
10.0
100
AcDbArc
 50
180.0
 51
270.0
  0
LINE
  5
F1
330
E8
100
AcDbEntity
  8
0
370
     0
100
AcDbLine
 10
-28.0
 20
0.0
 30
0.0
 11
0.0
 21
0.0
 31
0.0
  0
LINE
  5
F2
330
E8
100
AcDbEntity
  8
0
370
     0
100
AcDbLine
 10
-30.75
 20
-3.000000000000056
 30
0.0
 11
2.75
 21
-3.0
 31
0.0
  0
LINE
  5
F3
330
E8
100
AcDbEntity
  8
0
370
     0
100
AcDbLine
 10
-30.75
 20
-4.0
 30
0.0
 11
2.750000000000227
 21
-4.0
 31
0.0
  0
LINE
  5
F4
330
E8
100
AcDbEntity
  8
0
370
     0
100
AcDbLine
 10
-25.49999999999978
 20
3.5
 30
0.0
 11
-2.5
 21
3.5
 31
0.0
  0
LINE
  5
F5
330
E8
100
AcDbEntity
  8
0
370
     0
100
AcDbLine
 10
-25.5
 20
3.5
 30
0.0
 11
-26.5
 21
4.5
 31
0.0
  0
LINE
  5
F6
330
E8
100
AcDbEntity
  8
0
370
     0
100
AcDbLine
 10
-1.499999999999772
 20
4.999999999999886
 30
0.0
 11
-1.499999999999772
 21
4.5
 31
0.0
  0
LINE
  5
F7
330
E8
100
AcDbEntity
  8
0
370
     0
100
AcDbLine
 10
-2.499999999999772
 20
3.5
 30
0.0
 11
-1.499999999999772
 21
4.5
 31
0.0
  0
LINE
  5
F8
330
E8
100
AcDbEntity
  8
0
370
     0
100
AcDbLine
 10
-26.5
 20
4.5
 30
0.0
 11
-1.499999999999772
 21
4.5
 31
0.0
  0
LINE
  5
F9
330
E8
100
AcDbEntity
  8
0
370
     0
100
AcDbLine
 10
2.75
 20
-3.0
 30
0.0
 11
2.75
 21
-4.0
 31
0.0
  0
LINE
  5
FA
330
E8
100
AcDbEntity
  8
0
370
     0
100
AcDbLine
 10
-30.75
 20
-3.000000000000056
 30
0.0
 11
-30.75
 21
-4.0
 31
0.0
  0
LINE
  5
FB
330
E8
100
AcDbEntity
  8
0
370
     0
100
AcDbLine
 10
-41.5
 20
-16.99287002026318
 30
0.0
 11
-41.5
 21
-120.5000000000001
 31
0.0
  0
ARC
  5
FC
330
E8
100
AcDbEntity
  8
0
370
     0
100
AcDbCircle
 10
-33.5
 20
-16.99287002026318
 30
0.0
 40
8.0
100
AcDbArc
 50
131.0090869015715
 51
180.0
  0
LINE
  5
FD
330
E8
100
AcDbEntity
  8
0
370
     0
100
AcDbLine
 10
-30.75
 20
-4.0
 30
0.0
 11
-38.74942971939822
 21
-10.95602584295517
 31
0.0
  0
LINE
  5
FE
330
E8
100
AcDbEntity
  8
0
370
     0
100
AcDbLine
 10
2.75
 20
-4.0
 30
0.0
 11
10.74942971939822
 21
-10.95602584295511
 31
0.0
  0
ARC
  5
FF
330
E8
100
AcDbEntity
  8
0
370
     0
100
AcDbCircle
 10
3.5
 20
-120.5000000000001
 30
0.0
 40
10.0
100
AcDbArc
 50
270.0
 51
0.0
  0
LINE
  5
100
330
E8
100
AcDbEntity
  8
0
370
     0
100
AcDbLine
 10
13.5
 20
-16.99287002026318
 30
0.0
 11
13.5
 21
-120.5000000000001
 31
0.0
  0
ARC
  5
101
330
E8
100
AcDbEntity
  8
0
370
     0
100
AcDbCircle
 10
5.5
 20
-16.99287002026318
 30
0.0
 40
8.0
100
AcDbArc
 50
0.0
 51
48.99091309842424
  0
ENDBLK
  5
102
330
E8
100
AcDbEntity
  8
0
370
     0
100
AcDbBlockEnd
  0
BLOCK
  5
DC
330
DB
100
AcDbEntity
  8
0
370
     0
100
AcDbBlockBegin
  2
*D18
 70
     1
 10
0.0
 20
0.0
 30
0.0
  3
*D18
  1

  0
LINE
  5
DD
330
DB
100
AcDbEntity
  8
0
 62
     4
440
 16777216
370
    -2
100
AcDbLine
 10
148.4098580707653
 20
451.9774058986662
 30
0.0
 11
183.1871676523624
 21
451.9774058986662
 31
0.0
  0
LINE
  5
DE
330
DB
100
AcDbEntity
  8
0
 62
     4
440
 16777216
370
    -2
100
AcDbLine
 10
146.9098580707651
 20
243.9774058986661
 30
0.0
 11
183.1871676523624
 21
243.9774058986661
 31
0.0
  0
LINE
  5
DF
330
DB
100
AcDbEntity
  8
0
 62
     4
440
 16777216
370
    -2
100
AcDbLine
 10
181.1871676523624
 20
446.9774058986662
 30
0.0
 11
181.1871676523624
 21
248.9774058986661
 31
0.0
  0
SOLID
  5
E0
330
DB
100
AcDbEntity
  8
0
 62
     4
440
 16777216
370
     0
100
AcDbTrace
 10
180.3538343190291
 20
446.9774058986662
 30
0.0
 11
182.0205009856957
 21
446.9774058986662
 31
0.0
 12
181.1871676523624
 22
451.9774058986662
 32
0.0
 13
181.1871676523624
 23
451.9774058986662
 33
0.0
  0
SOLID
  5
E1
330
DB
100
AcDbEntity
  8
0
 62
     4
440
 16777216
370
     0
100
AcDbTrace
 10
180.353834319029
 20
248.9774058986661
 30
0.0
 11
182.0205009856957
 21
248.9774058986661
 31
0.0
 12
181.1871676523624
 22
243.9774058986661
 32
0.0
 13
181.1871676523624
 23
243.9774058986661
 33
0.0
  0
MTEXT
  5
E2
330
DB
100
AcDbEntity
  8
0
 62
     1
440
 16777216
100
AcDbMText
 10
176.6871676523624
 20
347.9774058986663
 30
0.0
 40
5.0
 41
0.0
 46
0.0
 71
     5
 72
     1
  1
208 (250ml)
 11
0.0000000000000001
 21
1.0
 31
0.0
 73
     1
 44
1.0
  0
POINT
  5
E3
330
DB
100
AcDbEntity
  8
Defpoints
 62
     0
440
 16777216
370
     0
100
AcDbPoint
 10
146.4098580707653
 20
451.9774058986662
 30
0.0
  0
POINT
  5
E4
330
DB
100
AcDbEntity
  8
Defpoints
 62
     0
440
 16777216
370
     0
100
AcDbPoint
 10
144.9098580707651
 20
243.9774058986661
 30
0.0
  0
POINT
  5
E5
330
DB
100
AcDbEntity
  8
Defpoints
 62
     0
440
 16777216
370
     0
100
AcDbPoint
 10
181.1871676523624
 20
243.9774058986661
 30
0.0
  0
ENDBLK
  5
E6
330
DB
100
AcDbEntity
  8
0
370
     0
100
AcDbBlockEnd
  0
BLOCK
  5
C0
330
BF
100
AcDbEntity
  8
0
370
     0
100
AcDbBlockBegin
  2
Seifenflasche1000ml-01-s
 70
     0
 10
0.0
 20
0.0
 30
0.0
  3
Seifenflasche1000ml-01-s
  1

  0
LINE
  5
C1
330
BF
100
AcDbEntity
  8
0
370
     0
100
AcDbLine
 10
-2.75
 20
4.0
 30
0.0
 11
-2.75
 21
1.0
 31
0.0
  0
LINE
  5
C2
330
BF
100
AcDbEntity
  8
0
370
     0
100
AcDbLine
 10
-30.75
 20
4.0
 30
0.0
 11
-30.75
 21
0.9999999999999431
 31
0.0
  0
LINE
  5
C3
330
BF
100
AcDbEntity
  8
0
370
     0
100
AcDbLine
 10
-29.25
 20
8.999999999999886
 30
0.0
 11
-29.25
 21
8.5
 31
0.0
  0
LINE
  5
C4
330
BF
100
AcDbEntity
  8
0
370
     0
100
AcDbLine
 10
-5.25
 20
7.5
 30
0.0
 11
-5.25
 21
4.0
 31
0.0
  0
LINE
  5
C5
330
BF
100
AcDbEntity
  8
0
370
     0
100
AcDbLine
 10
-28.24999999999977
 20
7.5
 30
0.0
 11
-28.25
 21
3.999999999999943
 31
0.0
  0
LINE
  5
C6
330
BF
100
AcDbEntity
  8
0
370
     0
100
AcDbLine
 10
-46.74999999999999
 20
-226.5
 30
0.0
 11
13.25
 21
-226.5
 31
0.0
  0
ARC
  5
C7
330
BF
100
AcDbEntity
  8
0
370
     0
100
AcDbCircle
 10
-46.74999999999999
 20
-216.5
 30
0.0
 40
10.0
100
AcDbArc
 50
180.0
 51
270.0
  0
LINE
  5
C8
330
BF
100
AcDbEntity
  8
0
370
     0
100
AcDbLine
 10
-30.75
 20
4.0
 30
0.0
 11
-2.75
 21
4.0
 31
0.0
  0
LINE
  5
C9
330
BF
100
AcDbEntity
  8
0
370
     0
100
AcDbLine
 10
-33.5
 20
0.9999999999999431
 30
0.0
 11
0.0
 21
1.0
 31
0.0
  0
LINE
  5
CA
330
BF
100
AcDbEntity
  8
0
370
     0
100
AcDbLine
 10
-33.5
 20
0.0
 30
0.0
 11
0.0000000000002274
 21
0.0
 31
0.0
  0
LINE
  5
CB
330
BF
100
AcDbEntity
  8
0
370
     0
100
AcDbLine
 10
-28.24999999999977
 20
7.5
 30
0.0
 11
-5.25
 21
7.5
 31
0.0
  0
LINE
  5
CC
330
BF
100
AcDbEntity
  8
0
370
     0
100
AcDbLine
 10
-28.25
 20
7.5
 30
0.0
 11
-29.25
 21
8.5
 31
0.0
  0
LINE
  5
CD
330
BF
100
AcDbEntity
  8
0
370
     0
100
AcDbLine
 10
-4.249999999999772
 20
8.999999999999886
 30
0.0
 11
-4.249999999999772
 21
8.5
 31
0.0
  0
LINE
  5
CE
330
BF
100
AcDbEntity
  8
0
370
     0
100
AcDbLine
 10
-5.249999999999772
 20
7.5
 30
0.0
 11
-4.249999999999772
 21
8.5
 31
0.0
  0
LINE
  5
CF
330
BF
100
AcDbEntity
  8
0
370
     0
100
AcDbLine
 10
-29.25
 20
8.5
 30
0.0
 11
-4.249999999999772
 21
8.5
 31
0.0
  0
LINE
  5
D0
330
BF
100
AcDbEntity
  8
0
370
     0
100
AcDbLine
 10
0.0
 20
1.0
 30
0.0
 11
0.0
 21
0.0
 31
0.0
  0
LINE
  5
D1
330
BF
100
AcDbEntity
  8
0
370
     0
100
AcDbLine
 10
-33.5
 20
0.9999999999999431
 30
0.0
 11
-33.5
 21
0.0
 31
0.0
  0
LINE
  5
D2
330
BF
100
AcDbEntity
  8
0
370
     0
100
AcDbLine
 10
-56.75
 20
-23.86243523765478
 30
0.0
 11
-56.75
 21
-216.5
 31
0.0
  0
ARC
  5
D3
330
BF
100
AcDbEntity
  8
0
370
     0
100
AcDbCircle
 10
-48.75000000000023
 20
-23.86243523765478
 30
0.0
 40
8.0
100
AcDbArc
 50
131.0090869015736
 51
180.0
  0
LINE
  5
D4
330
BF
100
AcDbEntity
  8
0
370
     0
100
AcDbLine
 10
-33.5
 20
0.0
 30
0.0
 11
-53.99942971939822
 21
-17.82559106034665
 31
0.0
  0
LINE
  5
D5
330
BF
100
AcDbEntity
  8
0
370
     0
100
AcDbLine
 10
0.0
 20
0.0
 30
0.0
 11
20.49942971939845
 21
-17.82559106034671
 31
0.0
  0
ARC
  5
D6
330
BF
100
AcDbEntity
  8
0
370
     0
100
AcDbCircle
 10
13.25
 20
-216.5
 30
0.0
 40
10.0
100
AcDbArc
 50
270.0
 51
0.0
  0
LINE
  5
D7
330
BF
100
AcDbEntity
  8
0
370
     0
100
AcDbLine
 10
23.25
 20
-23.86243523765478
 30
0.0
 11
23.25
 21
-216.5
 31
0.0
  0
ARC
  5
D8
330
BF
100
AcDbEntity
  8
0
370
     0
100
AcDbCircle
 10
15.25000000000023
 20
-23.86243523765478
 30
0.0
 40
8.0
100
AcDbArc
 50
0.0
 51
48.99091309842424
  0
ENDBLK
  5
D9
330
BF
100
AcDbEntity
  8
0
370
     0
100
AcDbBlockEnd
  0
BLOCK
  5
B0
330
AF
100
AcDbEntity
  8
0
370
     0
100
AcDbBlockBegin
  2
*D20
 70
     1
 10
0.0
 20
0.0
 30
0.0
  3
*D20
  1

  0
LINE
  5
B1
330
AF
100
AcDbEntity
  8
0
 62
     4
440
 16777216
370
    -2
100
AcDbLine
 10
148.4098580707653
 20
451.9774058986662
 30
0.0
 11
211.6987559039136
 21
451.9774058986662
 31
0.0
  0
LINE
  5
B2
330
AF
100
AcDbEntity
  8
0
 62
     4
440
 16777216
370
    -2
100
AcDbLine
 10
159.4098580707652
 20
143.9774058986663
 30
0.0
 11
211.6987559039135
 21
143.9774058986662
 31
0.0
  0
LINE
  5
B3
330
AF
100
AcDbEntity
  8
0
 62
     4
440
 16777216
370
    -2
100
AcDbLine
 10
209.6987559039135
 20
446.9774058986662
 30
0.0
 11
209.6987559039135
 21
148.9774058986662
 31
0.0
  0
SOLID
  5
B4
330
AF
100
AcDbEntity
  8
0
 62
     4
440
 16777216
370
     0
100
AcDbTrace
 10
208.8654225705802
 20
446.9774058986662
 30
0.0
 11
210.5320892372469
 21
446.9774058986662
 31
0.0
 12
209.6987559039136
 22
451.9774058986662
 32
0.0
 13
209.6987559039136
 23
451.9774058986662
 33
0.0
  0
SOLID
  5
B5
330
AF
100
AcDbEntity
  8
0
 62
     4
440
 16777216
370
     0
100
AcDbTrace
 10
208.8654225705802
 20
148.9774058986662
 30
0.0
 11
210.5320892372468
 21
148.9774058986662
 31
0.0
 12
209.6987559039135
 22
143.9774058986662
 32
0.0
 13
209.6987559039135
 23
143.9774058986662
 33
0.0
  0
MTEXT
  5
B6
330
AF
100
AcDbEntity
  8
0
 62
     1
440
 16777216
100
AcDbMText
 10
205.1987559039135
 20
297.9774058986663
 30
0.0
 40
5.0
 41
0.0
 46
0.0
 71
     5
 72
     1
  1
308 (1000ml)
 11
0.0000000000000001
 21
1.0
 31
0.0
 73
     1
 44
1.0
  0
POINT
  5
B7
330
AF
100
AcDbEntity
  8
Defpoints
 62
     0
440
 16777216
370
     0
100
AcDbPoint
 10
146.4098580707653
 20
451.9774058986662
 30
0.0
  0
POINT
  5
B8
330
AF
100
AcDbEntity
  8
Defpoints
 62
     0
440
 16777216
370
     0
100
AcDbPoint
 10
157.4098580707652
 20
143.9774058986663
 30
0.0
  0
POINT
  5
B9
330
AF
100
AcDbEntity
  8
Defpoints
 62
     0
440
 16777216
370
     0
100
AcDbPoint
 10
209.6987559039135
 20
143.9774058986662
 30
0.0
  0
ENDBLK
  5
BA
330
AF
100
AcDbEntity
  8
0
370
     0
100
AcDbBlockEnd
  0
BLOCK
  5
A3
330
A2
100
AcDbEntity
  8
0
370
     0
100
AcDbBlockBegin
  2
*D21
 70
     1
 10
0.0
 20
0.0
 30
0.0
  3
*D21
  1

  0
LINE
  5
A4
330
A2
100
AcDbEntity
  8
0
 62
     4
440
 16777216
370
    -2
100
AcDbLine
 10
99.90985807076516
 20
251.9774058986661
 30
0.0
 11
99.90985807076516
 21
229.6057409648029
 31
0.0
  0
LINE
  5
A5
330
A2
100
AcDbEntity
  8
0
 62
     4
440
 16777216
370
    -2
100
AcDbLine
 10
154.9098580707651
 20
251.9774058986661
 30
0.0
 11
154.9098580707651
 21
229.6057409648029
 31
0.0
  0
LINE
  5
A6
330
A2
100
AcDbEntity
  8
0
 62
     4
440
 16777216
370
    -2
100
AcDbLine
 10
104.9098580707651
 20
231.6057409648029
 30
0.0
 11
149.9098580707651
 21
231.6057409648029
 31
0.0
  0
MTEXT
  5
A7
330
A2
100
AcDbEntity
  8
0
 62
     1
440
 16777216
100
AcDbMText
 10
144.6524678030923
 20
236.5015638750001
 30
0.0
 40
5.0
 41
0.0
 46
0.0
 71
     5
 72
     1
  1
%%C55
 73
     1
 44
1.0
  0
SOLID
  5
A8
330
A2
100
AcDbEntity
  8
0
 62
     4
440
 16777216
370
     0
100
AcDbTrace
 10
104.9098580707651
 20
232.4390742981362
 30
0.0
 11
104.9098580707651
 21
230.7724076314695
 31
0.0
 12
99.90985807076516
 22
231.6057409648029
 32
0.0
 13
99.90985807076516
 23
231.6057409648029
 33
0.0
  0
SOLID
  5
A9
330
A2
100
AcDbEntity
  8
0
 62
     4
440
 16777216
370
     0
100
AcDbTrace
 10
149.9098580707651
 20
232.4390742981362
 30
0.0
 11
149.9098580707651
 21
230.7724076314695
 31
0.0
 12
154.9098580707651
 22
231.6057409648029
 32
0.0
 13
154.9098580707651
 23
231.6057409648029
 33
0.0
  0
POINT
  5
AA
330
A2
100
AcDbEntity
  8
Defpoints
 62
     0
440
 16777216
370
     0
100
AcDbPoint
 10
99.90985807076516
 20
253.9774058986661
 30
0.0
  0
POINT
  5
AB
330
A2
100
AcDbEntity
  8
Defpoints
 62
     0
440
 16777216
370
     0
100
AcDbPoint
 10
154.9098580707651
 20
253.9774058986661
 30
0.0
  0
POINT
  5
AC
330
A2
100
AcDbEntity
  8
Defpoints
 62
     0
440
 16777216
370
     0
100
AcDbPoint
 10
154.9098580707651
 20
231.6057409648029
 30
0.0
  0
ENDBLK
  5
AD
330
A2
100
AcDbEntity
  8
0
370
     0
100
AcDbBlockEnd
  0
BLOCK
  5
96
330
95
100
AcDbEntity
  8
0
370
     0
100
AcDbBlockBegin
  2
*D22
 70
     1
 10
0.0
 20
0.0
 30
0.0
  3
*D22
  1

  0
LINE
  5
97
330
95
100
AcDbEntity
  8
0
 62
     4
440
 16777216
370
    -2
100
AcDbLine
 10
87.40985807076526
 20
151.9774058986663
 30
0.0
 11
87.40985807076526
 21
129.7929126380259
 31
0.0
  0
LINE
  5
98
330
95
100
AcDbEntity
  8
0
 62
     4
440
 16777216
370
    -2
100
AcDbLine
 10
167.4098580707652
 20
151.9774058986663
 30
0.0
 11
167.4098580707652
 21
129.7929126380259
 31
0.0
  0
LINE
  5
99
330
95
100
AcDbEntity
  8
0
 62
     4
440
 16777216
370
    -2
100
AcDbLine
 10
92.40985807076526
 20
131.7929126380259
 30
0.0
 11
162.4098580707652
 21
131.7929126380259
 31
0.0
  0
SOLID
  5
9A
330
95
100
AcDbEntity
  8
0
 62
     4
440
 16777216
370
     0
100
AcDbTrace
 10
92.40985807076526
 20
132.6262459713592
 30
0.0
 11
92.40985807076526
 21
130.9595793046925
 31
0.0
 12
87.40985807076526
 22
131.7929126380259
 32
0.0
 13
87.40985807076526
 23
131.7929126380259
 33
0.0
  0
SOLID
  5
9B
330
95
100
AcDbEntity
  8
0
 62
     4
440
 16777216
370
     0
100
AcDbTrace
 10
162.4098580707652
 20
132.6262459713592
 30
0.0
 11
162.4098580707652
 21
130.9595793046925
 31
0.0
 12
167.4098580707652
 22
131.7929126380259
 32
0.0
 13
167.4098580707652
 23
131.7929126380259
 33
0.0
  0
MTEXT
  5
9C
330
95
100
AcDbEntity
  8
0
 62
     1
440
 16777216
100
AcDbMText
 10
127.4098580707653
 20
136.2929126380258
 30
0.0
 40
5.0
 41
0.0
 46
0.0
 71
     5
 72
     1
  1
%%C80
 73
     1
 44
1.0
  0
POINT
  5
9D
330
95
100
AcDbEntity
  8
Defpoints
 62
     0
440
 16777216
370
     0
100
AcDbPoint
 10
87.40985807076526
 20
153.9774058986663
 30
0.0
  0
POINT
  5
9E
330
95
100
AcDbEntity
  8
Defpoints
 62
     0
440
 16777216
370
     0
100
AcDbPoint
 10
167.4098580707652
 20
153.9774058986663
 30
0.0
  0
POINT
  5
9F
330
95
100
AcDbEntity
  8
Defpoints
 62
     0
440
 16777216
370
     0
100
AcDbPoint
 10
167.4098580707652
 20
131.7929126380259
 30
0.0
  0
ENDBLK
  5
A0
330
95
100
AcDbEntity
  8
0
370
     0
100
AcDbBlockEnd
  0
BLOCK
  5
89
330
88
100
AcDbEntity
  8
0
370
     0
100
AcDbBlockBegin
  2
*D23
 70
     1
 10
0.0
 20
0.0
 30
0.0
  3
*D23
  1

  0
LINE
  5
8A
330
88
100
AcDbEntity
  8
0
 62
     4
440
 16777216
370
    -2
100
AcDbLine
 10
106.6098580707652
 20
513.9774058986662
 30
0.0
 11
78.27025216350197
 21
513.9774058986662
 31
0.0
  0
LINE
  5
8B
330
88
100
AcDbEntity
  8
0
 62
     4
440
 16777216
370
    -2
100
AcDbLine
 10
107.9098580707651
 20
243.9774058986662
 30
0.0
 11
78.2702521635019
 21
243.9774058986662
 31
0.0
  0
LINE
  5
8C
330
88
100
AcDbEntity
  8
0
 62
     4
440
 16777216
370
    -2
100
AcDbLine
 10
80.27025216350196
 20
508.9774058986662
 30
0.0
 11
80.27025216350191
 21
248.9774058986662
 31
0.0
  0
SOLID
  5
8D
330
88
100
AcDbEntity
  8
0
 62
     4
440
 16777216
100
AcDbTrace
 10
79.43691883016864
 20
508.9774058986662
 30
0.0
 11
81.1035854968353
 21
508.9774058986662
 31
0.0
 12
80.27025216350196
 22
513.9774058986662
 32
0.0
 13
80.27025216350196
 23
513.9774058986662
 33
0.0
  0
SOLID
  5
8E
330
88
100
AcDbEntity
  8
0
 62
     4
440
 16777216
100
AcDbTrace
 10
79.43691883016858
 20
248.9774058986662
 30
0.0
 11
81.10358549683523
 21
248.9774058986662
 31
0.0
 12
80.27025216350191
 22
243.9774058986662
 32
0.0
 13
80.27025216350191
 23
243.9774058986662
 33
0.0
  0
MTEXT
  5
8F
330
88
100
AcDbEntity
  8
0
 62
     1
440
 16777216
100
AcDbMText
 10
75.77025216350188
 20
378.9774058986662
 30
0.0
 40
5.0
 41
0.0
 46
0.0
 71
     5
 72
     1
  1
270
 11
0.0000000000000001
 21
1.0
 31
0.0
 73
     1
 44
1.0
  0
POINT
  5
90
330
88
100
AcDbEntity
  8
Defpoints
 62
     0
440
 16777216
100
AcDbPoint
 10
108.6098580707652
 20
513.9774058986662
 30
0.0
  0
POINT
  5
91
330
88
100
AcDbEntity
  8
Defpoints
 62
     0
440
 16777216
100
AcDbPoint
 10
109.9098580707651
 20
243.9774058986662
 30
0.0
  0
POINT
  5
92
330
88
100
AcDbEntity
  8
Defpoints
 62
     0
440
 16777216
100
AcDbPoint
 10
80.27025216350191
 20
243.9774058986662
 30
0.0
  0
ENDBLK
  5
93
330
88
100
AcDbEntity
  8
0
370
     0
100
AcDbBlockEnd
  0
BLOCK
  5
7A
330
79
100
AcDbEntity
  8
0
370
     0
100
AcDbBlockBegin
  2
*D24
 70
     1
 10
0.0
 20
0.0
 30
0.0
  3
*D24
  1

  0
LINE
  5
7B
330
79
100
AcDbEntity
  8
0
 62
     4
440
 16777216
370
    -2
100
AcDbLine
 10
106.6098580707652
 20
513.9774058986662
 30
0.0
 11
53.82450260638605
 21
513.9774058986662
 31
0.0
  0
LINE
  5
7C
330
79
100
AcDbEntity
  8
0
 62
     4
440
 16777216
370
    -2
100
AcDbLine
 10
95.40985807076527
 20
143.9774058986663
 30
0.0
 11
53.82450260638596
 21
143.9774058986663
 31
0.0
  0
LINE
  5
7D
330
79
100
AcDbEntity
  8
0
 62
     4
440
 16777216
370
    -2
100
AcDbLine
 10
55.82450260638605
 20
508.9774058986662
 30
0.0
 11
55.82450260638597
 21
148.9774058986663
 31
0.0
  0
SOLID
  5
7E
330
79
100
AcDbEntity
  8
0
 62
     4
440
 16777216
100
AcDbTrace
 10
54.99116927305271
 20
508.9774058986662
 30
0.0
 11
56.65783593971938
 21
508.9774058986662
 31
0.0
 12
55.82450260638605
 22
513.9774058986662
 32
0.0
 13
55.82450260638605
 23
513.9774058986662
 33
0.0
  0
SOLID
  5
7F
330
79
100
AcDbEntity
  8
0
 62
     4
440
 16777216
100
AcDbTrace
 10
54.99116927305263
 20
148.9774058986663
 30
0.0
 11
56.6578359397193
 21
148.9774058986663
 31
0.0
 12
55.82450260638596
 22
143.9774058986663
 32
0.0
 13
55.82450260638596
 23
143.9774058986663
 33
0.0
  0
MTEXT
  5
80
330
79
100
AcDbEntity
  8
0
 62
     1
440
 16777216
100
AcDbMText
 10
51.32450260638595
 20
328.9774058986663
 30
0.0
 40
5.0
 41
0.0
 46
0.0
 71
     5
 72
     1
  1
370
 11
0.0000000000000001
 21
1.0
 31
0.0
 73
     1
 44
1.0
  0
POINT
  5
81
330
79
100
AcDbEntity
  8
Defpoints
 62
     0
440
 16777216
100
AcDbPoint
 10
108.6098580707652
 20
513.9774058986662
 30
0.0
  0
POINT
  5
83
330
79
100
AcDbEntity
  8
Defpoints
 62
     0
440
 16777216
100
AcDbPoint
 10
97.40985807076526
 20
143.9774058986663
 30
0.0
  0
POINT
  5
84
330
79
100
AcDbEntity
  8
Defpoints
 62
     0
440
 16777216
100
AcDbPoint
 10
55.82450260638596
 20
143.9774058986663
 30
0.0
  0
ENDBLK
  5
85
330
79
100
AcDbEntity
  8
0
370
     0
100
AcDbBlockEnd
  0
ENDSEC
  0
SECTION
  2
ENTITIES
  0
DIMENSION
  5
78
330
2
100
AcDbEntity
  8
0
100
AcDbDimension
280
     0
  2
*D24
 10
55.82450260638596
 20
143.9774058986663
 30
0.0
 11
51.32450260638595
 21
328.9774058986663
 31
0.0
 71
     5
 42
369.9999999999999
 73
     0
 74
     0
 75
     0
  3
Wagner$0
100
AcDbAlignedDimension
 13
108.6098580707652
 23
513.9774058986662
 33
0.0
 14
97.40985807076526
 24
143.9774058986663
 34
0.0
 50
90.0
100
AcDbRotatedDimension
1001
ACAD
1000
DSTYLE
1002
{
1070
    40
1040
2.0
1002
}
  0
DIMENSION
  5
87
330
2
100
AcDbEntity
  8
0
100
AcDbDimension
280
     0
  2
*D23
 10
80.27025216350191
 20
243.9774058986662
 30
0.0
 11
75.77025216350188
 21
378.9774058986662
 31
0.0
 71
     5
 42
270.0
 73
     0
 74
     0
 75
     0
  3
Wagner$0
100
AcDbAlignedDimension
 13
108.6098580707652
 23
513.9774058986662
 33
0.0
 14
109.9098580707651
 24
243.9774058986662
 34
0.0
 50
90.0
100
AcDbRotatedDimension
1001
ACAD
1000
DSTYLE
1002
{
1070
    40
1040
2.0
1002
}
  0
DIMENSION
  5
94
330
2
100
AcDbEntity
  8
0
100
AcDbDimension
280
     0
  2
*D22
 10
167.4098580707652
 20
131.7929126380259
 30
0.0
 11
127.4098580707653
 21
136.2929126380258
 31
0.0
  1
%%C<>
 71
     5
 42
80.0
 73
     0
 74
     0
 75
     0
  3
Wagner$0
100
AcDbAlignedDimension
 13
87.40985807076526
 23
153.9774058986663
 33
0.0
 14
167.4098580707652
 24
153.9774058986663
 34
0.0
100
AcDbRotatedDimension
1001
ACAD
1000
DSTYLE
1002
{
1070
    40
1040
2.0
1002
}
  0
DIMENSION
  5
A1
330
2
100
AcDbEntity
  8
0
100
AcDbDimension
280
     0
  2
*D21
 10
154.9098580707651
 20
231.6057409648029
 30
0.0
 11
144.6524678030923
 21
236.5015638750001
 31
0.0
 70
   128
  1
%%C<>
 71
     5
 42
55.0
 73
     0
 74
     0
 75
     0
  3
Wagner$0
100
AcDbAlignedDimension
 13
99.90985807076516
 23
253.9774058986661
 33
0.0
 14
154.9098580707651
 24
253.9774058986661
 34
0.0
100
AcDbRotatedDimension
1001
ACAD
1000
DSTYLE
1002
{
1070
    40
1040
2.0
1002
}
  0
DIMENSION
  5
AE
330
2
100
AcDbEntity
  8
0
100
AcDbDimension
280
     0
  2
*D20
 10
209.6987559039135
 20
143.9774058986662
 30
0.0
 11
205.1987559039135
 21
297.9774058986663
 31
0.0
  1
<> (1000ml)
 71
     5
 42
308.0
 73
     0
 74
     0
 75
     0
  3
Wagner$0
100
AcDbAlignedDimension
 13
146.4098580707653
 23
451.9774058986662
 33
0.0
 14
157.4098580707652
 24
143.9774058986663
 34
0.0
 50
90.0
100
AcDbRotatedDimension
1001
ACAD
1000
DSTYLE
1002
{
1070
    40
1040
2.0
1002
}
  0
INSERT
  5
BB
330
2
100
AcDbEntity
  8
05-01
100
AcDbBlockReference
  2
Seifenflasche1000ml-01-s
 10
144.1598580707653
 20
370.4774058986663
 30
0.0
  0
DIMENSION
  5
DA
330
2
100
AcDbEntity
  8
0
100
AcDbDimension
280
     0
  2
*D18
 10
181.1871676523624
 20
243.9774058986661
 30
0.0
 11
176.6871676523624
 21
347.9774058986663
 31
0.0
  1
<> (250ml)
 71
     5
 42
208.0000000000001
 73
     0
 74
     0
 75
     0
  3
Wagner$0
100
AcDbAlignedDimension
 13
146.4098580707653
 23
451.9774058986662
 33
0.0
 14
144.9098580707651
 24
243.9774058986661
 34
0.0
 50
90.0
100
AcDbRotatedDimension
1001
ACAD
1000
DSTYLE
1002
{
1070
    40
1040
2.0
1002
}
  0
INSERT
  5
E7
330
2
100
AcDbEntity
  8
05-01
100
AcDbBlockReference
  2
Seifenflasche250-01-s
 10
141.4098580707651
 20
374.4774058986663
 30
0.0
  0
DIMENSION
  5
103
330
2
100
AcDbEntity
  8
09-01
100
AcDbDimension
280
     0
  2
*D16
 10
390.0863692298872
 20
489.0421680630544
 30
0.0
 11
385.5863692298871
 21
470.5097869808604
 31
0.0
 71
     5
 42
37.06476216438824
 73
     0
 74
     0
 75
     0
  3
Wagner$0
100
AcDbAlignedDimension
 13
299.4820564500612
 23
451.9774058986662
 33
0.0
 14
373.0911791247026
 24
489.0421680630544
 34
0.0
 50
90.0
100
AcDbRotatedDimension
1001
ACAD
1000
DSTYLE
1002
{
1070
   271
1070
     0
1070
    40
1040
2.0
1002
}
  0
DIMENSION
  5
113
330
2
100
AcDbEntity
  8
09-01
100
AcDbDimension
280
     0
  2
*D15
 10
373.0911791247026
 20
424.3755960607159
 30
0.0
 11
336.2866177873819
 21
428.8755960607159
 31
0.0
 71
     5
 42
73.60912267464141
 73
     0
 74
     0
 75
     0
  3
Wagner$0
100
AcDbAlignedDimension
 13
299.4820564500612
 23
451.9774058986662
 33
0.0
 14
373.0911791247026
 24
489.0421680630544
 34
0.0
100
AcDbRotatedDimension
1001
ACAD
1000
DSTYLE
1002
{
1070
   271
1070
     0
1070
    40
1040
2.0
1002
}
  0
DIMENSION
  5
120
330
2
100
AcDbEntity
  8
09-01
100
AcDbDimension
280
     0
  2
*D14
 10
347.9146685104145
 20
482.2961423757223
 30
0.0
 11
347.8847905767604
 21
500.322898126534
 31
0.0
 70
   129
 71
     5
 42
8.999999999999943
 73
     0
 74
     0
 75
     0
  3
Wagner$0
100
AcDbAlignedDimension
 13
346.8809652894096
 23
491.3366480561314
 33
0.0
 14
349.2103366953322
 24
482.6433156195298
 34
0.0
1001
ACAD
1000
DSTYLE
1002
{
1070
    40
1040
2.0
1002
}
  0
DIMENSION
  5
12F
330
2
100
AcDbEntity
  8
09-01
100
AcDbDimension
280
     0
  2
*D13
 10
299.4820564500612
 20
469.3186630868209
 30
0.0
 11
322.0539803411343
 21
440.4489718269843
 31
0.0
 70
   130
 71
     5
 42
1.832595714594046
 73
     0
 74
     0
 75
     0
  3
Wagner
100
AcDb2LineAngularDimension
 13
362.9489579486673
 23
486.324568089478
 33
0.0
 14
299.4820564500613
 24
469.3186630868209
 34
0.0
 15
299.4820564500612
 25
451.9774058986662
 35
0.0
 16
333.9183079580154
 26
456.784892558221
 36
0.0
1001
ACAD
1000
DSTYLE
1002
{
1070
    40
1040
2.0
1002
}
  0
DIMENSION
  5
13D
330
2
100
AcDbEntity
  8
09-01
100
AcDbDimension
280
     0
  2
*D12
 10
314.6980159274572
 20
473.9774058986661
 30
0.0
 11
310.1980159274571
 21
462.9774058986662
 31
0.0
 71
     5
 42
21.99999999999994
 73
     0
 74
     0
 75
     0
  3
Wagner$0
100
AcDbAlignedDimension
 13
299.4820564500612
 23
451.9774058986662
 33
0.0
 14
299.4820564500612
 24
473.9774058986661
 34
0.0
 50
90.0
100
AcDbRotatedDimension
1001
ACAD
1000
DSTYLE
1002
{
1070
    40
1040
2.0
1002
}
  0
DIMENSION
  5
14A
330
2
100
AcDbEntity
  8
09-01
100
AcDbDimension
280
     0
  2
*D11
 10
161.4098580707653
 20
188.5148685395302
 30
0.0
 11
127.4098580707653
 21
193.0148685395302
 31
0.0
  1
%%C<>
 71
     5
 42
68.0
 73
     0
 74
     0
 75
     0
  3
Wagner$0
100
AcDbAlignedDimension
 13
93.40985807076533
 23
213.9774058986663
 33
0.0
 14
161.4098580707653
 24
213.9774058986663
 34
0.0
100
AcDbRotatedDimension
1001
ACAD
1000
DSTYLE
1002
{
1070
    40
1040
2.0
1002
}
  0
DIMENSION
  5
157
330
2
100
AcDbEntity
  8
09-01
100
AcDbDimension
280
     0
  2
*D10
 10
253.9985769171575
 20
213.9774058986662
 30
0.0
 11
249.4985769171575
 21
301.4774058986663
 31
0.0
 71
     5
 42
175.0
 73
     0
 74
     0
 75
     0
  3
Wagner$0
100
AcDbAlignedDimension
 13
268.9820564500613
 23
388.9774058986662
 33
0.0
 14
284.9820564500612
 24
213.9774058986662
 34
0.0
 50
90.0
100
AcDbRotatedDimension
1001
ACAD
1000
DSTYLE
1002
{
1070
    40
1040
2.0
1002
}
  0
DIMENSION
  5
164
330
2
100
AcDbEntity
  8
09-01
100
AcDbDimension
280
     0
  2
*D9
 10
194.9420257802849
 20
203.9774058986662
 30
0.0
 11
190.4420257802848
 21
327.9774058986663
 31
0.0
  1
Standard <> (500ml)
 71
     5
 42
248.0
 73
     0
 74
     0
 75
     0
  3
Wagner$0
100
AcDbAlignedDimension
 13
146.4098580707653
 23
451.9774058986662
 33
0.0
 14
151.4098580707653
 24
203.9774058986663
 34
0.0
 50
90.0
100
AcDbRotatedDimension
1001
ACAD
1000
DSTYLE
1002
{
1070
    40
1040
2.0
1002
}
  0
DIMENSION
  5
171
330
2
100
AcDbEntity
  8
09-01
100
AcDbDimension
280
     0
  2
*D8
 10
67.68823547113834
 20
513.9774058986662
 30
0.0
 11
63.18823547113825
 21
358.9774058986662
 31
0.0
 71
     5
 42
310.0
 73
     0
 74
     0
 75
     0
  3
Wagner$0
100
AcDbAlignedDimension
 13
103.4098580707653
 23
203.9774058986663
 33
0.0
 14
108.6098580707652
 24
513.9774058986662
 34
0.0
 50
90.0
100
AcDbRotatedDimension
1001
ACAD
1000
DSTYLE
1002
{
1070
    40
1040
2.0
1002
}
  0
LINE
  5
17E
330
2
100
AcDbEntity
  8
0
100
AcDbLine
 10
144.1598580707653
 20
370.4774058986662
 30
0.0
 11
158.6592877901636
 21
357.8692061426677
 31
0.0
  0
ARC
  5
17F
330
2
100
AcDbEntity
  8
0
100
AcDbCircle
 10
153.4098580707653
 20
351.8323619653596
 30
0.0
 40
8.0
100
AcDbArc
 50
0.0
 51
48.99091309842986
  0
LINE
  5
180
330
2
100
AcDbEntity
  8
0
100
AcDbLine
 10
161.4098580707653
 20
351.8323619653596
 30
0.0
 11
161.4098580707653
 21
213.9774058986663
 31
0.0
  0
LINE
  5
181
330
2
100
AcDbEntity
  8
0
100
AcDbLine
 10
110.6598580707653
 20
370.4774058986662
 30
0.0
 11
96.16042835136703
 21
357.8692061426677
 31
0.0
  0
ARC
  5
182
330
2
100
AcDbEntity
  8
0
100
AcDbCircle
 10
101.4098580707653
 20
351.8323619653596
 30
0.0
 40
8.0
100
AcDbArc
 50
131.0090869015704
 51
180.0
  0
LINE
  5
183
330
2
100
AcDbEntity
  8
0
100
AcDbLine
 10
93.40985807076533
 20
351.8323619653596
 30
0.0
 11
93.40985807076533
 21
213.9774058986663
 31
0.0
  0
ARC
  5
184
330
2
100
AcDbEntity
  8
0
100
AcDbCircle
 10
151.4098580707653
 20
213.9774058986663
 30
0.0
 40
10.0
100
AcDbArc
 50
270.0
 51
0.0
  0
LINE
  5
185
330
2
100
AcDbEntity
  8
0
100
AcDbLine
 10
110.6598580707653
 20
371.4774058986662
 30
0.0
 11
110.6598580707653
 21
370.4774058986662
 31
0.0
  0
LINE
  5
186
330
2
100
AcDbEntity
  8
0
100
AcDbLine
 10
144.1598580707653
 20
371.4774058986662
 30
0.0
 11
144.1598580707653
 21
370.4774058986662
 31
0.0
  0
LINE
  5
187
330
2
100
AcDbEntity
  8
0
100
AcDbLine
 10
114.9098580707653
 20
378.9774058986663
 30
0.0
 11
139.9098580707654
 21
378.9774058986663
 31
0.0
  0
LINE
  5
188
330
2
100
AcDbEntity
  8
0
100
AcDbLine
 10
114.9098580707653
 20
383.9774058986662
 30
0.0
 11
139.9098580707654
 21
383.9774058986662
 31
0.0
  0
LINE
  5
189
330
2
100
AcDbEntity
  8
0
100
AcDbLine
 10
138.9098580707654
 20
377.9774058986662
 30
0.0
 11
139.9098580707654
 21
378.9774058986663
 31
0.0
  0
LINE
  5
18A
330
2
100
AcDbEntity
  8
0
100
AcDbLine
 10
139.9098580707654
 20
379.4774058986662
 30
0.0
 11
139.9098580707654
 21
378.9774058986663
 31
0.0
  0
LINE
  5
18B
330
2
100
AcDbEntity
  8
0
100
AcDbLine
 10
115.9098580707653
 20
377.9774058986662
 30
0.0
 11
114.9098580707653
 21
378.9774058986663
 31
0.0
  0
LINE
  5
18C
330
2
100
AcDbEntity
  8
0
100
AcDbLine
 10
115.9098580707653
 20
377.9774058986662
 30
0.0
 11
138.9098580707653
 21
377.9774058986662
 31
0.0
  0
LINE
  5
18D
330
2
100
AcDbEntity
  8
0
100
AcDbLine
 10
110.6598580707653
 20
370.4774058986663
 30
0.0
 11
144.1598580707653
 21
370.4774058986662
 31
0.0
  0
LINE
  5
18E
330
2
100
AcDbEntity
  8
0
100
AcDbLine
 10
110.6598580707653
 20
371.4774058986662
 30
0.0
 11
144.1598580707653
 21
371.4774058986662
 31
0.0
  0
LINE
  5
18F
330
2
100
AcDbEntity
  8
0
100
AcDbLine
 10
113.4098580707653
 20
374.4774058986662
 30
0.0
 11
141.4098580707653
 21
374.4774058986663
 31
0.0
  0
ARC
  5
190
330
2
100
AcDbEntity
  8
0
100
AcDbCircle
 10
103.4098580707653
 20
213.9774058986663
 30
0.0
 40
10.0
100
AcDbArc
 50
180.0
 51
270.0
  0
LINE
  5
191
330
2
100
AcDbEntity
  8
0
100
AcDbLine
 10
103.4098580707653
 20
203.9774058986663
 30
0.0
 11
151.4098580707653
 21
203.9774058986663
 31
0.0
  0
LINE
  5
192
330
2
100
AcDbEntity
  8
0
100
AcDbLine
 10
115.9098580707653
 20
377.9774058986662
 30
0.0
 11
115.9098580707653
 21
374.4774058986662
 31
0.0
  0
LINE
  5
193
330
2
100
AcDbEntity
  8
0
100
AcDbLine
 10
138.9098580707653
 20
377.9774058986662
 30
0.0
 11
138.9098580707653
 21
374.4774058986663
 31
0.0
  0
LINE
  5
194
330
2
100
AcDbEntity
  8
0
100
AcDbLine
 10
114.9098580707653
 20
379.4774058986662
 30
0.0
 11
114.9098580707653
 21
378.9774058986663
 31
0.0
  0
LINE
  5
195
330
2
100
AcDbEntity
  8
0
100
AcDbLine
 10
115.6598580707653
 20
391.9774058986662
 30
0.0
 11
139.1598580707653
 21
391.9774058986662
 31
0.0
  0
LINE
  5
196
330
2
100
AcDbEntity
  8
0
100
AcDbLine
 10
114.6598580707653
 20
390.9774058986662
 30
0.0
 11
140.1598580707653
 21
390.9774058986662
 31
0.0
  0
LINE
  5
197
330
2
100
AcDbEntity
  8
0
100
AcDbLine
 10
113.4098580707653
 20
389.9774058986663
 30
0.0
 11
141.4098580707653
 21
389.9774058986663
 31
0.0
  0
ARC
  5
198
330
2
100
AcDbEntity
  8
0
100
AcDbCircle
 10
140.1598580707653
 20
389.9774058986663
 30
0.0
 40
1.0
100
AcDbArc
 50
0.0
 51
90.0
  0
ARC
  5
199
330
2
100
AcDbEntity
  8
0
100
AcDbCircle
 10
140.1598580707653
 20
391.9774058986662
 30
0.0
 40
1.0
100
AcDbArc
 50
180.0
 51
270.0
  0
ARC
  5
19A
330
2
100
AcDbEntity
  8
0
100
AcDbCircle
 10
116.6598580707653
 20
398.4774058986662
 30
0.0
 40
1.0
100
AcDbArc
 50
90.0
 51
180.0
  0
LINE
  5
19B
330
2
100
AcDbEntity
  8
0
100
AcDbLine
 10
115.6598580707653
 20
398.4774058986662
 30
0.0
 11
115.6598580707653
 21
391.9774058986662
 31
0.0
  0
ARC
  5
19C
330
2
100
AcDbEntity
  8
0
100
AcDbCircle
 10
138.1598580707653
 20
398.4774058986662
 30
0.0
 40
1.0
100
AcDbArc
 50
0.0
 51
90.0
  0
LINE
  5
19D
330
2
100
AcDbEntity
  8
0
100
AcDbLine
 10
139.1598580707653
 20
398.4774058986662
 30
0.0
 11
139.1598580707653
 21
391.9774058986662
 31
0.0
  0
LINE
  5
19E
330
2
100
AcDbEntity
  8
0
100
AcDbLine
 10
113.6598580707653
 20
383.9774058986662
 30
0.0
 11
113.6598580707653
 21
380.4774058986662
 31
0.0
  0
ARC
  5
19F
330
2
100
AcDbEntity
  8
0
100
AcDbCircle
 10
140.1598580707653
 20
380.4774058986662
 30
0.0
 40
1.0
100
AcDbArc
 50
270.0
 51
0.0
  0
LINE
  5
1A0
330
2
100
AcDbEntity
  8
0
100
AcDbLine
 10
141.1598580707653
 20
383.9774058986662
 30
0.0
 11
141.1598580707653
 21
380.4774058986662
 31
0.0
  0
LINE
  5
1A1
330
2
100
AcDbEntity
  8
0
100
AcDbLine
 10
113.4098580707653
 20
389.9774058986663
 30
0.0
 11
113.4098580707653
 21
383.9774058986662
 31
0.0
  0
LINE
  5
1A2
330
2
100
AcDbEntity
  8
0
100
AcDbLine
 10
141.4098580707653
 20
389.9774058986663
 30
0.0
 11
141.4098580707653
 21
383.9774058986662
 31
0.0
  0
LINE
  5
1A3
330
2
100
AcDbEntity
  8
0
100
AcDbLine
 10
113.4098580707653
 20
374.4774058986662
 30
0.0
 11
113.4098580707653
 21
371.4774058986662
 31
0.0
  0
LINE
  5
1A4
330
2
100
AcDbEntity
  8
0
100
AcDbLine
 10
141.4098580707653
 20
374.4774058986663
 30
0.0
 11
141.4098580707653
 21
371.4774058986662
 31
0.0
  0
LINE
  5
1A5
330
2
100
AcDbEntity
  8
05-01
100
AcDbLine
 10
127.4098580707653
 20
402.0254129069197
 30
0.0
 11
127.4098580707653
 21
376.8997276245039
 31
0.0
  0
ARC
  5
1A6
330
2
100
AcDbEntity
  8
0
100
AcDbCircle
 10
114.6598580707653
 20
389.9774058986663
 30
0.0
 40
1.0
100
AcDbArc
 50
90.0
 51
180.0
  0
ARC
  5
1A7
330
2
100
AcDbEntity
  8
0
100
AcDbCircle
 10
114.6598580707653
 20
391.9774058986662
 30
0.0
 40
1.0
100
AcDbArc
 50
270.0
 51
0.0
  0
LINE
  5
1A8
330
2
100
AcDbEntity
  8
0
100
AcDbLine
 10
113.4098580707653
 20
383.9774058986662
 30
0.0
 11
141.4098580707653
 21
383.9774058986662
 31
0.0
  0
ARC
  5
1A9
330
2
100
AcDbEntity
  8
0
100
AcDbCircle
 10
114.6598580707653
 20
380.4774058986662
 30
0.0
 40
1.0
100
AcDbArc
 50
180.0
 51
270.0
  0
LINE
  5
1AA
330
2
100
AcDbEntity
  8
0
100
AcDbLine
 10
114.6598580707653
 20
379.4774058986662
 30
0.0
 11
140.1598580707653
 21
379.4774058986662
 31
0.0
  0
LINE
  5
1AB
330
2
100
AcDbEntity
  8
0
100
AcDbLine
 10
116.6598580707653
 20
399.4774058986662
 30
0.0
 11
138.1598580707653
 21
399.4774058986662
 31
0.0
  0
DIMENSION
  5
1AC
330
2
100
AcDbEntity
  8
09-01
100
AcDbDimension
280
     0
  2
*D7
 10
165.5046109850815
 20
411.9774058986662
 30
0.0
 11
161.0046109850815
 21
431.9774058986662
 31
0.0
  1
max.<>
 71
     5
 42
40.00000000000006
 73
     0
 74
     0
 75
     0
  3
Wagner$0
100
AcDbAlignedDimension
 13
146.4098580707653
 23
451.9774058986662
 33
0.0
 14
147.1598580707653
 24
411.9774058986662
 34
0.0
 50
90.0
100
AcDbRotatedDimension
1001
ACAD
1000
DSTYLE
1002
{
1070
    40
1040
2.0
1002
}
  0
LINE
  5
1B9
330
2
100
AcDbEntity
  8
0
100
AcDbLine
 10
134.3380613010408
 20
403.7774058986662
 30
0.0
 11
134.3380613010409
 21
410.7774058986662
 31
0.0
  0
LINE
  5
1BA
330
2
100
AcDbEntity
  8
0
100
AcDbLine
 10
120.4816548404898
 20
403.7774058986661
 30
0.0
 11
120.4816548404898
 21
410.7774058986661
 31
0.0
  0
LINE
  5
1BB
330
2
100
AcDbEntity
  8
0
100
AcDbLine
 10
141.2662645313163
 20
403.7774058986662
 30
0.0
 11
141.2662645313163
 21
410.7774058986662
 31
0.0
  0
LINE
  5
1BC
330
2
100
AcDbEntity
  8
0
100
AcDbLine
 10
113.5534516102143
 20
403.7774058986662
 30
0.0
 11
113.5534516102143
 21
410.7774058986662
 31
0.0
  0
ARC
  5
1BD
330
2
100
AcDbEntity
  8
03-01
100
AcDbCircle
 10
294.9820564500612
 20
452.7274058986662
 30
0.0
 40
1.749999999999996
100
AcDbArc
 50
334.6230664748477
 51
205.3769335251523
  0
ARC
  5
1C1
330
2
100
AcDbEntity
  8
0
100
AcDbCircle
 10
294.9820564500612
 20
452.7274058986662
 30
0.0
 40
1.75
100
AcDbArc
 50
205.3769335251523
 51
334.6230664748477
  0
ARC
  5
1C2
330
2
100
AcDbEntity
  8
03-01
100
AcDbCircle
 10
265.9820564500612
 20
452.7274058986662
 30
0.0
 40
1.749999999999996
100
AcDbArc
 50
334.6230664748475
 51
205.3769335251524
  0
LINE
  5
1C3
330
2
100
AcDbEntity
  8
0
100
AcDbLine
 10
265.9820564500612
 20
450.9774058986662
 30
0.0
 11
294.9820564500612
 21
450.9774058986662
 31
0.0
  0
ARC
  5
1C4
330
2
100
AcDbEntity
  8
0
100
AcDbCircle
 10
265.9820564500612
 20
452.7274058986662
 30
0.0
 40
1.75
100
AcDbArc
 50
205.3769335251524
 51
334.6230664748475
  0
LINE
  5
1C5
330
2
100
AcDbEntity
  8
03-01
100
AcDbLine
 10
263.9820564500612
 20
454.4774058986662
 30
0.0
 11
296.9820564500612
 21
454.4774058986662
 31
0.0
  0
LINE
  5
1C6
330
2
100
AcDbEntity
  8
03-01
100
AcDbLine
 10
263.9820564500612
 20
451.9774058986662
 30
0.0
 11
263.9820564500612
 21
454.4774058986662
 31
0.0
  0
LINE
  5
1C7
330
2
100
AcDbEntity
  8
03-01
100
AcDbLine
 10
296.9820564500612
 20
451.9774058986662
 30
0.0
 11
296.9820564500612
 21
454.4774058986662
 31
0.0
  0
LINE
  5
1C8
330
2
100
AcDbEntity
  8
03-01
100
AcDbLine
 10
267.6320564500612
 20
451.9774058986662
 30
0.0
 11
267.6320564500612
 21
454.4774058986662
 31
0.0
  0
LINE
  5
1C9
330
2
100
AcDbEntity
  8
03-01
100
AcDbLine
 10
293.3320564500611
 20
451.9774058986662
 30
0.0
 11
293.3320564500611
 21
454.4774058986662
 31
0.0
  0
ARC
  5
1CA
330
2
100
AcDbEntity
  8
03-01
100
AcDbCircle
 10
141.9098580707653
 20
452.7274058986662
 30
0.0
 40
1.749999999999996
100
AcDbArc
 50
334.6230664748479
 51
205.3769335251522
  0
ARC
  5
1CB
330
2
100
AcDbEntity
  8
0
100
AcDbCircle
 10
141.9098580707653
 20
452.7274058986662
 30
0.0
 40
1.75
100
AcDbArc
 50
205.3769335251522
 51
334.6230664748479
  0
ARC
  5
1CC
330
2
100
AcDbEntity
  8
03-01
100
AcDbCircle
 10
112.9098580707653
 20
452.7274058986662
 30
0.0
 40
1.749999999999996
100
AcDbArc
 50
334.6230664748476
 51
205.3769335251524
  0
LINE
  5
1CD
330
2
100
AcDbEntity
  8
0
100
AcDbLine
 10
112.9098580707653
 20
450.9774058986662
 30
0.0
 11
141.9098580707653
 21
450.9774058986662
 31
0.0
  0
ARC
  5
1CE
330
2
100
AcDbEntity
  8
0
100
AcDbCircle
 10
112.9098580707653
 20
452.7274058986662
 30
0.0
 40
1.75
100
AcDbArc
 50
205.3769335251524
 51
334.6230664748476
  0
LINE
  5
1CF
330
2
100
AcDbEntity
  8
03-01
100
AcDbLine
 10
283.4820564500611
 20
421.460248611141
 30
0.0
 11
277.4820564500611
 21
421.460248611141
 31
0.0
  0
LINE
  5
1D0
330
2
100
AcDbEntity
  8
03-01
100
AcDbLine
 10
283.982056450061
 20
418.8774058986663
 30
0.0
 11
276.982056450061
 21
418.8774058986663
 31
0.0
  0
LINE
  5
1D1
330
2
100
AcDbEntity
  8
03-01
100
AcDbLine
 10
283.9820564500611
 20
420.8774058986663
 30
0.0
 11
276.9820564500611
 21
420.8774058986663
 31
0.0
  0
LINE
  5
1D2
330
2
100
AcDbEntity
  8
03-01
100
AcDbLine
 10
287.7320564500611
 20
446.9774058986665
 30
0.0
 11
287.7320564500611
 21
459.9774058986662
 31
0.0
  0
LINE
  5
1D3
330
2
100
AcDbEntity
  8
03-01
100
AcDbLine
 10
273.2320564500611
 20
459.9774058986662
 30
0.0
 11
273.2320564500611
 21
446.9774058986665
 31
0.0
  0
LINE
  5
1D4
330
2
100
AcDbEntity
  8
03-01
100
AcDbLine
 10
282.8907688789564
 20
415.3774058986662
 30
0.0
 11
278.0733440211659
 21
415.3774058986662
 31
0.0
  0
LINE
  5
1D5
330
2
100
AcDbEntity
  8
03-01
100
AcDbLine
 10
286.4820564500611
 20
431.3774058986663
 30
0.0
 11
274.482056450061
 21
431.3774058986663
 31
0.0
  0
LINE
  5
1D6
330
2
100
AcDbEntity
  8
03-01
100
AcDbLine
 10
272.782056450061
 20
446.9774058986662
 30
0.0
 11
288.1820564500611
 21
446.9774058986665
 31
0.0
  0
LINE
  5
1D7
330
2
100
AcDbEntity
  8
03-01
100
AcDbLine
 10
288.1820564500611
 20
434.3774058986663
 30
0.0
 11
272.782056450061
 21
434.3774058986663
 31
0.0
  0
ARC
  5
1D8
330
2
100
AcDbEntity
  8
03-01
100
AcDbCircle
 10
278.0733440211659
 20
415.5774058986663
 30
0.0
 40
0.200000000000017
100
AcDbArc
 50
194.9999999999944
 51
269.999999999987
  0
ARC
  5
1D9
330
2
100
AcDbEntity
  8
03-01
100
AcDbCircle
 10
282.8907688789564
 20
415.5774058986663
 30
0.0
 40
0.2000000000000698
100
AcDbArc
 50
270.0
 51
345.0000000000055
  0
LINE
  5
1DA
330
2
100
AcDbEntity
  8
03-01
100
AcDbLine
 10
283.4820564500611
 20
421.460248611141
 30
0.0
 11
283.4820564500611
 21
431.1774058986663
 31
0.0
  0
LINE
  5
1DB
330
2
100
AcDbEntity
  8
03-01
100
AcDbLine
 10
277.4820564500611
 20
431.1774058986663
 30
0.0
 11
277.4820564500611
 21
421.460248611141
 31
0.0
  0
ARC
  5
1DC
330
2
100
AcDbEntity
  8
03-01
100
AcDbCircle
 10
277.282056450061
 20
421.460248611141
 30
0.0
 40
0.1999999999999886
100
AcDbArc
 50
314.999999999991
 51
0.0
  0
ARC
  5
1DD
330
2
100
AcDbEntity
  8
03-01
100
AcDbCircle
 10
283.6820564500611
 20
421.460248611141
 30
0.0
 40
0.1999999999999886
100
AcDbArc
 50
180.0
 51
225.0000000000091
  0
ARC
  5
1DE
330
2
100
AcDbEntity
  8
03-01
100
AcDbCircle
 10
277.282056450061
 20
431.1774058986663
 30
0.0
 40
0.2000000000000028
100
AcDbArc
 50
0.0
 51
90.0
  0
ARC
  5
1DF
330
2
100
AcDbEntity
  8
03-01
100
AcDbCircle
 10
283.6820564500611
 20
431.1774058986663
 30
0.0
 40
0.2000000000000028
100
AcDbArc
 50
89.99999999998697
 51
180.0
  0
LINE
  5
1E0
330
2
100
AcDbEntity
  8
03-01
100
AcDbLine
 10
277.4234778062985
 20
421.3188272549035
 30
0.0
 11
276.9820564500611
 21
420.8774058986663
 31
0.0
  0
LINE
  5
1E1
330
2
100
AcDbEntity
  8
03-01
100
AcDbLine
 10
283.9820564500611
 20
420.8774058986663
 30
0.0
 11
283.5406350938238
 21
421.3188272549035
 31
0.0
  0
LINE
  5
1E2
330
2
100
AcDbEntity
  8
03-01
100
AcDbLine
 10
283.982056450061
 20
418.8774058986663
 30
0.0
 11
283.9820564500611
 21
420.8774058986663
 31
0.0
  0
LINE
  5
1E3
330
2
100
AcDbEntity
  8
03-01
100
AcDbLine
 10
276.9820564500611
 20
420.8774058986663
 30
0.0
 11
276.982056450061
 21
418.8774058986663
 31
0.0
  0
LINE
  5
1E4
330
2
100
AcDbEntity
  8
03-01
100
AcDbLine
 10
283.0839540442141
 20
415.5256420896458
 30
0.0
 11
283.982056450061
 21
418.8774058986663
 31
0.0
  0
LINE
  5
1E5
330
2
100
AcDbEntity
  8
03-01
100
AcDbLine
 10
276.982056450061
 20
418.8774058986663
 30
0.0
 11
277.8801588559079
 21
415.5256420896458
 31
0.0
  0
LINE
  5
1E6
330
2
100
AcDbEntity
  8
03-01
100
AcDbLine
 10
286.4820564500611
 20
431.3774058986663
 30
0.0
 11
286.4820564500613
 21
434.1774058986662
 31
0.0
  0
ARC
  5
1E7
330
2
100
AcDbEntity
  8
03-01
100
AcDbCircle
 10
286.6820564500611
 20
434.1774058986662
 30
0.0
 40
0.2000000000000028
100
AcDbArc
 50
89.99999999996092
 51
180.0
  0
LINE
  5
1E8
330
2
100
AcDbEntity
  8
03-01
100
AcDbLine
 10
274.482056450061
 20
434.1774058986662
 30
0.0
 11
274.482056450061
 21
431.3774058986663
 31
0.0
  0
ARC
  5
1E9
330
2
100
AcDbEntity
  8
03-01
100
AcDbCircle
 10
274.282056450061
 20
434.1774058986662
 30
0.0
 40
0.2000000000000028
100
AcDbArc
 50
0.0
 51
90.00000000001303
  0
LINE
  5
1EA
330
2
100
AcDbEntity
  8
03-01
100
AcDbLine
 10
272.782056450061
 20
446.9774058986662
 30
0.0
 11
272.5820564500612
 21
446.7774058986664
 31
0.0
  0
LINE
  5
1EB
330
2
100
AcDbEntity
  8
03-01
100
AcDbLine
 10
288.3820564500611
 20
446.7774058986664
 30
0.0
 11
288.1820564500611
 21
446.9774058986662
 31
0.0
  0
LINE
  5
1EC
330
2
100
AcDbEntity
  8
03-01
100
AcDbLine
 10
288.3820564500611
 20
434.5774058986664
 30
0.0
 11
288.3820564500611
 21
446.7774058986664
 31
0.0
  0
LINE
  5
1ED
330
2
100
AcDbEntity
  8
03-01
100
AcDbLine
 10
272.5820564500612
 20
446.7774058986664
 30
0.0
 11
272.5820564500612
 21
434.5774058986664
 31
0.0
  0
LINE
  5
1EE
330
2
100
AcDbEntity
  8
03-01
100
AcDbLine
 10
288.1820564500611
 20
434.3774058986663
 30
0.0
 11
288.3820564500611
 21
434.5774058986664
 31
0.0
  0
LINE
  5
1EF
330
2
100
AcDbEntity
  8
03-01
100
AcDbLine
 10
272.5820564500612
 20
434.5774058986664
 30
0.0
 11
272.782056450061
 21
434.3774058986663
 31
0.0
  0
LINE
  5
1F0
330
2
100
AcDbEntity
  8
03-01
100
AcDbLine
 10
272.4820564500612
 20
388.9774058986662
 30
0.0
 11
272.4820564500612
 21
459.9774058986662
 31
0.0
  0
LINE
  5
1F1
330
2
100
AcDbEntity
  8
03-01
100
AcDbLine
 10
288.4820564500612
 20
388.9774058986662
 30
0.0
 11
288.4820564500612
 21
459.9774058986662
 31
0.0
  0
LINE
  5
1F2
330
2
100
AcDbEntity
  8
03-01
100
AcDbLine
 10
277.4820564500612
 20
221.4774058986662
 30
0.0
 11
277.4820564500612
 21
431.3774058986663
 31
0.0
  0
LINE
  5
1F3
330
2
100
AcDbEntity
  8
03-01
100
AcDbLine
 10
275.9820564500612
 20
388.9774058986662
 30
0.0
 11
275.9820564500612
 21
431.3774058986663
 31
0.0
  0
LINE
  5
1F4
330
2
100
AcDbEntity
  8
0
100
AcDbLine
 10
275.9820564500612
 20
222.9774058986663
 30
0.0
 11
275.9820564500612
 21
388.9774058986662
 31
0.0
  0
LINE
  5
1F5
330
2
100
AcDbEntity
  8
03-01
100
AcDbLine
 10
283.4820564500612
 20
215.4774058986662
 30
0.0
 11
283.4820564500612
 21
431.3774058986663
 31
0.0
  0
LINE
  5
1F6
330
2
100
AcDbEntity
  8
03-01
100
AcDbLine
 10
284.9820564500611
 20
388.9774058986662
 30
0.0
 11
284.9820564500611
 21
431.3774058986663
 31
0.0
  0
LINE
  5
1F7
330
2
100
AcDbEntity
  8
0
100
AcDbLine
 10
284.9820564500612
 20
213.9774058986662
 30
0.0
 11
284.9820564500611
 21
388.9774058986662
 31
0.0
  0
LINE
  5
1F8
330
2
100
AcDbEntity
  8
03-01
100
AcDbLine
 10
269.2320564500612
 20
480.9774058986662
 30
0.0
 11
269.2320564500612
 21
483.9774058986662
 31
0.0
  0
LINE
  5
1F9
330
2
100
AcDbEntity
  8
03-01
100
AcDbLine
 10
291.7320564500613
 20
480.9774058986661
 30
0.0
 11
291.7320564500613
 21
483.9774058986662
 31
0.0
  0
LINE
  5
1FA
330
2
100
AcDbEntity
  8
03-01
100
AcDbLine
 10
270.9820564500612
 20
459.9774058986662
 30
0.0
 11
270.9820564500612
 21
480.9774058986662
 31
0.0
  0
LINE
  5
1FB
330
2
100
AcDbEntity
  8
03-01
100
AcDbLine
 10
289.9820564500612
 20
459.9774058986662
 30
0.0
 11
289.9820564500612
 21
480.9774058986661
 31
0.0
  0
LINE
  5
1FC
330
2
100
AcDbEntity
  8
03-01
100
AcDbLine
 10
269.2320564500612
 20
480.9774058986662
 30
0.0
 11
291.7320564500613
 21
480.9774058986661
 31
0.0
  0
LINE
  5
1FD
330
2
100
AcDbEntity
  8
03-01
100
AcDbLine
 10
270.9820564500612
 20
459.9774058986662
 30
0.0
 11
289.9820564500612
 21
459.9774058986662
 31
0.0
  0
LINE
  5
1FE
330
2
100
AcDbEntity
  8
0
100
AcDbLine
 10
275.9820564500612
 20
222.9774058986663
 30
0.0
 11
284.9820564500612
 21
213.9774058986662
 31
0.0
  0
LINE
  5
1FF
330
2
100
AcDbEntity
  8
03-01
100
AcDbLine
 10
130.4098580707652
 20
421.460248611141
 30
0.0
 11
124.4098580707652
 21
421.460248611141
 31
0.0
  0
LINE
  5
200
330
2
100
AcDbEntity
  8
03-01
100
AcDbLine
 10
130.9098580707651
 20
418.8774058986663
 30
0.0
 11
123.9098580707651
 21
418.8774058986663
 31
0.0
  0
LINE
  5
201
330
2
100
AcDbEntity
  8
03-01
100
AcDbLine
 10
130.9098580707652
 20
420.8774058986663
 30
0.0
 11
123.9098580707652
 21
420.8774058986663
 31
0.0
  0
LINE
  5
202
330
2
100
AcDbEntity
  8
03-01
100
AcDbLine
 10
134.6598580707652
 20
446.9774058986665
 30
0.0
 11
134.6598580707652
 21
459.9774058986662
 31
0.0
  0
LINE
  5
203
330
2
100
AcDbEntity
  8
03-01
100
AcDbLine
 10
120.1598580707652
 20
459.9774058986662
 30
0.0
 11
120.1598580707652
 21
446.9774058986665
 31
0.0
  0
LINE
  5
204
330
2
100
AcDbEntity
  8
03-01
100
AcDbLine
 10
129.8185704996605
 20
415.3774058986662
 30
0.0
 11
125.00114564187
 21
415.3774058986662
 31
0.0
  0
LINE
  5
205
330
2
100
AcDbEntity
  8
03-01
100
AcDbLine
 10
133.4098580707652
 20
431.3774058986663
 30
0.0
 11
121.4098580707652
 21
431.3774058986663
 31
0.0
  0
LINE
  5
206
330
2
100
AcDbEntity
  8
03-01
100
AcDbLine
 10
119.7098580707651
 20
446.9774058986662
 30
0.0
 11
135.1098580707652
 21
446.9774058986665
 31
0.0
  0
LINE
  5
207
330
2
100
AcDbEntity
  8
03-01
100
AcDbLine
 10
135.1098580707652
 20
434.3774058986663
 30
0.0
 11
119.7098580707651
 21
434.3774058986663
 31
0.0
  0
ARC
  5
208
330
2
100
AcDbEntity
  8
03-01
100
AcDbCircle
 10
125.00114564187
 20
415.5774058986663
 30
0.0
 40
0.200000000000017
100
AcDbArc
 50
194.9999999999944
 51
269.999999999987
  0
ARC
  5
209
330
2
100
AcDbEntity
  8
03-01
100
AcDbCircle
 10
129.8185704996605
 20
415.5774058986663
 30
0.0
 40
0.2000000000000698
100
AcDbArc
 50
270.0
 51
345.0000000000055
  0
LINE
  5
20A
330
2
100
AcDbEntity
  8
03-01
100
AcDbLine
 10
130.4098580707652
 20
421.460248611141
 30
0.0
 11
130.4098580707652
 21
431.1774058986663
 31
0.0
  0
LINE
  5
20B
330
2
100
AcDbEntity
  8
03-01
100
AcDbLine
 10
124.4098580707652
 20
431.1774058986663
 30
0.0
 11
124.4098580707652
 21
421.460248611141
 31
0.0
  0
ARC
  5
20C
330
2
100
AcDbEntity
  8
03-01
100
AcDbCircle
 10
124.2098580707651
 20
421.460248611141
 30
0.0
 40
0.1999999999999886
100
AcDbArc
 50
314.9999999999908
 51
0.0
  0
ARC
  5
20D
330
2
100
AcDbEntity
  8
03-01
100
AcDbCircle
 10
130.6098580707652
 20
421.460248611141
 30
0.0
 40
0.1999999999999886
100
AcDbArc
 50
180.0
 51
225.0000000000091
  0
ARC
  5
20E
330
2
100
AcDbEntity
  8
03-01
100
AcDbCircle
 10
124.2098580707651
 20
431.1774058986663
 30
0.0
 40
0.2000000000000028
100
AcDbArc
 50
0.0
 51
90.0
  0
ARC
  5
20F
330
2
100
AcDbEntity
  8
03-01
100
AcDbCircle
 10
130.6098580707652
 20
431.1774058986663
 30
0.0
 40
0.2000000000000028
100
AcDbArc
 50
89.99999999998697
 51
180.0
  0
LINE
  5
210
330
2
100
AcDbEntity
  8
03-01
100
AcDbLine
 10
124.3512794270027
 20
421.3188272549035
 30
0.0
 11
123.9098580707652
 21
420.8774058986663
 31
0.0
  0
LINE
  5
211
330
2
100
AcDbEntity
  8
03-01
100
AcDbLine
 10
130.9098580707652
 20
420.8774058986663
 30
0.0
 11
130.4684367145279
 21
421.3188272549035
 31
0.0
  0
LINE
  5
212
330
2
100
AcDbEntity
  8
03-01
100
AcDbLine
 10
130.9098580707651
 20
418.8774058986663
 30
0.0
 11
130.9098580707652
 21
420.8774058986663
 31
0.0
  0
LINE
  5
213
330
2
100
AcDbEntity
  8
03-01
100
AcDbLine
 10
123.9098580707652
 20
420.8774058986663
 30
0.0
 11
123.9098580707651
 21
418.8774058986663
 31
0.0
  0
LINE
  5
214
330
2
100
AcDbEntity
  8
03-01
100
AcDbLine
 10
130.0117556649182
 20
415.5256420896458
 30
0.0
 11
130.9098580707651
 21
418.8774058986663
 31
0.0
  0
LINE
  5
215
330
2
100
AcDbEntity
  8
03-01
100
AcDbLine
 10
123.9098580707651
 20
418.8774058986663
 30
0.0
 11
124.807960476612
 21
415.5256420896458
 31
0.0
  0
LINE
  5
216
330
2
100
AcDbEntity
  8
03-01
100
AcDbLine
 10
133.4098580707652
 20
431.3774058986663
 30
0.0
 11
133.4098580707654
 21
434.1774058986662
 31
0.0
  0
ARC
  5
217
330
2
100
AcDbEntity
  8
03-01
100
AcDbCircle
 10
133.6098580707652
 20
434.1774058986662
 30
0.0
 40
0.2000000000000028
100
AcDbArc
 50
89.99999999996092
 51
180.0
  0
LINE
  5
218
330
2
100
AcDbEntity
  8
03-01
100
AcDbLine
 10
121.4098580707652
 20
434.1774058986662
 30
0.0
 11
121.4098580707652
 21
431.3774058986663
 31
0.0
  0
ARC
  5
219
330
2
100
AcDbEntity
  8
03-01
100
AcDbCircle
 10
121.2098580707651
 20
434.1774058986662
 30
0.0
 40
0.2000000000000028
100
AcDbArc
 50
0.0
 51
90.00000000001302
  0
LINE
  5
21A
330
2
100
AcDbEntity
  8
03-01
100
AcDbLine
 10
119.7098580707651
 20
446.9774058986662
 30
0.0
 11
119.5098580707653
 21
446.7774058986664
 31
0.0
  0
LINE
  5
21B
330
2
100
AcDbEntity
  8
03-01
100
AcDbLine
 10
135.3098580707653
 20
446.7774058986664
 30
0.0
 11
135.1098580707652
 21
446.9774058986662
 31
0.0
  0
LINE
  5
21C
330
2
100
AcDbEntity
  8
03-01
100
AcDbLine
 10
135.3098580707653
 20
434.5774058986664
 30
0.0
 11
135.3098580707653
 21
446.7774058986664
 31
0.0
  0
LINE
  5
21D
330
2
100
AcDbEntity
  8
03-01
100
AcDbLine
 10
119.5098580707653
 20
446.7774058986664
 30
0.0
 11
119.5098580707653
 21
434.5774058986664
 31
0.0
  0
LINE
  5
21E
330
2
100
AcDbEntity
  8
03-01
100
AcDbLine
 10
135.1098580707652
 20
434.3774058986663
 30
0.0
 11
135.3098580707653
 21
434.5774058986664
 31
0.0
  0
LINE
  5
21F
330
2
100
AcDbEntity
  8
03-01
100
AcDbLine
 10
119.5098580707653
 20
434.5774058986664
 30
0.0
 11
119.7098580707651
 21
434.3774058986663
 31
0.0
  0
ARC
  5
220
330
2
100
AcDbEntity
  8
0
100
AcDbCircle
 10
374.341307987464
 20
167.7708464276439
 30
0.0
 40
4.5
100
AcDbArc
 50
270.0
 51
90.0
  0
LINE
  5
221
330
2
100
AcDbEntity
  8
0
100
AcDbLine
 10
374.3413079874638
 20
172.2708464276438
 30
0.0
 11
298.9414713920359
 21
172.2708464276438
 31
0.0
  0
LINE
  5
222
330
2
100
AcDbEntity
  8
0
100
AcDbLine
 10
374.341307987464
 20
163.2708464276439
 30
0.0
 11
298.9414713920359
 21
163.2708464276438
 31
0.0
  0
LINE
  5
223
330
2
100
AcDbEntity
  8
05-01
100
AcDbLine
 10
379.8604346139882
 20
167.7708464276438
 30
0.0
 11
259.4820564500612
 21
167.7708464276437
 31
0.0
  0
DIMENSION
  5
224
330
2
100
AcDbEntity
  8
09-01
100
AcDbDimension
280
     0
  2
*D6
 10
253.9985769171575
 20
388.9774058986662
 30
0.0
 11
249.4985769171575
 21
420.4774058986663
 31
0.0
 71
     5
 42
63.0
 73
     0
 74
     0
 75
     0
  3
Wagner$0
100
AcDbAlignedDimension
 13
261.4820564500612
 23
451.9774058986662
 33
0.0
 14
270.9820564500613
 24
388.9774058986662
 34
0.0
 50
90.0
100
AcDbRotatedDimension
1001
ACAD
1000
DSTYLE
1002
{
1070
    40
1040
2.0
1002
}
  0
LINE
  5
231
330
2
100
AcDbEntity
  8
0
100
AcDbLine
 10
261.4820564500612
 20
451.9774058986662
 30
0.0
 11
299.4820564500612
 21
451.9774058986662
 31
0.0
  0
LINE
  5
232
330
2
100
AcDbEntity
  8
03-01
100
AcDbLine
 10
110.9098580707653
 20
454.4774058986662
 30
0.0
 11
143.9098580707653
 21
454.4774058986662
 31
0.0
  0
LINE
  5
233
330
2
100
AcDbEntity
  8
0
100
AcDbLine
 10
113.5534516102143
 20
403.7774058986662
 30
0.0
 11
141.2662645313163
 21
403.7774058986662
 31
0.0
  0
LINE
  5
234
330
2
100
AcDbEntity
  8
0
100
AcDbLine
 10
107.6598580707653
 20
410.7774058986662
 30
0.0
 11
147.1598580707653
 21
410.7774058986662
 31
0.0
  0
LINE
  5
235
330
2
100
AcDbEntity
  8
0
100
AcDbLine
 10
107.6598580707653
 20
411.9774058986662
 30
0.0
 11
147.1598580707653
 21
411.9774058986662
 31
0.0
  0
LINE
  5
236
330
2
100
AcDbEntity
  8
0
100
AcDbLine
 10
108.4098580707652
 20
451.9774058986662
 30
0.0
 11
146.4098580707653
 21
451.9774058986662
 31
0.0
  0
DIMENSION
  5
237
330
2
100
AcDbEntity
  8
09-01
100
AcDbDimension
280
     0
  2
*D5
 10
99.54771202410569
 20
503.9774058986662
 30
0.0
 11
95.04771202410561
 21
508.9774058986662
 31
0.0
 71
     5
 42
10.0
 73
     0
 74
     0
 75
     0
  3
Wagner$0
100
AcDbAlignedDimension
 13
108.6098580707652
 23
513.9774058986662
 33
0.0
 14
108.6098580707652
 24
503.9774058986662
 34
0.0
 50
90.0
100
AcDbRotatedDimension
1001
ACAD
1000
DSTYLE
1002
{
1070
    40
1040
2.0
1002
}
  0
DIMENSION
  5
246
330
2
100
AcDbEntity
  8
09-01
100
AcDbDimension
280
     0
  2
*D4
 10
99.54771202410569
 20
493.9774058986662
 30
0.0
 11
95.04771202410561
 21
472.9774058986662
 31
0.0
 71
     5
 42
42.0
 73
     0
 74
     0
 75
     0
  3
Wagner$0
100
AcDbAlignedDimension
 13
108.4098580707652
 23
451.9774058986662
 33
0.0
 14
108.6098580707652
 24
493.9774058986662
 34
0.0
 50
90.0
100
AcDbRotatedDimension
1001
ACAD
1000
DSTYLE
1002
{
1070
    40
1040
2.0
1002
}
  0
ARC
  5
253
330
2
100
AcDbEntity
  8
0
100
AcDbCircle
 10
127.4098580707654
 20
500.5314462262934
 30
0.0
 40
12.00691625344403
100
AcDbArc
 50
254.2941700406266
 51
285.7058299593715
  0
ARC
  5
254
330
2
100
AcDbEntity
  8
0
100
AcDbCircle
 10
127.4098580707654
 20
501.5667224067034
 30
0.0
 40
12.00691625344403
100
AcDbArc
 50
254.2941700406266
 51
285.7058299593715
  0
ARC
  5
255
330
2
100
AcDbEntity
  8
0
100
AcDbCircle
 10
127.4098580707654
 20
483.5935356484843
 30
0.0
 40
7.191015376166995
100
AcDbArc
 50
63.12869305729599
 51
116.871306942706
  0
ELLIPSE
  5
256
330
2
100
AcDbEntity
  8
0
100
AcDbEllipse
 10
127.4098580707653
 20
489.0421680630544
 30
0.0
 11
-0.8999999999999772
 21
0.0
 31
0.0
210
0.0
220
0.0
230
1.0
 40
0.2588190451025603
 41
0.0
 42
6.283185307179586
  0
ARC
  5
257
330
2
100
AcDbEntity
  8
0
100
AcDbCircle
 10
127.4098580707654
 20
491.2497345452417
 30
0.0
 40
4.92516645576372
100
AcDbArc
 50
228.7056525662943
 51
311.2943474337057
  0
LINE
  5
258
330
2
100
AcDbEntity
  8
0
100
AcDbLine
 10
130.6601110939764
 20
490.6551415021
 30
0.0
 11
130.6601110939766
 21
487.5493129608695
 31
0.0
  0
LINE
  5
259
330
2
100
AcDbEntity
  8
0
100
AcDbLine
 10
124.1596050475541
 20
490.6551415021
 30
0.0
 11
124.1596050475541
 21
487.5493129608697
 31
0.0
  0
ELLIPSE
  5
25A
330
2
100
AcDbEntity
  8
0
100
AcDbEllipse
 10
127.4098580707659
 20
490.6551415021006
 30
0.0
 11
-3.250253023211769
 21
-0.0000000000006253
 31
0.0
210
0.0
220
0.0
230
1.0
 40
0.2252288675190066
 41
3.141592653589793
 42
6.283185307179586
  0
LINE
  5
25B
330
2
100
AcDbEntity
  8
0
100
AcDbLine
 10
130.6601110939764
 20
487.5493129608696
 30
0.0
 11
124.1596050475541
 21
487.5493129608696
 31
0.0
  0
ELLIPSE
  5
25C
330
2
100
AcDbEntity
  8
03-01
100
AcDbEllipse
 10
127.4098580707653
 20
473.9774058986661
 30
0.0
 11
0.0
 21
4.658742811845456
 31
0.0
210
0.0
220
0.0
230
-1.0
 40
0.965925826289051
 41
4.712388980384689
 42
7.853981633974482
  0
LINE
  5
25D
330
2
100
AcDbEntity
  8
0
100
AcDbLine
 10
131.9098580707653
 20
473.9774058986661
 30
0.0
 11
131.9098580707653
 21
493.8771390822662
 31
0.0
  0
LINE
  5
25E
330
2
100
AcDbEntity
  8
0
100
AcDbLine
 10
122.9098580707653
 20
473.9774058986661
 30
0.0
 11
122.9098580707653
 21
493.8771390822662
 31
0.0
  0
ELLIPSE
  5
25F
330
2
100
AcDbEntity
  8
0
100
AcDbEllipse
 10
127.4098580707653
 20
493.8771390822662
 30
0.0
 11
0.0
 21
-4.658742811845456
 31
0.0
210
0.0
220
0.0
230
1.0
 40
0.965925826289051
 41
0.807091127101677
 42
5.476094180078286
  0
LINE
  5
260
330
2
100
AcDbEntity
  8
0
100
AcDbLine
 10
261.6820564500612
 20
513.9774058986662
 30
0.0
 11
299.2820564500614
 21
513.9774058986662
 31
0.0
  0
LINE
  5
261
330
2
100
AcDbEntity
  8
0
100
AcDbLine
 10
299.4820564500612
 20
513.7774058986662
 30
0.0
 11
261.4820564500612
 21
513.7774058986662
 31
0.0
  0
LINE
  5
262
330
2
100
AcDbEntity
  8
0
100
AcDbLine
 10
261.6820564500612
 20
513.9774058986662
 30
0.0
 11
261.4820564500612
 21
513.7774058986662
 31
0.0
  0
LINE
  5
263
330
2
100
AcDbEntity
  8
0
100
AcDbLine
 10
299.4820564500612
 20
513.7774058986662
 30
0.0
 11
299.2820564500614
 21
513.9774058986662
 31
0.0
  0
LINE
  5
264
330
2
100
AcDbEntity
  8
0
100
AcDbLine
 10
299.4820564500612
 20
504.1774058986662
 30
0.0
 11
299.2820564500614
 21
503.9774058986662
 31
0.0
  0
LINE
  5
265
330
2
100
AcDbEntity
  8
0
100
AcDbLine
 10
261.6820564500612
 20
503.9774058986662
 30
0.0
 11
261.4820564500612
 21
504.1774058986662
 31
0.0
  0
LINE
  5
266
330
2
100
AcDbEntity
  8
0
100
AcDbLine
 10
261.4820564500612
 20
504.1774058986662
 30
0.0
 11
299.4820564500612
 21
504.1774058986661
 31
0.0
  0
LINE
  5
267
330
2
100
AcDbEntity
  8
0
100
AcDbLine
 10
261.6820564500612
 20
503.9774058986662
 30
0.0
 11
299.2820564500614
 21
503.9774058986662
 31
0.0
  0
LINE
  5
268
330
2
100
AcDbEntity
  8
0
100
AcDbLine
 10
299.4820564500612
 20
504.1774058986661
 30
0.0
 11
299.4820564500612
 21
513.7774058986662
 31
0.0
  0
LINE
  5
269
330
2
100
AcDbEntity
  8
0
100
AcDbLine
 10
261.4820564500612
 20
513.7774058986662
 30
0.0
 11
261.4820564500612
 21
504.1774058986661
 31
0.0
  0
LINE
  5
26A
330
2
100
AcDbEntity
  8
0
100
AcDbLine
 10
267.4820564500614
 20
494.4774058986662
 30
0.0
 11
293.4820564500612
 21
494.4774058986662
 31
0.0
  0
ARC
  5
26B
330
2
100
AcDbEntity
  8
0
100
AcDbCircle
 10
293.9820564500612
 20
494.4774058986662
 30
0.0
 40
0.5
100
AcDbArc
 50
179.9999999999992
 51
270.0
  0
LINE
  5
26C
330
2
100
AcDbEntity
  8
0
100
AcDbLine
 10
293.4820564500612
 20
501.7774058986661
 30
0.0
 11
267.4820564500612
 21
501.7774058986661
 31
0.0
  0
LINE
  5
26D
330
2
100
AcDbEntity
  8
0
100
AcDbLine
 10
267.6820564500612
 20
501.9774058986662
 30
0.0
 11
267.4820564500612
 21
501.7774058986661
 31
0.0
  0
LINE
  5
26E
330
2
100
AcDbEntity
  8
0
100
AcDbLine
 10
293.4820564500612
 20
501.7774058986661
 30
0.0
 11
293.2820564500614
 21
501.9774058986662
 31
0.0
  0
ARC
  5
26F
330
2
100
AcDbEntity
  8
0
100
AcDbCircle
 10
266.9820564500614
 20
494.4774058986662
 30
0.0
 40
0.5
100
AcDbArc
 50
270.0
 51
0.0000000000008142
  0
LINE
  5
270
330
2
100
AcDbEntity
  8
0
100
AcDbLine
 10
267.4820564500614
 20
494.4774058986662
 30
0.0
 11
267.4820564500612
 21
501.7774058986661
 31
0.0
  0
LINE
  5
271
330
2
100
AcDbEntity
  8
0
100
AcDbLine
 10
293.4820564500612
 20
494.4774058986662
 30
0.0
 11
293.4820564500612
 21
501.7774058986661
 31
0.0
  0
LINE
  5
272
330
2
100
AcDbEntity
  8
0
100
AcDbLine
 10
273.4820564500614
 20
501.9774058986662
 30
0.0
 11
273.4820564500613
 21
503.9774058986662
 31
0.0
  0
LINE
  5
273
330
2
100
AcDbEntity
  8
0
100
AcDbLine
 10
287.4820564500612
 20
501.9774058986662
 30
0.0
 11
287.4820564500612
 21
503.9774058986662
 31
0.0
  0
LINE
  5
274
330
2
100
AcDbEntity
  8
0
100
AcDbLine
 10
267.6820564500612
 20
503.9774058986662
 30
0.0
 11
293.2820564500614
 21
503.9774058986662
 31
0.0
  0
LINE
  5
275
330
2
100
AcDbEntity
  8
0
100
AcDbLine
 10
267.6820564500612
 20
501.9774058986662
 30
0.0
 11
293.2820564500614
 21
501.9774058986662
 31
0.0
  0
LINE
  5
276
330
2
100
AcDbEntity
  8
0
100
AcDbLine
 10
261.4820564500612
 20
493.7774058986661
 30
0.0
 11
261.4820564500612
 21
484.1774058986662
 31
0.0
  0
LINE
  5
277
330
2
100
AcDbEntity
  8
0
100
AcDbLine
 10
108.6098580707652
 20
513.9774058986662
 30
0.0
 11
146.2098580707654
 21
513.9774058986662
 31
0.0
  0
LINE
  5
278
330
2
100
AcDbEntity
  8
0
100
AcDbLine
 10
146.4098580707653
 20
513.7774058986662
 30
0.0
 11
108.4098580707653
 21
513.7774058986662
 31
0.0
  0
LINE
  5
279
330
2
100
AcDbEntity
  8
0
100
AcDbLine
 10
108.6098580707652
 20
513.9774058986662
 30
0.0
 11
108.4098580707653
 21
513.7774058986662
 31
0.0
  0
LINE
  5
27A
330
2
100
AcDbEntity
  8
0
100
AcDbLine
 10
146.4098580707653
 20
513.7774058986662
 30
0.0
 11
146.2098580707654
 21
513.9774058986662
 31
0.0
  0
LINE
  5
27B
330
2
100
AcDbEntity
  8
0
100
AcDbLine
 10
146.4098580707653
 20
504.1774058986662
 30
0.0
 11
146.2098580707654
 21
503.9774058986662
 31
0.0
  0
LINE
  5
27C
330
2
100
AcDbEntity
  8
0
100
AcDbLine
 10
108.6098580707652
 20
503.9774058986662
 30
0.0
 11
108.4098580707653
 21
504.1774058986662
 31
0.0
  0
LINE
  5
27D
330
2
100
AcDbEntity
  8
0
100
AcDbLine
 10
108.4098580707653
 20
504.1774058986662
 30
0.0
 11
146.4098580707653
 21
504.1774058986661
 31
0.0
  0
LINE
  5
27E
330
2
100
AcDbEntity
  8
0
100
AcDbLine
 10
108.6098580707652
 20
503.9774058986662
 30
0.0
 11
146.2098580707654
 21
503.9774058986662
 31
0.0
  0
LINE
  5
27F
330
2
100
AcDbEntity
  8
0
100
AcDbLine
 10
146.4098580707653
 20
504.1774058986661
 30
0.0
 11
146.4098580707653
 21
513.7774058986662
 31
0.0
  0
LINE
  5
280
330
2
100
AcDbEntity
  8
0
100
AcDbLine
 10
108.4098580707652
 20
513.7774058986662
 30
0.0
 11
108.4098580707653
 21
504.1774058986661
 31
0.0
  0
LINE
  5
281
330
2
100
AcDbEntity
  8
0
100
AcDbLine
 10
131.8723480292065
 20
494.4774058986662
 30
0.0
 11
140.4098580707652
 21
494.4774058986662
 31
0.0
  0
LINE
  5
282
330
2
100
AcDbEntity
  8
0
100
AcDbLine
 10
114.4098580707654
 20
494.4774058986662
 30
0.0
 11
122.9473681123242
 21
494.4774058986662
 31
0.0
  0
ARC
  5
283
330
2
100
AcDbEntity
  8
0
100
AcDbCircle
 10
140.9098580707652
 20
494.4774058986662
 30
0.0
 40
0.5
100
AcDbArc
 50
179.9999999999992
 51
270.0
  0
LINE
  5
284
330
2
100
AcDbEntity
  8
0
100
AcDbLine
 10
140.4098580707653
 20
501.7774058986661
 30
0.0
 11
114.4098580707653
 21
501.7774058986661
 31
0.0
  0
LINE
  5
285
330
2
100
AcDbEntity
  8
0
100
AcDbLine
 10
114.6098580707652
 20
501.9774058986662
 30
0.0
 11
114.4098580707653
 21
501.7774058986661
 31
0.0
  0
LINE
  5
286
330
2
100
AcDbEntity
  8
0
100
AcDbLine
 10
140.4098580707653
 20
501.7774058986661
 30
0.0
 11
140.2098580707654
 21
501.9774058986662
 31
0.0
  0
ELLIPSE
  5
287
330
2
100
AcDbEntity
  8
0
100
AcDbEllipse
 10
127.4098580707653
 20
473.9774058986661
 30
0.0
 11
0.0
 21
-4.658742811845456
 31
0.0
210
0.0
220
0.0
230
1.0
 40
0.965925826289051
 41
4.712388980384689
 42
7.853981633974482
  0
LINE
  5
288
330
2
100
AcDbEntity
  8
0
100
AcDbLine
 10
261.6820564500612
 20
493.9774058986662
 30
0.0
 11
299.2820564500614
 21
493.9774058986662
 31
0.0
  0
LINE
  5
289
330
2
100
AcDbEntity
  8
0
100
AcDbLine
 10
299.4820564500612
 20
493.7774058986661
 30
0.0
 11
261.4820564500612
 21
493.7774058986661
 31
0.0
  0
LINE
  5
28A
330
2
100
AcDbEntity
  8
0
100
AcDbLine
 10
261.6820564500612
 20
493.9774058986662
 30
0.0
 11
261.4820564500612
 21
493.7774058986661
 31
0.0
  0
LINE
  5
28B
330
2
100
AcDbEntity
  8
0
100
AcDbLine
 10
299.4820564500612
 20
493.7774058986661
 30
0.0
 11
299.2820564500614
 21
493.9774058986662
 31
0.0
  0
ARC
  5
28C
330
2
100
AcDbEntity
  8
0
100
AcDbCircle
 10
319.2862038863328
 20
473.9774058986662
 30
0.0
 40
20.34473249429688
100
AcDbArc
 50
166.76237658833
 51
193.2376234116695
  0
CIRCLE
  5
28D
330
2
100
AcDbEntity
  8
0
100
AcDbCircle
 10
280.4820564500612
 20
167.7708464276439
 30
0.0
 40
19.0
  0
ARC
  5
28E
330
2
100
AcDbEntity
  8
0
100
AcDbCircle
 10
373.4794076923563
 20
487.5932793236208
 30
0.0
 40
2.499999999999965
100
AcDbArc
 50
51.86989764584343
 51
158.1301023541571
  0
LINE
  5
28F
330
2
100
AcDbEntity
  8
0
100
AcDbLine
 10
371.1593274721244
 20
488.5245299728494
 30
0.0
 11
375.0230307772806
 21
489.5598061532594
 31
0.0
  0
ARC
  5
290
330
2
100
AcDbEntity
  8
0
100
AcDbCircle
 10
374.341307987464
 20
494.0358818941116
 30
0.0
 40
4.5
100
AcDbArc
 50
323.9424412689821
 51
104.9999999999995
  0
LINE
  5
291
330
2
100
AcDbEntity
  8
0
100
AcDbLine
 10
131.9088157298171
 20
493.9774058986662
 30
0.0
 11
146.2098580707654
 21
493.9774058986662
 31
0.0
  0
LINE
  5
292
330
2
100
AcDbEntity
  8
0
100
AcDbLine
 10
108.6098580707652
 20
493.9774058986662
 30
0.0
 11
122.9109004117135
 21
493.9774058986662
 31
0.0
  0
LINE
  5
293
330
2
100
AcDbEntity
  8
0
100
AcDbLine
 10
122.9108893450263
 20
493.7774058986661
 30
0.0
 11
108.4098580707653
 21
493.7774058986661
 31
0.0
  0
LINE
  5
294
330
2
100
AcDbEntity
  8
0
100
AcDbLine
 10
146.4098580707653
 20
493.7774058986661
 30
0.0
 11
131.9088267965042
 21
493.7774058986661
 31
0.0
  0
LINE
  5
295
330
2
100
AcDbEntity
  8
0
100
AcDbLine
 10
108.6098580707652
 20
493.9774058986662
 30
0.0
 11
108.4098580707653
 21
493.7774058986661
 31
0.0
  0
LINE
  5
296
330
2
100
AcDbEntity
  8
0
100
AcDbLine
 10
146.4098580707653
 20
493.7774058986661
 30
0.0
 11
146.2098580707654
 21
493.9774058986662
 31
0.0
  0
LINE
  5
297
330
2
100
AcDbEntity
  8
0
100
AcDbLine
 10
299.4820564500612
 20
484.1774058986662
 30
0.0
 11
299.2820564500613
 21
483.9774058986662
 31
0.0
  0
LINE
  5
298
330
2
100
AcDbEntity
  8
0
100
AcDbLine
 10
261.6820564500612
 20
483.9774058986662
 30
0.0
 11
261.4820564500612
 21
484.1774058986662
 31
0.0
  0
LINE
  5
299
330
2
100
AcDbEntity
  8
0
100
AcDbLine
 10
146.4098580707653
 20
484.1774058986662
 30
0.0
 11
146.2098580707654
 21
483.9774058986662
 31
0.0
  0
LINE
  5
29A
330
2
100
AcDbEntity
  8
0
100
AcDbLine
 10
108.6098580707652
 20
483.9774058986662
 30
0.0
 11
108.4098580707653
 21
484.1774058986662
 31
0.0
  0
LINE
  5
29B
330
2
100
AcDbEntity
  8
05-01
100
AcDbLine
 10
280.4820564500612
 20
146.7708464276439
 30
0.0
 11
280.4820564500612
 21
188.7708464276439
 31
0.0
  0
LINE
  5
29C
330
2
100
AcDbEntity
  8
0
100
AcDbLine
 10
289.9820564500612
 20
388.9774058986662
 30
0.0
 11
290.9820564500612
 21
389.9774058986663
 31
0.0
  0
LINE
  5
29D
330
2
100
AcDbEntity
  8
0
100
AcDbLine
 10
269.9820564500612
 20
389.9774058986663
 30
0.0
 11
270.9820564500612
 21
388.9774058986662
 31
0.0
  0
LINE
  5
29E
330
2
100
AcDbEntity
  8
0
100
AcDbLine
 10
269.9820564500612
 20
389.9774058986663
 30
0.0
 11
290.9820564500612
 21
389.9774058986663
 31
0.0
  0
LINE
  5
29F
330
2
100
AcDbEntity
  8
0
100
AcDbLine
 10
270.9820564500612
 20
388.9774058986662
 30
0.0
 11
289.9820564500612
 21
388.9774058986662
 31
0.0
  0
LINE
  5
2A0
330
2
100
AcDbEntity
  8
0
 62
     4
100
AcDbLine
 10
270.9820564500612
 20
451.9774058986662
 30
0.0
 11
270.9820564500612
 21
388.9774058986662
 31
0.0
  0
LINE
  5
2A1
330
2
100
AcDbEntity
  8
0
100
AcDbLine
 10
269.9820564500612
 20
450.9774058986662
 30
0.0
 11
269.9820564500612
 21
389.9774058986663
 31
0.0
  0
LINE
  5
2A2
330
2
100
AcDbEntity
  8
03-01
100
AcDbLine
 10
269.9820564500612
 20
451.9774058986662
 30
0.0
 11
269.9820564500612
 21
450.9774058986662
 31
0.0
  0
LINE
  5
2A3
330
2
100
AcDbEntity
  8
0
 62
     4
100
AcDbLine
 10
289.9820564500612
 20
388.9774058986662
 30
0.0
 11
289.9820564500612
 21
451.9774058986662
 31
0.0
  0
LINE
  5
2A4
330
2
100
AcDbEntity
  8
03-01
100
AcDbLine
 10
290.9820564500612
 20
450.9774058986662
 30
0.0
 11
290.9820564500612
 21
451.9774058986662
 31
0.0
  0
LINE
  5
2A5
330
2
100
AcDbEntity
  8
0
100
AcDbLine
 10
290.9820564500612
 20
389.9774058986663
 30
0.0
 11
290.9820564500612
 21
450.9774058986662
 31
0.0
  0
LINE
  5
2A6
330
2
100
AcDbEntity
  8
05-01
100
AcDbLine
 10
280.4820564500612
 20
386.1603343610237
 30
0.0
 11
280.4820564500612
 21
518.8677178793269
 31
0.0
  0
ARC
  5
2A7
330
2
100
AcDbEntity
  8
0
100
AcDbCircle
 10
113.9098580707654
 20
494.4774058986662
 30
0.0
 40
0.5
100
AcDbArc
 50
270.0
 51
0.0000000000008142
  0
LINE
  5
2A8
330
2
100
AcDbEntity
  8
0
100
AcDbLine
 10
114.4098580707654
 20
494.4774058986662
 30
0.0
 11
114.4098580707653
 21
501.7774058986661
 31
0.0
  0
LINE
  5
2A9
330
2
100
AcDbEntity
  8
0
100
AcDbLine
 10
140.4098580707653
 20
494.4774058986662
 30
0.0
 11
140.4098580707653
 21
501.7774058986661
 31
0.0
  0
LINE
  5
2AA
330
2
100
AcDbEntity
  8
0
100
AcDbLine
 10
120.4098580707654
 20
501.9774058986662
 30
0.0
 11
120.4098580707654
 21
503.9774058986662
 31
0.0
  0
LINE
  5
2AB
330
2
100
AcDbEntity
  8
0
100
AcDbLine
 10
134.4098580707653
 20
501.9774058986662
 30
0.0
 11
134.4098580707653
 21
503.9774058986662
 31
0.0
  0
LINE
  5
2AC
330
2
100
AcDbEntity
  8
03-01
100
AcDbLine
 10
119.4098580707653
 20
411.9774058986661
 30
0.0
 11
119.4098580707653
 21
459.9774058986662
 31
0.0
  0
LINE
  5
2AD
330
2
100
AcDbEntity
  8
03-01
100
AcDbLine
 10
119.4098580707653
 20
399.4774058986662
 30
0.0
 11
119.4098580707653
 21
403.7774058986662
 31
0.0
  0
LINE
  5
2AE
330
2
100
AcDbEntity
  8
03-01
100
AcDbLine
 10
135.4098580707653
 20
411.9774058986661
 30
0.0
 11
135.4098580707653
 21
459.9774058986662
 31
0.0
  0
LINE
  5
2AF
330
2
100
AcDbEntity
  8
03-01
100
AcDbLine
 10
135.4098580707653
 20
399.4774058986662
 30
0.0
 11
135.4098580707653
 21
403.7774058986662
 31
0.0
  0
LINE
  5
2B0
330
2
100
AcDbEntity
  8
03-01
100
AcDbLine
 10
124.4098580707653
 20
221.4774058986662
 30
0.0
 11
124.4098580707653
 21
431.3774058986663
 31
0.0
  0
LINE
  5
2B1
330
2
100
AcDbEntity
  8
03-01
100
AcDbLine
 10
122.9098580707653
 20
388.9774058986662
 30
0.0
 11
122.9098580707653
 21
431.3774058986663
 31
0.0
  0
LINE
  5
2B2
330
2
100
AcDbEntity
  8
03-01
100
AcDbLine
 10
122.9098580707653
 20
222.9774058986663
 30
0.0
 11
122.9098580707653
 21
388.9774058986662
 31
0.0
  0
LINE
  5
2B3
330
2
100
AcDbEntity
  8
03-01
100
AcDbLine
 10
130.4098580707653
 20
215.4774058986662
 30
0.0
 11
130.4098580707653
 21
431.3774058986663
 31
0.0
  0
LINE
  5
2B4
330
2
100
AcDbEntity
  8
03-01
100
AcDbLine
 10
131.9098580707653
 20
388.9774058986662
 30
0.0
 11
131.9098580707653
 21
431.3774058986663
 31
0.0
  0
LINE
  5
2B5
330
2
100
AcDbEntity
  8
03-01
100
AcDbLine
 10
131.9098580707653
 20
213.9774058986662
 30
0.0
 11
131.9098580707653
 21
388.9774058986662
 31
0.0
  0
LINE
  5
2B6
330
2
100
AcDbEntity
  8
03-01
100
AcDbLine
 10
116.1598580707653
 20
480.9774058986662
 30
0.0
 11
116.1598580707653
 21
483.9774058986662
 31
0.0
  0
LINE
  5
2B7
330
2
100
AcDbEntity
  8
03-01
100
AcDbLine
 10
138.6598580707653
 20
480.9774058986661
 30
0.0
 11
138.6598580707653
 21
483.9774058986662
 31
0.0
  0
LINE
  5
2B8
330
2
100
AcDbEntity
  8
03-01
100
AcDbLine
 10
117.9098580707653
 20
459.9774058986662
 30
0.0
 11
117.9098580707653
 21
480.9774058986662
 31
0.0
  0
LINE
  5
2B9
330
2
100
AcDbEntity
  8
03-01
100
AcDbLine
 10
136.9098580707653
 20
459.9774058986662
 30
0.0
 11
136.9098580707653
 21
480.9774058986661
 31
0.0
  0
LINE
  5
2BA
330
2
100
AcDbEntity
  8
03-01
100
AcDbLine
 10
110.9098580707653
 20
451.9774058986662
 30
0.0
 11
110.9098580707653
 21
454.4774058986662
 31
0.0
  0
LINE
  5
2BB
330
2
100
AcDbEntity
  8
03-01
100
AcDbLine
 10
143.9098580707653
 20
451.9774058986662
 30
0.0
 11
143.9098580707653
 21
454.4774058986662
 31
0.0
  0
LINE
  5
2BC
330
2
100
AcDbEntity
  8
03-01
100
AcDbLine
 10
114.5598580707653
 20
451.9774058986662
 30
0.0
 11
114.5598580707653
 21
454.4774058986662
 31
0.0
  0
LINE
  5
2BD
330
2
100
AcDbEntity
  8
03-01
100
AcDbLine
 10
140.2598580707653
 20
451.9774058986662
 30
0.0
 11
140.2598580707653
 21
454.4774058986662
 31
0.0
  0
LINE
  5
2BE
330
2
100
AcDbEntity
  8
0
100
AcDbLine
 10
107.6598580707653
 20
410.7774058986662
 30
0.0
 11
107.6598580707653
 21
411.9774058986662
 31
0.0
  0
LINE
  5
2BF
330
2
100
AcDbEntity
  8
0
100
AcDbLine
 10
147.1598580707653
 20
410.7774058986662
 30
0.0
 11
147.1598580707653
 21
411.9774058986662
 31
0.0
  0
LINE
  5
2C0
330
2
100
AcDbEntity
  8
03-01
100
AcDbLine
 10
116.6598580707653
 20
410.7774058986662
 30
0.0
 11
116.6598580707653
 21
411.9774058986662
 31
0.0
  0
LINE
  5
2C1
330
2
100
AcDbEntity
  8
03-01
100
AcDbLine
 10
138.1598580707653
 20
410.7774058986662
 30
0.0
 11
138.1598580707653
 21
411.9774058986661
 31
0.0
  0
LINE
  5
2C2
330
2
100
AcDbEntity
  8
05-01
100
AcDbLine
 10
127.4098580707653
 20
212.5602212989473
 30
0.0
 11
127.4098580707653
 21
516.7853639430282
 31
0.0
  0
DIMENSION
  5
2C3
330
2
100
AcDbEntity
  8
09-01
100
AcDbDimension
280
     0
  2
*D3
 10
290.9820564500612
 20
378.0653797432289
 30
0.0
 11
301.384779821998
 21
382.414565427971
 31
0.0
 70
   128
  1
1/2"
 71
     5
 42
21.0
 73
     0
 74
     0
 75
     0
  3
Wagner$0
100
AcDbAlignedDimension
 13
269.9820564500612
 23
389.9774058986663
 33
0.0
 14
290.9820564500612
 24
389.9774058986663
 34
0.0
100
AcDbRotatedDimension
1001
ACAD
1000
DSTYLE
1002
{
1070
    40
1040
2.0
1002
}
  0
DIMENSION
  5
2D0
330
2
100
AcDbEntity
  8
09-01
100
AcDbDimension
280
     0
  2
*D2
 10
146.4098580707652
 20
523.8666973062183
 30
0.0
 11
127.4098580707652
 21
528.3666973062183
 31
0.0
  1
%%c<>
 71
     5
 42
38.0
 73
     0
 74
     0
 75
     0
  3
Wagner$0
100
AcDbAlignedDimension
 13
108.4098580707652
 23
513.7774058986662
 33
0.0
 14
146.4098580707652
 24
513.7774058986662
 34
0.0
100
AcDbRotatedDimension
1001
ACAD
1000
DSTYLE
1002
{
1070
    40
1040
2.0
1002
}
  0
DIMENSION
  5
2DD
330
2
100
AcDbEntity
  8
09-01
100
AcDbDimension
280
     0
  2
*D1
 10
165.5046109850816
 20
451.9774058986662
 30
0.0
 11
161.0046109850815
 21
482.9774058986662
 31
0.0
 71
     5
 42
61.99999999999994
 73
     0
 74
     0
 75
     0
  3
Wagner$0
100
AcDbAlignedDimension
 13
146.2098580707654
 23
513.9774058986662
 33
0.0
 14
145.4098580707653
 24
451.9774058986662
 34
0.0
 50
90.0
100
AcDbRotatedDimension
1001
ACAD
1000
DSTYLE
1002
{
1070
    40
1040
2.0
1002
}
  0
LINE
  5
2EA
330
2
100
AcDbEntity
  8
0
100
AcDbLine
 10
131.9098580707653
 20
484.1774058986662
 30
0.0
 11
146.4098580707653
 21
484.1774058986662
 31
0.0
  0
LINE
  5
2EB
330
2
100
AcDbEntity
  8
0
100
AcDbLine
 10
108.4098580707653
 20
484.1774058986662
 30
0.0
 11
122.9098580707653
 21
484.1774058986662
 31
0.0
  0
LINE
  5
2EC
330
2
100
AcDbEntity
  8
0
100
AcDbLine
 10
114.6098580707652
 20
503.9774058986662
 30
0.0
 11
140.2098580707654
 21
503.9774058986662
 31
0.0
  0
LINE
  5
2ED
330
2
100
AcDbEntity
  8
0
100
AcDbLine
 10
114.6098580707652
 20
501.9774058986662
 30
0.0
 11
140.2098580707654
 21
501.9774058986662
 31
0.0
  0
LINE
  5
2EE
330
2
100
AcDbEntity
  8
0
100
AcDbLine
 10
131.9098580707653
 20
483.9774058986662
 30
0.0
 11
146.2098580707654
 21
483.9774058986662
 31
0.0
  0
LINE
  5
2EF
330
2
100
AcDbEntity
  8
03-01
100
AcDbLine
 10
116.1598580707653
 20
480.9774058986662
 30
0.0
 11
138.6598580707653
 21
480.9774058986661
 31
0.0
  0
LINE
  5
2F0
330
2
100
AcDbEntity
  8
03-01
100
AcDbLine
 10
117.9098580707653
 20
459.9774058986662
 30
0.0
 11
136.9098580707653
 21
459.9774058986662
 31
0.0
  0
LINE
  5
2F1
330
2
100
AcDbEntity
  8
0
100
AcDbLine
 10
108.6098580707652
 20
483.9774058986662
 30
0.0
 11
122.9098580707652
 21
483.9774058986662
 31
0.0
  0
LINE
  5
2F2
330
2
100
AcDbEntity
  8
0
100
AcDbLine
 10
122.9098580707653
 20
483.7774058986662
 30
0.0
 11
108.4098580707653
 21
483.7774058986662
 31
0.0
  0
LINE
  5
2F3
330
2
100
AcDbEntity
  8
0
100
AcDbLine
 10
146.4098580707653
 20
483.7774058986662
 30
0.0
 11
131.9098580707653
 21
483.7774058986662
 31
0.0
  0
LINE
  5
2F4
330
2
100
AcDbEntity
  8
03-01
100
AcDbLine
 10
122.9098580707653
 20
222.9774058986663
 30
0.0
 11
131.9098580707653
 21
213.9774058986662
 31
0.0
  0
LINE
  5
2F5
330
2
100
AcDbEntity
  8
0
100
AcDbLine
 10
146.4098580707653
 20
484.1774058986662
 30
0.0
 11
146.4098580707653
 21
493.7774058986661
 31
0.0
  0
LINE
  5
2F6
330
2
100
AcDbEntity
  8
0
100
AcDbLine
 10
108.4098580707652
 20
493.7774058986661
 30
0.0
 11
108.4098580707653
 21
484.1774058986662
 31
0.0
  0
LINE
  5
2F7
330
2
100
AcDbEntity
  8
0
100
AcDbLine
 10
108.6098580707652
 20
483.9774058986662
 30
0.0
 11
108.4098580707653
 21
483.7774058986662
 31
0.0
  0
LINE
  5
2F8
330
2
100
AcDbEntity
  8
0
100
AcDbLine
 10
146.4098580707653
 20
483.7774058986662
 30
0.0
 11
146.2098580707654
 21
483.9774058986662
 31
0.0
  0
LINE
  5
2F9
330
2
100
AcDbEntity
  8
0
100
AcDbLine
 10
146.4098580707653
 20
451.9774058986662
 30
0.0
 11
146.4098580707653
 21
483.7774058986662
 31
0.0
  0
LINE
  5
2FA
330
2
100
AcDbEntity
  8
0
100
AcDbLine
 10
108.4098580707653
 20
483.7774058986662
 30
0.0
 11
108.4098580707652
 21
451.9774058986662
 31
0.0
  0
LINE
  5
2FB
330
2
100
AcDbEntity
  8
0
 62
     4
100
AcDbLine
 10
117.9098580707653
 20
403.7774058986662
 30
0.0
 11
117.9098580707653
 21
399.4774058986662
 31
0.0
  0
LINE
  5
2FC
330
2
100
AcDbEntity
  8
0
 62
     4
100
AcDbLine
 10
117.9098580707653
 20
451.9774058986661
 30
0.0
 11
117.9098580707653
 21
411.9774058986662
 31
0.0
  0
LINE
  5
2FD
330
2
100
AcDbEntity
  8
0
100
AcDbLine
 10
116.9098580707653
 20
403.7774058986662
 30
0.0
 11
116.9098580707653
 21
399.4774058986662
 31
0.0
  0
LINE
  5
2FE
330
2
100
AcDbEntity
  8
0
100
AcDbLine
 10
116.9098580707653
 20
450.9774058986662
 30
0.0
 11
116.9098580707653
 21
411.9774058986662
 31
0.0
  0
LINE
  5
2FF
330
2
100
AcDbEntity
  8
03-01
100
AcDbLine
 10
116.9098580707653
 20
451.9774058986661
 30
0.0
 11
116.9098580707653
 21
450.9774058986662
 31
0.0
  0
LINE
  5
300
330
2
100
AcDbEntity
  8
0
 62
     4
100
AcDbLine
 10
136.9098580707653
 20
411.9774058986662
 30
0.0
 11
136.9098580707652
 21
451.9774058986661
 31
0.0
  0
LINE
  5
301
330
2
100
AcDbEntity
  8
0
 62
     4
100
AcDbLine
 10
136.9098580707653
 20
399.4774058986662
 30
0.0
 11
136.9098580707653
 21
403.7774058986662
 31
0.0
  0
LINE
  5
302
330
2
100
AcDbEntity
  8
03-01
100
AcDbLine
 10
137.9098580707652
 20
450.9774058986662
 30
0.0
 11
137.9098580707652
 21
451.9774058986661
 31
0.0
  0
LINE
  5
303
330
2
100
AcDbEntity
  8
0
100
AcDbLine
 10
137.9098580707653
 20
411.9774058986661
 30
0.0
 11
137.9098580707652
 21
450.9774058986662
 31
0.0
  0
LINE
  5
304
330
2
100
AcDbEntity
  8
0
100
AcDbLine
 10
137.9098580707653
 20
399.4774058986662
 30
0.0
 11
137.9098580707653
 21
403.7774058986662
 31
0.0
  0
LINE
  5
305
330
2
100
AcDbEntity
  8
0
100
AcDbLine
 10
261.4820564500612
 20
484.1774058986662
 30
0.0
 11
299.4820564500612
 21
484.1774058986662
 31
0.0
  0
LINE
  5
306
330
2
100
AcDbEntity
  8
0
100
AcDbLine
 10
377.9792254528916
 20
491.3871923096689
 30
0.0
 11
363.6560647298539
 21
487.5493129608696
 31
0.0
  0
LINE
  5
307
330
2
100
AcDbEntity
  8
0
100
AcDbLine
 10
373.1766222845026
 20
498.3825481124123
 30
0.0
 11
299.4820564500613
 21
478.6361487105116
 31
0.0
  0
LINE
  5
308
330
2
100
AcDbEntity
  8
0
100
AcDbLine
 10
362.9489579486673
 20
486.324568089478
 30
0.0
 11
299.4820564500613
 21
469.3186630868209
 31
0.0
  0
LINE
  5
309
330
2
100
AcDbEntity
  8
05-01
100
AcDbLine
 10
379.6723749345833
 20
495.4643369773885
 30
0.0
 11
298.941986062386
 21
473.8326944744326
 31
0.0
  0
LINE
  5
30A
330
2
100
AcDbEntity
  8
0
100
AcDbLine
 10
261.6820564500612
 20
483.9774058986662
 30
0.0
 11
299.2820564500613
 21
483.9774058986662
 31
0.0
  0
LINE
  5
30B
330
2
100
AcDbEntity
  8
0
100
AcDbLine
 10
299.4820564500612
 20
483.7774058986662
 30
0.0
 11
261.4820564500612
 21
483.7774058986662
 31
0.0
  0
LINE
  5
30C
330
2
100
AcDbEntity
  8
0
100
AcDbLine
 10
299.4820564500612
 20
484.1774058986662
 30
0.0
 11
299.4820564500612
 21
493.777405898666
 31
0.0
  0
LINE
  5
30D
330
2
100
AcDbEntity
  8
0
100
AcDbLine
 10
261.6820564500612
 20
483.9774058986662
 30
0.0
 11
261.4820564500612
 21
483.7774058986662
 31
0.0
  0
LINE
  5
30E
330
2
100
AcDbEntity
  8
0
100
AcDbLine
 10
299.4820564500612
 20
483.7774058986662
 30
0.0
 11
299.2820564500613
 21
483.9774058986662
 31
0.0
  0
LINE
  5
30F
330
2
100
AcDbEntity
  8
0
100
AcDbLine
 10
362.9489579486673
 20
486.324568089478
 30
0.0
 11
363.6560647298539
 21
487.5493129608695
 31
0.0
  0
LINE
  5
310
330
2
100
AcDbEntity
  8
0
100
AcDbLine
 10
371.1593274721244
 20
488.5245299728494
 30
0.0
 11
369.9345826007327
 21
489.231636754036
 31
0.0
  0
LINE
  5
311
330
2
100
AcDbEntity
  8
0
100
AcDbLine
 10
375.0230307772806
 20
489.5598061532594
 30
0.0
 11
375.7301375584672
 21
490.7845510246511
 31
0.0
  0
LINE
  5
312
330
2
100
AcDbEntity
  8
03-01
100
AcDbLine
 10
372.2218458810425
 20
488.8092309224622
 30
0.0
 11
371.96302683594
 21
489.7751567487513
 31
0.0
  0
LINE
  5
313
330
2
100
AcDbEntity
  8
03-01
100
AcDbLine
 10
373.9605123683628
 20
489.2751052036468
 30
0.0
 11
373.7016933232603
 21
490.2410310299359
 31
0.0
  0
LINE
  5
314
330
2
100
AcDbEntity
  8
05-01
100
AcDbLine
 10
373.2779899914939
 20
488.3449804167828
 30
0.0
 11
372.8323600796002
 21
490.0080938893436
 31
0.0
  0
LINE
  5
315
330
2
100
AcDbEntity
  8
0
100
AcDbLine
 10
299.4820564500612
 20
478.6361487105115
 30
0.0
 11
299.4820564500612
 21
483.7774058986662
 31
0.0
  0
LINE
  5
316
330
2
100
AcDbEntity
  8
0
100
AcDbLine
 10
299.4820564500612
 20
451.9774058986662
 30
0.0
 11
299.4820564500612
 21
469.3186630868209
 31
0.0
  0
LINE
  5
317
330
2
100
AcDbEntity
  8
0
100
AcDbLine
 10
261.4820564500612
 20
483.7774058986662
 30
0.0
 11
261.4820564500612
 21
451.9774058986662
 31
0.0
  0
INSERT
  5
318
330
2
100
AcDbEntity
  8
09-01
370
     0
100
AcDbBlockReference
 66
     1
  2
DIN A4
 10
-0.0000150244709971
 20
0.0000040257948513
 30
0.0
 41
2.0
 42
2.0
 43
2.0
  0
ATTRIB
  5
388
330
318
100
AcDbEntity
  8
06-99
100
AcDbText
 10
232.9908934783543
 20
52.37567739456427
 30
0.0
 40
8.0
  1
Tischseifenspender WP 191-1
 41
0.9
  7
ROMANS8
100
AcDbAttribute
280
     0
  2
TEILE
 70
     0
280
     0
  0
ATTRIB
  5
389
330
318
100
AcDbEntity
  8
06-99
100
AcDbText
 10
232.9908934783543
 20
38.59095699799264
 30
0.0
 40
8.0
  1

 41
0.9
  7
ROMANS8
100
AcDbAttribute
280
     0
  2
TEILE2
 70
     0
280
     0
  0
ATTRIB
  5
38A
330
318
100
AcDbEntity
  8
06-99
100
AcDbText
 10
382.6947724234291
 20
90.66666666666652
 30
0.0
 40
6.75
  1
1:1
  7
ROMANS8
100
AcDbAttribute
280
     0
  2
:
 70
     0
280
     0
  0
ATTRIB
  5
38B
330
318
100
AcDbEntity
  8
06-99
100
AcDbText
 10
185.9941355987347
 20
54.88337093606242
 30
0.0
 40
5.0
  1
Pfrepper
 41
0.9
  7
ROMANS8
100
AcDbAttribute
280
     0
  2
NAME
 70
     0
280
     0
  0
ATTRIB
  5
38C
330
318
100
AcDbEntity
  8
06-99
100
AcDbText
 10
158.986292903788
 20
54.92247034822231
 30
0.0
 40
5.000000000000001
  1
11.04.2012
 50
359.9144597696142
 41
0.583157203090681
  7
ROMANS8
 72
     5
 11
181.4794742408775
 21
54.88888893333319
 31
0.0
100
AcDbAttribute
280
     0
  2
DATUM
 70
     0
280
     0
  0
ATTRIB
  5
38D
330
318
100
AcDbEntity
  8
06-99
100
AcDbText
 10
357.0126879343165
 20
14.98579960057725
 30
0.0
 40
5.98752
  1
923942
  7
ROMANS8
100
AcDbAttribute
280
     0
  2
ID.NR
 70
     0
280
     0
  0
ATTRIB
  5
38E
330
318
100
AcDbEntity
  8
06-99
100
AcDbText
 10
233.4625325114211
 20
75.33333328888875
 30
0.0
 40
6.0
  1

 41
0.9
  7
ROMANS8
100
AcDbAttribute
280
     0
  2
LÄNGE
 70
     0
280
     0
  0
ATTRIB
  5
38F
330
318
100
AcDbEntity
  8
06-99
100
AcDbText
 10
300.3616098235395
 20
75.35620774088949
 30
0.0
 40
6.0
  1

 41
0.9
  7
ROMANS8
100
AcDbAttribute
280
     0
  2
BREITE
 70
     0
280
     0
  0
ATTRIB
  5
390
330
318
100
AcDbEntity
  8
06-99
100
AcDbText
 10
381.2181842534637
 20
75.33333333333337
 30
0.0
 40
6.187500000000001
  1

  7
ROMANS8
100
AcDbAttribute
280
     0
  2
1.0
 70
     0
280
     0
  0
ATTRIB
  5
391
330
318
100
AcDbEntity
  8
06-99
100
AcDbText
 10
328.2555712028054
 20
90.66666666666675
 30
0.0
 40
6.0
  1

  7
ROMANS8
 72
     1
 11
328.2555712028054
 21
90.66666666666675
 31
0.0
100
AcDbAttribute
280
     0
  2
IV
 70
     0
280
     0
  0
ATTRIB
  5
392
330
318
100
AcDbEntity
  8
06-99
100
AcDbText
 10
246.5494810722318
 20
90.66666666666646
 30
0.0
 40
6.75
  1
1.4301
  7
ROMANS8
100
AcDbAttribute
280
     0
  2
1.4301
 70
     0
280
     0
  0
ATTRIB
  5
393
330
318
100
AcDbEntity
  8
06-99
100
AcDbText
 10
292.0012677737602
 20
15.00879320870911
 30
0.0
 40
6.336
  1

 41
0.9000000000000001
  7
ROMANS8
100
AcDbAttribute
280
     0
  2
AUFTRAGS.NR.
 70
     0
280
     0
  0
ATTRIB
  5
394
330
318
100
AcDbEntity
  8
06-99
100
AcDbText
 10
233.0
 20
14.99999999999988
 30
0.0
 40
6.336
  1

 41
0.9000000000000001
  7
ROMANS8
100
AcDbAttribute
280
     0
  2
SONDER-NR
 70
     0
280
     0
  0
ATTRIB
  5
395
330
318
100
AcDbEntity
  8
06-99
100
AcDbText
 10
92.99950199001655
 20
13.20362013851957
 30
0.0
 40
3.0
  1

 41
0.9
  7
ROMANS8
100
AcDbAttribute
280
     0
  2
ERSETZT.DURCH
 70
     0
280
     0
  0
ATTRIB
  5
396
330
318
100
AcDbEntity
  8
06-99
100
AcDbText
 10
42.99893556039705
 20
13.1949127957447
 30
0.0
 40
3.0
  1

 41
0.9
  7
ROMANS8
100
AcDbAttribute
280
     0
  2
ERSETZT.FÜR
 70
     0
280
     0
  0
ATTRIB
  5
397
330
318
100
AcDbEntity
  8
06-99
100
AcDbText
 10
199.9461452928751
 20
95.33702228001585
 30
0.0
 40
2.574
  1
DIN A4
  7
ROMANS8
 72
     1
 11
206.5037167214466
 21
95.33702228001585
 31
0.0
100
AcDbAttribute
280
     0
  2
FORMAT
 70
     0
280
     0
  0
ATTRIB
  5
398
330
318
100
AcDbEntity
  8
06-99
100
AcDbText
 10
191.9748779948125
 20
74.39393466772935
 30
0.0
 40
4.68
  1
DIN 2768
  7
ROMANS8
 72
     1
 11
208.0205922805268
 21
74.39393466772935
 31
0.0
100
AcDbAttribute
280
     0
  2
NORM2
 70
     0
280
     0
  0
ATTRIB
  5
399
330
318
100
AcDbEntity
  8
06-99
100
AcDbText
 10
185.6234494233839
 20
82.06060133439597
 30
0.0
 40
4.68
  1
DIN 6930-M
  7
ROMANS8
 72
     1
 11
207.0177351376696
 21
82.06060133439597
 31
0.0
100
AcDbAttribute
280
     0
  2
NORM1
 70
     0
280
     0
  0
SEQEND
  5
39A
330
318
100
AcDbEntity
  8
09-01
370
     0
  0
ENDSEC
  0
SECTION
  2
OBJECTS
  0
DICTIONARY
  5
B
330
0
100
AcDbDictionary
281
     1
  3
ACAD_COLOR
350
4E
  3
ACAD_GROUP
350
3B
  3
ACAD_LAYOUT
350
18
  3
ACAD_MATERIAL
350
D
  3
ACAD_MLEADERSTYLE
350
51
  3
ACAD_MLINESTYLE
350
3C
  3
ACAD_PLOTSETTINGS
350
3D
  3
ACAD_PLOTSTYLENAME
350
A
  3
ACAD_SCALELIST
350
4F
  3
ACAD_TABLESTYLE
350
50
  3
ACAD_VISUALSTYLE
350
31
  3
ACDB_RECOMPOSE_DATA
350
3A7
  3
AcDbVariableDictionary
350
39D
  0
DICTIONARY
  5
32
330
2E
100
AcDbDictionary
280
     1
281
     1
  0
DICTIONARY
  5
21
330
20
100
AcDbDictionary
280
     1
281
     1
  3
ACAD_LAYERFILTERS
360
22
  3
ACAD_LAYERSTATES
360
23
  3
ACLYDICTIONARY
360
24
  0
DICTIONARY
  5
7
330
6
100
AcDbDictionary
280
     1
281
     1
  3
ADSK_XREC_LAYER_RECONCILED
360
8
  0
DICTIONARY
  5
105
330
104
100
AcDbDictionary
280
     1
281
     1
  3
ADSK_XREC_LAYER_RECONCILED
360
106
  0
DICTIONARY
  5
31F
330
31E
100
AcDbDictionary
280
     1
281
     1
  0
DICTIONARY
  5
35A
330
359
100
AcDbDictionary
280
     1
281
     1
  0
DICTIONARY
  5
325
330
324
100
AcDbDictionary
280
     1
281
     1
  0
DICTIONARY
  5
345
330
344
100
AcDbDictionary
280
     1
281
     1
  0
DICTIONARY
  5
BD
330
BC
100
AcDbDictionary
280
     1
281
     1
  0
DICTIONARY
  5
1BF
330
1BE
100
AcDbDictionary
280
     1
281
     1
  0
DICTIONARY
  5
3
330
2
100
AcDbDictionary
280
     1
281
     1
  3
ACAD_SORTENTS
360
39C
  0
DICTIONARY
  5
31A
330
319
100
AcDbDictionary
280
     1
281
     1
  3
ACAD_SORTENTS
360
39B
  0
DICTIONARY
  5
4E
102
{ACAD_REACTORS
330
B
102
}
330
B
100
AcDbDictionary
281
     1
  0
DICTIONARY
  5
3B
102
{ACAD_REACTORS
330
B
102
}
330
B
100
AcDbDictionary
281
     1
  0
DICTIONARY
  5
18
102
{ACAD_REACTORS
330
B
102
}
330
B
100
AcDbDictionary
281
     1
  3
Layout1
350
1F
  3
Model
350
17
  0
DICTIONARY
  5
D
102
{ACAD_REACTORS
330
B
102
}
330
B
100
AcDbDictionary
281
     1
  3
ByBlock
350
46
  3
ByLayer
350
3E
  3
Global
350
C
  0
DICTIONARY
  5
51
102
{ACAD_REACTORS
330
B
102
}
330
B
100
AcDbDictionary
281
     1
  0
DICTIONARY
  5
3C
102
{ACAD_REACTORS
330
B
102
}
330
B
100
AcDbDictionary
281
     1
  3
Standard
350
52
  0
DICTIONARY
  5
3D
102
{ACAD_REACTORS
330
B
102
}
330
B
100
AcDbDictionary
281
     1
  0
ACDBDICTIONARYWDFLT
  5
A
102
{ACAD_REACTORS
330
B
102
}
330
B
100
AcDbDictionary
281
     1
  3
Normal
350
9
100
AcDbDictionaryWithDefault
340
9
  0
DICTIONARY
  5
4F
102
{ACAD_REACTORS
330
B
102
}
330
B
100
AcDbDictionary
281
     1
  3
A0
350
57
  3
A1
350
58
  3
A2
350
59
  3
A3
350
5A
  3
A4
350
5B
  3
A5
350
5C
  3
A6
350
5D
  3
A7
350
5E
  3
A8
350
5F
  3
A9
350
60
  3
B0
350
61
  3
B1
350
62
  3
B2
350
63
  3
B3
350
64
  3
B4
350
65
  3
B5
350
66
  3
B6
350
67
  3
B7
350
68
  3
B8
350
69
  3
B9
350
6A
  3
C0
350
6B
  3
C1
350
6C
  3
C2
350
6D
  3
C3
350
6E
  3
C4
350
6F
  3
C5
350
70
  3
C6
350
71
  3
C7
350
72
  3
C8
350
73
  3
C9
350
74
  3
D0
350
75
  3
D1
350
76
  3
D2
350
77
  0
DICTIONARY
  5
50
102
{ACAD_REACTORS
330
B
102
}
330
B
100
AcDbDictionary
281
     1
  3
Standard
350
53
  0
DICTIONARY
  5
31
102
{ACAD_REACTORS
330
B
102
}
330
B
100
AcDbDictionary
281
     1
  3
2dWireframe
350
30
  3
3dWireframe
350
56
  3
Realistic
350
55
  0
XRECORD
  5
3A7
102
{ACAD_REACTORS
330
B
102
}
330
B
100
AcDbXrecord
280
     1
 90
        1
330
53
  0
DICTIONARY
  5
39D
102
{ACAD_REACTORS
330
B
102
}
330
B
100
AcDbDictionary
281
     1
  3
CANNOSCALE
350
3A1
  3
CMLEADERSTYLE
350
39F
  3
CTABLESTYLE
350
39E
  3
LAYEREVAL
350
3A3
  3
LAYERNOTIFY
350
3A4
  3
LIGHTINGUNITS
350
3A2
  3
MSLTSCALE
350
3A0
  0
DICTIONARY
  5
22
102
{ACAD_REACTORS
330
21
102
}
330
21
100
AcDbDictionary
281
     1
  0
DICTIONARY
  5
23
102
{ACAD_REACTORS
330
21
102
}
330
21
100
AcDbDictionary
281
     1
  0
DICTIONARY
  5
24
102
{ACAD_REACTORS
330
21
102
}
330
21
100
AcDbDictionary
281
     1
1001
ACAD
1000
<All
  0
XRECORD
  5
8
102
{ACAD_REACTORS
330
7
102
}
330
7
100
AcDbXrecord
280
     1
290
     1
  0
XRECORD
  5
106
102
{ACAD_REACTORS
330
105
102
}
330
105
100
AcDbXrecord
280
     1
290
     1
  0
SORTENTSTABLE
  5
39C
102
{ACAD_REACTORS
330
3
102
}
330
3
100
AcDbSortentsTable
330
2
331
164
  5
309
331
1A6
  5
2BB
331
21C
  5
254
331
1A2
  5
2BF
331
19E
  5
2C3
331
1DD
  5
293
331
218
  5
258
331
257
  5
219
331
253
  5
21D
331
19A
  5
2EB
331
1D9
  5
297
331
214
  5
25C
331
210
  5
260
331
294
  5
1DC
331
30E
  5
120
331
290
  5
1E0
331
30A
  5
157
331
28C
  5
1E4
331
306
  5
17F
331
302
  5
183
331
288
  5
1E8
331
DA
  5
312
331
196
  5
2EF
331
1D5
  5
29B
331
1D1
  5
29F
331
20C
  5
264
331
192
  5
2F3
331
18E
  5
2F7
331
1CD
  5
2A3
331
208
  5
268
331
18A
  5
2FB
331
1C9
  5
2A7
331
204
  5
26C
331
200
  5
270
331
2C3
  5
19E
331
2FE
  5
187
331
284
  5
1EC
331
280
  5
1F0
331
2BF
  5
1A2
331
2FA
  5
18B
331
27C
  5
1F4
331
2BB
  5
1A6
331
2F6
  5
18F
331
2F2
  5
193
331
278
  5
1F8
331
186
  5
2FF
331
1C5
  5
2AB
331
1C1
  5
2AF
331
1FC
  5
274
331
182
  5
303
331
17E
  5
307
331
1BD
  5
2B0
331
1F8
  5
278
331
237
  5
21F
331
233
  5
223
331
1B9
  5
2B4
331
1F4
  5
27C
331
1F0
  5
280
331
2B7
  5
1AA
331
2B3
  5
1BA
331
2EE
  5
197
331
274
  5
1FC
331
270
  5
200
331
2AF
  5
1C1
331
2EA
  5
19B
331
26C
  5
204
331
2AB
  5
1C5
331
268
  5
208
331
87
  5
317
331
1EC
  5
284
331
1E8
  5
288
331
1A9
  5
2B8
331
1E4
  5
28C
331
223
  5
233
331
1E0
  5
290
331
2A7
  5
1C9
331
2A3
  5
1CD
331
264
  5
20C
331
260
  5
210
331
29F
  5
1D1
331
315
  5
A1
331
25C
  5
214
331
29B
  5
1D5
331
311
  5
E7
331
258
  5
218
331
AE
  5
314
331
120
  5
30E
331
21F
  5
237
331
1A5
  5
2BC
331
1A1
  5
2C0
331
21B
  5
255
331
19D
  5
2D0
331
1DC
  5
294
331
217
  5
259
331
256
  5
21A
331
199
  5
2EC
331
1D8
  5
298
331
213
  5
25D
331
297
  5
1D9
331
293
  5
1DD
331
30D
  5
12F
331
28F
  5
1E1
331
309
  5
164
331
28B
  5
1E5
331
305
  5
180
331
301
  5
184
331
157
  5
30A
331
1D4
  5
29C
331
20F
  5
261
331
195
  5
2F0
331
1D0
  5
2A0
331
20B
  5
265
331
191
  5
2F4
331
18D
  5
2F8
331
1CC
  5
2A4
331
207
  5
269
331
246
  5
21E
331
189
  5
2FC
331
1C8
  5
2A8
331
203
  5
26D
331
287
  5
1E9
331
283
  5
1ED
331
2C2
  5
19F
331
2FD
  5
188
331
27F
  5
1F1
331
2BE
  5
1A3
331
2F9
  5
18C
331
27B
  5
1F5
331
2BA
  5
1A7
331
2F5
  5
190
331
2F1
  5
194
331
1FF
  5
271
331
185
  5
300
331
1C4
  5
2AC
331
1FB
  5
275
331
181
  5
304
331
1BC
  5
2B1
331
1F7
  5
279
331
236
  5
220
331
232
  5
224
331
1F3
  5
27D
331
2B6
  5
1AB
331
277
  5
1F9
331
2B2
  5
1BB
331
2ED
  5
198
331
273
  5
1FD
331
26F
  5
201
331
2AE
  5
1C2
331
26B
  5
205
331
2AA
  5
1C6
331
1EF
  5
281
331
1EB
  5
285
331
171
  5
308
331
1AC
  5
2B5
331
1E7
  5
289
331
222
  5
234
331
1A8
  5
2B9
331
1E3
  5
28D
331
267
  5
209
331
2A6
  5
1CA
331
2A2
  5
1CE
331
2DD
  5
19C
331
263
  5
20D
331
25F
  5
211
331
29E
  5
1D2
331
318
  5
78
331
314
  5
AE
331
25B
  5
215
331
29A
  5
1D6
331
310
  5
103
331
12F
  5
30D
331
21E
  5
246
331
1A4
  5
2BD
331
1A0
  5
2C1
331
1DF
  5
291
331
21A
  5
256
331
255
  5
21B
331
19C
  5
2DD
331
1DB
  5
295
331
216
  5
25A
331
198
  5
2ED
331
212
  5
25E
331
296
  5
1DA
331
292
  5
1DE
331
30C
  5
13D
331
28E
  5
1E2
331
308
  5
171
331
304
  5
181
331
28A
  5
1E6
331
300
  5
185
331
A1
  5
315
331
113
  5
30F
331
1D7
  5
299
331
1D3
  5
29D
331
20E
  5
262
331
194
  5
2F1
331
190
  5
2F5
331
1CF
  5
2A1
331
20A
  5
266
331
18C
  5
2F9
331
1CB
  5
2A5
331
206
  5
26A
331
188
  5
2FD
331
202
  5
26E
331
286
  5
1EA
331
282
  5
1EE
331
2C1
  5
1A0
331
2FC
  5
189
331
27E
  5
1F2
331
2BD
  5
1A4
331
2F8
  5
18D
331
27A
  5
1F6
331
2B9
  5
1A8
331
2F4
  5
191
331
2F0
  5
195
331
14A
  5
30B
331
103
  5
310
331
1C7
  5
2A9
331
1C3
  5
2AD
331
1FE
  5
272
331
184
  5
301
331
1FA
  5
276
331
180
  5
305
331
1BB
  5
2B2
331
1F6
  5
27A
331
235
  5
221
331
1F2
  5
27E
331
2B5
  5
1AC
331
276
  5
1FA
331
272
  5
1FE
331
2B1
  5
1BC
331
2EC
  5
199
331
26E
  5
202
331
2AD
  5
1C3
331
26A
  5
206
331
2A9
  5
1C7
331
1EE
  5
282
331
1EA
  5
286
331
1AB
  5
2B6
331
1E6
  5
28A
331
221
  5
235
331
1E2
  5
28E
331
2A5
  5
1CB
331
266
  5
20A
331
2A1
  5
1CF
331
262
  5
20E
331
25E
  5
212
331
29D
  5
1D3
331
317
  5
87
331
313
  5
BB
331
25A
  5
216
331
299
  5
1D7
331
2D0
  5
19D
331
1A7
  5
2BA
331
21D
  5
253
331
1A3
  5
2BE
331
19F
  5
2C2
331
1DE
  5
292
331
219
  5
257
331
254
  5
21C
331
19B
  5
2EA
331
1DA
  5
296
331
215
  5
25B
331
211
  5
25F
331
30F
  5
113
331
295
  5
1DB
331
291
  5
1DF
331
30B
  5
14A
331
28D
  5
1E3
331
307
  5
17E
331
303
  5
182
331
289
  5
1E7
331
E7
  5
311
331
197
  5
2EE
331
1D6
  5
29A
331
1D2
  5
29E
331
20D
  5
263
331
193
  5
2F2
331
18F
  5
2F6
331
1CE
  5
2A2
331
209
  5
267
331
18B
  5
2FA
331
1CA
  5
2A6
331
205
  5
26B
331
201
  5
26F
331
2FF
  5
186
331
285
  5
1EB
331
281
  5
1EF
331
2C0
  5
1A1
331
2FB
  5
18A
331
27D
  5
1F3
331
2BC
  5
1A5
331
2F7
  5
18E
331
2F3
  5
192
331
279
  5
1F7
331
2B8
  5
1A9
331
94
  5
316
331
187
  5
2FE
331
1C6
  5
2AA
331
1C2
  5
2AE
331
1FD
  5
273
331
183
  5
302
331
17F
  5
306
331
1F9
  5
277
331
1BA
  5
2B3
331
1F5
  5
27B
331
234
  5
222
331
1F1
  5
27F
331
2B4
  5
1B9
331
2EF
  5
196
331
275
  5
1FB
331
271
  5
1FF
331
2B0
  5
1BD
331
2EB
  5
19A
331
26D
  5
203
331
2AC
  5
1C4
331
269
  5
207
331
2A8
  5
1C8
331
13D
  5
30C
331
BB
  5
313
331
78
  5
318
331
1ED
  5
283
331
1E9
  5
287
331
1AA
  5
2B7
331
1E5
  5
28B
331
224
  5
232
331
220
  5
236
331
1E1
  5
28F
331
2A4
  5
1CC
331
265
  5
20B
331
261
  5
20F
331
2A0
  5
1D0
331
25D
  5
213
331
29C
  5
1D4
331
316
  5
94
331
312
  5
DA
331
259
  5
217
331
298
  5
1D8
  0
SORTENTSTABLE
  5
39B
102
{ACAD_REACTORS
330
31A
102
}
330
31A
100
AcDbSortentsTable
330
319
  0
LAYOUT
  5
1F
102
{ACAD_REACTORS
330
18
102
}
330
18
100
AcDbPlotSettings
  1

  2

  4

  6

 40
0.0
 41
0.0
 42
0.0
 43
0.0
 44
0.0
 45
0.0
 46
0.0
 47
0.0
 48
0.0
 49
0.0
140
0.0
141
0.0
142
1.0
143
1.0
 70
     0
 72
     0
 73
     0
 74
     0
  7

 75
     0
147
1.0
 76
     0
 77
     2
 78
   300
148
0.0
149
0.0
100
AcDbLayout
  1
Layout1
 70
     1
 71
     1
 10
0.0
 20
0.0
 11
12.0
 21
9.0
 12
0.0
 22
0.0
 32
0.0
 14
1.000000000000000E+20
 24
1.000000000000000E+20
 34
1.000000000000000E+20
 15
-1.000000000000000E+20
 25
-1.000000000000000E+20
 35
-1.000000000000000E+20
146
0.0
 13
0.0
 23
0.0
 33
0.0
 16
1.0
 26
0.0
 36
0.0
 17
0.0
 27
1.0
 37
0.0
 76
     0
330
1C
  0
LAYOUT
  5
17
102
{ACAD_XDICTIONARY
360
19
102
}
102
{ACAD_REACTORS
330
18
102
}
330
18
100
AcDbPlotSettings
  1

  2
HP LJ 9040 PS
  4
A4
  6

 40
3.174999952316284
 41
3.174999952316284
 42
3.175003051757812
 43
3.17498779296875
 44
209.8886566162109
 45
297.0530090332031
 46
0.0
 47
0.0
 48
0.0
 49
0.0
140
0.0
141
0.0
142
1.0
143
1.0
 70
 11264
 72
     0
 73
     1
 74
     0
  7

 75
     0
147
1.0
 76
     0
 77
     2
 78
   300
148
4708.653541384413
149
27.15145849164124
100
AcDbLayout
  1
Model
 70
     0
 71
     0
 10
0.0
 20
0.0
 11
0.0
 21
0.0
 12
0.0
 22
0.0
 32
0.0
 14
0.0
 24
0.0
 34
0.0
 15
0.0
 25
0.0
 35
0.0
146
0.0
 13
0.0
 23
0.0
 33
0.0
 16
0.0
 26
0.0
 36
0.0
 17
0.0
 27
0.0
 37
0.0
 76
     0
330
2
331
2F
1001
ACAD_PSEXT
1000
HP LJ 9040 PS
1000
HP LaserJet 9040 PS
1000
LPT1:
1000

1070
     0
  0
MATERIAL
  5
46
102
{ACAD_XDICTIONARY
360
47
102
}
102
{ACAD_REACTORS
330
D
102
}
330
D
100
AcDbMaterial
  1
ByBlock
 72
     0
 43
0.0208333333333333
 43
0.0
 43
0.0
 43
0.0
 43
0.0
 43
0.0208333333333333
 43
0.0
 43
0.0
 43
0.0
 43
0.0
 43
1.0
 43
0.0
 43
0.0
 43
0.0
 43
0.0
 43
1.0
 77
     0
 47
0.0208333333333333
 47
0.0
 47
0.0
 47
0.0
 47
0.0
 47
0.0208333333333333
 47
0.0
 47
0.0
 47
0.0
 47
0.0
 47
1.0
 47
0.0
 47
0.0
 47
0.0
 47
0.0
 47
1.0
171
     0
 49
0.0208333333333333
 49
0.0
 49
0.0
 49
0.0
 49
0.0
 49
0.0208333333333333
 49
0.0
 49
0.0
 49
0.0
 49
0.0
 49
1.0
 49
0.0
 49
0.0
 49
0.0
 49
0.0
 49
1.0
175
     0
142
0.0208333333333333
142
0.0
142
0.0
142
0.0
142
0.0
142
0.0208333333333333
142
0.0
142
0.0
142
0.0
142
0.0
142
1.0
142
0.0
142
0.0
142
0.0
142
0.0
142
1.0
179
     0
144
0.0208333333333333
144
0.0
144
0.0
144
0.0
144
0.0
144
0.0208333333333333
144
0.0
144
0.0
144
0.0
144
0.0
144
1.0
144
0.0
144
0.0
144
0.0
144
0.0
144
1.0
147
0.0208333333333333
147
0.0
147
0.0
147
0.0
147
0.0
147
0.0208333333333333
147
0.0
147
0.0
147
0.0
147
0.0
147
1.0
147
0.0
147
0.0
147
0.0
147
0.0
147
1.0
  0
MATERIAL
  5
3E
102
{ACAD_XDICTIONARY
360
3F
102
}
102
{ACAD_REACTORS
330
D
102
}
330
D
100
AcDbMaterial
  1
ByLayer
 72
     0
 43
0.0208333333333333
 43
0.0
 43
0.0
 43
0.0
 43
0.0
 43
0.0208333333333333
 43
0.0
 43
0.0
 43
0.0
 43
0.0
 43
1.0
 43
0.0
 43
0.0
 43
0.0
 43
0.0
 43
1.0
 77
     0
 47
0.0208333333333333
 47
0.0
 47
0.0
 47
0.0
 47
0.0
 47
0.0208333333333333
 47
0.0
 47
0.0
 47
0.0
 47
0.0
 47
1.0
 47
0.0
 47
0.0
 47
0.0
 47
0.0
 47
1.0
171
     0
 49
0.0208333333333333
 49
0.0
 49
0.0
 49
0.0
 49
0.0
 49
0.0208333333333333
 49
0.0
 49
0.0
 49
0.0
 49
0.0
 49
1.0
 49
0.0
 49
0.0
 49
0.0
 49
0.0
 49
1.0
175
     0
142
0.0208333333333333
142
0.0
142
0.0
142
0.0
142
0.0
142
0.0208333333333333
142
0.0
142
0.0
142
0.0
142
0.0
142
1.0
142
0.0
142
0.0
142
0.0
142
0.0
142
1.0
179
     0
144
0.0208333333333333
144
0.0
144
0.0
144
0.0
144
0.0
144
0.0208333333333333
144
0.0
144
0.0
144
0.0
144
0.0
144
1.0
144
0.0
144
0.0
144
0.0
144
0.0
144
1.0
147
0.0208333333333333
147
0.0
147
0.0
147
0.0
147
0.0
147
0.0208333333333333
147
0.0
147
0.0
147
0.0
147
0.0
147
1.0
147
0.0
147
0.0
147
0.0
147
0.0
147
1.0
  0
MATERIAL
  5
C
102
{ACAD_XDICTIONARY
360
E
102
}
102
{ACAD_REACTORS
330
D
102
}
330
D
100
AcDbMaterial
  1
Global
 72
     0
 43
0.0208333333333333
 43
0.0
 43
0.0
 43
0.0
 43
0.0
 43
0.0208333333333333
 43
0.0
 43
0.0
 43
0.0
 43
0.0
 43
1.0
 43
0.0
 43
0.0
 43
0.0
 43
0.0
 43
1.0
 77
     0
 47
0.0208333333333333
 47
0.0
 47
0.0
 47
0.0
 47
0.0
 47
0.0208333333333333
 47
0.0
 47
0.0
 47
0.0
 47
0.0
 47
1.0
 47
0.0
 47
0.0
 47
0.0
 47
0.0
 47
1.0
171
     0
 49
0.0208333333333333
 49
0.0
 49
0.0
 49
0.0
 49
0.0
 49
0.0208333333333333
 49
0.0
 49
0.0
 49
0.0
 49
0.0
 49
1.0
 49
0.0
 49
0.0
 49
0.0
 49
0.0
 49
1.0
175
     0
142
0.0208333333333333
142
0.0
142
0.0
142
0.0
142
0.0
142
0.0208333333333333
142
0.0
142
0.0
142
0.0
142
0.0
142
1.0
142
0.0
142
0.0
142
0.0
142
0.0
142
1.0
179
     0
144
0.0208333333333333
144
0.0
144
0.0
144
0.0
144
0.0
144
0.0208333333333333
144
0.0
144
0.0
144
0.0
144
0.0
144
1.0
144
0.0
144
0.0
144
0.0
144
0.0
144
1.0
147
0.0208333333333333
147
0.0
147
0.0
147
0.0
147
0.0
147
0.0208333333333333
147
0.0
147
0.0
147
0.0
147
0.0
147
1.0
147
0.0
147
0.0
147
0.0
147
0.0
147
1.0
  0
MLINESTYLE
  5
52
102
{ACAD_REACTORS
330
3C
102
}
330
3C
100
AcDbMlineStyle
  2
STANDARD
 70
     0
  3

 62
     0
 51
90.0
 52
90.0
 71
     2
 49
0.5
 62
   256
  6
BYLAYER
 49
-0.5
 62
   256
  6
BYLAYER
  0
ACDBPLACEHOLDER
  5
9
102
{ACAD_REACTORS
330
A
102
}
330
A
  0
SCALE
  5
57
102
{ACAD_REACTORS
330
4F
102
}
330
4F
100
AcDbScale
 70
     0
300
1:1
140
1.0
141
1.0
290
     1
  0
SCALE
  5
58
102
{ACAD_REACTORS
330
4F
102
}
330
4F
100
AcDbScale
 70
     0
300
1:2
140
1.0
141
2.0
290
     0
  0
SCALE
  5
59
102
{ACAD_REACTORS
330
4F
102
}
330
4F
100
AcDbScale
 70
     0
300
1:4
140
1.0
141
4.0
290
     0
  0
SCALE
  5
5A
102
{ACAD_REACTORS
330
4F
102
}
330
4F
100
AcDbScale
 70
     0
300
1:5
140
1.0
141
5.0
290
     0
  0
SCALE
  5
5B
102
{ACAD_REACTORS
330
4F
102
}
330
4F
100
AcDbScale
 70
     0
300
1:8
140
1.0
141
8.0
290
     0
  0
SCALE
  5
5C
102
{ACAD_REACTORS
330
4F
102
}
330
4F
100
AcDbScale
 70
     0
300
1:10
140
1.0
141
10.0
290
     0
  0
SCALE
  5
5D
102
{ACAD_REACTORS
330
4F
102
}
330
4F
100
AcDbScale
 70
     0
300
1:16
140
1.0
141
16.0
290
     0
  0
SCALE
  5
5E
102
{ACAD_REACTORS
330
4F
102
}
330
4F
100
AcDbScale
 70
     0
300
1:20
140
1.0
141
20.0
290
     0
  0
SCALE
  5
5F
102
{ACAD_REACTORS
330
4F
102
}
330
4F
100
AcDbScale
 70
     0
300
1:30
140
1.0
141
30.0
290
     0
  0
SCALE
  5
60
102
{ACAD_REACTORS
330
4F
102
}
330
4F
100
AcDbScale
 70
     0
300
1:40
140
1.0
141
40.0
290
     0
  0
SCALE
  5
61
102
{ACAD_REACTORS
330
4F
102
}
330
4F
100
AcDbScale
 70
     0
300
1:50
140
1.0
141
50.0
290
     0
  0
SCALE
  5
62
102
{ACAD_REACTORS
330
4F
102
}
330
4F
100
AcDbScale
 70
     0
300
1:100
140
1.0
141
100.0
290
     0
  0
SCALE
  5
63
102
{ACAD_REACTORS
330
4F
102
}
330
4F
100
AcDbScale
 70
     0
300
2:1
140
2.0
141
1.0
290
     0
  0
SCALE
  5
64
102
{ACAD_REACTORS
330
4F
102
}
330
4F
100
AcDbScale
 70
     0
300
4:1
140
4.0
141
1.0
290
     0
  0
SCALE
  5
65
102
{ACAD_REACTORS
330
4F
102
}
330
4F
100
AcDbScale
 70
     0
300
8:1
140
8.0
141
1.0
290
     0
  0
SCALE
  5
66
102
{ACAD_REACTORS
330
4F
102
}
330
4F
100
AcDbScale
 70
     0
300
10:1
140
10.0
141
1.0
290
     0
  0
SCALE
  5
67
102
{ACAD_REACTORS
330
4F
102
}
330
4F
100
AcDbScale
 70
     0
300
100:1
140
100.0
141
1.0
290
     0
  0
SCALE
  5
68
102
{ACAD_REACTORS
330
4F
102
}
330
4F
100
AcDbScale
 70
     0
300
1/128" = 1'-0"
140
0.0078125
141
12.0
290
     0
  0
SCALE
  5
69
102
{ACAD_REACTORS
330
4F
102
}
330
4F
100
AcDbScale
 70
     0
300
1/64" = 1'-0"
140
0.015625
141
12.0
290
     0
  0
SCALE
  5
6A
102
{ACAD_REACTORS
330
4F
102
}
330
4F
100
AcDbScale
 70
     0
300
1/32" = 1'-0"
140
0.03125
141
12.0
290
     0
  0
SCALE
  5
6B
102
{ACAD_REACTORS
330
4F
102
}
330
4F
100
AcDbScale
 70
     0
300
1/16" = 1'-0"
140
0.0625
141
12.0
290
     0
  0
SCALE
  5
6C
102
{ACAD_REACTORS
330
4F
102
}
330
4F
100
AcDbScale
 70
     0
300
3/32" = 1'-0"
140
0.09375
141
12.0
290
     0
  0
SCALE
  5
6D
102
{ACAD_REACTORS
330
4F
102
}
330
4F
100
AcDbScale
 70
     0
300
1/8" = 1'-0"
140
0.125
141
12.0
290
     0
  0
SCALE
  5
6E
102
{ACAD_REACTORS
330
4F
102
}
330
4F
100
AcDbScale
 70
     0
300
3/16" = 1'-0"
140
0.1875
141
12.0
290
     0
  0
SCALE
  5
6F
102
{ACAD_REACTORS
330
4F
102
}
330
4F
100
AcDbScale
 70
     0
300
1/4" = 1'-0"
140
0.25
141
12.0
290
     0
  0
SCALE
  5
70
102
{ACAD_REACTORS
330
4F
102
}
330
4F
100
AcDbScale
 70
     0
300
3/8" = 1'-0"
140
0.375
141
12.0
290
     0
  0
SCALE
  5
71
102
{ACAD_REACTORS
330
4F
102
}
330
4F
100
AcDbScale
 70
     0
300
1/2" = 1'-0"
140
0.5
141
12.0
290
     0
  0
SCALE
  5
72
102
{ACAD_REACTORS
330
4F
102
}
330
4F
100
AcDbScale
 70
     0
300
3/4" = 1'-0"
140
0.75
141
12.0
290
     0
  0
SCALE
  5
73
102
{ACAD_REACTORS
330
4F
102
}
330
4F
100
AcDbScale
 70
     0
300
1" = 1'-0"
140
1.0
141
12.0
290
     0
  0
SCALE
  5
74
102
{ACAD_REACTORS
330
4F
102
}
330
4F
100
AcDbScale
 70
     0
300
1-1/2" = 1'-0"
140
1.5
141
12.0
290
     0
  0
SCALE
  5
75
102
{ACAD_REACTORS
330
4F
102
}
330
4F
100
AcDbScale
 70
     0
300
3" = 1'-0"
140
3.0
141
12.0
290
     0
  0
SCALE
  5
76
102
{ACAD_REACTORS
330
4F
102
}
330
4F
100
AcDbScale
 70
     0
300
6" = 1'-0"
140
6.0
141
12.0
290
     0
  0
SCALE
  5
77
102
{ACAD_REACTORS
330
4F
102
}
330
4F
100
AcDbScale
 70
     0
300
1'-0" = 1'-0"
140
12.0
141
12.0
290
     0
  0
TABLESTYLE
  5
53
102
{ACAD_XDICTIONARY
360
54
102
}
102
{ACAD_REACTORS
330
50
102
}
330
50
100
AcDbTableStyle
280
     0
  3
Standard
 70
     0
 71
     0
 40
0.06
 41
0.06
280
     0
281
     0
  7
Standard
140
0.18
170
     2
 62
     0
 63
     7
283
     0
 90
      512
 91
        0
  1

274
    -2
284
     1
 64
     0
275
    -2
285
     1
 65
     0
276
    -2
286
     1
 66
     0
277
    -2
287
     1
 67
     0
278
    -2
288
     1
 68
     0
279
    -2
289
     1
 69
     0
  7
Standard
140
0.25
170
     5
 62
     0
 63
     7
283
     0
 90
      512
 91
        0
  1

274
    -2
284
     1
 64
     0
275
    -2
285
     1
 65
     0
276
    -2
286
     1
 66
     0
277
    -2
287
     1
 67
     0
278
    -2
288
     1
 68
     0
279
    -2
289
     1
 69
     0
  7
Standard
140
0.18
170
     5
 62
     0
 63
     7
283
     0
 90
      512
 91
        0
  1

274
    -2
284
     1
 64
     0
275
    -2
285
     1
 65
     0
276
    -2
286
     1
 66
     0
277
    -2
287
     1
 67
     0
278
    -2
288
     1
 68
     0
279
    -2
289
     1
 69
     0
  0
VISUALSTYLE
  5
30
102
{ACAD_REACTORS
330
31
102
}
330
31
100
AcDbVisualStyle
  2
2dWireframe
 70
     4
177
     2
291
     0
 71
     0
176
     1
 72
     2
176
     1
 73
     0
176
     1
 90
        0
176
     1
 40
0.6
176
     1
 41
30.0
176
     1
 63
     7
176
     1
 74
     1
176
     1
 91
        4
176
     1
 64
     7
176
     1
 65
   257
176
     1
 75
     1
176
     1
175
     1
176
     1
 42
1.0
176
     1
 92
        0
176
     1
 66
   257
176
     1
 43
1.0
176
     1
 76
     1
176
     1
 77
     6
176
     1
 78
     2
176
     1
 67
     7
176
     1
 79
     5
176
     1
170
     0
176
     1
171
     0
176
     1
290
     0
176
     1
 93
        1
176
     1
 44
0.0
176
     1
173
     0
176
     1
  0
VISUALSTYLE
  5
56
102
{ACAD_REACTORS
330
31
102
}
330
31
100
AcDbVisualStyle
  2
3dWireframe
 70
     5
177
     2
291
     0
 71
     0
176
     1
 72
     2
176
     1
 73
     0
176
     1
 90
        0
176
     1
 40
0.6
176
     1
 41
30.0
176
     1
 63
     7
176
     1
 74
     1
176
     1
 91
        4
176
     1
 64
     7
176
     1
 65
   257
176
     1
 75
     1
176
     1
175
     1
176
     1
 42
1.0
176
     1
 92
        0
176
     1
 66
   257
176
     1
 43
1.0
176
     1
 76
     1
176
     1
 77
     6
176
     1
 78
     2
176
     1
 67
     7
176
     1
 79
     5
176
     1
170
     0
176
     1
171
     0
176
     1
290
     0
176
     1
 93
        1
176
     1
 44
0.0
176
     1
173
     0
176
     1
  0
VISUALSTYLE
  5
55
102
{ACAD_REACTORS
330
31
102
}
330
31
100
AcDbVisualStyle
  2
Realistic
 70
     8
177
     2
291
     0
 71
     2
176
     1
 72
     2
176
     1
 73
     0
176
     1
 90
        0
176
     1
 40
0.6
176
     1
 41
30.0
176
     1
 63
     7
176
     1
 74
     1
176
     1
 91
        0
176
     1
 64
     7
176
     1
 65
   257
176
     1
 75
     1
176
     1
175
     1
176
     1
 42
1.0
176
     1
 92
        8
176
     1
 66
     8
176
     1
 43
1.0
176
     1
 76
     1
176
     1
 77
     6
176
     1
 78
     2
176
     1
 67
     7
176
     1
 79
     5
176
     1
170
     0
176
     1
171
     0
176
     1
290
     0
176
     1
 93
       13
176
     1
 44
0.0
176
     1
173
     0
176
     1
  0
DICTIONARYVAR
  5
3A1
102
{ACAD_REACTORS
330
39D
102
}
330
39D
100
DictionaryVariables
280
     0
  1
1:1
  0
DICTIONARYVAR
  5
39F
102
{ACAD_REACTORS
330
39D
102
}
330
39D
100
DictionaryVariables
280
     0
  1
STANDARD
  0
DICTIONARYVAR
  5
39E
102
{ACAD_REACTORS
330
39D
102
}
330
39D
100
DictionaryVariables
280
     0
  1
STANDARD
  0
DICTIONARYVAR
  5
3A3
102
{ACAD_REACTORS
330
39D
102
}
330
39D
100
DictionaryVariables
280
     0
  1
1
  0
DICTIONARYVAR
  5
3A4
102
{ACAD_REACTORS
330
39D
102
}
330
39D
100
DictionaryVariables
280
     0
  1
15
  0
DICTIONARYVAR
  5
3A2
102
{ACAD_REACTORS
330
39D
102
}
330
39D
100
DictionaryVariables
280
     0
  1
0
  0
DICTIONARYVAR
  5
3A0
102
{ACAD_REACTORS
330
39D
102
}
330
39D
100
DictionaryVariables
280
     0
  1
0
  0
DICTIONARY
  5
19
330
17
100
AcDbDictionary
280
     1
281
     1
  3
ADSK_XREC_LAYOUTTHUMBNAIL
360
1A
  0
DICTIONARY
  5
47
330
46
100
AcDbDictionary
280
     1
281
     1
  3
BUMPTILE
360
48
  3
DIFFUSETILE
360
49
  3
OPACITYTILE
360
4A
  3
REFLECTIONTILE
360
4B
  3
REFRACTIONTILE
360
4C
  3
SPECULARTILE
360
4D
  0
DICTIONARY
  5
3F
330
3E
100
AcDbDictionary
280
     1
281
     1
  3
BUMPTILE
360
40
  3
DIFFUSETILE
360
41
  3
OPACITYTILE
360
42
  3
REFLECTIONTILE
360
43
  3
REFRACTIONTILE
360
44
  3
SPECULARTILE
360
45
  0
DICTIONARY
  5
E
330
C
100
AcDbDictionary
280
     1
281
     1
  3
BUMPTILE
360
F
  3
DIFFUSETILE
360
10
  3
OPACITYTILE
360
11
  3
REFLECTIONTILE
360
12
  3
REFRACTIONTILE
360
13
  3
SPECULARTILE
360
14
  0
DICTIONARY
  5
54
330
53
100
AcDbDictionary
280
     1
281
     1
  3
ACAD_ROUNDTRIP_2008_TABLESTYLE_CELLSTYLEMAP
360
3A5
  0
XRECORD
  5
1A
102
{ACAD_REACTORS
330
19
102
}
330
19
100
AcDbXrecord
280
     1
310
28000000000100008E0000000100080000000000008E0000000000000000000000010000000000003028210000000000FFFFFF000000000000000000000000000000000000000000000000000000000000000000330000006600000099000000CC000000FF00000000330000333300006633000099330000CC330000FF3300
310
0000660000336600006666000099660000CC660000FF66000000990000339900006699000099990000CC990000FF99000000CC000033CC000066CC000099CC0000CCCC0000FFCC000000FF000033FF000066FF000099FF0000CCFF0000FFFF000000003300330033006600330099003300CC003300FF003300003333003333
310
33006633330099333300CC333300FF33330000663300336633006666330099663300CC663300FF66330000993300339933006699330099993300CC993300FF99330000CC330033CC330066CC330099CC3300CCCC3300FFCC330000FF330033FF330066FF330099FF3300CCFF3300FFFF330000006600330066006600660099
310
006600CC006600FF00660000336600333366006633660099336600CC336600FF33660000666600336666006666660099666600CC666600FF66660000996600339966006699660099996600CC996600FF99660000CC660033CC660066CC660099CC6600CCCC6600FFCC660000FF660033FF660066FF660099FF6600CCFF6600
310
FFFF660000009900330099006600990099009900CC009900FF00990000339900333399006633990099339900CC339900FF33990000669900336699006666990099669900CC669900FF66990000999900339999006699990099999900CC999900FF99990000CC990033CC990066CC990099CC9900CCCC9900FFCC990000FF99
310
0033FF990066FF990099FF9900CCFF9900FFFF99000000CC003300CC006600CC009900CC00CC00CC00FF00CC000033CC003333CC006633CC009933CC00CC33CC00FF33CC000066CC003366CC006666CC009966CC00CC66CC00FF66CC000099CC003399CC006699CC009999CC00CC99CC00FF99CC0000CCCC0033CCCC0066CC
310
CC0099CCCC00CCCCCC00FFCCCC0000FFCC0033FFCC0066FFCC0099FFCC00CCFFCC00FFFFCC000000FF003300FF006600FF009900FF00CC00FF00FF00FF000033FF003333FF006633FF009933FF00CC33FF00FF33FF000066FF003366FF006666FF009966FF00CC66FF00FF66FF000099FF003399FF006699FF009999FF00CC
310
99FF00FF99FF0000CCFF0033CCFF0066CCFF0099CCFF00CCCCFF00FFCCFF0000FFFF0033FFFF0066FFFF0099FFFF00CCFFFF00FFFFFF00000000000D0D0D001A1A1A00282828003535350043434300505050005D5D5D006B6B6B00787878008686860093939300A1A1A100AEAEAE00BBBBBB00C9C9C900D6D6D600E4E4E400
310
F1F1F100FFFFFF00000000000000000000000000000000000000000000000000000000000000000000000000000000000000000000000000000000000000000000000000000000BE00000000000000000000DC0000002D00002D2D2D2D2D2DBE2D2D2DF5F5F5F5F5F5F5F5F5F5F5F5F5F52D2D2D2DBE2D2D2D2D2D2DF52D00
310
002D0000000000000000000000000000000000000000000000000000000000000000000000000000000000000000000000000000000000DC000000F5000000000000000000F5000000002D002D2D2D2D2D2DBE2D2D2D2DF5F5F5F5F5F5F5F5F5F5F5F5F5F52D2D2DBE2D2D2D2D2D2D2DF50000002D00000000000000000000
310
00000000000000000000000000000000000000000000000000000000000000000000000000000000000000F50000F50000000000000000000000000000000000000000000000000000BE00000000000000000000DC0000002D0000002D00000000BE002DF5000000000000000000000000000000F52D00BE0000000000002D
310
0000002D0000000000000000000000000000000000000000000000000000000000000000000000000000000000000000000000000000000000DC000000F5000000000000000000F5000000002D00002D00000000BE002DF5F50000000000000000000000000000F52D00BE000000000000002D0000002D0000000000000000
310
000000000000000000000000000000000000000000000000000000000000000000000000000000000000000000F50000F50000000000000000000000000000000000000000000000000000BE00000000000000000000DC0000002D00002D2D00000000BE002D00000000000000000000000000000000002D00BE0000000000
310
002D0000002D0000000000000000000000000000000000000000000000000000000000000000000000000000000000000000000000000000000000DC000000F5000000000000000000F5000000002D00002D00000000BE002D00000000000000000000000000000000002D00BE0000000000002D2D0000002D000000000000
310
0000000000000000000000000000000000000000000000000000000000000000000000000000000000000000000000F50000F50000000000000000000000000000000000000000000000000000BE00000000000000000000DC0000002D0000002D00000000BE00F50000000000000000BE2800000000000000F500BE000000
310
0000002D0000002D0000000000000000000000F52D2D2D2D2D2D2D2DF50000000000000000000000000000000000000000000000000000000000000000DC000000F5000000000000000000F5000000002D00002D00000000BE00F50000000000000000BE2800000000000000F500BE000000000000002D0000002D00000000
310
0000000000002DF52D2D2D2D2D2D2DF5000000000000000000000000000000000000000000000000000000000000000000F50000F50000000000000000000000000000000000000000000000000000BE00000000000000000000DC0000002D0000002D00000000BE00F50000000000000000BE2800000000000000F500BE00
310
00000000002D0000002D00000000000000000000002D2D00000000000028F50000000000000000000000000000000000000000000000000000000000000000DC000000F5000000000000000000F5000000002D00002D00000000BE00F50000000000000000BE2800000000000000F500BE000000000000002D0000002D0000
310
00000000000000002D2D000000000000F528000000000000000000000000000000000000000000000000000000000000000000F50000F50000000000000000000000000000000000000000000000000000BE00000000000000000000DC0000002D0000002D00000000BE00F50000000000000028BE2800000000000000F500
310
BE0000000000002D0000002D00000000000000000000002D0000000000002828F50000000000000000000000000000000000000000000000000000000000000000DC000000F5000000000000000000F5000000002D00002D00000000BE00F50000000000000028BE2800000000000000F500BE000000000000002D0000002D
310
00000000000000000000002D000000000028F528000000000000000000000000000000000000000000000000000000000000000000F50000F50000000000000000000000000000000000000000000000000000BE00000000000000000000DC0000002D0000002D00000000BE00F50000000000000028BE2800000000000000
310
F500BE0000000000002D0000002D00000000000000000000002D0000000000F52828F50000000000000000000000000000000000000000000000000000000000000000DC000000F5000000000000000000F5000000002D00002D00000000BE00F50000000000000028BE2800000000000000F500BE000000000000002D0000
310
002D00000000000000000000002D0000000000280028000000000000000000000000000000000000000000000000000000000000000000F50000F50000000000000000000000000000000000000000000000000000BE00000000000000000000DC0000002D0000002D00000000BE00F52D00000000000028BE280000000000
310
2D00F500BE0000000000002D0000002D00000000000000000000002D0000000000F52828F50000000000000000000000000000000000000000000000000000000000000000DC000000F5000000000000000000F5000000002D00002D00000000BE00F5002D000000000028BE280000000000002DF500BE000000000000002D
310
0000002D00000000000000000000002D0000000000280028000000000000000000000000000000000000000000000000000000000000000000F50000F50000000000000000000000000000000000000000000000000000BE00000000000000000000DC0000002D0000002D00000000BE00F52D2D2D2D2D2D2D2D2D2D2D2D2D
310
2D2DF500F500BE0000000000002D0000002D00000000000000000000002D0000000000F52828F50000000000000000000000000000000000000000000000000000000000000000DC000000F5000000000000000000F5000000002D00002D00000000BE00F5002D2D2D2D2D2D2D2D2D2D2D2D2D2D2DF5F500BE000000000000
310
002D0000002D00000000000000000000002D0000000000280028000000000000000000000000000000000000000000000000000000000000000000F50000F50000000000000000000000000000000000000000000000000000BE00000000000000000000DC0000002D0000002D00000000BE00F52D00000000000028BE2800
310
BEBEBEBE2D00F500BE0000000000002D0000002D00000000000000000000002D0000000000F52828F50000000000000000000000000000000000000000000000000000000000000000DC000000F5000000000000000000F5000000002D00002D00000000BE00F5002D000000000028BE2800BEBEBEBEBE2DF500BE00000000
310
0000002D0000002D00000000000000000000002D0000000000280028000000000000000000000000000000000000000000000000000000000000000000F50000F50000000000000000000000000000000000000000000000000000BE00000000000000000000DC0000002D0000002D00000000BE00F52D00000000000028BE
310
2800BEBEBEBE2D00F500BE0000000000002D0000002D00000000000000000000002D0000000000F52828F50000000000000000000000000000000000000000000000000000000000000000DC000000F5000000000000000000F5000000002D00002D00000000BE00F5002D000000000028BE2800BEBEBEBEBE2DF500BE0000
310
00000000002D0000002D00000000000000000000002D0000000000280028000000000000000000000000000000000000000000000000000000000000000000F50000F50000000000000000000000000000000000000000000000000000BE00000000000000000000DC0000002D0000002D002DF52D2D2D2D2D2D2DF5BEBEBE
310
BEBEBEBEBEBEF52D2D2D2D2DBE2D2DF52D00002D0000002D00000000000000000000002D0000000000F52828F50000000000000000000000000000000000000000000000000000000000000000DC000000F5000000000000000000F5000000002D00002D0000F52D2D2D2D2D2D2DF5BEBEBEBEBEBEBEBEBEF52D2D2D2D2DBE
310
2D2D2DF50000002D0000002D00000000000000000000002D0000000000280028000000000000000000000000000000000000000000000000000000000000000000F50000F50000000000000000000000000000000000000000000000000000BE00000000000000000000DC0000002D0000002D00002D00BE00F52DBEBE0000
310
000028BE2800000000BE2D00F500BE00002D2D00002D0000002D00000000000000000000002D0000000000F52828F50000000000000000000000000000000000000000000000000000000000000000DC000000F5000000000000000000F5000000002D00002D00002D2DBE00F5002DBE0000000028BE2800000000BEBE2DF5
310
00BE0000002D0000002D0000002D00000000000000000000002D0000000000280028000000000000000000000000000000000000000000000000000000000000000000F50000F50000000000000000000000000000000000000000000000000000BE00000000000000000000DC0000002D0000002D00002D00BE00F52DBE00
310
0000000028BE2800000000002D00F500BE00002D2D00002D0000002D00000000000000000000002D0000000000F52828F50000000000000000000000000000000000000000000000000000000000000000DC000000F5000000000000000000F5000000002D00002D00002D2DBE00F5002D000000000028BE280000000000BE
310
2DF500BE0000002D0000002D0000002D00000000000000000000002D0000000000280028000000000000000000000000000000000000000000000000000000000000000000F50000F50000000000000000000000000000000000000000000000000000BE00000000000000000000DC0000002D0000002D00002D00BE00F5F5
310
00000000000028BE280000000000F500F500BE00002D0000002D0000002D00000000000000000000002D0000000000F52828F50000000000000000000000000000000000000000000000000000000000000000DC000000F5000000000000000000F5000000002D00002D00002D00BE00F500F5000000000028BE2800000000
310
0000F5F500BE0000002D0000002D0000002D00000000000000000000002D0000000000280028000000000000000000000000000000000000000000000000000000000000000000F50000F50000000000000000000000000000000000000000000000000000BE00000000000000000000DC0000002D0000002D00002D00BE00
310
F5BE00000000000028BE280000000000BE00F500BE00002D0000002D0000002D00000000000000000000002D0000000000F52828F50000000000000000000000000000000000000000000000000000000000000000DC000000F5000000000000000000F5000000002D00002D00002D00BE00F500BE000000000028BE280000
310
00000000BEF500BE0000002D0000002D0000002D00000000000000000000002D0000000000280028000000000000000000000000000000000000000000000000000000000000000000F50000F50000000000000000000000000000000000000000000000000000BE00000000000000000000DC0000002D0000002D00002D00
310
BE00F5BE00000000000028BE280000000000BE00F500BE00002D0000002D0000002D00000000000000000000002D0000000000F52828F50000000000000000000000000000000000000000000000000000000000000000DC000000F5000000000000000000F5000000002D00002D00002D00BE00F500BE000000000028BE28
310
000000000000BEF500BE0000002D0000002D0000002D00000000000000000000002D0000000000280028000000000000000000000000000000000000000000000000000000000000000000F50000F50000000000000000000000000000000000000000000000000000BE00000000000000000000DC0000002D0000002D0000
310
2D00BE00F5BE00000000000028BE280000000000BE00F500BE00002D0000002D0000002D00000000000000000000002D0000000000F52828F50000000000000000000000000000000000000000000000000000000000000000DC000000F5000000000000000000F5000000002D00002D00002D00BE00F500BE000000000028
310
BE28000000000000BEF500BE0000002D0000002D0000002D00000000000000000000002D0000000000280028000000000000000000000000000000000000000000000000000000000000000000F50000F50000000000000000000000000000000000000000000000000000BE00000000000000000000DC0000002D0000002D
310
00002D00BE00F5BE00000000000028BE280000000000BE00F500BE00002D0000002D0000002D00000000000000000000002D0000000000F52828F50000000000000000000000000000000000000000000000000000000000000000DC000000F5000000000000000000F5000000002D00002D00002D00BE00F500BE00000000
310
0028BE28000000000000BEF500BE0000002D0000002D0000002D00000000000000000000002D0000000000280028000000000000000000000000000000000000000000000000000000000000000000F50000F50000000000000000000000000000000000000000000000000000BE00000000000000000000DC0000002D0000
310
002D00002D00BE00F5BE00000000000028BE280000000000BE00F500BE00002D0000002D0000BE2D00000000000000000000002D0000000000F52828F50000000000000000000000000000000000000000000000000000000000000000DC000000F5000000000000000000F5000000002D00002D00002D00BE00F500BE0000
310
00000028BE28000000000000BEF500BE0000002D0000002D00BEBE2D00000000000000000000002D0000000000280028000000000000000000000000000000000000000000000000000000000000000000F50000F50000000000000000000000000000000000000000000000000000BE00000000000000000000DC0000002D
310
0000002D00002D00BE00F5BE00000000000028BE280000000000BE00F500BE00002D0000002D00BEBEBE00000000000000000000002D0000000000F52828F50000000000000000000000000000000000000000000000000000000000000000DC000000F5000000000000000000F5000000002D00002D00002D00BE00F500BE
310
000000000028BE28000000000000BEF500BE0000002D0000002D00BEBE2D00000000000000000000002D0000000000280028000000000000000000000000000000000000000000000000000000000000000000F50000F50000000000000000000000000000000000000000000000000000BE00000000000000000000DC0000
310
002D0000002D00002D00BE00F5BE00000000000028BE280000000000BE00F500BE00002D0000002D00BEBEBE00000000000000000000002D0000000000F52828F50000000000000000000000000000000000000000000000000000000000000000DC000000F5000000000000000000F5000000002D00002D00002D00BE00F5
310
00BE000000000028BE28000000000000BEF500BE0000002D0000002D00BEBE2D00000000000000000000002D0000000000280028000000000000000000000000000000000000000000000000000000000000000000F50000F50000000000000000000000000000000000000000000000000000BE00000000000000000000DC
310
0000002D0000002D00002D00BE00F5BE00000000000028BE280000000000BE00F500BE00002D00BEBEBE00BEBEBE00000000000000000000002D0000000000F52828F50000000000000000000000000000000000000000000000000000000000000000DC000000F5000000000000000000F5000000002D00002D00002D00BE
310
00F500BE000000000028BE28000000000000BEF500BE0000002D00BEBE2D00BEBE2D00000000000000000000002D0000000000280028000000000000000000000000000000000000000000000000000000000000000000F50000F50000000000000000000000000000000000000000000000000000BE000000000000000000
310
00DC0000002D0000002D00002D00BE00F5BE00000000000028BE280000000000BE00F500BE00002D0000BE2D00BEBEBE00000000000000000000002D0000000000F52828F50000000000000000000000000000000000000000000000000000000000000000DC000000F5000000000000000000F5000000002D00002D00002D
310
00BE00F500BE000000000028BE28000000000000BEF500BE0000002D00BEBE2D00BEBE2D00000000000000000000002D0000000000280028000000000000000000000000000000000000000000000000000000000000000000F50000F50000000000000000000000000000000000000000000000000000BE00000000000000
310
000000DC0000002D0000002D00002D00BE00F5BE00000000000028BE280000000000BE00F500BE00002D00BEBEBE0000002D00000000000000000000002D0000000000F52828F50000000000000000000000000000000000000000000000000000000000000000DC000000F5000000000000000000F5000000002D00002D00
310
002D00BE00F500BE000000000028BE28000000000000BEF500BE0000002D00BEBE2D0000002D00000000000000000000002D0000000000280028000000000000000000000000000000000000000000000000000000000000000000F50000F50000000000000000000000000000000000000000000000000000BE0000000000
310
0000000000DC0000002D0000002D00002D00BE00F5BE00000000000028BE280000000000BE00F500BE00002D0000BEBE00BEBEBE000000000000000000BEBEBE0000000000F52828F50000000000000000000000000000000000000000000000000000000000000000DC000000F5000000000000000000F5000000002D0000
310
2D00002D00BE00F500BE000000000028BE28000000000000BEF500BE0000002D00BEBE2D00BEBE2D000000000000000000BEBE2D0000000000280028000000000000000000000000000000000000000000000000000000000000000000F50000F50000000000000000000000000000000000000000000000000000BE000000
310
00000000000000DC0000002D0000002D00002D00BE00F5BE00000000000028BE280000000000BE00F500BE00002D0000BEBE00BEBEBE000000000000000000BE00BE0000000000F52828F50000000000000000000000000000000000000000000000000000000000000000DC000000F5000000000000000000F5000000002D
310
00002D00002D00BE00F500BE000000000028BE28000000000000BEF500BE0000002D00BEBE2D00BEBE2D000000000000000000BEBE2D0000000000280028000000000000000000000000000000000000000000000000000000000000000000F50000F5BEBEBE0000000000000000000000000000000000000000000000BE00
310
000000000000000000DC0000002D0000002D00002D00BE00F5BE00000000000028BE280000000000BE00F500BE00002D0000BEBE00BEBEBE000000000000000000BEBE2D0000000000F52828F50000000000000000000000000000000000000000000000000000000000000000DC000000F5000000000000000000F5000000
310
002D00002D00002D00BE00F500BE000000000028BE28000000000000BEF500BE0000002D00BEBE2D00BEBE2D000000000000000000BE002D0000000000280028000000000000000000000000000000000000000000000000000000000000000000F50000F50000000000000000000000000000000000000000000000000000
310
BE00000000000000000000DC0000002D0000002D00002D00BE00F5BE00000000000028BE280000000000BE00F500BE00002D00BEBEBE00BEBEBE000000000000000000BEBEBE0000000000F52828F50000000000000000000000000000000000000000000000000000000000000000DC000000F5000000000000000000F500
310
0000002D00002D00002D00BE00F500BE000000000028BE28000000000000BEF500BE0000002D00BEBE2D00BEBE2D000000000000000000BEBE2D0000000000280028000000000000000000000000000000000000000000000000000000000000000000F50000F5000000000000000000000000000000000000000000000000
310
0000BE00000000000000000000DC0000002D0000002D00002D00BE00F5BE00000000000028BE280000000000BE00F500BE00002D0000BEBE00BEBEBE00000000000000000000002D0000000000F52828F50000000000000000000000000000000000000000000000000000000000000000DC000000F5000000000000000000
310
F5000000002D00002D00002D00BE00F500BE000000000028BE28000000000000BEF500BE0000002D00BEBE2D00BEBE2D00000000000000000000002D0000000000280028000000000000000000000000000000000000000000000000000000000000000000F50000F500000000000000000000000000000000000000000000
310
00000000BE00000000000000000000DC0000002D0000002D00002D00BE00F5BE00000000000028BE280000000000BE00F500BE00002D0000BEBE0000BEBE00000000000000000000002D0000000000F52828F50000000000000000000000000000000000000000000000000000000000000000DC000000F500000000000000
310
0000F5000000002D00002D00002D00BE00F500BE000000000028BE28000000000000BEF500BE0000002D00BEBE2D00BEBE2D00000000000000000000002D0000000000280028000000000000000000000000000000000000000000000000000000000000000000F50000F50000000000000000000000000000000000000000
310
000000000000BE00000000000000000000DC0000002D0000002D00002D00BE00F5BE00000000000028BE280000000000BE00F500BE00002D0000BEBE00BEBEBE00000000000000000000002D0000000000F52828F50000000000000000000000000000000000000000000000000000000000000000DC000000F50000000000
310
00000000F5000000002D00002D00002D00BE00F500BE000000000028BE28000000000000BEF500BE0000002D00BEBE2D00BEBE2D00000000000000000000002D0000000000280028000000000000000000000000000000000000000000000000000000000000000000F50000F5000000000000000000000000000000000000
310
0000000000000000BE00000000000000000000DC0000002D0000002D00002D00BE00F5BE00000000000028BE280000000000BE00F500BE00002D00BEBEBE00BEBEBE00000000000000000000002D0000000000F52828F50000000000000000000000000000000000000000000000000000000000000000DC000000F5000000
310
000000000000F5000000002D00002D00002D00BE00F500BE000000000028BE28000000000000BEF500BE0000002D00BEBE2D00BEBE2D00000000000000000000002D0000000000280028000000000000000000000000000000000000000000000000000000000000000000F50000F500000000000000000000000000000000
310
00000000000000000000BE00000000000000000000DC00BEBEBE0000002D00002D00BE00F5BE00000000000028BE280000000000BE00F500BE00BEBE0000002D0000002D00000000000000000000002D0000000000F52828F50000000000000000000000000000000000000000000000000000000000000000DC000000F500
310
0000000000000000F50000BEBE2D00002D00002D00BE00F500BE000000000028BE28000000000000BEF500BE00BEBE2D0000002D0000002D00000000000000000000002D0000000000280028000000000000000000000000000000000000000000000000000000000000000000F50000F50000000000000000000000000000
310
000000000000000000000000BE00000000000000000000DC00BE00BE0000002D00002D00BE00F5BE00000000000028BE280000000000BE00F500BE00BEBE00BEBEBE0000002D00000000000000000000002D0000000000F52828F50000000000000000000000000000000000000000000000000000000000000000DC000000
310
F5000000000000000000F50000BEBE2D00002D00002D00BE00F500BE000000000028BE28000000000000BEF500BE00BEBE2D00BEBE2D0000002D00000000000000000000002D0000000000280028000000000000000000000000000000000000000000000000000000000000000000F50000F5000000000000000000000000
310
0000000000000000000000000000BE00000000000000000000DC00BEBEBE0000002D00002D00BE00F5BE00000000000028BE280000000000BE00F500BE00BEBE00BEBEBE0000002D00000000000000000000002D0000000000F52828F50000000000000000000000000000000000000000000000000000000000000000DC00
310
0000F5000000000000000000F50000BEBE2D00002D00002D00BE00F500BE000000000028BE28000000000000BEF500BE00BEBE2D00BEBE2D0000002D00000000000000000000002D0000000000280028000000000000000000000000000000000000000000000000000000000000000000F50000F500000000000000000000
310
00000000000000000000000000000000BE00000000000000000000DC00BEBEBE0000002D00002D00BE00F5BE00000000000028BE280000000000BE00F500BE00BEBE00BEBEBE0000002D00000000000000000000002D0000000000F52828F50000000000000000000000000000000000000000000000000000000000000000
310
DC000000F5000000000000000000F50000BEBE2D00002D00002D00BE00F500BE000000000028BE28000000000000BEF500BE00BEBE2D00BEBE2D0000002D00000000000000000000002D0000000000280028000000000000000000000000000000000000000000000000000000000000000000F50000F50000000000000000
310
000000000000000000000000000000000000BE00000000000000000000DC0000002D0000002D00002D00BE00F5BE00000000000028BE280000000000BE00F500BE00BEBE00BEBEBE0000002D00000000000000000000002D0000000000F52828F5000000000000000000000000000000000000000000000000000000000000
310
0000DC000000F5000000000000000000F5000000002D00002D00002D00BE00F500BE000000000028BE28000000000000BEF500BE00BEBE2D00BEBE2D0000002D00000000000000000000002D0000000000280028000000000000000000000000000000000000000000000000000000000000000000F50000F5000000000000
310
0000000000000000000000000000000000000000BE00000000000000000000DC0000002D0000002D00002D00BE00F5BE00000000000028BE280000000000BE00F500BE00BE2D0000BE2D0000002D00000000000000000000002D0000000000F52828F500000000000000000000000000000000000000000000000000000000
310
00000000DC000000F5000000000000000000F5000000002D00002D00002D00BE00F500BE000000000028BE28000000000000BEF500BE00BEBE2D00BEBE2D0000002D00000000000000000000002D0000000000280028000000000000000000000000000000000000000000000000000000000000000000F50000F500000000
310
00000000000000000000000000000000000000000000BE00000000000000000000DC0000002D0000002D00002D00BE00F5BE00000000000028BE280000000000BE00F500BE00BEBE0000BE2D0000002D00000000000000000000002D0000000000F52828F50000000000000000000000000000000000000000000000000000
310
000000000000DC000000F5000000000000000000F5000000002D00002D00002D00BE00F500BE000000000028BE28000000000000BEF500BE00BEBE2D00BEBE2D0000002D00000000000000000000002D0000000000280028000000000000000000000000000000000000000000000000000000000000000000F50000F50000
310
000000000000000000000000000000000000000000000000BE00000000000000000000DC0000002D0000002D00002D00BE00F5BE00000000000028BE280000000000BE00F5BEBE00BEBE00BEBEBE0000002D00000000000000000000002D0000000000F52828F5000000000000000000000000000000000000000000000000
310
0000000000000000DC000000F5000000000000000000F5000000002D00002D00002D00BEBEF500BE000000000028BE28000000000000BEF500BE00BEBE2D00BEBE2D0000002D00000000000000000000002D0000000000280028000000000000000000000000000000000000000000000000000000000000000000F50000F5
310
0000000000000000000000000000000000000000000000000000BE00000000000000000000DC0000002D00BEBE2D00002D0000BEF5BE00000000000028BE280000000000BE00F5BE0000BEBE00BEBEBE0000002D00000000000000000000002D0000000000F52828F500000000000000000000000000000000000000000000
310
00000000000000000000DC000000F5000000000000000000F5000000002DBEBE2D00002D0000BEF500BE000000000028BE28000000000000BEF5BE0000BEBE2D00BEBE2D0000002D00000000000000000000002D0000000000280028000000000000000000000000000000000000000000000000000000000000000000F500
310
00F50000000000000000000000000000000000000000000000000000BE00000000000000000000DC0000002D00BEBE2D00002D000000BEBE00000000000028BE280000000000BEBEBE000000BEBE00BEBEBE0000002D00000000000000000000002D0000000000F52828F50000000000000000000000000000000000000000
310
000000000000000000000000DC000000F5000000000000000000F5000000002DBEBE2D00002D000000BEBEBE000000000028BE28000000000000BEBE000000BEBE2D00BEBE2D0000002D00000000000000000000002D0000000000280028000000000000000000000000000000000000000000000000000000000000000000
310
F50000F50000000000000000000000000000000000000000000000000000BE00000000000000000000DC0000002D00BEBE2D00002D00000000BEBE000000000028BE280000000000BEBE00000000BEBE00BEBEBE0000002D00000000000000000000002D0000000000F52828F5000000000000000000000000000000000000
310
0000000000000000000000000000DC000000F5000000000000000000F5000000002DBEBE2D00002D00000000BEBE000000000028BE280000000000BEBE00000000BEBE2D00BEBE2D0000002D00000000000000000000002D000000000028002800000000000000000000000000000000000000000000000000000000000000
310
0000F50000F50000000000000000000000000000000000000000000000000000BE00000000000000000000DC0000002D00BEBE2D00002D0000000000BEBE0000000028BE2800000000BEBE0000000000BEBE0000BEBE0000002D00000000000000000000002D0000000000F52828F500000000000000000000000000000000
310
00000000000000000000000000000000DC000000F5000000000000000000F5000000002DBEBE2D00002D0000000000BEBE0000000028BE2800000000BEBE0000000000BEBE2D00BEBE2D0000002D00000000000000000000002D00000000002800280000000000000000000000000000000000000000000000000000000000
310
00000000F50000F50000000000000000000000000000000000000000000000000000BE00000000000000000000DC0000002D0000002D00002D000000000000BEBE00000028BE28000000BE00000000000000BEBE00BEBEBE0000002D00000000000000000000002D0000000000F52828F50000000000000000000000000000
310
000000000000000000000000000000000000DC000000F5000000000000000000F5000000002D00002D00002D00000000000000BE00000028BE28000000BEBE000000000000BEBE2D00BEBE2D0000002D00000000000000000000002D0000000000280028000000000000000000000000000000000000000000000000000000
310
000000000000F50000F50000000000000000000000000000000000000000000000000000BE00000000000000000000DC0000002D0000002DBEBE2D00000000000000BEBEBEBEBEBEBEBEBEBE0000000000000000BE2D00BEBEBE0000002D00000000000000000000002D0000000000F52828F5000000000000000000000000
310
0000000000000000000000000000000000000000DC000000F5000000000000000000F5000000002D00002DBEBEBE0000000000000000BEBEBEBEBEBEBEBEBEBE00000000000000BEBE2D00BEBE2D0000002D00000000000000000000002D000000000028002800000000000000000000000000000000000000000000000000
310
0000000000000000F50000F50000000000000000000000000000000000000000000000000000BE00000000000000000000DC0000002D0000002DBEBE2D0000000000000000BEBEBEBEBEBEBEBEBE0000000000000000002D0000002D0000002D00000000000000000000002D000000002DF52828F52D000000000000000000
310
00000000000000000000000000000000000000000000DC000000F5000000000000000000F5000000002D00002DBEBEBE0000000000000000BEBEBEBEBEBEBEBEBE000000000000000000002D0000002D0000002D00000000000000000000002D0000002D2D280028002D000000000000000000000000000000000000000000
310
00000000000000000000F50000F50000000000000000000000000000000000000000000000000000BE00000000000000000000DC0000002D0000002DBEBE2D0000000000000000BEBEBEBEBEBEBEBEF50000000000000000002D0000002D0000002D00000000000000000000002D000000002DF52828F5F5BEBEBEBE000000
310
000000000000000000000000000000000000000000000000DC000000F5000000000000000000F5000000002D00002DBEBEBE0000000000000000F5BEBEBEBEBEBEBEBE000000000000000000002D0000002D0000002D00000000000000000000002D0000002D2D282D282DF5BE00BEBE000000000000000000000000000000
310
000000000000000000000000F50000F50000000000000000000000000000000000000000000000000000BE00000000000000000000DC0000002D0000002DBEBE2D0000000000000000F5F5F5F5F5F5F5F5F50000000000000000002D0000002D0000002D00000000000000000000002D2D0000002DF52828F52DBE00BEBEBE
310
0000000000000000000000000000000000000000000000000000DC000000F5000000000000000000F5000000002D00002DBEBEBE0000000000000000F5F5F5F5F5F5F5F5F5000000000000000000002D0000002D0000002D000000000000000000002D2D0000002D00280028002DBEBEBEBEBE000000000000000000000000
310
0000000000000000000000000000F50000F50000000000000000000000000000000000000000000000000000BE00000000000000000000DC0000002D0000002DBEBE2D0000000000000000F5000028BE280000F50000000000000000002D0000002D0000002D00000000000000000000002D2D0000002DF52828F52D000000
310
00000000000000000000000000000000000000000000000000000000DC000000F5000000000000000000F5000000002D00002D00BEBE0000000000000000F5000028BE280000F5000000000000000000002D0000002D0000002D00000000000000000000002D0000002D0028BE28002D000000000000000000000000000000
310
00000000000000000000000000000000F50000F50000000000000000000000000000000000000000000000000000BE00000000000000000000DC0000002D0000002D00002D0000000000000000F5F5F5F5F5F5F5F5F50000000000000000002D0000002D0000002D00000000000000000000002D2D2D2DF528282828282800
310
000000000000000000000000000000000000000000000000000000000000DC000000F5000000000000000000F5000000002D00002D00002D0000000000000000F5F5F5F5F5F5F5F5F5000000000000000000002D0000002D0000002D000000000000000000002D2D2D2D2DF52828F52828F500000000000000000000000000
310
000000000000000000000000000000000000F50000F50000000000000000000000000000000000000000000000000000BE00000000000000000000DC0000002D0000002D00002D000000000000000000F50028BE2800F5000000000000000000002D0000002D0000002D00000000000000000000002D2D0000002828282828
310
2800000000000000000000000000000000000000000000000000000000000000DC000000F5000000000000000000F5000000002D00002D00002D000000000000000000F50028BE2800F500000000000000000000002D0000002D0000002D000000000000000000002D2D0000002D2828BE28282D0000000000000000000000
310
0000000000000000000000000000000000000000F50000F50000000000000000000000000000000000000000000000000000BE00000000000000000000DC0000002D0000002D00002D000000000000000000F5F5F5BEF5F5F5000000000000000000002D0000002D0000002D00000000000000000000002D00000000282828
310
28282800000000000000000000000000000000000000000000000000000000000000DC000000F5000000000000000000F5000000002D00002D00002D000000000000000000F5F5F5BEF5F5F500000000000000000000002D0000002D0000002D00000000000000000000002D0000002D2828BE28282D000000000000000000
310
00000000000000000000000000000000000000000000F50000F50000000000000000000000000000000000000000000000000000BE00000000000000000000DC0000002D0000002D00002D0000000000000000002D2828BE2828F5000000000000000000002D0000002D0000002D00000000000000000000002D0000000028
310
282828282800000000000000000000000000000000000000000000000000000000000000DC000000F5000000000000000000F5000000002D00002D00002D000000000000000000F52828BE28282D00000000000000000000002D0000002D0000002D00000000000000000000002D0000002D2828BE28282D00000000000000
310
000000000000000000000000000000000000000000000000F50000F50000000000000000000000000000000000000000000000000000BE00000000000000000000DC0000002D0000002D00002D0000000000000000F5F5F5F5F5F5F5F5F50000000000000000002D0000002D0000002D00000000000000000000002D000000
310
0028282828282800000000000000000000000000000000000000000000000000000000000000DC000000F5000000000000000000F5000000002D00002D00002D0000000000000000F5F5F5F5F5F5F5F5F5000000000000000000002D0000002D0000002D00000000000000000000002D0000002D2828BE28282D0000000000
310
0000000000000000000000000000000000000000000000000000F50000F50000000000000000000000000000000000000000000000000000BE00000000000000000000DC0000002D0000002D00002D000000000000F5F5F5F5F5F5F5F5F5F5F5F500000000000000002D0000002D0000002D00000000000000000000002D00
310
00000028282828282800000000000000000000000000000000000000000000000000000000000000DC000000F5000000000000000000F5000000002D00002D00002D00000000000000F5F5F5F5F5F5F5F5F5F5F5F500000000000000002D0000002D0000002D00000000000000000000002D0000002D2828BE28282D000000
310
00000000000000000000000000000000000000000000000000000000F50000F50000000000000000000000000000000000000000000000000000BE00000000000000000000DC0000002D0000002D00002D000000000000F5F5F5F5F5F5F5F5F5F5F5F52D2D2D2DF52D00002D0000002D0000002D0000000000000000000000
310
2D0000000028282828282800000000000000000000000000000000000000000000000000000000000000DC000000F5000000000000000000F5000000002D00002D00002D00000000000000F5F5F5F5F5F5F5F5F5F5F5F52D2D2D2DF50000002D0000002D0000002D00000000000000000000002D0000002D2828BE28282D00
310
000000000000000000000000000000000000000000000000000000000000F50000F50000000000000000000000000000000000000000000000000000BE00000000000000000000DC0000002D0000002D00002D0000000000000000002D2828282828F50000000000002D0000002D0000002D0000002D000000000000000000
310
BEBEBE0000000028282828282800000000000000000000000000000000000000000000000000000000000000DC000000F5000000000000000000F5000000002D00002D00002D000000000000000000F528282828282D0000000000002D2D0000002D0000002D0000002D000000000000000000BEBE2D0000002D2828282828
310
2D00000000000000000000000000000000000000000000000000000000000000F50000F50000000000000000000000000000000000000000000000000000BE00000000000000000000DC0000002D0000002D00002D0000000000000000002D2828282828F50000000000BEBE0000002D0000002D0000002D00000000000000
310
0000BEBEBE0000000028282828282800000000000000000000000000000000000000000000000000000000000000DC000000F5000000000000000000F5000000002D00002D00002D000000000000000000F528282828282D0000000000BEBE2D0000002D0000002D0000002D000000000000000000BEBE2D0000002D282828
310
28282D00000000000000000000000000000000000000000000000000000000000000F50000F50000000000000000000000000000000000000000000000000000BE00000000000000000000DC0000002D0000002D00002D0000000000000000002D2828BE2828F50000000000BEBE0000002D0000002D0000002D0000000000
310
00000000BEBEBE0000000028282828282800002D2D2D2D2D2D2D2D2D2D2D2D2D2D2D2D2D2D2D2DF50000000000000000DC000000F5000000000000000000F5000000002D00002D00002D000000000000000000F52828BE28282D0000000000BEBE2D0000002D0000002D0000002D000000000000000000BEBE2D0000002D28
310
28BE28282D002D2D2D2D2D2D2D2D2D2D2D2D2D2D2D2D2D2D2D2DF5000000000000000000F50000F50000000000000000000000000000000000000000000000000000BE00000000000000000000DC0000002D0000002D00002D0000000000000000002D2828BE2828F50000000000BEBE0000002D0000002D0000002D000000
310
00000000000000002D0000000028282828282800002D0000000000000000BEBEBE00000000000000002D0000000000000000DC000000F5000000000000000000F5000000002D00002D00002D000000000000000000F52828BE28282D0000000000BEBE2D0000002D0000002D0000002D00000000000000000000002D000000
310
2D2828BE28282D002D0000000000000000BEBEBE00000000000000002D000000000000000000F50000F50000000000000000000000000000000000000000000000000000BE00000000000000000000DC0000002D0000002D00002D0000000000000000002D2828282828F50000000000BEBE0000002D0000002D0000002D00
310
000000000000000000002D0000000028282828282800002D2D00000000000000BE00BE00000000000000002D0000000000000000DC000000F5000000000000000000F5000000002D00002D00002D000000000000000000F528282828282D0000000000BEBE2D0000002D0000002D0000002D00000000000000000000002D00
310
00002D28282828282D002D2D00000000000000BEBEBE00000000000000002D000000000000000000F50000F50000000000000000000000000000000000000000000000000000BE00000000000000000000DC0000002D0000002D00002D0000000000000000002D2828282828F50000000000BEBE0000002D0000002D000000
310
2D00000000000000000000002D0000000028282828282800002D2D2D2D2D0000000000000000000000000000002D0000000000000000DC000000F5000000000000000000F5000000002D00002D00002D000000000000000000F528282828282D0000000000BEBE2D0000002D0000002D0000002D0000000000000000000000
310
2D0000002D28282828282D002D2D2D2D2D2D00000000000000000000000000002D000000000000000000F50000F50000000000000000000000000000000000000000000000000000BE00000000000000000000DC0000002D0000002D00002D0000000000000000002D2800BE0028F500000000BEBEBE0000002D0000002D00
310
00002D00000000000000000000002D00000000280000BE002800002D000000BEBE00000000000000000000000000002D0000000000000000DC000000F5000000000000000000F5000000002D00002D00002D000000000000000000F52800BE00282D0000000000BEBE2D0000002D0000002D0000002D000000000000000000
310
00002D0000002D2800BE00282D002D000000BEBE2D000000000000000000000000002D000000000000000000F50000F50000000000000000000000000000000000000000000000000000BE00000000000000000000DC0000002D0000002D00002D0000000000000000002D2800BE0028F500000000BEBEBE0000002D000000
310
2D0000002D00000000000000000000002D00000000280000BE002800002D0000BEBEBEBE2D0000000000000000000000002D0000000000000000DC000000F5000000000000000000F5000000002D00002D00002D000000000000000000F52800BE00282D0000000000BEBE2D0000002D0000002D0000002D00000000000000
310
000000002D0000002D2800BE00282D002D000000BEBEBEBE0000000000000000000000002D000000000000000000F50000F50000000000000000000000000000000000000000000000000000BE00000000000000000000DC0000002D0000002D00002D0000000000000000002D2828282828F50000000000BE2D0000002D2D
310
00002D0000002D00000000000000000000002D2D00000028282828282800002D000000BEBEBE002D00000000000000000000002D0000000000000000DC000000F5000000000000000000F5000000002D00002D00002D000000000000000000F528282828282D0000000000BEBE2D0000002D00002D2D00002D2D0000000000
310
00000000002D2D0000002D28282828282D002D000000BEBEBEBE2D00000000000000000000002D000000000000000000F50000F50000000000000000000000000000000000000000000000000000BE00000000000000000000DC0000002D0000002D00002D0000000000000000F5F5F5F5F5F5F5F5F500000000002D000000
310
2D2D00002D0000002D00000000000000000000002D2D00F5F5F5F5F5F5F5F5F5F52D00000000BEBE002D00000000000000000000002D0000000000000000DC000000F5000000000000000000F5000000002D00002D00002D0000000000000000F5F5F5F5F5F5F5F5F50000000000002D0000002D0000002D0000002D000000
310
00000000000000002D0000F5F5F5F5F5F5F5F5F52D0000000000BEBE002D000000000000000000002D000000000000000000F50000F50000000000000000000000000000000000000000000000000000BE00000000000000000000DC0000002D0000002D00002D000000002D2D2D28282828282828282828F52D2D2D2D2D2D
310
2D2D2D2D2D2D2D2D2D2D2D2D000000000000000000002D2DF528282828282828282828F52D2D2D2D2D2D2D2D2D2D2D2D2D2D2D2D2D2D2D2D2D2D2D2D2D000000DC000000F5000000000000000000F5000000002D00002D00002D000000002D2D2DF5282828282828282828F52D2D2D2D2D2D2D2D2D2D2D2D2D2D2D2D2D2D00
310
0000000000000000002D2D2D28282828282828282828F52D2D2D2D2D2D2D2D2D2D2D2D2D2D2D2D2D2D2D2D2D2D2D2D2D00000000F50000F50000000000000000000000000000000000000000000000000000BE00000000000000000000DC0000002D0000002D00002D000000002D0000F500002800BE00280000F500000000
310
2D00000000000000000000000000000000000000000000000000F50000282800BE00280000F50000002D00000000F5000000000000000000002D0000002D2D000000DC000000F5000000000000000000F5000000002D00002D00002D000000002D2D00F500002800BE00280000F5000000002D2D0000000000000000000000
310
0000000000000000000000000000F500002800BE00280000F50000002D00000000F52D0000000000000000002D000000002D00000000F50000F50000000000000000000000000000000000000000000000000000BE00000000000000000000DC0000002D0000002D00002D000000002D0000F500282828BE28280000F50000
310
00002D00000000000000000000000000000000000000000000000000F500002828282828280000F500BEBE2D000000002D000000000000000000002D0000002D00000000DC000000F5000000000000000000F5000000002D00002D00002D00000000002D00F500002828BE28282800F500000000002D000000000000000000
310
00000000000000000000000000000000F5002828282828282800F500BEBEBE00000000002D0000000000000000002D000000002D00000000F50000F50000000000000000000000000000000000000000000000000000BE00000000000000000000DC0000002D0000002D00002D000000002D0000F500280000BE00280000F5
310
000000002D00000000000000000000000000000000000000000000000000F50000280000BE00280000F500BEBE2D00000000002D0000000000000000002D0000002D00000000DC000000F5000000000000000000F5000000002D00002D00002D00000000002D00F500002800BE00002800F500000000002D00000000000000
310
000000000000000000000000000000000000F500280000BE00002800F500BEBEBE00000000002D0000000000000000002D000000002D00000000F50000F50000000000000000000000000000000000000000000000000000BE00000000000000000000DC0000002D0000002D00002D000000BE2D0000F5002800F5F5002800
310
00F5000000002D00000000000000000000000000000000000000000000000000F50000280000BE00280000F5F5BEBE2D00000000002D0000000000000000002D00BEBEBE00000000DC000000F5000000000000000000F5000000002D00002D00002D00000000BE2D00F500002800F5F5002800F500000000002D0000000000
310
0000000000000000000000000000000000000000F500280000BE00002800F5F5BEBEBE00000000002D0000000000000000002D0000BEBE2D00000000F50000F50000000000000000000000000000000000000000000000000000BE00000000000000000000DC0000002D0000002D00002D0000BEBEBE0000F5002800F5BEF5
310
280000F5000000002D00000000000000000000000000000000000000000000000000F50000280000BE00280000F500F5F52DF5000000002D0000002D00000000002D00BE00BE00000000DC000000F5000000000000000000F5000000002D00002D00002D000000BEBE2D00F5000028F5BEF5002800F500000000002D000000
310
00000000000000000000000000000000000000000000F500280000BE00002800F500F5F52DF5000000002D0000002D00000000002D0000BEBE2D00000000F50000F50000000000000000000000000000000000000000000000000000BE00000000000000000000DC0000002D0000002D00002D0000BEBEBE0000F500280028
310
BE28280000F5000000002D00000000000000000000000000000000000000000000000000F50000280000BE00280000F52D2D2DF500F5F5F52D2D0000002D00000000002D00BEBE2D00000000DC000000F5000000000000000000F5000000002D00002D00002D000000BEBE2D00F500002828BE28002800F500000000002D00
310
000000000000000000000000000000000000000000000000F500280000BE00002800F52D2D2DF52DF5F5F5002D0000002D00000000002D0000BE002D00000000F50000F50000000000000000000000000000000000000000000000000000BE00000000000000000000DC0000002D0000002D00002D000000002D0000F50028
310
00282828280000F50000BEBEBE00000000000000000000000000000000000000000000000000F50000280000BE00280000F5F500BEBEBEBEBE002DF5F5002D0000000000002D0000002D00000000DC000000F5000000000000000000F5000000002D00002D00002D00000000002D00F5000028282828002800F5000000BEBE
310
2D00000000000000000000000000000000000000000000000000F500280000BE00002800F5F500BEBEBEBEBE00F52DF5002D2D00000000002D000000002D00000000F50000F50000000000000000000000000000000000000000000000000000BE00000000000000000000DC0000002D0000002D00002D000000002D0000F5
310
F528F5F5BEF52828F5F50000BEBEBE00000000000000000000000000000000000000000000000000F5F52828282828282828F5F500F5F5F5F500BEBEBEBE002DF5F5F5000000002D0000002D2D000000DC000000F5000000000000000000F5000000002D00002D00002D00000000002D00F5F52828F5BEF5F528F5F5000000
310
BEBE2D00000000000000000000000000000000000000000000000000F5F528282828282828F5F500F5F5F5F50000BEBEBE00F5F5F5F5000000002D000000002D00000000F50000F50000000000000000000000000000000000000000000000000000BE00000000000000000000DC0000002D0000002D00002D000000002D00
310
00F5000000F5F5F5000000F50000BEBEBE00000000000000000000000000000000000000000000000000F50000000000BE00000000F50000000000F5F5F5F500BEBE2DBE00F5F5F5002D0000002D2D000000DC000000F5000000000000000000F5000000002D00002D00002D00000000002D00F5000000F5F5F5000000F500
310
0000BEBE2D00000000000000000000000000000000000000000000000000F500000000BE00000000F50000000000F5F5F5F500BEBE2DBE00F5F5F5F52D000000002D00000000F50000F50000000000000000000000000000000000000000000000000000BE00000000000000000000DC0000002D0000002D00002D00000000
310
2D0000F5000000F5F5F5000000F5000000002D00000000000000000000000000000000000000000000000000F50000000000BE00000000F5000000000000000000F5F52DF5BEBEBEBEBEF5F52D2D2DF52D000000DC000000F5000000000000000000F5000000002D00002D00002D000000002D2D00F5000000F5F5F5000000
310
F500000000002D00000000000000000000000000000000000000000000000000F500000000BE00000000F5000000000000000000F5F52DF500BEBEBEBEF5F52D2D2D2DF500000000F50000F50000000000000000000000000000000000000000000000000000BE00000000000000000000DC0000002D0000002D00002D0000
310
00002D2D2DF5F5F5F5F5BEF5F5F5F5F5000000002D00000000000000000000000000000000000000000000000000F5F5F5F5F5F5F5F5F5F5F5F500000000000000000000002D00F5F5F5F500BEBEF5BE000000000000DC000000F5000000000000000000F5000000002D00002D00002D000000002D2D2DF5F5F5F5F5BEF5F5
310
F5F5F500000000002D00000000000000000000000000000000000000000000000000F5F5F5F5F5F5F5F5F5F5F500000000000000000000002D2DF5F5F5F500BEBEBEF500000000000000F50000F50000000000000000000000000000000000000000000000000000BE00000000000000000000DC0000002D0000002D00002D
310
000000002D000000F50000F5F5F500F50000000000002D000000000000000000000000000000000000000000000000000000F5000000BE0000F5000000000000000000000000002DBE00000000F5F5F5F500000000000000DC000000F5000000000000000000F5000000002D00002D00002D000000002D2D000000F500F5F5
310
F50000F50000000000002D0000000000000000000000000000000000000000000000000000F5000000BE0000F5000000000000000000000000002D2DBE000000F5F5F5F5F500000000000000F50000F50000000000000000000000000000000000000000000000000000BE00000000000000000000DC0000002D0000002D00
310
002D000000002D000000F5F5F5F5F5F5F5F50000000000002D000000000000000000000000000000000000000000000000000000F5F5F5F5F5F5F5F500000000000000000000000000BEBEBE0000000000000000000000000000DC000000F5000000000000000000F5000000002D00002D00002D00000000002D000000F5F5
310
F5F5F5F5F5F50000000000002D0000000000000000000000000000000000000000000000000000F5F5F5F5F5F5F5F5000000000000000000000000002DBEBE000000000000000000000000000000F50000F50000000000000000000000000000000000000000000000000000BE00000000000000000000DC0000002D000000
310
2D00002D000000BEF52D2DF5F5F5F5F5F5F5F5F5F5F5000000002D00000000000000000000000000000000000000000000000000F5F5F5F5F5F5F5F5F5F5F5F500000000000000000000000000000000000000000000000000000000DC000000F5000000000000000000F5000000002D00002D00002D000000BEBEF52DF5F5
310
F5F5F5F5F5F5F5F5F500000000002D00000000000000000000000000000000000000000000000000F5F5F5F5F5F5F5F5F5F5F50000000000000000000000000000000000000000000000000000000000F50000F50000000000000000000000000000000000000000000000000000BE00000000000000000000DC0000002D2D
310
002D2D00002D0000BEBEBE0000F500000000BE00000000F5000000002D00000000000000000000000000000000000000000000000000F50000000000BE00000000F500000000000000000000000000000000000000000000000000000000DC000000F5000000000000000000F5000000002D00002D00002D2D0000BEBE2D00
310
F500000000BE00000000F5000000002D2D00000000000000000000000000000000000000000000000000F500000000BE00000000F50000000000000000000000000000000000000000000000000000000000F50000F50000000000000000000000000000000000000000000000000000BE00000000000000000000DC000000
310
2D2D2D2D2D2D2D2D2D2D2D2D2D2D2DF5F5F5F5F5F5F5F5F5F5F52D2D2D2D2D2D000000000000000000000000000000000000000000000000F5F5F5F5F5F5F5F5F5F5F5F500000000000000000000000000000000000000000000000000000000DC000000F5000000000000000000F50000002D2D2D2D2D2D2D2D2D2D2D2D2D
310
2D2DF5F5F5F5F5F5F5F5F5F5F52D2D2D2D2D2D00000000000000000000000000000000000000000000000000F5F5F5F5F5F5F5F5F5F5F50000000000000000000000000000000000000000000000000000000000F50000F50000000000000000000000000000000000000000000000000000BE00000000000000000000DC00
310
00000000000000000000000000002D00002D00000000BE000000002D000000000000000000000000000000000000000000000000000000000000000000000000BE000000000000000000000000000000000000000000000000000000000000000000DC000000F5000000000000000000F50000000000000000000000000000
310
00002D002D00000000BE000000002D000000000000000000000000000000000000000000000000000000000000000000000000BE00000000000000000000000000000000000000000000000000000000000000000000F50000F50000000000000000000000000000000000000000000000000000BE00000000000000000000
310
DC0000000000000000000000000000002D00002D0000000000000000002D000000000000000000000000000000000000000000000000000000000000000000000000BE000000000000000000000000000000000000000000000000000000000000000000DC000000F5000000000000000000F5000000000000000000000000
310
0000002D2D002D0000000000000000002D000000000000000000000000000000000000000000000000000000000000000000000000BE00000000000000000000000000000000000000000000000000000000000000000000F50000F50000000000000000000000000000000000000000000000000000BE0000000000000000
310
0000DC0000000000000000000000000000002D00002D2D2D2D2D2D2D2D2D2DF500000000000000000000000000000000000000000000000000000000000000000000000000000000000000000000000000000000000000000000000000000000000000000000DC000000F5000000000000000000F500000000000000000000
310
0000000000002D002D2D2D2D2D2D2D2D2D2DF50000000000000000000000000000000000000000000000000000000000000000000000000000000000000000000000000000000000000000000000000000000000000000000000F50000F50000000000000000000000000000000000000000000000000000BE000000000000
310
00000000DC0000000000000000000000000000000000002D0000BEBEBEBEBE00002D00000000000000000000000000000000000000000000000000000000000000000000000000000000000000000000000000000000000000000000000000000000000000000000DC000000F5000000000000000000F50000000000000000
310
000000000000000000002D0000BEBEBEBEBE00002D0000000000000000000000000000000000000000000000000000000000000000000000000000000000000000000000000000000000000000000000000000000000000000000000F50000F50000000000000000000000000000000000000000000000000000BE00000000
310
000000000000DC000000000000000000000000000000000000000000BEBEBEBEBE00000000000000000000000000000000000000000000000000000000000000000000000000000000000000000000000000000000000000000000000000000000000000000000000000DC000000F5000000000000000000F5000000000000
310
000000000000000000000000000000BEBEBEBEBE0000000000000000000000000000000000000000000000000000000000000000000000000000000000000000000000000000000000000000000000000000000000000000000000000000F50000F50000000000000000000000000000000000000000000000000000BE0000
310
0000000000000000DC000000000000000000000000000000000000000000000000000000000000000000000000000000000000000000000000000000000000000000000000000000000000000000000000000000000000000000000000000000000000000000000000000000DC000000F5000000000000000000F500000000
310
000000000000000000000000000000000000000000000000000000000000000000000000000000000000000000000000000000000000000000000000000000000000000000000000000000000000000000000000000000000000000000000000F50000F50000000000000000000000000000000000000000000000000000BE
310
00000000000000000000DC000000000000000000000000000000000000000000000000000000000000000000000000000000000000000000000000000000000000000000000000000000000000000000000000000000000000000000000000000000000000000000000000000000DC000000F5000000000000000000F50000
310
0000000000000000000000000000000000000000000000000000000000000000000000000000000000000000000000000000000000000000000000000000000000000000000000000000000000000000000000000000000000000000000000000000F50000F500000000000000000000000000000000000000000000000000
310
00BE00000000000000000000DC000000000000000000000000000000000000000000000000000000000000000000000000000000000000000000000000000000000000000000000000000000000000000000000000000000000000000000000000000000000000000000000000000000DC000000F5000000000000000000F5
310
00000000000000000000000000000000000000000000000000000000000000000000000000000000000000000000000000000000000000000000000000000000000000000000000000000000000000000000000000000000000000000000000000000000F50000F50000000000000000000000000000000000000000000000
310
000000BE00000000000000000000DC000000000000000000000000000000000000000000000000000000000000000000000000000000000000000000000000000000000000000000000000000000000000000000000000000000000000000000000000000000000000000000000000000000DC000000F50000000000000000
310
00F500000000000000000000000000000000000000000000000000000000000000000000000000000000000000000000000000000000000000000000000000000000000000000000000000000000000000000000000000000000000000000000000000000000F50000F5000000000000000000000000000000000000000000
310
0000000000BE00000000000000000000DC000000000000000000000000000000000000000000000000000000000000000000000000000000000000000000000000000000000000000000000000000000000000000000000000000000000000000000000000000000000000000000000000000000DC000000F5000000000000
310
000000F500000000000000000000000000000000000000000000000000000000000000000000000000000000000000000000000000000000000000000000000000000000000000000000000000000000000000000000000000000000000000000000000000000000F50000F500000000000000000000000000000000000000
310
00000000000000BE00000000000000000000DC000000000000000000000000000000000000000000000000000000000000000000000000000000000000000000000000000000000000000000000000000000000000000000000000000000000000000000000000000000000000000000000000000000DC000000F500000000
310
0000000000F500000000000000000000000000000000000000000000000000000000000000000000000000000000000000000000000000000000000000000000000000000000000000000000000000000000000000000000000000000000000000000000000000000000F50000F50000000000000000000000000000000000
310
000000000000000000BE00000000000000000000DC000000000000000000000000000000000000000000000000000000000000000000000000000000000000000000000000000000000000000000000000000000000000000000000000000000000000000000000000000000000000000000000000000000DC000000F50000
310
00000000000000F500000000000000000000000000000000000000000000000000000000000000000000000000000000000000000000000000000000000000000000000000000000000000000000000000000000000000000000000000000000000000000000000000000000F50000F5000000000000000000000000000000
310
0000000000000000000000BE00000000000000000000DC000000000000000000000000000000000000000000000000000000000000000000000000000000000000000000000000000000000000000000000000000000000000000000000000000000000000000000000000000000000000000000000000000000DC000000F5
310
000000000000000000F500000000000000000000000000000000000000000000000000000000000000000000000000000000000000000000000000000000000000000000000000000000000000000000000000000000000000000000000000000000000000000000000000000000F50000F500000000000000000000000000
310
00000000000000000000000000BE00000000000000000000DC000000000000000000000000000000000000000000000000000000000000000000000000000000000000000000000000000000000000000000000000000000000000000000000000000000000000000000000000000000000000000000000000000000DC0000
310
00F5000000000000000000F500000000000000000000000000000000000000000000000000000000000000000000000000000000000000000000000000000000000000000000000000000000000000000000000000000000000000000000000000000000000000000000000000000000F50000F50000000000000000000000
310
000000000000000000000000000000BE00000000000000000000DC000000000000000000000000000000000000000000000000000000000000000000000000000000000000000000000000000000000000000000000000000000000000000000000000000000000000000000000000000000000000000000000000000000DC
310
000000F5000000000000000000F500000000000000000000000000000000000000000000000000000000000000000000000000000000000000000000000000000000000000000000000000000000000000000000000000000000000000000000000000000000000000000000000000000000F50000F5000000000000000000
310
0000000000000000000000000000000000BE00000000000000000000DC0000000000000000000000000000000000000000000000000000000000000000000000000000000000000000000000000000000000000000000000000000000000000000000000000000000000000000000000000000000000000000000000000000
310
00DC000000F5000000000000000000F500000000000000000000000000000000000000000000000000000000000000000000000000000000000000000000000000000000000000000000000000000000000000000000000000000000000000000000000000000000000000000000000000000000F50000F500000000000000
310
00000000000000000000000000000000000000BE00000000000000000000DC000000000000000000000000000000000000000000000000000000000000000000000000000000000000000000000000000000000000000000000000000000000000000000000000000000000000000000000000000000000000000000000000
310
000000DC000000F5000000000000000000F500000000000000000000000000000000000000000000000000000000000000000000000000000000000000000000000000000000000000000000000000000000000000000000000000000000000000000000000000000000000000000000000000000000F50000F50000000000
310
000000000000000000000000000000000000000000BE00000000000000000000DC00000000000000000000000000000000000000000000000000000000000000000000000000000000000000000000000000000000000000000000000000000000000000000000000000000000000000000000000000000000000000000000
310
0000000000DC000000F5000000000000000000F500000000000000000000000000000000000000000000000000000000000000000000000000000000000000000000000000000000000000000000000000000000000000000000000000000000000000000000000000000000000000000000000000000000F50000F5000000
310
0000000000000000000000000000000000000000000000BE00000000000000000000DCDCDCDCDCDCDCDCDCDCDCDCDCDCDCDCDCDCDCDCDCDCDCDCDCDCDCDCDCDCDCDCDCDCDCDCDCDCDCDCDCDCDCDCDCDCDCDCDCDCDCDCDCDCDCDCDCDCDCDCDCDCDCDCDCDCDCDCDCDCDCDCDCDCDCDCDCDCDCDCDCDCDCDCDCDCDCDCDCDCDCDCDC
310
DCDCDCDCDCDCDCDC000000F5000000000000000000F5F5F5F5F5F5F5F5F5F5F5F5F5F5F5F5F5F5F5F5F5F5F5F5F5F5F5F5F5F5F5F5F5F5F5F5F5F5F5F5F5F5F5F5F5F5F5F5F5F5F5F5F5F5F5F5F5F5F5F5F5F5F5F5F5F5F5F5F5F5F5F5F5F5F5F5F5F5F5F5F5F5F5F5F5F5F5F5F5F5F5F5F5F5F5F5F5F5F5F5F5F50000F500
310
00000000000000000000000000000000000000000000000000BE0000000000000000000000000000000000000000000000000000000000000000000000000000000000000000000000000000000000000000000000000000000000000000000000000000000000000000000000000000000000000000000000000000000000
310
00000000000000000000000000F50000000000000000000000000000000000000000000000000000000000000000000000000000000000000000000000000000000000000000000000000000000000000000000000000000000000000000000000000000000000000000000000000000000000000000000000000000000000
310
F50000000000000000000000000000000000000000000000000000BE000000000000000000000000000000000000000000000000000000000000000000000000000000000000000000000000000000000000000000000000000000000000000000000000000000000000000000000000000000000000000000000000000000
310
000000000000000000000000000000F5000000000000000000000000000000000000000000000000000000000000000000000000000000000000000000000000000000000000000000000000000000000000000000000000000000000000000000000000000000000000000000000000000000000000000000000000000000
310
0000F50000000000000000000000000000000000000000000000000000BEBEBEBEBEBEBEBEBEBEBEBEBEBEBEBEBEBEBEBEBEBEBEBEBEBEBEBEBEBEBEBEBEBEBEBEBEBEBEBEBEBEBEBEBEBEBEBEBEBEBEBEBEBEBEBEBEBEBEBEBEBEBEBEBEBEBEBEBEBEBEBEBEBEBEBEBEBEBEBEBEBEBEBEBEBEBEBEBEBEBEBEBEBEBEBEBEBE
310
BEBEBEBEBEBEBEBEBEBEBEBEBEBEBEBEBEF5F5F5F5F5F5F5F5F5F5F5F5F5F5F5F5F5F5F5F5F5F5F5F5F5F5F5F5F5F5F5F5F5F5F5F5F5F5F5F5F5F5F5F5F5F5F5F5F5F5F5F5F5F5F5F5F5F5F5F5F5F5F5F5F5F5F5F5F5F5F5F5F5F5F5F5F5F5F5F5F5F5F5F5F5F5F5F5F5F5F5F5F5F5F5F5F5F5F5F5F5F5F5F5F5F5F5F5F5F5
310
F5F5F5F5F50000000000000000000000000000000000000000000000000000000000000000000000000000000000000000000000000000000000000000000000000000000000000000000000000000000000000000000000000000000000000000000000000000000000000000000000000000000000000000000000000000
310
00000000000000000000000000000000000000000000000000000000000000000000000000000000000000000000000000000000000000000000000000000000000000000000000000000000000000000000000000000000000000000000000000000000000000000000000000000000000000000000000000000000000000
310
00000000000000000000000000000000000000000000000000000000000000000000000000000000000000000000000000000000000000000000000000000000000000000000000000000000000000000000000000000000000000000000000000000000000000000000000000000000000000000000000000000000000000
310
00000000000000000000000000000000000000000000000000000000000000000000000000000000000000000000000000000000000000000000000000000000000000000000000000000000000000000000000000000000000000000000000000000000000000000000000000000000000000000000000000000000000000
310
00000000000000000000000000000000000000000000000000000000000000000000000000000000000000000000000000000000000000000000000000000000000000000000000000000000000000000000000000000000000000000000000000000000000000000000000000000000000000000000000000000000000000
310
00000000000000000000000000000000000000000000000000000000000000000000000000000000000000000000000000000000000000000000000000000000000000000000000000000000000000000000000000000000000000000000000000000000000000000000000000000000000000000000000000000000000000
310
00000000000000000000000000000000000000000000000000000000000000000000000000000000000000000000000000000000000000000000000000000000000000000000000000000000000000000000000000000000000000000000000000000000000000000000000000000000000000000000000000000000000000
310
00000000000000000000000000000000000000000000000000000000000000000000000000000000000000000000000000000000000000000000000000000000000000000000000000000000000000000000000000000000000000000000000000000000000000000000000000000000000000000000000000000000000000
310
00000000000000000000000000000000000000000000000000000000000000000000000000000000000000000000000000000000000000000000000000000000000000000000000000000000000000000000000000000000000000000000000000000000000000000000000000000000000000000000000000000000000000
310
00000000000000000000000000000000000000000000000000000000000000000000000000000000000000000000000000000000000000000000000000000000000000000000000000000000000000000000000000000000000000000000000000000000000000000000000000000000000000000000000000000000000000
310
00000000000000000000000000000000000000000000000000000000000000000000000000000000000000000000000000000000000000000000000000000000000000000000000000000000000000000000000000000000000000000000000000000000000000000000000000000000000000000000000000000000000000
310
00000000000000000000000000000000000000000000000000000000000000000000000000000000000000000000000000000000000000000000000000000000000000000000000000000000000000000000000000000000000000000000000000000000000000000000000000000000000000000000000000000000000000
310
00000000000000000000000000000000000000000000000000000000000000000000000000000000000000000000000000000000000000000000000000000000000000000000000000000000000000000000000000000000000000000000000000000000000000000000000000000000000000000000000000000000000000
310
00000000000000000000000000000000000000000000000000000000000000000000000000000000000000000000000000000000000000000000000000000000000000000000000000000000000000000000000000000000000000000000000000000000000000000000000000000000000000000000000000000000000000
310
00000000000000000000000000000000000000000000000000000000000000000000000000000000000000000000000000000000000000000000000000000000000000000000000000000000000000000000000000000000000000000000000000000000000000000000000000000000000000000000000000000000000000
310
00000000000000000000000000000000000000000000000000000000000000000000000000000000000000000000000000000000000000000000000000000000000000000000000000000000000000000000000000000000000000000000000000000000000000000000000000000000000000000000000000000000000000
310
00000000000000000000000000000000000000000000000000000000000000000000000000000000000000000000000000000000000000000000000000000000000000000000000000000000000000000000000000000000000000000000000000000000000000000000000000000000000000000000000000000000000000
310
00000000000000000000000000000000000000000000000000000000000000000000000000000000000000000000000000000000000000000000000000000000000000000000000000000000000000000000000000000000000000000000000000000000000000000000000000000000000000000000000000000000000000
310
00000000000000000000000000000000000000000000000000000000000000000000000000000000000000000000000000000000000000000000000000000000000000000000000000000000000000000000000000000000000000000000000000000000000000000000000000000000000000000000000000000000000000
310
00000000000000000000000000000000000000000000000000000000000000000000000000000000000000000000000000000000000000000000000000000000000000000000000000000000000000000000000000000000000000000000000000000000000000000000000000000000000000000000000000000000000000
310
00000000000000000000000000000000000000000000000000000000000000000000000000000000000000000000000000000000000000000000000000000000000000000000000000000000000000000000000000000000000000000000000000000000000000000000000000000000000000000000000000000000000000
310
00000000000000000000000000000000000000000000000000000000000000000000000000000000000000000000000000000000000000000000000000000000000000000000000000000000000000000000000000000000000000000000000000000000000000000000000000000000000000000000000000000000000000
310
00000000000000000000000000000000000000000000000000000000000000000000000000000000000000000000000000000000000000000000000000000000000000000000000000000000000000000000000000000000000000000000000000000000000000000000000000000000000000000000000000000000000000
310
00000000000000000000000000000000000000000000000000000000000000000000000000000000000000000000000000000000000000000000000000000000000000000000000000000000000000000000000000000000000000000000000000000000000000000000000000000000000000000000000000000000000000
310
00000000000000000000000000000000000000000000000000000000000000000000000000000000000000000000000000000000000000000000000000000000000000000000000000000000000000000000000000000000000000000000000000000000000000000000000000000000000000000000000000000000000000
310
00000000000000000000000000000000000000000000000000000000000000000000000000000000000000000000000000000000000000000000000000000000000000000000000000000000000000000000000000000000000000000000000000000000000000000000000000000000000000000000000000000000000000
310
00000000000000000000000000000000000000000000000000000000000000000000000000000000000000000000000000000000000000000000000000000000000000000000000000000000000000000000000000000000000000000000000000000000000000000000000000000000000000000000000000000000000000
310
00000000000000000000000000000000000000000000000000000000000000000000000000000000000000000000000000000000000000000000000000000000000000000000000000000000000000000000000000000000000000000000000000000000000000000000000000000000000000000000000000000000000000
310
00000000000000000000000000000000000000000000000000000000000000000000000000000000000000000000000000000000000000000000000000000000000000000000000000000000000000000000000000000000000000000000000000000000000000000000000000000000000000000000000000000000000000
310
00000000000000000000000000000000000000000000000000000000000000000000000000000000000000000000000000000000000000000000000000000000000000000000000000000000000000000000000000000000000000000000000000000000000000000000000000000000000000000000000000000000000000
310
00000000000000000000000000000000000000000000000000000000000000000000000000000000000000000000000000000000000000000000000000000000000000000000000000000000000000000000000000000000000000000000F5F5F5F5F500000000000000000000000000000000000000000000000000000000
310
00000000000000000000000000000000000000000000000000000000000000000000000000000000000000000000000000000000000000000000000000000000000000000000000000000000000000000000000000000000000000000000000000000000000000000000000000000000000000000000000000000000000000
310
0000000000000000000000000000000000000000000000000000000000000000000000000000000000000000000000000000000000000000000000000000000000000000000000000000000000000000000000000000000000000000000000F50000000000F500000000000000000000000000000000000000000000000000
310
00000000000000000000000000000000000000000000000000000000000000000000000000000000000000000000000000000000000000000000000000000000000000000000000000000000000000000000000000000000000000000000000000000000000000000000000000000000000000000000000000000000000000
310
00000000000000000000000000000000000000000000000000000000000000000000000000000000000000000000000000000000000000000000000000000000000000000000000000000000000000000000000000000000000000000000000000F50000000000F50000000000000000000000000000000000000000000000
310
00000000000000000000000000000000000000000000000000000000000000000000000000000000000000000000000000000000000000000000000000000000000000000000000000000000000000000000000000000000000000000000000000000000000000000000000000000000000000000000000000000000000000
310
0000000000000000000000000000000000000000000000000000000000000000000000000000000000000000000000000000000000000000000000000000000000000000000000000000000000000000000000000000000000000000000000000000F500000000000000F50000000000000000000000000000000000000000
310
00000000000000000000000000000000000000000000000000000000000000000000000000000000000000000000000000000000000000000000000000000000000000000000000000000000000000000000000000000000000000000000000000000000000000000000000000000000000000000000000000000000000000
310
0000000000000000000000000000000000000000000000000000000000000000000000000000000000000000000000000000000000000000000000000000000000000000000000000000000000000000000000000000000000000000000000000000000000F50000000000F500000000000000000000000000000000000000
310
00000000000000000000000000000000000000000000000000000000000000000000000000000000000000000000000000000000000000000000000000000000000000000000000000000000000000000000000000000000000000000000000000000000000000000000000000000000000000000000000000000000000000
310
00000000000000000000000000000000000000000000000000000000000000000000000000000000000000000000000000000000000000000000000000000000000000000000000000000000000000000000000000000000000000000000000000000000000000F50000000000F50000000000000000000000000000000000
310
00000000000000000000000000000000000000000000000000000000000000000000000000000000000000000000000000000000000000000000000000000000000000000000000000000000000000000000000000000000000000000000000000000000000000000000000000000000000000000000000000000000000000
310
00000000000000000000000000000000000000000000000000000000000000000000000000000000000000000000000000000000000000000000000000000000000000000000000000000000000000000000000000000000000000000000000000000000000000000000F5F5F5F5F500000000000000000000000000000000
310
00000000000000000000000000000000000000000000000000000000000000000000000000000000000000000000000000000000000000000000000000000000000000000000000000000000000000000000000000000000000000000000000000000000000000000000000000000000000000000000000000000000000000
310
00000000000000000000000000000000000000000000000000000000000000000000000000000000000000000000000000000000000000000000000000000000000000000000000000000000000000000000000000000000000000000000000000000000000000000000000000000000000000000000000000000000000000
310
00000000000000000000000000000000000000000000000000000000000000000000000000000000000000000000000000000000000000000000000000000000000000000000000000000000000000000000000000000000000000000000000000000000000000000000000000000000000000000000000000000000000000
310
00000000000000000000000000000000000000000000000000000000000000000000000000000000000000000000000000000000000000000000000000000000000000000000000000000000000000000000000000000000000000000000000000000000000000000000000000000000000000000000000000000000000000
310
00000000000000000000000000000000000000000000000000000000000000000000000000000000000000000000000000000000000000000000000000000000000000000000000000000000000000000000000000000000000000000000000000000000000000000000000000000000000000000000000000000000000000
310
00000000000000000000000000000000000000000000000000000000000000000000000000000000000000000000000000000000000000000000000000000000000000000000000000000000000000000000000000000000000000000000000000000000000000000000000000000000000000000000000000000000000000
310
00000000000000000000000000000000000000000000000000000000000000000000000000000000000000000000000000000000000000000000000000000000000000000000000000000000000000000000000000000000000000000000000000000000000000000000000000000000000000000000000000000000000000
310
00000000000000000000000000000000000000000000000000000000000000000000000000000000000000000000000000000000000000000000000000000000000000000000000000000000000000000000000000000000000000000000000000000000000000000000000000000000000000000000000000000000000000
310
00000000000000000000000000000000000000000000000000000000000000000000000000000000000000000000000000000000000000000000000000000000000000000000000000000000000000000000000000000000000000000000000000000000000000000000000000000000000000000000000000000000000000
310
00000000000000000000000000000000000000000000000000000000000000000000000000000000000000000000000000000000000000000000000000000000000000000000000000000000000000000000000000000000000000000000000000000000000000000000000000000000000000000000000000000000000000
310
00000000000000000000000000000000000000000000000000000000000000000000000000000000000000000000000000000000000000000000000000000000000000000000000000000000000000000000000000000000000000000000000000000000000000000000000000000000000000000000000000000000000000
310
00000000000000000000000000000000000000000000000000000000000000000000000000000000000000000000000000000000000000000000000000000000000000000000000000000000000000000000000000000000000000000000000000000000000000000000000000000000000000000000000000000000000000
310
00000000000000000000000000000000000000000000000000000000000000000000000000000000000000000000000000000000000000000000000000000000000000000000000000000000000000000000000000000000000000000000000000000000000000000000000000000000000000000000000000000000000000
310
00000000000000000000000000000000000000000000000000000000000000000000000000000000000000000000000000000000000000000000000000000000000000000000000000000000000000000000000000000000000000000000000000000000000000000000000000000000000000000000000000000000000000
310
00000000000000000000000000000000000000000000000000000000000000000000000000000000000000000000000000000000000000000000000000000000000000000000000000000000000000000000000000000000000000000000000000000000000000000000000000000000000000000000000000000000000000
310
00000000000000000000000000000000000000000000000000000000000000000000000000000000000000000000000000000000000000000000000000000000000000000000000000000000000000000000000000000000000000000000000000000000000000000000000000000000000000000000000000000000000000
310
00000000000000000000000000000000000000000000000000000000000000000000000000000000000000000000000000000000000000000000000000000000000000000000000000000000000000000000000000000000000000000000000000000000000000000000000000000000000000000000000000000000000000
310
00000000000000000000000000000000000000000000000000000000000000000000000000000000000000000000000000000000000000000000000000000000000000000000000000000000000000000000000000000000000000000000000000000000000000000000000000000000000000000000000000000000000000
310
00000000000000000000000000000000000000000000000000000000000000000000000000000000000000000000000000000000000000000000000000000000000000000000000000000000000000000000000000000000000000000000000000000000000000000000000000000000000000000000000000000000000000
310
00000000000000000000000000000000000000000000000000000000000000000000000000000000000000000000000000000000000000000000000000000000000000000000000000000000000000000000000000000000000000000000000000000000000000000000000000000000000000000000000000000000000000
310
00000000000000000000000000000000000000000000000000000000000000000000000000000000000000000000000000000000000000000000000000000000000000000000000000000000000000000000000000000000000000000000000000000000000000000000000000000000000000000000000000000000000000
310
00000000000000000000000000000000000000000000000000000000000000000000000000000000000000000000000000000000000000000000000000000000000000000000000000000000000000000000000000000000000000000000000000000000000000000000000000000000000000000000000000000000000000
310
00000000000000000000000000000000000000000000000000000000000000000000000000000000000000000000000000000000000000000000000000000000000000000000000000000000000000000000000000000000000000000000000000000000000000000000000000000000000000000000000000000000000000
310
00000000000000000000000000000000000000000000000000000000000000000000000000000000000000000000000000000000000000000000000000000000000000000000000000000000000000000000000000000000000000000000000000000000000000000000000000000000000000000000000000000000000000
310
00000000000000000000000000000000000000000000000000000000000000000000000000000000000000000000000000000000000000000000000000000000000000000000000000000000000000000000000000000000000000000000000000000000000000000000000000000000000000000000000000000000000000
310
00000000000000000000000000000000000000000000000000000000000000000000000000000000000000000000000000000000000000000000000000000000000000000000000000000000000000000000000000000000000000000000000000000000000000000000000000000000000000000000000000000000000000
310
00000000000000000000000000000000000000000000000000000000000000000000000000000000000000000000000000000000000000000000000000000000000000000000000000000000000000000000000000000000000000000000000000000000000000000000000000000000000000000000000000000000000000
310
000000000000000000000000000000000000000000000000000000000000000000000000000000000000000000000000000000000000000000000000000000000000000000000000000000000000
  0
XRECORD
  5
48
102
{ACAD_REACTORS
330
47
102
}
330
47
100
AcDbXrecord
280
     1
270
     1
271
     1
  0
XRECORD
  5
49
102
{ACAD_REACTORS
330
47
102
}
330
47
100
AcDbXrecord
280
     1
270
     1
271
     1
  0
XRECORD
  5
4A
102
{ACAD_REACTORS
330
47
102
}
330
47
100
AcDbXrecord
280
     1
270
     1
271
     1
  0
XRECORD
  5
4B
102
{ACAD_REACTORS
330
47
102
}
330
47
100
AcDbXrecord
280
     1
270
     1
271
     1
  0
XRECORD
  5
4C
102
{ACAD_REACTORS
330
47
102
}
330
47
100
AcDbXrecord
280
     1
270
     1
271
     1
  0
XRECORD
  5
4D
102
{ACAD_REACTORS
330
47
102
}
330
47
100
AcDbXrecord
280
     1
270
     1
271
     1
  0
XRECORD
  5
40
102
{ACAD_REACTORS
330
3F
102
}
330
3F
100
AcDbXrecord
280
     1
270
     1
271
     1
  0
XRECORD
  5
41
102
{ACAD_REACTORS
330
3F
102
}
330
3F
100
AcDbXrecord
280
     1
270
     1
271
     1
  0
XRECORD
  5
42
102
{ACAD_REACTORS
330
3F
102
}
330
3F
100
AcDbXrecord
280
     1
270
     1
271
     1
  0
XRECORD
  5
43
102
{ACAD_REACTORS
330
3F
102
}
330
3F
100
AcDbXrecord
280
     1
270
     1
271
     1
  0
XRECORD
  5
44
102
{ACAD_REACTORS
330
3F
102
}
330
3F
100
AcDbXrecord
280
     1
270
     1
271
     1
  0
XRECORD
  5
45
102
{ACAD_REACTORS
330
3F
102
}
330
3F
100
AcDbXrecord
280
     1
270
     1
271
     1
  0
XRECORD
  5
F
102
{ACAD_REACTORS
330
E
102
}
330
E
100
AcDbXrecord
280
     1
270
     1
271
     1
  0
XRECORD
  5
10
102
{ACAD_REACTORS
330
E
102
}
330
E
100
AcDbXrecord
280
     1
270
     1
271
     1
  0
XRECORD
  5
11
102
{ACAD_REACTORS
330
E
102
}
330
E
100
AcDbXrecord
280
     1
270
     1
271
     1
  0
XRECORD
  5
12
102
{ACAD_REACTORS
330
E
102
}
330
E
100
AcDbXrecord
280
     1
270
     1
271
     1
  0
XRECORD
  5
13
102
{ACAD_REACTORS
330
E
102
}
330
E
100
AcDbXrecord
280
     1
270
     1
271
     1
  0
XRECORD
  5
14
102
{ACAD_REACTORS
330
E
102
}
330
E
100
AcDbXrecord
280
     1
270
     1
271
     1
  0
CELLSTYLEMAP
  5
3A5
102
{ACAD_REACTORS
330
54
102
}
330
54
100
AcDbCellStyleMap
 90
        3
300
CELLSTYLE
  1
TABLEFORMAT_BEGIN
 90
        5
170
     1
 91
        0
 92
    32768
 62
   257
 93
        1
300
CONTENTFORMAT
  1
CONTENTFORMAT_BEGIN
 90
        0
 91
        0
 92
      512
 93
        0
300

 40
0.0
140
1.0
 94
        5
 62
     0
340
27
144
0.25
309
CONTENTFORMAT_END
171
     0
 94
        0
309
TABLEFORMAT_END
  1
CELLSTYLE_BEGIN
 90
        1
 91
        1
300
_TITLE
309
CELLSTYLE_END
300
CELLSTYLE
  1
TABLEFORMAT_BEGIN
 90
        5
170
     1
 91
        0
 92
        0
 62
   257
 93
        1
300
CONTENTFORMAT
  1
CONTENTFORMAT_BEGIN
 90
        0
 91
        0
 92
      512
 93
        0
300

 40
0.0
140
1.0
 94
        5
 62
     0
340
27
144
0.18
309
CONTENTFORMAT_END
171
     0
 94
        0
309
TABLEFORMAT_END
  1
CELLSTYLE_BEGIN
 90
        2
 91
        1
300
_HEADER
309
CELLSTYLE_END
300
CELLSTYLE
  1
TABLEFORMAT_BEGIN
 90
        5
170
     1
 91
        0
 92
        0
 62
   257
 93
        1
300
CONTENTFORMAT
  1
CONTENTFORMAT_BEGIN
 90
        0
 91
        0
 92
      512
 93
        0
300

 40
0.0
140
1.0
 94
        2
 62
     0
340
27
144
0.18
309
CONTENTFORMAT_END
171
     0
 94
        0
309
TABLEFORMAT_END
  1
CELLSTYLE_BEGIN
 90
        3
 91
        2
300
_DATA
309
CELLSTYLE_END
  0
ENDSEC
  0
EOF
