  0
SECTION
  2
HEADER
  9
$ACADVER
  1
AC1024
  9
$ACADMAINTVER
 70
     6
  9
$DWGCODEPAGE
  3
ANSI_1252
  9
$INSBASE
 10
0.0
 20
0.0
 30
0.0
  9
$EXTMIN
 10
-420.0583657663651
 20
-0.0543679398720087
 30
-0.0000000000000058
  9
$EXTMAX
 10
420.0422998361996
 20
1188.054390069279
 30
0.0000000000000104
  9
$LIMMIN
 10
0.0
 20
0.0
  9
$LIMMAX
 10
210.0
 20
297.0000000000001
  9
$ORTHOMODE
 70
     1
  9
$REGENMODE
 70
     1
  9
$FILLMODE
 70
     1
  9
$QTEXTMODE
 70
     0
  9
$MIRRTEXT
 70
     1
  9
$LTSCALE
 40
15.0
  9
$ATTMODE
 70
     1
  9
$TEXTSIZE
 40
1.0
  9
$TRACEWID
 40
0.05
  9
$TEXTSTYLE
  7
Standard
  9
$CLAYER
  8
0
  9
$CELTYPE
  6
ByLayer
  9
$CECOLOR
 62
   256
  9
$CELTSCALE
 40
1.0
  9
$DISPSILH
 70
     0
  9
$DIMSCALE
 40
3.5
  9
$DIMASZ
 40
2.5
  9
$DIMEXO
 40
1.0
  9
$DIMDLI
 40
10.0
  9
$DIMRND
 40
0.0
  9
$DIMDLE
 40
0.0
  9
$DIMEXE
 40
1.0
  9
$DIMTP
 40
0.0
  9
$DIMTM
 40
0.0
  9
$DIMTXT
 40
2.5
  9
$DIMCEN
 40
0.0
  9
$DIMTSZ
 40
0.0
  9
$DIMTOL
 70
     0
  9
$DIMLIM
 70
     0
  9
$DIMTIH
 70
     0
  9
$DIMTOH
 70
     0
  9
$DIMSE1
 70
     0
  9
$DIMSE2
 70
     0
  9
$DIMTAD
 70
     1
  9
$DIMZIN
 70
     8
  9
$DIMBLK
  1

  9
$DIMASO
 70
     1
  9
$DIMSHO
 70
     1
  9
$DIMPOST
  1

  9
$DIMAPOST
  1

  9
$DIMALT
 70
     0
  9
$DIMALTD
 70
     3
  9
$DIMALTF
 40
0.03937007874016
  9
$DIMLFAC
 40
1.0
  9
$DIMTOFL
 70
     1
  9
$DIMTVP
 40
0.0
  9
$DIMTIX
 70
     0
  9
$DIMSOXD
 70
     0
  9
$DIMSAH
 70
     0
  9
$DIMBLK1
  1

  9
$DIMBLK2
  1

  9
$DIMSTYLE
  2
Wagner
  9
$DIMCLRD
 70
     4
  9
$DIMCLRE
 70
     4
  9
$DIMCLRT
 70
     1
  9
$DIMTFAC
 40
1.0
  9
$DIMGAP
 40
1.0
  9
$DIMJUST
 70
     0
  9
$DIMSD1
 70
     0
  9
$DIMSD2
 70
     0
  9
$DIMTOLJ
 70
     0
  9
$DIMTZIN
 70
     8
  9
$DIMALTZ
 70
     0
  9
$DIMALTTZ
 70
     0
  9
$DIMUPT
 70
     0
  9
$DIMDEC
 70
     1
  9
$DIMTDEC
 70
     1
  9
$DIMALTU
 70
     2
  9
$DIMALTTD
 70
     3
  9
$DIMTXSTY
  7
Standard
  9
$DIMAUNIT
 70
     0
  9
$DIMADEC
 70
     2
  9
$DIMALTRND
 40
0.0
  9
$DIMAZIN
 70
     2
  9
$DIMDSEP
 70
    46
  9
$DIMATFIT
 70
     3
  9
$DIMFRAC
 70
     0
  9
$DIMLDRBLK
  1

  9
$DIMLUNIT
 70
     2
  9
$DIMLWD
 70
    -2
  9
$DIMLWE
 70
    -2
  9
$DIMTMOVE
 70
     0
  9
$DIMFXL
 40
1.0
  9
$DIMFXLON
 70
     0
  9
$DIMJOGANG
 40
0.7853981633974483
  9
$DIMTFILL
 70
     0
  9
$DIMTFILLCLR
 70
     0
  9
$DIMARCSYM
 70
     0
  9
$DIMLTYPE
  6

  9
$DIMLTEX1
  6

  9
$DIMLTEX2
  6

  9
$DIMTXTDIRECTION
 70
     0
  9
$LUNITS
 70
     2
  9
$LUPREC
 70
     1
  9
$SKETCHINC
 40
0.1
  9
$FILLETRAD
 40
0.0
  9
$AUNITS
 70
     0
  9
$AUPREC
 70
     0
  9
$MENU
  1
acad
  9
$ELEVATION
 40
0.0
  9
$PELEVATION
 40
0.0
  9
$THICKNESS
 40
0.0
  9
$LIMCHECK
 70
     0
  9
$CHAMFERA
 40
0.5
  9
$CHAMFERB
 40
0.5
  9
$CHAMFERC
 40
0.0
  9
$CHAMFERD
 40
0.0
  9
$SKPOLY
 70
     0
  9
$TDCREATE
 40
2453508.474145822
  9
$TDUCREATE
 40
2453508.390812488
  9
$TDUPDATE
 40
2456927.557107408
  9
$TDUUPDATE
 40
2456927.473774074
  9
$TDINDWG
 40
0.4811911806
  9
$TDUSRTIMER
 40
0.4811868981
  9
$USRTIMER
 70
     1
  9
$ANGBASE
 50
0.0
  9
$ANGDIR
 70
     0
  9
$PDMODE
 70
     0
  9
$PDSIZE
 40
-1.0
  9
$PLINEWID
 40
0.0
  9
$SPLFRAME
 70
     0
  9
$SPLINETYPE
 70
     6
  9
$SPLINESEGS
 70
     8
  9
$HANDSEED
  5
35B
  9
$SURFTAB1
 70
     6
  9
$SURFTAB2
 70
     6
  9
$SURFTYPE
 70
     6
  9
$SURFU
 70
     6
  9
$SURFV
 70
     6
  9
$UCSBASE
  2

  9
$UCSNAME
  2

  9
$UCSORG
 10
0.0
 20
0.0
 30
0.0
  9
$UCSXDIR
 10
1.0
 20
0.0
 30
0.0
  9
$UCSYDIR
 10
0.0
 20
1.0
 30
0.0
  9
$UCSORTHOREF
  2

  9
$UCSORTHOVIEW
 70
     0
  9
$UCSORGTOP
 10
0.0
 20
0.0
 30
0.0
  9
$UCSORGBOTTOM
 10
0.0
 20
0.0
 30
0.0
  9
$UCSORGLEFT
 10
0.0
 20
0.0
 30
0.0
  9
$UCSORGRIGHT
 10
0.0
 20
0.0
 30
0.0
  9
$UCSORGFRONT
 10
0.0
 20
0.0
 30
0.0
  9
$UCSORGBACK
 10
0.0
 20
0.0
 30
0.0
  9
$PUCSBASE
  2

  9
$PUCSNAME
  2

  9
$PUCSORG
 10
0.0
 20
0.0
 30
0.0
  9
$PUCSXDIR
 10
1.0
 20
0.0
 30
0.0
  9
$PUCSYDIR
 10
0.0
 20
1.0
 30
0.0
  9
$PUCSORTHOREF
  2

  9
$PUCSORTHOVIEW
 70
     0
  9
$PUCSORGTOP
 10
0.0
 20
0.0
 30
0.0
  9
$PUCSORGBOTTOM
 10
0.0
 20
0.0
 30
0.0
  9
$PUCSORGLEFT
 10
0.0
 20
0.0
 30
0.0
  9
$PUCSORGRIGHT
 10
0.0
 20
0.0
 30
0.0
  9
$PUCSORGFRONT
 10
0.0
 20
0.0
 30
0.0
  9
$PUCSORGBACK
 10
0.0
 20
0.0
 30
0.0
  9
$USERI1
 70
     0
  9
$USERI2
 70
     0
  9
$USERI3
 70
     0
  9
$USERI4
 70
     0
  9
$USERI5
 70
     0
  9
$USERR1
 40
0.0
  9
$USERR2
 40
0.0
  9
$USERR3
 40
0.0
  9
$USERR4
 40
0.0
  9
$USERR5
 40
0.0
  9
$WORLDVIEW
 70
     1
  9
$SHADEDGE
 70
     3
  9
$SHADEDIF
 70
    70
  9
$TILEMODE
 70
     1
  9
$MAXACTVP
 70
    16
  9
$PINSBASE
 10
0.0
 20
0.0
 30
0.0
  9
$PLIMCHECK
 70
     0
  9
$PEXTMIN
 10
1.000000000000000E+20
 20
1.000000000000000E+20
 30
1.000000000000000E+20
  9
$PEXTMAX
 10
-1.000000000000000E+20
 20
-1.000000000000000E+20
 30
-1.000000000000000E+20
  9
$PLIMMIN
 10
0.0
 20
0.0
  9
$PLIMMAX
 10
12.0
 20
9.0
  9
$UNITMODE
 70
     0
  9
$VISRETAIN
 70
     0
  9
$PLINEGEN
 70
     1
  9
$PSLTSCALE
 70
     1
  9
$TREEDEPTH
 70
  3020
  9
$CMLSTYLE
  2
Standard
  9
$CMLJUST
 70
     0
  9
$CMLSCALE
 40
1.0
  9
$PROXYGRAPHICS
 70
     0
  9
$MEASUREMENT
 70
     0
  9
$CELWEIGHT
370
    -1
  9
$ENDCAPS
280
     0
  9
$JOINSTYLE
280
     0
  9
$LWDISPLAY
290
     0
  9
$INSUNITS
 70
     0
  9
$HYPERLINKBASE
  1

  9
$STYLESHEET
  1

  9
$XEDIT
290
     1
  9
$CEPSNTYPE
380
     0
  9
$PSTYLEMODE
290
     1
  9
$FINGERPRINTGUID
  2
{D2B8FC87-D116-45A3-BDC3-EBC6E989C391}
  9
$VERSIONGUID
  2
{E19DBF8F-A307-4970-B5AA-5806150F8147}
  9
$EXTNAMES
290
     1
  9
$PSVPSCALE
 40
0.0
  9
$OLESTARTUP
290
     0
  9
$SORTENTS
280
   127
  9
$INDEXCTL
280
     0
  9
$HIDETEXT
280
     1
  9
$XCLIPFRAME
280
     0
  9
$HALOGAP
280
     0
  9
$OBSCOLOR
 70
   257
  9
$OBSLTYPE
280
     0
  9
$INTERSECTIONDISPLAY
280
     0
  9
$INTERSECTIONCOLOR
 70
   257
  9
$DIMASSOC
280
     1
  9
$PROJECTNAME
  1

  9
$CAMERADISPLAY
290
     0
  9
$LENSLENGTH
 40
50.0
  9
$CAMERAHEIGHT
 40
0.0
  9
$STEPSPERSEC
 40
2.0
  9
$STEPSIZE
 40
6.0
  9
$3DDWFPREC
 40
2.0
  9
$PSOLWIDTH
 40
0.25
  9
$PSOLHEIGHT
 40
4.0
  9
$LOFTANG1
 40
1.570796326794896
  9
$LOFTANG2
 40
1.570796326794896
  9
$LOFTMAG1
 40
0.0
  9
$LOFTMAG2
 40
0.0
  9
$LOFTPARAM
 70
     7
  9
$LOFTNORMALS
280
     1
  9
$LATITUDE
 40
37.795
  9
$LONGITUDE
 40
-122.394
  9
$NORTHDIRECTION
 40
0.0
  9
$TIMEZONE
 70
 -8000
  9
$LIGHTGLYPHDISPLAY
280
     1
  9
$TILEMODELIGHTSYNCH
280
     1
  9
$CMATERIAL
347
3D
  9
$SOLIDHIST
280
     1
  9
$SHOWHIST
280
     1
  9
$DWFFRAME
280
     2
  9
$DGNFRAME
280
     0
  9
$REALWORLDSCALE
290
     1
  9
$INTERFERECOLOR
 62
     1
  9
$INTERFEREOBJVS
345
54
  9
$INTERFEREVPVS
346
55
  9
$CSHADOW
280
     0
  9
$SHADOWPLANELOCATION
 40
0.0
  0
ENDSEC
  0
SECTION
  2
CLASSES
  0
CLASS
  1
IMAGE
  2
AcDbRasterImage
  3
ISM
 90
     2175
 91
        0
280
     0
281
     1
  0
CLASS
  1
DICTIONARYVAR
  2
AcDbDictionaryVar
  3
ObjectDBX Classes
 90
        0
 91
        7
280
     0
281
     0
  0
CLASS
  1
RASTERVARIABLES
  2
AcDbRasterVariables
  3
ISM
 90
        0
 91
        0
280
     0
281
     0
  0
CLASS
  1
IMAGEDEF
  2
AcDbRasterImageDef
  3
ISM
 90
        0
 91
        0
280
     0
281
     0
  0
CLASS
  1
IMAGEDEF_REACTOR
  2
AcDbRasterImageDefReactor
  3
ISM
 90
        1
 91
        0
280
     0
281
     0
  0
CLASS
  1
IDBUFFER
  2
AcDbIdBuffer
  3
ObjectDBX Classes
 90
        0
 91
        0
280
     0
281
     0
  0
CLASS
  1
SPATIAL_FILTER
  2
AcDbSpatialFilter
  3
ObjectDBX Classes
 90
        0
 91
        0
280
     0
281
     0
  0
CLASS
  1
SORTENTSTABLE
  2
AcDbSortentsTable
  3
ObjectDBX Classes
 90
        0
 91
        4
280
     0
281
     0
  0
CLASS
  1
LAYER_INDEX
  2
AcDbLayerIndex
  3
ObjectDBX Classes
 90
        0
 91
        0
280
     0
281
     0
  0
CLASS
  1
SPATIAL_INDEX
  2
AcDbSpatialIndex
  3
ObjectDBX Classes
 90
        0
 91
        0
280
     0
281
     0
  0
CLASS
  1
OBJECT_PTR
  2
CAseDLPNTableRecord
  3
ASE-LPNTableRecord
 90
        1
 91
        0
280
     1
281
     0
  0
CLASS
  1
PLOTSETTINGS
  2
AcDbPlotSettings
  3
ObjectDBX Classes
 90
        0
 91
        0
280
     0
281
     0
  0
CLASS
  1
ACDBDICTIONARYWDFLT
  2
AcDbDictionaryWithDefault
  3
ObjectDBX Classes
 90
        0
 91
        1
280
     0
281
     0
  0
CLASS
  1
WIPEOUT
  2
AcDbWipeout
  3
"WipeOut|Product Desc: Object Enabler for WipeOut entity                        |Company: Autodesk, Inc.                        |WEB Address: www.autodesk.com"
 90
     2175
 91
        0
280
     0
281
     1
  0
CLASS
  1
WIPEOUTVARIABLES
  2
AcDbWipeoutVariables
  3
"WipeOut|Product Desc:     WipeOut Dbx Application|Company:          Autodesk, Inc.|WEB Address:      www.autodesk.com"
 90
        0
 91
        0
280
     0
281
     0
  0
CLASS
  1
RTEXT
  2
RText
  3
RText|AutoCAD Express Tool|expresstools@autodesk.com
 90
     3071
 91
        0
280
     1
281
     1
  0
CLASS
  1
ARCALIGNEDTEXT
  2
AcDbArcAlignedText
  3
ATEXT|AutoCAD Express Tool|expresstools@autodesk.com
 90
        0
 91
        0
280
     1
281
     1
  0
CLASS
  1
MATERIAL
  2
AcDbMaterial
  3
ObjectDBX Classes
 90
     1153
 91
        3
280
     0
281
     0
  0
CLASS
  1
VISUALSTYLE
  2
AcDbVisualStyle
  3
ObjectDBX Classes
 90
     4095
 91
        3
280
     0
281
     0
  0
CLASS
  1
TABLESTYLE
  2
AcDbTableStyle
  3
ObjectDBX Classes
 90
     4095
 91
        1
280
     0
281
     0
  0
CLASS
  1
SCALE
  2
AcDbScale
  3
ObjectDBX Classes
 90
     1153
 91
       33
280
     0
281
     0
  0
CLASS
  1
MLEADERSTYLE
  2
AcDbMLeaderStyle
  3
ACDB_MLEADERSTYLE_CLASS
 90
     4095
 91
        0
280
     0
281
     0
  0
CLASS
  1
CELLSTYLEMAP
  2
AcDbCellStyleMap
  3
ObjectDBX Classes
 90
     1152
 91
        1
280
     0
281
     0
  0
CLASS
  1
SOLID_BACKGROUND
  2
AcDbSolidBackground
  3
SCENEOE
 90
     4095
 91
        0
280
     0
281
     0
  0
CLASS
  1
NPOCOLLECTION
  2
AcDbImpNonPersistentObjectsCollection
  3
ObjectDBX Classes
 90
     1153
 91
        0
280
     0
281
     0
  0
CLASS
  1
DIMASSOC
  2
AcDbDimAssoc
  3
"AcDbDimAssoc|Product Desc:     AcDim ARX App For Dimension|Company:          Autodesk, Inc.|WEB Address:      www.autodesk.com"
 90
        0
 91
        0
280
     0
281
     0
  0
CLASS
  1
AEC_REFEDIT_STATUS_TRACKER
  2
AecDbRefEditStatusTracker
  3
AecArchBase60|Product Desc: Autodesk Architectural Desktop 2007 |Company: Autodesk,Inc. |WEB Address: www.autodesk.com
 90
      129
 91
        0
280
     0
281
     0
  0
CLASS
  1
EXACXREFPANELOBJECT
  2
ExAcXREFPanelObject
  3
EXAC_ESW
 90
     1025
 91
        0
280
     1
281
     0
  0
ENDSEC
  0
SECTION
  2
TABLES
  0
TABLE
  2
VPORT
  5
2E
102
{ACAD_XDICTIONARY
360
32
102
}
330
0
100
AcDbSymbolTable
 70
     1
  0
VPORT
  5
2F
330
2E
100
AcDbSymbolTableRecord
100
AcDbViewportTableRecord
  2
*Active
 70
     0
 10
0.0
 20
0.0
 11
1.0
 21
1.0
 12
430.94690677394
 22
429.7144095461319
 13
0.0
 23
0.0
 14
1.0
 24
1.0
 15
0.0
 25
0.0
 16
0.0
 26
0.0
 36
1.0
 17
0.0
 27
0.0
 37
0.0
 40
1915.144196069218
 41
1.937738246505718
 42
50.0
 43
0.0
 44
0.0
 50
0.0
 51
0.0
 71
     0
 72
  1000
 73
     1
 74
     0
 75
     0
 76
     0
 77
     0
 78
     0
281
     0
 65
     0
110
0.0
120
0.0
130
0.0
111
1.0
121
0.0
131
0.0
112
0.0
122
1.0
132
0.0
 79
     0
146
0.0
348
30
 60
     3
 61
     5
292
     1
282
     1
141
0.0
142
0.0
 63
   250
421
  3355443
  0
ENDTAB
  0
TABLE
  2
LTYPE
  5
29
330
0
100
AcDbSymbolTable
 70
     4
  0
LTYPE
  5
2A
330
29
100
AcDbSymbolTableRecord
100
AcDbLinetypeTableRecord
  2
ByBlock
 70
     0
  3

 72
    65
 73
     0
 40
0.0
  0
LTYPE
  5
2B
330
29
100
AcDbSymbolTableRecord
100
AcDbLinetypeTableRecord
  2
ByLayer
 70
     0
  3

 72
    65
 73
     0
 40
0.0
  0
LTYPE
  5
15
330
29
100
AcDbSymbolTableRecord
100
AcDbLinetypeTableRecord
  2
Continuous
 70
     0
  3
Solid line
 72
    65
 73
     0
 40
0.0
  0
LTYPE
  5
2D3
330
29
100
AcDbSymbolTableRecord
100
AcDbLinetypeTableRecord
  2
AUSGEZOGEN
 70
     0
  3
Ausgezogene Linie
 72
    65
 73
     0
 40
0.0
  0
LTYPE
  5
D5
330
29
100
AcDbSymbolTableRecord
100
AcDbLinetypeTableRecord
  2
STRICHPUNKT
 70
     0
  3
Strichpunkt __ . __ . __ . __ . __ . __ . __ . 
 72
    65
 73
     4
 40
1.0
 49
0.5
 74
     0
 49
-0.25
 74
     0
 49
0.0
 74
     0
 49
-0.25
 74
     0
  0
LTYPE
  5
BB
330
29
100
AcDbSymbolTableRecord
100
AcDbLinetypeTableRecord
  2
VERDECKT
 70
     0
  3
__ __ __ __ __ __ __ __ __ __ __ __ __ __ __ __
 72
    65
 73
     2
 40
0.375
 49
0.25
 74
     0
 49
-0.125
 74
     0
  0
ENDTAB
  0
TABLE
  2
LAYER
  5
20
102
{ACAD_XDICTIONARY
360
21
102
}
330
0
100
AcDbSymbolTable
 70
     9
  0
LAYER
  5
6
102
{ACAD_XDICTIONARY
360
7
102
}
330
20
100
AcDbSymbolTableRecord
100
AcDbLayerTableRecord
  2
0
 70
     0
 62
     7
  6
Continuous
370
    -3
390
9
347
C
  0
LAYER
  5
2C9
102
{ACAD_XDICTIONARY
360
2CA
102
}
330
20
100
AcDbSymbolTableRecord
100
AcDbLayerTableRecord
  2
09-01
 70
     0
 62
     7
  6
Continuous
370
    -3
390
9
347
C
  0
LAYER
  5
83
330
20
100
AcDbSymbolTableRecord
100
AcDbLayerTableRecord
  2
Defpoints
 70
     0
 62
     7
  6
Continuous
290
     0
370
    -3
390
9
347
C
  0
LAYER
  5
2D1
102
{ACAD_XDICTIONARY
360
2D2
102
}
330
20
100
AcDbSymbolTableRecord
100
AcDbLayerTableRecord
  2
01-99
 70
     0
 62
     2
  6
AUSGEZOGEN
370
    -3
390
9
347
C
  0
LAYER
  5
30C
102
{ACAD_XDICTIONARY
360
30D
102
}
330
20
100
AcDbSymbolTableRecord
100
AcDbLayerTableRecord
  2
06-99
 70
     0
 62
     1
  6
AUSGEZOGEN
370
    -3
390
9
347
C
  0
LAYER
  5
2D7
102
{ACAD_XDICTIONARY
360
2D8
102
}
330
20
100
AcDbSymbolTableRecord
100
AcDbLayerTableRecord
  2
02-99
 70
     0
 62
     1
  6
AUSGEZOGEN
370
    -3
390
9
347
C
  0
LAYER
  5
2F7
102
{ACAD_XDICTIONARY
360
2F8
102
}
330
20
100
AcDbSymbolTableRecord
100
AcDbLayerTableRecord
  2
08-99
 70
     0
 62
     7
  6
Continuous
370
    -3
390
9
347
C
  0
LAYER
  5
D3
102
{ACAD_XDICTIONARY
360
D4
102
}
330
20
100
AcDbSymbolTableRecord
100
AcDbLayerTableRecord
  2
05-01
 70
     0
 62
     1
  6
STRICHPUNKT
370
    -3
390
9
347
C
  0
LAYER
  5
B9
102
{ACAD_XDICTIONARY
360
BA
102
}
330
20
100
AcDbSymbolTableRecord
100
AcDbLayerTableRecord
  2
03-01
 70
     0
 62
     3
  6
VERDECKT
370
    -3
390
9
347
C
  0
ENDTAB
  0
TABLE
  2
STYLE
  5
26
330
0
100
AcDbSymbolTable
 70
     3
  0
STYLE
  5
27
330
26
100
AcDbSymbolTableRecord
100
AcDbTextStyleTableRecord
  2
Standard
 70
     0
 40
0.0
 41
1.0
 50
0.0
 71
     0
 42
1.0
  3
txt
  4

  0
STYLE
  5
2F9
330
26
100
AcDbSymbolTableRecord
100
AcDbTextStyleTableRecord
  2
ROMANS8
 70
     0
 40
0.0
 41
1.0
 50
0.0
 71
     0
 42
2.5
  3
ROMANS8
  4

  0
STYLE
  5
31E
330
26
100
AcDbSymbolTableRecord
100
AcDbTextStyleTableRecord
  2
ROMAND8
 70
     0
 40
0.0
 41
1.0
 50
0.0
 71
     0
 42
3.5
  3
ROMAND8
  4

  0
ENDTAB
  0
TABLE
  2
VIEW
  5
2C
330
0
100
AcDbSymbolTable
 70
     0
  0
ENDTAB
  0
TABLE
  2
UCS
  5
2D
330
0
100
AcDbSymbolTable
 70
     0
  0
ENDTAB
  0
TABLE
  2
APPID
  5
33
330
0
100
AcDbSymbolTable
 70
     5
  0
APPID
  5
25
330
33
100
AcDbSymbolTableRecord
100
AcDbRegAppTableRecord
  2
ACAD
 70
     0
  0
APPID
  5
1B
330
33
100
AcDbSymbolTableRecord
100
AcDbRegAppTableRecord
  2
ACAD_PSEXT
 70
     0
  0
APPID
  5
36
330
33
100
AcDbSymbolTableRecord
100
AcDbRegAppTableRecord
  2
ACAD_DSTYLE_DIMJOGGED_JOGANGLE_SYMBOL
 70
     0
  0
APPID
  5
37
330
33
100
AcDbSymbolTableRecord
100
AcDbRegAppTableRecord
  2
ACAD_DSTYLE_DIMJAG
 70
     0
  0
APPID
  5
38
330
33
100
AcDbSymbolTableRecord
100
AcDbRegAppTableRecord
  2
ACAD_DSTYLE_DIMTALN
 70
     0
  0
ENDTAB
  0
TABLE
  2
DIMSTYLE
  5
34
330
0
100
AcDbSymbolTable
 70
     2
100
AcDbDimStyleTable
 71
     1
340
35
  0
DIMSTYLE
105
35
330
34
100
AcDbSymbolTableRecord
100
AcDbDimStyleTableRecord
  2
Wagner
 70
     0
 41
2.5
 42
1.0
 43
10.0
 44
1.0
 73
     0
 74
     0
 77
     1
 78
     8
 79
     2
140
2.5
141
0.0
143
0.03937007874016
147
1.0
171
     3
172
     1
176
     4
177
     4
178
     1
179
     2
271
     8
272
     8
274
     3
283
     0
284
     8
340
27
1001
ACAD_DSTYLE_DIMJOGGED_JOGANGLE_SYMBOL
1070
   384
1040
0.7853981633974483
1001
ACAD_DSTYLE_DIMJAG
1070
   388
1040
1.5
1001
ACAD_DSTYLE_DIMTALN
1070
   392
1070
     0
  0
DIMSTYLE
105
87
102
{ACAD_REACTORS
330
280
330
1F7
330
171
330
BF
330
95
330
29C
330
A2
330
1E0
330
148
330
198
330
112
330
17E
330
105
330
11F
330
18B
330
DC
330
EB
330
F8
330
1A5
330
208
330
217
330
28F
330
88
330
79
102
}
330
34
100
AcDbSymbolTableRecord
100
AcDbDimStyleTableRecord
  2
Wagner$0
 70
     0
 41
2.5
 42
1.0
 43
10.0
 44
1.0
 73
     0
 74
     0
 77
     1
 78
     8
 79
     2
140
2.5
141
0.0
143
0.03937007874016
147
1.0
171
     3
172
     1
174
     1
176
     4
177
     4
178
     1
179
     2
271
     8
272
     8
274
     3
279
     2
283
     0
284
     8
340
27
1001
ACAD_DSTYLE_DIMJOGGED_JOGANGLE_SYMBOL
1070
   384
1040
0.7853981633974483
1001
ACAD_DSTYLE_DIMJAG
1070
   388
1040
1.5
1001
ACAD_DSTYLE_DIMTALN
1070
   392
1070
     0
  0
ENDTAB
  0
TABLE
  2
BLOCK_RECORD
  5
1
330
0
100
AcDbSymbolTable
 70
    27
  0
BLOCK_RECORD
  5
2
102
{ACAD_XDICTIONARY
360
3
102
}
330
1
100
AcDbSymbolTableRecord
100
AcDbBlockTableRecord
  2
*MODEL_SPACE
340
17
 70
     0
280
     1
281
     0
  0
BLOCK_RECORD
  5
1C
330
1
100
AcDbSymbolTableRecord
100
AcDbBlockTableRecord
  2
*PAPER_SPACE
340
1F
 70
     0
280
     1
281
     0
  0
BLOCK_RECORD
  5
2CC
102
{ACAD_XDICTIONARY
360
2CD
102
}
330
1
100
AcDbSymbolTableRecord
100
AcDbBlockTableRecord
  2
DIN A4
340
0
102
{BLKREFS
331
2C8
102
}
 70
     4
280
     1
281
     0
  0
BLOCK_RECORD
  5
29D
330
1
100
AcDbSymbolTableRecord
100
AcDbBlockTableRecord
  2
*D1
340
0
 70
     0
280
     1
281
     0
  0
BLOCK_RECORD
  5
290
330
1
100
AcDbSymbolTableRecord
100
AcDbBlockTableRecord
  2
*D2
340
0
 70
     0
280
     1
281
     0
  0
BLOCK_RECORD
  5
281
330
1
100
AcDbSymbolTableRecord
100
AcDbBlockTableRecord
  2
*D3
340
0
 70
     0
280
     1
281
     0
  0
BLOCK_RECORD
  5
218
330
1
100
AcDbSymbolTableRecord
100
AcDbBlockTableRecord
  2
*D4
340
0
 70
     0
280
     1
281
     0
  0
BLOCK_RECORD
  5
209
330
1
100
AcDbSymbolTableRecord
100
AcDbBlockTableRecord
  2
*D5
340
0
 70
     0
280
     1
281
     0
  0
BLOCK_RECORD
  5
1F8
330
1
100
AcDbSymbolTableRecord
100
AcDbBlockTableRecord
  2
*D6
340
0
 70
     0
280
     1
281
     0
  0
BLOCK_RECORD
  5
1E1
330
1
100
AcDbSymbolTableRecord
100
AcDbBlockTableRecord
  2
*D7
340
0
 70
     0
280
     1
281
     0
  0
BLOCK_RECORD
  5
1A6
330
1
100
AcDbSymbolTableRecord
100
AcDbBlockTableRecord
  2
*D8
340
0
 70
     0
280
     1
281
     0
  0
BLOCK_RECORD
  5
199
330
1
100
AcDbSymbolTableRecord
100
AcDbBlockTableRecord
  2
*D9
340
0
 70
     0
280
     1
281
     0
  0
BLOCK_RECORD
  5
18C
330
1
100
AcDbSymbolTableRecord
100
AcDbBlockTableRecord
  2
*D10
340
0
 70
     0
280
     1
281
     0
  0
BLOCK_RECORD
  5
17F
330
1
100
AcDbSymbolTableRecord
100
AcDbBlockTableRecord
  2
*D11
340
0
 70
     0
280
     1
281
     0
  0
BLOCK_RECORD
  5
172
330
1
100
AcDbSymbolTableRecord
100
AcDbBlockTableRecord
  2
*D12
340
0
 70
     0
280
     1
281
     0
  0
BLOCK_RECORD
  5
156
330
1
100
AcDbSymbolTableRecord
100
AcDbBlockTableRecord
  2
Seifenflasche250-01-s
340
0
310
2800000020000000200000000100080000000000000400000000000000000000000000000000000000000000000080000080000000808000800000008000800080800000C0C0C000C0DCC000F0CAA6000020400000206000002080000020A0000020C0000020E00000400000004020000040400000406000004080000040A0
310
000040C0000040E00000600000006020000060400000606000006080000060A0000060C0000060E00000800000008020000080400000806000008080000080A0000080C0000080E00000A0000000A0200000A0400000A0600000A0800000A0A00000A0C00000A0E00000C0000000C0200000C0400000C0600000C0800000C0
310
A00000C0C00000C0E00000E0000000E0200000E0400000E0600000E0800000E0A00000E0C00000E0E00040000000400020004000400040006000400080004000A0004000C0004000E00040200000402020004020400040206000402080004020A0004020C0004020E000404000004040200040404000404060004040800040
310
40A0004040C0004040E00040600000406020004060400040606000406080004060A0004060C0004060E00040800000408020004080400040806000408080004080A0004080C0004080E00040A0000040A0200040A0400040A0600040A0800040A0A00040A0C00040A0E00040C0000040C0200040C0400040C0600040C08000
310
40C0A00040C0C00040C0E00040E0000040E0200040E0400040E0600040E0800040E0A00040E0C00040E0E00080000000800020008000400080006000800080008000A0008000C0008000E00080200000802020008020400080206000802080008020A0008020C0008020E00080400000804020008040400080406000804080
310
008040A0008040C0008040E00080600000806020008060400080606000806080008060A0008060C0008060E00080800000808020008080400080806000808080008080A0008080C0008080E00080A0000080A0200080A0400080A0600080A0800080A0A00080A0C00080A0E00080C0000080C0200080C0400080C0600080C0
310
800080C0A00080C0C00080C0E00080E0000080E0200080E0400080E0600080E0800080E0A00080E0C00080E0E000C0000000C0002000C0004000C0006000C0008000C000A000C000C000C000E000C0200000C0202000C0204000C0206000C0208000C020A000C020C000C020E000C0400000C0402000C0404000C0406000C0
310
408000C040A000C040C000C040E000C0600000C0602000C0604000C0606000C0608000C060A000C060C000C060E000C0800000C0802000C0804000C0806000C0808000C080A000C080C000C080E000C0A00000C0A02000C0A04000C0A06000C0A08000C0A0A000C0A0C000C0A0E000C0C00000C0C02000C0C04000C0C06000
310
C0C08000C0C0A000F0FBFF00A4A0A000808080000000FF0000FF000000FFFF00FF000000FF00FF00FFFF0000FFFFFF000000000000000000000000000000000000000000000000000000000000000000000000000000000000000000FFFFFFFFFFFFFFFF0000000000000000000000000000000000000000000000FF000000
310
0000000000FF000000000000000000000000000000000000000000FF00000000000000000000FF0000000000000000000000000000000000000000FF00000000000000000000FF0000000000000000000000000000000000000000FF00000000000000000000FF0000000000000000000000000000000000000000FF000000
310
00000000000000FF0000000000000000000000000000000000000000FF00000000000000000000FF0000000000000000000000000000000000000000FF00000000000000000000FF0000000000000000000000000000000000000000FF00000000000000000000FF0000000000000000000000000000000000000000FF0000
310
0000000000000000FF0000000000000000000000000000000000000000FF00000000000000000000FF0000000000000000000000000000000000000000FF00000000000000000000FF0000000000000000000000000000000000000000FF00000000000000000000FF0000000000000000000000000000000000000000FF00
310
000000000000000000FF0000000000000000000000000000000000000000FF00000000000000000000FF0000000000000000000000000000000000000000FF00000000000000000000FF0000000000000000000000000000000000000000FF00000000000000000000FF0000000000000000000000000000000000000000FF
310
00000000000000000000FF0000000000000000000000000000000000000000FF00000000000000000000FF0000000000000000000000000000000000000000FF00000000000000000000FF0000000000000000000000000000000000000000FF00000000000000000000FF0000000000000000000000000000000000000000
310
FF00000000000000000000FF0000000000000000000000000000000000000000FF00000000000000000000FF0000000000000000000000000000000000000000FF00000000000000000000FF0000000000000000000000000000000000000000FF00000000000000000000FF00000000000000000000000000000000000000
310
00FF00000000000000000000FF000000000000000000000000000000000000000000FF0000000000000000FF0000000000000000000000000000000000000000000000FFFFFFFFFFFFFFFF00000000000000000000000000000000000000000000000000FFFFFFFFFFFF000000000000000000000000000000000000000000
310
0000000000FF00000000FF000000000000000000000000000000000000000000000000000000000000000000000000000000000000000000
102
{BLKREFS
331
155
102
}
 70
     4
280
     1
281
     0
  0
BLOCK_RECORD
  5
149
330
1
100
AcDbSymbolTableRecord
100
AcDbBlockTableRecord
  2
*D14
340
0
 70
     0
280
     1
281
     0
  0
BLOCK_RECORD
  5
12D
330
1
100
AcDbSymbolTableRecord
100
AcDbBlockTableRecord
  2
Seifenflasche1000ml-01-s
340
0
310
2800000020000000200000000100080000000000000400000000000000000000000000000000000000000000000080000080000000808000800000008000800080800000C0C0C000C0DCC000F0CAA6000020400000206000002080000020A0000020C0000020E00000400000004020000040400000406000004080000040A0
310
000040C0000040E00000600000006020000060400000606000006080000060A0000060C0000060E00000800000008020000080400000806000008080000080A0000080C0000080E00000A0000000A0200000A0400000A0600000A0800000A0A00000A0C00000A0E00000C0000000C0200000C0400000C0600000C0800000C0
310
A00000C0C00000C0E00000E0000000E0200000E0400000E0600000E0800000E0A00000E0C00000E0E00040000000400020004000400040006000400080004000A0004000C0004000E00040200000402020004020400040206000402080004020A0004020C0004020E000404000004040200040404000404060004040800040
310
40A0004040C0004040E00040600000406020004060400040606000406080004060A0004060C0004060E00040800000408020004080400040806000408080004080A0004080C0004080E00040A0000040A0200040A0400040A0600040A0800040A0A00040A0C00040A0E00040C0000040C0200040C0400040C0600040C08000
310
40C0A00040C0C00040C0E00040E0000040E0200040E0400040E0600040E0800040E0A00040E0C00040E0E00080000000800020008000400080006000800080008000A0008000C0008000E00080200000802020008020400080206000802080008020A0008020C0008020E00080400000804020008040400080406000804080
310
008040A0008040C0008040E00080600000806020008060400080606000806080008060A0008060C0008060E00080800000808020008080400080806000808080008080A0008080C0008080E00080A0000080A0200080A0400080A0600080A0800080A0A00080A0C00080A0E00080C0000080C0200080C0400080C0600080C0
310
800080C0A00080C0C00080C0E00080E0000080E0200080E0400080E0600080E0800080E0A00080E0C00080E0E000C0000000C0002000C0004000C0006000C0008000C000A000C000C000C000E000C0200000C0202000C0204000C0206000C0208000C020A000C020C000C020E000C0400000C0402000C0404000C0406000C0
310
408000C040A000C040C000C040E000C0600000C0602000C0604000C0606000C0608000C060A000C060C000C060E000C0800000C0802000C0804000C0806000C0808000C080A000C080C000C080E000C0A00000C0A02000C0A04000C0A06000C0A08000C0A0A000C0A0C000C0A0E000C0C00000C0C02000C0C04000C0C06000
310
C0C08000C0C0A000F0FBFF00A4A0A000808080000000FF0000FF000000FFFF00FF000000FF00FF00FFFF0000FFFFFF000000000000000000000000000000000000000000000000000000000000000000000000000000000000000000FFFFFFFFFFFFFFFF000000000000000000000000000000000000000000000000FF0000
310
0000000000FF00000000000000000000000000000000000000000000FF0000000000000000FF00000000000000000000000000000000000000000000FF0000000000000000FF00000000000000000000000000000000000000000000FF0000000000000000FF00000000000000000000000000000000000000000000FF0000
310
000000000000FF00000000000000000000000000000000000000000000FF0000000000000000FF00000000000000000000000000000000000000000000FF0000000000000000FF00000000000000000000000000000000000000000000FF0000000000000000FF00000000000000000000000000000000000000000000FF00
310
00000000000000FF00000000000000000000000000000000000000000000FF0000000000000000FF00000000000000000000000000000000000000000000FF0000000000000000FF00000000000000000000000000000000000000000000FF0000000000000000FF00000000000000000000000000000000000000000000FF
310
0000000000000000FF00000000000000000000000000000000000000000000FF0000000000000000FF00000000000000000000000000000000000000000000FF0000000000000000FF00000000000000000000000000000000000000000000FF0000000000000000FF00000000000000000000000000000000000000000000
310
FF0000000000000000FF00000000000000000000000000000000000000000000FF0000000000000000FF00000000000000000000000000000000000000000000FF0000000000000000FF00000000000000000000000000000000000000000000FF0000000000000000FF000000000000000000000000000000000000000000
310
00FF0000000000000000FF00000000000000000000000000000000000000000000FF0000000000000000FF00000000000000000000000000000000000000000000FF0000000000000000FF00000000000000000000000000000000000000000000FF0000000000000000FF0000000000000000000000000000000000000000
310
0000FF0000000000000000FF0000000000000000000000000000000000000000000000FF000000000000FF000000000000000000000000000000000000000000000000FF000000000000FF00000000000000000000000000000000000000000000000000FFFFFFFFFFFF000000000000000000000000000000000000000000
310
000000000000FFFFFFFF00000000000000000000000000000000000000000000000000000000000000000000000000000000000000000000
102
{BLKREFS
331
12C
102
}
 70
     4
280
     1
281
     0
  0
BLOCK_RECORD
  5
120
330
1
100
AcDbSymbolTableRecord
100
AcDbBlockTableRecord
  2
*D16
340
0
 70
     0
280
     1
281
     0
  0
BLOCK_RECORD
  5
113
330
1
100
AcDbSymbolTableRecord
100
AcDbBlockTableRecord
  2
*D17
340
0
 70
     0
280
     1
281
     0
  0
BLOCK_RECORD
  5
106
330
1
100
AcDbSymbolTableRecord
100
AcDbBlockTableRecord
  2
*D18
340
0
 70
     0
280
     1
281
     0
  0
BLOCK_RECORD
  5
F9
330
1
100
AcDbSymbolTableRecord
100
AcDbBlockTableRecord
  2
*D19
340
0
 70
     0
280
     1
281
     0
  0
BLOCK_RECORD
  5
EC
330
1
100
AcDbSymbolTableRecord
100
AcDbBlockTableRecord
  2
*D20
340
0
 70
     0
280
     1
281
     0
  0
BLOCK_RECORD
  5
DD
330
1
100
AcDbSymbolTableRecord
100
AcDbBlockTableRecord
  2
*D21
340
0
 70
     0
280
     1
281
     0
  0
BLOCK_RECORD
  5
C0
330
1
100
AcDbSymbolTableRecord
100
AcDbBlockTableRecord
  2
*D22
340
0
 70
     0
280
     1
281
     0
  0
BLOCK_RECORD
  5
A3
330
1
100
AcDbSymbolTableRecord
100
AcDbBlockTableRecord
  2
*D23
340
0
 70
     0
280
     1
281
     0
  0
BLOCK_RECORD
  5
96
330
1
100
AcDbSymbolTableRecord
100
AcDbBlockTableRecord
  2
*D24
340
0
 70
     0
280
     1
281
     0
  0
BLOCK_RECORD
  5
89
330
1
100
AcDbSymbolTableRecord
100
AcDbBlockTableRecord
  2
*D25
340
0
 70
     0
280
     1
281
     0
  0
BLOCK_RECORD
  5
7A
330
1
100
AcDbSymbolTableRecord
100
AcDbBlockTableRecord
  2
*D26
340
0
 70
     0
280
     1
281
     0
  0
ENDTAB
  0
ENDSEC
  0
SECTION
  2
BLOCKS
  0
BLOCK
  5
5
330
2
100
AcDbEntity
  8
0
100
AcDbBlockBegin
  2
*MODEL_SPACE
 70
     0
 10
0.0
 20
0.0
 30
0.0
  3
*MODEL_SPACE
  1

  0
ENDBLK
  5
16
330
2
100
AcDbEntity
  8
0
100
AcDbBlockEnd
  0
BLOCK
  5
1D
330
1C
100
AcDbEntity
 67
     1
  8
0
100
AcDbBlockBegin
  2
*PAPER_SPACE
 70
     0
 10
0.0
 20
0.0
 30
0.0
  3
*PAPER_SPACE
  1

  0
ENDBLK
  5
1E
330
1C
100
AcDbEntity
 67
     1
  8
0
100
AcDbBlockEnd
  0
BLOCK
  5
2CF
330
2CC
100
AcDbEntity
  8
0
370
     0
100
AcDbBlockBegin
  2
DIN A4
 70
     2
 10
0.0
 20
0.0
 30
0.0
  3
DIN A4
  1

  0
LINE
  5
2D0
330
2CC
100
AcDbEntity
  8
01-99
100
AcDbLine
 10
204.0000075739527
 20
290.9999979434973
 30
0.0
 11
20.0000075739529
 21
290.9999979434973
 31
0.0
  0
LINE
  5
2D4
330
2CC
100
AcDbEntity
  8
01-99
100
AcDbLine
 10
204.0000075122353
 20
290.9999979871026
 30
0.0
 11
204.0000075122355
 21
5.999997987102574
 31
0.0
  0
LINE
  5
2D5
330
2CC
100
AcDbEntity
  8
01-99
100
AcDbLine
 10
20.0000075122355
 20
5.99999798710246
 30
0.0
 11
20.0000075122355
 21
290.9999979871026
 31
0.0
  0
LWPOLYLINE
  5
2D6
330
2CC
100
AcDbEntity
  8
02-99
100
AcDbPolyline
 90
        4
 70
     1
 43
0.0
 10
0.0000075122354986
 20
-0.0000020128974256
 10
210.0000075122355
 20
-0.0000020128974256
 10
210.0000075122355
 20
296.9999979871026
 10
0.0000075122354986
 20
296.9999979871026
  0
LINE
  5
2D9
330
2CC
100
AcDbEntity
  8
01-99
100
AcDbLine
 10
20.0000075122355
 20
5.99999798710246
 30
0.0
 11
204.0000075122355
 21
5.999997987102631
 31
0.0
  0
LINE
  5
2DA
330
2CC
100
AcDbEntity
  8
01-99
100
AcDbLine
 10
70.0000075122355
 20
11.11110909810247
 30
0.0
 11
20.0000075122355
 21
11.11110909810247
 31
0.0
  0
LINE
  5
2DB
330
2CC
100
AcDbEntity
  8
01-99
100
AcDbLine
 10
70.0000075122355
 20
16.22222020910249
 30
0.0
 11
20.0000075122355
 21
16.22222020910249
 31
0.0
  0
LINE
  5
2DC
330
2CC
100
AcDbEntity
  8
01-99
100
AcDbLine
 10
70.0000075122355
 20
21.3333313201025
 30
0.0
 11
20.0000075122355
 21
21.33333132010244
 31
0.0
  0
LINE
  5
2DD
330
2CC
100
AcDbEntity
  8
01-99
100
AcDbLine
 10
115.0000075122355
 20
26.44444243110252
 30
0.0
 11
20.0000075122355
 21
26.44444243110246
 31
0.0
  0
LINE
  5
2DE
330
2CC
100
AcDbEntity
  8
01-99
100
AcDbLine
 10
115.0000075122355
 20
31.55555354210253
 30
0.0
 11
20.0000075122355
 21
31.55555354210247
 31
0.0
  0
LINE
  5
2DF
330
2CC
100
AcDbEntity
  8
01-99
100
AcDbLine
 10
45.0000075122355
 20
5.99999798710246
 30
0.0
 11
45.0000075122355
 21
11.11110909810247
 31
0.0
  0
LINE
  5
2E0
330
2CC
100
AcDbEntity
  8
01-99
100
AcDbLine
 10
28.0000075122355
 20
11.11110909810247
 30
0.0
 11
28.0000075122355
 21
36.66666465376915
 31
0.0
  0
LINE
  5
2E1
330
2CC
100
AcDbEntity
  8
01-99
100
AcDbLine
 10
70.0000075122355
 20
5.99999798710246
 30
0.0
 11
70.0000075122355
 21
51.99999798710246
 31
0.0
  0
LINE
  5
2E2
330
2CC
100
AcDbEntity
  8
01-99
100
AcDbLine
 10
115.0000075122355
 20
5.99999798710246
 30
0.0
 11
115.0000075122355
 21
51.99999798710246
 31
0.0
  0
LINE
  5
2E3
330
2CC
100
AcDbEntity
  8
01-99
100
AcDbLine
 10
144.5000075122355
 20
5.99999798710246
 30
0.0
 11
144.5000075122355
 21
16.22222020910254
 31
0.0
  0
LINE
  5
2E4
330
2CC
100
AcDbEntity
  8
01-99
100
AcDbLine
 10
177.0000075122355
 20
5.99999798710246
 30
0.0
 11
177.0000075122355
 21
16.2222202091026
 31
0.0
  0
LINE
  5
2E5
330
2CC
100
AcDbEntity
  8
01-99
100
AcDbLine
 10
148.5000075122355
 20
36.6666646537692
 30
0.0
 11
148.5000075122355
 21
51.99999798710257
 31
0.0
  0
LINE
  5
2E6
330
2CC
100
AcDbEntity
  8
01-99
100
AcDbLine
 10
182.0000075122355
 20
36.6666646537692
 30
0.0
 11
182.0000075122355
 21
51.99999798710257
 31
0.0
  0
LINE
  5
2E7
330
2CC
100
AcDbEntity
  8
01-99
100
AcDbLine
 10
78.00000751223549
 20
21.33333132043583
 30
0.0
 11
78.00000751223549
 21
36.6666646537692
 31
0.0
  0
LINE
  5
2E8
330
2CC
100
AcDbEntity
  8
01-99
100
AcDbLine
 10
60.00319585166497
 20
11.11110909810247
 30
0.0
 11
60.00319585166497
 21
36.66666465376915
 31
0.0
  0
LINE
  5
2E9
330
2CC
100
AcDbEntity
  8
01-99
100
AcDbLine
 10
48.00319585166497
 20
11.11110909810247
 30
0.0
 11
48.00319585166497
 21
36.66666465376915
 31
0.0
  0
LINE
  5
2EA
330
2CC
100
AcDbEntity
  8
01-99
100
AcDbLine
 10
204.0000075122355
 20
51.99999798710257
 30
0.0
 11
20.00000751223368
 21
51.99999798710246
 31
0.0
  0
LINE
  5
2EB
330
2CC
100
AcDbEntity
  8
01-99
100
AcDbLine
 10
115.0000075122355
 20
21.33333132043583
 30
0.0
 11
70.0000075122355
 21
21.33333132043583
 31
0.0
  0
LINE
  5
2EC
330
2CC
100
AcDbEntity
  8
01-99
100
AcDbLine
 10
115.0000075122355
 20
36.6666646537692
 30
0.0
 11
20.0000075122355
 21
36.66666465376909
 31
0.0
  0
LINE
  5
2ED
330
2CC
100
AcDbEntity
  8
01-99
100
AcDbLine
 10
92.0000075122355
 20
21.33333132043583
 30
0.0
 11
92.0000075122355
 21
51.99999798710251
 31
0.0
  0
LINE
  5
2EE
330
2CC
100
AcDbEntity
  8
01-99
100
AcDbLine
 10
70.0000075122355
 20
36.66666465376915
 30
0.0
 11
78.00000751223549
 21
31.55555355376919
 31
0.0
  0
LINE
  5
2EF
330
2CC
100
AcDbEntity
  8
01-99
100
AcDbLine
 10
70.0000075122355
 20
31.55555355376919
 30
0.0
 11
78.00000751223549
 21
36.6666646537692
 31
0.0
  0
LINE
  5
2F0
330
2CC
100
AcDbEntity
  8
01-99
100
AcDbLine
 10
204.0000075122355
 20
44.33333132043583
 30
0.0
 11
115.0000075122355
 21
44.33333132043578
 31
0.0
  0
LINE
  5
2F1
330
2CC
100
AcDbEntity
  8
01-99
100
AcDbLine
 10
115.0000075122355
 20
16.22222020910249
 30
0.0
 11
204.0000075122355
 21
16.2222202091026
 31
0.0
  0
LINE
  5
2F2
330
2CC
100
AcDbEntity
  8
01-99
100
AcDbLine
 10
115.0000075122355
 20
36.6666646537692
 30
0.0
 11
204.0000075122355
 21
36.66666465376926
 31
0.0
  0
LINE
  5
2F3
330
2CC
100
AcDbEntity
  8
01-99
100
AcDbLine
 10
92.0000075122355
 20
41.77777576510249
 30
0.0
 11
70.0000075122355
 21
41.77777576510249
 31
0.0
  0
LINE
  5
2F4
330
2CC
100
AcDbEntity
  8
01-99
100
AcDbLine
 10
92.0000075122355
 20
46.8888868761025
 30
0.0
 11
70.0000075122355
 21
46.88888687610244
 31
0.0
  0
LINE
  5
2F5
330
2CC
100
AcDbEntity
  8
01-99
100
AcDbLine
 10
20.00000751223368
 20
51.99999798710246
 30
0.0
 11
20.00000751223368
 21
5.99999798710246
 31
0.0
  0
TEXT
  5
2F6
330
2CC
100
AcDbEntity
  8
08-99
100
AcDbText
 10
116.4997086805418
 20
32.66987169496042
 30
0.0
 40
2.5
  1
Benennung/Teil:
 51
15.0
  7
ROMANS8
100
AcDbText
  0
TEXT
  5
2FA
330
2CC
100
AcDbEntity
  8
08-99
100
AcDbText
 10
178.5028349598029
 20
12.01760068133313
 30
0.0
 40
2.7
  1
Ident-Nr.
 51
15.0
  7
ROMANS8
100
AcDbText
  0
TEXT
  5
2FB
330
2CC
100
AcDbEntity
  8
08-99
100
AcDbText
 10
93.50002924540357
 20
33.0555749488849
 30
0.0
 40
2.5
  1
Name:
 51
15.0
  7
ROMANS8
100
AcDbText
  0
TEXT
  5
2FC
330
2CC
100
AcDbEntity
  8
08-99
100
AcDbText
 10
79.50777665478042
 20
33.04841594810694
 30
0.0
 40
2.5
  1
Datum:
 50
0.102528160689452
 41
0.8933771909280748
 51
15.0
  7
ROMANS8
 72
     5
 11
90.67497366186243
 21
33.06839915456692
 31
0.0
100
AcDbText
  0
TEXT
  5
2FD
330
2CC
100
AcDbEntity
  8
08-99
100
AcDbText
 10
29.50001559397086
 20
33.05597508608236
 30
0.0
 40
1.6
  1
Änderung:
 51
15.0
  7
ROMANS8
100
AcDbText
  0
TEXT
  5
2FE
330
2CC
100
AcDbEntity
  8
08-99
100
AcDbText
 10
46.49994558798837
 20
9.111117286264914
 30
0.0
 40
1.0
  1
ERSETZT.DURCH:
 51
15.0
  7
ROMANS8
100
AcDbText
  0
TEXT
  5
2FF
330
2CC
100
AcDbEntity
  8
08-99
100
AcDbText
 10
21.49936832790721
 20
9.110852190038713
 30
0.0
 40
1.0
  1
ERSETZT.FÜR:
 51
15.0
  7
ROMANS8
100
AcDbText
  0
TEXT
  5
300
330
2CC
100
AcDbEntity
  8
08-99
100
AcDbText
 10
145.9909143543897
 20
12.61295485116625
 30
0.0
 40
2.112
  1
AUFTRAGS.NR.:
 51
15.0
  7
ROMANS8
100
AcDbText
  0
TEXT
  5
301
330
2CC
100
AcDbEntity
  8
08-99
100
AcDbText
 10
116.5034717172479
 20
12.61092664313281
 30
0.0
 40
2.112
  1
Sonder-Nr:
 51
15.0
  7
ROMANS8
100
AcDbText
  0
TEXT
  5
302
330
2CC
100
AcDbEntity
  8
08-99
100
AcDbText
 10
99.69631500731376
 20
49.92370649414477
 30
0.0
 40
1.349999999999999
  1
Format
 51
15.0
  7
ROMANS8
100
AcDbText
  0
TEXT
  5
303
330
2CC
100
AcDbEntity
  8
08-99
100
AcDbText
 10
98.30438725900334
 20
44.6416167802032
 30
0.0
 40
1.822499999999999
  1
Normen
 51
15.0
  7
ROMANS8
100
AcDbText
  0
TEXT
  5
304
330
2CC
100
AcDbEntity
  8
08-99
100
AcDbText
 10
21.50003711613706
 20
33.05556582266059
 30
0.0
 40
1.6
  1
Zust.
 51
15.0
  7
ROMANS8
100
AcDbText
  0
TEXT
  5
305
330
2CC
100
AcDbEntity
  8
08-99
100
AcDbText
 10
49.50318821340468
 20
33.05555723859902
 30
0.0
 40
1.6
  1
Datum:
 51
15.0
  7
ROMANS8
100
AcDbText
  0
TEXT
  5
306
330
2CC
100
AcDbEntity
  8
08-99
100
AcDbText
 10
61.50322112916754
 20
33.05556204504791
 30
0.0
 40
1.6
  1
Name:
 51
15.0
  7
ROMANS8
100
AcDbText
  0
TEXT
  5
307
330
2CC
100
AcDbEntity
  8
08-99
100
AcDbText
 10
71.1545619578267
 20
28.03813755505132
 30
0.0
 40
1.6
  1
Erst.
 51
15.0
  7
ROMANS8
100
AcDbText
  0
TEXT
  5
308
330
2CC
100
AcDbEntity
  8
08-99
100
AcDbText
 10
70.51718787454618
 20
23.1974490465235
 30
0.0
 40
1.6
  1
Bearb.
 51
15.0
  7
ROMANS8
100
AcDbText
  0
TEXT
  5
309
330
2CC
100
AcDbEntity
  8
08-99
100
AcDbText
 10
149.4308124240035
 20
41.61949547980938
 30
0.0
 40
2.0
  1
Zuschnittsbreite:
 51
15.0
  7
ROMANS8
100
AcDbText
  0
TEXT
  5
30A
330
2CC
100
AcDbEntity
  8
08-99
100
AcDbText
 10
115.9850022862677
 20
41.73762161521608
 30
0.0
 40
2.0
  1
Zuschnittslänge:
 51
15.0
  7
ROMANS8
100
AcDbText
  0
LWPOLYLINE
  5
30B
330
2CC
100
AcDbEntity
  8
06-99
100
AcDbPolyline
 90
      133
 70
     1
 43
0.010692
 10
93.76754732423549
 20
18.87656283643588
 10
94.00905465623557
 20
19.08724513243589
 10
93.92285931623556
 20
19.22625538843579
 10
93.82427194823552
 20
19.35180441643592
 10
93.71363469623569
 20
19.46393854843592
 10
93.59130396023548
 20
19.56271124443577
 10
93.45762188423558
 20
19.64816170843585
 10
93.31293417623559
 20
19.72033627243581
 10
93.15759367223554
 20
19.77928839643584
 10
92.99194251623569
 20
19.82505728443584
 10
92.81632998023557
 20
19.85768926843593
 10
92.63110533623573
 20
19.87723780843589
 10
92.43661429223564
 20
19.88374210843585
 10
92.27568900023554
 20
19.87767974443585
 10
92.11994932823543
 20
19.85975638843581
 10
91.96972672823566
 20
19.83036051643597
 10
91.82535621623562
 20
19.78988773243583
 10
91.68716924423554
 20
19.73873364043595
 10
91.55549013623559
 20
19.67729028043584
 10
91.43066103623565
 20
19.60594969243584
 10
91.31300626823557
 20
19.52510391643579
 10
91.20285728423553
 20
19.43514499243588
 10
91.10055266423561
 20
19.33647208843587
 10
91.00641316823569
 20
19.22947011643589
 10
90.92077737623563
 20
19.11454180843589
 10
90.84397674023561
 20
18.99207207643587
 10
90.77633914823563
 20
18.86245652443591
 10
90.71819961623559
 20
18.72608719243584
 10
90.66988603223562
 20
18.58336324843583
 10
90.63172984823566
 20
18.43466960443584
 10
90.60406964423547
 20
18.28040542843581
 10
90.5872261802356
 20
18.12095919643588
 10
90.58154160023562
 20
17.95672651243586
 10
90.58715490023557
 20
17.78762184043592
 10
90.60380590823573
 20
17.62428728443586
 10
90.63119524823539
 20
17.46704004043585
 10
90.66902354423545
 20
17.31619374043578
 10
90.71699498423553
 20
17.17206201643586
 10
90.77481375623566
 20
17.03495850043589
 10
90.84218404823563
 20
16.90519326043585
 10
90.91880648423559
 20
16.78308349243582
 10
91.00438525223561
 20
16.66893926443583
 10
91.09862810423559
 20
16.56307777243586
 10
91.2012285362355
 20
16.46580908443587
 10
91.31190142823554
 20
16.37745039643579
 10
91.43034027623562
 20
16.29831177643592
 10
91.55625283223551
 20
16.2287068564359
 10
91.6893397202355
 20
16.16895283243582
 10
91.82930869223552
 20
16.11935977243587
 10
91.9758568082357
 20
16.08024130843591
 10
92.1286953842355
 20
16.05191107243593
 10
92.28751791623555
 20
16.03468269643588
 10
92.45203572023561
 20
16.02886981243591
 10
92.61603318023563
 20
16.03412314843587
 10
92.77336596023557
 20
16.0497619804359
 10
92.92384516823554
 20
16.07559385243587
 10
93.06728191223546
 20
16.11142630843591
 10
93.20349086423565
 20
16.15707045643586
 10
93.33227956823547
 20
16.21233740443585
 10
93.45346269623556
 20
16.27703469643586
 10
93.56684422823562
 20
16.35097700443589
 10
93.67224596423559
 20
16.43397187243585
 10
93.76946832023557
 20
16.52582328043587
 10
93.85832953223555
 20
16.62635302843586
 10
93.93864070823568
 20
16.73535796843583
 10
94.01020939223556
 20
16.85265990043587
 10
94.07284669223557
 20
16.97805924043587
 10
94.12636728023565
 20
17.11137066043579
 10
94.17058226423549
 20
17.25240170443584
 10
94.20529562423556
 20
17.40096348043585
 10
94.23032916023558
 20
17.55686709643589
 10
94.2454868522357
 20
17.71992366043582
 10
94.25057980823547
 20
17.88993715243583
 10
94.25057980823547
 20
17.88993715243583
 10
94.25057980823547
 20
17.94131934043588
 10
92.6164715522356
 20
17.94131934043588
 10
92.6164715522356
 20
17.65354772443584
 10
93.88573312823544
 20
17.65354772443584
 10
93.87499479623548
 20
17.49100437643585
 10
93.84766248023552
 20
17.33635885243586
 10
93.80444185223566
 20
17.19027405643589
 10
93.74603858423554
 20
17.05341645643585
 10
93.67316547623572
 20
16.92644182843588
 10
93.58653176423562
 20
16.81002376843588
 10
93.4868359922356
 20
16.70481448843588
 10
93.37479452423556
 20
16.61148758443585
 10
93.2511130322355
 20
16.53069526843586
 10
93.11649718823563
 20
16.46310757243589
 10
92.9716562282355
 20
16.40938383643583
 10
92.81729938823563
 20
16.37019052843595
 10
92.65413234023563
 20
16.34618698843581
 10
92.48286432023567
 20
16.3380396844359
 10
92.31820395623563
 20
16.34599096843584
 10
92.15990889623553
 20
16.3693743724358
 10
92.00857076423554
 20
16.40748066043585
 10
91.86477762023541
 20
16.45960416043584
 10
91.7291103962356
 20
16.52503563643586
 10
91.60216071623555
 20
16.60306585243592
 10
91.48451307623558
 20
16.69299270043586
 10
91.37675910023554
 20
16.79410338043595
 10
91.27948328423569
 20
16.90569222043587
 10
91.19327012423552
 20
17.02705354843584
 10
91.11871124423558
 20
17.15747456443586
 10
91.05639114023555
 20
17.29625316043587
 10
91.00689787223556
 20
17.44268010043583
 10
90.97081950023541
 20
17.5960425844359
 10
90.94874052023547
 20
17.75564206843597
 10
90.94125255623557
 20
17.92076575243578
 10
90.94763924423572
 20
18.08913980443589
 10
90.96654270023558
 20
18.25115211643583
 10
90.99756375623568
 20
18.40630372843583
 10
91.04030680823555
 20
18.55409924443586
 10
91.09437981623548
 20
18.69404326843585
 10
91.15938361223554
 20
18.82564396843588
 10
91.23492259223556
 20
18.9483988204359
 10
91.32060471623564
 20
19.06181955643586
 10
91.41603081623546
 20
19.16540365243594
 10
91.52081241623548
 20
19.25865927643582
 10
91.63454322023566
 20
19.34108746843589
 10
91.75683831623567
 20
19.41219639643589
 10
91.88729497223542
 20
19.47148710043586
 10
92.02552114823564
 20
19.51846418443586
 10
92.17112480423569
 20
19.55263225243584
 10
92.32370320823568
 20
19.57349947243585
 10
92.48286432023567
 20
19.58056332043588
 10
92.66056892423561
 20
19.57164619243588
 10
92.83032224423564
 20
19.54500885643586
 10
92.99178570023562
 20
19.50081882043588
 10
93.14462071223559
 20
19.43924359243584
 10
93.28848870023561
 20
19.36045780843585
 10
93.42305464823565
 20
19.26462541243592
 10
93.54797997623554
 20
19.15192104043586
 10
93.66292254023566
 20
19.02250863643593
  0
LWPOLYLINE
  5
30E
330
2CC
100
AcDbEntity
  8
06-99
100
AcDbPolyline
 90
       12
 70
     1
 43
0.010692
 10
90.43900298423549
 20
12.25281181243593
 10
92.32227048023563
 20
12.25281181243593
 10
92.46760683623554
 20
13.00767770443588
 10
91.56487771223558
 20
13.00767770443588
 10
91.62106060823546
 20
13.29950515243581
 10
92.41872301223557
 20
13.29950515243581
 10
92.55580870823544
 20
14.01156027643583
 10
91.75814630423545
 20
14.01156027643583
 10
91.80985281623547
 20
14.28005421643581
 10
92.68923417623549
 20
14.28005421643581
 10
92.83455984023559
 20
15.03490585243588
 10
90.97464010823561
 20
15.03490585243588
  0
LWPOLYLINE
  5
30F
330
2CC
100
AcDbEntity
  8
06-99
100
AcDbPolyline
 90
        4
 70
     1
 43
0.010692
 10
76.60861942823558
 20
12.88042508443584
 10
89.06586862823544
 20
12.88042508443584
 10
88.94229049223557
 20
12.25209544843585
 10
76.48504485623553
 20
12.25209544843585
  0
SOLID
  5
310
330
2CC
100
AcDbEntity
  8
06-99
100
AcDbTrace
 10
76.60861942823558
 20
12.88042508443584
 30
0.0
 11
89.06586862823544
 21
12.88042508443584
 31
0.0
 12
76.48504485623553
 22
12.25209544843585
 32
0.0
 13
88.94229049223557
 23
12.25209544843585
 33
0.0
  0
LWPOLYLINE
  5
311
330
2CC
100
AcDbEntity
  8
06-99
100
AcDbPolyline
 90
       10
 70
     1
 43
0.010692
 10
82.3458504002356
 20
16.02886981243591
 10
83.32219038023552
 20
19.10266656043586
 10
84.33965535623546
 20
16.02886981243591
 10
85.56780619223562
 20
19.80153132043585
 10
85.22351666423551
 20
19.80153132043585
 10
84.33965535623546
 20
16.89302932843583
 10
83.32219038023552
 20
19.9454100004358
 10
82.3458504002356
 20
16.86733645243589
 10
81.42601764023565
 20
19.80153132043585
 10
81.07658882423564
 20
19.80153132043585
  0
LWPOLYLINE
  5
312
330
2CC
100
AcDbEntity
  8
06-99
100
AcDbPolyline
 90
        3
 70
     1
 43
0.010692
 10
87.32442338423565
 20
17.65868344843591
 10
87.97704168023555
 20
19.25683094443582
 10
88.6039706642355
 20
17.65868344843591
  0
LWPOLYLINE
  5
313
330
2CC
100
AcDbEntity
  8
06-99
100
AcDbPolyline
 90
        7
 70
     1
 43
0.010692
 10
86.38318880423563
 20
16.12735738843582
 10
86.72320153223555
 20
16.12735738843582
 10
87.21136974023549
 20
17.37092608843585
 10
88.71187076423566
 20
17.37092608843585
 10
89.17949964023549
 20
16.12735738843582
 10
89.54434632023552
 20
16.12735738843582
 10
87.99759883223558
 20
19.9454100004358
  0
LWPOLYLINE
  5
314
330
2CC
100
AcDbEntity
  8
06-99
100
AcDbPolyline
 90
        8
 70
     1
 43
0.010692
 10
98.92981243223543
 20
12.25281181243593
 10
100.0043869442354
 20
12.25281181243593
 10
100.1574144122356
 20
12.60301045243585
 10
100.9122803042355
 20
12.60301045243585
 10
100.9343521562355
 20
12.25281181243593
 10
102.0082815842354
 20
12.25281181243593
 10
101.5711569842355
 20
15.03490585243588
 10
100.4583193682355
 20
15.03490585243588
  0
LWPOLYLINE
  5
315
330
2CC
100
AcDbEntity
  8
06-99
100
AcDbPolyline
 90
       34
 70
     1
 43
0.010692
 10
96.0434642642356
 20
13.66137589243584
 10
96.07848769223544
 20
13.66137589243584
 10
96.0642316922356
 20
13.48699650043591
 10
96.06380757623552
 20
13.33509882043586
 10
96.06790617623554
 20
13.20222577243589
 10
96.09523849223561
 20
12.25281181243593
 10
96.9668360762354
 20
12.25281181243593
 10
98.31569602823542
 20
15.03490585243588
 10
97.31181345623557
 20
15.03490585243588
 10
96.85792023623552
 20
13.80922843243581
 10
96.80781752423563
 20
13.66872486043581
 10
96.74884758023544
 20
13.48671138043579
 10
96.69003445223545
 20
13.26059696443593
 10
96.66670094423549
 20
13.26059696443593
 10
96.6884270882355
 20
13.45803187243587
 10
96.69298544423558
 20
13.61569254043581
 10
96.69194475623548
 20
13.73531107243588
 10
96.67756045223544
 20
15.03490585243588
 10
95.97329266823548
 20
15.03490585243588
 10
95.45849068823557
 20
13.73531107243588
 10
95.41138886423542
 20
13.61569254043581
 10
95.35523448023562
 20
13.45803187243587
 10
95.30092981223551
 20
13.26059696443593
 10
95.27759630423545
 20
13.26059696443593
 10
95.30585169623558
 20
13.48671138043579
 10
95.31697137623556
 20
13.66872486043581
 10
95.32096662023551
 20
13.80922843243581
 10
95.33903966423546
 20
15.03490585243588
 10
94.33451200823553
 20
15.03490585243588
 10
94.61274279623561
 20
12.25281181243593
 10
95.48433681623547
 20
12.25281181243593
 10
95.87724643223557
 20
13.20222577243589
 10
95.93252050823551
 20
13.33509882043586
 10
95.99058519623557
 20
13.48699650043591
  0
LWPOLYLINE
  5
316
330
2CC
100
AcDbEntity
  8
06-99
100
AcDbPolyline
 90
       10
 70
     1
 43
0.010692
 10
100.4520752402354
 20
13.26448172443588
 10
100.5983667482354
 20
13.57965693643587
 10
100.6731180842355
 20
13.74409276843596
 10
100.7541598802355
 20
13.94570824843589
 10
100.8288363722355
 20
14.19056217643595
 10
100.8482958122355
 20
14.19056217643595
 10
100.8286724282354
 20
13.94570824843589
 10
100.8320796122355
 20
13.74409276843596
 10
100.8435129242355
 20
13.57965693643587
 10
100.8684181562356
 20
13.26448172443588
  0
LWPOLYLINE
  5
317
330
2CC
100
AcDbEntity
  8
06-99
100
AcDbPolyline
 90
       23
 70
     1
 43
0.010692
 10
103.5867130322356
 20
12.25281181243593
 10
104.5672478402354
 20
12.25281181243593
 10
104.7440436242355
 20
13.17110136043584
 10
105.0536340482356
 20
12.25281181243593
 10
106.1742447482354
 20
12.25281181243593
 10
105.6490750922355
 20
13.38511243243585
 10
105.8084357882355
 20
13.42380678043588
 10
105.9537079922354
 20
13.49881472443587
 10
106.0813562162355
 20
13.60690015243585
 10
106.1878378442354
 20
13.74481626043587
 10
106.2696066962354
 20
13.90931980843584
 10
106.3231201562354
 20
14.09716755643586
 10
106.3446075122355
 20
14.26808986843588
 10
106.3403093282354
 20
14.42329850443593
 10
106.3102362962355
 20
14.56225886443587
 10
106.2543991082354
 20
14.68443278443578
 10
106.1728155842354
 20
14.78928566443591
 10
106.0654999802355
 20
14.87627577643587
 10
105.9324594242355
 20
14.94487208443587
 10
105.7737153002354
 20
14.99453286043592
 10
105.5892711722355
 20
15.02472350443588
 10
105.3791519882354
 20
15.03490585243588
 10
104.1223501562355
 20
15.03490585243588
  0
LWPOLYLINE
  5
318
330
2CC
100
AcDbEntity
  8
06-99
100
AcDbPolyline
 90
        9
 70
     1
 43
0.010692
 10
104.9650401362355
 20
14.31896240443586
 10
105.1206907082355
 20
14.31896240443586
 10
105.2773605842356
 20
14.28538239643581
 10
105.3582277442354
 20
14.19040892443593
 10
105.3632244722355
 20
14.04269894443587
 10
105.3008722922355
 20
13.89699906043591
 10
105.1832994962355
 20
13.80577848043589
 10
105.0158200082354
 20
13.77421926043581
 10
104.8601694362355
 20
13.77421926043581
  0
LWPOLYLINE
  5
319
330
2CC
100
AcDbEntity
  8
06-99
100
AcDbPolyline
 90
       12
 70
     1
 43
0.010692
 10
100.5798090002356
 20
16.12735738843582
 10
102.3989066762356
 20
16.12735738843582
 10
102.3989066762356
 20
16.4408218804358
 10
100.9138270802356
 20
16.4408218804358
 10
100.9138270802356
 20
18.02353012843594
 10
102.3989066762356
 20
18.02353012843594
 10
102.3989066762356
 20
18.33699462043592
 10
100.9138270802356
 20
18.33699462043592
 10
100.9138270802356
 20
19.48806682843587
 10
102.3989066762356
 20
19.48806682843587
 10
102.3989066762356
 20
19.80153132043585
 10
100.5798090002356
 20
19.80153132043585
  0
LWPOLYLINE
  5
31A
330
2CC
100
AcDbEntity
  8
06-99
100
AcDbPolyline
 90
        8
 70
     1
 43
0.010692
 10
95.85303261623565
 20
16.12735738843582
 10
96.18705426023556
 20
16.12735738843582
 10
96.18705426023556
 20
19.09753083643585
 10
98.76667389623552
 20
16.01858410843584
 10
98.76667389623552
 20
19.80153132043585
 10
98.4326665082356
 20
19.80153132043585
 10
98.4326665082356
 20
16.88274362443587
 10
95.85303261623565
 20
19.95568144843582
  0
LWPOLYLINE
  5
31B
330
2CC
100
AcDbEntity
  8
06-99
100
AcDbPolyline
 90
       19
 70
     1
 43
0.010692
 10
104.4484312082357
 20
19.5086239804358
 10
104.7824385962356
 20
19.5086239804358
 10
104.9866237202355
 20
19.50030560443588
 10
105.1604542562355
 20
19.47385716043584
 10
105.3049031762356
 20
19.42705471243579
 10
105.4209256322356
 20
19.35767076043584
 10
105.5094874682356
 20
19.26347780443581
 10
105.5715509642355
 20
19.14224834443593
 10
105.6080855282355
 20
18.9917477524358
 10
105.6200498762355
 20
18.80975922043586
 10
105.6074547002355
 20
18.63100680043584
 10
105.5693840522356
 20
18.48585933643585
 10
105.5054245082356
 20
18.37130168443593
 10
105.4151448242355
 20
18.28432582843589
 10
105.2981315762356
 20
18.22192018843589
 10
105.1539570842356
 20
18.18106962043583
 10
104.9821972322354
 20
18.15876967243594
 10
104.7824385962356
 20
18.15200520043589
 10
104.4484312082357
 20
18.15200520043589
  0
LWPOLYLINE
  5
31C
330
2CC
100
AcDbEntity
  8
06-99
100
AcDbPolyline
 90
       29
 70
     1
 43
0.010692
 10
106.3446075122355
 20
16.12735738843582
 10
105.0239637482355
 20
17.87965144843588
 10
105.2123817362357
 20
17.89225018843592
 10
105.3829084442356
 20
17.92941914443582
 10
105.5344069562356
 20
17.99022811243594
 10
105.6657296642355
 20
18.07375401643588
 10
105.7757360882356
 20
18.17905596043584
 10
105.8632821842355
 20
18.30521443243589
 10
105.9272310362355
 20
18.45129210043592
 10
105.9664386002355
 20
18.6163587604359
 10
105.9797608322353
 20
18.79948777243589
 10
105.9699455762357
 20
18.97455145243589
 10
105.9404891162357
 20
19.13261485243589
 10
105.8913629402356
 20
19.27374568843589
 10
105.8225492282356
 20
19.39801167643577
 10
105.7340230322356
 20
19.50548409643591
 10
105.6257594042356
 20
19.59623422843589
 10
105.4977369602356
 20
19.67032622443582
 10
105.3499307522354
 20
19.72783136443587
 10
105.1823193962355
 20
19.76882449243589
 10
104.9948815082355
 20
19.79336619643589
 10
104.7875885762355
 20
19.80153132043585
 10
104.7875885762355
 20
19.80153132043585
 10
104.1144131282356
 20
19.80153132043585
 10
104.1144131282356
 20
16.12735738843582
 10
104.4484312082357
 20
16.12735738843582
 10
104.4484312082357
 20
17.87965144843588
 10
104.6488456202355
 20
17.87965144843588
 10
105.9386465282355
 20
16.12735738843582
  0
TEXT
  5
31D
330
2CC
100
AcDbEntity
  8
06-99
100
AcDbText
 10
85.6083656112951
 20
9.63320697282171
 30
0.0
 40
1.4256
  1
GmbH & Co KG
 41
1.199203187251
 51
15.0
  7
ROMAND8
 72
     5
 11
106.0419656112951
 21
9.63320697282171
 31
0.0
100
AcDbText
  0
TEXT
  5
31F
330
2CC
100
AcDbEntity
  8
06-99
100
AcDbText
 10
85.70982236587898
 20
7.391013700398161
 30
0.0
 40
1.4256
  1
72774 Reutlingen
 50
0.5663244663116128
 41
1.087840993687879
 51
15.0
  7
ROMAND8
 72
     5
 11
105.943422365879
 21
7.59101370039815
 31
0.0
100
AcDbText
  0
TEXT
  5
320
330
2CC
100
AcDbEntity
  8
08-99
100
AcDbText
 10
73.414125712073
 20
48.45008961754581
 30
0.0
 40
2.25
  1
Zul. Abw.
 51
15.0
  7
ROMANS8
100
AcDbText
  0
TEXT
  5
321
330
2CC
100
AcDbEntity
  8
08-99
100
AcDbText
 10
123.2099338325191
 20
49.28616214647601
 30
0.0
 40
2.0
  1
Mat. Art.
 51
15.0
  7
ROMANS8
100
AcDbText
  0
TEXT
  5
322
330
2CC
100
AcDbEntity
  8
08-99
100
AcDbText
 10
155.4865384826082
 20
49.4043113704472
 30
0.0
 40
2.0
  1
Oberfläche:
 51
15.0
  7
ROMANS8
100
AcDbText
  0
TEXT
  5
323
330
2CC
100
AcDbEntity
  8
08-99
100
AcDbText
 10
184.762545350816
 20
41.73764470378046
 30
0.0
 40
2.0
  1
Blech Dicke:
 51
15.0
  7
ROMANS8
100
AcDbText
  0
TEXT
  5
324
330
2CC
100
AcDbEntity
  8
08-99
100
AcDbText
 10
187.4380355407932
 20
49.28616214647604
 30
0.0
 40
2.0
  1
Maßstab:
 51
15.0
  7
ROMANS8
100
AcDbText
  0
LINE
  5
325
330
2CC
100
AcDbEntity
  8
01-99
100
AcDbLine
 10
115.0000075122355
 20
46.8888868761025
 30
0.0
 11
92.0000075122355
 21
46.8888868761025
 31
0.0
  0
LINE
  5
326
330
2CC
100
AcDbEntity
  8
01-99
100
AcDbLine
 10
115.0000075122355
 20
44.33333132043578
 30
0.0
 11
92.0000075122355
 21
44.33333132043578
 31
0.0
  0
LINE
  5
327
330
2CC
100
AcDbEntity
  8
01-99
100
AcDbLine
 10
115.0000075122355
 20
40.49999798710246
 30
0.0
 11
92.00000751223544
 21
40.49999798710246
 31
0.0
  0
ATTDEF
  5
328
330
2CC
100
AcDbEntity
  8
06-99
100
AcDbText
 10
116.4954542514127
 20
26.18783668438471
 30
0.0
 40
4.0
  1

 41
0.9
  7
ROMANS8
100
AcDbAttributeDefinition
280
     0
  3
Benennung/Teil
  2
TEILE
 70
     0
280
     0
  0
ATTDEF
  5
329
330
2CC
100
AcDbEntity
  8
06-99
100
AcDbText
 10
116.4954542514127
 20
19.29547648609889
 30
0.0
 40
4.0
  1

 41
0.9
  7
ROMANS8
100
AcDbAttributeDefinition
280
     0
  3
Benennung/Teil2
  2
TEILE2
 70
     0
280
     0
  0
ATTDEF
  5
32A
330
2CC
100
AcDbEntity
  8
06-99
100
AcDbText
 10
191.3473937239501
 20
45.33333132043583
 30
0.0
 40
3.375
  1

  7
ROMANS8
100
AcDbAttributeDefinition
280
     0
  3
Maßstab
  2
:
 70
     0
280
     0
  0
ATTDEF
  5
32B
330
2CC
100
AcDbEntity
  8
06-99
100
AcDbText
 10
92.99707531160292
 20
27.44168345513378
 30
0.0
 40
2.5
  1

 41
0.9
  7
ROMANS8
100
AcDbAttributeDefinition
280
     0
  3
Name
  2
NAME
 70
     0
280
     0
  0
ATTDEF
  5
32C
330
2CC
100
AcDbEntity
  8
06-99
100
AcDbText
 10
79.49315396412956
 20
27.46123316121373
 30
0.0
 40
2.5
  1

 50
359.9144597696142
 41
0.9542572414211148
  7
ROMANS8
 72
     5
 11
90.73974463267431
 21
27.44444245376917
 31
0.0
100
AcDbAttributeDefinition
280
     0
  3
Datum
  2
DATUM
 70
     0
280
     0
  0
ATTDEF
  5
32D
330
2CC
100
AcDbEntity
  8
06-99
100
AcDbText
 10
178.5063514793938
 20
7.4928977873912
 30
0.0
 40
2.99376
  1

  7
ROMANS8
100
AcDbAttributeDefinition
280
     0
  3
Ident-Nummer
  2
ID.NR
 70
     0
280
     0
  0
ATTDEF
  5
32E
330
2CC
100
AcDbEntity
  8
06-99
100
AcDbText
 10
116.731273767946
 20
37.66666463154695
 30
0.0
 40
3.0
  1

 41
0.9
  7
ROMANS8
100
AcDbAttributeDefinition
280
     0
  3
Zuschnitts.Länge
  2
LÄNGE
 70
     0
280
     0
  0
ATTDEF
  5
32F
330
2CC
100
AcDbEntity
  8
06-99
100
AcDbText
 10
150.1808124240052
 20
37.67810185754732
 30
0.0
 40
3.0
  1

 41
0.9
  7
ROMANS8
100
AcDbAttributeDefinition
280
     0
  3
Zuschnitts Breite
  2
BREITE
 70
     0
280
     0
  0
ATTDEF
  5
330
330
2CC
100
AcDbEntity
  8
06-99
100
AcDbText
 10
190.6090996389673
 20
37.66666465376926
 30
0.0
 40
3.09375
  1

  7
ROMANS8
100
AcDbAttributeDefinition
280
     0
  3
Blech.Dicke
  2
1.0
 70
     0
280
     0
  0
ATTDEF
  5
331
330
2CC
100
AcDbEntity
  8
06-99
100
AcDbText
 10
164.1277931136382
 20
45.33333132043594
 30
0.0
 40
3.0
  1

  7
ROMANS8
 72
     1
 11
164.1277931136382
 21
45.33333132043594
 31
0.0
100
AcDbAttributeDefinition
280
     0
  3
Oberfläche
  2
IV
 70
     0
280
     0
  0
ATTDEF
  5
332
330
2CC
100
AcDbEntity
  8
06-99
100
AcDbText
 10
123.2747480483513
 20
45.3333313204358
 30
0.0
 40
3.375
  1
1.4301
  7
ROMANS8
100
AcDbAttributeDefinition
280
     0
  3
Mat.Art
  2
1.4301
 70
     0
280
     0
  0
ATTDEF
  5
333
330
2CC
100
AcDbEntity
  8
06-99
100
AcDbText
 10
146.0006413991156
 20
7.504394591457128
 30
0.0
 40
3.168
  1

 41
0.9
  7
ROMANS8
100
AcDbAttributeDefinition
280
     0
  3
Auftrags Nr.
  2
AUFTRAGS.NR.
 70
     0
280
     0
  0
ATTDEF
  5
334
330
2CC
100
AcDbEntity
  8
06-99
100
AcDbText
 10
116.5000075122355
 20
7.499997987102517
 30
0.0
 40
3.168
  1

 41
0.9
  7
ROMANS8
100
AcDbAttributeDefinition
280
     0
  3
Sonder-NR,WPS
  2
SONDER-NR
 70
     0
280
     0
  0
ATTDEF
  5
335
330
2CC
100
AcDbEntity
  8
06-99
100
AcDbText
 10
46.4997585072438
 20
6.601808056362358
 30
0.0
 40
1.5
  1

 41
0.9
  7
ROMANS8
100
AcDbAttributeDefinition
280
     0
  3
ERSETZT.Durch
  2
ERSETZT.DURCH
 70
     0
280
     0
  0
ATTDEF
  5
336
330
2CC
100
AcDbEntity
  8
06-99
100
AcDbText
 10
21.49947529243403
 20
6.597454384974923
 30
0.0
 40
1.5
  1

 41
0.9
  7
ROMANS8
100
AcDbAttributeDefinition
280
     0
  3
ERSETZT.Für
  2
ERSETZT.FÜR
 70
     0
280
     0
  0
ATTDEF
  5
337
330
2CC
100
AcDbEntity
  8
06-99
100
AcDbText
 10
99.97308015867309
 20
47.66850912711049
 30
0.0
 40
1.287
  1
DIN A4
  7
ROMANS8
 72
     1
 11
103.2518658729588
 21
47.66850912711049
 31
0.0
100
AcDbAttributeDefinition
280
     0
  3
Format
  2
FORMAT
 70
     0
280
     0
  0
ATTDEF
  5
338
330
2CC
100
AcDbEntity
  8
06-99
100
AcDbText
 10
95.9874465096418
 20
37.19696532096725
 30
0.0
 40
2.34
  1
DIN 2768
  7
ROMANS8
 72
     1
 11
104.0103036524989
 21
37.19696532096725
 31
0.0
100
AcDbAttributeDefinition
280
     0
  3
Norm / Kanten
  2
NORM2
 70
     0
280
     0
  0
ATTDEF
  5
339
330
2CC
100
AcDbEntity
  8
06-99
100
AcDbText
 10
92.81173222392748
 20
41.03029865430056
 30
0.0
 40
2.34
  1
DIN 6930-M
  7
ROMANS8
 72
     1
 11
103.5088750810703
 21
41.03029865430056
 31
0.0
100
AcDbAttributeDefinition
280
     0
  3
Norm / Fräsen
  2
NORM1
 70
     0
280
     0
  0
ENDBLK
  5
33A
330
2CC
100
AcDbEntity
  8
0
370
     0
100
AcDbBlockEnd
  0
BLOCK
  5
29E
330
29D
100
AcDbEntity
  8
0
370
     0
100
AcDbBlockBegin
  2
*D1
 70
     1
 10
0.0
 20
0.0
 30
0.0
  3
*D1
  1

  0
LINE
  5
29F
330
29D
100
AcDbEntity
  8
0
 62
     4
440
 16777216
370
    -2
100
AcDbLine
 10
-20.91878060384653
 20
922.8149265206896
 30
0.0
 11
17.53770974004575
 21
922.8149265206896
 31
0.0
  0
LINE
  5
2A0
330
29D
100
AcDbEntity
  8
0
 62
     4
440
 16777216
370
    -2
100
AcDbLine
 10
-12.71628062603759
 20
715.3149265206897
 30
0.0
 11
17.5377097400457
 21
715.3149265206897
 31
0.0
  0
LINE
  5
2A1
330
29D
100
AcDbEntity
  8
0
 62
     4
440
 16777216
370
    -2
100
AcDbLine
 10
14.03770974004574
 20
914.0649265206898
 30
0.0
 11
14.0377097400457
 21
724.0649265206897
 31
0.0
  0
SOLID
  5
2A2
330
29D
100
AcDbEntity
  8
0
 62
     4
440
 16777216
100
AcDbTrace
 10
12.57937640671241
 20
914.0649265206898
 30
0.0
 11
15.49604307337907
 21
914.0649265206898
 31
0.0
 12
14.03770974004574
 22
922.8149265206896
 32
0.0
 13
14.03770974004574
 23
922.8149265206896
 33
0.0
  0
SOLID
  5
2A3
330
29D
100
AcDbEntity
  8
0
 62
     4
440
 16777216
100
AcDbTrace
 10
12.57937640671237
 20
724.0649265206897
 30
0.0
 11
15.49604307337903
 21
724.0649265206897
 31
0.0
 12
14.0377097400457
 22
715.3149265206897
 32
0.0
 13
14.0377097400457
 23
715.3149265206897
 33
0.0
  0
MTEXT
  5
2A4
330
29D
100
AcDbEntity
  8
0
 62
     1
440
 16777216
100
AcDbMText
 10
6.162709740045589
 20
819.0649265206896
 30
0.0
 40
8.75
 41
0.0
 46
0.0
 71
     5
 72
     1
  1
207.5
 11
0.0000000000000001
 21
1.0
 31
0.0
 73
     1
 44
1.0
  0
POINT
  5
2A5
330
29D
100
AcDbEntity
  8
Defpoints
 62
     0
440
 16777216
100
AcDbPoint
 10
-24.41878060384653
 20
922.8149265206896
 30
0.0
  0
POINT
  5
2A6
330
29D
100
AcDbEntity
  8
Defpoints
 62
     0
440
 16777216
100
AcDbPoint
 10
-16.21628062603759
 20
715.3149265206897
 30
0.0
  0
POINT
  5
2A7
330
29D
100
AcDbEntity
  8
Defpoints
 62
     0
440
 16777216
100
AcDbPoint
 10
14.0377097400457
 20
715.3149265206897
 30
0.0
  0
ENDBLK
  5
2A8
330
29D
100
AcDbEntity
  8
0
370
     0
100
AcDbBlockEnd
  0
BLOCK
  5
291
330
290
100
AcDbEntity
  8
0
370
     0
100
AcDbBlockBegin
  2
*D2
 70
     1
 10
0.0
 20
0.0
 30
0.0
  3
*D2
  1

  0
LINE
  5
292
330
290
100
AcDbEntity
  8
0
 62
     4
440
 16777216
370
    -2
100
AcDbLine
 10
-62.21878060384671
 20
926.1149265206896
 30
0.0
 11
-62.21878060384671
 21
948.7442274151819
 31
0.0
  0
LINE
  5
293
330
290
100
AcDbEntity
  8
0
 62
     4
440
 16777216
370
    -2
100
AcDbLine
 10
-24.21878060384671
 20
926.1149265206896
 30
0.0
 11
-24.21878060384671
 21
948.7442274151819
 31
0.0
  0
LINE
  5
294
330
290
100
AcDbEntity
  8
0
 62
     4
440
 16777216
370
    -2
100
AcDbLine
 10
-53.46878060384671
 20
945.2442274151819
 30
0.0
 11
-32.96878060384671
 21
945.2442274151819
 31
0.0
  0
SOLID
  5
295
330
290
100
AcDbEntity
  8
0
 62
     4
440
 16777216
100
AcDbTrace
 10
-53.46878060384671
 20
946.7025607485153
 30
0.0
 11
-53.46878060384671
 21
943.7858940818486
 31
0.0
 12
-62.21878060384671
 22
945.2442274151819
 32
0.0
 13
-62.21878060384671
 23
945.2442274151819
 33
0.0
  0
SOLID
  5
296
330
290
100
AcDbEntity
  8
0
 62
     4
440
 16777216
100
AcDbTrace
 10
-32.96878060384671
 20
946.7025607485153
 30
0.0
 11
-32.96878060384671
 21
943.7858940818486
 31
0.0
 12
-24.21878060384671
 22
945.2442274151819
 32
0.0
 13
-24.21878060384671
 23
945.2442274151819
 33
0.0
  0
MTEXT
  5
297
330
290
100
AcDbEntity
  8
0
 62
     1
440
 16777216
100
AcDbMText
 10
-43.21878060384671
 20
953.119227415182
 30
0.0
 40
8.75
 41
0.0
 46
0.0
 71
     5
 72
     1
  1
%%c38
 73
     1
 44
1.0
  0
POINT
  5
298
330
290
100
AcDbEntity
  8
Defpoints
 62
     0
440
 16777216
100
AcDbPoint
 10
-62.21878060384671
 20
922.6149265206897
 30
0.0
  0
POINT
  5
299
330
290
100
AcDbEntity
  8
Defpoints
 62
     0
440
 16777216
100
AcDbPoint
 10
-24.21878060384671
 20
922.6149265206897
 30
0.0
  0
POINT
  5
29A
330
290
100
AcDbEntity
  8
Defpoints
 62
     0
440
 16777216
100
AcDbPoint
 10
-24.21878060384671
 20
945.2442274151819
 30
0.0
  0
ENDBLK
  5
29B
330
290
100
AcDbEntity
  8
0
370
     0
100
AcDbBlockEnd
  0
BLOCK
  5
282
330
281
100
AcDbEntity
  8
0
370
     0
100
AcDbBlockBegin
  2
*D3
 70
     1
 10
0.0
 20
0.0
 30
0.0
  3
*D3
  1

  0
LINE
  5
283
330
281
100
AcDbEntity
  8
0
 62
     4
440
 16777216
370
    -2
100
AcDbLine
 10
154.2577771913212
 20
649.8149265206897
 30
0.0
 11
154.2577771913212
 21
621.3004474271002
 31
0.0
  0
LINE
  5
284
330
281
100
AcDbEntity
  8
0
 62
     4
440
 16777216
370
    -2
100
AcDbLine
 10
175.2577771913213
 20
649.8149265206897
 30
0.0
 11
175.2577771913213
 21
621.3004474271002
 31
0.0
  0
LINE
  5
285
330
281
100
AcDbEntity
  8
0
 62
     4
440
 16777216
370
    -2
100
AcDbLine
 10
145.5077771913213
 20
624.8004474271002
 30
0.0
 11
136.7577771913213
 21
624.8004474271002
 31
0.0
  0
LINE
  5
286
330
281
100
AcDbEntity
  8
0
 62
     4
440
 16777216
370
    -2
100
AcDbLine
 10
184.0077771913213
 20
624.8004474271002
 30
0.0
 11
192.7577771913212
 21
624.8004474271002
 31
0.0
  0
MTEXT
  5
287
330
281
100
AcDbEntity
  8
0
 62
     1
440
 16777216
100
AcDbMText
 10
192.5253864869964
 20
635.4696322052379
 30
0.0
 40
8.75
 41
0.0
 46
0.0
 71
     5
 72
     1
  1
1/2"
 73
     1
 44
1.0
  0
LINE
  5
288
330
281
100
AcDbEntity
  8
0
 62
     4
440
 16777216
370
    -2
100
AcDbLine
 10
154.2577771913212
 20
624.8004474271002
 30
0.0
 11
175.2577771913213
 21
624.8004474271002
 31
0.0
  0
SOLID
  5
289
330
281
100
AcDbEntity
  8
0
 62
     4
440
 16777216
100
AcDbTrace
 10
145.5077771913213
 20
626.2587807604336
 30
0.0
 11
145.5077771913213
 21
623.3421140937669
 31
0.0
 12
154.2577771913212
 22
624.8004474271002
 32
0.0
 13
154.2577771913212
 23
624.8004474271002
 33
0.0
  0
SOLID
  5
28A
330
281
100
AcDbEntity
  8
0
 62
     4
440
 16777216
100
AcDbTrace
 10
184.0077771913213
 20
626.2587807604336
 30
0.0
 11
184.0077771913213
 21
623.3421140937669
 31
0.0
 12
175.2577771913213
 22
624.8004474271002
 32
0.0
 13
175.2577771913213
 23
624.8004474271002
 33
0.0
  0
POINT
  5
28B
330
281
100
AcDbEntity
  8
Defpoints
 62
     0
440
 16777216
100
AcDbPoint
 10
154.2577771913212
 20
653.3149265206897
 30
0.0
  0
POINT
  5
28C
330
281
100
AcDbEntity
  8
Defpoints
 62
     0
440
 16777216
100
AcDbPoint
 10
175.2577771913213
 20
653.3149265206897
 30
0.0
  0
POINT
  5
28D
330
281
100
AcDbEntity
  8
Defpoints
 62
     0
440
 16777216
100
AcDbPoint
 10
175.2577771913213
 20
624.8004474271002
 30
0.0
  0
ENDBLK
  5
28E
330
281
100
AcDbEntity
  8
0
370
     0
100
AcDbBlockEnd
  0
BLOCK
  5
219
330
218
100
AcDbEntity
  8
0
370
     0
100
AcDbBlockBegin
  2
*D4
 70
     1
 10
0.0
 20
0.0
 30
0.0
  3
*D4
  1

  0
LINE
  5
21A
330
218
100
AcDbEntity
  8
0
 62
     4
440
 16777216
370
    -2
100
AcDbLine
 10
-65.71878060384664
 20
855.8149265206896
 30
0.0
 11
-111.551564112921
 21
855.8149265206896
 31
0.0
  0
LINE
  5
21B
330
218
100
AcDbEntity
  8
0
 62
     4
440
 16777216
370
    -2
100
AcDbLine
 10
-65.51878060384666
 20
897.8149265206896
 30
0.0
 11
-111.5515641129209
 21
897.8149265206896
 31
0.0
  0
LINE
  5
21C
330
218
100
AcDbEntity
  8
0
 62
     4
440
 16777216
370
    -2
100
AcDbLine
 10
-108.051564112921
 20
864.5649265206897
 30
0.0
 11
-108.051564112921
 21
889.0649265206898
 31
0.0
  0
SOLID
  5
21D
330
218
100
AcDbEntity
  8
0
 62
     4
440
 16777216
100
AcDbTrace
 10
-109.5098974462543
 20
864.5649265206897
 30
0.0
 11
-106.5932307795876
 21
864.5649265206897
 31
0.0
 12
-108.051564112921
 22
855.8149265206896
 32
0.0
 13
-108.051564112921
 23
855.8149265206896
 33
0.0
  0
SOLID
  5
21E
330
218
100
AcDbEntity
  8
0
 62
     4
440
 16777216
100
AcDbTrace
 10
-109.5098974462543
 20
889.0649265206898
 30
0.0
 11
-106.5932307795876
 21
889.0649265206898
 31
0.0
 12
-108.051564112921
 22
897.8149265206896
 32
0.0
 13
-108.051564112921
 23
897.8149265206896
 33
0.0
  0
MTEXT
  5
21F
330
218
100
AcDbEntity
  8
0
 62
     1
440
 16777216
100
AcDbMText
 10
-115.9265641129211
 20
876.8149265206897
 30
0.0
 40
8.75
 41
0.0
 46
0.0
 71
     5
 72
     1
  1
42
 11
0.0000000000000001
 21
1.0
 31
0.0
 73
     1
 44
1.0
  0
POINT
  5
220
330
218
100
AcDbEntity
  8
Defpoints
 62
     0
440
 16777216
100
AcDbPoint
 10
-62.21878060384662
 20
855.8149265206896
 30
0.0
  0
POINT
  5
221
330
218
100
AcDbEntity
  8
Defpoints
 62
     0
440
 16777216
100
AcDbPoint
 10
-62.01878060384666
 20
897.8149265206896
 30
0.0
  0
POINT
  5
222
330
218
100
AcDbEntity
  8
Defpoints
 62
     0
440
 16777216
100
AcDbPoint
 10
-108.051564112921
 20
897.8149265206896
 30
0.0
  0
ENDBLK
  5
223
330
218
100
AcDbEntity
  8
0
370
     0
100
AcDbBlockEnd
  0
BLOCK
  5
20A
330
209
100
AcDbEntity
  8
0
370
     0
100
AcDbBlockBegin
  2
*D5
 70
     1
 10
0.0
 20
0.0
 30
0.0
  3
*D5
  1

  0
LINE
  5
20B
330
209
100
AcDbEntity
  8
0
 62
     4
440
 16777216
370
    -2
100
AcDbLine
 10
-65.51878060384666
 20
922.8149265206896
 30
0.0
 11
-111.5515641129209
 21
922.8149265206896
 31
0.0
  0
LINE
  5
20C
330
209
100
AcDbEntity
  8
0
 62
     4
440
 16777216
370
    -2
100
AcDbLine
 10
-65.51878060384666
 20
912.8149265206896
 30
0.0
 11
-111.5515641129209
 21
912.8149265206896
 31
0.0
  0
LINE
  5
20D
330
209
100
AcDbEntity
  8
0
 62
     4
440
 16777216
370
    -2
100
AcDbLine
 10
-108.0515641129209
 20
931.5649265206896
 30
0.0
 11
-108.0515641129209
 21
940.3149265206897
 31
0.0
  0
LINE
  5
20E
330
209
100
AcDbEntity
  8
0
 62
     4
440
 16777216
370
    -2
100
AcDbLine
 10
-108.051564112921
 20
904.0649265206896
 30
0.0
 11
-108.051564112921
 21
895.3149265206898
 31
0.0
  0
MTEXT
  5
20F
330
209
100
AcDbEntity
  8
0
 62
     1
440
 16777216
100
AcDbMText
 10
-115.9265641129211
 20
914.6848840717664
 30
0.0
 40
8.75
 41
0.0
 46
0.0
 71
     5
 72
     1
  1
10
 11
0.0000000000000001
 21
1.0
 31
0.0
 73
     1
 44
1.0
  0
LINE
  5
210
330
209
100
AcDbEntity
  8
0
 62
     4
440
 16777216
370
    -2
100
AcDbLine
 10
-108.051564112921
 20
922.8149265206896
 30
0.0
 11
-108.051564112921
 21
912.8149265206896
 31
0.0
  0
SOLID
  5
211
330
209
100
AcDbEntity
  8
0
 62
     4
440
 16777216
100
AcDbTrace
 10
-109.5098974462542
 20
931.5649265206896
 30
0.0
 11
-106.5932307795876
 21
931.5649265206896
 31
0.0
 12
-108.051564112921
 22
922.8149265206896
 32
0.0
 13
-108.051564112921
 23
922.8149265206896
 33
0.0
  0
SOLID
  5
212
330
209
100
AcDbEntity
  8
0
 62
     4
440
 16777216
100
AcDbTrace
 10
-109.5098974462543
 20
904.0649265206896
 30
0.0
 11
-106.5932307795876
 21
904.0649265206896
 31
0.0
 12
-108.051564112921
 22
912.8149265206896
 32
0.0
 13
-108.051564112921
 23
912.8149265206896
 33
0.0
  0
POINT
  5
213
330
209
100
AcDbEntity
  8
Defpoints
 62
     0
440
 16777216
100
AcDbPoint
 10
-62.01878060384666
 20
922.8149265206896
 30
0.0
  0
POINT
  5
214
330
209
100
AcDbEntity
  8
Defpoints
 62
     0
440
 16777216
100
AcDbPoint
 10
-62.01878060384666
 20
912.8149265206896
 30
0.0
  0
POINT
  5
215
330
209
100
AcDbEntity
  8
Defpoints
 62
     0
440
 16777216
100
AcDbPoint
 10
-108.051564112921
 20
912.8149265206896
 30
0.0
  0
ENDBLK
  5
216
330
209
100
AcDbEntity
  8
0
370
     0
100
AcDbBlockEnd
  0
BLOCK
  5
1F9
330
1F8
100
AcDbEntity
  8
0
370
     0
100
AcDbBlockBegin
  2
*D6
 70
     1
 10
0.0
 20
0.0
 30
0.0
  3
*D6
  1

  0
LINE
  5
1FA
330
1F8
100
AcDbEntity
  8
0
 62
     4
440
 16777216
370
    -2
100
AcDbLine
 10
142.2577771913213
 20
715.3149265206897
 30
0.0
 11
115.4316396484423
 21
715.3149265206897
 31
0.0
  0
LINE
  5
1FB
330
1F8
100
AcDbEntity
  8
0
 62
     4
440
 16777216
370
    -2
100
AcDbLine
 10
151.7577771913214
 20
652.3149265206897
 30
0.0
 11
115.4316396484423
 21
652.3149265206897
 31
0.0
  0
LINE
  5
1FC
330
1F8
100
AcDbEntity
  8
0
 62
     4
440
 16777216
370
    -2
100
AcDbLine
 10
118.9316396484423
 20
706.5649265206896
 30
0.0
 11
118.9316396484423
 21
661.0649265206896
 31
0.0
  0
SOLID
  5
1FD
330
1F8
100
AcDbEntity
  8
0
 62
     4
440
 16777216
100
AcDbTrace
 10
117.4733063151089
 20
706.5649265206896
 30
0.0
 11
120.3899729817756
 21
706.5649265206896
 31
0.0
 12
118.9316396484423
 22
715.3149265206897
 32
0.0
 13
118.9316396484423
 23
715.3149265206897
 33
0.0
  0
SOLID
  5
1FE
330
1F8
100
AcDbEntity
  8
0
 62
     4
440
 16777216
100
AcDbTrace
 10
117.4733063151089
 20
661.0649265206896
 30
0.0
 11
120.3899729817756
 21
661.0649265206896
 31
0.0
 12
118.9316396484423
 22
652.3149265206897
 32
0.0
 13
118.9316396484423
 23
652.3149265206897
 33
0.0
  0
MTEXT
  5
1FF
330
1F8
100
AcDbEntity
  8
0
 62
     1
440
 16777216
100
AcDbMText
 10
111.0566396484422
 20
683.8149265206896
 30
0.0
 40
8.75
 41
0.0
 46
0.0
 71
     5
 72
     1
  1
63
 11
0.0000000000000001
 21
1.0
 31
0.0
 73
     1
 44
1.0
  0
POINT
  5
200
330
1F8
100
AcDbEntity
  8
Defpoints
 62
     0
440
 16777216
100
AcDbPoint
 10
145.7577771913213
 20
715.3149265206897
 30
0.0
  0
POINT
  5
201
330
1F8
100
AcDbEntity
  8
Defpoints
 62
     0
440
 16777216
100
AcDbPoint
 10
155.2577771913214
 20
652.3149265206897
 30
0.0
  0
POINT
  5
202
330
1F8
100
AcDbEntity
  8
Defpoints
 62
     0
440
 16777216
100
AcDbPoint
 10
118.9316396484423
 20
652.3149265206897
 30
0.0
  0
ENDBLK
  5
203
330
1F8
100
AcDbEntity
  8
0
370
     0
100
AcDbBlockEnd
  0
BLOCK
  5
1E2
330
1E1
100
AcDbEntity
  8
0
370
     0
100
AcDbBlockBegin
  2
*D7
 70
     1
 10
0.0
 20
0.0
 30
0.0
  3
*D7
  1

  0
LINE
  5
1E3
330
1E1
100
AcDbEntity
  8
0
 62
     4
440
 16777216
370
    -2
100
AcDbLine
 10
-13.80205310575502
 20
715.3149265206897
 30
0.0
 11
17.53770974004571
 21
715.3149265206897
 31
0.0
  0
LINE
  5
1E4
330
1E1
100
AcDbEntity
  8
0
 62
     4
440
 16777216
370
    -2
100
AcDbLine
 10
-19.96878060384659
 20
675.3149265206896
 30
0.0
 11
17.5377097400457
 21
675.3149265206896
 31
0.0
  0
LINE
  5
1E5
330
1E1
100
AcDbEntity
  8
0
 62
     4
440
 16777216
370
    -2
100
AcDbLine
 10
14.0377097400457
 20
706.5649265206896
 30
0.0
 11
14.0377097400457
 21
684.0649265206896
 31
0.0
  0
MTEXT
  5
1E6
330
1E1
100
AcDbEntity
  8
0
 62
     1
440
 16777216
100
AcDbMText
 10
7.11331978506314
 20
649.1529453175185
 30
0.0
 40
8.75
 41
0.0
 46
0.0
 71
     5
 72
     1
  1
max.40
 11
0.0000000000000001
 21
1.0
 31
0.0
 73
     1
 44
1.0
  0
SOLID
  5
1E7
330
1E1
100
AcDbEntity
  8
0
 62
     4
440
 16777216
100
AcDbTrace
 10
12.57937640671237
 20
706.5649265206896
 30
0.0
 11
15.49604307337904
 21
706.5649265206896
 31
0.0
 12
14.03770974004571
 22
715.3149265206897
 32
0.0
 13
14.03770974004571
 23
715.3149265206897
 33
0.0
  0
SOLID
  5
1E8
330
1E1
100
AcDbEntity
  8
0
 62
     4
440
 16777216
100
AcDbTrace
 10
12.57937640671237
 20
684.0649265206896
 30
0.0
 11
15.49604307337903
 21
684.0649265206896
 31
0.0
 12
14.0377097400457
 22
675.3149265206896
 32
0.0
 13
14.0377097400457
 23
675.3149265206896
 33
0.0
  0
POINT
  5
1E9
330
1E1
100
AcDbEntity
  8
Defpoints
 62
     0
440
 16777216
100
AcDbPoint
 10
-17.30205310575502
 20
715.3149265206897
 30
0.0
  0
POINT
  5
1EA
330
1E1
100
AcDbEntity
  8
Defpoints
 62
     0
440
 16777216
100
AcDbPoint
 10
-23.4687806038466
 20
675.3149265206896
 30
0.0
  0
POINT
  5
1EB
330
1E1
100
AcDbEntity
  8
Defpoints
 62
     0
440
 16777216
100
AcDbPoint
 10
14.0377097400457
 20
675.3149265206896
 30
0.0
  0
ENDBLK
  5
1EC
330
1E1
100
AcDbEntity
  8
0
370
     0
100
AcDbBlockEnd
  0
BLOCK
  5
1A7
330
1A6
100
AcDbEntity
  8
0
370
     0
100
AcDbBlockBegin
  2
*D8
 70
     1
 10
0.0
 20
0.0
 30
0.0
  3
*D8
  1

  0
LINE
  5
1A8
330
1A6
100
AcDbEntity
  8
0
 62
     4
440
 16777216
370
    -2
100
AcDbLine
 10
-70.71878060384659
 20
467.3149265206896
 30
0.0
 11
-160.0675985665876
 21
467.3149265206897
 31
0.0
  0
LINE
  5
1A9
330
1A6
100
AcDbEntity
  8
0
 62
     4
440
 16777216
370
    -2
100
AcDbLine
 10
-65.51878060384666
 20
922.8149265206896
 30
0.0
 11
-160.0675985665875
 21
922.8149265206896
 31
0.0
  0
LINE
  5
1AA
330
1A6
100
AcDbEntity
  8
0
 62
     4
440
 16777216
370
    -2
100
AcDbLine
 10
-156.5675985665876
 20
476.0649265206898
 30
0.0
 11
-156.5675985665875
 21
914.0649265206898
 31
0.0
  0
SOLID
  5
1AB
330
1A6
100
AcDbEntity
  8
0
 62
     4
440
 16777216
100
AcDbTrace
 10
-158.025931899921
 20
476.0649265206898
 30
0.0
 11
-155.1092652332543
 21
476.0649265206898
 31
0.0
 12
-156.5675985665876
 22
467.3149265206897
 32
0.0
 13
-156.5675985665876
 23
467.3149265206897
 33
0.0
  0
SOLID
  5
1AC
330
1A6
100
AcDbEntity
  8
0
 62
     4
440
 16777216
100
AcDbTrace
 10
-158.0259318999209
 20
914.0649265206898
 30
0.0
 11
-155.1092652332542
 21
914.0649265206898
 31
0.0
 12
-156.5675985665875
 22
922.8149265206896
 32
0.0
 13
-156.5675985665875
 23
922.8149265206896
 33
0.0
  0
MTEXT
  5
1AD
330
1A6
100
AcDbEntity
  8
0
 62
     1
440
 16777216
100
AcDbMText
 10
-164.4425985665877
 20
695.0649265206897
 30
0.0
 40
8.75
 41
0.0
 46
0.0
 71
     5
 72
     1
  1
455.5
 11
0.0000000000000001
 21
1.0
 31
0.0
 73
     1
 44
1.0
  0
POINT
  5
1AE
330
1A6
100
AcDbEntity
  8
Defpoints
 62
     0
440
 16777216
100
AcDbPoint
 10
-67.2187806038466
 20
467.3149265206896
 30
0.0
  0
POINT
  5
1AF
330
1A6
100
AcDbEntity
  8
Defpoints
 62
     0
440
 16777216
100
AcDbPoint
 10
-62.01878060384666
 20
922.8149265206896
 30
0.0
  0
POINT
  5
1B0
330
1A6
100
AcDbEntity
  8
Defpoints
 62
     0
440
 16777216
100
AcDbPoint
 10
-156.5675985665875
 20
922.8149265206896
 30
0.0
  0
ENDBLK
  5
1B1
330
1A6
100
AcDbEntity
  8
0
370
     0
100
AcDbBlockEnd
  0
BLOCK
  5
19A
330
199
100
AcDbEntity
  8
0
370
     0
100
AcDbBlockBegin
  2
*D9
 70
     1
 10
0.0
 20
0.0
 30
0.0
  3
*D9
  1

  0
LINE
  5
19B
330
199
100
AcDbEntity
  8
0
 62
     4
440
 16777216
370
    -2
100
AcDbLine
 10
-14.11182761603732
 20
715.3149265206897
 30
0.0
 11
59.9543982506498
 21
715.3149265206897
 31
0.0
  0
LINE
  5
19C
330
199
100
AcDbEntity
  8
0
 62
     4
440
 16777216
370
    -2
100
AcDbLine
 10
-15.71878060384662
 20
467.3149265206896
 30
0.0
 11
59.95439825064975
 21
467.3149265206896
 31
0.0
  0
LINE
  5
19D
330
199
100
AcDbEntity
  8
0
 62
     4
440
 16777216
370
    -2
100
AcDbLine
 10
56.45439825064979
 20
706.5649265206896
 30
0.0
 11
56.45439825064975
 21
476.0649265206897
 31
0.0
  0
SOLID
  5
19E
330
199
100
AcDbEntity
  8
0
 62
     4
440
 16777216
100
AcDbTrace
 10
54.99606491731646
 20
706.5649265206896
 30
0.0
 11
57.91273158398313
 21
706.5649265206896
 31
0.0
 12
56.45439825064979
 22
715.3149265206897
 32
0.0
 13
56.45439825064979
 23
715.3149265206897
 33
0.0
  0
SOLID
  5
19F
330
199
100
AcDbEntity
  8
0
 62
     4
440
 16777216
100
AcDbTrace
 10
54.99606491731641
 20
476.0649265206897
 30
0.0
 11
57.91273158398308
 21
476.0649265206897
 31
0.0
 12
56.45439825064975
 22
467.3149265206896
 32
0.0
 13
56.45439825064975
 23
467.3149265206896
 33
0.0
  0
MTEXT
  5
1A0
330
199
100
AcDbEntity
  8
0
 62
     1
440
 16777216
100
AcDbMText
 10
48.57939825064967
 20
591.3149265206897
 30
0.0
 40
8.75
 41
0.0
 46
0.0
 71
     5
 72
     1
  1
Standard 248 (500ml)
 11
0.0000000000000001
 21
1.0
 31
0.0
 73
     1
 44
1.0
  0
POINT
  5
1A1
330
199
100
AcDbEntity
  8
Defpoints
 62
     0
440
 16777216
100
AcDbPoint
 10
-17.61182761603732
 20
715.3149265206897
 30
0.0
  0
POINT
  5
1A2
330
199
100
AcDbEntity
  8
Defpoints
 62
     0
440
 16777216
100
AcDbPoint
 10
-19.21878060384662
 20
467.3149265206896
 30
0.0
  0
POINT
  5
1A3
330
199
100
AcDbEntity
  8
Defpoints
 62
     0
440
 16777216
100
AcDbPoint
 10
56.45439825064975
 20
467.3149265206896
 30
0.0
  0
ENDBLK
  5
1A4
330
199
100
AcDbEntity
  8
0
370
     0
100
AcDbBlockEnd
  0
BLOCK
  5
18D
330
18C
100
AcDbEntity
  8
0
370
     0
100
AcDbBlockBegin
  2
*D10
 70
     1
 10
0.0
 20
0.0
 30
0.0
  3
*D10
  1

  0
LINE
  5
18E
330
18C
100
AcDbEntity
  8
0
 62
     4
440
 16777216
370
    -2
100
AcDbLine
 10
149.7577771913214
 20
652.3149265206897
 30
0.0
 11
115.4316396484423
 21
652.3149265206897
 31
0.0
  0
LINE
  5
18F
330
18C
100
AcDbEntity
  8
0
 62
     4
440
 16777216
370
    -2
100
AcDbLine
 10
165.7577771913213
 20
477.3149265206897
 30
0.0
 11
115.4316396484422
 21
477.3149265206897
 31
0.0
  0
LINE
  5
190
330
18C
100
AcDbEntity
  8
0
 62
     4
440
 16777216
370
    -2
100
AcDbLine
 10
118.9316396484423
 20
643.5649265206897
 30
0.0
 11
118.9316396484422
 21
486.0649265206897
 31
0.0
  0
SOLID
  5
191
330
18C
100
AcDbEntity
  8
0
 62
     4
440
 16777216
100
AcDbTrace
 10
117.4733063151089
 20
643.5649265206897
 30
0.0
 11
120.3899729817756
 21
643.5649265206897
 31
0.0
 12
118.9316396484423
 22
652.3149265206897
 32
0.0
 13
118.9316396484423
 23
652.3149265206897
 33
0.0
  0
SOLID
  5
192
330
18C
100
AcDbEntity
  8
0
 62
     4
440
 16777216
100
AcDbTrace
 10
117.4733063151089
 20
486.0649265206897
 30
0.0
 11
120.3899729817756
 21
486.0649265206897
 31
0.0
 12
118.9316396484422
 22
477.3149265206897
 32
0.0
 13
118.9316396484422
 23
477.3149265206897
 33
0.0
  0
MTEXT
  5
193
330
18C
100
AcDbEntity
  8
0
 62
     1
440
 16777216
100
AcDbMText
 10
111.0566396484422
 20
564.8149265206897
 30
0.0
 40
8.75
 41
0.0
 46
0.0
 71
     5
 72
     1
  1
175
 11
0.0000000000000001
 21
1.0
 31
0.0
 73
     1
 44
1.0
  0
POINT
  5
194
330
18C
100
AcDbEntity
  8
Defpoints
 62
     0
440
 16777216
100
AcDbPoint
 10
153.2577771913214
 20
652.3149265206897
 30
0.0
  0
POINT
  5
195
330
18C
100
AcDbEntity
  8
Defpoints
 62
     0
440
 16777216
100
AcDbPoint
 10
169.2577771913213
 20
477.3149265206897
 30
0.0
  0
POINT
  5
196
330
18C
100
AcDbEntity
  8
Defpoints
 62
     0
440
 16777216
100
AcDbPoint
 10
118.9316396484422
 20
477.3149265206897
 30
0.0
  0
ENDBLK
  5
197
330
18C
100
AcDbEntity
  8
0
370
     0
100
AcDbBlockEnd
  0
BLOCK
  5
180
330
17F
100
AcDbEntity
  8
0
370
     0
100
AcDbBlockBegin
  2
*D11
 70
     1
 10
0.0
 20
0.0
 30
0.0
  3
*D11
  1

  0
LINE
  5
181
330
17F
100
AcDbEntity
  8
0
 62
     4
440
 16777216
370
    -2
100
AcDbLine
 10
-77.2187806038466
 20
473.8149265206897
 30
0.0
 11
-77.2187806038466
 21
442.2890885036572
 31
0.0
  0
LINE
  5
182
330
17F
100
AcDbEntity
  8
0
 62
     4
440
 16777216
370
    -2
100
AcDbLine
 10
-9.218780603846596
 20
473.8149265206897
 30
0.0
 11
-9.218780603846598
 21
442.2890885036572
 31
0.0
  0
LINE
  5
183
330
17F
100
AcDbEntity
  8
0
 62
     4
440
 16777216
370
    -2
100
AcDbLine
 10
-68.4687806038466
 20
445.7890885036572
 30
0.0
 11
-17.96878060384659
 21
445.7890885036572
 31
0.0
  0
SOLID
  5
184
330
17F
100
AcDbEntity
  8
0
 62
     4
440
 16777216
100
AcDbTrace
 10
-68.4687806038466
 20
447.2474218369905
 30
0.0
 11
-68.4687806038466
 21
444.3307551703239
 31
0.0
 12
-77.2187806038466
 22
445.7890885036572
 32
0.0
 13
-77.2187806038466
 23
445.7890885036572
 33
0.0
  0
SOLID
  5
185
330
17F
100
AcDbEntity
  8
0
 62
     4
440
 16777216
100
AcDbTrace
 10
-17.96878060384659
 20
447.2474218369905
 30
0.0
 11
-17.96878060384659
 21
444.3307551703239
 31
0.0
 12
-9.218780603846598
 22
445.7890885036572
 32
0.0
 13
-9.218780603846598
 23
445.7890885036572
 33
0.0
  0
MTEXT
  5
186
330
17F
100
AcDbEntity
  8
0
 62
     1
440
 16777216
100
AcDbMText
 10
-43.21878060384659
 20
453.6640885036572
 30
0.0
 40
8.75
 41
0.0
 46
0.0
 71
     5
 72
     1
  1
%%C68
 73
     1
 44
1.0
  0
POINT
  5
187
330
17F
100
AcDbEntity
  8
Defpoints
 62
     0
440
 16777216
100
AcDbPoint
 10
-77.2187806038466
 20
477.3149265206897
 30
0.0
  0
POINT
  5
188
330
17F
100
AcDbEntity
  8
Defpoints
 62
     0
440
 16777216
100
AcDbPoint
 10
-9.218780603846596
 20
477.3149265206897
 30
0.0
  0
POINT
  5
189
330
17F
100
AcDbEntity
  8
Defpoints
 62
     0
440
 16777216
100
AcDbPoint
 10
-9.218780603846598
 20
445.7890885036572
 30
0.0
  0
ENDBLK
  5
18A
330
17F
100
AcDbEntity
  8
0
370
     0
100
AcDbBlockEnd
  0
BLOCK
  5
173
330
172
100
AcDbEntity
  8
0
370
     0
100
AcDbBlockBegin
  2
*D12
 70
     1
 10
0.0
 20
0.0
 30
0.0
  3
*D12
  1

  0
LINE
  5
174
330
172
100
AcDbEntity
  8
0
 62
     4
440
 16777216
370
    -2
100
AcDbLine
 10
187.2577771913213
 20
715.3149265206897
 30
0.0
 11
217.3316296520506
 21
715.3149265206897
 31
0.0
  0
LINE
  5
175
330
172
100
AcDbEntity
  8
0
 62
     4
440
 16777216
370
    -2
100
AcDbLine
 10
187.2577771913213
 20
877.8149265206895
 30
0.0
 11
217.3316296520507
 21
877.8149265206895
 31
0.0
  0
LINE
  5
176
330
172
100
AcDbEntity
  8
0
 62
     4
440
 16777216
370
    -2
100
AcDbLine
 10
213.8316296520506
 20
724.0649265206897
 30
0.0
 11
213.8316296520506
 21
869.0649265206896
 31
0.0
  0
SOLID
  5
177
330
172
100
AcDbEntity
  8
0
 62
     4
440
 16777216
100
AcDbTrace
 10
212.3732963187173
 20
724.0649265206897
 30
0.0
 11
215.289962985384
 21
724.0649265206897
 31
0.0
 12
213.8316296520506
 22
715.3149265206897
 32
0.0
 13
213.8316296520506
 23
715.3149265206897
 33
0.0
  0
SOLID
  5
178
330
172
100
AcDbEntity
  8
0
 62
     4
440
 16777216
100
AcDbTrace
 10
212.3732963187173
 20
869.0649265206896
 30
0.0
 11
215.289962985384
 21
869.0649265206896
 31
0.0
 12
213.8316296520506
 22
877.8149265206895
 32
0.0
 13
213.8316296520506
 23
877.8149265206895
 33
0.0
  0
MTEXT
  5
179
330
172
100
AcDbEntity
  8
0
 62
     1
440
 16777216
100
AcDbMText
 10
205.9566296520505
 20
796.5649265206896
 30
0.0
 40
8.75
 41
0.0
 46
0.0
 71
     5
 72
     1
  1
162.5
 11
0.0000000000000001
 21
1.0
 31
0.0
 73
     1
 44
1.0
  0
POINT
  5
17A
330
172
100
AcDbEntity
  8
Defpoints
 62
     0
440
 16777216
100
AcDbPoint
 10
183.7577771913213
 20
715.3149265206897
 30
0.0
  0
POINT
  5
17B
330
172
100
AcDbEntity
  8
Defpoints
 62
     0
440
 16777216
100
AcDbPoint
 10
183.7577771913213
 20
877.8149265206895
 30
0.0
  0
POINT
  5
17C
330
172
100
AcDbEntity
  8
Defpoints
 62
     0
440
 16777216
100
AcDbPoint
 10
213.8316296520506
 20
877.8149265206895
 30
0.0
  0
ENDBLK
  5
17D
330
172
100
AcDbEntity
  8
0
370
     0
100
AcDbBlockEnd
  0
BLOCK
  5
157
330
156
100
AcDbEntity
  8
0
370
     0
100
AcDbBlockBegin
  2
Seifenflasche250-01-s
 70
     0
 10
0.0
 20
0.0
 30
0.0
  3
Seifenflasche250-01-s
  1

  0
LINE
  5
158
330
156
100
AcDbEntity
  8
0
370
     0
100
AcDbLine
 10
0.0
 20
0.0
 30
0.0
 11
0.0
 21
-3.0
 31
0.0
  0
LINE
  5
159
330
156
100
AcDbEntity
  8
0
370
     0
100
AcDbLine
 10
-28.0
 20
0.0
 30
0.0
 11
-28.0
 21
-3.000000000000056
 31
0.0
  0
LINE
  5
15A
330
156
100
AcDbEntity
  8
0
370
     0
100
AcDbLine
 10
-26.50000000000023
 20
4.999999999999886
 30
0.0
 11
-26.5
 21
4.5
 31
0.0
  0
LINE
  5
15B
330
156
100
AcDbEntity
  8
0
370
     0
100
AcDbLine
 10
-2.5
 20
3.5
 30
0.0
 11
-2.5
 21
0.0
 31
0.0
  0
LINE
  5
15C
330
156
100
AcDbEntity
  8
0
370
     0
100
AcDbLine
 10
-25.49999999999978
 20
3.5
 30
0.0
 11
-25.5
 21
-0.0000000000000568
 31
0.0
  0
LINE
  5
15D
330
156
100
AcDbEntity
  8
0
370
     0
100
AcDbLine
 10
-31.5
 20
-130.5000000000001
 30
0.0
 11
3.5
 21
-130.5
 31
0.0
  0
ARC
  5
15E
330
156
100
AcDbEntity
  8
0
370
     0
100
AcDbCircle
 10
-31.5
 20
-120.5000000000001
 30
0.0
 40
10.0
100
AcDbArc
 50
180.0
 51
270.0
  0
LINE
  5
15F
330
156
100
AcDbEntity
  8
0
370
     0
100
AcDbLine
 10
-28.0
 20
0.0
 30
0.0
 11
0.0
 21
0.0
 31
0.0
  0
LINE
  5
160
330
156
100
AcDbEntity
  8
0
370
     0
100
AcDbLine
 10
-30.75
 20
-3.000000000000056
 30
0.0
 11
2.75
 21
-3.0
 31
0.0
  0
LINE
  5
161
330
156
100
AcDbEntity
  8
0
370
     0
100
AcDbLine
 10
-30.75
 20
-4.0
 30
0.0
 11
2.750000000000227
 21
-4.0
 31
0.0
  0
LINE
  5
162
330
156
100
AcDbEntity
  8
0
370
     0
100
AcDbLine
 10
-25.49999999999978
 20
3.5
 30
0.0
 11
-2.5
 21
3.5
 31
0.0
  0
LINE
  5
163
330
156
100
AcDbEntity
  8
0
370
     0
100
AcDbLine
 10
-25.5
 20
3.5
 30
0.0
 11
-26.5
 21
4.5
 31
0.0
  0
LINE
  5
164
330
156
100
AcDbEntity
  8
0
370
     0
100
AcDbLine
 10
-1.499999999999772
 20
4.999999999999886
 30
0.0
 11
-1.499999999999772
 21
4.5
 31
0.0
  0
LINE
  5
165
330
156
100
AcDbEntity
  8
0
370
     0
100
AcDbLine
 10
-2.499999999999772
 20
3.5
 30
0.0
 11
-1.499999999999772
 21
4.5
 31
0.0
  0
LINE
  5
166
330
156
100
AcDbEntity
  8
0
370
     0
100
AcDbLine
 10
-26.5
 20
4.5
 30
0.0
 11
-1.499999999999772
 21
4.5
 31
0.0
  0
LINE
  5
167
330
156
100
AcDbEntity
  8
0
370
     0
100
AcDbLine
 10
2.75
 20
-3.0
 30
0.0
 11
2.75
 21
-4.0
 31
0.0
  0
LINE
  5
168
330
156
100
AcDbEntity
  8
0
370
     0
100
AcDbLine
 10
-30.75
 20
-3.000000000000056
 30
0.0
 11
-30.75
 21
-4.0
 31
0.0
  0
LINE
  5
169
330
156
100
AcDbEntity
  8
0
370
     0
100
AcDbLine
 10
-41.5
 20
-16.99287002026318
 30
0.0
 11
-41.5
 21
-120.5000000000001
 31
0.0
  0
ARC
  5
16A
330
156
100
AcDbEntity
  8
0
370
     0
100
AcDbCircle
 10
-33.5
 20
-16.99287002026318
 30
0.0
 40
8.0
100
AcDbArc
 50
131.0090869015715
 51
180.0
  0
LINE
  5
16B
330
156
100
AcDbEntity
  8
0
370
     0
100
AcDbLine
 10
-30.75
 20
-4.0
 30
0.0
 11
-38.74942971939822
 21
-10.95602584295517
 31
0.0
  0
LINE
  5
16C
330
156
100
AcDbEntity
  8
0
370
     0
100
AcDbLine
 10
2.75
 20
-4.0
 30
0.0
 11
10.74942971939822
 21
-10.95602584295511
 31
0.0
  0
ARC
  5
16D
330
156
100
AcDbEntity
  8
0
370
     0
100
AcDbCircle
 10
3.5
 20
-120.5000000000001
 30
0.0
 40
10.0
100
AcDbArc
 50
270.0
 51
0.0
  0
LINE
  5
16E
330
156
100
AcDbEntity
  8
0
370
     0
100
AcDbLine
 10
13.5
 20
-16.99287002026318
 30
0.0
 11
13.5
 21
-120.5000000000001
 31
0.0
  0
ARC
  5
16F
330
156
100
AcDbEntity
  8
0
370
     0
100
AcDbCircle
 10
5.5
 20
-16.99287002026318
 30
0.0
 40
8.0
100
AcDbArc
 50
0.0
 51
48.99091309842424
  0
ENDBLK
  5
170
330
156
100
AcDbEntity
  8
0
370
     0
100
AcDbBlockEnd
  0
BLOCK
  5
14A
330
149
100
AcDbEntity
  8
0
370
     0
100
AcDbBlockBegin
  2
*D14
 70
     1
 10
0.0
 20
0.0
 30
0.0
  3
*D14
  1

  0
LINE
  5
14B
330
149
100
AcDbEntity
  8
0
 62
     4
440
 16777216
370
    -2
100
AcDbLine
 10
-12.94136983663839
 20
715.3149265206897
 30
0.0
 11
40.38909588092842
 21
715.3149265206897
 31
0.0
  0
LINE
  5
14C
330
149
100
AcDbEntity
  8
0
 62
     4
440
 16777216
370
    -2
100
AcDbLine
 10
-22.21878060384677
 20
507.3149265206896
 30
0.0
 11
40.38909588092837
 21
507.3149265206896
 31
0.0
  0
LINE
  5
14D
330
149
100
AcDbEntity
  8
0
 62
     4
440
 16777216
370
    -2
100
AcDbLine
 10
36.88909588092843
 20
706.5649265206896
 30
0.0
 11
36.88909588092838
 21
516.0649265206895
 31
0.0
  0
SOLID
  5
14E
330
149
100
AcDbEntity
  8
0
 62
     4
440
 16777216
100
AcDbTrace
 10
35.43076254759509
 20
706.5649265206896
 30
0.0
 11
38.34742921426176
 21
706.5649265206896
 31
0.0
 12
36.88909588092843
 22
715.3149265206897
 32
0.0
 13
36.88909588092843
 23
715.3149265206897
 33
0.0
  0
SOLID
  5
14F
330
149
100
AcDbEntity
  8
0
 62
     4
440
 16777216
100
AcDbTrace
 10
35.43076254759505
 20
516.0649265206895
 30
0.0
 11
38.34742921426172
 21
516.0649265206895
 31
0.0
 12
36.88909588092838
 22
507.3149265206896
 32
0.0
 13
36.88909588092838
 23
507.3149265206896
 33
0.0
  0
MTEXT
  5
150
330
149
100
AcDbEntity
  8
0
 62
     1
440
 16777216
100
AcDbMText
 10
29.0140958809283
 20
611.3149265206896
 30
0.0
 40
8.75
 41
0.0
 46
0.0
 71
     5
 72
     1
  1
208 (250ml)
 11
0.0000000000000001
 21
1.0
 31
0.0
 73
     1
 44
1.0
  0
POINT
  5
151
330
149
100
AcDbEntity
  8
Defpoints
 62
     0
440
 16777216
100
AcDbPoint
 10
-16.44136983663839
 20
715.3149265206897
 30
0.0
  0
POINT
  5
152
330
149
100
AcDbEntity
  8
Defpoints
 62
     0
440
 16777216
100
AcDbPoint
 10
-25.71878060384677
 20
507.3149265206896
 30
0.0
  0
POINT
  5
153
330
149
100
AcDbEntity
  8
Defpoints
 62
     0
440
 16777216
100
AcDbPoint
 10
36.88909588092838
 20
507.3149265206896
 30
0.0
  0
ENDBLK
  5
154
330
149
100
AcDbEntity
  8
0
370
     0
100
AcDbBlockEnd
  0
BLOCK
  5
12E
330
12D
100
AcDbEntity
  8
0
370
     0
100
AcDbBlockBegin
  2
Seifenflasche1000ml-01-s
 70
     0
 10
0.0
 20
0.0
 30
0.0
  3
Seifenflasche1000ml-01-s
  1

  0
LINE
  5
12F
330
12D
100
AcDbEntity
  8
0
370
     0
100
AcDbLine
 10
-2.75
 20
4.0
 30
0.0
 11
-2.75
 21
1.0
 31
0.0
  0
LINE
  5
130
330
12D
100
AcDbEntity
  8
0
370
     0
100
AcDbLine
 10
-30.75
 20
4.0
 30
0.0
 11
-30.75
 21
0.9999999999999431
 31
0.0
  0
LINE
  5
131
330
12D
100
AcDbEntity
  8
0
370
     0
100
AcDbLine
 10
-29.25
 20
8.999999999999886
 30
0.0
 11
-29.25
 21
8.5
 31
0.0
  0
LINE
  5
132
330
12D
100
AcDbEntity
  8
0
370
     0
100
AcDbLine
 10
-5.25
 20
7.5
 30
0.0
 11
-5.25
 21
4.0
 31
0.0
  0
LINE
  5
133
330
12D
100
AcDbEntity
  8
0
370
     0
100
AcDbLine
 10
-28.24999999999977
 20
7.5
 30
0.0
 11
-28.25
 21
3.999999999999943
 31
0.0
  0
LINE
  5
134
330
12D
100
AcDbEntity
  8
0
370
     0
100
AcDbLine
 10
-46.74999999999999
 20
-226.5
 30
0.0
 11
13.25
 21
-226.5
 31
0.0
  0
ARC
  5
135
330
12D
100
AcDbEntity
  8
0
370
     0
100
AcDbCircle
 10
-46.74999999999999
 20
-216.5
 30
0.0
 40
10.0
100
AcDbArc
 50
180.0
 51
270.0
  0
LINE
  5
136
330
12D
100
AcDbEntity
  8
0
370
     0
100
AcDbLine
 10
-30.75
 20
4.0
 30
0.0
 11
-2.75
 21
4.0
 31
0.0
  0
LINE
  5
137
330
12D
100
AcDbEntity
  8
0
370
     0
100
AcDbLine
 10
-33.5
 20
0.9999999999999431
 30
0.0
 11
0.0
 21
1.0
 31
0.0
  0
LINE
  5
138
330
12D
100
AcDbEntity
  8
0
370
     0
100
AcDbLine
 10
-33.5
 20
0.0
 30
0.0
 11
0.0000000000002274
 21
0.0
 31
0.0
  0
LINE
  5
139
330
12D
100
AcDbEntity
  8
0
370
     0
100
AcDbLine
 10
-28.24999999999977
 20
7.5
 30
0.0
 11
-5.25
 21
7.5
 31
0.0
  0
LINE
  5
13A
330
12D
100
AcDbEntity
  8
0
370
     0
100
AcDbLine
 10
-28.25
 20
7.5
 30
0.0
 11
-29.25
 21
8.5
 31
0.0
  0
LINE
  5
13B
330
12D
100
AcDbEntity
  8
0
370
     0
100
AcDbLine
 10
-4.249999999999772
 20
8.999999999999886
 30
0.0
 11
-4.249999999999772
 21
8.5
 31
0.0
  0
LINE
  5
13C
330
12D
100
AcDbEntity
  8
0
370
     0
100
AcDbLine
 10
-5.249999999999772
 20
7.5
 30
0.0
 11
-4.249999999999772
 21
8.5
 31
0.0
  0
LINE
  5
13D
330
12D
100
AcDbEntity
  8
0
370
     0
100
AcDbLine
 10
-29.25
 20
8.5
 30
0.0
 11
-4.249999999999772
 21
8.5
 31
0.0
  0
LINE
  5
13E
330
12D
100
AcDbEntity
  8
0
370
     0
100
AcDbLine
 10
0.0
 20
1.0
 30
0.0
 11
0.0
 21
0.0
 31
0.0
  0
LINE
  5
13F
330
12D
100
AcDbEntity
  8
0
370
     0
100
AcDbLine
 10
-33.5
 20
0.9999999999999431
 30
0.0
 11
-33.5
 21
0.0
 31
0.0
  0
LINE
  5
140
330
12D
100
AcDbEntity
  8
0
370
     0
100
AcDbLine
 10
-56.75
 20
-23.86243523765478
 30
0.0
 11
-56.75
 21
-216.5
 31
0.0
  0
ARC
  5
141
330
12D
100
AcDbEntity
  8
0
370
     0
100
AcDbCircle
 10
-48.75000000000023
 20
-23.86243523765478
 30
0.0
 40
8.0
100
AcDbArc
 50
131.0090869015736
 51
180.0
  0
LINE
  5
142
330
12D
100
AcDbEntity
  8
0
370
     0
100
AcDbLine
 10
-33.5
 20
0.0
 30
0.0
 11
-53.99942971939822
 21
-17.82559106034665
 31
0.0
  0
LINE
  5
143
330
12D
100
AcDbEntity
  8
0
370
     0
100
AcDbLine
 10
0.0
 20
0.0
 30
0.0
 11
20.49942971939845
 21
-17.82559106034671
 31
0.0
  0
ARC
  5
144
330
12D
100
AcDbEntity
  8
0
370
     0
100
AcDbCircle
 10
13.25
 20
-216.5
 30
0.0
 40
10.0
100
AcDbArc
 50
270.0
 51
0.0
  0
LINE
  5
145
330
12D
100
AcDbEntity
  8
0
370
     0
100
AcDbLine
 10
23.25
 20
-23.86243523765478
 30
0.0
 11
23.25
 21
-216.5
 31
0.0
  0
ARC
  5
146
330
12D
100
AcDbEntity
  8
0
370
     0
100
AcDbCircle
 10
15.25000000000023
 20
-23.86243523765478
 30
0.0
 40
8.0
100
AcDbArc
 50
0.0
 51
48.99091309842424
  0
ENDBLK
  5
147
330
12D
100
AcDbEntity
  8
0
370
     0
100
AcDbBlockEnd
  0
BLOCK
  5
121
330
120
100
AcDbEntity
  8
0
370
     0
100
AcDbBlockBegin
  2
*D16
 70
     1
 10
0.0
 20
0.0
 30
0.0
  3
*D16
  1

  0
LINE
  5
122
330
120
100
AcDbEntity
  8
0
 62
     4
440
 16777216
370
    -2
100
AcDbLine
 10
-12.80631718395262
 20
715.3149265206897
 30
0.0
 11
82.33733534954543
 21
715.3149265206897
 31
0.0
  0
LINE
  5
123
330
120
100
AcDbEntity
  8
0
 62
     4
440
 16777216
370
    -2
100
AcDbLine
 10
-9.718780603846653
 20
407.3149265206898
 30
0.0
 11
82.33733534954536
 21
407.3149265206898
 31
0.0
  0
LINE
  5
124
330
120
100
AcDbEntity
  8
0
 62
     4
440
 16777216
370
    -2
100
AcDbLine
 10
78.83733534954543
 20
706.5649265206896
 30
0.0
 11
78.83733534954536
 21
416.0649265206897
 31
0.0
  0
SOLID
  5
125
330
120
100
AcDbEntity
  8
0
 62
     4
440
 16777216
100
AcDbTrace
 10
77.3790020162121
 20
706.5649265206896
 30
0.0
 11
80.29566868287876
 21
706.5649265206896
 31
0.0
 12
78.83733534954543
 22
715.3149265206897
 32
0.0
 13
78.83733534954543
 23
715.3149265206897
 33
0.0
  0
SOLID
  5
126
330
120
100
AcDbEntity
  8
0
 62
     4
440
 16777216
100
AcDbTrace
 10
77.37900201621204
 20
416.0649265206897
 30
0.0
 11
80.2956686828787
 21
416.0649265206897
 31
0.0
 12
78.83733534954536
 22
407.3149265206898
 32
0.0
 13
78.83733534954536
 23
407.3149265206898
 33
0.0
  0
MTEXT
  5
127
330
120
100
AcDbEntity
  8
0
 62
     1
440
 16777216
100
AcDbMText
 10
70.9623353495453
 20
561.3149265206897
 30
0.0
 40
8.75
 41
0.0
 46
0.0
 71
     5
 72
     1
  1
308 (1000ml)
 11
0.0000000000000001
 21
1.0
 31
0.0
 73
     1
 44
1.0
  0
POINT
  5
128
330
120
100
AcDbEntity
  8
Defpoints
 62
     0
440
 16777216
100
AcDbPoint
 10
-16.30631718395261
 20
715.3149265206897
 30
0.0
  0
POINT
  5
129
330
120
100
AcDbEntity
  8
Defpoints
 62
     0
440
 16777216
100
AcDbPoint
 10
-13.21878060384665
 20
407.3149265206898
 30
0.0
  0
POINT
  5
12A
330
120
100
AcDbEntity
  8
Defpoints
 62
     0
440
 16777216
100
AcDbPoint
 10
78.83733534954536
 20
407.3149265206898
 30
0.0
  0
ENDBLK
  5
12B
330
120
100
AcDbEntity
  8
0
370
     0
100
AcDbBlockEnd
  0
BLOCK
  5
114
330
113
100
AcDbEntity
  8
0
370
     0
100
AcDbBlockBegin
  2
*D17
 70
     1
 10
0.0
 20
0.0
 30
0.0
  3
*D17
  1

  0
LINE
  5
115
330
113
100
AcDbEntity
  8
0
 62
     4
440
 16777216
370
    -2
100
AcDbLine
 10
-70.71878060384676
 20
513.8149265206895
 30
0.0
 11
-70.71878060384676
 21
486.5790788370518
 31
0.0
  0
LINE
  5
116
330
113
100
AcDbEntity
  8
0
 62
     4
440
 16777216
370
    -2
100
AcDbLine
 10
-15.71878060384676
 20
513.8149265206895
 30
0.0
 11
-15.71878060384677
 21
486.5790788370518
 31
0.0
  0
LINE
  5
117
330
113
100
AcDbEntity
  8
0
 62
     4
440
 16777216
370
    -2
100
AcDbLine
 10
-61.96878060384676
 20
490.0790788370518
 30
0.0
 11
-24.46878060384677
 21
490.0790788370518
 31
0.0
  0
MTEXT
  5
118
330
113
100
AcDbEntity
  8
0
 62
     1
440
 16777216
100
AcDbMText
 10
-28.59157627336208
 20
498.3644408027035
 30
0.0
 40
8.75
 41
0.0
 46
0.0
 71
     5
 72
     1
  1
%%C55
 73
     1
 44
1.0
  0
SOLID
  5
119
330
113
100
AcDbEntity
  8
0
 62
     4
440
 16777216
100
AcDbTrace
 10
-61.96878060384676
 20
491.5374121703851
 30
0.0
 11
-61.96878060384676
 21
488.6207455037185
 31
0.0
 12
-70.71878060384676
 22
490.0790788370518
 32
0.0
 13
-70.71878060384676
 23
490.0790788370518
 33
0.0
  0
SOLID
  5
11A
330
113
100
AcDbEntity
  8
0
 62
     4
440
 16777216
100
AcDbTrace
 10
-24.46878060384677
 20
491.5374121703851
 30
0.0
 11
-24.46878060384677
 21
488.6207455037185
 31
0.0
 12
-15.71878060384677
 22
490.0790788370518
 32
0.0
 13
-15.71878060384677
 23
490.0790788370518
 33
0.0
  0
POINT
  5
11B
330
113
100
AcDbEntity
  8
Defpoints
 62
     0
440
 16777216
100
AcDbPoint
 10
-70.71878060384676
 20
517.3149265206895
 30
0.0
  0
POINT
  5
11C
330
113
100
AcDbEntity
  8
Defpoints
 62
     0
440
 16777216
100
AcDbPoint
 10
-15.71878060384676
 20
517.3149265206895
 30
0.0
  0
POINT
  5
11D
330
113
100
AcDbEntity
  8
Defpoints
 62
     0
440
 16777216
100
AcDbPoint
 10
-15.71878060384677
 20
490.0790788370518
 30
0.0
  0
ENDBLK
  5
11E
330
113
100
AcDbEntity
  8
0
370
     0
100
AcDbBlockEnd
  0
BLOCK
  5
107
330
106
100
AcDbEntity
  8
0
370
     0
100
AcDbBlockBegin
  2
*D18
 70
     1
 10
0.0
 20
0.0
 30
0.0
  3
*D18
  1

  0
LINE
  5
108
330
106
100
AcDbEntity
  8
0
 62
     4
440
 16777216
370
    -2
100
AcDbLine
 10
-83.21878060384666
 20
413.8149265206897
 30
0.0
 11
-83.21878060384666
 21
376.3598994176468
 31
0.0
  0
LINE
  5
109
330
106
100
AcDbEntity
  8
0
 62
     4
440
 16777216
370
    -2
100
AcDbLine
 10
-3.218780603846653
 20
413.8149265206897
 30
0.0
 11
-3.218780603846655
 21
376.3598994176468
 31
0.0
  0
LINE
  5
10A
330
106
100
AcDbEntity
  8
0
 62
     4
440
 16777216
370
    -2
100
AcDbLine
 10
-74.46878060384666
 20
379.8598994176468
 30
0.0
 11
-11.96878060384665
 21
379.8598994176468
 31
0.0
  0
SOLID
  5
10B
330
106
100
AcDbEntity
  8
0
 62
     4
440
 16777216
100
AcDbTrace
 10
-74.46878060384666
 20
381.3182327509801
 30
0.0
 11
-74.46878060384666
 21
378.4015660843135
 31
0.0
 12
-83.21878060384666
 22
379.8598994176468
 32
0.0
 13
-83.21878060384666
 23
379.8598994176468
 33
0.0
  0
SOLID
  5
10C
330
106
100
AcDbEntity
  8
0
 62
     4
440
 16777216
100
AcDbTrace
 10
-11.96878060384665
 20
381.3182327509801
 30
0.0
 11
-11.96878060384665
 21
378.4015660843135
 31
0.0
 12
-3.218780603846655
 22
379.8598994176468
 32
0.0
 13
-3.218780603846655
 23
379.8598994176468
 33
0.0
  0
MTEXT
  5
10D
330
106
100
AcDbEntity
  8
0
 62
     1
440
 16777216
100
AcDbMText
 10
-43.21878060384665
 20
387.7348994176468
 30
0.0
 40
8.75
 41
0.0
 46
0.0
 71
     5
 72
     1
  1
%%C80
 73
     1
 44
1.0
  0
POINT
  5
10E
330
106
100
AcDbEntity
  8
Defpoints
 62
     0
440
 16777216
100
AcDbPoint
 10
-83.21878060384666
 20
417.3149265206897
 30
0.0
  0
POINT
  5
10F
330
106
100
AcDbEntity
  8
Defpoints
 62
     0
440
 16777216
100
AcDbPoint
 10
-3.218780603846653
 20
417.3149265206897
 30
0.0
  0
POINT
  5
110
330
106
100
AcDbEntity
  8
Defpoints
 62
     0
440
 16777216
100
AcDbPoint
 10
-3.218780603846655
 20
379.8598994176468
 30
0.0
  0
ENDBLK
  5
111
330
106
100
AcDbEntity
  8
0
370
     0
100
AcDbBlockEnd
  0
BLOCK
  5
FA
330
F9
100
AcDbEntity
  8
0
370
     0
100
AcDbBlockBegin
  2
*D19
 70
     1
 10
0.0
 20
0.0
 30
0.0
  3
*D19
  1

  0
LINE
  5
FB
330
F9
100
AcDbEntity
  8
0
 62
     4
440
 16777216
370
    -2
100
AcDbLine
 10
-65.51878060384666
 20
922.8149265206896
 30
0.0
 11
-136.9901918641185
 21
922.8149265206896
 31
0.0
  0
LINE
  5
FC
330
F9
100
AcDbEntity
  8
0
 62
     4
440
 16777216
370
    -2
100
AcDbLine
 10
-64.21878060384677
 20
507.3149265206896
 30
0.0
 11
-136.9901918641186
 21
507.3149265206897
 31
0.0
  0
LINE
  5
FD
330
F9
100
AcDbEntity
  8
0
 62
     4
440
 16777216
370
    -2
100
AcDbLine
 10
-133.4901918641185
 20
914.0649265206898
 30
0.0
 11
-133.4901918641185
 21
516.0649265206895
 31
0.0
  0
SOLID
  5
FE
330
F9
100
AcDbEntity
  8
0
 62
     4
440
 16777216
100
AcDbTrace
 10
-134.9485251974518
 20
914.0649265206898
 30
0.0
 11
-132.0318585307851
 21
914.0649265206898
 31
0.0
 12
-133.4901918641185
 22
922.8149265206896
 32
0.0
 13
-133.4901918641185
 23
922.8149265206896
 33
0.0
  0
SOLID
  5
FF
330
F9
100
AcDbEntity
  8
0
 62
     4
440
 16777216
100
AcDbTrace
 10
-134.9485251974519
 20
516.0649265206895
 30
0.0
 11
-132.0318585307852
 21
516.0649265206895
 31
0.0
 12
-133.4901918641185
 22
507.3149265206897
 32
0.0
 13
-133.4901918641185
 23
507.3149265206897
 33
0.0
  0
MTEXT
  5
100
330
F9
100
AcDbEntity
  8
0
 62
     1
440
 16777216
100
AcDbMText
 10
-141.3651918641186
 20
715.0649265206896
 30
0.0
 40
8.75
 41
0.0
 46
0.0
 71
     5
 72
     1
  1
415.5
 11
0.0000000000000001
 21
1.0
 31
0.0
 73
     1
 44
1.0
  0
POINT
  5
101
330
F9
100
AcDbEntity
  8
Defpoints
 62
     0
440
 16777216
100
AcDbPoint
 10
-62.01878060384666
 20
922.8149265206896
 30
0.0
  0
POINT
  5
102
330
F9
100
AcDbEntity
  8
Defpoints
 62
     0
440
 16777216
100
AcDbPoint
 10
-60.71878060384676
 20
507.3149265206896
 30
0.0
  0
POINT
  5
103
330
F9
100
AcDbEntity
  8
Defpoints
 62
     0
440
 16777216
100
AcDbPoint
 10
-133.4901918641185
 20
507.3149265206897
 30
0.0
  0
ENDBLK
  5
104
330
F9
100
AcDbEntity
  8
0
370
     0
100
AcDbBlockEnd
  0
BLOCK
  5
ED
330
EC
100
AcDbEntity
  8
0
370
     0
100
AcDbBlockBegin
  2
*D20
 70
     1
 10
0.0
 20
0.0
 30
0.0
  3
*D20
  1

  0
LINE
  5
EE
330
EC
100
AcDbEntity
  8
0
 62
     4
440
 16777216
370
    -2
100
AcDbLine
 10
-65.51878060384666
 20
922.8149265206896
 30
0.0
 11
-183.5928763723877
 21
922.8149265206896
 31
0.0
  0
LINE
  5
EF
330
EC
100
AcDbEntity
  8
0
 62
     4
440
 16777216
370
    -2
100
AcDbLine
 10
-76.71878060384665
 20
407.3149265206898
 30
0.0
 11
-183.5928763723878
 21
407.3149265206898
 31
0.0
  0
LINE
  5
F0
330
EC
100
AcDbEntity
  8
0
 62
     4
440
 16777216
370
    -2
100
AcDbLine
 10
-180.0928763723877
 20
914.0649265206898
 30
0.0
 11
-180.0928763723878
 21
416.0649265206898
 31
0.0
  0
SOLID
  5
F1
330
EC
100
AcDbEntity
  8
0
 62
     4
440
 16777216
100
AcDbTrace
 10
-181.551209705721
 20
914.0649265206898
 30
0.0
 11
-178.6345430390543
 21
914.0649265206898
 31
0.0
 12
-180.0928763723877
 22
922.8149265206896
 32
0.0
 13
-180.0928763723877
 23
922.8149265206896
 33
0.0
  0
SOLID
  5
F2
330
EC
100
AcDbEntity
  8
0
 62
     4
440
 16777216
100
AcDbTrace
 10
-181.5512097057211
 20
416.0649265206898
 30
0.0
 11
-178.6345430390545
 21
416.0649265206898
 31
0.0
 12
-180.0928763723878
 22
407.3149265206898
 32
0.0
 13
-180.0928763723878
 23
407.3149265206898
 33
0.0
  0
MTEXT
  5
F3
330
EC
100
AcDbEntity
  8
0
 62
     1
440
 16777216
100
AcDbMText
 10
-187.9678763723878
 20
665.0649265206896
 30
0.0
 40
8.75
 41
0.0
 46
0.0
 71
     5
 72
     1
  1
515.5
 11
0.0000000000000001
 21
1.0
 31
0.0
 73
     1
 44
1.0
  0
POINT
  5
F4
330
EC
100
AcDbEntity
  8
Defpoints
 62
     0
440
 16777216
100
AcDbPoint
 10
-62.01878060384666
 20
922.8149265206896
 30
0.0
  0
POINT
  5
F5
330
EC
100
AcDbEntity
  8
Defpoints
 62
     0
440
 16777216
100
AcDbPoint
 10
-73.21878060384666
 20
407.3149265206898
 30
0.0
  0
POINT
  5
F6
330
EC
100
AcDbEntity
  8
Defpoints
 62
     0
440
 16777216
100
AcDbPoint
 10
-180.0928763723878
 20
407.3149265206898
 30
0.0
  0
ENDBLK
  5
F7
330
EC
100
AcDbEntity
  8
0
370
     0
100
AcDbBlockEnd
  0
BLOCK
  5
DE
330
DD
100
AcDbEntity
  8
0
100
AcDbBlockBegin
  2
*D21
 70
     1
 10
0.0
 20
0.0
 30
0.0
  3
*D21
  1

  0
LINE
  5
DF
330
DD
100
AcDbEntity
  8
0
 62
     4
440
 16777216
370
    -2
100
AcDbLine
 10
-65.71878060384664
 20
855.8149265206896
 30
0.0
 11
-111.5515641129209
 21
855.8149265206896
 31
0.0
  0
LINE
  5
E0
330
DD
100
AcDbEntity
  8
0
 62
     4
440
 16777216
370
    -2
100
AcDbLine
 10
-72.23566506226188
 20
720.3149265206897
 30
0.0
 11
-111.551564112921
 21
720.3149265206897
 31
0.0
  0
LINE
  5
E1
330
DD
100
AcDbEntity
  8
0
 62
     4
440
 16777216
370
    -2
100
AcDbLine
 10
-108.051564112921
 20
847.0649265206898
 30
0.0
 11
-108.051564112921
 21
729.0649265206897
 31
0.0
  0
SOLID
  5
E2
330
DD
100
AcDbEntity
  8
0
 62
     4
440
 16777216
100
AcDbTrace
 10
-109.5098974462543
 20
847.0649265206898
 30
0.0
 11
-106.5932307795876
 21
847.0649265206898
 31
0.0
 12
-108.051564112921
 22
855.8149265206896
 32
0.0
 13
-108.051564112921
 23
855.8149265206896
 33
0.0
  0
SOLID
  5
E3
330
DD
100
AcDbEntity
  8
0
 62
     4
440
 16777216
100
AcDbTrace
 10
-109.5098974462543
 20
729.0649265206897
 30
0.0
 11
-106.5932307795876
 21
729.0649265206897
 31
0.0
 12
-108.051564112921
 22
720.3149265206897
 32
0.0
 13
-108.051564112921
 23
720.3149265206897
 33
0.0
  0
MTEXT
  5
E4
330
DD
100
AcDbEntity
  8
0
 62
     1
440
 16777216
100
AcDbMText
 10
-115.9265641129211
 20
788.0649265206897
 30
0.0
 40
8.75
 41
0.0
 46
0.0
 71
     5
 72
     1
  1
135.5
 11
0.0000000000000001
 21
1.0
 31
0.0
 73
     1
 44
1.0
  0
POINT
  5
E5
330
DD
100
AcDbEntity
  8
Defpoints
 62
     0
440
 16777216
100
AcDbPoint
 10
-62.21878060384662
 20
855.8149265206896
 30
0.0
  0
POINT
  5
E6
330
DD
100
AcDbEntity
  8
Defpoints
 62
     0
440
 16777216
100
AcDbPoint
 10
-68.73566506226189
 20
720.3149265206897
 30
0.0
  0
POINT
  5
E7
330
DD
100
AcDbEntity
  8
Defpoints
 62
     0
440
 16777216
100
AcDbPoint
 10
-108.051564112921
 20
720.3149265206897
 30
0.0
  0
ENDBLK
  5
E8
330
DD
100
AcDbEntity
  8
0
100
AcDbBlockEnd
  0
BLOCK
  5
C1
330
C0
100
AcDbEntity
  8
0
100
AcDbBlockBegin
  2
*D22
 70
     1
 10
0.0
 20
0.0
 30
0.0
  3
*D22
  1

  0
LINE
  5
C2
330
C0
100
AcDbEntity
  8
0
 62
     4
440
 16777216
370
    -2
100
AcDbLine
 10
164.7577771913212
 20
931.2052385013505
 30
0.0
 11
164.7577771913212
 21
948.5319222030305
 31
0.0
  0
LINE
  5
C3
330
C0
100
AcDbEntity
  8
0
 62
     4
440
 16777216
370
    -2
100
AcDbLine
 10
294.7577771913212
 20
916.3149265206897
 30
0.0
 11
294.7577771913212
 21
948.5319222030305
 31
0.0
  0
LINE
  5
C4
330
C0
100
AcDbEntity
  8
0
 62
     4
440
 16777216
370
    -2
100
AcDbLine
 10
173.5077771913213
 20
945.0319222030305
 30
0.0
 11
286.0077771913212
 21
945.0319222030305
 31
0.0
  0
SOLID
  5
C5
330
C0
100
AcDbEntity
  8
0
 62
     4
440
 16777216
100
AcDbTrace
 10
173.5077771913213
 20
946.4902555363638
 30
0.0
 11
173.5077771913213
 21
943.5735888696971
 31
0.0
 12
164.7577771913212
 22
945.0319222030305
 32
0.0
 13
164.7577771913212
 23
945.0319222030305
 33
0.0
  0
SOLID
  5
C6
330
C0
100
AcDbEntity
  8
0
 62
     4
440
 16777216
100
AcDbTrace
 10
286.0077771913212
 20
946.4902555363638
 30
0.0
 11
286.0077771913212
 21
943.5735888696971
 31
0.0
 12
294.7577771913212
 22
945.0319222030305
 32
0.0
 13
294.7577771913212
 23
945.0319222030305
 33
0.0
  0
MTEXT
  5
C7
330
C0
100
AcDbEntity
  8
0
 62
     1
440
 16777216
100
AcDbMText
 10
229.7577771913212
 20
952.9069222030305
 30
0.0
 40
8.75
 41
0.0
 46
0.0
 71
     5
 72
     1
  1
130
 73
     1
 44
1.0
  0
POINT
  5
C8
330
C0
100
AcDbEntity
  8
Defpoints
 62
     0
440
 16777216
100
AcDbPoint
 10
164.7577771913212
 20
927.7052385013504
 30
0.0
  0
POINT
  5
C9
330
C0
100
AcDbEntity
  8
Defpoints
 62
     0
440
 16777216
100
AcDbPoint
 10
294.7577771913212
 20
912.8149265206896
 30
0.0
  0
POINT
  5
CA
330
C0
100
AcDbEntity
  8
Defpoints
 62
     0
440
 16777216
100
AcDbPoint
 10
294.7577771913212
 20
945.0319222030305
 30
0.0
  0
ENDBLK
  5
CB
330
C0
100
AcDbEntity
  8
0
100
AcDbBlockEnd
  0
BLOCK
  5
A4
330
A3
100
AcDbEntity
  8
0
100
AcDbBlockBegin
  2
*D23
 70
     1
 10
0.0
 20
0.0
 30
0.0
  3
*D23
  1

  0
LINE
  5
A5
330
A3
100
AcDbEntity
  8
0
 62
     4
440
 16777216
370
    -2
100
AcDbLine
 10
-10.71628062603759
 20
715.3149265206897
 30
0.0
 11
59.9543982506498
 21
715.3149265206897
 31
0.0
  0
LINE
  5
A6
330
A3
100
AcDbEntity
  8
0
 62
     4
440
 16777216
370
    -2
100
AcDbLine
 10
-14.7187806038466
 20
722.8149265206897
 30
0.0
 11
59.9543982506498
 21
722.8149265206897
 31
0.0
  0
LINE
  5
A7
330
A3
100
AcDbEntity
  8
0
 62
     4
440
 16777216
370
    -2
100
AcDbLine
 10
56.45439825064979
 20
706.5649265206896
 30
0.0
 11
56.45439825064979
 21
697.8149265206897
 31
0.0
  0
LINE
  5
A8
330
A3
100
AcDbEntity
  8
0
 62
     4
440
 16777216
370
    -2
100
AcDbLine
 10
56.4543982506498
 20
731.5649265206896
 30
0.0
 11
56.4543982506498
 21
740.3149265206897
 31
0.0
  0
MTEXT
  5
A9
330
A3
100
AcDbEntity
  8
0
 62
     1
440
 16777216
100
AcDbMText
 10
48.57939825064968
 20
736.7182892471076
 30
0.0
 40
8.75
 41
0.0
 46
0.0
 71
     5
 72
     1
  1
7.5
 11
0.0000000000000001
 21
1.0
 31
0.0
 73
     1
 44
1.0
  0
LINE
  5
AA
330
A3
100
AcDbEntity
  8
0
 62
     4
440
 16777216
370
    -2
100
AcDbLine
 10
56.45439825064979
 20
715.3149265206897
 30
0.0
 11
56.4543982506498
 21
722.8149265206897
 31
0.0
  0
SOLID
  5
AB
330
A3
100
AcDbEntity
  8
0
 62
     4
440
 16777216
100
AcDbTrace
 10
54.99606491731646
 20
706.5649265206896
 30
0.0
 11
57.91273158398313
 21
706.5649265206896
 31
0.0
 12
56.45439825064979
 22
715.3149265206897
 32
0.0
 13
56.45439825064979
 23
715.3149265206897
 33
0.0
  0
SOLID
  5
AC
330
A3
100
AcDbEntity
  8
0
 62
     4
440
 16777216
100
AcDbTrace
 10
54.99606491731647
 20
731.5649265206896
 30
0.0
 11
57.91273158398314
 21
731.5649265206896
 31
0.0
 12
56.4543982506498
 22
722.8149265206897
 32
0.0
 13
56.4543982506498
 23
722.8149265206897
 33
0.0
  0
POINT
  5
AD
330
A3
100
AcDbEntity
  8
Defpoints
 62
     0
440
 16777216
100
AcDbPoint
 10
-14.21628062603759
 20
715.3149265206897
 30
0.0
  0
POINT
  5
AE
330
A3
100
AcDbEntity
  8
Defpoints
 62
     0
440
 16777216
100
AcDbPoint
 10
-18.2187806038466
 20
722.8149265206897
 30
0.0
  0
POINT
  5
AF
330
A3
100
AcDbEntity
  8
Defpoints
 62
     0
440
 16777216
100
AcDbPoint
 10
56.4543982506498
 20
722.8149265206897
 30
0.0
  0
ENDBLK
  5
B0
330
A3
100
AcDbEntity
  8
0
100
AcDbBlockEnd
  0
BLOCK
  5
97
330
96
100
AcDbEntity
  8
0
100
AcDbBlockBegin
  2
*D24
 70
     1
 10
0.0
 20
0.0
 30
0.0
  3
*D24
  1

  0
LINE
  5
98
330
96
100
AcDbEntity
  8
0
 62
     4
440
 16777216
370
    -2
100
AcDbLine
 10
-68.21878060384671
 20
726.3149265206897
 30
0.0
 11
-68.21878060384671
 21
750.7639786486659
 31
0.0
  0
LINE
  5
99
330
96
100
AcDbEntity
  8
0
 62
     4
440
 16777216
370
    -2
100
AcDbLine
 10
-18.2187806038466
 20
726.3149265206897
 30
0.0
 11
-18.2187806038466
 21
750.7639786486659
 31
0.0
  0
LINE
  5
9A
330
96
100
AcDbEntity
  8
0
 62
     4
440
 16777216
370
    -2
100
AcDbLine
 10
-59.46878060384671
 20
747.2639786486658
 30
0.0
 11
-26.9687806038466
 21
747.2639786486658
 31
0.0
  0
MTEXT
  5
9B
330
96
100
AcDbEntity
  8
0
 62
     1
440
 16777216
100
AcDbMText
 10
-2.875059587676332
 20
755.8170855146263
 30
0.0
 40
8.75
 41
0.0
 46
0.0
 71
     5
 72
     1
  1
%%C50
 73
     1
 44
1.0
  0
SOLID
  5
9C
330
96
100
AcDbEntity
  8
0
 62
     4
440
 16777216
100
AcDbTrace
 10
-59.46878060384671
 20
748.7223119819993
 30
0.0
 11
-59.46878060384671
 21
745.8056453153325
 31
0.0
 12
-68.21878060384671
 22
747.2639786486658
 32
0.0
 13
-68.21878060384671
 23
747.2639786486658
 33
0.0
  0
SOLID
  5
9D
330
96
100
AcDbEntity
  8
0
 62
     4
440
 16777216
100
AcDbTrace
 10
-26.9687806038466
 20
748.7223119819993
 30
0.0
 11
-26.9687806038466
 21
745.8056453153325
 31
0.0
 12
-18.2187806038466
 22
747.2639786486658
 32
0.0
 13
-18.2187806038466
 23
747.2639786486658
 33
0.0
  0
POINT
  5
9E
330
96
100
AcDbEntity
  8
Defpoints
 62
     0
440
 16777216
100
AcDbPoint
 10
-68.21878060384671
 20
722.8149265206897
 30
0.0
  0
POINT
  5
9F
330
96
100
AcDbEntity
  8
Defpoints
 62
     0
440
 16777216
100
AcDbPoint
 10
-18.2187806038466
 20
722.8149265206897
 30
0.0
  0
POINT
  5
A0
330
96
100
AcDbEntity
  8
Defpoints
 62
     0
440
 16777216
100
AcDbPoint
 10
-18.2187806038466
 20
747.2639786486658
 30
0.0
  0
ENDBLK
  5
A1
330
96
100
AcDbEntity
  8
0
100
AcDbBlockEnd
  0
BLOCK
  5
8A
330
89
100
AcDbEntity
  8
0
100
AcDbBlockBegin
  2
*D25
 70
     1
 10
0.0
 20
0.0
 30
0.0
  3
*D25
  1

  0
LINE
  5
8B
330
89
100
AcDbEntity
  8
0
 62
     4
440
 16777216
370
    -2
100
AcDbLine
 10
298.2577771913213
 20
912.8149265206896
 30
0.0
 11
314.7214388050552
 21
912.8149265206896
 31
0.0
  0
LINE
  5
8C
330
89
100
AcDbEntity
  8
0
 62
     4
440
 16777216
370
    -2
100
AcDbLine
 10
193.2577771913213
 20
715.3149265206897
 30
0.0
 11
314.7214388050552
 21
715.3149265206896
 31
0.0
  0
LINE
  5
8D
330
89
100
AcDbEntity
  8
0
 62
     4
440
 16777216
370
    -2
100
AcDbLine
 10
311.2214388050552
 20
904.0649265206896
 30
0.0
 11
311.2214388050552
 21
724.0649265206895
 31
0.0
  0
SOLID
  5
8E
330
89
100
AcDbEntity
  8
0
 62
     4
440
 16777216
100
AcDbTrace
 10
309.7631054717219
 20
904.0649265206896
 30
0.0
 11
312.6797721383886
 21
904.0649265206896
 31
0.0
 12
311.2214388050552
 22
912.8149265206896
 32
0.0
 13
311.2214388050552
 23
912.8149265206896
 33
0.0
  0
SOLID
  5
8F
330
89
100
AcDbEntity
  8
0
 62
     4
440
 16777216
100
AcDbTrace
 10
309.7631054717219
 20
724.0649265206895
 30
0.0
 11
312.6797721383885
 21
724.0649265206895
 31
0.0
 12
311.2214388050552
 22
715.3149265206896
 32
0.0
 13
311.2214388050552
 23
715.3149265206896
 33
0.0
  0
MTEXT
  5
90
330
89
100
AcDbEntity
  8
0
 62
     1
440
 16777216
100
AcDbMText
 10
303.3464388050551
 20
814.0649265206898
 30
0.0
 40
8.75
 41
0.0
 46
0.0
 71
     5
 72
     1
  1
197.5
 11
0.0000000000000001
 21
1.0
 31
0.0
 73
     1
 44
1.0
  0
POINT
  5
91
330
89
100
AcDbEntity
  8
Defpoints
 62
     0
440
 16777216
100
AcDbPoint
 10
294.7577771913212
 20
912.8149265206896
 30
0.0
  0
POINT
  5
92
330
89
100
AcDbEntity
  8
Defpoints
 62
     0
440
 16777216
100
AcDbPoint
 10
189.7577771913212
 20
715.3149265206897
 30
0.0
  0
POINT
  5
93
330
89
100
AcDbEntity
  8
Defpoints
 62
     0
440
 16777216
100
AcDbPoint
 10
311.2214388050552
 20
715.3149265206896
 30
0.0
  0
ENDBLK
  5
94
330
89
100
AcDbEntity
  8
0
100
AcDbBlockEnd
  0
BLOCK
  5
7B
330
7A
100
AcDbEntity
  8
0
100
AcDbBlockBegin
  2
*D26
 70
     1
 10
0.0
 20
0.0
 30
0.0
  3
*D26
  1

  0
LINE
  5
7C
330
7A
100
AcDbEntity
  8
0
 62
     4
440
 16777216
370
    -2
100
AcDbLine
 10
139.7577771913211
 20
726.3149265206897
 30
0.0
 11
139.7577771913212
 21
972.6554816753655
 31
0.0
  0
LINE
  5
7D
330
7A
100
AcDbEntity
  8
0
 62
     4
440
 16777216
370
    -2
100
AcDbLine
 10
300.0981727683477
 20
921.3936798395776
 30
0.0
 11
300.0981727683477
 21
972.6554816753655
 31
0.0
  0
LINE
  5
7E
330
7A
100
AcDbEntity
  8
0
 62
     4
440
 16777216
370
    -2
100
AcDbLine
 10
148.5077771913212
 20
969.1554816753654
 30
0.0
 11
291.3481727683477
 21
969.1554816753654
 31
0.0
  0
SOLID
  5
7F
330
7A
100
AcDbEntity
  8
0
 62
     4
440
 16777216
100
AcDbTrace
 10
148.5077771913212
 20
970.6138150086989
 30
0.0
 11
148.5077771913212
 21
967.6971483420322
 31
0.0
 12
139.7577771913212
 22
969.1554816753654
 32
0.0
 13
139.7577771913212
 23
969.1554816753654
 33
0.0
  0
SOLID
  5
80
330
7A
100
AcDbEntity
  8
0
 62
     4
440
 16777216
100
AcDbTrace
 10
291.3481727683477
 20
970.6138150086989
 30
0.0
 11
291.3481727683477
 21
967.6971483420322
 31
0.0
 12
300.0981727683477
 22
969.1554816753654
 32
0.0
 13
300.0981727683477
 23
969.1554816753654
 33
0.0
  0
MTEXT
  5
81
330
7A
100
AcDbEntity
  8
0
 62
     1
440
 16777216
100
AcDbMText
 10
219.9279749798344
 20
977.0304816753656
 30
0.0
 40
8.75
 41
0.0
 46
0.0
 71
     5
 72
     1
  1
160.3
 73
     1
 44
1.0
  0
POINT
  5
82
330
7A
100
AcDbEntity
  8
Defpoints
 62
     0
440
 16777216
100
AcDbPoint
 10
139.7577771913211
 20
722.8149265206897
 30
0.0
  0
POINT
  5
84
330
7A
100
AcDbEntity
  8
Defpoints
 62
     0
440
 16777216
100
AcDbPoint
 10
300.0981727683477
 20
917.8936798395776
 30
0.0
  0
POINT
  5
85
330
7A
100
AcDbEntity
  8
Defpoints
 62
     0
440
 16777216
100
AcDbPoint
 10
300.0981727683477
 20
969.1554816753654
 30
0.0
  0
ENDBLK
  5
86
330
7A
100
AcDbEntity
  8
0
100
AcDbBlockEnd
  0
ENDSEC
  0
SECTION
  2
ENTITIES
  0
TEXT
  5
77
330
2
100
AcDbEntity
  8
0
100
AcDbText
 10
-191.3079592009162
 20
258.9798897050546
 30
0.0
 40
10.0
  1
hochglanzpoliert : 931 371
100
AcDbText
  0
TEXT
  5
78
330
2
100
AcDbEntity
  8
0
100
AcDbText
 10
-276.3132542865569
 20
275.6465563717215
 30
0.0
 40
10.0
  1
Identnr. matt geschliffen : 923 371
100
AcDbText
  0
DIMENSION
  5
79
330
2
100
AcDbEntity
  8
0
100
AcDbDimension
280
     0
  2
*D26
 10
300.0981727683477
 20
969.1554816753654
 30
0.0
 11
219.9279749798344
 21
977.0304816753656
 31
0.0
 71
     5
 42
160.3403955770266
 73
     0
 74
     0
 75
     0
  3
Wagner$0
100
AcDbAlignedDimension
 13
139.7577771913211
 23
722.8149265206897
 33
0.0
 14
300.0981727683477
 24
917.8936798395776
 34
0.0
100
AcDbRotatedDimension
1001
ACAD
1000
DSTYLE
1002
{
1070
    40
1040
3.5
1070
   271
1070
     1
1070
   272
1070
     1
1002
}
  0
DIMENSION
  5
88
330
2
100
AcDbEntity
  8
0
100
AcDbDimension
280
     0
  2
*D25
 10
311.2214388050552
 20
715.3149265206896
 30
0.0
 11
303.3464388050551
 21
814.0649265206898
 31
0.0
 71
     5
 42
197.5000000000001
 73
     0
 74
     0
 75
     0
  3
Wagner$0
100
AcDbAlignedDimension
 13
294.7577771913212
 23
912.8149265206896
 33
0.0
 14
189.7577771913212
 24
715.3149265206897
 34
0.0
 50
90.0
100
AcDbRotatedDimension
1001
ACAD
1000
DSTYLE
1002
{
1070
    40
1040
3.5
1070
   271
1070
     1
1070
   272
1070
     1
1002
}
  0
DIMENSION
  5
95
330
2
100
AcDbEntity
  8
0
100
AcDbDimension
280
     0
  2
*D24
 10
-18.2187806038466
 20
747.2639786486658
 30
0.0
 11
-2.875059587676332
 21
755.8170855146263
 31
0.0
 70
   128
  1
%%C<>
 71
     5
 42
50.00000000000011
 73
     0
 74
     0
 75
     0
  3
Wagner$0
100
AcDbAlignedDimension
 13
-68.21878060384671
 23
722.8149265206897
 33
0.0
 14
-18.2187806038466
 24
722.8149265206897
 34
0.0
100
AcDbRotatedDimension
1001
ACAD
1000
DSTYLE
1002
{
1070
    40
1040
3.5
1070
   271
1070
     1
1070
   272
1070
     1
1002
}
  0
DIMENSION
  5
A2
330
2
100
AcDbEntity
  8
0
100
AcDbDimension
280
     0
  2
*D23
 10
56.4543982506498
 20
722.8149265206897
 30
0.0
 11
48.57939825064968
 21
736.7182892471076
 31
0.0
 70
   128
 71
     5
 42
7.5
 73
     0
 74
     0
 75
     0
  3
Wagner$0
100
AcDbAlignedDimension
 13
-14.21628062603759
 23
715.3149265206897
 33
0.0
 14
-18.2187806038466
 24
722.8149265206897
 34
0.0
 50
90.0
100
AcDbRotatedDimension
1001
ACAD
1000
DSTYLE
1002
{
1070
    40
1040
3.5
1070
   271
1070
     1
1070
   272
1070
     1
1002
}
  0
LINE
  5
B1
330
2
100
AcDbEntity
  8
0
100
AcDbLine
 10
139.7577771913211
 20
722.8149265206897
 30
0.0
 11
189.7577771913212
 21
722.8149265206897
 31
0.0
  0
ARC
  5
B2
330
2
100
AcDbEntity
  8
0
100
AcDbCircle
 10
179.2577771913212
 20
716.0649265206898
 30
0.0
 40
1.75
100
AcDbArc
 50
205.3769335251537
 51
334.6230664748463
  0
LINE
  5
B3
330
2
100
AcDbEntity
  8
0
100
AcDbLine
 10
150.2577771913213
 20
714.3149265206898
 30
0.0
 11
179.2577771913212
 21
714.3149265206898
 31
0.0
  0
ARC
  5
B4
330
2
100
AcDbEntity
  8
0
100
AcDbCircle
 10
150.2577771913213
 20
716.0649265206898
 30
0.0
 40
1.75
100
AcDbArc
 50
205.3769335251537
 51
334.6230664748462
  0
LINE
  5
B5
330
2
100
AcDbEntity
  8
0
100
AcDbLine
 10
139.7577771913211
 20
715.3149265206897
 30
0.0
 11
189.7577771913212
 21
715.3149265206897
 31
0.0
  0
LINE
  5
B6
330
2
100
AcDbEntity
  8
0
100
AcDbLine
 10
189.7577771913212
 20
715.3149265206897
 30
0.0
 11
189.7577771913212
 21
722.8149265206897
 31
0.0
  0
LINE
  5
B7
330
2
100
AcDbEntity
  8
0
100
AcDbLine
 10
139.7577771913211
 20
722.8149265206897
 30
0.0
 11
139.7577771913211
 21
715.3149265206897
 31
0.0
  0
LINE
  5
B8
330
2
100
AcDbEntity
  8
03-01
100
AcDbLine
 10
154.2577771913212
 20
715.3149265206896
 30
0.0
 11
154.2577771913212
 21
714.3149265206898
 31
0.0
  0
LINE
  5
BC
330
2
100
AcDbEntity
  8
03-01
100
AcDbLine
 10
175.2577771913211
 20
714.3149265206898
 30
0.0
 11
175.2577771913211
 21
715.3149265206896
 31
0.0
  0
LINE
  5
BD
330
2
100
AcDbEntity
  8
0
100
AcDbLine
 10
-24.2187806038466
 20
887.6149265206896
 30
0.0
 11
-24.21878060384648
 21
722.8149265206897
 31
0.0
  0
LINE
  5
BE
330
2
100
AcDbEntity
  8
0
100
AcDbLine
 10
-68.21878060384671
 20
722.8149265206897
 30
0.0
 11
-18.2187806038466
 21
722.8149265206897
 31
0.0
  0
DIMENSION
  5
BF
330
2
100
AcDbEntity
  8
0
100
AcDbDimension
280
     0
  2
*D22
 10
294.7577771913212
 20
945.0319222030305
 30
0.0
 11
229.7577771913212
 21
952.9069222030305
 31
0.0
 71
     5
 42
129.9999999999999
 73
     0
 74
     0
 75
     0
  3
Wagner$0
100
AcDbAlignedDimension
 13
164.7577771913212
 23
927.7052385013504
 33
0.0
 14
294.7577771913212
 24
912.8149265206896
 34
0.0
100
AcDbRotatedDimension
1001
ACAD
1000
DSTYLE
1002
{
1070
    40
1040
3.5
1070
   271
1070
     1
1070
   272
1070
     1
1002
}
  0
ARC
  5
CC
330
2
100
AcDbEntity
  8
0
100
AcDbCircle
 10
295.2624056743739
 20
911.4023579049787
 30
0.0
 40
2.499999999999965
100
AcDbArc
 50
56.52874667953665
 51
162.7889513878505
  0
LINE
  5
CD
330
2
100
AcDbEntity
  8
0
100
AcDbLine
 10
292.874352370373
 20
912.142088543286
 30
0.0
 11
296.6412020122692
 21
913.4877644980933
 31
0.0
  0
ARC
  5
CE
330
2
100
AcDbEntity
  8
0
100
AcDbCircle
 10
295.5981727683477
 20
917.8936798395776
 30
0.0
 40
4.499999999999999
100
AcDbArc
 50
328.601290302675
 51
109.6588490336918
  0
LINE
  5
CF
330
2
100
AcDbEntity
  8
0
100
AcDbLine
 10
299.4392041542992
 20
915.5492229958428
 30
0.0
 11
285.4750903031161
 21
910.5606585384958
 31
0.0
  0
LINE
  5
D0
330
2
100
AcDbEntity
  8
0
100
AcDbLine
 10
294.0842873191892
 20
922.1313856867105
 30
0.0
 11
183.7577771913213
 21
882.7181502324352
 31
0.0
  0
LINE
  5
D1
330
2
100
AcDbEntity
  8
0
100
AcDbLine
 10
284.8697968813439
 20
909.2825271393197
 30
0.0
 11
183.7577771913212
 21
873.1610923664675
 31
0.0
  0
LINE
  5
D2
330
2
100
AcDbEntity
  8
05-01
100
AcDbLine
 10
299.8358786154808
 20
919.4075652887361
 30
0.0
 11
182.6085552469398
 21
877.5290712418934
 31
0.0
  0
LINE
  5
D6
330
2
100
AcDbEntity
  8
0
100
AcDbLine
 10
284.8697968813439
 20
909.2825271393197
 30
0.0
 11
285.4750903031161
 21
910.5606585384956
 31
0.0
  0
LINE
  5
D7
330
2
100
AcDbEntity
  8
0
100
AcDbLine
 10
292.874352370373
 20
912.142088543286
 30
0.0
 11
291.596220971197
 21
912.747381965058
 31
0.0
  0
LINE
  5
D8
330
2
100
AcDbEntity
  8
0
100
AcDbLine
 10
296.6412020122692
 20
913.4877644980933
 30
0.0
 11
297.2464954340414
 21
914.7658958972693
 31
0.0
  0
LINE
  5
D9
330
2
100
AcDbEntity
  8
03-01
100
AcDbLine
 10
293.9102360218947
 20
912.5121494308581
 30
0.0
 11
293.5738170331928
 21
913.4538618413319
 31
0.0
  0
LINE
  5
DA
330
2
100
AcDbEntity
  8
03-01
100
AcDbLine
 10
295.6053183607479
 20
913.1177036105214
 30
0.0
 11
295.268899372046
 21
914.0594160209955
 31
0.0
  0
LINE
  5
DB
330
2
100
AcDbEntity
  8
05-01
100
AcDbLine
 10
295.0005982822482
 20
912.1352156763844
 30
0.0
 11
294.4213582026194
 21
913.7566389311638
 31
0.0
  0
DIMENSION
  5
DC
330
2
100
AcDbEntity
  8
0
100
AcDbDimension
280
     0
  2
*D21
 10
-108.051564112921
 20
720.3149265206897
 30
0.0
 11
-115.9265641129211
 21
788.0649265206897
 31
0.0
 71
     5
 42
135.5
 73
     0
 74
     0
 75
     0
  3
Wagner$0
100
AcDbAlignedDimension
 13
-62.21878060384662
 23
855.8149265206896
 33
0.0
 14
-68.73566506226189
 24
720.3149265206897
 34
0.0
 50
270.0
100
AcDbRotatedDimension
1001
ACAD
1000
DSTYLE
1002
{
1070
    40
1040
3.5
1070
   271
1070
     1
1070
   272
1070
     1
1002
}
  0
LINE
  5
E9
330
2
100
AcDbEntity
  8
0
100
AcDbLine
 10
145.7577771913213
 20
855.8149265206896
 30
0.0
 11
183.7577771913213
 21
855.8149265206896
 31
0.0
  0
LINE
  5
EA
330
2
100
AcDbEntity
  8
0
100
AcDbLine
 10
-62.21878060384671
 20
855.8149265206896
 30
0.0
 11
-24.2187806038466
 21
855.8149265206896
 31
0.0
  0
DIMENSION
  5
EB
330
2
100
AcDbEntity
  8
0
100
AcDbDimension
280
     0
  2
*D20
 10
-180.0928763723878
 20
407.3149265206898
 30
0.0
 11
-187.9678763723878
 21
665.0649265206896
 31
0.0
 71
     5
 42
515.5
 73
     0
 74
     0
 75
     0
  3
Wagner$0
100
AcDbAlignedDimension
 13
-62.01878060384666
 23
922.8149265206896
 33
0.0
 14
-73.21878060384666
 24
407.3149265206898
 34
0.0
 50
90.0
100
AcDbRotatedDimension
1001
ACAD
1000
DSTYLE
1002
{
1070
    40
1040
3.5
1070
   271
1070
     1
1070
   272
1070
     1
1002
}
  0
DIMENSION
  5
F8
330
2
100
AcDbEntity
  8
0
100
AcDbDimension
280
     0
  2
*D19
 10
-133.4901918641185
 20
507.3149265206897
 30
0.0
 11
-141.3651918641186
 21
715.0649265206896
 31
0.0
 71
     5
 42
415.5
 73
     0
 74
     0
 75
     0
  3
Wagner$0
100
AcDbAlignedDimension
 13
-62.01878060384666
 23
922.8149265206896
 33
0.0
 14
-60.71878060384676
 24
507.3149265206896
 34
0.0
 50
90.0
100
AcDbRotatedDimension
1001
ACAD
1000
DSTYLE
1002
{
1070
    40
1040
3.5
1070
   271
1070
     1
1070
   272
1070
     1
1002
}
  0
DIMENSION
  5
105
330
2
100
AcDbEntity
  8
0
100
AcDbDimension
280
     0
  2
*D18
 10
-3.218780603846655
 20
379.8598994176468
 30
0.0
 11
-43.21878060384665
 21
387.7348994176468
 31
0.0
  1
%%C<>
 71
     5
 42
80.0
 73
     0
 74
     0
 75
     0
  3
Wagner$0
100
AcDbAlignedDimension
 13
-83.21878060384666
 23
417.3149265206897
 33
0.0
 14
-3.218780603846653
 24
417.3149265206897
 34
0.0
100
AcDbRotatedDimension
1001
ACAD
1000
DSTYLE
1002
{
1070
    40
1040
3.5
1070
   271
1070
     1
1070
   272
1070
     1
1002
}
  0
DIMENSION
  5
112
330
2
100
AcDbEntity
  8
0
100
AcDbDimension
280
     0
  2
*D17
 10
-15.71878060384677
 20
490.0790788370518
 30
0.0
 11
-28.59157627336208
 21
498.3644408027035
 31
0.0
 70
   128
  1
%%C<>
 71
     5
 42
55.0
 73
     0
 74
     0
 75
     0
  3
Wagner$0
100
AcDbAlignedDimension
 13
-70.71878060384676
 23
517.3149265206895
 33
0.0
 14
-15.71878060384676
 24
517.3149265206895
 34
0.0
100
AcDbRotatedDimension
1001
ACAD
1000
DSTYLE
1002
{
1070
    40
1040
3.5
1070
   271
1070
     1
1070
   272
1070
     1
1002
}
  0
DIMENSION
  5
11F
330
2
100
AcDbEntity
  8
0
100
AcDbDimension
280
     0
  2
*D16
 10
78.83733534954536
 20
407.3149265206898
 30
0.0
 11
70.9623353495453
 21
561.3149265206897
 31
0.0
  1
<> (1000ml)
 71
     5
 42
308.0
 73
     0
 74
     0
 75
     0
  3
Wagner$0
100
AcDbAlignedDimension
 13
-16.30631718395261
 23
715.3149265206897
 33
0.0
 14
-13.21878060384665
 24
407.3149265206898
 34
0.0
 50
90.0
100
AcDbRotatedDimension
1001
ACAD
1000
DSTYLE
1002
{
1070
    40
1040
3.5
1070
   271
1070
     1
1070
   272
1070
     1
1002
}
  0
INSERT
  5
12C
330
2
100
AcDbEntity
  8
05-01
100
AcDbBlockReference
  2
Seifenflasche1000ml-01-s
 10
-26.46878060384665
 20
633.8149265206898
 30
0.0
  0
DIMENSION
  5
148
330
2
100
AcDbEntity
  8
0
100
AcDbDimension
280
     0
  2
*D14
 10
36.88909588092838
 20
507.3149265206896
 30
0.0
 11
29.0140958809283
 21
611.3149265206896
 31
0.0
  1
<> (250ml)
 71
     5
 42
208.0000000000001
 73
     0
 74
     0
 75
     0
  3
Wagner$0
100
AcDbAlignedDimension
 13
-16.44136983663839
 23
715.3149265206897
 33
0.0
 14
-25.71878060384677
 24
507.3149265206896
 34
0.0
 50
90.0
100
AcDbRotatedDimension
1001
ACAD
1000
DSTYLE
1002
{
1070
    40
1040
3.5
1070
   271
1070
     1
1070
   272
1070
     1
1002
}
  0
INSERT
  5
155
330
2
100
AcDbEntity
  8
05-01
100
AcDbBlockReference
  2
Seifenflasche250-01-s
 10
-29.21878060384677
 20
637.8149265206898
 30
0.0
  0
DIMENSION
  5
171
330
2
100
AcDbEntity
  8
0
100
AcDbDimension
280
     0
  2
*D12
 10
213.8316296520506
 20
877.8149265206895
 30
0.0
 11
205.9566296520505
 21
796.5649265206896
 31
0.0
 71
     5
 42
162.4999999999999
 73
     0
 74
     0
 75
     0
  3
Wagner$0
100
AcDbAlignedDimension
 13
183.7577771913213
 23
715.3149265206897
 33
0.0
 14
183.7577771913213
 24
877.8149265206895
 34
0.0
 50
90.0
100
AcDbRotatedDimension
1001
ACAD
1000
DSTYLE
1002
{
1070
    40
1040
3.5
1070
   271
1070
     1
1070
   272
1070
     1
1002
}
  0
DIMENSION
  5
17E
330
2
100
AcDbEntity
  8
0
100
AcDbDimension
280
     0
  2
*D11
 10
-9.218780603846598
 20
445.7890885036572
 30
0.0
 11
-43.21878060384659
 21
453.6640885036572
 31
0.0
  1
%%C<>
 71
     5
 42
68.0
 73
     0
 74
     0
 75
     0
  3
Wagner$0
100
AcDbAlignedDimension
 13
-77.2187806038466
 23
477.3149265206897
 33
0.0
 14
-9.218780603846596
 24
477.3149265206897
 34
0.0
100
AcDbRotatedDimension
1001
ACAD
1000
DSTYLE
1002
{
1070
    40
1040
3.5
1070
   271
1070
     1
1070
   272
1070
     1
1002
}
  0
DIMENSION
  5
18B
330
2
100
AcDbEntity
  8
0
100
AcDbDimension
280
     0
  2
*D10
 10
118.9316396484422
 20
477.3149265206897
 30
0.0
 11
111.0566396484422
 21
564.8149265206897
 31
0.0
 71
     5
 42
174.9999999999999
 73
     0
 74
     0
 75
     0
  3
Wagner$0
100
AcDbAlignedDimension
 13
153.2577771913214
 23
652.3149265206897
 33
0.0
 14
169.2577771913213
 24
477.3149265206897
 34
0.0
 50
90.0
100
AcDbRotatedDimension
1001
ACAD
1000
DSTYLE
1002
{
1070
    40
1040
3.5
1070
   271
1070
     1
1070
   272
1070
     1
1002
}
  0
DIMENSION
  5
198
330
2
100
AcDbEntity
  8
0
100
AcDbDimension
280
     0
  2
*D9
 10
56.45439825064975
 20
467.3149265206896
 30
0.0
 11
48.57939825064967
 21
591.3149265206897
 31
0.0
  1
Standard <> (500ml)
 71
     5
 42
248.0
 73
     0
 74
     0
 75
     0
  3
Wagner$0
100
AcDbAlignedDimension
 13
-17.61182761603732
 23
715.3149265206897
 33
0.0
 14
-19.21878060384662
 24
467.3149265206896
 34
0.0
 50
90.0
100
AcDbRotatedDimension
1001
ACAD
1000
DSTYLE
1002
{
1070
    40
1040
3.5
1070
   271
1070
     1
1070
   272
1070
     1
1002
}
  0
DIMENSION
  5
1A5
330
2
100
AcDbEntity
  8
0
100
AcDbDimension
280
     0
  2
*D8
 10
-156.5675985665875
 20
922.8149265206896
 30
0.0
 11
-164.4425985665877
 21
695.0649265206897
 31
0.0
 71
     5
 42
455.4999999999999
 73
     0
 74
     0
 75
     0
  3
Wagner$0
100
AcDbAlignedDimension
 13
-67.2187806038466
 23
467.3149265206896
 33
0.0
 14
-62.01878060384666
 24
922.8149265206896
 34
0.0
 50
90.0
100
AcDbRotatedDimension
1001
ACAD
1000
DSTYLE
1002
{
1070
    40
1040
3.5
1070
   271
1070
     1
1070
   272
1070
     1
1002
}
  0
LINE
  5
1B2
330
2
100
AcDbEntity
  8
0
100
AcDbLine
 10
-26.4687806038466
 20
633.8149265206896
 30
0.0
 11
-11.96935088444829
 21
621.2067267646911
 31
0.0
  0
ARC
  5
1B3
330
2
100
AcDbEntity
  8
0
100
AcDbCircle
 10
-17.2187806038466
 20
615.1698825873832
 30
0.0
 40
8.0
100
AcDbArc
 50
0.0
 51
48.99091309843012
  0
LINE
  5
1B4
330
2
100
AcDbEntity
  8
0
100
AcDbLine
 10
-9.218780603846596
 20
615.1698825873832
 30
0.0
 11
-9.218780603846596
 21
477.3149265206897
 31
0.0
  0
LINE
  5
1B5
330
2
100
AcDbEntity
  8
0
100
AcDbLine
 10
-59.96878060384659
 20
633.8149265206896
 30
0.0
 11
-74.4682103232449
 21
621.2067267646911
 31
0.0
  0
ARC
  5
1B6
330
2
100
AcDbEntity
  8
0
100
AcDbCircle
 10
-69.2187806038466
 20
615.1698825873832
 30
0.0
 40
8.0
100
AcDbArc
 50
131.0090869015699
 51
180.0
  0
LINE
  5
1B7
330
2
100
AcDbEntity
  8
0
100
AcDbLine
 10
-77.2187806038466
 20
615.1698825873832
 30
0.0
 11
-77.2187806038466
 21
477.3149265206897
 31
0.0
  0
ARC
  5
1B8
330
2
100
AcDbEntity
  8
0
100
AcDbCircle
 10
-19.21878060384662
 20
477.3149265206897
 30
0.0
 40
10.0
100
AcDbArc
 50
270.0
 51
0.0
  0
LINE
  5
1B9
330
2
100
AcDbEntity
  8
0
100
AcDbLine
 10
-59.96878060384659
 20
634.8149265206897
 30
0.0
 11
-59.96878060384659
 21
633.8149265206896
 31
0.0
  0
LINE
  5
1BA
330
2
100
AcDbEntity
  8
0
100
AcDbLine
 10
-26.46878060384663
 20
634.8149265206897
 30
0.0
 11
-26.46878060384665
 21
633.8149265206896
 31
0.0
  0
LINE
  5
1BB
330
2
100
AcDbEntity
  8
0
100
AcDbLine
 10
-55.71878060384661
 20
642.3149265206898
 30
0.0
 11
-30.71878060384654
 21
642.3149265206898
 31
0.0
  0
LINE
  5
1BC
330
2
100
AcDbEntity
  8
0
100
AcDbLine
 10
-55.71878060384661
 20
647.3149265206897
 30
0.0
 11
-30.71878060384654
 21
647.3149265206897
 31
0.0
  0
LINE
  5
1BD
330
2
100
AcDbEntity
  8
0
100
AcDbLine
 10
-31.71878060384654
 20
641.3149265206897
 30
0.0
 11
-30.71878060384654
 21
642.3149265206898
 31
0.0
  0
LINE
  5
1BE
330
2
100
AcDbEntity
  8
0
100
AcDbLine
 10
-30.71878060384654
 20
642.8149265206897
 30
0.0
 11
-30.71878060384654
 21
642.3149265206898
 31
0.0
  0
LINE
  5
1BF
330
2
100
AcDbEntity
  8
0
100
AcDbLine
 10
-54.7187806038466
 20
641.3149265206897
 30
0.0
 11
-55.71878060384661
 21
642.3149265206898
 31
0.0
  0
LINE
  5
1C0
330
2
100
AcDbEntity
  8
0
100
AcDbLine
 10
-54.71878060384655
 20
641.3149265206897
 30
0.0
 11
-31.7187806038466
 21
641.3149265206897
 31
0.0
  0
LINE
  5
1C1
330
2
100
AcDbEntity
  8
0
100
AcDbLine
 10
-59.96878060384661
 20
633.8149265206898
 30
0.0
 11
-26.46878060384657
 21
633.8149265206896
 31
0.0
  0
LINE
  5
1C2
330
2
100
AcDbEntity
  8
0
100
AcDbLine
 10
-59.96878060384659
 20
634.8149265206897
 30
0.0
 11
-26.46878060384663
 21
634.8149265206897
 31
0.0
  0
LINE
  5
1C3
330
2
100
AcDbEntity
  8
0
100
AcDbLine
 10
-57.21878060384661
 20
637.8149265206896
 30
0.0
 11
-29.2187806038466
 21
637.8149265206898
 31
0.0
  0
ARC
  5
1C4
330
2
100
AcDbEntity
  8
0
100
AcDbCircle
 10
-67.2187806038466
 20
477.3149265206897
 30
0.0
 40
10.0
100
AcDbArc
 50
180.0
 51
270.0
  0
LINE
  5
1C5
330
2
100
AcDbEntity
  8
0
100
AcDbLine
 10
-67.2187806038466
 20
467.3149265206896
 30
0.0
 11
-19.21878060384662
 21
467.3149265206897
 31
0.0
  0
LINE
  5
1C6
330
2
100
AcDbEntity
  8
0
100
AcDbLine
 10
-54.71878060384658
 20
641.3149265206897
 30
0.0
 11
-54.7187806038466
 21
637.8149265206896
 31
0.0
  0
LINE
  5
1C7
330
2
100
AcDbEntity
  8
0
100
AcDbLine
 10
-31.7187806038466
 20
641.3149265206897
 30
0.0
 11
-31.7187806038466
 21
637.8149265206898
 31
0.0
  0
LINE
  5
1C8
330
2
100
AcDbEntity
  8
0
100
AcDbLine
 10
-55.71878060384661
 20
642.8149265206897
 30
0.0
 11
-55.71878060384661
 21
642.3149265206898
 31
0.0
  0
LINE
  5
1C9
330
2
100
AcDbEntity
  8
0
100
AcDbLine
 10
-54.96878060384659
 20
655.3149265206897
 30
0.0
 11
-31.4687806038466
 21
655.3149265206897
 31
0.0
  0
LINE
  5
1CA
330
2
100
AcDbEntity
  8
0
100
AcDbLine
 10
-55.9687806038466
 20
654.3149265206896
 30
0.0
 11
-30.4687806038466
 21
654.3149265206896
 31
0.0
  0
LINE
  5
1CB
330
2
100
AcDbEntity
  8
0
100
AcDbLine
 10
-57.2187806038466
 20
653.3149265206898
 30
0.0
 11
-29.2187806038466
 21
653.3149265206898
 31
0.0
  0
ARC
  5
1CC
330
2
100
AcDbEntity
  8
0
100
AcDbCircle
 10
-30.4687806038466
 20
653.3149265206897
 30
0.0
 40
1.0
100
AcDbArc
 50
0.0
 51
90.0
  0
ARC
  5
1CD
330
2
100
AcDbEntity
  8
0
100
AcDbCircle
 10
-30.4687806038466
 20
655.3149265206897
 30
0.0
 40
1.0
100
AcDbArc
 50
180.0
 51
270.0
  0
ARC
  5
1CE
330
2
100
AcDbEntity
  8
0
100
AcDbCircle
 10
-53.9687806038466
 20
661.8149265206897
 30
0.0
 40
1.0
100
AcDbArc
 50
90.0
 51
180.0
  0
LINE
  5
1CF
330
2
100
AcDbEntity
  8
0
100
AcDbLine
 10
-54.96878060384659
 20
661.8149265206897
 30
0.0
 11
-54.96878060384659
 21
655.3149265206897
 31
0.0
  0
ARC
  5
1D0
330
2
100
AcDbEntity
  8
0
100
AcDbCircle
 10
-32.46878060384657
 20
661.8149265206897
 30
0.0
 40
1.0
100
AcDbArc
 50
0.0
 51
90.0
  0
LINE
  5
1D1
330
2
100
AcDbEntity
  8
0
100
AcDbLine
 10
-31.46878060384657
 20
661.8149265206897
 30
0.0
 11
-31.4687806038466
 21
655.3149265206897
 31
0.0
  0
LINE
  5
1D2
330
2
100
AcDbEntity
  8
0
100
AcDbLine
 10
-56.96878060384659
 20
647.3149265206897
 30
0.0
 11
-56.96878060384659
 21
643.8149265206897
 31
0.0
  0
ARC
  5
1D3
330
2
100
AcDbEntity
  8
0
100
AcDbCircle
 10
-30.4687806038466
 20
643.8149265206897
 30
0.0
 40
1.0
100
AcDbArc
 50
270.0
 51
0.0
  0
LINE
  5
1D4
330
2
100
AcDbEntity
  8
0
100
AcDbLine
 10
-29.4687806038466
 20
647.3149265206897
 30
0.0
 11
-29.4687806038466
 21
643.8149265206897
 31
0.0
  0
LINE
  5
1D5
330
2
100
AcDbEntity
  8
0
100
AcDbLine
 10
-57.2187806038466
 20
653.3149265206898
 30
0.0
 11
-57.21878060384658
 21
647.3149265206897
 31
0.0
  0
LINE
  5
1D6
330
2
100
AcDbEntity
  8
0
100
AcDbLine
 10
-29.2187806038466
 20
653.3149265206898
 30
0.0
 11
-29.2187806038466
 21
647.3149265206897
 31
0.0
  0
LINE
  5
1D7
330
2
100
AcDbEntity
  8
0
100
AcDbLine
 10
-57.21878060384661
 20
637.8149265206896
 30
0.0
 11
-57.21878060384661
 21
634.8149265206897
 31
0.0
  0
LINE
  5
1D8
330
2
100
AcDbEntity
  8
0
100
AcDbLine
 10
-29.2187806038466
 20
637.8149265206898
 30
0.0
 11
-29.2187806038466
 21
634.8149265206897
 31
0.0
  0
LINE
  5
1D9
330
2
100
AcDbEntity
  8
05-01
100
AcDbLine
 10
-43.21878060384659
 20
665.3629335289432
 30
0.0
 11
-43.21878060384659
 21
640.2372482465274
 31
0.0
  0
ARC
  5
1DA
330
2
100
AcDbEntity
  8
0
100
AcDbCircle
 10
-55.9687806038466
 20
653.3149265206897
 30
0.0
 40
1.0
100
AcDbArc
 50
90.0
 51
180.0
  0
ARC
  5
1DB
330
2
100
AcDbEntity
  8
0
100
AcDbCircle
 10
-55.9687806038466
 20
655.3149265206897
 30
0.0
 40
1.0
100
AcDbArc
 50
270.0
 51
0.0
  0
LINE
  5
1DC
330
2
100
AcDbEntity
  8
0
100
AcDbLine
 10
-57.21878060384658
 20
647.3149265206897
 30
0.0
 11
-29.2187806038466
 21
647.3149265206897
 31
0.0
  0
ARC
  5
1DD
330
2
100
AcDbEntity
  8
0
100
AcDbCircle
 10
-55.9687806038466
 20
643.8149265206897
 30
0.0
 40
1.0
100
AcDbArc
 50
180.0
 51
270.0
  0
LINE
  5
1DE
330
2
100
AcDbEntity
  8
0
100
AcDbLine
 10
-55.9687806038466
 20
642.8149265206897
 30
0.0
 11
-30.4687806038466
 21
642.8149265206897
 31
0.0
  0
LINE
  5
1DF
330
2
100
AcDbEntity
  8
0
100
AcDbLine
 10
-53.9687806038466
 20
662.8149265206896
 30
0.0
 11
-32.46878060384657
 21
662.8149265206896
 31
0.0
  0
DIMENSION
  5
1E0
330
2
100
AcDbEntity
  8
0
100
AcDbDimension
280
     0
  2
*D7
 10
14.0377097400457
 20
675.3149265206896
 30
0.0
 11
7.11331978506314
 21
649.1529453175185
 31
0.0
 70
   128
  1
max.<>
 71
     5
 42
40.00000000000011
 73
     0
 74
     0
 75
     0
  3
Wagner$0
100
AcDbAlignedDimension
 13
-17.30205310575502
 23
715.3149265206897
 33
0.0
 14
-23.4687806038466
 24
675.3149265206896
 34
0.0
 50
90.0
100
AcDbRotatedDimension
1001
ACAD
1000
DSTYLE
1002
{
1070
    40
1040
3.5
1070
   271
1070
     1
1070
   272
1070
     1
1002
}
  0
LINE
  5
1ED
330
2
100
AcDbEntity
  8
0
100
AcDbLine
 10
-36.29057737357107
 20
667.1149265206897
 30
0.0
 11
-36.29057737357104
 21
674.1149265206898
 31
0.0
  0
LINE
  5
1EE
330
2
100
AcDbEntity
  8
0
100
AcDbLine
 10
-50.14698383412209
 20
667.1149265206897
 30
0.0
 11
-50.14698383412211
 21
674.1149265206896
 31
0.0
  0
LINE
  5
1EF
330
2
100
AcDbEntity
  8
0
100
AcDbLine
 10
-29.36237414329557
 20
667.1149265206897
 30
0.0
 11
-29.36237414329557
 21
674.1149265206898
 31
0.0
  0
LINE
  5
1F0
330
2
100
AcDbEntity
  8
0
100
AcDbLine
 10
-57.07518706439761
 20
667.1149265206897
 30
0.0
 11
-57.0751870643976
 21
674.1149265206898
 31
0.0
  0
ARC
  5
1F1
330
2
100
AcDbEntity
  8
0
100
AcDbCircle
 10
-28.7187806038466
 20
716.0649265206898
 30
0.0
 40
1.75
100
AcDbArc
 50
205.3769335251534
 51
334.6230664748466
  0
LINE
  5
1F2
330
2
100
AcDbEntity
  8
0
100
AcDbLine
 10
-57.7187806038466
 20
714.3149265206898
 30
0.0
 11
-28.7187806038466
 21
714.3149265206898
 31
0.0
  0
ARC
  5
1F3
330
2
100
AcDbEntity
  8
0
100
AcDbCircle
 10
-57.7187806038466
 20
716.0649265206898
 30
0.0
 40
1.75
100
AcDbArc
 50
205.3769335251534
 51
334.6230664748465
  0
LINE
  5
1F4
330
2
100
AcDbEntity
  8
0
100
AcDbLine
 10
160.2577771913213
 20
486.3149265206897
 30
0.0
 11
160.2577771913213
 21
652.3149265206897
 31
0.0
  0
LINE
  5
1F5
330
2
100
AcDbEntity
  8
0
100
AcDbLine
 10
169.2577771913213
 20
477.3149265206897
 30
0.0
 11
169.2577771913212
 21
652.3149265206897
 31
0.0
  0
LINE
  5
1F6
330
2
100
AcDbEntity
  8
0
100
AcDbLine
 10
160.2577771913213
 20
486.3149265206897
 30
0.0
 11
169.2577771913213
 21
477.3149265206897
 31
0.0
  0
DIMENSION
  5
1F7
330
2
100
AcDbEntity
  8
0
100
AcDbDimension
280
     0
  2
*D6
 10
118.9316396484423
 20
652.3149265206897
 30
0.0
 11
111.0566396484422
 21
683.8149265206896
 31
0.0
 71
     5
 42
63.0
 73
     0
 74
     0
 75
     0
  3
Wagner$0
100
AcDbAlignedDimension
 13
145.7577771913213
 23
715.3149265206897
 33
0.0
 14
155.2577771913214
 24
652.3149265206897
 34
0.0
 50
90.0
100
AcDbRotatedDimension
1001
ACAD
1000
DSTYLE
1002
{
1070
    40
1040
3.5
1070
   271
1070
     1
1070
   272
1070
     1
1002
}
  0
LINE
  5
204
330
2
100
AcDbEntity
  8
0
100
AcDbLine
 10
-57.0751870643976
 20
667.1149265206897
 30
0.0
 11
-29.36237414329557
 21
667.1149265206897
 31
0.0
  0
LINE
  5
205
330
2
100
AcDbEntity
  8
0
100
AcDbLine
 10
-62.96878060384658
 20
674.1149265206898
 30
0.0
 11
-23.4687806038466
 21
674.1149265206898
 31
0.0
  0
LINE
  5
206
330
2
100
AcDbEntity
  8
0
100
AcDbLine
 10
-62.96878060384658
 20
675.3149265206896
 30
0.0
 11
-23.4687806038466
 21
675.3149265206896
 31
0.0
  0
LINE
  5
207
330
2
100
AcDbEntity
  8
0
100
AcDbLine
 10
-68.21878060384671
 20
715.3149265206897
 30
0.0
 11
-18.2187806038466
 21
715.3149265206897
 31
0.0
  0
DIMENSION
  5
208
330
2
100
AcDbEntity
  8
0
100
AcDbDimension
280
     0
  2
*D5
 10
-108.051564112921
 20
912.8149265206896
 30
0.0
 11
-115.9265641129211
 21
914.6848840717664
 31
0.0
 70
   128
 71
     5
 42
10.0
 73
     0
 74
     0
 75
     0
  3
Wagner$0
100
AcDbAlignedDimension
 13
-62.01878060384666
 23
922.8149265206896
 33
0.0
 14
-62.01878060384666
 24
912.8149265206896
 34
0.0
 50
90.0
100
AcDbRotatedDimension
1001
ACAD
1000
DSTYLE
1002
{
1070
    40
1040
3.5
1070
   271
1070
     1
1070
   272
1070
     1
1002
}
  0
DIMENSION
  5
217
330
2
100
AcDbEntity
  8
0
100
AcDbDimension
280
     0
  2
*D4
 10
-108.051564112921
 20
897.8149265206896
 30
0.0
 11
-115.9265641129211
 21
876.8149265206897
 31
0.0
 71
     5
 42
42.0
 73
     0
 74
     0
 75
     0
  3
Wagner$0
100
AcDbAlignedDimension
 13
-62.21878060384662
 23
855.8149265206896
 33
0.0
 14
-62.01878060384666
 24
897.8149265206896
 34
0.0
 50
90.0
100
AcDbRotatedDimension
1001
ACAD
1000
DSTYLE
1002
{
1070
    40
1040
3.5
1070
   271
1070
     1
1070
   272
1070
     1
1002
}
  0
ARC
  5
224
330
2
100
AcDbEntity
  8
0
100
AcDbCircle
 10
-43.2187806038465
 20
924.3892441717592
 30
0.0
 40
12.00691625344403
100
AcDbArc
 50
254.2941700406267
 51
285.7058299593715
  0
ARC
  5
225
330
2
100
AcDbEntity
  8
0
100
AcDbCircle
 10
-43.2187806038465
 20
925.4245203521694
 30
0.0
 40
12.00691625344403
100
AcDbArc
 50
254.2941700406267
 51
285.7058299593715
  0
ARC
  5
226
330
2
100
AcDbEntity
  8
0
100
AcDbCircle
 10
-43.2187806038465
 20
907.4513335939501
 30
0.0
 40
7.191015376166995
100
AcDbArc
 50
63.12869305729588
 51
116.8713069427059
  0
ELLIPSE
  5
227
330
2
100
AcDbEntity
  8
0
100
AcDbEllipse
 10
-43.21878060384661
 20
912.8999660085204
 30
0.0
 11
-0.8999999999999772
 21
0.0
 31
0.0
210
0.0
220
0.0
230
1.0
 40
0.2588190451025603
 41
0.0
 42
6.283185307179586
  0
ARC
  5
228
330
2
100
AcDbEntity
  8
0
100
AcDbCircle
 10
-43.2187806038465
 20
915.1075324907075
 30
0.0
 40
4.92516645576372
100
AcDbArc
 50
228.7056525662938
 51
311.2943474337062
  0
LINE
  5
229
330
2
100
AcDbEntity
  8
0
100
AcDbLine
 10
-39.96852758063545
 20
914.5129394475659
 30
0.0
 11
-39.96852758063534
 21
911.4071109063354
 31
0.0
  0
LINE
  5
22A
330
2
100
AcDbEntity
  8
0
100
AcDbLine
 10
-46.46903362705787
 20
914.5129394475659
 30
0.0
 11
-46.46903362705787
 21
911.4071109063356
 31
0.0
  0
ELLIPSE
  5
22B
330
2
100
AcDbEntity
  8
0
100
AcDbEllipse
 10
-43.21878060384604
 20
914.5129394475665
 30
0.0
 11
-3.250253023211769
 21
-0.0000000000005363
 31
0.0
210
0.0
220
0.0
230
1.0
 40
0.2252288675190241
 41
3.141592653589992
 42
6.283185307179787
  0
LINE
  5
22C
330
2
100
AcDbEntity
  8
0
100
AcDbLine
 10
-39.96852758063545
 20
911.4071109063356
 30
0.0
 11
-46.46903362705787
 21
911.4071109063356
 31
0.0
  0
ELLIPSE
  5
22D
330
2
100
AcDbEntity
  8
03-01
100
AcDbEllipse
 10
-43.21878060384659
 20
877.8149265206895
 30
0.0
 11
0.0
 21
4.658742811845513
 31
0.0
210
0.0
220
0.0
230
-1.0
 40
0.9659258262890391
 41
4.712388980384689
 42
7.853981633974482
  0
LINE
  5
22E
330
2
100
AcDbEntity
  8
0
100
AcDbLine
 10
-38.7187806038466
 20
877.8149265206895
 30
0.0
 11
-38.7187806038466
 21
917.7349370277321
 31
0.0
  0
LINE
  5
22F
330
2
100
AcDbEntity
  8
0
100
AcDbLine
 10
-47.7187806038466
 20
877.8149265206895
 30
0.0
 11
-47.7187806038466
 21
917.7349370277321
 31
0.0
  0
ELLIPSE
  5
230
330
2
100
AcDbEntity
  8
0
100
AcDbEllipse
 10
-43.21878060384661
 20
917.7349370277321
 30
0.0
 11
-0.0000000000002322
 21
4.658742811845399
 31
0.0
210
0.0
220
0.0
230
1.0
 40
0.9659258262890951
 41
3.948683780691385
 42
8.617686833668063
  0
LINE
  5
231
330
2
100
AcDbEntity
  8
0
100
AcDbLine
 10
145.9577771913213
 20
922.8149265206896
 30
0.0
 11
183.5577771913214
 21
922.8149265206896
 31
0.0
  0
LINE
  5
232
330
2
100
AcDbEntity
  8
0
100
AcDbLine
 10
183.7577771913213
 20
922.6149265206897
 30
0.0
 11
145.7577771913213
 21
922.6149265206897
 31
0.0
  0
LINE
  5
233
330
2
100
AcDbEntity
  8
0
100
AcDbLine
 10
145.9577771913213
 20
922.8149265206896
 30
0.0
 11
145.7577771913213
 21
922.6149265206897
 31
0.0
  0
LINE
  5
234
330
2
100
AcDbEntity
  8
0
100
AcDbLine
 10
183.7577771913213
 20
922.6149265206897
 30
0.0
 11
183.5577771913214
 21
922.8149265206896
 31
0.0
  0
LINE
  5
235
330
2
100
AcDbEntity
  8
0
100
AcDbLine
 10
183.7577771913213
 20
913.0149265206897
 30
0.0
 11
183.5577771913214
 21
912.8149265206896
 31
0.0
  0
LINE
  5
236
330
2
100
AcDbEntity
  8
0
100
AcDbLine
 10
145.9577771913213
 20
912.8149265206896
 30
0.0
 11
145.7577771913213
 21
913.0149265206897
 31
0.0
  0
LINE
  5
237
330
2
100
AcDbEntity
  8
0
100
AcDbLine
 10
145.7577771913213
 20
913.0149265206897
 30
0.0
 11
183.7577771913213
 21
913.0149265206895
 31
0.0
  0
LINE
  5
238
330
2
100
AcDbEntity
  8
0
100
AcDbLine
 10
145.9577771913213
 20
912.8149265206896
 30
0.0
 11
183.5577771913214
 21
912.8149265206896
 31
0.0
  0
LINE
  5
239
330
2
100
AcDbEntity
  8
0
100
AcDbLine
 10
183.7577771913213
 20
913.0149265206895
 30
0.0
 11
183.7577771913213
 21
922.6149265206897
 31
0.0
  0
LINE
  5
23A
330
2
100
AcDbEntity
  8
0
100
AcDbLine
 10
145.7577771913213
 20
922.6149265206897
 30
0.0
 11
145.7577771913213
 21
913.0149265206895
 31
0.0
  0
LINE
  5
23B
330
2
100
AcDbEntity
  8
0
100
AcDbLine
 10
151.7577771913215
 20
898.3149265206897
 30
0.0
 11
177.7577771913213
 21
898.3149265206897
 31
0.0
  0
ARC
  5
23C
330
2
100
AcDbEntity
  8
0
100
AcDbCircle
 10
178.2577771913213
 20
898.3149265206897
 30
0.0
 40
0.5
100
AcDbArc
 50
180.0
 51
270.0
  0
LINE
  5
23D
330
2
100
AcDbEntity
  8
0
100
AcDbLine
 10
177.7577771913213
 20
905.6149265206896
 30
0.0
 11
151.7577771913213
 21
905.6149265206896
 31
0.0
  0
LINE
  5
23E
330
2
100
AcDbEntity
  8
0
100
AcDbLine
 10
151.9577771913213
 20
905.8149265206896
 30
0.0
 11
151.7577771913213
 21
905.6149265206896
 31
0.0
  0
LINE
  5
23F
330
2
100
AcDbEntity
  8
0
100
AcDbLine
 10
177.7577771913213
 20
905.6149265206896
 30
0.0
 11
177.5577771913214
 21
905.8149265206896
 31
0.0
  0
ARC
  5
240
330
2
100
AcDbEntity
  8
0
100
AcDbCircle
 10
151.2577771913215
 20
898.3149265206897
 30
0.0
 40
0.5
100
AcDbArc
 50
270.0
 51
0.0
  0
LINE
  5
241
330
2
100
AcDbEntity
  8
0
100
AcDbLine
 10
151.7577771913215
 20
898.3149265206897
 30
0.0
 11
151.7577771913213
 21
905.6149265206896
 31
0.0
  0
LINE
  5
242
330
2
100
AcDbEntity
  8
0
100
AcDbLine
 10
177.7577771913213
 20
898.3149265206897
 30
0.0
 11
177.7577771913213
 21
905.6149265206896
 31
0.0
  0
LINE
  5
243
330
2
100
AcDbEntity
  8
0
100
AcDbLine
 10
157.7577771913215
 20
905.8149265206896
 30
0.0
 11
157.7577771913214
 21
912.8149265206896
 31
0.0
  0
LINE
  5
244
330
2
100
AcDbEntity
  8
0
100
AcDbLine
 10
171.7577771913212
 20
905.8149265206896
 30
0.0
 11
171.7577771913212
 21
912.8149265206896
 31
0.0
  0
LINE
  5
245
330
2
100
AcDbEntity
  8
0
100
AcDbLine
 10
151.9577771913213
 20
912.8149265206896
 30
0.0
 11
177.5577771913214
 21
912.8149265206896
 31
0.0
  0
LINE
  5
246
330
2
100
AcDbEntity
  8
0
100
AcDbLine
 10
151.9577771913213
 20
905.8149265206896
 30
0.0
 11
177.5577771913214
 21
905.8149265206896
 31
0.0
  0
LINE
  5
247
330
2
100
AcDbEntity
  8
0
100
AcDbLine
 10
145.7577771913213
 20
897.6149265206897
 30
0.0
 11
145.7577771913213
 21
888.0149265206897
 31
0.0
  0
LINE
  5
248
330
2
100
AcDbEntity
  8
0
100
AcDbLine
 10
-62.01878060384666
 20
922.8149265206896
 30
0.0
 11
-24.41878060384653
 21
922.8149265206896
 31
0.0
  0
LINE
  5
249
330
2
100
AcDbEntity
  8
0
100
AcDbLine
 10
-24.2187806038466
 20
922.6149265206897
 30
0.0
 11
-62.2187806038466
 21
922.6149265206897
 31
0.0
  0
LINE
  5
24A
330
2
100
AcDbEntity
  8
0
100
AcDbLine
 10
-62.01878060384666
 20
922.8149265206896
 30
0.0
 11
-62.2187806038466
 21
922.6149265206897
 31
0.0
  0
LINE
  5
24B
330
2
100
AcDbEntity
  8
0
100
AcDbLine
 10
-24.2187806038466
 20
922.6149265206897
 30
0.0
 11
-24.41878060384653
 21
922.8149265206896
 31
0.0
  0
LINE
  5
24C
330
2
100
AcDbEntity
  8
0
100
AcDbLine
 10
-24.2187806038466
 20
913.0149265206897
 30
0.0
 11
-24.41878060384653
 21
912.8149265206896
 31
0.0
  0
LINE
  5
24D
330
2
100
AcDbEntity
  8
0
100
AcDbLine
 10
-62.01878060384666
 20
912.8149265206896
 30
0.0
 11
-62.2187806038466
 21
913.0149265206897
 31
0.0
  0
LINE
  5
24E
330
2
100
AcDbEntity
  8
0
100
AcDbLine
 10
-38.7187806038466
 20
913.0149265206895
 30
0.0
 11
-24.2187806038466
 21
913.0149265206895
 31
0.0
  0
LINE
  5
24F
330
2
100
AcDbEntity
  8
0
100
AcDbLine
 10
-62.2187806038466
 20
913.0149265206897
 30
0.0
 11
-47.7187806038466
 21
913.0149265206895
 31
0.0
  0
LINE
  5
250
330
2
100
AcDbEntity
  8
0
100
AcDbLine
 10
-38.71878060384663
 20
912.8149265206896
 30
0.0
 11
-24.41878060384653
 21
912.8149265206896
 31
0.0
  0
LINE
  5
251
330
2
100
AcDbEntity
  8
0
100
AcDbLine
 10
-62.01878060384666
 20
912.8149265206896
 30
0.0
 11
-47.7187806038466
 21
912.8149265206896
 31
0.0
  0
LINE
  5
252
330
2
100
AcDbEntity
  8
0
100
AcDbLine
 10
-24.2187806038466
 20
913.0149265206895
 30
0.0
 11
-24.2187806038466
 21
922.6149265206897
 31
0.0
  0
LINE
  5
253
330
2
100
AcDbEntity
  8
0
100
AcDbLine
 10
-62.21878060384671
 20
922.6149265206897
 30
0.0
 11
-62.2187806038466
 21
913.0149265206895
 31
0.0
  0
LINE
  5
254
330
2
100
AcDbEntity
  8
0
100
AcDbLine
 10
-38.75629064540539
 20
898.3149265206897
 30
0.0
 11
-30.21878060384671
 21
898.3149265206897
 31
0.0
  0
LINE
  5
255
330
2
100
AcDbEntity
  8
0
100
AcDbLine
 10
-56.21878060384648
 20
898.3149265206897
 30
0.0
 11
-47.68127056228769
 21
898.3149265206897
 31
0.0
  0
ARC
  5
256
330
2
100
AcDbEntity
  8
0
100
AcDbCircle
 10
-29.71878060384671
 20
898.3149265206897
 30
0.0
 40
0.5
100
AcDbArc
 50
180.0
 51
270.0
  0
LINE
  5
257
330
2
100
AcDbEntity
  8
0
100
AcDbLine
 10
-47.7187806038466
 20
905.6149265206896
 30
0.0
 11
-56.21878060384659
 21
905.6149265206896
 31
0.0
  0
LINE
  5
258
330
2
100
AcDbEntity
  8
0
100
AcDbLine
 10
-30.2187806038466
 20
905.6149265206896
 30
0.0
 11
-38.71878060384663
 21
905.6149265206896
 31
0.0
  0
LINE
  5
259
330
2
100
AcDbEntity
  8
0
100
AcDbLine
 10
-56.01878060384667
 20
905.8149265206896
 30
0.0
 11
-56.21878060384659
 21
905.6149265206896
 31
0.0
  0
LINE
  5
25A
330
2
100
AcDbEntity
  8
0
100
AcDbLine
 10
-30.2187806038466
 20
905.6149265206896
 30
0.0
 11
-30.41878060384653
 21
905.8149265206896
 31
0.0
  0
ELLIPSE
  5
25B
330
2
100
AcDbEntity
  8
0
100
AcDbEllipse
 10
-43.21878060384659
 20
877.8149265206895
 30
0.0
 11
0.0
 21
-4.658742811845399
 31
0.0
210
0.0
220
0.0
230
1.0
 40
0.9659258262890627
 41
4.712388980384689
 42
7.853981633974482
  0
LINE
  5
25C
330
2
100
AcDbEntity
  8
0
100
AcDbLine
 10
145.9577771913213
 20
897.8149265206896
 30
0.0
 11
183.5577771913214
 21
897.8149265206896
 31
0.0
  0
LINE
  5
25D
330
2
100
AcDbEntity
  8
0
100
AcDbLine
 10
183.7577771913213
 20
897.6149265206897
 30
0.0
 11
145.7577771913213
 21
897.6149265206897
 31
0.0
  0
LINE
  5
25E
330
2
100
AcDbEntity
  8
0
100
AcDbLine
 10
145.9577771913213
 20
897.8149265206896
 30
0.0
 11
145.7577771913213
 21
897.6149265206897
 31
0.0
  0
LINE
  5
25F
330
2
100
AcDbEntity
  8
0
100
AcDbLine
 10
183.7577771913213
 20
897.6149265206897
 30
0.0
 11
183.5577771913214
 21
897.8149265206896
 31
0.0
  0
ARC
  5
260
330
2
100
AcDbEntity
  8
0
100
AcDbCircle
 10
204.6075086292804
 20
877.9396212994511
 30
0.0
 40
21.39031649598444
100
AcDbArc
 50
167.0913760095048
 51
192.9086239904917
  0
LINE
  5
261
330
2
100
AcDbEntity
  8
0
100
AcDbLine
 10
-38.71982294479477
 20
897.8149265206896
 30
0.0
 11
-24.41878060384653
 21
897.8149265206896
 31
0.0
  0
LINE
  5
262
330
2
100
AcDbEntity
  8
0
100
AcDbLine
 10
-62.01878060384666
 20
897.8149265206896
 30
0.0
 11
-47.71773826289842
 21
897.8149265206896
 31
0.0
  0
LINE
  5
263
330
2
100
AcDbEntity
  8
0
100
AcDbLine
 10
-47.71774932958561
 20
897.6149265206897
 30
0.0
 11
-62.2187806038466
 21
897.6149265206897
 31
0.0
  0
LINE
  5
264
330
2
100
AcDbEntity
  8
0
100
AcDbLine
 10
-24.2187806038466
 20
897.6149265206897
 30
0.0
 11
-38.71981187810769
 21
897.6149265206897
 31
0.0
  0
LINE
  5
265
330
2
100
AcDbEntity
  8
0
100
AcDbLine
 10
-62.01878060384666
 20
897.8149265206896
 30
0.0
 11
-62.2187806038466
 21
897.6149265206897
 31
0.0
  0
LINE
  5
266
330
2
100
AcDbEntity
  8
0
100
AcDbLine
 10
-24.2187806038466
 20
897.6149265206897
 30
0.0
 11
-24.41878060384653
 21
897.8149265206896
 31
0.0
  0
LINE
  5
267
330
2
100
AcDbEntity
  8
0
100
AcDbLine
 10
183.7577771913213
 20
888.0149265206897
 30
0.0
 11
183.5577771913213
 21
887.8149265206896
 31
0.0
  0
LINE
  5
268
330
2
100
AcDbEntity
  8
0
100
AcDbLine
 10
145.9577771913213
 20
887.8149265206896
 30
0.0
 11
145.7577771913213
 21
888.0149265206897
 31
0.0
  0
LINE
  5
269
330
2
100
AcDbEntity
  8
0
100
AcDbLine
 10
-24.2187806038466
 20
888.0149265206897
 30
0.0
 11
-24.41878060384653
 21
887.8149265206896
 31
0.0
  0
LINE
  5
26A
330
2
100
AcDbEntity
  8
0
100
AcDbLine
 10
-62.01878060384666
 20
887.8149265206896
 30
0.0
 11
-62.2187806038466
 21
888.0149265206897
 31
0.0
  0
LINE
  5
26B
330
2
100
AcDbEntity
  8
0
100
AcDbLine
 10
174.2577771913213
 20
652.3149265206897
 30
0.0
 11
175.2577771913213
 21
653.3149265206897
 31
0.0
  0
LINE
  5
26C
330
2
100
AcDbEntity
  8
0
100
AcDbLine
 10
154.2577771913212
 20
653.3149265206897
 30
0.0
 11
155.2577771913212
 21
652.3149265206897
 31
0.0
  0
LINE
  5
26D
330
2
100
AcDbEntity
  8
0
100
AcDbLine
 10
154.2577771913212
 20
653.3149265206897
 30
0.0
 11
175.2577771913213
 21
653.3149265206897
 31
0.0
  0
LINE
  5
26E
330
2
100
AcDbEntity
  8
0
100
AcDbLine
 10
155.2577771913212
 20
652.3149265206897
 30
0.0
 11
174.2577771913213
 21
652.3149265206897
 31
0.0
  0
LINE
  5
26F
330
2
100
AcDbEntity
  8
0
 62
     4
100
AcDbLine
 10
155.2577771913212
 20
715.3149265206898
 30
0.0
 11
155.2577771913212
 21
652.3149265206897
 31
0.0
  0
LINE
  5
270
330
2
100
AcDbEntity
  8
0
100
AcDbLine
 10
154.2577771913212
 20
714.3149265206898
 30
0.0
 11
154.2577771913212
 21
653.3149265206897
 31
0.0
  0
LINE
  5
271
330
2
100
AcDbEntity
  8
0
 62
     4
100
AcDbLine
 10
174.2577771913213
 20
652.3149265206897
 30
0.0
 11
174.2577771913213
 21
715.3149265206898
 31
0.0
  0
LINE
  5
272
330
2
100
AcDbEntity
  8
0
100
AcDbLine
 10
175.2577771913213
 20
653.3149265206897
 30
0.0
 11
175.2577771913213
 21
714.3149265206898
 31
0.0
  0
LINE
  5
273
330
2
100
AcDbEntity
  8
05-01
100
AcDbLine
 10
164.7577771913212
 20
649.4978549830472
 30
0.0
 11
164.7577771913212
 21
927.7052385013504
 31
0.0
  0
ARC
  5
274
330
2
100
AcDbEntity
  8
0
100
AcDbCircle
 10
-56.71878060384648
 20
898.3149265206897
 30
0.0
 40
0.5
100
AcDbArc
 50
270.0
 51
0.0
  0
LINE
  5
275
330
2
100
AcDbEntity
  8
0
100
AcDbLine
 10
-56.21878060384648
 20
898.3149265206897
 30
0.0
 11
-56.21878060384659
 21
905.6149265206896
 31
0.0
  0
LINE
  5
276
330
2
100
AcDbEntity
  8
0
100
AcDbLine
 10
-30.2187806038466
 20
898.3149265206897
 30
0.0
 11
-30.2187806038466
 21
905.6149265206896
 31
0.0
  0
LINE
  5
277
330
2
100
AcDbEntity
  8
0
100
AcDbLine
 10
-50.21878060384648
 20
905.8149265206896
 30
0.0
 11
-50.21878060384648
 21
912.8149265206896
 31
0.0
  0
LINE
  5
278
330
2
100
AcDbEntity
  8
0
100
AcDbLine
 10
-36.2187806038466
 20
905.8149265206896
 30
0.0
 11
-36.2187806038466
 21
912.8149265206896
 31
0.0
  0
LINE
  5
279
330
2
100
AcDbEntity
  8
03-01
100
AcDbLine
 10
-47.7187806038466
 20
486.3149265206897
 30
0.0
 11
-47.71878060384659
 21
633.8149265206896
 31
0.0
  0
LINE
  5
27A
330
2
100
AcDbEntity
  8
03-01
100
AcDbLine
 10
-38.71878060384657
 20
477.3149265206897
 30
0.0
 11
-38.71878060384662
 21
633.8149265206896
 31
0.0
  0
LINE
  5
27B
330
2
100
AcDbEntity
  8
0
100
AcDbLine
 10
-62.96878060384658
 20
674.1149265206898
 30
0.0
 11
-62.96878060384658
 21
675.3149265206896
 31
0.0
  0
LINE
  5
27C
330
2
100
AcDbEntity
  8
0
100
AcDbLine
 10
-23.4687806038466
 20
674.1149265206898
 30
0.0
 11
-23.4687806038466
 21
675.3149265206896
 31
0.0
  0
LINE
  5
27D
330
2
100
AcDbEntity
  8
03-01
100
AcDbLine
 10
-53.9687806038466
 20
674.1149265206898
 30
0.0
 11
-53.96878060384661
 21
675.3149265206896
 31
0.0
  0
LINE
  5
27E
330
2
100
AcDbEntity
  8
03-01
100
AcDbLine
 10
-32.4687806038466
 20
674.1149265206898
 30
0.0
 11
-32.4687806038466
 21
675.3149265206896
 31
0.0
  0
LINE
  5
27F
330
2
100
AcDbEntity
  8
05-01
100
AcDbLine
 10
-43.21878060384659
 20
475.8977419209708
 30
0.0
 11
-43.21878060384659
 21
925.6228845650518
 31
0.0
  0
DIMENSION
  5
280
330
2
100
AcDbEntity
  8
0
100
AcDbDimension
280
     0
  2
*D3
 10
175.2577771913213
 20
624.8004474271002
 30
0.0
 11
192.5253864869964
 21
635.4696322052379
 31
0.0
 70
   128
  1
1/2"
 71
     5
 42
21.0
 73
     0
 74
     0
 75
     0
  3
Wagner$0
100
AcDbAlignedDimension
 13
154.2577771913212
 23
653.3149265206897
 33
0.0
 14
175.2577771913213
 24
653.3149265206897
 34
0.0
100
AcDbRotatedDimension
1001
ACAD
1000
DSTYLE
1002
{
1070
    40
1040
3.5
1070
   271
1070
     1
1070
   272
1070
     1
1002
}
  0
DIMENSION
  5
28F
330
2
100
AcDbEntity
  8
0
100
AcDbDimension
280
     0
  2
*D2
 10
-24.21878060384671
 20
945.2442274151819
 30
0.0
 11
-43.21878060384671
 21
953.119227415182
 31
0.0
  1
%%c<>
 71
     5
 42
38.0
 73
     0
 74
     0
 75
     0
  3
Wagner$0
100
AcDbAlignedDimension
 13
-62.21878060384671
 23
922.6149265206897
 33
0.0
 14
-24.21878060384671
 24
922.6149265206897
 34
0.0
100
AcDbRotatedDimension
1001
ACAD
1000
DSTYLE
1002
{
1070
    40
1040
3.5
1070
   271
1070
     1
1070
   272
1070
     1
1002
}
  0
DIMENSION
  5
29C
330
2
100
AcDbEntity
  8
0
100
AcDbDimension
280
     0
  2
*D1
 10
14.0377097400457
 20
715.3149265206897
 30
0.0
 11
6.162709740045589
 21
819.0649265206896
 31
0.0
 71
     5
 42
207.5
 73
     0
 74
     0
 75
     0
  3
Wagner$0
100
AcDbAlignedDimension
 13
-24.41878060384653
 23
922.8149265206896
 33
0.0
 14
-16.21628062603759
 24
715.3149265206897
 34
0.0
 50
90.0
100
AcDbRotatedDimension
1001
ACAD
1000
DSTYLE
1002
{
1070
    40
1040
3.5
1070
   271
1070
     1
1070
   272
1070
     1
1002
}
  0
LINE
  5
2A9
330
2
100
AcDbEntity
  8
0
100
AcDbLine
 10
-38.7187806038466
 20
888.0149265206895
 30
0.0
 11
-24.2187806038466
 21
888.0149265206895
 31
0.0
  0
LINE
  5
2AA
330
2
100
AcDbEntity
  8
0
100
AcDbLine
 10
-62.2187806038466
 20
888.0149265206897
 30
0.0
 11
-47.7187806038466
 21
888.0149265206895
 31
0.0
  0
LINE
  5
2AB
330
2
100
AcDbEntity
  8
0
100
AcDbLine
 10
-38.7187806038466
 20
912.8149265206896
 30
0.0
 11
-30.41878060384653
 21
912.8149265206896
 31
0.0
  0
LINE
  5
2AC
330
2
100
AcDbEntity
  8
0
100
AcDbLine
 10
-56.01878060384667
 20
912.8149265206896
 30
0.0
 11
-47.7187806038466
 21
912.8149265206896
 31
0.0
  0
LINE
  5
2AD
330
2
100
AcDbEntity
  8
0
100
AcDbLine
 10
-38.7187806038466
 20
905.8149265206896
 30
0.0
 11
-30.41878060384653
 21
905.8149265206896
 31
0.0
  0
LINE
  5
2AE
330
2
100
AcDbEntity
  8
0
100
AcDbLine
 10
-56.01878060384667
 20
905.8149265206896
 30
0.0
 11
-47.7187806038466
 21
905.8149265206896
 31
0.0
  0
LINE
  5
2AF
330
2
100
AcDbEntity
  8
0
100
AcDbLine
 10
-38.7187806038466
 20
887.8149265206896
 30
0.0
 11
-24.41878060384653
 21
887.8149265206896
 31
0.0
  0
LINE
  5
2B0
330
2
100
AcDbEntity
  8
0
100
AcDbLine
 10
-62.01878060384666
 20
887.8149265206896
 30
0.0
 11
-47.71878060384671
 21
887.8149265206896
 31
0.0
  0
LINE
  5
2B1
330
2
100
AcDbEntity
  8
0
100
AcDbLine
 10
-47.7187806038466
 20
887.6149265206896
 30
0.0
 11
-62.2187806038466
 21
887.6149265206896
 31
0.0
  0
LINE
  5
2B2
330
2
100
AcDbEntity
  8
0
100
AcDbLine
 10
-24.2187806038466
 20
887.6149265206896
 30
0.0
 11
-38.7187806038466
 21
887.6149265206896
 31
0.0
  0
LINE
  5
2B3
330
2
100
AcDbEntity
  8
03-01
100
AcDbLine
 10
-47.7187806038466
 20
486.3149265206897
 30
0.0
 11
-38.71878060384657
 21
477.3149265206897
 31
0.0
  0
LINE
  5
2B4
330
2
100
AcDbEntity
  8
0
100
AcDbLine
 10
-24.2187806038466
 20
888.0149265206895
 30
0.0
 11
-24.2187806038466
 21
897.6149265206897
 31
0.0
  0
LINE
  5
2B5
330
2
100
AcDbEntity
  8
0
100
AcDbLine
 10
-62.21878060384671
 20
897.6149265206897
 30
0.0
 11
-62.2187806038466
 21
888.0149265206895
 31
0.0
  0
LINE
  5
2B6
330
2
100
AcDbEntity
  8
0
100
AcDbLine
 10
-62.01878060384666
 20
887.8149265206896
 30
0.0
 11
-62.2187806038466
 21
887.6149265206896
 31
0.0
  0
LINE
  5
2B7
330
2
100
AcDbEntity
  8
0
100
AcDbLine
 10
-24.2187806038466
 20
887.6149265206896
 30
0.0
 11
-24.41878060384653
 21
887.8149265206896
 31
0.0
  0
LINE
  5
2B8
330
2
100
AcDbEntity
  8
0
100
AcDbLine
 10
-18.2187806038466
 20
715.3149265206897
 30
0.0
 11
-18.2187806038466
 21
722.8149265206897
 31
0.0
  0
LINE
  5
2B9
330
2
100
AcDbEntity
  8
0
100
AcDbLine
 10
-68.21878060384671
 20
722.8149265206897
 30
0.0
 11
-68.21878060384671
 21
715.3149265206897
 31
0.0
  0
LINE
  5
2BA
330
2
100
AcDbEntity
  8
0
100
AcDbLine
 10
-62.2187806038466
 20
887.6149265206896
 30
0.0
 11
-62.21878060384671
 21
722.8149265206897
 31
0.0
  0
LINE
  5
2BB
330
2
100
AcDbEntity
  8
0
100
AcDbLine
 10
-53.71878060384659
 20
667.1149265206897
 30
0.0
 11
-53.71878060384658
 21
662.8149265206896
 31
0.0
  0
LINE
  5
2BC
330
2
100
AcDbEntity
  8
0
100
AcDbLine
 10
-53.71878060384659
 20
714.3149265206898
 30
0.0
 11
-53.71878060384659
 21
675.3149265206896
 31
0.0
  0
LINE
  5
2BD
330
2
100
AcDbEntity
  8
0
100
AcDbLine
 10
-32.71878060384663
 20
675.3149265206896
 30
0.0
 11
-32.71878060384671
 21
714.3149265206898
 31
0.0
  0
LINE
  5
2BE
330
2
100
AcDbEntity
  8
0
100
AcDbLine
 10
-32.71878060384663
 20
662.8149265206896
 30
0.0
 11
-32.71878060384663
 21
667.1149265206897
 31
0.0
  0
LINE
  5
2BF
330
2
100
AcDbEntity
  8
0
100
AcDbLine
 10
145.7577771913213
 20
888.0149265206895
 30
0.0
 11
183.7577771913213
 21
888.0149265206895
 31
0.0
  0
LINE
  5
2C0
330
2
100
AcDbEntity
  8
0
100
AcDbLine
 10
145.9577771913213
 20
887.8149265206896
 30
0.0
 11
183.5577771913213
 21
887.8149265206896
 31
0.0
  0
LINE
  5
2C1
330
2
100
AcDbEntity
  8
0
100
AcDbLine
 10
183.7577771913213
 20
887.6149265206896
 30
0.0
 11
145.7577771913213
 21
887.6149265206896
 31
0.0
  0
LINE
  5
2C2
330
2
100
AcDbEntity
  8
0
100
AcDbLine
 10
183.7577771913213
 20
888.0149265206895
 30
0.0
 11
183.7577771913213
 21
897.6149265206895
 31
0.0
  0
LINE
  5
2C3
330
2
100
AcDbEntity
  8
0
100
AcDbLine
 10
145.9577771913213
 20
887.8149265206896
 30
0.0
 11
145.7577771913213
 21
887.6149265206896
 31
0.0
  0
LINE
  5
2C4
330
2
100
AcDbEntity
  8
0
100
AcDbLine
 10
183.7577771913213
 20
887.6149265206896
 30
0.0
 11
183.5577771913213
 21
887.8149265206896
 31
0.0
  0
LINE
  5
2C5
330
2
100
AcDbEntity
  8
0
100
AcDbLine
 10
183.7577771913212
 20
882.7181502324352
 30
0.0
 11
183.7577771913213
 21
887.6149265206896
 31
0.0
  0
LINE
  5
2C6
330
2
100
AcDbEntity
  8
0
100
AcDbLine
 10
183.7577771913212
 20
722.8149265206897
 30
0.0
 11
183.7577771913212
 21
873.1610923664669
 31
0.0
  0
LINE
  5
2C7
330
2
100
AcDbEntity
  8
0
100
AcDbLine
 10
145.7577771913213
 20
887.6149265206896
 30
0.0
 11
145.7577771913213
 21
722.8149265206895
 31
0.0
  0
INSERT
  5
2C8
330
2
100
AcDbEntity
  8
09-01
370
     0
100
AcDbBlockReference
 66
     1
  2
DIN A4
 10
-420.000030048942
 20
0.0000080515897025
 30
0.0
 41
4.0
 42
4.0
 43
4.0
  0
ATTRIB
  5
33B
330
2C8
100
AcDbEntity
  8
06-99
100
AcDbText
 10
45.98178695670855
 20
104.7513547891285
 30
0.0
 40
16.0
  1
Tischseifenspender WP 192-3
 41
0.9
  7
ROMANS8
100
AcDbAttribute
280
     0
  2
TEILE
 70
     0
280
     0
  0
ATTRIB
  5
33C
330
2C8
100
AcDbEntity
  8
06-99
100
AcDbText
 10
45.98178695670855
 20
77.18191399598527
 30
0.0
 40
16.0
  1

 41
0.9
  7
ROMANS8
100
AcDbAttribute
280
     0
  2
TEILE2
 70
     0
280
     0
  0
ATTRIB
  5
33D
330
2C8
100
AcDbEntity
  8
06-99
100
AcDbText
 10
345.3895448468582
 20
181.333333333333
 30
0.0
 40
13.5
  1
1:2
  7
ROMANS8
100
AcDbAttribute
280
     0
  2
:
 70
     0
280
     0
  0
ATTRIB
  5
33E
330
2C8
100
AcDbEntity
  8
06-99
100
AcDbText
 10
-48.01172880253045
 20
109.7667418721248
 30
0.0
 40
10.0
  1
Häberle
 41
0.9
  7
ROMANS8
100
AcDbAttribute
280
     0
  2
NAME
 70
     0
280
     0
  0
ATTRIB
  5
33F
330
2C8
100
AcDbEntity
  8
06-99
100
AcDbText
 10
-102.0274141924238
 20
109.8449406964446
 30
0.0
 40
10.0
  1
03.06.2014
 50
359.9144597696142
 41
0.5524647187174875
  7
ROMANS8
 72
     5
 11
-57.0410515182449
 21
109.7777778666664
 31
0.0
100
AcDbAttribute
280
     0
  2
DATUM
 70
     0
280
     0
  0
ATTRIB
  5
340
330
2C8
100
AcDbEntity
  8
06-99
100
AcDbText
 10
294.025375868633
 20
29.9715992011545
 30
0.0
 40
11.97504
  1

  7
ROMANS8
100
AcDbAttribute
280
     0
  2
ID.NR
 70
     0
280
     0
  0
ATTRIB
  5
341
330
2C8
100
AcDbEntity
  8
06-99
100
AcDbText
 10
46.9250650228422
 20
150.6666665777775
 30
0.0
 40
12.0
  1

 41
0.9
  7
ROMANS8
100
AcDbAttribute
280
     0
  2
LÄNGE
 70
     0
280
     0
  0
ATTRIB
  5
342
330
2C8
100
AcDbEntity
  8
06-99
100
AcDbText
 10
180.7232196470789
 20
150.712415481779
 30
0.0
 40
12.0
  1

 41
0.9
  7
ROMANS8
100
AcDbAttribute
280
     0
  2
BREITE
 70
     0
280
     0
  0
ATTRIB
  5
343
330
2C8
100
AcDbEntity
  8
06-99
100
AcDbText
 10
342.4363685069274
 20
150.6666666666667
 30
0.0
 40
12.375
  1

  7
ROMANS8
100
AcDbAttribute
280
     0
  2
1.0
 70
     0
280
     0
  0
ATTRIB
  5
344
330
2C8
100
AcDbEntity
  8
06-99
100
AcDbText
 10
236.5111424056107
 20
181.3333333333335
 30
0.0
 40
12.0
  1

  7
ROMANS8
 72
     1
 11
236.5111424056107
 21
181.3333333333335
 31
0.0
100
AcDbAttribute
280
     0
  2
IV
 70
     0
280
     0
  0
ATTRIB
  5
345
330
2C8
100
AcDbEntity
  8
06-99
100
AcDbText
 10
73.0989621444636
 20
181.3333333333329
 30
0.0
 40
13.5
  1
1.4301
  7
ROMANS8
100
AcDbAttribute
280
     0
  2
1.4301
 70
     0
280
     0
  0
ATTRIB
  5
346
330
2C8
100
AcDbEntity
  8
06-99
100
AcDbText
 10
164.0025355475203
 20
30.01758641741822
 30
0.0
 40
12.672
  1

 41
0.9000000000000001
  7
ROMANS8
100
AcDbAttribute
280
     0
  2
AUFTRAGS.NR.
 70
     0
280
     0
  0
ATTRIB
  5
347
330
2C8
100
AcDbEntity
  8
06-99
100
AcDbText
 10
45.99999999999988
 20
29.99999999999977
 30
0.0
 40
12.672
  1

 41
0.9000000000000001
  7
ROMANS8
100
AcDbAttribute
280
     0
  2
SONDER-NR
 70
     0
280
     0
  0
ATTRIB
  5
348
330
2C8
100
AcDbEntity
  8
06-99
100
AcDbText
 10
-234.0009960199669
 20
26.40724027703914
 30
0.0
 40
6.0
  1

 41
0.9
  7
ROMANS8
100
AcDbAttribute
280
     0
  2
ERSETZT.DURCH
 70
     0
280
     0
  0
ATTRIB
  5
349
330
2C8
100
AcDbEntity
  8
06-99
100
AcDbText
 10
-334.0021288792059
 20
26.3898255914894
 30
0.0
 40
6.0
  1

 41
0.9
  7
ROMANS8
100
AcDbAttribute
280
     0
  2
ERSETZT.FÜR
 70
     0
280
     0
  0
ATTRIB
  5
34A
330
2C8
100
AcDbEntity
  8
06-99
100
AcDbText
 10
-20.10770941424976
 20
190.6740445600317
 30
0.0
 40
5.148
  1
DIN A4
  7
ROMANS8
 72
     1
 11
-6.992566557106897
 21
190.6740445600317
 31
0.0
100
AcDbAttribute
280
     0
  2
FORMAT
 70
     0
280
     0
  0
ATTRIB
  5
34B
330
2C8
100
AcDbEntity
  8
06-99
100
AcDbText
 10
-36.05024401037489
 20
148.7878693354587
 30
0.0
 40
9.360000000000001
  1
DIN 2768
  7
ROMANS8
 72
     1
 11
-3.958815438946317
 21
148.7878693354587
 31
0.0
100
AcDbAttribute
280
     0
  2
NORM2
 70
     0
280
     0
  0
ATTRIB
  5
34C
330
2C8
100
AcDbEntity
  8
06-99
100
AcDbText
 10
-48.75310115323221
 20
164.1212026687919
 30
0.0
 40
9.360000000000001
  1
DIN 6930-M
  7
ROMANS8
 72
     1
 11
-5.964529724660792
 21
164.1212026687919
 31
0.0
100
AcDbAttribute
280
     0
  2
NORM1
 70
     0
280
     0
  0
SEQEND
  5
34D
330
2C8
100
AcDbEntity
  8
09-01
370
     0
  0
ENDSEC
  0
SECTION
  2
OBJECTS
  0
DICTIONARY
  5
B
330
0
100
AcDbDictionary
281
     1
  3
ACAD_COLOR
350
4D
  3
ACAD_GROUP
350
3A
  3
ACAD_LAYOUT
350
18
  3
ACAD_MATERIAL
350
D
  3
ACAD_MLEADERSTYLE
350
50
  3
ACAD_MLINESTYLE
350
3B
  3
ACAD_PLOTSETTINGS
350
3C
  3
ACAD_PLOTSTYLENAME
350
A
  3
ACAD_SCALELIST
350
4E
  3
ACAD_TABLESTYLE
350
4F
  3
ACAD_VISUALSTYLE
350
31
  3
ACDB_RECOMPOSE_DATA
350
35A
  3
AcDbVariableDictionary
350
350
  0
DICTIONARY
  5
32
330
2E
100
AcDbDictionary
280
     1
281
     1
  0
DICTIONARY
  5
21
330
20
100
AcDbDictionary
280
     1
281
     1
  3
ACAD_LAYERFILTERS
360
22
  3
ACAD_LAYERSTATES
360
23
  3
ACLYDICTIONARY
360
24
  0
DICTIONARY
  5
7
330
6
100
AcDbDictionary
280
     1
281
     1
  3
ADSK_XREC_LAYER_RECONCILED
360
8
  0
DICTIONARY
  5
2CA
330
2C9
100
AcDbDictionary
280
     1
281
     1
  3
ADSK_XREC_LAYER_RECONCILED
360
2CB
  0
DICTIONARY
  5
2D2
330
2D1
100
AcDbDictionary
280
     1
281
     1
  0
DICTIONARY
  5
30D
330
30C
100
AcDbDictionary
280
     1
281
     1
  0
DICTIONARY
  5
2D8
330
2D7
100
AcDbDictionary
280
     1
281
     1
  0
DICTIONARY
  5
2F8
330
2F7
100
AcDbDictionary
280
     1
281
     1
  0
DICTIONARY
  5
D4
330
D3
100
AcDbDictionary
280
     1
281
     1
  0
DICTIONARY
  5
BA
330
B9
100
AcDbDictionary
280
     1
281
     1
  0
DICTIONARY
  5
3
330
2
100
AcDbDictionary
280
     1
281
     1
  3
ACAD_SORTENTS
360
34F
  0
DICTIONARY
  5
2CD
330
2CC
100
AcDbDictionary
280
     1
281
     1
  3
ACAD_SORTENTS
360
34E
  0
DICTIONARY
  5
4D
102
{ACAD_REACTORS
330
B
102
}
330
B
100
AcDbDictionary
281
     1
  0
DICTIONARY
  5
3A
102
{ACAD_REACTORS
330
B
102
}
330
B
100
AcDbDictionary
281
     1
  0
DICTIONARY
  5
18
102
{ACAD_REACTORS
330
B
102
}
330
B
100
AcDbDictionary
281
     1
  3
Layout1
350
1F
  3
Model
350
17
  0
DICTIONARY
  5
D
102
{ACAD_REACTORS
330
B
102
}
330
B
100
AcDbDictionary
281
     1
  3
ByBlock
350
45
  3
ByLayer
350
3D
  3
Global
350
C
  0
DICTIONARY
  5
50
102
{ACAD_REACTORS
330
B
102
}
330
B
100
AcDbDictionary
281
     1
  0
DICTIONARY
  5
3B
102
{ACAD_REACTORS
330
B
102
}
330
B
100
AcDbDictionary
281
     1
  3
Standard
350
51
  0
DICTIONARY
  5
3C
102
{ACAD_REACTORS
330
B
102
}
330
B
100
AcDbDictionary
281
     1
  0
ACDBDICTIONARYWDFLT
  5
A
102
{ACAD_REACTORS
330
B
102
}
330
B
100
AcDbDictionary
281
     1
  3
Normal
350
9
100
AcDbDictionaryWithDefault
340
9
  0
DICTIONARY
  5
4E
102
{ACAD_REACTORS
330
B
102
}
330
B
100
AcDbDictionary
281
     1
  3
A0
350
56
  3
A1
350
57
  3
A2
350
58
  3
A3
350
59
  3
A4
350
5A
  3
A5
350
5B
  3
A6
350
5C
  3
A7
350
5D
  3
A8
350
5E
  3
A9
350
5F
  3
B0
350
60
  3
B1
350
61
  3
B2
350
62
  3
B3
350
63
  3
B4
350
64
  3
B5
350
65
  3
B6
350
66
  3
B7
350
67
  3
B8
350
68
  3
B9
350
69
  3
C0
350
6A
  3
C1
350
6B
  3
C2
350
6C
  3
C3
350
6D
  3
C4
350
6E
  3
C5
350
6F
  3
C6
350
70
  3
C7
350
71
  3
C8
350
72
  3
C9
350
73
  3
D0
350
74
  3
D1
350
75
  3
D2
350
76
  0
DICTIONARY
  5
4F
102
{ACAD_REACTORS
330
B
102
}
330
B
100
AcDbDictionary
281
     1
  3
Standard
350
52
  0
DICTIONARY
  5
31
102
{ACAD_REACTORS
330
B
102
}
330
B
100
AcDbDictionary
281
     1
  3
2dWireframe
350
30
  3
3dWireframe
350
55
  3
Realistic
350
54
  0
XRECORD
  5
35A
102
{ACAD_REACTORS
330
B
102
}
330
B
100
AcDbXrecord
280
     1
 90
        1
330
52
  0
DICTIONARY
  5
350
102
{ACAD_REACTORS
330
B
102
}
330
B
100
AcDbDictionary
281
     1
  3
CANNOSCALE
350
354
  3
CMLEADERSTYLE
350
352
  3
CTABLESTYLE
350
351
  3
LAYEREVAL
350
356
  3
LAYERNOTIFY
350
357
  3
LIGHTINGUNITS
350
355
  3
MSLTSCALE
350
353
  0
DICTIONARY
  5
22
102
{ACAD_REACTORS
330
21
102
}
330
21
100
AcDbDictionary
281
     1
  0
DICTIONARY
  5
23
102
{ACAD_REACTORS
330
21
102
}
330
21
100
AcDbDictionary
281
     1
  0
DICTIONARY
  5
24
102
{ACAD_REACTORS
330
21
102
}
330
21
100
AcDbDictionary
281
     1
1001
ACAD
1000
<All
  0
XRECORD
  5
8
102
{ACAD_REACTORS
330
7
102
}
330
7
100
AcDbXrecord
280
     1
290
     1
  0
XRECORD
  5
2CB
102
{ACAD_REACTORS
330
2CA
102
}
330
2CA
100
AcDbXrecord
280
     1
290
     1
  0
SORTENTSTABLE
  5
34F
102
{ACAD_REACTORS
330
3
102
}
330
3
100
AcDbSortentsTable
330
2
331
1A5
  5
274
331
1DC
  5
249
331
217
  5
234
331
256
  5
1CF
331
1D8
  5
24D
331
252
  5
1D3
331
B7
  5
2BC
331
77
  5
2C8
331
B3
  5
2C0
331
EA
  5
28F
331
2C8
  5
77
331
24E
  5
1D7
331
1D4
  5
251
331
24A
  5
1DB
331
1D0
  5
255
331
1CC
  5
259
331
207
  5
236
331
246
  5
1DF
331
1C8
  5
25D
331
242
  5
1EF
331
DA
  5
2AB
331
2C4
  5
95
331
2C0
  5
B3
331
27D
  5
112
331
2BC
  5
B7
331
2B8
  5
BE
331
279
  5
155
331
23E
  5
1F3
331
1C4
  5
261
331
23A
  5
1F7
331
1C0
  5
265
331
1BC
  5
269
331
1F7
  5
23A
331
236
  5
207
331
1B8
  5
26D
331
1F3
  5
23E
331
232
  5
225
331
D6
  5
2AF
331
D2
  5
2B0
331
148
  5
27A
331
CE
  5
2B4
331
105
  5
27E
331
275
  5
198
331
2B4
  5
CE
331
271
  5
1B4
331
2B0
  5
D2
331
26D
  5
1B8
331
2AC
  5
D9
331
269
  5
1BC
331
22E
  5
229
331
1B4
  5
271
331
1EF
  5
242
331
22A
  5
22D
331
171
  5
278
331
226
  5
231
331
BE
  5
2B8
331
265
  5
1C0
331
261
  5
1C4
331
25D
  5
1C8
331
29C
  5
E9
331
259
  5
1CC
331
1DF
  5
246
331
1DB
  5
24A
331
255
  5
1D0
331
198
  5
275
331
251
  5
1D4
331
B6
  5
2BD
331
B2
  5
2C1
331
12C
  5
27B
331
E9
  5
29C
331
1D7
  5
24E
331
24D
  5
1D8
331
1D3
  5
252
331
1CF
  5
256
331
249
  5
1DC
331
1CB
  5
25A
331
206
  5
237
331
245
  5
1E0
331
241
  5
1F0
331
A2
  5
2C3
331
D9
  5
2AC
331
2C7
  5
78
331
2C3
  5
A2
331
280
  5
EB
331
2BF
  5
B4
331
27C
  5
11F
331
2BB
  5
B8
331
278
  5
171
331
1C7
  5
25E
331
23D
  5
1F4
331
1C3
  5
262
331
239
  5
204
331
1BF
  5
266
331
1BB
  5
26A
331
1F6
  5
23B
331
235
  5
208
331
1F2
  5
23F
331
231
  5
226
331
D1
  5
2B1
331
CD
  5
2B5
331
2B7
  5
BF
331
274
  5
1A5
331
2B3
  5
CF
331
270
  5
1B5
331
2AF
  5
D6
331
26C
  5
1B9
331
2AB
  5
DA
331
268
  5
1BD
331
1B7
  5
26E
331
22D
  5
22A
331
1B3
  5
272
331
1EE
  5
243
331
229
  5
22E
331
225
  5
232
331
BD
  5
2B9
331
F8
  5
27F
331
264
  5
1C1
331
260
  5
1C5
331
25C
  5
1C9
331
258
  5
1CD
331
1DE
  5
247
331
1DA
  5
24B
331
254
  5
1D1
331
250
  5
1D5
331
B5
  5
2BE
331
B1
  5
2C2
331
28F
  5
EA
331
1D6
  5
24F
331
24C
  5
1D9
331
1D2
  5
253
331
1CE
  5
257
331
248
  5
1DD
331
18B
  5
276
331
1CA
  5
25B
331
205
  5
238
331
244
  5
1ED
331
240
  5
1F1
331
11F
  5
27C
331
DC
  5
2A9
331
D8
  5
2AD
331
2C6
  5
79
331
2C2
  5
B1
331
27F
  5
F8
331
2BE
  5
B5
331
2BA
  5
BC
331
27B
  5
12C
331
1C6
  5
25F
331
23C
  5
1F5
331
1C2
  5
263
331
1BE
  5
267
331
238
  5
205
331
1BA
  5
26B
331
1F5
  5
23C
331
234
  5
217
331
1F1
  5
240
331
230
  5
227
331
95
  5
2C4
331
D0
  5
2B2
331
CC
  5
2B6
331
2B6
  5
CC
331
277
  5
17E
331
273
  5
1B2
331
2B2
  5
D0
331
26F
  5
1B6
331
2AE
  5
D7
331
26B
  5
1BA
331
2AA
  5
DB
331
1B6
  5
26F
331
22C
  5
22B
331
1B2
  5
273
331
1ED
  5
244
331
228
  5
22F
331
224
  5
233
331
BC
  5
2BA
331
79
  5
2C6
331
B8
  5
2BB
331
267
  5
1BE
331
263
  5
1C2
331
25F
  5
1C6
331
25B
  5
1CA
331
1DD
  5
248
331
257
  5
1CE
331
1D9
  5
24C
331
253
  5
1D2
331
B4
  5
2BF
331
EB
  5
280
331
24F
  5
1D6
331
1D5
  5
250
331
24B
  5
1DA
331
1D1
  5
254
331
1CD
  5
258
331
208
  5
235
331
247
  5
1DE
331
1C9
  5
25C
331
204
  5
239
331
243
  5
1EE
331
155
  5
279
331
DB
  5
2AA
331
112
  5
27D
331
2C5
  5
88
331
2C1
  5
B2
331
27E
  5
105
331
2BD
  5
B6
331
2B9
  5
BD
331
27A
  5
148
331
23F
  5
1F2
331
1C5
  5
260
331
23B
  5
1F6
331
1C1
  5
264
331
1BD
  5
268
331
237
  5
206
331
17E
  5
277
331
1B9
  5
26C
331
1F4
  5
23D
331
233
  5
224
331
1F0
  5
241
331
D7
  5
2AE
331
CF
  5
2B3
331
88
  5
2C5
331
276
  5
18B
331
2B5
  5
CD
331
272
  5
1B3
331
2B1
  5
D1
331
26E
  5
1B7
331
2AD
  5
D8
331
2A9
  5
DC
331
26A
  5
1BB
331
1B5
  5
270
331
22F
  5
228
331
22B
  5
22C
331
227
  5
230
331
1E0
  5
245
331
BF
  5
2B7
331
78
  5
2C7
331
266
  5
1BF
331
262
  5
1C3
331
25E
  5
1C7
331
25A
  5
1CB
  0
SORTENTSTABLE
  5
34E
102
{ACAD_REACTORS
330
2CD
102
}
330
2CD
100
AcDbSortentsTable
330
2CC
  0
LAYOUT
  5
1F
102
{ACAD_REACTORS
330
18
102
}
330
18
100
AcDbPlotSettings
  1

  2

  4

  6

 40
0.0
 41
0.0
 42
0.0
 43
0.0
 44
0.0
 45
0.0
 46
0.0
 47
0.0
 48
0.0
 49
0.0
140
0.0
141
0.0
142
1.0
143
1.0
 70
     0
 72
     0
 73
     0
 74
     0
  7

 75
     0
147
1.0
 76
     0
 77
     2
 78
   300
148
0.0
149
0.0
100
AcDbLayout
  1
Layout1
 70
     1
 71
     1
 10
0.0
 20
0.0
 11
12.0
 21
9.0
 12
0.0
 22
0.0
 32
0.0
 14
1.000000000000000E+20
 24
1.000000000000000E+20
 34
1.000000000000000E+20
 15
-1.000000000000000E+20
 25
-1.000000000000000E+20
 35
-1.000000000000000E+20
146
0.0
 13
0.0
 23
0.0
 33
0.0
 16
1.0
 26
0.0
 36
0.0
 17
0.0
 27
1.0
 37
0.0
 76
     0
330
1C
  0
LAYOUT
  5
17
102
{ACAD_XDICTIONARY
360
19
102
}
102
{ACAD_REACTORS
330
18
102
}
330
18
100
AcDbPlotSettings
  1

  2
HP LJ 9040 PS
  4
A4
  6

 40
3.174999952316284
 41
3.174999952316284
 42
3.175003051757812
 43
3.17498779296875
 44
209.8886566162109
 45
297.0530090332031
 46
0.0
 47
0.0
 48
0.0
 49
0.0
140
0.0
141
0.0
142
1.0
143
1.0
 70
 11264
 72
     0
 73
     1
 74
     0
  7

 75
     0
147
1.0
 76
     0
 77
     2
 78
   300
148
4708.653541384413
149
27.15145849164124
100
AcDbLayout
  1
Model
 70
     0
 71
     0
 10
0.0
 20
0.0
 11
0.0
 21
0.0
 12
0.0
 22
0.0
 32
0.0
 14
0.0
 24
0.0
 34
0.0
 15
0.0
 25
0.0
 35
0.0
146
0.0
 13
0.0
 23
0.0
 33
0.0
 16
0.0
 26
0.0
 36
0.0
 17
0.0
 27
0.0
 37
0.0
 76
     0
330
2
331
2F
1001
ACAD_PSEXT
1000
HP LJ 9040 PS
1000
HP LaserJet 9040 PS
1000
LPT1:
1000

1070
     0
  0
MATERIAL
  5
45
102
{ACAD_XDICTIONARY
360
46
102
}
102
{ACAD_REACTORS
330
D
102
}
330
D
100
AcDbMaterial
  1
ByBlock
 72
     0
 43
0.0208333333333333
 43
0.0
 43
0.0
 43
0.0
 43
0.0
 43
0.0208333333333333
 43
0.0
 43
0.0
 43
0.0
 43
0.0
 43
1.0
 43
0.0
 43
0.0
 43
0.0
 43
0.0
 43
1.0
 77
     0
 47
0.0208333333333333
 47
0.0
 47
0.0
 47
0.0
 47
0.0
 47
0.0208333333333333
 47
0.0
 47
0.0
 47
0.0
 47
0.0
 47
1.0
 47
0.0
 47
0.0
 47
0.0
 47
0.0
 47
1.0
171
     0
 49
0.0208333333333333
 49
0.0
 49
0.0
 49
0.0
 49
0.0
 49
0.0208333333333333
 49
0.0
 49
0.0
 49
0.0
 49
0.0
 49
1.0
 49
0.0
 49
0.0
 49
0.0
 49
0.0
 49
1.0
175
     0
142
0.0208333333333333
142
0.0
142
0.0
142
0.0
142
0.0
142
0.0208333333333333
142
0.0
142
0.0
142
0.0
142
0.0
142
1.0
142
0.0
142
0.0
142
0.0
142
0.0
142
1.0
179
     0
144
0.0208333333333333
144
0.0
144
0.0
144
0.0
144
0.0
144
0.0208333333333333
144
0.0
144
0.0
144
0.0
144
0.0
144
1.0
144
0.0
144
0.0
144
0.0
144
0.0
144
1.0
147
0.0208333333333333
147
0.0
147
0.0
147
0.0
147
0.0
147
0.0208333333333333
147
0.0
147
0.0
147
0.0
147
0.0
147
1.0
147
0.0
147
0.0
147
0.0
147
0.0
147
1.0
  0
MATERIAL
  5
3D
102
{ACAD_XDICTIONARY
360
3E
102
}
102
{ACAD_REACTORS
330
D
102
}
330
D
100
AcDbMaterial
  1
ByLayer
 72
     0
 43
0.0208333333333333
 43
0.0
 43
0.0
 43
0.0
 43
0.0
 43
0.0208333333333333
 43
0.0
 43
0.0
 43
0.0
 43
0.0
 43
1.0
 43
0.0
 43
0.0
 43
0.0
 43
0.0
 43
1.0
 77
     0
 47
0.0208333333333333
 47
0.0
 47
0.0
 47
0.0
 47
0.0
 47
0.0208333333333333
 47
0.0
 47
0.0
 47
0.0
 47
0.0
 47
1.0
 47
0.0
 47
0.0
 47
0.0
 47
0.0
 47
1.0
171
     0
 49
0.0208333333333333
 49
0.0
 49
0.0
 49
0.0
 49
0.0
 49
0.0208333333333333
 49
0.0
 49
0.0
 49
0.0
 49
0.0
 49
1.0
 49
0.0
 49
0.0
 49
0.0
 49
0.0
 49
1.0
175
     0
142
0.0208333333333333
142
0.0
142
0.0
142
0.0
142
0.0
142
0.0208333333333333
142
0.0
142
0.0
142
0.0
142
0.0
142
1.0
142
0.0
142
0.0
142
0.0
142
0.0
142
1.0
179
     0
144
0.0208333333333333
144
0.0
144
0.0
144
0.0
144
0.0
144
0.0208333333333333
144
0.0
144
0.0
144
0.0
144
0.0
144
1.0
144
0.0
144
0.0
144
0.0
144
0.0
144
1.0
147
0.0208333333333333
147
0.0
147
0.0
147
0.0
147
0.0
147
0.0208333333333333
147
0.0
147
0.0
147
0.0
147
0.0
147
1.0
147
0.0
147
0.0
147
0.0
147
0.0
147
1.0
  0
MATERIAL
  5
C
102
{ACAD_XDICTIONARY
360
E
102
}
102
{ACAD_REACTORS
330
D
102
}
330
D
100
AcDbMaterial
  1
Global
 72
     0
 43
0.0208333333333333
 43
0.0
 43
0.0
 43
0.0
 43
0.0
 43
0.0208333333333333
 43
0.0
 43
0.0
 43
0.0
 43
0.0
 43
1.0
 43
0.0
 43
0.0
 43
0.0
 43
0.0
 43
1.0
 77
     0
 47
0.0208333333333333
 47
0.0
 47
0.0
 47
0.0
 47
0.0
 47
0.0208333333333333
 47
0.0
 47
0.0
 47
0.0
 47
0.0
 47
1.0
 47
0.0
 47
0.0
 47
0.0
 47
0.0
 47
1.0
171
     0
 49
0.0208333333333333
 49
0.0
 49
0.0
 49
0.0
 49
0.0
 49
0.0208333333333333
 49
0.0
 49
0.0
 49
0.0
 49
0.0
 49
1.0
 49
0.0
 49
0.0
 49
0.0
 49
0.0
 49
1.0
175
     0
142
0.0208333333333333
142
0.0
142
0.0
142
0.0
142
0.0
142
0.0208333333333333
142
0.0
142
0.0
142
0.0
142
0.0
142
1.0
142
0.0
142
0.0
142
0.0
142
0.0
142
1.0
179
     0
144
0.0208333333333333
144
0.0
144
0.0
144
0.0
144
0.0
144
0.0208333333333333
144
0.0
144
0.0
144
0.0
144
0.0
144
1.0
144
0.0
144
0.0
144
0.0
144
0.0
144
1.0
147
0.0208333333333333
147
0.0
147
0.0
147
0.0
147
0.0
147
0.0208333333333333
147
0.0
147
0.0
147
0.0
147
0.0
147
1.0
147
0.0
147
0.0
147
0.0
147
0.0
147
1.0
  0
MLINESTYLE
  5
51
102
{ACAD_REACTORS
330
3B
102
}
330
3B
100
AcDbMlineStyle
  2
STANDARD
 70
     0
  3

 62
     0
 51
90.0
 52
90.0
 71
     2
 49
0.5
 62
   256
  6
BYLAYER
 49
-0.5
 62
   256
  6
BYLAYER
  0
ACDBPLACEHOLDER
  5
9
102
{ACAD_REACTORS
330
A
102
}
330
A
  0
SCALE
  5
56
102
{ACAD_REACTORS
330
4E
102
}
330
4E
100
AcDbScale
 70
     0
300
1:1
140
1.0
141
1.0
290
     1
  0
SCALE
  5
57
102
{ACAD_REACTORS
330
4E
102
}
330
4E
100
AcDbScale
 70
     0
300
1:2
140
1.0
141
2.0
290
     0
  0
SCALE
  5
58
102
{ACAD_REACTORS
330
4E
102
}
330
4E
100
AcDbScale
 70
     0
300
1:4
140
1.0
141
4.0
290
     0
  0
SCALE
  5
59
102
{ACAD_REACTORS
330
4E
102
}
330
4E
100
AcDbScale
 70
     0
300
1:5
140
1.0
141
5.0
290
     0
  0
SCALE
  5
5A
102
{ACAD_REACTORS
330
4E
102
}
330
4E
100
AcDbScale
 70
     0
300
1:8
140
1.0
141
8.0
290
     0
  0
SCALE
  5
5B
102
{ACAD_REACTORS
330
4E
102
}
330
4E
100
AcDbScale
 70
     0
300
1:10
140
1.0
141
10.0
290
     0
  0
SCALE
  5
5C
102
{ACAD_REACTORS
330
4E
102
}
330
4E
100
AcDbScale
 70
     0
300
1:16
140
1.0
141
16.0
290
     0
  0
SCALE
  5
5D
102
{ACAD_REACTORS
330
4E
102
}
330
4E
100
AcDbScale
 70
     0
300
1:20
140
1.0
141
20.0
290
     0
  0
SCALE
  5
5E
102
{ACAD_REACTORS
330
4E
102
}
330
4E
100
AcDbScale
 70
     0
300
1:30
140
1.0
141
30.0
290
     0
  0
SCALE
  5
5F
102
{ACAD_REACTORS
330
4E
102
}
330
4E
100
AcDbScale
 70
     0
300
1:40
140
1.0
141
40.0
290
     0
  0
SCALE
  5
60
102
{ACAD_REACTORS
330
4E
102
}
330
4E
100
AcDbScale
 70
     0
300
1:50
140
1.0
141
50.0
290
     0
  0
SCALE
  5
61
102
{ACAD_REACTORS
330
4E
102
}
330
4E
100
AcDbScale
 70
     0
300
1:100
140
1.0
141
100.0
290
     0
  0
SCALE
  5
62
102
{ACAD_REACTORS
330
4E
102
}
330
4E
100
AcDbScale
 70
     0
300
2:1
140
2.0
141
1.0
290
     0
  0
SCALE
  5
63
102
{ACAD_REACTORS
330
4E
102
}
330
4E
100
AcDbScale
 70
     0
300
4:1
140
4.0
141
1.0
290
     0
  0
SCALE
  5
64
102
{ACAD_REACTORS
330
4E
102
}
330
4E
100
AcDbScale
 70
     0
300
8:1
140
8.0
141
1.0
290
     0
  0
SCALE
  5
65
102
{ACAD_REACTORS
330
4E
102
}
330
4E
100
AcDbScale
 70
     0
300
10:1
140
10.0
141
1.0
290
     0
  0
SCALE
  5
66
102
{ACAD_REACTORS
330
4E
102
}
330
4E
100
AcDbScale
 70
     0
300
100:1
140
100.0
141
1.0
290
     0
  0
SCALE
  5
67
102
{ACAD_REACTORS
330
4E
102
}
330
4E
100
AcDbScale
 70
     0
300
1/128" = 1'-0"
140
0.0078125
141
12.0
290
     0
  0
SCALE
  5
68
102
{ACAD_REACTORS
330
4E
102
}
330
4E
100
AcDbScale
 70
     0
300
1/64" = 1'-0"
140
0.015625
141
12.0
290
     0
  0
SCALE
  5
69
102
{ACAD_REACTORS
330
4E
102
}
330
4E
100
AcDbScale
 70
     0
300
1/32" = 1'-0"
140
0.03125
141
12.0
290
     0
  0
SCALE
  5
6A
102
{ACAD_REACTORS
330
4E
102
}
330
4E
100
AcDbScale
 70
     0
300
1/16" = 1'-0"
140
0.0625
141
12.0
290
     0
  0
SCALE
  5
6B
102
{ACAD_REACTORS
330
4E
102
}
330
4E
100
AcDbScale
 70
     0
300
3/32" = 1'-0"
140
0.09375
141
12.0
290
     0
  0
SCALE
  5
6C
102
{ACAD_REACTORS
330
4E
102
}
330
4E
100
AcDbScale
 70
     0
300
1/8" = 1'-0"
140
0.125
141
12.0
290
     0
  0
SCALE
  5
6D
102
{ACAD_REACTORS
330
4E
102
}
330
4E
100
AcDbScale
 70
     0
300
3/16" = 1'-0"
140
0.1875
141
12.0
290
     0
  0
SCALE
  5
6E
102
{ACAD_REACTORS
330
4E
102
}
330
4E
100
AcDbScale
 70
     0
300
1/4" = 1'-0"
140
0.25
141
12.0
290
     0
  0
SCALE
  5
6F
102
{ACAD_REACTORS
330
4E
102
}
330
4E
100
AcDbScale
 70
     0
300
3/8" = 1'-0"
140
0.375
141
12.0
290
     0
  0
SCALE
  5
70
102
{ACAD_REACTORS
330
4E
102
}
330
4E
100
AcDbScale
 70
     0
300
1/2" = 1'-0"
140
0.5
141
12.0
290
     0
  0
SCALE
  5
71
102
{ACAD_REACTORS
330
4E
102
}
330
4E
100
AcDbScale
 70
     0
300
3/4" = 1'-0"
140
0.75
141
12.0
290
     0
  0
SCALE
  5
72
102
{ACAD_REACTORS
330
4E
102
}
330
4E
100
AcDbScale
 70
     0
300
1" = 1'-0"
140
1.0
141
12.0
290
     0
  0
SCALE
  5
73
102
{ACAD_REACTORS
330
4E
102
}
330
4E
100
AcDbScale
 70
     0
300
1-1/2" = 1'-0"
140
1.5
141
12.0
290
     0
  0
SCALE
  5
74
102
{ACAD_REACTORS
330
4E
102
}
330
4E
100
AcDbScale
 70
     0
300
3" = 1'-0"
140
3.0
141
12.0
290
     0
  0
SCALE
  5
75
102
{ACAD_REACTORS
330
4E
102
}
330
4E
100
AcDbScale
 70
     0
300
6" = 1'-0"
140
6.0
141
12.0
290
     0
  0
SCALE
  5
76
102
{ACAD_REACTORS
330
4E
102
}
330
4E
100
AcDbScale
 70
     0
300
1'-0" = 1'-0"
140
12.0
141
12.0
290
     0
  0
TABLESTYLE
  5
52
102
{ACAD_XDICTIONARY
360
53
102
}
102
{ACAD_REACTORS
330
4F
102
}
330
4F
100
AcDbTableStyle
280
     0
  3
Standard
 70
     0
 71
     0
 40
0.06
 41
0.06
280
     0
281
     0
  7
Standard
140
0.18
170
     2
 62
     0
 63
     7
283
     0
 90
      512
 91
        0
  1

274
    -2
284
     1
 64
     0
275
    -2
285
     1
 65
     0
276
    -2
286
     1
 66
     0
277
    -2
287
     1
 67
     0
278
    -2
288
     1
 68
     0
279
    -2
289
     1
 69
     0
  7
Standard
140
0.25
170
     5
 62
     0
 63
     7
283
     0
 90
      512
 91
        0
  1

274
    -2
284
     1
 64
     0
275
    -2
285
     1
 65
     0
276
    -2
286
     1
 66
     0
277
    -2
287
     1
 67
     0
278
    -2
288
     1
 68
     0
279
    -2
289
     1
 69
     0
  7
Standard
140
0.18
170
     5
 62
     0
 63
     7
283
     0
 90
      512
 91
        0
  1

274
    -2
284
     1
 64
     0
275
    -2
285
     1
 65
     0
276
    -2
286
     1
 66
     0
277
    -2
287
     1
 67
     0
278
    -2
288
     1
 68
     0
279
    -2
289
     1
 69
     0
  0
VISUALSTYLE
  5
30
102
{ACAD_REACTORS
330
31
102
}
330
31
100
AcDbVisualStyle
  2
2dWireframe
 70
     4
177
     2
291
     0
 71
     0
176
     1
 72
     2
176
     1
 73
     0
176
     1
 90
        0
176
     1
 40
0.6
176
     1
 41
30.0
176
     1
 63
     7
176
     1
 74
     1
176
     1
 91
        4
176
     1
 64
     7
176
     1
 65
   257
176
     1
 75
     1
176
     1
175
     1
176
     1
 42
1.0
176
     1
 92
        0
176
     1
 66
   257
176
     1
 43
1.0
176
     1
 76
     1
176
     1
 77
     6
176
     1
 78
     2
176
     1
 67
     7
176
     1
 79
     5
176
     1
170
     0
176
     1
171
     0
176
     1
290
     0
176
     1
 93
        1
176
     1
 44
0.0
176
     1
173
     0
176
     1
  0
VISUALSTYLE
  5
55
102
{ACAD_REACTORS
330
31
102
}
330
31
100
AcDbVisualStyle
  2
3dWireframe
 70
     5
177
     2
291
     0
 71
     0
176
     1
 72
     2
176
     1
 73
     0
176
     1
 90
        0
176
     1
 40
0.6
176
     1
 41
30.0
176
     1
 63
     7
176
     1
 74
     1
176
     1
 91
        4
176
     1
 64
     7
176
     1
 65
   257
176
     1
 75
     1
176
     1
175
     1
176
     1
 42
1.0
176
     1
 92
        0
176
     1
 66
   257
176
     1
 43
1.0
176
     1
 76
     1
176
     1
 77
     6
176
     1
 78
     2
176
     1
 67
     7
176
     1
 79
     5
176
     1
170
     0
176
     1
171
     0
176
     1
290
     0
176
     1
 93
        1
176
     1
 44
0.0
176
     1
173
     0
176
     1
  0
VISUALSTYLE
  5
54
102
{ACAD_REACTORS
330
31
102
}
330
31
100
AcDbVisualStyle
  2
Realistic
 70
     8
177
     2
291
     0
 71
     2
176
     1
 72
     2
176
     1
 73
     0
176
     1
 90
        0
176
     1
 40
0.6
176
     1
 41
30.0
176
     1
 63
     7
176
     1
 74
     1
176
     1
 91
        0
176
     1
 64
     7
176
     1
 65
   257
176
     1
 75
     1
176
     1
175
     1
176
     1
 42
1.0
176
     1
 92
        8
176
     1
 66
     8
176
     1
 43
1.0
176
     1
 76
     1
176
     1
 77
     6
176
     1
 78
     2
176
     1
 67
     7
176
     1
 79
     5
176
     1
170
     0
176
     1
171
     0
176
     1
290
     0
176
     1
 93
       13
176
     1
 44
0.0
176
     1
173
     0
176
     1
  0
DICTIONARYVAR
  5
354
102
{ACAD_REACTORS
330
350
102
}
330
350
100
DictionaryVariables
280
     0
  1
1:2
  0
DICTIONARYVAR
  5
352
102
{ACAD_REACTORS
330
350
102
}
330
350
100
DictionaryVariables
280
     0
  1
STANDARD
  0
DICTIONARYVAR
  5
351
102
{ACAD_REACTORS
330
350
102
}
330
350
100
DictionaryVariables
280
     0
  1
STANDARD
  0
DICTIONARYVAR
  5
356
102
{ACAD_REACTORS
330
350
102
}
330
350
100
DictionaryVariables
280
     0
  1
1
  0
DICTIONARYVAR
  5
357
102
{ACAD_REACTORS
330
350
102
}
330
350
100
DictionaryVariables
280
     0
  1
15
  0
DICTIONARYVAR
  5
355
102
{ACAD_REACTORS
330
350
102
}
330
350
100
DictionaryVariables
280
     0
  1
0
  0
DICTIONARYVAR
  5
353
102
{ACAD_REACTORS
330
350
102
}
330
350
100
DictionaryVariables
280
     0
  1
0
  0
DICTIONARY
  5
19
330
17
100
AcDbDictionary
280
     1
281
     1
  3
ADSK_XREC_LAYOUTTHUMBNAIL
360
1A
  0
DICTIONARY
  5
46
330
45
100
AcDbDictionary
280
     1
281
     1
  3
BUMPTILE
360
47
  3
DIFFUSETILE
360
48
  3
OPACITYTILE
360
49
  3
REFLECTIONTILE
360
4A
  3
REFRACTIONTILE
360
4B
  3
SPECULARTILE
360
4C
  0
DICTIONARY
  5
3E
330
3D
100
AcDbDictionary
280
     1
281
     1
  3
BUMPTILE
360
3F
  3
DIFFUSETILE
360
40
  3
OPACITYTILE
360
41
  3
REFLECTIONTILE
360
42
  3
REFRACTIONTILE
360
43
  3
SPECULARTILE
360
44
  0
DICTIONARY
  5
E
330
C
100
AcDbDictionary
280
     1
281
     1
  3
BUMPTILE
360
F
  3
DIFFUSETILE
360
10
  3
OPACITYTILE
360
11
  3
REFLECTIONTILE
360
12
  3
REFRACTIONTILE
360
13
  3
SPECULARTILE
360
14
  0
DICTIONARY
  5
53
330
52
100
AcDbDictionary
280
     1
281
     1
  3
ACAD_ROUNDTRIP_2008_TABLESTYLE_CELLSTYLEMAP
360
358
  0
XRECORD
  5
1A
102
{ACAD_REACTORS
330
19
102
}
330
19
100
AcDbXrecord
280
     1
310
28000000000100008C0000000100080000000000008C0000000000000000000000010000000000003028210000000000FFFFFF000000000000000000000000000000000000000000000000000000000000000000330000006600000099000000CC000000FF00000000330000333300006633000099330000CC330000FF3300
310
0000660000336600006666000099660000CC660000FF66000000990000339900006699000099990000CC990000FF99000000CC000033CC000066CC000099CC0000CCCC0000FFCC000000FF000033FF000066FF000099FF0000CCFF0000FFFF000000003300330033006600330099003300CC003300FF003300003333003333
310
33006633330099333300CC333300FF33330000663300336633006666330099663300CC663300FF66330000993300339933006699330099993300CC993300FF99330000CC330033CC330066CC330099CC3300CCCC3300FFCC330000FF330033FF330066FF330099FF3300CCFF3300FFFF330000006600330066006600660099
310
006600CC006600FF00660000336600333366006633660099336600CC336600FF33660000666600336666006666660099666600CC666600FF66660000996600339966006699660099996600CC996600FF99660000CC660033CC660066CC660099CC6600CCCC6600FFCC660000FF660033FF660066FF660099FF6600CCFF6600
310
FFFF660000009900330099006600990099009900CC009900FF00990000339900333399006633990099339900CC339900FF33990000669900336699006666990099669900CC669900FF66990000999900339999006699990099999900CC999900FF99990000CC990033CC990066CC990099CC9900CCCC9900FFCC990000FF99
310
0033FF990066FF990099FF9900CCFF9900FFFF99000000CC003300CC006600CC009900CC00CC00CC00FF00CC000033CC003333CC006633CC009933CC00CC33CC00FF33CC000066CC003366CC006666CC009966CC00CC66CC00FF66CC000099CC003399CC006699CC009999CC00CC99CC00FF99CC0000CCCC0033CCCC0066CC
310
CC0099CCCC00CCCCCC00FFCCCC0000FFCC0033FFCC0066FFCC0099FFCC00CCFFCC00FFFFCC000000FF003300FF006600FF009900FF00CC00FF00FF00FF000033FF003333FF006633FF009933FF00CC33FF00FF33FF000066FF003366FF006666FF009966FF00CC66FF00FF66FF000099FF003399FF006699FF009999FF00CC
310
99FF00FF99FF0000CCFF0033CCFF0066CCFF0099CCFF00CCCCFF00FFCCFF0000FFFF0033FFFF0066FFFF0099FFFF00CCFFFF00FFFFFF00000000000D0D0D001A1A1A00282828003535350043434300505050005D5D5D006B6B6B00787878008686860093939300A1A1A100AEAEAE00BBBBBB00C9C9C900D6D6D600E4E4E400
310
F1F1F100FFFFFF00000000000000000000000000000000000000000000000000000000000000000000000000000000000000000000000000000000000000000000000000000000000000000000BEBEBEBEBEBEBEBEBEBEBEBEBEBEBEBEBEBEBEBEBEBEBEBEBEBEBEBEBEBEBEBEBEBEBEBEBEBEBEBEBEBEBEBEBEBEBEBEBEBE
310
BEBEBEBEBEBEBEBEBEBEBEBEBEBEBEBEBEBEBEBEBEBEBEBEBEBEBEBEBEBEBEBEBEBEBEBEBEBEBEBEBEBEBEBEBEBE000000000000000000000000000000000000000000000000000000000000000000000000000000000000000000000000000000000000000000000000000000000000000000000000000000000000000000
310
00000000000000000000000000000000000000000000000000000000000000000000000000000000000000000000000000000000000000000000000000000000000000000000000000000000000000BE0000000000000000000000000000000000000000000000000000000000000000000000000000000000000000000000
310
0000000000000000000000000000000000000000000000000000000000000000000000000000000000000000000000BE00000000000000000000000000000000000000000000000000000000000000000000000000000000000000000000000000000000000000000000000000000000000000000000000000000000000000
310
000000000000000000000000000000000000000000000000000000000000000000000000000000000000000000000000000000000000000000000000000000000000000000000000000000000000000000BE0000000000000000DCDCDCDCDCDCDCDCDCDCDCDCDCDCDCDCDCDCDCDCDCDCDCDCDCDCDCDCDCDCDCDCDCDCDCDCDC
310
DCDCDCDCDCDCDCDCDCDCDCDCDCDCDCDCDCDCDCDCDCDCDCDCDCDCDCDCDCDCDCDCDCDCDCDCDCDCDCDCDCDCDCDCDCDCDC0000BE0000000000000000000000000000000000000000000000000000000000000000000000000000000000000000000000000000000000000000000000000000000000000000000000000000000000
310
0000000000000000000000000000000000000000000000000000000000000000000000000000000000000000000000000000000000000000000000000000000000000000000000000000000000000000000000BE0000000000000000DC00000000000000000000DC0000000000000000000000DC000000000000BEBEBEBEBE
310
BEBEBEBEBE000000DC000000000000000000000000DC0000000000000000000000000000DCBEBEBEBEBEBEBEBE000000DC0000BE000000000000000000000000000000000000000000000000000000000000000000000000000000000000000000000000000000000000000000000000000000000000000000000000000000
310
00000000000000000000000000000000000000000000000000000000000000000000000000000000000000000000000000000000000000000000000000000000000000000000000000000000000000000000000000BE0000000000000000DCF5F5F5F5F50000000000DCF5F5F5F5F5F5F500000000DC000000000000BEBEBE
310
BEBEBEBEBEBEBE000000DC000000000000000000000000DC0000000000000000000000000000DCBEBEBEBEBEBEBEBE000000DC0000BE00000000000000000000000000000000000000000000000000000000000000000000000000000000000000000000000000000000000000000000000000000000000000000000000000
310
000000000000000000000000000000000000000000000000000000000000000000000000000000000000000000000000000000000000000000000000000000000000000000000000000000000000000000000000000000BE0000000000000000DCDCDCDCDCDCDCDCDCDCDCDCDCDCDCDCDCDCDCDCDCDCDCDC0000BEBEBEBEBE
310
BEBEBEBEBEBEBEBEBE000000DCF5F5F5F5F500F5F5F5000000DCF5F5F5F5F5F5F5F5F5F5F5F50000DCF5F5F5F5F500F5F5F50000DC0000BE0000000000000000000000000000000000000000000000000000000000000000000000000000000000000000000000000000000000000000000000000000000000000000000000
310
0000000000000000000000000000000000000000000000000000000000000000000000000000000000000000000000000000000000000000000000000000000000000000000000000000000000000000000000000000000000BE0000000000000000DC000000DC0000000000000000DC00000000DC00000000DC0000BEBEBE
310
BEBEBEBEBEBEBEBEBEBEBE000000DCF5F5F5F5F5F5F5F5F5000000DCF5F5F5F5F5F5F5F5F5F5F5F50000DCF5F5F5F5F5F5F5F5F50000DC0000BE000000000000000000000000000000000000000000000000000000000000000000000000000000000000000000000000000000000000000000000000000000000000000000
310
00000000000000000000000000000000000000000000000000000000000000000000000000000000000000000000000000000000000000000000000000000000000000000000000000000000000000000000000000000000000000BE0000000000000000DCDCDCDCDCDCDCDCDCDCDCDCDCDCDCDCDCDCDCDCDCDCDCDC000000
310
00BEBEBEBEBEBEBEBEBEBEBEBE000000DCDCDCDCDCDCDCDCDCDCDCDCDCDCDCDCDCDCDCDCDCDCDCDCDCDCDCDCDCDCDCDCDCDCDCDCDCDCDCDCDC0000BE00000000000000000000000000000000000000000000000000000000000000000000000000000000000000000000000000000000000000000000000000000000000000
310
000000000000000000000000000000000000000000000000000000000000000000000000000000000000000000000000000000000000000000000000000000000000000000000000000000000000000000000000000000000000000000BE0000000000000000DC000000DC0000000000000000DC00000000DC00000000DC00
310
000000BEBEBEBEBEBEBEBEBEBEBEBE000000DC000000000000000000000000000000000000000000000000000000000000000000000000000000DC0000BE0000000000000000000000000000000000000000000000000000000000000000000000000000000000000000000000000000000000000000000000000000000000
310
0000000000000000000000000000000000000000000000000000000000000000000000000000000000000000000000000000000000000000000000000000000000000000000000000000000000000000000000000000000000000000000000BE0000000000000000DCDCDCDCDCDCDCDCDCDCDCDCDCDCDCDCDCDCDCDCDCDCDC
310
DCDCDCDCDCBEBEBEBEBEBEBEDCBEBEBEBEDCDCDCDC000000000000000000000000000000000000000000000000000000000000000000000000000000DC0000BE000000000000000000000000000000000000000000000000000000000000000000000000000000000000000000000000000000000000000000000000000000
310
00000000000000000000000000000000000000000000000000000000000000000000000000000000000000000000000000000000000000000000000000000000000000000000000000000000000000000000000000000000000000000000000000BE0000000000000000DC000000DC0000000000000000DC00000000DC0000
310
0000F5F5F5F5000000000000DC000000000000000000DC000000000000000000000000000000000000000000000000000000000000000000000000000000DC0000BE00000000000000000000000000000000000000000000000000000000000000000000000000000000000000000000000000000000000000000000000000
310
000000000000000000000000000000000000000000000000000000000000000000000000000000000000000000000000000000000000000000000000000000000000000000000000000000000000000000000000000000000000000000000000000000BE0000000000000000DC000000DC0000000000000000DC00000000DC
310
00000000F5F5F5F5000000000000DC000000000000000000DC0000000000000000000000000000BE000000000000000000000000000000000000000000000000DC0000BE0000000000000000000000000000000000000000000000000000000000000000000000000000000000000000000000000000000000000000000000
310
0000000000000000000000000000000000000000000000000000000000000000000000000000000000000000000000000000000000000000000000000000000000000000000000000000000000000000000000000000000000000000000000000000000000BE0000000000000000DCDCDCDCDCDCDCDCDCDCDCDCDCDCDCDCDC
310
DCDCDCDCDCDCF5F5F5DCBEBEBEBEBEBEBEBEBEBEBEBEBEDCDCDCDCBEBEBEBEBEBEBEBEBEBEBEBEBEBEBEBEBEBEBEBEBEBEBE0000BEBEBE0000BEBEBEBEBEBEBE0000DC0000BE000000000000000000000000000000000000000000000000000000000000000000000000000000000000000000000000000000000000000000
310
00000000000000000000000000000000000000000000000000000000000000000000000000000000000000000000000000000000000000000000000000000000000000000000000000000000000000000000000000000000000000000000000000000000000000BE0000000000000000DC000000DC0000000000000000DC00
310
000000DC00000000F5F5F5DCBEBEBEBEBEBEBEBEBEBEBEBEBE000000DCBEBEBEBEBEBEBEBEBEBEBEBEBEBEBEBEBEBEBEBEBEBEBE00BEBEBEBE00BEBEBEBEBE0000BE0000DC0000BE00000000000000000000000000000000000000000000000000000000000000000000000000000000000000000000000000000000000000
310
000000000000000000000000000000000000000000000000000000000000000000000000000000000000000000000000000000000000000000000000000000000000000000000000000000000000000000000000000000000000000000000000000000000000000000BE0000000000000000DCDCDCDCDCDCDCDCDCF5DCDCDC
310
DCDCDCDCDCDCDCDCDCDCDCDCDCDCDCDCDCDCDCDCDCDCDCDCDCDCDCDCDCDCDCF5F5F5F5F5F5F5F5F5F500F5F5F500000000000000000000000000000000000000000000000000DC0000BE0000000000000000000000000000000000000000000000000000000000000000000000000000000000000000000000000000000000
310
0000000000000000000000000000000000000000000000000000000000000000000000000000000000000000000000000000000000000000000000000000000000000000000000000000000000000000000000000000000000000000000000000000000000000000000000BE0000000000000000DCF5F5F5F5F5F5F5F5F5F5
310
0000F5F5F5F5F5DCF5F5F5F5DCDCDCDCF5F5F5F5F5F5F5F5F5F5F5F500000000DCF5F5F5F5F5F5F5F5F5F5F5F5F5F500000000000000000000000000000000000000000000000000DC0000BE000000000000000000000000000000000000000000000000000000000000000000000000000000000000000000000000000000
310
00000000000000000000000000000000000000000000000000000000000000000000000000000000000000000000000000000000000000000000000000000000000000000000000000000000000000000000000000000000000000000000000000000000000000000000000000BE0000000000000000DCDCDCDCDCF5DCDCDC
310
DCDCDCDCDCDCDCDCDCDCDCDCDCDCDCDCDCDCF5F5F5DCDCDCDCF5DCDCDCDCDCDCDCDCDCF5F5DCDCDCDCDCDCDCDCF5F5F5F5DCDCDCDCDCDCDCDCDCDCDCDCDCDCDCDCDCDCDCDCDCDCDCDCDCDC0000BE00000000000000000000000000000000000000000000000000000000000000000000000000000000000000000000000000
310
000000000000000000000000000000000000000000000000000000000000000000000000000000000000000000000000000000000000000000000000000000000000000000000000000000000000000000000000000000000000000000000000000000000000000000000000000000BE0000000000000000DC000000000000
310
00000000000000000000000000000000DC000000000000000000DCBEBEBEBEBEBEBEBEBEDC0000000000000000000000000000DC000000000000000000000000000000DC0000000000000000DC0000BE0000000000000000000000000000000000000000000000000000000000000000000000000000000000000000000000
310
0000000000000000000000000000000000000000000000000000000000000000000000000000000000000000000000000000000000000000000000000000000000000000000000000000000000000000000000000000000000000000000000000000000000000000000000000000000000BE0000000000000000DC00000000
310
000000000000000000000000000000000000DC000000000000000000BEBEBEBEBEBEBEBEBEBEBE000000000000000000F500000000DC000000000000000000000000000000DC0000000000000000DC0000BE000000000000000000000000000000000000000000000000000000000000000000000000000000000000000000
310
00000000000000000000000000000000000000000000000000000000000000000000000000000000000000000000000000000000000000000000000000000000000000000000000000000000000000000000000000000000000000000000000000000000000000000000000000000000000000BE0000000000000000DC0000
310
0000000000000000000000000000000000000000DCDCDCDCDCDCDCDCDCDCBEBEBE00BEBEBEBEBEBEBEF5F5F5F5F5F5F5F5F5F5F5000000DCF5F5F5F5F5F5F5F5F5F5F5F5000000DCF5F5F5F5F5F5F5F5F50000BE00000000000000000000000000000000000000000000000000000000000000000000000000000000000000
310
000000000000000000000000000000000000000000000000000000000000000000000000000000000000000000000000000000000000000000000000000000000000000000000000000000000000000000000000000000000000000000000000000000000000000000000000000000000000000000BE0000000000000000DC
310
00000000000000000000000000000000000000000000DC000000000000000000DCDCDCDCDCDCDCDCDCDCDCDCDCDCBEBEBEBEBEBEBEDCDCDCDCDCDCDCDCDCDCDCDCDCDCDCDCDCDCDCDCDCDCDCDCBEBEBEBEDCDC0000BE0000000000000000000000000000000000000000000000000000000000000000000000000000000000
310
0000000000000000000000000000000000000000000000000000000000000000000000000000000000000000000000000000000000000000000000000000000000000000000000000000000000000000000000000000000000000000000000000000000000000000000000000000000000000000000000BE00000000000000
310
00DC00000000000000000000000000000000000000000000DCDCDCDCDCDCDCDCDCDCDCDCDCBEBEBEBEDCDCDCDC000000BE00BEBEBEBEBE00000000DC000000000000000000000000000000DC000000BEBEBEBE00DC0000BE000000000000000000000000000000000000000000000000000000000000000000000000000000
310
00000000000000000000000000000000000000000000000000000000000000000000000000000000000000000000000000000000000000000000000000000000000000000000000000000000000000000000000000000000000000000000000000000000000000000000000000000000000000000000000000BE0000000000
310
000000DC00000000000000000000000000000000000000000000DCF5F5F5F5F5F5F5F500DC0000BEBEBEBE000000DC000000BEF5BEBEBEBEBE00000000DC000000F5F5F5F5F5F5F5F500000000DC00F5F5BEF5BEBEF5DC0000BE00000000000000000000000000000000000000000000000000000000000000000000000000
310
000000000000000000000000000000000000000000000000000000000000000000000000000000000000000000000000000000000000000000000000000000000000000000000000000000000000000000000000000000000000000000000000000000000000000000000000000000000000000000000000000000BE000000
310
0000000000DCDCDCDCDCDCDCDCDCDCDCDCDCDCDCDCDCDCDCDCDCDCDCDCF5F5F5DCDCF5DCDCDCDCDCDCF5F5F5F5DCDCDCDCDCDCDCF5F5F5DCF5F5F5DCDCDCDCDCDCDCDCF5F5F5F5F5F5F5F5DCDCDCDCDCDCF5F5F5F5F5F5F5DC0000BE0000000000000000000000000000000000000000000000000000000000000000000000
310
0000000000000000000000000000000000000000000000000000000000000000000000000000000000000000000000000000000000000000000000000000000000000000000000000000000000000000000000000000000000000000000000000000000000000000000000000000000000000000000000000000000000BE00
310
00000000000000DC00000000000000000000000000000000000000000000000000000000000000000000000000000000000000000000000000000000000000000000000000000000000000000000000000000000000000000000DC0000BE000000000000000000000000000000000000000000000000000000000000000000
310
00000000000000000000000000000000000000000000000000000000000000000000000000000000000000000000000000000000000000000000000000000000000000000000000000000000000000000000000000000000000000000000000000000000000000000000000000000000000000000000000000000000000000
310
BE0000000000000000DC00000000000000000000000000000000000000000000000000000000000000000000000000000000000000000000000000000000000000000000000000000000000000000000000000000000000000000000DC0000BE00000000000000000000000000000000000000000000000000000000000000
310
00000000000000000000000000000000000000000000000000000000000000000000000000000000000000000000000000000000000000000000000000000000000000000000000000000000000000000000000000000000000000000000000000000000000000000000000000000000000000000000000000000000000000
310
0000BE0000000000000000DC00000000000000000000000000000000000000000000000000000000000000000000000000000000000000000000000000000000000000000000000000000000000000000000000000000000000000000000DC0000BE0000000000000000000000000000000000000000000000000000000000
310
00000000000000000000000000000000000000000000000000000000000000000000000000000000000000000000000000000000000000000000000000000000000000000000000000000000000000000000000000000000000000000000000000000000000000000000000000000000000000000000000000000000000000
310
00000000BE0000000000000000DC00000000000000000000000000000000000000000000000000000000000000000000000000000000000000000000000000000000000000000000000000000000000000000000000000000000000000000000DC0000BE000000000000000000000000000000000000000000000000000000
310
00000000000000000000000000000000000000000000000000000000000000000000000000000000000000000000000000000000000000000000000000000000000000000000000000000000000000000000000000000000000000000000000000000000000000000000000000000000000000000000000000000000000000
310
000000000000BE0000000000000000DC00000000000000000000000000000000000000000000000000000000000000000000000000000000000000000000000000000000000000000000000000000000000000000000000000000000000000000000DC0000BE00000000000000000000000000000000000000000000000000
310
00000000000000000000000000000000000000000000000000000000000000000000000000000000000000000000000000000000000000000000000000000000000000000000000000000000000000000000000000000000000000000000000000000000000000000000000000000000000000000000000000000000000000
310
0000000000000000BE0000000000000000DC00000000000000000000000000000000000000000000000000000000000000000000000000000000000000000000000000000000000000000000000000000000000000000000000000000000000000000000DC0000BE0000000000000000000000000000000000000000000000
310
00000000000000000000000000000000000000000000000000000000000000000000000000000000000000000000000000000000000000000000000000000000000000000000000000000000000000000000000000000000000000000000000000000000000000000000000000000000000000000000000000000000000000
310
00000000000000000000BE0000000000000000DC00000000000000000000000000000000000000000000000000000000000000000000000000000000000000000000000000000000000000000000000000000000000000000000000000000000000000000000DC0000BE000000000000000000000000000000000000000000
310
00000000000000000000000000000000000000000000000000000000000000000000000000000000000000000000000000000000000000000000000000000000000000000000000000000000000000000000000000000000000000000000000000000000000000000000000000000000000000000000000000000000000000
310
000000000000000000000000BE0000000000000000DC00000000000000000000000000000000000000000000000000000000000000000000000000000000000000000000000000000000000000000000000000000000000000000000000000000000000000000000DC0000BE00000000000000000000000000000000000000
310
00000000000000000000000000000000000000000000000000000000000000000000000000000000000000000000000000000000000000000000000000000000000000000000000000000000000000000000000000000000000000000000000000000000000000000000000000000000000000000000000000000000000000
310
0000000000000000000000000000BE0000000000000000DC00000000000000000000000000000000000000000000000000000000000000000000000000000000000000000000000000000000000000000000000000000000000000000000000000000000000000000000DC0000BE0000000000000000000000000000000000
310
00000000000000000000000000000000000000000000000000000000000000000000000000000000000000000000000000000000000000000000000000000000000000000000000000000000000000000000000000000000000000000000000000000000000000000000000000000000000000000000000000000000000000
310
00000000000000000000000000000000BE0000000000000000DC00000000000000000000000000000000000000000000000000000000000000000000000000000000000000000000000000000000000000000000000000000000000000000000000000000000000000000000DC0000BE000000000000000000000000000000
310
00000000000000000000000000000000000000000000000000000000000000000000000000000000000000000000000000000000000000000000000000000000000000000000000000000000000000000000000000000000000000000000000000000000000000000000000000000000000000000000000000000000000000
310
000000000000000000000000000000000000BE0000000000000000DC00000000000000000000000000000000000000000000000000000000000000000000000000000000000000000000000000000000000000000000000000000000000000000000000000000000000000000000DC0000BE00000000000000000000000000
310
00000000000000000000000000000000000000000000000000000000000000000000000000000000000000000000000000000000000000000000000000000000000000000000000000000000000000000000000000000000000000000000000000000000000000000000000000000000000000000000000000000000000000
310
0000000000000000000000000000000000000000BE0000000000000000DC00000000000000000000000000000000000000000000000000000000000000000000000000000000000000000000000000000000000000000000000000000000000000000000000000000000000000000000DC0000BE0000000000000000000000
310
00000000000000000000000000000000000000000000000000000000000000000000000000000000000000000000000000000000000000000000000000000000000000000000000000000000000000000000000000000000000000000000000000000000000000000000000000000000000000000000000000000000000000
310
00000000000000000000000000000000000000000000BE0000000000000000DC00000000000000000000000000000000000000000000000000000000000000000000000000000000000000000000000000000000000000000000000000000000000000000000000000000000000000000000DC0000BE000000000000000000
310
00000000000000000000000000000000000000000000000000000000000000000000000000000000000000000000000000000000000000000000000000000000000000000000000000000000000000000000000000000000000000000000000000000000000000000000000000000000000000000000000000000000000000
310
000000000000000000000000000000000000000000000000BE0000000000000000DC00000000000000000000000000000000000000000000000000000000000000000000000000000000000000000000000000000000000000000000000000000000000000000000000000000000000000000000DC0000BE00000000000000
310
00000000000000000000000000000000000000000000000000000000000000000000000000000000000000000000000000000000000000000000000000000000000000000000000000000000000000000000000000000000000000000000000000000000000000000000000000000000000000000000000000000000000000
310
0000000000000000000000000000000000000000000000000000BE0000000000000000DC00000000000000000000000000000000000000000000000000000000000000000000000000000000000000000000000000000000000000000000000000000000000000000000000000000000000000000000DC0000BE0000000000
310
00000000000000000000000000000000000000000000000000000000000000000000000000000000000000000000000000000000000000000000000000000000000000000000000000000000000000000000000000000000000000000000000000000000000000000000000000000000000000000000000000000000000000
310
00000000000000000000000000000000000000000000000000000000BE0000000000000000DC00000000000000000000000000000000000000000000000000000000000000000000000000000000000000000000000000000000000000000000000000000000000000000000000000000000000000000000DC0000BE000000
310
00000000000000000000000000000000000000000000000000000000000000000000000000000000000000000000000000000000000000000000000000000000000000000000000000000000000000000000000000000000000000000000000000000000000000000000000000000000000000000000000000000000000000
310
000000000000000000000000000000000000000000000000000000000000BE0000000000000000DC00000000000000000000000000000000000000000000000000000000000000000000000000000000000000000000000000000000000000000000000000000000000000000000000000000000000000000000DC0000BE00
310
00000000000000000000000000000000000000000000000000000000000000000000000000000000000000000000000000000000000000000000000000000000000000000000000000000000000000000000000000000000000000000000000000000000000000000000000000000000000000000000000000000000000000
310
0000000000000000000000000000000000000000000000000000000000000000BE0000000000000000DC00000000000000000000000000000000000000000000000000000000000000000000000000000000000000000000000000000000000000000000000000000000000000000000000000000000000000000000DC0000
310
BE000000000000000000000000000000000000000000000000000000000000000000000000000000000000000000000000000000000000000000000000000000000000000000000000000000000000000000000000000000000000000000000000000000000000000000000000000000000000000000000000000000000000
310
00000000000000000000000000000000000000000000000000000000000000000000BE0000000000000000DC000000000000000000000000000000000000000000000000000000002D2D0000000000002D2D0000000000000000000000000000000000000000000000000000000000000000000000000000000000000000DC
310
0000BE00000000000000000000000000000000000000000000000000000000000000000000000000000000000000000000000000000000000000000000000000000000000000000000000000000000000000000000000000000000000000000000000000000000000000000000000000000000000000000000000000000000
310
000000000000000000000000000000000000000000000000000000000000000000000000BE0000000000000000DC000000000000000000000000000000000000000000000000000000002D2D2DBEBEBEBE2D2DF500000000000000000000000000000000000000000000000000000000000000000000000000000000000000
310
00DC0000BE0000000000000000000000000000000000000000000000000000000000000000000000000000000000000000000000000000000000000000000000000000000000000000000000000000000000000000000000000000000000000000000000000000000000000000000000000000000000000000000000000000
310
0000000000000000000000000000000000000000000000000000000000000000000000000000BE0000000000000000DC000000000000000000000000000000000000000000000000000000002D0000BEBEBEBE00002D0000000000000000000000000000000000000000000000000000000000000000000000000000000000
310
000000DC0000BE000000000000000000000000000000000000000000000000000000000000000000000000000000000000000000000000000000000000000000000000000000000000000000000000000000000000000000000000000000000000000000000000000000000000000000000000000000000000000000000000
310
00000000000000000000000000000000000000000000000000000000000000000000000000000000BE0000000000000000DC000000000000000000000000000000000000000000000000000000002D00000000000000002D000000000000000000000000000000000000000000000000000000000000000000000000000000
310
0000000000DC0000BE00000000000000000000000000000000000000000000000000000000000000000000000000000000000000000000000000000000000000000000000000000000000000000000000000000000000000000000000000000000000000000000000000000000000000000000000000000000000000000000
310
000000000000000000000000000000000000000000000000000000000000000000000000000000000000BE0000000000000000DC0000000000000000000000000000000000F52D2D2D2D2D2D2D2D2D2D2DF5BEBEBEBEBEBEF52D2D2D2D2D2D2D2D2DF52D000000000000000000000000000000000000000000000000000000
310
00000000000000DC0000BE0000000000000000000000000000000000000000000000000000000000000000000000000000000000000000000000000000000000000000000000000000000000000000000000000000000000000000000000000000000000000000000000000000000000000000000000000000000000000000
310
0000000000000000000000000000000000000000000000000000000000000000000000000000000000000000BE0000000000000000DC00000000000000000000000000000000002D00000000000000000000F50000000000000000F500000000000000002D2D00000000000000000000000000000000000000000000000000
310
000000000000000000DC0000BE000000000000000000000000000000000000000000000000000000000000000000000000000000000000000000000000000000000000000000000000000000000000000000000000000000000000000000000000000000000000000000000000000000000000000000000000000000000000
310
00000000000000000000000000000000000000000000000000000000000000000000000000000000000000000000BE0000000000000000DC00000000000000000000000000000000002D00000000000000000000BE0000000000000000BE00000000000000002D000000000000000000000000000000000000000000000000
310
0000000000000000000000DC0000BE00000000000000000000000000000000000000000000000000000000000000000000000000000000000000000000000000000000000000000000000000000000000000000000000000000000000000000000000000000000000000000000000000000000000000000000000000000000
310
000000000000000000000000000000000000000000000000000000000000000000000000000000000000000000000000BE0000000000000000DC00000000000000000000000000000000002D00000000000000000000BE0000000000000000BE00000000000000002D00000000000000000000000000000000000000000000
310
00000000000000000000000000DC0000BE0000000000000000000000000000000000000000000000000000000000000000000000000000000000000000000000000000000000000000000000000000000000000000000000000000000000000000000000000000000000000000000000000000000000000000000000000000
310
0000000000000000000000000000000000000000000000000000000000000000000000000000000000000000000000000000BE0000000000000000DC00000000000000000000000000000000002D00000000000000000000BE2D2DBEBEBEBE2D2DBE00000000000000002D0000000000000000000000000000000000000000
310
000000000000000000000000000000DC0000BE000000000000000000000000000000000000000000000000000000000000000000000000000000000000000000000000000000000000000000000000000000000000000000000000000000000000000000000000000000000000000000000000000000000000000000000000
310
00000000000000000000000000000000000000000000000000000000000000000000000000000000000000000000000000000000BE0000000000000000DC00000000000000000000000000000000002D00000000000000000000BE2D00BEBEBEBE0000BE00000000000000002D000000000000000000000000000000000000
310
0000000000000000000000000000000000DC0000BE00000000000000000000000000000000000000000000000000000000000000000000000000000000000000000000000000000000000000000000000000000000000000000000000000000000000000000000000000000000000000000000000000000000000000000000
310
000000000000000000000000000000000000000000000000000000000000000000000000000000000000000000000000000000000000BE0000000000000000DC00000000000000000000000000000000002D002D2D2D2D2D2D2D2D2DBE2DF5F5F5F5F5F52DBE2D2D2D2D2D2DF5002D00000000000000000000000000000000
310
00000000000000000000000000000000000000DC0000BE0000000000000000000000000000000000000000000000000000000000000000000000000000000000000000000000000000000000000000000000000000000000000000000000000000000000000000000000000000000000000000000000000000000000000000
310
0000000000000000000000000000000000000000000000000000000000000000000000000000000000000000000000000000000000000000BE0000000000000000DC00000000000000000000000000000000002D00002D00000000000000BE2DF50000BE0000F5BE0000000000002D002D0000000000000000000000000000
310
000000000000000000000000000000000000000000DC0000BE000000000000000000000000000000000000000000000000000000000000000000000000000000000000000000000000000000000000000000000000000000000000000000000000000000000000000000000000000000000000000000000000000000000000
310
00000000000000000000000000000000000000000000000000000000000000000000000000000000000000000000000000000000000000000000BE0000000000000000DC00000000000000000000000000000000002D00002D00000000000000BEF500002828000000BE0000000000002D002D00000000F52D2D2D2D2DF500
310
0000000000000000000000000000000000000000000000DC0000BE00000000000000000000000000000000000000000000000000000000000000000000000000000000000000000000000000000000000000000000000000000000000000000000000000000000000000000000000000000000000000000000000000000000
310
000000000000000000000000000000000000000000000000000000000000000000000000000000000000000000000000000000000000000000000000BE0000000000000000DC00000000000000000000000000000000002D00002D00000000000000BEF52D2D2D2D2D2DF5BE0000000000002D002D000000002D00000000F5
310
F5000000000000000000000000000000000000000000000000DC0000BE0000000000000000000000000000000000000000000000000000000000000000000000000000000000000000000000000000000000000000000000000000000000000000000000000000000000000000000000000000000000000000000000000000
310
0000000000000000000000000000000000000000000000000000000000000000000000000000000000000000000000000000000000000000000000000000BE0000000000000000DC00000000000000000000000000000000002D00002D00000000000000BEF52D0028BEBEBEBEBE0000000000002D002D000000002D000000
310
00F5F5000000000000000000000000000000000000000000000000DC0000BE000000000000000000000000000000000000000000000000000000000000000000000000000000000000000000000000000000000000000000000000000000000000000000000000000000000000000000000000000000000000000000000000
310
00000000000000000000000000000000000000000000000000000000000000000000000000000000000000000000000000000000000000000000000000000000BE0000000000000000DC00000000000000000000000000000000002D00002D00F52D2D2D2D2D2D2D2DF5BEBEBEF52DBE2D2D2D2DF5002D002D000000002D00
310
000000F5F5000000000000000000000000000000000000000000000000DC0000BE00000000000000000000000000000000000000000000000000000000000000000000000000000000000000000000000000000000000000000000000000000000000000000000000000000000000000000000000000000000000000000000
310
000000000000000000000000000000000000000000000000000000000000000000000000000000000000000000000000000000000000000000000000000000000000BE0000000000000000DC00000000000000000000000000000000002D00002D002D2D00000000BEF5F50028280000F5BE000000002DBEBEBEBE00000000
310
2D00000000F5F5000000000000000000000000000000000000000000000000DC0000BE0000000000000000000000000000000000000000000000000000000000000000000000000000000000000000000000000000000000000000000000000000000000000000000000000000000000000000000000000000000000000000
310
0000000000000000000000000000000000000000000000000000000000000000000000000000000000000000000000000000000000000000000000000000000000000000BE0000000000000000DC00000000000000000000000000000000002D00002D002D0000000000BEF5BE0028280000BEBE000000002DBEBEBEBE0000
310
00002D00000000F5F5000000000000000000000000000000000000000000000000DC0000BE000000000000000000000000000000000000000000000000000000000000000000000000000000000000000000000000000000000000000000000000000000000000000000000000000000000000000000000000000000000000
310
00000000000000000000000000000000000000000000000000000000000000000000000000000000000000000000000000000000000000000000000000000000000000000000BE0000000000000000DC00000000000000000000000000000000002D00002D002D0000000000BEF5BE0028280000BEBE000000002DBEBEBEBE
310
000000002D00000000F5F5000000000000000000000000000000000000000000000000DC0000BE00000000000000000000000000000000000000000000000000000000000000000000000000000000000000000000000000000000000000000000000000000000000000000000000000000000000000000000000000000000
310
000000000000000000000000000000000000000000000000000000000000000000000000000000000000000000000000000000000000000000000000000000000000000000000000BE0000000000000000DC00000000000000000000000000000000002D00002D002D0000000000BEF5BE0028280000BEBE000000002DBEBE
310
BEBE000000002D00000000F5F5000000000000000000000000000000000000000000000000DC0000BE0000000000000000000000000000000000000000000000000000000000000000000000000000000000000000000000000000000000000000000000000000000000000000000000000000000000000000000000000000
310
0000000000000000000000000000000000000000000000000000000000000000000000000000000000000000000000000000000000000000000000000000000000000000000000000000BE0000000000000000DC00000000000000000000000000000000002D00002D002D0000000000BEF5BE0028280000BEBE000000002D
310
BEBEBEBE000000BEBE00000000F5F5000000000000000000000000000000000000000000000000DC0000BE000000000000000000000000000000000000000000000000000000000000000000000000000000000000000000000000000000000000000000000000000000000000000000000000000000000000000000000000
310
00000000000000000000000000000000000000000000000000000000000000000000000000000000000000000000000000000000000000000000000000000000000000000000000000000000BE0000000000000000DC00000000000000000000000000000000002D00002D002D0000000000BEF5BE0028280000BEBE000000
310
002DBEBEBEBE000000BEBE00000000F5F5000000000000000000000000000000000000000000000000DC0000BE00000000000000000000000000000000000000000000000000000000000000000000000000000000000000000000000000000000000000000000000000000000000000000000000000000000000000000000
310
000000000000000000000000000000000000000000000000000000000000000000000000000000000000000000000000000000000000000000000000000000000000000000000000000000000000BE0000000000000000DC00000000000000000000000000000000002D00002D002D0000000000BEF5BE0028280000BEBE00
310
00BEBE2DBE2DBEBE000000BEBE00000000F5F5000000000000000000000000000000000000000000000000DC0000BE0000000000000000000000000000000000000000000000000000000000000000000000000000000000000000000000000000000000000000000000000000000000000000000000000000000000000000
310
0000000000000000000000000000000000000000000000000000000000000000000000000000000000000000000000000000000000000000000000000000000000000000000000000000000000000000BE0000000000000000DC00000000000000000000000000000000002D00002D002D0000000000BEF5BE0028280000BE
310
BE0000BEBE2DBEBEBEBE000000BE2D00000000F5F5000000000000000000000000000000000000000000000000DC0000BE000000000000000000000000000000000000000000000000000000000000000000000000000000000000000000000000000000000000000000000000000000000000000000000000000000000000
310
00000000000000000000000000000000000000000000000000000000000000000000000000000000000000000000000000000000000000000000000000000000000000000000000000000000000000000000BE0000000000000000DC00000000000000000000000000000000002D00002D002D0000000000BEF5BE00282800
310
00BEBE0000BEBE2DBEBEBEBE000000002D00000000F5F5000000000000000000000000000000000000000000000000DC0000BE00000000000000000000000000000000000000000000000000000000000000000000000000000000000000000000000000000000000000000000000000000000000000000000000000000000
310
000000000000000000000000000000000000000000000000000000000000000000000000000000000000000000000000000000000000000000000000000000000000000000000000000000000000000000000000BE0000000000000000DC00000000000000000000000000000000002D00002D002D0000000000BEF5BE0028
310
280000BEBE0000BEBE2DBEBEBEBE000000002D00000000F5F5000000000000000000000000000000000000000000000000DC0000BE0000000000000000000000000000000000000000000000000000000000000000000000000000000000000000000000000000000000000000000000000000000000000000000000000000
310
0000000000000000000000000000000000000000000000000000000000000000000000000000000000000000000000000000000000000000000000000000000000000000000000000000000000000000000000000000BE0000000000000000DC00000000000000000000000000000000002D00002D002D0000000000BEF5BE
310
0028280000BEBE0000BEBE2DBEBEBEBE000000002D00000000F5F5000000000000000000000000000000000000000000000000DC0000BE000000000000000000000000000000000000000000000000000000000000000000000000000000000000000000000000000000000000000000000000000000000000000000000000
310
00000000000000000000000000000000000000000000000000000000000000000000000000000000000000000000000000000000000000000000000000000000000000000000000000000000000000000000000000000000BE0000000000000000DC00000000000000000000000000000000002D00002D002D0000000000BE
310
F5BE0028280000BEBE0000BEBE2DBEBE002D000000002D00000000F5F5000000000000000000000000000000000000000000000000DC0000BE00000000000000000000000000000000000000000000000000000000000000000000000000000000000000000000000000000000000000000000000000000000000000000000
310
000000000000000000000000000000000000000000000000000000000000000000000000000000000000000000000000000000000000000000000000000000000000000000000000000000000000000000000000000000000000BE0000000000000000DC00000000000000000000000000000000002D00002D002D00000000
310
0000BEBE0028280000BE000000BEBE2DBE2D002D000000002D002D2D2DF5F52D2D00000000000000000000000000000000000000000000DC0000BE0000000000000000000000000000000000000000000000000000000000000000000000000000000000000000000000000000000000000000000000000000000000000000
310
0000000000000000000000000000000000000000000000000000000000000000000000000000000000000000000000000000000000000000000000000000000000000000000000000000000000000000000000000000000000000000BE0000000000000000DC00000000000000000000000000000000002D00002D002D0000
310
0000000000BEBEBEBEBEBE0000BEBEBEBE2DBEBE002D000000002D0000002DF5F5BEBEBE000000000000000000000000000000000000000000DC0000BE000000000000000000000000000000000000000000000000000000000000000000000000000000000000000000000000000000000000000000000000000000000000
310
00000000000000000000000000000000000000000000000000000000000000000000000000000000000000000000000000000000000000000000000000000000000000000000000000000000000000000000000000000000000000000000BE0000000000000000DC00000000000000000000000000000000002D00002D002D
310
0000000000000000BEBEBEBE000000BEBEBEBE2DBEBE002D000000002D0000002DF5F5BEBEBEBE0000000000000000000000000000000000000000DC0000BE00000000000000000000000000000000000000000000000000000000000000000000000000000000000000000000000000000000000000000000000000000000
310
000000000000000000000000000000000000000000000000000000000000000000000000000000000000000000000000000000000000000000000000000000000000000000000000000000000000000000000000000000000000000000000000BE0000000000000000DC00000000000000000000000000000000BEBE00002D
310
002D0000000000000000F5F5F5F5000000BEBEBEBE2DBEBE002D000000002D2D2D2DF5F5F5000000000000000000000000000000000000000000000000DC0000BE0000000000000000000000000000000000000000000000000000000000000000000000000000000000000000000000000000000000000000000000000000
310
0000000000000000000000000000000000000000000000000000000000000000000000000000000000000000000000000000000000000000000000000000000000000000000000000000000000000000000000000000000000000000000000000000BE0000000000000000DC00000000000000000000000000000000BEBE00
310
002D002D0000000000000000F5F5F5F5000000BEBE00002DBEBE002D000000002D0000002DBE2D000000000000000000000000000000000000000000000000DC0000BE000000000000000000000000000000000000000000000000000000000000000000000000000000000000000000000000000000000000000000000000
310
00000000000000000000000000000000000000000000000000000000000000000000000000000000000000000000000000000000000000000000000000000000000000000000000000000000000000000000000000000000000000000000000000000000BE0000000000000000DC00000000000000000000000000000000BE
310
BE00002D002D0000000000000000F5F5BEF5000000BEBE00002DBEBE002D000000002D0000002DBE2D000000000000000000000000000000000000000000000000DC0000BE00000000000000000000000000000000000000000000000000000000000000000000000000000000000000000000000000000000000000000000
310
000000000000000000000000000000000000000000000000000000000000000000000000000000000000000000000000000000000000000000000000000000000000000000000000000000000000000000000000000000000000000000000000000000000000BE0000000000000000DC000000000000000000000000000000
310
00BEBE00BE2D002D00000000000000F5F5F5F5F5F52D2D2DF52D002D002D002D000000BEBE0000002DBE2D000000000000000000000000000000000000000000000000DC0000BE0000000000000000000000000000000000000000000000000000000000000000000000000000000000000000000000000000000000000000
310
0000000000000000000000000000000000000000000000000000000000000000000000000000000000000000000000000000000000000000000000000000000000000000000000000000000000000000000000000000000000000000000000000000000000000000BE0000000000000000DC00000000000000000000000000
310
000000BEBEBEBE2D002D0000000000000000F500BEF5000000002D00002D002D002D000000BEBE0000002DBE2D000000000000000000000000000000000000000000000000DC0000BE000000000000000000000000000000000000000000000000000000000000000000000000000000000000000000000000000000000000
310
00000000000000000000000000000000000000000000000000000000000000000000000000000000000000000000000000000000000000000000000000000000000000000000000000000000000000000000000000000000000000000000000000000000000000000000BE0000000000000000DC0000000000000000000000
310
0000000000002DBEBE2D002D0000000000000000F500BEF5000000002D00002D002D002D000000BEBE0000002DBE2D000000000000000000000000000000000000000000000000DC0000BE00000000000000000000000000000000000000000000000000000000000000000000000000000000000000000000000000000000
310
000000000000000000000000000000000000000000000000000000000000000000000000000000000000000000000000000000000000000000000000000000000000000000000000000000000000000000000000000000000000000000000000000000000000000000000000BE0000000000000000DC000000000000000000
310
00000000000000002DBEBE2DBEBE0000000000000000F500BEF5000000002D00002D002D002D000000002D0000002DBE2D000000000000000000000000000000000000000000000000DC0000BE0000000000000000000000000000000000000000000000000000000000000000000000000000000000000000000000000000
310
0000000000000000000000000000000000000000000000000000000000000000000000000000000000000000000000000000000000000000000000000000000000000000000000000000000000000000000000000000000000000000000000000000000000000000000000000000BE0000000000000000DC00000000000000
310
000000000000000000002DBEBE2DBEBE00000000000000F5F5F5F5F5F5F52D2D2D2D2D2D2D2D2D2D2D0000002D2DF5F5F5F5F5F5F52D2D2D2D2D2D2D2D2D2D2D2D2DF50000000000000000DC0000BE000000000000000000000000000000000000000000000000000000000000000000000000000000000000000000000000
310
00000000000000000000000000000000000000000000000000000000000000000000000000000000000000000000000000000000000000000000000000000000000000000000000000000000000000000000000000000000000000000000000000000000000000000000000000000000BE0000000000000000DC0000000000
310
0000000000000000000000002D00002DBEBE0000F52D2D2D2DF5F5F5F5F5F52D2D2D2D2D2D2D2DF50000000000000000F5F5F5F5F5F5F500002D000000000000000000002D0000000000000000DC0000BE00000000000000000000000000000000000000000000000000000000000000000000000000000000000000000000
310
000000000000000000000000000000000000000000000000000000000000000000000000000000000000000000000000000000000000000000000000000000000000000000000000000000000000000000000000000000000000000000000000000000000000000000000000000000000000BE0000000000000000DC000000
310
00000000000000000000000000002D00002DBEBE00002D000000002D0000BE002D0000002D000000BE2D00000000000000002DF500BE00F50000002D000000000000000000002D0000000000000000DC0000BE0000000000000000000000000000000000000000000000000000000000000000000000000000000000000000
310
0000000000000000000000000000000000000000000000000000000000000000000000000000000000000000000000000000000000000000000000000000000000000000000000000000000000000000000000000000000000000000000000000000000000000000000000000000000000000000BE0000000000000000DC00
310
000000000000000000000000000000002D00002D002D00002D000000002D0000BE002D0000002D000000BEBE00000000000000002DF500BE00F50000002D000000000000000000002D0000000000000000DC0000BE000000000000000000000000000000000000000000000000000000000000000000000000000000000000
310
00000000000000000000000000000000000000000000000000000000000000000000000000000000000000000000000000000000000000000000000000000000000000000000000000000000000000000000000000000000000000000000000000000000000000000000000000000000000000000000BE0000000000000000
310
DC00000000000000000000000000000000002D00002D002D00002D000000002D2D2D2D2DF50000002D000000BEBE00000000000000002DF500BE00F50000002D000000000000000000002D0000000000000000DC0000BE00000000000000000000000000000000000000000000000000000000000000000000000000000000
310
000000000000000000000000000000000000000000000000000000000000000000000000000000000000000000000000000000000000000000000000000000000000000000000000000000000000000000000000000000000000000000000000000000000000000000000000000000000000000000000000BE000000000000
310
0000DC00000000000000000000000000000000002D00002D002D00002D00000000F50000BE00F5BEBEBE2D000000000000000000000000002DF500BE00F50000002D000000000000000000002D0000000000000000DC0000BE0000000000000000000000000000000000000000000000000000000000000000000000000000
310
0000000000000000000000000000000000000000000000000000000000000000000000000000000000000000000000000000000000000000000000000000000000000000000000000000000000000000000000000000000000000000000000000000000000000000000000000000000000000000000000000000BE00000000
310
00000000DC00000000000000000000000000000000002D00002D002D00002D00000000F50000BE00F500BEBE2D000000000000000000000000002DF500BE00F50000002D000000000000000000002D0000000000000000DC0000BE000000000000000000000000000000000000000000000000000000000000000000000000
310
00000000000000000000000000000000000000000000000000000000000000000000000000000000000000000000000000000000000000000000000000000000000000000000000000000000000000000000000000000000000000000000000000000000000000000000000000000000000000000000000000000000BE0000
310
000000000000DC00000000000000000000000000000000002D00002D002D00BEBE00000000F50000BE00F50000002D000000000000000000000000002DF500BE00F50000002D000000000000000000002D0000000000000000DC0000BE00000000000000000000000000000000000000000000000000000000000000000000
310
000000000000000000000000000000000000000000000000000000000000000000000000000000000000000000000000000000000000000000000000000000000000000000000000000000000000000000000000000000000000000000000000000000000000000000000000000000000000000000000000000000000000BE
310
0000000000000000DC00000000000000000000000000000000002D00002D002D00BEBE00000000F50000BE00F50000002D000000000000000000000000002DF500BE00F500BEBE2D000000000000000000002D0000000000000000DC0000BE0000000000000000000000000000000000000000000000000000000000000000
310
00000000000000000000000000000000000000000000000000000000000000000000000000000000000000000000000000000000000000000000000000000000000000000000000000000000000000000000000000000000000000000000000000000000000000000000000000000000000000000000000000000000000000
310
00BE0000000000000000DC00000000000000000000000000000000002D00002D002D00BEBE00000000F50000BE00F50000002D000000000000000000000000002DF500BE00F500BEBE2D000000000000000000002D0000000000000000DC0000BE000000000000000000000000000000000000000000000000000000000000
310
00000000000000000000000000000000000000000000000000000000000000000000000000000000000000000000000000000000000000000000000000000000000000000000000000000000000000000000000000000000000000000000000000000000000000000000000000000000000000000000000000000000000000
310
000000BE0000000000000000DC00000000000000000000000000000000002D00002D002D00BEBE00000000F50000BE00F50000BEBE000000000000000000000000002DF500BE00F500BEBE2D0000000000000000BEBE2D0000000000000000DC0000BE00000000000000000000000000000000000000000000000000000000
310
00000000000000000000000000000000000000000000000000000000000000000000000000000000000000000000000000000000000000000000000000000000000000000000000000000000000000000000000000000000000000000000000000000000000000000000000000000000000000000000000000000000000000
310
0000000000BE0000000000000000DC00000000000000000000000000000000002D00002D002D00BEBE00000000F50000BE00F50000BEBE000000000000000000000000002DF500BE00F500BEBE2D0000000000000000BEBE2D0000000000000000DC0000BE0000000000000000000000000000000000000000000000000000
310
00000000000000000000000000000000000000000000000000000000000000000000000000000000000000000000000000000000000000000000000000000000000000000000000000000000000000000000000000000000000000000000000000000000000000000000000000000000000000000000000000000000000000
310
00000000000000BE0000000000000000DC00000000000000000000000000000000002D00002D002D00002D00000000F50000BE00F50000BEBE000000000000000000000000002DF500BE00F50000002D0000000000000000BEBE2D0000000000000000DC0000BE000000000000000000000000000000000000000000000000
310
00000000000000000000000000000000000000000000000000000000000000000000000000000000000000000000000000000000000000000000000000000000000000000000000000000000000000000000000000000000000000000000000000000000000000000000000000000000000000000000000000000000000000
310
000000000000000000BE0000000000000000DC00000000000000000000000000000000002D00002D002D00002D00000000F50000BE00F50000BEBE000000000000000000000000002DF500BE00F50000002D0000000000000000BEBE2D0000000000000000DC0000BE00000000000000000000000000000000000000000000
310
00000000000000000000000000000000000000000000000000000000000000000000000000000000000000000000000000000000000000000000000000000000000000000000000000000000000000000000000000000000000000000000000000000000000000000000000000000000000000000000000000000000000000
310
0000000000000000000000BE0000000000000000DC00000000000000000000000000000000002D00002D002D00002D00000000F50000BE00F50000BEBE000000000000000000000000002DF500BE00F50000002D000000000000000000002D0000000000000000DC0000BE0000000000000000000000000000000000000000
310
00000000000000000000000000000000000000000000000000000000000000000000000000000000000000000000000000000000000000000000000000000000000000000000000000000000000000000000000000000000000000000000000000000000000000000000000000000000000000000000000000000000000000
310
00000000000000000000000000BE0000000000000000DC00000000000000000000000000000000002D00002D002D00002D00000000F50000BE00F50000002D000000000000000000000000002DF500BE00F50000002D000000000000000000002D0000000000000000DC0000BE000000000000000000000000000000000000
310
00000000000000000000000000000000000000000000000000000000000000000000000000000000000000000000000000000000000000000000000000000000000000000000000000000000000000000000000000000000000000000000000000000000000000000000000000000000000000000000000000000000000000
310
000000000000000000000000000000BE0000000000000000DC00000000000000000000000000000000002D00002D002D00002D2D2D2D2DF5F5F5F5F5F50000002D000000000000000000000000002DF5F5F5F5F50000002D000000000000000000002D0000000000000000DC0000BE00000000000000000000000000000000
310
00000000000000000000000000000000000000000000000000000000000000000000000000000000000000000000000000000000000000000000000000000000000000000000000000000000000000000000000000000000000000000000000000000000000000000000000000000000000000000000000000000000000000
310
0000000000000000000000000000000000BE0000000000000000DC00000000000000000000000000000000002D00002D002D00002D00000000F50000BE00F50000002D000000000000000000000000002DF500BE00F50000002D000000000000000000002D0000000000000000DC0000BE0000000000000000000000000000
310
00000000000000000000000000000000000000000000000000000000000000000000000000000000000000000000000000000000000000000000000000000000000000000000000000000000000000000000000000000000000000000000000000000000000000000000000000000000000000000000000000000000000000
310
00000000000000000000000000000000000000BE0000000000000000DC00000000000000000000000000000000002D00002D002D00BEBE00000000F500F5F500F50000002D000000000000000000000000002DF500BE00F5F500002D000000000000000000002D0000000000000000DC0000BE000000000000000000000000
310
00000000000000000000000000000000000000000000000000000000000000000000000000000000000000000000000000000000000000000000000000000000000000000000000000000000000000000000000000000000000000000000000000000000000000000000000000000000000000000000000000000000000000
310
000000000000000000000000000000000000000000BE0000000000000000DC00000000000000000000000000000000002D00002D002D00BEBE00000000F500282800F50000002D000000000000000000000000002DF500BE00F5F5F5F5F5000000000000000000002D0000000000000000DC0000BE00000000000000000000
310
00000000000000000000000000000000000000000000000000000000000000000000000000000000000000000000000000000000000000000000000000000000000000000000000000000000000000000000000000000000000000000000000000000000000000000000000000000000000000000000000000000000000000
310
0000000000000000000000000000000000000000000000BE0000000000000000DC00000000000000000000000000000000002D00002D002D00BEBE00000000F5F5F5F5F5F50000002D000000000000000000000000002DF5F5BEF5F500F5F5BEF5F5F5000000000000002D0000000000000000DC0000BE0000000000000000
310
00000000000000000000000000000000000000000000000000000000000000000000000000000000000000000000000000000000000000000000000000000000000000000000000000000000000000000000000000000000000000000000000000000000000000000000000000000000000000000000000000000000000000
310
00000000000000000000000000000000000000000000000000BE0000000000000000DC00000000000000000000000000000000002D00002D002D00002D2D2D2D2D2DF5F5F5F5F50000002D000000000000000000000000002DF5F5F5F5F5000000F5F5F5BEF5F5F5000000002D0000000000000000DC0000BE000000000000
310
00000000000000000000000000000000000000000000000000000000000000000000000000000000000000000000000000000000000000000000000000000000000000000000000000000000000000000000000000000000000000000000000000000000000000000000000000000000000000000000000000000000000000
310
000000000000000000000000000000000000000000000000000000BE0000000000000000DC00000000000000000000000000000000002D00002D002D00BE2D0000000000F5F5F5F5000000002D000000000000000000000000002D00F5F5F5F5000000000000F5F5F5BEF5F500002D0000000000000000DC0000BE00000000
310
00000000000000000000000000000000000000000000000000000000000000000000000000000000000000000000000000000000000000000000000000000000000000000000000000000000000000000000000000000000000000000000000000000000000000000000000000000000000000000000000000000000000000
310
0000000000000000000000000000000000000000000000000000000000BE0000000000000000DC00000000000000000000000000000000002D00002D002D2DBEF52D2D2D2D2DF5F5F5F5F50000002D000000000000000000000000002DF5F5F5F5F5000000000000000000F5F5F5F5F52D0000000000000000DC0000BE0000
310
00000000000000000000000000000000000000000000000000000000000000000000000000000000000000000000000000000000000000000000000000000000000000000000000000000000000000000000000000000000000000000000000000000000000000000000000000000000000000000000000000000000000000
310
00000000000000000000000000000000000000000000000000000000000000BE0000000000000000DC00000000000000000000000000000000002D2D2D2D2D2D2D2D2D2D2D2D2D2DF5F5F5F5F52D2D2D2D2D0000000000000000000000002DF5F5F5F5F50000000000000000000000F52D2D000000000000000000DC0000BE
310
00000000000000000000000000000000000000000000000000000000000000000000000000000000000000000000000000000000000000000000000000000000000000000000000000000000000000000000000000000000000000000000000000000000000000000000000000000000000000000000000000000000000000
310
000000000000000000000000000000000000000000000000000000000000000000BE0000000000000000DC000000000000000000000000000000000000000000000000002D000000002D000000002D00000000000000000000000000000000002D00002D00000000000000000000000000002D2D000000000000000000DC00
310
00BE0000000000000000000000000000000000000000000000000000000000000000000000000000000000000000000000000000000000000000000000000000000000000000000000000000000000000000000000000000000000000000000000000000000000000000000000000000000000000000000000000000000000
310
0000000000000000000000000000000000000000000000000000000000000000000000BE0000000000000000DC000000000000000000000000000000000000000000000000002D000000002D2D2D2D2DF500000000000000000000000000000000002D00002D2D2D2D2D2D2D2D2D2D2D2D2D2D2DF52D000000000000000000
310
DC0000BE000000000000000000000000000000000000000000000000000000000000000000000000000000000000000000000000000000000000000000000000000000000000000000000000000000000000000000000000000000000000000000000000000000000000000000000000000000000000000000000000000000
310
00000000000000000000000000000000000000000000000000000000000000000000000000BE0000000000000000DC0000000000000000000000000000000000000000000000000000000000002DBEBEBEBE2D00000000000000000000000000000000002D00002D2D0000000000BEBEBE000000002D2D2D00000000000000
310
0000DC0000BE00000000000000000000000000000000000000000000000000000000000000000000000000000000000000000000000000000000000000000000000000000000000000000000000000000000000000000000000000000000000000000000000000000000000000000000000000000000000000000000000000
310
000000000000000000000000000000000000000000000000000000000000000000000000000000BE0000000000000000DC00000000000000000000000000000000000000000000000000000000000000BEBEBEBE0000000000000000000000000000000000002D000000000000000000BEBEBE0000000000002D0000000000
310
00000000DC0000BE0000000000000000000000000000000000000000000000000000000000000000000000000000000000000000000000000000000000000000000000000000000000000000000000000000000000000000000000000000000000000000000000000000000000000000000000000000000000000000000000
310
0000000000000000000000000000000000000000000000000000000000000000000000000000000000BE0000000000000000DC00000000000000000000000000000000000000000000000000000000000000000000000000000000000000000000000000000000002D2D2D2D2D2D2D2D2D2D2D2D2D2D2D2D2D2D2DF5000000
310
000000000000DC0000BE000000000000000000000000000000000000000000000000000000000000000000000000000000000000000000000000000000000000000000000000000000000000000000000000000000000000000000000000000000000000000000000000000000000000000000000000000000000000000000
310
00000000000000000000000000000000000000000000000000000000000000000000000000000000000000BE0000000000000000DC00000000000000000000000000000000000000000000000000000000000000000000000000000000000000000000000000000000002D00000000000000BEBEBEBE000000000000002D00
310
0000000000000000DC0000BE00000000000000000000000000000000000000000000000000000000000000000000000000000000000000000000000000000000000000000000000000000000000000000000000000000000000000000000000000000000000000000000000000000000000000000000000000000000000000
310
000000000000000000000000000000000000000000000000000000000000000000000000000000000000000000BE0000000000000000DC00000000000000000000000000000000000000000000000000000000000000000000000000000000000000000000000000000000000000000000000000BEBEBEBE00000000000000
310
00000000000000000000DC0000BE0000000000000000000000000000000000000000000000000000000000000000000000000000000000000000000000000000000000000000000000000000000000000000000000000000000000000000000000000000000000000000000000000000000000000000000000000000000000
310
0000000000000000000000000000000000000000000000000000000000000000000000000000000000000000000000BE0000000000000000DC00000000000000000000000000000000000000000000000000000000000000000000000000000000000000000000000000000000000000000000000000000000000000000000
310
000000000000000000000000DC0000BE000000000000000000000000000000000000000000000000000000000000000000000000000000000000000000000000000000000000000000000000000000000000000000000000000000000000000000000000000000000000000000000000000000000000000000000000000000
310
00000000000000000000000000000000000000000000000000000000000000000000000000000000000000000000000000BE0000000000000000DC0000000000000000000000000000000000000000000000000000000000000000000000000000000000000000000000000000000000000000000000000000000000000000
310
0000000000000000000000000000DC0000BE00000000000000000000000000000000000000000000000000000000000000000000000000000000000000000000000000000000000000000000000000000000000000000000000000000000000000000000000000000000000000000000000000000000000000000000000000
310
000000000000000000000000000000000000000000000000000000000000000000000000000000000000000000000000000000BE0000000000000000DC000000000000000000000000000000000000000000000000000000000000000000000000000000000000000000000000000000000000000000000000000000000000
310
00000000000000000000000000000000DC0000BE0000000000000000000000000000000000000000000000000000000000000000000000000000000000000000000000000000000000000000000000000000000000000000000000000000000000000000000000000000000000000000000000000000000000000000000000
310
0000000000000000000000000000000000000000000000000000000000000000000000000000000000000000000000000000000000BE0000000000000000DC00000000000000000000000000000000000000000000000000000000000000000000000000000000000000000000000000000000000000000000000000000000
310
000000000000000000000000000000000000DC0000BE000000000000000000000000000000000000000000000000000000000000000000000000000000000000000000000000000000000000000000000000000000000000000000000000000000000000000000000000000000000000000000000000000000000000000000
310
00000000000000000000000000000000000000000000000000000000000000000000000000000000000000000000000000000000000000BE0000000000000000DC0000000000000000000000000000000000000000000000000000000000000000000000000000000000000000000000000000000000000000000000000000
310
0000000000000000000000000000000000000000DC0000BE00000000000000000000000000000000000000000000000000000000000000000000000000000000000000000000000000000000000000000000000000000000000000000000000000000000000000000000000000000000000000000000000000000000000000
310
000000000000000000000000000000000000000000000000000000000000000000000000000000000000000000000000000000000000000000BE0000000000000000DC000000000000000000000000000000000000000000000000000000000000000000000000000000000000000000000000000000000000000000000000
310
00000000000000000000000000000000000000000000DC0000BE0000000000000000000000000000000000000000000000000000000000000000000000000000000000000000000000000000000000000000000000000000000000000000000000000000000000000000000000000000000000000000000000000000000000
310
0000000000000000000000000000000000000000000000000000000000000000000000000000000000000000000000000000000000000000000000BE0000000000000000DC00000000000000000000000000000000000000000000000000000000000000000000000000000000000000000000000000000000000000000000
310
000000000000000000000000000000000000000000000000DC0000BE000000000000000000000000000000000000000000000000000000000000000000000000000000000000000000000000000000000000000000000000000000000000000000000000000000000000000000000000000000000000000000000000000000
310
00000000000000000000000000000000000000000000000000000000000000000000000000000000000000000000000000000000000000000000000000BE0000000000000000DC0000000000000000000000000000000000000000000000000000000000000000000000000000000000000000000000000000000000000000
310
0000000000000000000000000000000000000000000000000000DC0000BE00000000000000000000000000000000000000000000000000000000000000000000000000000000000000000000000000000000000000000000000000000000000000000000000000000000000000000000000000000000000000000000000000
310
000000000000000000000000000000000000000000000000000000000000000000000000000000000000000000000000000000000000000000000000000000BE0000000000000000DC000000000000000000000000000000000000000000000000000000000000000000000000000000000000000000000000000000000000
310
00000000000000000000000000000000000000000000000000000000DC0000BE0000000000000000000000000000000000000000000000000000000000000000000000000000000000000000000000000000000000000000000000000000000000000000000000000000000000000000000000000000000000000000000000
310
0000000000000000000000000000000000000000000000000000000000000000000000000000000000000000000000000000000000000000000000000000000000BE0000000000000000DC00000000000000000000000000000000000000000000000000000000000000000000000000000000000000000000000000000000
310
000000000000000000000000000000000000000000000000000000000000DC0000BE000000000000000000000000000000000000000000000000000000000000000000000000000000000000000000000000000000000000000000000000000000000000000000000000000000000000000000000000000000000000000000
310
00000000000000000000000000000000000000000000000000000000000000000000000000000000000000000000000000000000000000000000000000000000000000BE0000000000000000DC0000000000000000000000000000000000000000000000000000000000000000000000000000000000000000000000000000
310
0000000000000000000000000000000000000000000000000000000000000000DC0000BE00000000000000000000000000000000000000000000000000000000000000000000000000000000000000000000000000000000000000000000000000000000000000000000000000000000000000000000000000000000000000
310
000000000000000000000000000000000000000000000000000000000000000000000000000000000000000000000000000000000000000000000000000000000000000000BE0000000000000000DC000000000000000000000000000000000000000000000000000000000000000000000000000000000000000000000000
310
00000000000000000000000000000000000000000000000000000000000000000000DC0000BE0000000000000000000000000000000000000000000000000000000000000000000000000000000000000000000000000000000000000000000000000000000000000000000000000000000000000000000000000000000000
310
0000000000000000000000000000000000000000000000000000000000000000000000000000000000000000000000000000000000000000000000000000000000000000000000BE0000000000000000DC00000000000000000000000000000000000000000000000000000000000000000000000000000000000000000000
310
000000000000000000000000000000000000000000000000000000000000000000000000DC0000BE000000000000000000000000000000000000000000000000000000000000000000000000000000000000000000000000000000000000000000000000000000000000000000000000000000000000000000000000000000
310
00000000000000000000000000000000000000000000000000000000000000000000000000000000000000000000000000000000000000000000000000000000000000000000000000BE0000000000000000DC0000000000000000000000000000000000000000000000000000000000000000000000000000000000000000
310
0000000000000000000000000000000000000000000000000000000000000000000000000000DC0000BE00000000000000000000000000000000000000000000000000000000000000000000000000000000000000000000000000000000000000000000000000000000000000000000000000000000000000000000000000
310
000000000000000000000000000000000000000000000000000000000000000000000000000000000000000000000000000000000000000000000000000000000000000000000000000000BE0000000000000000DC000000000000000000000000000000000000000000000000000000000000000000000000000000000000
310
00000000000000000000000000000000000000000000000000000000000000000000000000000000DC0000BE0000000000000000000000000000000000000000000000000000000000000000000000000000000000000000000000000000000000000000000000000000000000000000000000000000000000000000000000
310
0000000000000000000000000000000000000000000000000000000000000000000000000000000000000000000000000000000000000000000000000000000000000000000000000000000000BE0000000000000000DC00000000000000000000000000000000000000000000000000000000000000000000000000000000
310
000000000000000000000000000000000000000000000000000000000000000000000000000000000000DC0000BE000000000000000000000000000000000000000000000000000000000000000000000000000000000000000000000000000000000000000000000000000000000000000000000000000000000000000000
310
00000000000000000000000000000000000000000000000000000000000000000000000000000000000000000000000000000000000000000000000000000000000000000000000000000000000000BE0000000000000000DC0000000000000000000000000000000000000000000000000000000000000000000000000000
310
0000000000000000000000000000000000000000000000000000000000000000000000000000000000000000DC0000BE00000000000000000000000000000000000000000000000000000000000000000000000000000000000000000000000000000000000000000000000000000000000000000000000000000000000000
310
000000000000000000000000000000000000000000000000000000000000000000000000000000000000000000000000000000000000000000000000000000000000000000000000000000000000000000BE0000000000000000DC000000000000000000000000000000000000000000000000000000000000000000000000
310
00000000000000000000000000000000000000000000000000000000000000000000000000000000000000000000DC0000BE0000000000000000000000000000000000000000000000000000000000000000000000000000000000000000000000000000000000000000000000000000000000000000000000000000000000
310
0000000000000000000000000000000000000000000000000000000000000000000000000000000000000000000000000000000000000000000000000000000000000000000000000000000000000000000000BE0000000000000000DC00000000000000000000000000000000000000000000000000000000000000000000
310
000000000000000000000000000000000000000000000000000000000000000000000000000000000000000000000000DC0000BE000000000000000000000000000000000000000000000000000000000000000000000000000000000000000000000000000000000000000000000000000000000000000000000000000000
310
00000000000000000000000000000000000000000000000000000000000000000000000000000000000000000000000000000000000000000000000000000000000000000000000000000000000000000000000000BE0000000000000000DCDCDCDCDCDCDCDCDCDCDCDCDCDCDCDCDCDCDCDCDCDCDCDCDCDCDCDCDCDCDCDCDC
310
DCDCDCDCDCDCDCDCDCDCDCDCDCDCDCDCDCDCDCDCDCDCDCDCDCDCDCDCDCDCDCDCDCDCDCDCDCDCDCDCDCDCDCDCDCDCDCDCDCDCDC0000BE00000000000000000000000000000000000000000000000000000000000000000000000000000000000000000000000000000000000000000000000000000000000000000000000000
310
000000000000000000000000000000000000000000000000000000000000000000000000000000000000000000000000000000000000000000000000000000000000000000000000000000000000000000000000000000BE000000000000000000000000000000000000000000000000000000000000000000000000000000
310
00000000000000000000000000000000000000000000000000000000000000000000000000000000000000000000000000000000000000BE0000000000000000000000000000000000000000000000000000000000000000000000000000000000000000000000000000000000000000000000000000000000000000000000
310
0000000000000000000000000000000000000000000000000000000000000000000000000000000000000000000000000000000000000000000000000000000000000000000000000000000000000000000000000000000000BE00000000000000000000000000000000000000000000000000000000000000000000000000
310
000000000000000000000000000000000000000000000000000000000000000000000000000000000000000000000000000000000000000000BE000000000000000000000000000000000000000000000000000000000000000000000000000000000000000000000000000000000000000000000000000000000000000000
310
00000000000000000000000000000000000000000000000000000000000000000000000000000000000000000000000000000000000000000000000000000000000000000000000000000000000000000000000000000000000000BEBEBEBEBEBEBEBEBEBEBEBEBEBEBEBEBEBEBEBEBEBEBEBEBEBEBEBEBEBEBEBEBEBEBEBE
310
BEBEBEBEBEBEBEBEBEBEBEBEBEBEBEBEBEBEBEBEBEBEBEBEBEBEBEBEBEBEBEBEBEBEBEBEBEBEBEBEBEBEBEBEBEBEBEBEBEBEBEBEBEBEBEBEBEBEBEBE00000000000000000000000000000000000000000000000000000000000000000000000000000000000000000000000000000000000000000000000000000000000000
310
00000000000000000000000000000000000000000000000000000000000000000000000000000000000000000000000000000000000000000000000000000000000000000000000000000000000000000000000000000000000000000000000000000000000000000000000000000000000000000000000000000000000000
310
00000000000000000000000000000000000000000000000000000000000000000000000000000000000000000000000000000000000000000000000000000000000000000000000000000000000000000000000000000000000000000000000000000000000000000000000000000000000000000000000000000000000000
310
00000000000000000000000000000000000000000000000000000000000000000000000000000000000000000000000000000000000000000000000000000000000000000000000000000000000000000000000000000000000000000000000000000000000000000000000000000000000000000000000000000000000000
310
00000000000000000000000000000000000000000000000000000000000000000000000000000000000000000000000000000000000000000000000000000000000000000000000000000000000000000000000000000000000000000000000000000000000000000000000000000000000000000000000000000000000000
310
00000000000000000000000000000000000000000000000000000000000000000000000000000000000000000000000000000000000000000000000000000000000000000000000000000000000000000000000000000000000000000000000000000000000000000000000000000000000000000000000000000000000000
310
00000000000000000000000000000000000000000000000000000000000000000000000000000000000000000000000000000000000000000000000000000000000000000000000000000000000000000000000000000000000000000000000000000000000000000000000000000000000000000000000000000000000000
310
00000000000000000000000000000000000000000000000000000000000000000000000000000000000000000000000000000000000000000000000000000000000000000000000000000000000000000000000000000000000000000000000000000000000000000000000000000000000000000000000000000000000000
310
00000000000000000000000000000000000000000000000000000000000000000000000000000000000000000000000000000000000000000000000000000000000000000000000000000000000000000000000000000000000000000000000000000000000000000000000000000000000000000000000000000000000000
310
00000000000000000000000000000000000000000000000000000000000000000000000000000000000000000000000000000000000000000000000000000000000000000000000000000000000000000000000000000000000000000000000000000000000000000000000000000000000000000000000000000000000000
310
00000000000000000000000000000000000000000000000000000000000000000000000000000000000000000000000000000000000000000000000000000000000000000000000000000000000000000000000000000000000000000000000000000000000000000000000000000000000000000000000000000000000000
310
0000000000000000000000000000000000000000000000000000000000000000000000000000000000000000000000000000000000000000000000000000000000000000000000000000
  0
XRECORD
  5
47
102
{ACAD_REACTORS
330
46
102
}
330
46
100
AcDbXrecord
280
     1
270
     1
271
     1
  0
XRECORD
  5
48
102
{ACAD_REACTORS
330
46
102
}
330
46
100
AcDbXrecord
280
     1
270
     1
271
     1
  0
XRECORD
  5
49
102
{ACAD_REACTORS
330
46
102
}
330
46
100
AcDbXrecord
280
     1
270
     1
271
     1
  0
XRECORD
  5
4A
102
{ACAD_REACTORS
330
46
102
}
330
46
100
AcDbXrecord
280
     1
270
     1
271
     1
  0
XRECORD
  5
4B
102
{ACAD_REACTORS
330
46
102
}
330
46
100
AcDbXrecord
280
     1
270
     1
271
     1
  0
XRECORD
  5
4C
102
{ACAD_REACTORS
330
46
102
}
330
46
100
AcDbXrecord
280
     1
270
     1
271
     1
  0
XRECORD
  5
3F
102
{ACAD_REACTORS
330
3E
102
}
330
3E
100
AcDbXrecord
280
     1
270
     1
271
     1
  0
XRECORD
  5
40
102
{ACAD_REACTORS
330
3E
102
}
330
3E
100
AcDbXrecord
280
     1
270
     1
271
     1
  0
XRECORD
  5
41
102
{ACAD_REACTORS
330
3E
102
}
330
3E
100
AcDbXrecord
280
     1
270
     1
271
     1
  0
XRECORD
  5
42
102
{ACAD_REACTORS
330
3E
102
}
330
3E
100
AcDbXrecord
280
     1
270
     1
271
     1
  0
XRECORD
  5
43
102
{ACAD_REACTORS
330
3E
102
}
330
3E
100
AcDbXrecord
280
     1
270
     1
271
     1
  0
XRECORD
  5
44
102
{ACAD_REACTORS
330
3E
102
}
330
3E
100
AcDbXrecord
280
     1
270
     1
271
     1
  0
XRECORD
  5
F
102
{ACAD_REACTORS
330
E
102
}
330
E
100
AcDbXrecord
280
     1
270
     1
271
     1
  0
XRECORD
  5
10
102
{ACAD_REACTORS
330
E
102
}
330
E
100
AcDbXrecord
280
     1
270
     1
271
     1
  0
XRECORD
  5
11
102
{ACAD_REACTORS
330
E
102
}
330
E
100
AcDbXrecord
280
     1
270
     1
271
     1
  0
XRECORD
  5
12
102
{ACAD_REACTORS
330
E
102
}
330
E
100
AcDbXrecord
280
     1
270
     1
271
     1
  0
XRECORD
  5
13
102
{ACAD_REACTORS
330
E
102
}
330
E
100
AcDbXrecord
280
     1
270
     1
271
     1
  0
XRECORD
  5
14
102
{ACAD_REACTORS
330
E
102
}
330
E
100
AcDbXrecord
280
     1
270
     1
271
     1
  0
CELLSTYLEMAP
  5
358
102
{ACAD_REACTORS
330
53
102
}
330
53
100
AcDbCellStyleMap
 90
        3
300
CELLSTYLE
  1
TABLEFORMAT_BEGIN
 90
        5
170
     1
 91
        0
 92
    32768
 62
   257
 93
        1
300
CONTENTFORMAT
  1
CONTENTFORMAT_BEGIN
 90
        0
 91
        0
 92
      512
 93
        0
300

 40
0.0
140
1.0
 94
        5
 62
     0
340
27
144
0.25
309
CONTENTFORMAT_END
171
     0
 94
        0
309
TABLEFORMAT_END
  1
CELLSTYLE_BEGIN
 90
        1
 91
        1
300
_TITLE
309
CELLSTYLE_END
300
CELLSTYLE
  1
TABLEFORMAT_BEGIN
 90
        5
170
     1
 91
        0
 92
        0
 62
   257
 93
        1
300
CONTENTFORMAT
  1
CONTENTFORMAT_BEGIN
 90
        0
 91
        0
 92
      512
 93
        0
300

 40
0.0
140
1.0
 94
        5
 62
     0
340
27
144
0.18
309
CONTENTFORMAT_END
171
     0
 94
        0
309
TABLEFORMAT_END
  1
CELLSTYLE_BEGIN
 90
        2
 91
        1
300
_HEADER
309
CELLSTYLE_END
300
CELLSTYLE
  1
TABLEFORMAT_BEGIN
 90
        5
170
     1
 91
        0
 92
        0
 62
   257
 93
        1
300
CONTENTFORMAT
  1
CONTENTFORMAT_BEGIN
 90
        0
 91
        0
 92
      512
 93
        0
300

 40
0.0
140
1.0
 94
        2
 62
     0
340
27
144
0.18
309
CONTENTFORMAT_END
171
     0
 94
        0
309
TABLEFORMAT_END
  1
CELLSTYLE_BEGIN
 90
        3
 91
        2
300
_DATA
309
CELLSTYLE_END
  0
ENDSEC
  0
EOF
