  0
SECTION
  2
HEADER
  9
$ACADVER
  1
AC1024
  9
$ACADMAINTVER
 70
     6
  9
$DWGCODEPAGE
  3
ANSI_1252
  9
$INSBASE
 10
0.0
 20
0.0
 30
0.0
  9
$EXTMIN
 10
-0.0000000000000426
 20
0.0
 30
0.0
  9
$EXTMAX
 10
525.0
 20
742.4999999999999
 30
0.0
  9
$LIMMIN
 10
0.0
 20
0.0
  9
$LIMMAX
 10
525.0
 20
742.4999999999999
  9
$ORTHOMODE
 70
     1
  9
$REGENMODE
 70
     1
  9
$FILLMODE
 70
     1
  9
$QTEXTMODE
 70
     0
  9
$MIRRTEXT
 70
     0
  9
$LTSCALE
 40
15.0
  9
$ATTMODE
 70
     1
  9
$TEXTSIZE
 40
4.864397434158647
  9
$TRACEWID
 40
1.0
  9
$TEXTSTYLE
  7
ROMANS
  9
$CLAYER
  8
09-01
  9
$CELTYPE
  6
ByLayer
  9
$CECOLOR
 62
   256
  9
$CELTSCALE
 40
1.0
  9
$DISPSILH
 70
     0
  9
$DIMSCALE
 40
2.5
  9
$DIMASZ
 40
2.5
  9
$DIMEXO
 40
1.0
  9
$DIMDLI
 40
10.0
  9
$DIMRND
 40
0.0
  9
$DIMDLE
 40
0.0
  9
$DIMEXE
 40
1.0
  9
$DIMTP
 40
0.0
  9
$DIMTM
 40
0.0
  9
$DIMTXT
 40
2.5
  9
$DIMCEN
 40
0.0
  9
$DIMTSZ
 40
0.0
  9
$DIMTOL
 70
     0
  9
$DIMLIM
 70
     0
  9
$DIMTIH
 70
     0
  9
$DIMTOH
 70
     0
  9
$DIMSE1
 70
     0
  9
$DIMSE2
 70
     0
  9
$DIMTAD
 70
     1
  9
$DIMZIN
 70
     8
  9
$DIMBLK
  1

  9
$DIMASO
 70
     1
  9
$DIMSHO
 70
     0
  9
$DIMPOST
  1

  9
$DIMAPOST
  1

  9
$DIMALT
 70
     0
  9
$DIMALTD
 70
     3
  9
$DIMALTF
 40
0.03937007874016
  9
$DIMLFAC
 40
1.0
  9
$DIMTOFL
 70
     1
  9
$DIMTVP
 40
0.0
  9
$DIMTIX
 70
     0
  9
$DIMSOXD
 70
     0
  9
$DIMSAH
 70
     0
  9
$DIMBLK1
  1

  9
$DIMBLK2
  1

  9
$DIMSTYLE
  2
Wagner
  9
$DIMCLRD
 70
     4
  9
$DIMCLRE
 70
     4
  9
$DIMCLRT
 70
     1
  9
$DIMTFAC
 40
1.0
  9
$DIMGAP
 40
1.0
  9
$DIMJUST
 70
     0
  9
$DIMSD1
 70
     0
  9
$DIMSD2
 70
     0
  9
$DIMTOLJ
 70
     0
  9
$DIMTZIN
 70
     8
  9
$DIMALTZ
 70
     0
  9
$DIMALTTZ
 70
     0
  9
$DIMUPT
 70
     0
  9
$DIMDEC
 70
     8
  9
$DIMTDEC
 70
     8
  9
$DIMALTU
 70
     2
  9
$DIMALTTD
 70
     3
  9
$DIMTXSTY
  7
STANDARD
  9
$DIMAUNIT
 70
     0
  9
$DIMADEC
 70
     2
  9
$DIMALTRND
 40
0.0
  9
$DIMAZIN
 70
     2
  9
$DIMDSEP
 70
    46
  9
$DIMATFIT
 70
     3
  9
$DIMFRAC
 70
     0
  9
$DIMLDRBLK
  1

  9
$DIMLUNIT
 70
     2
  9
$DIMLWD
 70
    -2
  9
$DIMLWE
 70
    -2
  9
$DIMTMOVE
 70
     0
  9
$DIMFXL
 40
1.0
  9
$DIMFXLON
 70
     0
  9
$DIMJOGANG
 40
0.7853981633974483
  9
$DIMTFILL
 70
     0
  9
$DIMTFILLCLR
 70
     0
  9
$DIMARCSYM
 70
     0
  9
$DIMLTYPE
  6

  9
$DIMLTEX1
  6

  9
$DIMLTEX2
  6

  9
$DIMTXTDIRECTION
 70
     0
  9
$LUNITS
 70
     2
  9
$LUPREC
 70
     2
  9
$SKETCHINC
 40
1.0
  9
$FILLETRAD
 40
0.0
  9
$AUNITS
 70
     0
  9
$AUPREC
 70
     2
  9
$MENU
  1
cncmenue
  9
$ELEVATION
 40
0.0
  9
$PELEVATION
 40
0.0
  9
$THICKNESS
 40
0.0
  9
$LIMCHECK
 70
     0
  9
$CHAMFERA
 40
0.0
  9
$CHAMFERB
 40
0.0
  9
$CHAMFERC
 40
0.0
  9
$CHAMFERD
 40
0.0
  9
$SKPOLY
 70
     0
  9
$TDCREATE
 40
2450806.465439699
  9
$TDUCREATE
 40
2450806.382106366
  9
$TDUPDATE
 40
2456857.549227118
  9
$TDUUPDATE
 40
2456857.465893785
  9
$TDINDWG
 40
0.6302593403
  9
$TDUSRTIMER
 40
0.6302593403
  9
$USRTIMER
 70
     1
  9
$ANGBASE
 50
0.0
  9
$ANGDIR
 70
     0
  9
$PDMODE
 70
     0
  9
$PDSIZE
 40
0.0
  9
$PLINEWID
 40
0.0
  9
$SPLFRAME
 70
     0
  9
$SPLINETYPE
 70
     6
  9
$SPLINESEGS
 70
     8
  9
$HANDSEED
  5
307
  9
$SURFTAB1
 70
    24
  9
$SURFTAB2
 70
    24
  9
$SURFTYPE
 70
     6
  9
$SURFU
 70
     6
  9
$SURFV
 70
     6
  9
$UCSBASE
  2

  9
$UCSNAME
  2

  9
$UCSORG
 10
0.0
 20
0.0
 30
0.0
  9
$UCSXDIR
 10
1.0
 20
0.0
 30
0.0
  9
$UCSYDIR
 10
0.0
 20
1.0
 30
0.0
  9
$UCSORTHOREF
  2

  9
$UCSORTHOVIEW
 70
     0
  9
$UCSORGTOP
 10
0.0
 20
0.0
 30
0.0
  9
$UCSORGBOTTOM
 10
0.0
 20
0.0
 30
0.0
  9
$UCSORGLEFT
 10
0.0
 20
0.0
 30
0.0
  9
$UCSORGRIGHT
 10
0.0
 20
0.0
 30
0.0
  9
$UCSORGFRONT
 10
0.0
 20
0.0
 30
0.0
  9
$UCSORGBACK
 10
0.0
 20
0.0
 30
0.0
  9
$PUCSBASE
  2

  9
$PUCSNAME
  2

  9
$PUCSORG
 10
0.0
 20
0.0
 30
0.0
  9
$PUCSXDIR
 10
1.0
 20
0.0
 30
0.0
  9
$PUCSYDIR
 10
0.0
 20
1.0
 30
0.0
  9
$PUCSORTHOREF
  2

  9
$PUCSORTHOVIEW
 70
     0
  9
$PUCSORGTOP
 10
0.0
 20
0.0
 30
0.0
  9
$PUCSORGBOTTOM
 10
0.0
 20
0.0
 30
0.0
  9
$PUCSORGLEFT
 10
0.0
 20
0.0
 30
0.0
  9
$PUCSORGRIGHT
 10
0.0
 20
0.0
 30
0.0
  9
$PUCSORGFRONT
 10
0.0
 20
0.0
 30
0.0
  9
$PUCSORGBACK
 10
0.0
 20
0.0
 30
0.0
  9
$USERI1
 70
     0
  9
$USERI2
 70
     0
  9
$USERI3
 70
     0
  9
$USERI4
 70
     0
  9
$USERI5
 70
     0
  9
$USERR1
 40
0.0
  9
$USERR2
 40
0.0
  9
$USERR3
 40
0.0
  9
$USERR4
 40
0.0
  9
$USERR5
 40
0.0
  9
$WORLDVIEW
 70
     1
  9
$SHADEDGE
 70
     3
  9
$SHADEDIF
 70
    70
  9
$TILEMODE
 70
     1
  9
$MAXACTVP
 70
    16
  9
$PINSBASE
 10
0.0
 20
0.0
 30
0.0
  9
$PLIMCHECK
 70
     0
  9
$PEXTMIN
 10
1.000000000000000E+20
 20
1.000000000000000E+20
 30
1.000000000000000E+20
  9
$PEXTMAX
 10
-1.000000000000000E+20
 20
-1.000000000000000E+20
 30
-1.000000000000000E+20
  9
$PLIMMIN
 10
0.0
 20
0.0
  9
$PLIMMAX
 10
12.0
 20
9.0
  9
$UNITMODE
 70
     0
  9
$VISRETAIN
 70
     0
  9
$PLINEGEN
 70
     0
  9
$PSLTSCALE
 70
     0
  9
$TREEDEPTH
 70
  3020
  9
$CMLSTYLE
  2
Standard
  9
$CMLJUST
 70
     0
  9
$CMLSCALE
 40
1.0
  9
$PROXYGRAPHICS
 70
     1
  9
$MEASUREMENT
 70
     0
  9
$CELWEIGHT
370
    -1
  9
$ENDCAPS
280
     0
  9
$JOINSTYLE
280
     0
  9
$LWDISPLAY
290
     0
  9
$INSUNITS
 70
     0
  9
$HYPERLINKBASE
  1

  9
$STYLESHEET
  1

  9
$XEDIT
290
     1
  9
$CEPSNTYPE
380
     0
  9
$PSTYLEMODE
290
     1
  9
$FINGERPRINTGUID
  2
{8C243595-0602-4A4A-BB3F-B8AF181D3BCF}
  9
$VERSIONGUID
  2
{8B59FD8F-96D1-4B26-A5A3-A8E8F8841BF8}
  9
$EXTNAMES
290
     1
  9
$PSVPSCALE
 40
0.0
  9
$OLESTARTUP
290
     0
  9
$SORTENTS
280
   127
  9
$INDEXCTL
280
     0
  9
$HIDETEXT
280
     1
  9
$XCLIPFRAME
280
     0
  9
$HALOGAP
280
     0
  9
$OBSCOLOR
 70
   257
  9
$OBSLTYPE
280
     0
  9
$INTERSECTIONDISPLAY
280
     0
  9
$INTERSECTIONCOLOR
 70
   257
  9
$DIMASSOC
280
     1
  9
$PROJECTNAME
  1

  9
$CAMERADISPLAY
290
     0
  9
$LENSLENGTH
 40
50.0
  9
$CAMERAHEIGHT
 40
0.0
  9
$STEPSPERSEC
 40
2.0
  9
$STEPSIZE
 40
6.0
  9
$3DDWFPREC
 40
2.0
  9
$PSOLWIDTH
 40
0.25
  9
$PSOLHEIGHT
 40
4.0
  9
$LOFTANG1
 40
1.570796326794896
  9
$LOFTANG2
 40
1.570796326794896
  9
$LOFTMAG1
 40
0.0
  9
$LOFTMAG2
 40
0.0
  9
$LOFTPARAM
 70
     7
  9
$LOFTNORMALS
280
     1
  9
$LATITUDE
 40
37.795
  9
$LONGITUDE
 40
-122.394
  9
$NORTHDIRECTION
 40
0.0
  9
$TIMEZONE
 70
 -8000
  9
$LIGHTGLYPHDISPLAY
280
     1
  9
$TILEMODELIGHTSYNCH
280
     1
  9
$CMATERIAL
347
3C
  9
$SOLIDHIST
280
     1
  9
$SHOWHIST
280
     1
  9
$DWFFRAME
280
     2
  9
$DGNFRAME
280
     0
  9
$REALWORLDSCALE
290
     1
  9
$INTERFERECOLOR
 62
     1
  9
$INTERFEREOBJVS
345
57
  9
$INTERFEREVPVS
346
58
  9
$CSHADOW
280
     0
  9
$SHADOWPLANELOCATION
 40
0.0
  0
ENDSEC
  0
SECTION
  2
CLASSES
  0
CLASS
  1
ACDBDICTIONARYWDFLT
  2
AcDbDictionaryWithDefault
  3
ObjectDBX Classes
 90
        0
 91
        1
280
     0
281
     0
  0
CLASS
  1
MATERIAL
  2
AcDbMaterial
  3
ObjectDBX Classes
 90
     1153
 91
        3
280
     0
281
     0
  0
CLASS
  1
VISUALSTYLE
  2
AcDbVisualStyle
  3
ObjectDBX Classes
 90
     4095
 91
        3
280
     0
281
     0
  0
CLASS
  1
TABLESTYLE
  2
AcDbTableStyle
  3
ObjectDBX Classes
 90
     4095
 91
        1
280
     0
281
     0
  0
CLASS
  1
SCALE
  2
AcDbScale
  3
ObjectDBX Classes
 90
     1153
 91
       33
280
     0
281
     0
  0
CLASS
  1
MLEADERSTYLE
  2
AcDbMLeaderStyle
  3
ACDB_MLEADERSTYLE_CLASS
 90
     4095
 91
        0
280
     0
281
     0
  0
CLASS
  1
SORTENTSTABLE
  2
AcDbSortentsTable
  3
ObjectDBX Classes
 90
        0
 91
        4
280
     0
281
     0
  0
CLASS
  1
CELLSTYLEMAP
  2
AcDbCellStyleMap
  3
ObjectDBX Classes
 90
     1152
 91
        1
280
     0
281
     0
  0
CLASS
  1
DICTIONARYVAR
  2
AcDbDictionaryVar
  3
ObjectDBX Classes
 90
        0
 91
        7
280
     0
281
     0
  0
CLASS
  1
ACDB_DYNAMICBLOCKPURGEPREVENTER_VERSION
  2
AcDbDynamicBlockPurgePreventer
  3
ObjectDBX Classes
 90
     1153
 91
        0
280
     0
281
     0
  0
CLASS
  1
ACAD_TABLE
  2
AcDbTable
  3
ObjectDBX Classes
 90
     1025
 91
        0
280
     0
281
     1
  0
CLASS
  1
TABLECONTENT
  2
AcDbTableContent
  3
ObjectDBX Classes
 90
     1152
 91
        0
280
     0
281
     0
  0
CLASS
  1
TABLEGEOMETRY
  2
AcDbTableGeometry
  3
ObjectDBX Classes
 90
     1152
 91
        0
280
     0
281
     0
  0
CLASS
  1
SOLID_BACKGROUND
  2
AcDbSolidBackground
  3
SCENEOE
 90
     4095
 91
        0
280
     0
281
     0
  0
CLASS
  1
NPOCOLLECTION
  2
AcDbImpNonPersistentObjectsCollection
  3
ObjectDBX Classes
 90
     1153
 91
        0
280
     0
281
     0
  0
CLASS
  1
DIMASSOC
  2
AcDbDimAssoc
  3
"AcDbDimAssoc|Product Desc:     AcDim ARX App For Dimension|Company:          Autodesk, Inc.|WEB Address:      www.autodesk.com"
 90
        0
 91
        0
280
     0
281
     0
  0
CLASS
  1
IMAGEDEF
  2
AcDbRasterImageDef
  3
ISM
 90
        0
 91
        0
280
     0
281
     0
  0
CLASS
  1
AEC_REFEDIT_STATUS_TRACKER
  2
AecDbRefEditStatusTracker
  3
AecArchBase60|Product Desc: Autodesk Architectural Desktop 2007 |Company: Autodesk,Inc. |WEB Address: www.autodesk.com
 90
      129
 91
        0
280
     0
281
     0
  0
ENDSEC
  0
SECTION
  2
TABLES
  0
TABLE
  2
VPORT
  5
2E
330
0
100
AcDbSymbolTable
 70
     1
  0
VPORT
  5
2F
330
2E
100
AcDbSymbolTableRecord
100
AcDbViewportTableRecord
  2
*Active
 70
     0
 10
0.0
 20
0.0
 11
1.0
 21
1.0
 12
12.75196767872421
 22
443.561324921979
 13
0.0
 23
0.0
 14
1.0
 24
1.0
 15
100.0
 25
100.0
 16
0.0
 26
0.0
 36
1.0
 17
0.0
 27
0.0
 37
0.0
 40
1197.050544867837
 41
1.937738246505718
 42
50.0
 43
0.0
 44
0.0
 50
0.0
 51
0.0
 71
     0
 72
  1000
 73
     1
 74
     0
 75
     0
 76
     0
 77
     0
 78
     0
281
     0
 65
     1
110
0.0
120
0.0
130
0.0
111
1.0
121
0.0
131
0.0
112
0.0
122
1.0
132
0.0
 79
     0
146
0.0
348
30
 60
     3
 61
     5
292
     1
282
     1
141
0.0
142
0.0
 63
   250
421
  3355443
  0
ENDTAB
  0
TABLE
  2
LTYPE
  5
29
330
0
100
AcDbSymbolTable
 70
     4
  0
LTYPE
  5
2A
330
29
100
AcDbSymbolTableRecord
100
AcDbLinetypeTableRecord
  2
ByBlock
 70
     0
  3

 72
    65
 73
     0
 40
0.0
  0
LTYPE
  5
2B
330
29
100
AcDbSymbolTableRecord
100
AcDbLinetypeTableRecord
  2
ByLayer
 70
     0
  3

 72
    65
 73
     0
 40
0.0
  0
LTYPE
  5
15
330
29
100
AcDbSymbolTableRecord
100
AcDbLinetypeTableRecord
  2
CONTINUOUS
 70
     0
  3
Ausgezogene Linie
 72
    65
 73
     0
 40
0.0
  0
LTYPE
  5
182
330
29
100
AcDbSymbolTableRecord
100
AcDbLinetypeTableRecord
  2
VERDECKT
 70
     0
  3
__ __ __ __ __ __ __ __ __ __ __ __ __ __ __ __
 72
    65
 73
     2
 40
0.375
 49
0.25
 74
     0
 49
-0.125
 74
     0
  0
LTYPE
  5
7E
330
29
100
AcDbSymbolTableRecord
100
AcDbLinetypeTableRecord
  2
STRICHPUNKT
 70
     0
  3
__ . __ . __ . __ . __ . __ . __ . __ . __ . __
 72
    65
 73
     4
 40
1.0
 49
0.5
 74
     0
 49
-0.25
 74
     0
 49
0.0
 74
     0
 49
-0.25
 74
     0
  0
LTYPE
  5
21E
330
29
100
AcDbSymbolTableRecord
100
AcDbLinetypeTableRecord
  2
AUSGEZOGEN
 70
     0
  3
Ausgezogene Linie
 72
    65
 73
     0
 40
0.0
  0
ENDTAB
  0
TABLE
  2
LAYER
  5
20
102
{ACAD_XDICTIONARY
360
21
102
}
330
0
100
AcDbSymbolTable
 70
    10
  0
LAYER
  5
6
102
{ACAD_XDICTIONARY
360
7
102
}
330
20
100
AcDbSymbolTableRecord
100
AcDbLayerTableRecord
  2
0
 70
     0
 62
     7
  6
CONTINUOUS
370
    -3
390
9
347
C
  0
LAYER
  5
297
102
{ACAD_XDICTIONARY
360
298
102
}
330
20
100
AcDbSymbolTableRecord
100
AcDbLayerTableRecord
  2
01-01
 70
     0
 62
     2
  6
CONTINUOUS
370
    -3
390
9
347
C
  0
LAYER
  5
17F
102
{ACAD_XDICTIONARY
360
180
102
}
330
20
100
AcDbSymbolTableRecord
100
AcDbLayerTableRecord
  2
03-01
 70
     0
 62
     3
  6
VERDECKT
370
    -3
390
9
347
C
  0
LAYER
  5
7B
102
{ACAD_XDICTIONARY
360
7C
102
}
330
20
100
AcDbSymbolTableRecord
100
AcDbLayerTableRecord
  2
05-01
 70
     0
 62
     1
  6
STRICHPUNKT
370
    -3
390
9
347
C
  0
LAYER
  5
50
102
{ACAD_XDICTIONARY
360
51
102
}
330
20
100
AcDbSymbolTableRecord
100
AcDbLayerTableRecord
  2
09-01
 70
     0
 62
     7
  6
CONTINUOUS
370
    -3
390
9
347
C
  0
LAYER
  5
215
102
{ACAD_XDICTIONARY
360
216
102
}
330
20
100
AcDbSymbolTableRecord
100
AcDbLayerTableRecord
  2
01-99
 70
     0
 62
     2
  6
CONTINUOUS
370
    -3
390
9
347
C
  0
LAYER
  5
21B
102
{ACAD_XDICTIONARY
360
21C
102
}
330
20
100
AcDbSymbolTableRecord
100
AcDbLayerTableRecord
  2
02-99
 70
     0
 62
     1
  6
AUSGEZOGEN
370
    -3
390
9
347
C
  0
LAYER
  5
253
102
{ACAD_XDICTIONARY
360
254
102
}
330
20
100
AcDbSymbolTableRecord
100
AcDbLayerTableRecord
  2
06-99
 70
     0
 62
     1
  6
VERDECKT
370
    -3
390
9
347
C
  0
LAYER
  5
98
330
20
100
AcDbSymbolTableRecord
100
AcDbLayerTableRecord
  2
DEFPOINTS
 70
     0
 62
     7
  6
CONTINUOUS
290
     0
370
    -3
390
9
347
C
  0
LAYER
  5
23D
102
{ACAD_XDICTIONARY
360
23E
102
}
330
20
100
AcDbSymbolTableRecord
100
AcDbLayerTableRecord
  2
08-99
 70
     0
 62
     7
  6
CONTINUOUS
370
    -3
390
9
347
C
  0
ENDTAB
  0
TABLE
  2
STYLE
  5
26
330
0
100
AcDbSymbolTable
 70
     4
  0
STYLE
  5
27
330
26
100
AcDbSymbolTableRecord
100
AcDbTextStyleTableRecord
  2
STANDARD
 70
     0
 40
0.0
 41
1.0
 50
0.0
 71
     0
 42
3.5
  3
txt.shx
  4

  0
STYLE
  5
53
330
26
100
AcDbSymbolTableRecord
100
AcDbTextStyleTableRecord
  2
ROMANS
 70
     0
 40
0.0
 41
1.0
 50
0.0
 71
     0
 42
4.864397434158647
  3
ROMANS.SHX
  4

  0
STYLE
  5
240
330
26
100
AcDbSymbolTableRecord
100
AcDbTextStyleTableRecord
  2
ROMANS8
 70
     0
 40
0.0
 41
1.0
 50
0.0
 71
     0
 42
2.5
  3
ROMANS8
  4

  0
STYLE
  5
266
330
26
100
AcDbSymbolTableRecord
100
AcDbTextStyleTableRecord
  2
ROMAND8
 70
     0
 40
0.0
 41
1.0
 50
0.0
 71
     0
 42
3.5
  3
ROMAND8
  4

  0
ENDTAB
  0
TABLE
  2
VIEW
  5
2C
330
0
100
AcDbSymbolTable
 70
     0
  0
ENDTAB
  0
TABLE
  2
UCS
  5
2D
330
0
100
AcDbSymbolTable
 70
     0
  0
ENDTAB
  0
TABLE
  2
APPID
  5
32
330
0
100
AcDbSymbolTable
 70
     5
  0
APPID
  5
25
330
32
100
AcDbSymbolTableRecord
100
AcDbRegAppTableRecord
  2
ACAD
 70
     0
  0
APPID
  5
35
330
32
100
AcDbSymbolTableRecord
100
AcDbRegAppTableRecord
  2
ACAD_DSTYLE_DIMJOGGED_JOGANGLE_SYMBOL
 70
     0
  0
APPID
  5
36
330
32
100
AcDbSymbolTableRecord
100
AcDbRegAppTableRecord
  2
ACAD_DSTYLE_DIMJAG
 70
     0
  0
APPID
  5
37
330
32
100
AcDbSymbolTableRecord
100
AcDbRegAppTableRecord
  2
ACAD_DSTYLE_DIMTALN
 70
     0
  0
APPID
  5
1B
330
32
100
AcDbSymbolTableRecord
100
AcDbRegAppTableRecord
  2
ACAD_PSEXT
 70
     0
  0
ENDTAB
  0
TABLE
  2
DIMSTYLE
  5
33
330
0
100
AcDbSymbolTable
 70
     2
100
AcDbDimStyleTable
 71
     1
340
34
  0
DIMSTYLE
105
34
330
33
100
AcDbSymbolTableRecord
100
AcDbDimStyleTableRecord
  2
Wagner
 70
     0
 41
2.5
 42
1.0
 43
10.0
 44
1.0
 73
     0
 74
     0
 77
     1
 78
     8
 79
     2
140
2.5
141
0.0
143
0.03937007874016
147
1.0
171
     3
172
     1
176
     4
177
     4
178
     1
179
     2
271
     8
272
     8
274
     3
283
     0
284
     8
340
27
1001
ACAD_DSTYLE_DIMJOGGED_JOGANGLE_SYMBOL
1070
   384
1040
0.7853981633974483
1001
ACAD_DSTYLE_DIMJAG
1070
   388
1040
1.5
1001
ACAD_DSTYLE_DIMTALN
1070
   392
1070
     0
  0
DIMSTYLE
105
9C
102
{ACAD_REACTORS
330
2DB
330
2CE
330
2BF
330
2B2
330
19B
330
1A8
330
10F
330
102
330
F5
330
E8
330
D9
330
CC
330
BD
330
AA
330
9D
330
8E
102
}
330
33
100
AcDbSymbolTableRecord
100
AcDbDimStyleTableRecord
  2
Wagner$0
 70
     0
 41
2.5
 42
1.0
 43
10.0
 44
1.0
 73
     0
 74
     0
 77
     1
 78
     8
 79
     2
140
2.5
141
0.0
143
0.03937007874016
147
1.0
171
     3
172
     1
174
     1
176
     4
177
     4
178
     1
179
     2
271
     8
272
     8
274
     3
279
     2
283
     0
284
     8
340
27
1001
ACAD_DSTYLE_DIMJOGGED_JOGANGLE_SYMBOL
1070
   384
1040
0.7853981633974483
1001
ACAD_DSTYLE_DIMJAG
1070
   388
1040
1.5
1001
ACAD_DSTYLE_DIMTALN
1070
   392
1070
     0
  0
ENDTAB
  0
TABLE
  2
BLOCK_RECORD
  5
1
330
0
100
AcDbSymbolTable
 70
    17
  0
BLOCK_RECORD
  5
2
102
{ACAD_XDICTIONARY
360
3
102
}
330
1
100
AcDbSymbolTableRecord
100
AcDbBlockTableRecord
  2
*Model_Space
340
17
 70
     0
280
     1
281
     0
  0
BLOCK_RECORD
  5
1C
330
1
100
AcDbSymbolTableRecord
100
AcDbBlockTableRecord
  2
*Paper_Space
340
1F
 70
     0
280
     1
281
     0
  0
BLOCK_RECORD
  5
210
102
{ACAD_XDICTIONARY
360
211
102
}
330
1
100
AcDbSymbolTableRecord
100
AcDbBlockTableRecord
  2
DIN A4
340
0
102
{BLKREFS
331
20F
102
}
 70
     4
280
     1
281
     0
  0
BLOCK_RECORD
  5
2DC
330
1
100
AcDbSymbolTableRecord
100
AcDbBlockTableRecord
  2
*D1
340
0
 70
     0
280
     1
281
     0
  0
BLOCK_RECORD
  5
2CF
330
1
100
AcDbSymbolTableRecord
100
AcDbBlockTableRecord
  2
*D2
340
0
 70
     0
280
     1
281
     0
  0
BLOCK_RECORD
  5
2C0
330
1
100
AcDbSymbolTableRecord
100
AcDbBlockTableRecord
  2
*D3
340
0
 70
     0
280
     1
281
     0
  0
BLOCK_RECORD
  5
2B3
330
1
100
AcDbSymbolTableRecord
100
AcDbBlockTableRecord
  2
*D4
340
0
 70
     0
280
     1
281
     0
  0
BLOCK_RECORD
  5
1A9
330
1
100
AcDbSymbolTableRecord
100
AcDbBlockTableRecord
  2
*D5
340
0
 70
     0
280
     1
281
     0
  0
BLOCK_RECORD
  5
19C
330
1
100
AcDbSymbolTableRecord
100
AcDbBlockTableRecord
  2
*D6
340
0
 70
     0
280
     1
281
     0
  0
BLOCK_RECORD
  5
110
330
1
100
AcDbSymbolTableRecord
100
AcDbBlockTableRecord
  2
*D7
340
0
 70
     0
280
     1
281
     0
  0
BLOCK_RECORD
  5
103
330
1
100
AcDbSymbolTableRecord
100
AcDbBlockTableRecord
  2
*D8
340
0
 70
     0
280
     1
281
     0
  0
BLOCK_RECORD
  5
F6
330
1
100
AcDbSymbolTableRecord
100
AcDbBlockTableRecord
  2
*D9
340
0
 70
     0
280
     1
281
     0
  0
BLOCK_RECORD
  5
E9
330
1
100
AcDbSymbolTableRecord
100
AcDbBlockTableRecord
  2
*D10
340
0
 70
     0
280
     1
281
     0
  0
BLOCK_RECORD
  5
DA
330
1
100
AcDbSymbolTableRecord
100
AcDbBlockTableRecord
  2
*D11
340
0
 70
     0
280
     1
281
     0
  0
BLOCK_RECORD
  5
CD
330
1
100
AcDbSymbolTableRecord
100
AcDbBlockTableRecord
  2
*D12
340
0
 70
     0
280
     1
281
     0
  0
BLOCK_RECORD
  5
BE
330
1
100
AcDbSymbolTableRecord
100
AcDbBlockTableRecord
  2
*D13
340
0
 70
     0
280
     1
281
     0
  0
BLOCK_RECORD
  5
AB
330
1
100
AcDbSymbolTableRecord
100
AcDbBlockTableRecord
  2
*D14
340
0
 70
     0
280
     1
281
     0
  0
BLOCK_RECORD
  5
9E
330
1
100
AcDbSymbolTableRecord
100
AcDbBlockTableRecord
  2
*D15
340
0
 70
     0
280
     1
281
     0
  0
BLOCK_RECORD
  5
8F
330
1
100
AcDbSymbolTableRecord
100
AcDbBlockTableRecord
  2
*D16
340
0
 70
     0
280
     1
281
     0
  0
ENDTAB
  0
ENDSEC
  0
SECTION
  2
BLOCKS
  0
BLOCK
  5
5
330
2
100
AcDbEntity
  8
0
100
AcDbBlockBegin
  2
*Model_Space
 70
     0
 10
0.0
 20
0.0
 30
0.0
  3
*Model_Space
  1

  0
ENDBLK
  5
16
330
2
100
AcDbEntity
  8
0
100
AcDbBlockEnd
  0
BLOCK
  5
1D
330
1C
100
AcDbEntity
 67
     1
  8
0
100
AcDbBlockBegin
  2
*Paper_Space
 70
     0
 10
0.0
 20
0.0
 30
0.0
  3
*Paper_Space
  1

  0
ENDBLK
  5
1E
330
1C
100
AcDbEntity
 67
     1
  8
0
100
AcDbBlockEnd
  0
BLOCK
  5
213
330
210
100
AcDbEntity
  8
0
100
AcDbBlockBegin
  2
DIN A4
 70
     2
 10
0.0
 20
0.0
 30
0.0
  3
DIN A4
  1

  0
LINE
  5
214
330
210
100
AcDbEntity
  8
01-99
100
AcDbLine
 10
204.0000075739527
 20
290.9999979434973
 30
0.0
 11
20.0000075739529
 21
290.9999979434973
 31
0.0
  0
LINE
  5
218
330
210
100
AcDbEntity
  8
01-99
100
AcDbLine
 10
204.0000075122353
 20
290.9999979871026
 30
0.0
 11
204.0000075122355
 21
5.999997987102574
 31
0.0
  0
LINE
  5
219
330
210
100
AcDbEntity
  8
01-99
100
AcDbLine
 10
20.0000075122355
 20
5.99999798710246
 30
0.0
 11
20.0000075122355
 21
290.9999979871026
 31
0.0
  0
LWPOLYLINE
  5
21A
330
210
100
AcDbEntity
  8
02-99
100
AcDbPolyline
 90
        4
 70
     1
 43
0.0
 10
0.0000075122354986
 20
-0.0000020128974256
 10
210.0000075122355
 20
-0.0000020128974256
 10
210.0000075122355
 20
296.9999979871026
 10
0.0000075122354986
 20
296.9999979871026
  0
LINE
  5
21F
330
210
100
AcDbEntity
  8
01-99
100
AcDbLine
 10
20.0000075122355
 20
5.99999798710246
 30
0.0
 11
204.0000075122355
 21
5.999997987102631
 31
0.0
  0
LINE
  5
220
330
210
100
AcDbEntity
  8
01-99
100
AcDbLine
 10
70.0000075122355
 20
11.11110909810247
 30
0.0
 11
20.0000075122355
 21
11.11110909810247
 31
0.0
  0
LINE
  5
221
330
210
100
AcDbEntity
  8
01-99
100
AcDbLine
 10
70.0000075122355
 20
16.22222020910249
 30
0.0
 11
20.0000075122355
 21
16.22222020910249
 31
0.0
  0
LINE
  5
222
330
210
100
AcDbEntity
  8
01-99
100
AcDbLine
 10
70.0000075122355
 20
21.3333313201025
 30
0.0
 11
20.0000075122355
 21
21.33333132010244
 31
0.0
  0
LINE
  5
223
330
210
100
AcDbEntity
  8
01-99
100
AcDbLine
 10
115.0000075122355
 20
26.44444243110252
 30
0.0
 11
20.0000075122355
 21
26.44444243110246
 31
0.0
  0
LINE
  5
224
330
210
100
AcDbEntity
  8
01-99
100
AcDbLine
 10
115.0000075122355
 20
31.55555354210253
 30
0.0
 11
20.0000075122355
 21
31.55555354210247
 31
0.0
  0
LINE
  5
225
330
210
100
AcDbEntity
  8
01-99
100
AcDbLine
 10
45.0000075122355
 20
5.99999798710246
 30
0.0
 11
45.0000075122355
 21
11.11110909810247
 31
0.0
  0
LINE
  5
226
330
210
100
AcDbEntity
  8
01-99
100
AcDbLine
 10
28.0000075122355
 20
11.11110909810247
 30
0.0
 11
28.0000075122355
 21
36.66666465376915
 31
0.0
  0
LINE
  5
227
330
210
100
AcDbEntity
  8
01-99
100
AcDbLine
 10
70.0000075122355
 20
5.99999798710246
 30
0.0
 11
70.0000075122355
 21
51.99999798710246
 31
0.0
  0
LINE
  5
228
330
210
100
AcDbEntity
  8
01-99
100
AcDbLine
 10
115.0000075122355
 20
5.99999798710246
 30
0.0
 11
115.0000075122355
 21
51.99999798710246
 31
0.0
  0
LINE
  5
229
330
210
100
AcDbEntity
  8
01-99
100
AcDbLine
 10
144.5000075122355
 20
5.99999798710246
 30
0.0
 11
144.5000075122355
 21
16.22222020910254
 31
0.0
  0
LINE
  5
22A
330
210
100
AcDbEntity
  8
01-99
100
AcDbLine
 10
177.0000075122355
 20
5.99999798710246
 30
0.0
 11
177.0000075122355
 21
16.2222202091026
 31
0.0
  0
LINE
  5
22B
330
210
100
AcDbEntity
  8
01-99
100
AcDbLine
 10
148.5000075122355
 20
36.6666646537692
 30
0.0
 11
148.5000075122355
 21
51.99999798710257
 31
0.0
  0
LINE
  5
22C
330
210
100
AcDbEntity
  8
01-99
100
AcDbLine
 10
182.0000075122355
 20
36.6666646537692
 30
0.0
 11
182.0000075122355
 21
51.99999798710257
 31
0.0
  0
LINE
  5
22D
330
210
100
AcDbEntity
  8
01-99
100
AcDbLine
 10
78.00000751223549
 20
21.33333132043583
 30
0.0
 11
78.00000751223549
 21
36.6666646537692
 31
0.0
  0
LINE
  5
22E
330
210
100
AcDbEntity
  8
01-99
100
AcDbLine
 10
60.00319585166497
 20
11.11110909810247
 30
0.0
 11
60.00319585166497
 21
36.66666465376915
 31
0.0
  0
LINE
  5
22F
330
210
100
AcDbEntity
  8
01-99
100
AcDbLine
 10
48.00319585166497
 20
11.11110909810247
 30
0.0
 11
48.00319585166497
 21
36.66666465376915
 31
0.0
  0
LINE
  5
230
330
210
100
AcDbEntity
  8
01-99
100
AcDbLine
 10
204.0000075122355
 20
51.99999798710257
 30
0.0
 11
20.00000751223368
 21
51.99999798710246
 31
0.0
  0
LINE
  5
231
330
210
100
AcDbEntity
  8
01-99
100
AcDbLine
 10
115.0000075122355
 20
21.33333132043583
 30
0.0
 11
70.0000075122355
 21
21.33333132043583
 31
0.0
  0
LINE
  5
232
330
210
100
AcDbEntity
  8
01-99
100
AcDbLine
 10
115.0000075122355
 20
36.6666646537692
 30
0.0
 11
20.0000075122355
 21
36.66666465376909
 31
0.0
  0
LINE
  5
233
330
210
100
AcDbEntity
  8
01-99
100
AcDbLine
 10
92.0000075122355
 20
21.33333132043583
 30
0.0
 11
92.0000075122355
 21
51.99999798710251
 31
0.0
  0
LINE
  5
234
330
210
100
AcDbEntity
  8
01-99
100
AcDbLine
 10
70.0000075122355
 20
36.66666465376915
 30
0.0
 11
78.00000751223549
 21
31.55555355376919
 31
0.0
  0
LINE
  5
235
330
210
100
AcDbEntity
  8
01-99
100
AcDbLine
 10
70.0000075122355
 20
31.55555355376919
 30
0.0
 11
78.00000751223549
 21
36.6666646537692
 31
0.0
  0
LINE
  5
236
330
210
100
AcDbEntity
  8
01-99
100
AcDbLine
 10
204.0000075122355
 20
44.33333132043583
 30
0.0
 11
115.0000075122355
 21
44.33333132043578
 31
0.0
  0
LINE
  5
237
330
210
100
AcDbEntity
  8
01-99
100
AcDbLine
 10
115.0000075122355
 20
16.22222020910249
 30
0.0
 11
204.0000075122355
 21
16.2222202091026
 31
0.0
  0
LINE
  5
238
330
210
100
AcDbEntity
  8
01-99
100
AcDbLine
 10
115.0000075122355
 20
36.6666646537692
 30
0.0
 11
204.0000075122355
 21
36.66666465376926
 31
0.0
  0
LINE
  5
239
330
210
100
AcDbEntity
  8
01-99
100
AcDbLine
 10
92.0000075122355
 20
41.77777576510249
 30
0.0
 11
70.0000075122355
 21
41.77777576510249
 31
0.0
  0
LINE
  5
23A
330
210
100
AcDbEntity
  8
01-99
100
AcDbLine
 10
92.0000075122355
 20
46.8888868761025
 30
0.0
 11
70.0000075122355
 21
46.88888687610244
 31
0.0
  0
LINE
  5
23B
330
210
100
AcDbEntity
  8
01-99
100
AcDbLine
 10
20.00000751223368
 20
51.99999798710246
 30
0.0
 11
20.00000751223368
 21
5.99999798710246
 31
0.0
  0
TEXT
  5
23C
330
210
100
AcDbEntity
  8
08-99
100
AcDbText
 10
116.4997086805418
 20
32.66987169496042
 30
0.0
 40
2.5
  1
Benennung/Teil:
 51
15.0
  7
ROMANS8
100
AcDbText
  0
TEXT
  5
241
330
210
100
AcDbEntity
  8
08-99
100
AcDbText
 10
178.5028349598029
 20
12.01760068133313
 30
0.0
 40
2.7
  1
Ident-Nr.
 51
15.0
  7
ROMANS8
100
AcDbText
  0
TEXT
  5
242
330
210
100
AcDbEntity
  8
08-99
100
AcDbText
 10
93.50002924540357
 20
33.0555749488849
 30
0.0
 40
2.5
  1
Name:
 51
15.0
  7
ROMANS8
100
AcDbText
  0
TEXT
  5
243
330
210
100
AcDbEntity
  8
08-99
100
AcDbText
 10
79.50777665478042
 20
33.04841594810694
 30
0.0
 40
2.5
  1
Datum:
 50
0.102528160689452
 41
0.8933771909280748
 51
15.0
  7
ROMANS8
 72
     5
 11
90.67497366186243
 21
33.06839915456692
 31
0.0
100
AcDbText
  0
TEXT
  5
244
330
210
100
AcDbEntity
  8
08-99
100
AcDbText
 10
29.50001559397086
 20
33.05597508608236
 30
0.0
 40
1.6
  1
Änderung:
 51
15.0
  7
ROMANS8
100
AcDbText
  0
TEXT
  5
245
330
210
100
AcDbEntity
  8
08-99
100
AcDbText
 10
46.49994558798837
 20
9.111117286264914
 30
0.0
 40
1.0
  1
ERSETZT.DURCH:
 51
15.0
  7
ROMANS8
100
AcDbText
  0
TEXT
  5
246
330
210
100
AcDbEntity
  8
08-99
100
AcDbText
 10
21.49936832790721
 20
9.110852190038713
 30
0.0
 40
1.0
  1
ERSETZT.FÜR:
 51
15.0
  7
ROMANS8
100
AcDbText
  0
TEXT
  5
247
330
210
100
AcDbEntity
  8
08-99
100
AcDbText
 10
145.9909143543897
 20
12.61295485116625
 30
0.0
 40
2.112
  1
AUFTRAGS.NR.:
 51
15.0
  7
ROMANS8
100
AcDbText
  0
TEXT
  5
248
330
210
100
AcDbEntity
  8
08-99
100
AcDbText
 10
116.5034717172479
 20
12.61092664313281
 30
0.0
 40
2.112
  1
Sonder-Nr:
 51
15.0
  7
ROMANS8
100
AcDbText
  0
TEXT
  5
249
330
210
100
AcDbEntity
  8
08-99
100
AcDbText
 10
99.69631500731376
 20
49.92370649414477
 30
0.0
 40
1.349999999999999
  1
Format
 51
15.0
  7
ROMANS8
100
AcDbText
  0
TEXT
  5
24A
330
210
100
AcDbEntity
  8
08-99
100
AcDbText
 10
98.30438725900334
 20
44.6416167802032
 30
0.0
 40
1.822499999999999
  1
Normen
 51
15.0
  7
ROMANS8
100
AcDbText
  0
TEXT
  5
24B
330
210
100
AcDbEntity
  8
08-99
100
AcDbText
 10
21.50003711613706
 20
33.05556582266059
 30
0.0
 40
1.6
  1
Zust.
 51
15.0
  7
ROMANS8
100
AcDbText
  0
TEXT
  5
24C
330
210
100
AcDbEntity
  8
08-99
100
AcDbText
 10
49.50318821340468
 20
33.05555723859902
 30
0.0
 40
1.6
  1
Datum:
 51
15.0
  7
ROMANS8
100
AcDbText
  0
TEXT
  5
24D
330
210
100
AcDbEntity
  8
08-99
100
AcDbText
 10
61.50322112916754
 20
33.05556204504791
 30
0.0
 40
1.6
  1
Name:
 51
15.0
  7
ROMANS8
100
AcDbText
  0
TEXT
  5
24E
330
210
100
AcDbEntity
  8
08-99
100
AcDbText
 10
71.1545619578267
 20
28.03813755505132
 30
0.0
 40
1.6
  1
Erst.
 51
15.0
  7
ROMANS8
100
AcDbText
  0
TEXT
  5
24F
330
210
100
AcDbEntity
  8
08-99
100
AcDbText
 10
70.51718787454618
 20
23.1974490465235
 30
0.0
 40
1.6
  1
Bearb.
 51
15.0
  7
ROMANS8
100
AcDbText
  0
TEXT
  5
250
330
210
100
AcDbEntity
  8
08-99
100
AcDbText
 10
149.4308124240035
 20
41.61949547980938
 30
0.0
 40
2.0
  1
Zuschnittsbreite:
 51
15.0
  7
ROMANS8
100
AcDbText
  0
TEXT
  5
251
330
210
100
AcDbEntity
  8
08-99
100
AcDbText
 10
115.9850022862677
 20
41.73762161521608
 30
0.0
 40
2.0
  1
Zuschnittslänge:
 51
15.0
  7
ROMANS8
100
AcDbText
  0
LWPOLYLINE
  5
252
330
210
100
AcDbEntity
  8
06-99
100
AcDbPolyline
 90
      133
 70
     1
 43
0.010692
 10
93.76754732423549
 20
18.87656283643588
 10
94.00905465623557
 20
19.08724513243589
 10
93.92285931623556
 20
19.22625538843579
 10
93.82427194823552
 20
19.35180441643592
 10
93.71363469623569
 20
19.46393854843592
 10
93.59130396023548
 20
19.56271124443577
 10
93.45762188423558
 20
19.64816170843585
 10
93.31293417623559
 20
19.72033627243581
 10
93.15759367223554
 20
19.77928839643584
 10
92.99194251623569
 20
19.82505728443584
 10
92.81632998023557
 20
19.85768926843593
 10
92.63110533623573
 20
19.87723780843589
 10
92.43661429223564
 20
19.88374210843585
 10
92.27568900023554
 20
19.87767974443585
 10
92.11994932823543
 20
19.85975638843581
 10
91.96972672823566
 20
19.83036051643597
 10
91.82535621623562
 20
19.78988773243583
 10
91.68716924423554
 20
19.73873364043595
 10
91.55549013623559
 20
19.67729028043584
 10
91.43066103623565
 20
19.60594969243584
 10
91.31300626823557
 20
19.52510391643579
 10
91.20285728423553
 20
19.43514499243588
 10
91.10055266423561
 20
19.33647208843587
 10
91.00641316823569
 20
19.22947011643589
 10
90.92077737623563
 20
19.11454180843589
 10
90.84397674023561
 20
18.99207207643587
 10
90.77633914823563
 20
18.86245652443591
 10
90.71819961623559
 20
18.72608719243584
 10
90.66988603223562
 20
18.58336324843583
 10
90.63172984823566
 20
18.43466960443584
 10
90.60406964423547
 20
18.28040542843581
 10
90.5872261802356
 20
18.12095919643588
 10
90.58154160023562
 20
17.95672651243586
 10
90.58715490023557
 20
17.78762184043592
 10
90.60380590823573
 20
17.62428728443586
 10
90.63119524823539
 20
17.46704004043585
 10
90.66902354423545
 20
17.31619374043578
 10
90.71699498423553
 20
17.17206201643586
 10
90.77481375623566
 20
17.03495850043589
 10
90.84218404823563
 20
16.90519326043585
 10
90.91880648423559
 20
16.78308349243582
 10
91.00438525223561
 20
16.66893926443583
 10
91.09862810423559
 20
16.56307777243586
 10
91.2012285362355
 20
16.46580908443587
 10
91.31190142823554
 20
16.37745039643579
 10
91.43034027623562
 20
16.29831177643592
 10
91.55625283223551
 20
16.2287068564359
 10
91.6893397202355
 20
16.16895283243582
 10
91.82930869223552
 20
16.11935977243587
 10
91.9758568082357
 20
16.08024130843591
 10
92.1286953842355
 20
16.05191107243593
 10
92.28751791623555
 20
16.03468269643588
 10
92.45203572023561
 20
16.02886981243591
 10
92.61603318023563
 20
16.03412314843587
 10
92.77336596023557
 20
16.0497619804359
 10
92.92384516823554
 20
16.07559385243587
 10
93.06728191223546
 20
16.11142630843591
 10
93.20349086423565
 20
16.15707045643586
 10
93.33227956823547
 20
16.21233740443585
 10
93.45346269623556
 20
16.27703469643586
 10
93.56684422823562
 20
16.35097700443589
 10
93.67224596423559
 20
16.43397187243585
 10
93.76946832023557
 20
16.52582328043587
 10
93.85832953223555
 20
16.62635302843586
 10
93.93864070823568
 20
16.73535796843583
 10
94.01020939223556
 20
16.85265990043587
 10
94.07284669223557
 20
16.97805924043587
 10
94.12636728023565
 20
17.11137066043579
 10
94.17058226423549
 20
17.25240170443584
 10
94.20529562423556
 20
17.40096348043585
 10
94.23032916023558
 20
17.55686709643589
 10
94.2454868522357
 20
17.71992366043582
 10
94.25057980823547
 20
17.88993715243583
 10
94.25057980823547
 20
17.88993715243583
 10
94.25057980823547
 20
17.94131934043588
 10
92.6164715522356
 20
17.94131934043588
 10
92.6164715522356
 20
17.65354772443584
 10
93.88573312823544
 20
17.65354772443584
 10
93.87499479623548
 20
17.49100437643585
 10
93.84766248023552
 20
17.33635885243586
 10
93.80444185223566
 20
17.19027405643589
 10
93.74603858423554
 20
17.05341645643585
 10
93.67316547623572
 20
16.92644182843588
 10
93.58653176423562
 20
16.81002376843588
 10
93.4868359922356
 20
16.70481448843588
 10
93.37479452423556
 20
16.61148758443585
 10
93.2511130322355
 20
16.53069526843586
 10
93.11649718823563
 20
16.46310757243589
 10
92.9716562282355
 20
16.40938383643583
 10
92.81729938823563
 20
16.37019052843595
 10
92.65413234023563
 20
16.34618698843581
 10
92.48286432023567
 20
16.3380396844359
 10
92.31820395623563
 20
16.34599096843584
 10
92.15990889623553
 20
16.3693743724358
 10
92.00857076423554
 20
16.40748066043585
 10
91.86477762023541
 20
16.45960416043584
 10
91.7291103962356
 20
16.52503563643586
 10
91.60216071623555
 20
16.60306585243592
 10
91.48451307623558
 20
16.69299270043586
 10
91.37675910023554
 20
16.79410338043595
 10
91.27948328423569
 20
16.90569222043587
 10
91.19327012423552
 20
17.02705354843584
 10
91.11871124423558
 20
17.15747456443586
 10
91.05639114023555
 20
17.29625316043587
 10
91.00689787223556
 20
17.44268010043583
 10
90.97081950023541
 20
17.5960425844359
 10
90.94874052023547
 20
17.75564206843597
 10
90.94125255623557
 20
17.92076575243578
 10
90.94763924423572
 20
18.08913980443589
 10
90.96654270023558
 20
18.25115211643583
 10
90.99756375623568
 20
18.40630372843583
 10
91.04030680823555
 20
18.55409924443586
 10
91.09437981623548
 20
18.69404326843585
 10
91.15938361223554
 20
18.82564396843588
 10
91.23492259223556
 20
18.9483988204359
 10
91.32060471623564
 20
19.06181955643586
 10
91.41603081623546
 20
19.16540365243594
 10
91.52081241623548
 20
19.25865927643582
 10
91.63454322023566
 20
19.34108746843589
 10
91.75683831623567
 20
19.41219639643589
 10
91.88729497223542
 20
19.47148710043586
 10
92.02552114823564
 20
19.51846418443586
 10
92.17112480423569
 20
19.55263225243584
 10
92.32370320823568
 20
19.57349947243585
 10
92.48286432023567
 20
19.58056332043588
 10
92.66056892423561
 20
19.57164619243588
 10
92.83032224423564
 20
19.54500885643586
 10
92.99178570023562
 20
19.50081882043588
 10
93.14462071223559
 20
19.43924359243584
 10
93.28848870023561
 20
19.36045780843585
 10
93.42305464823565
 20
19.26462541243592
 10
93.54797997623554
 20
19.15192104043586
 10
93.66292254023566
 20
19.02250863643593
  0
LWPOLYLINE
  5
256
330
210
100
AcDbEntity
  8
06-99
100
AcDbPolyline
 90
       12
 70
     1
 43
0.010692
 10
90.43900298423549
 20
12.25281181243593
 10
92.32227048023563
 20
12.25281181243593
 10
92.46760683623554
 20
13.00767770443588
 10
91.56487771223558
 20
13.00767770443588
 10
91.62106060823546
 20
13.29950515243581
 10
92.41872301223557
 20
13.29950515243581
 10
92.55580870823544
 20
14.01156027643583
 10
91.75814630423545
 20
14.01156027643583
 10
91.80985281623547
 20
14.28005421643581
 10
92.68923417623549
 20
14.28005421643581
 10
92.83455984023559
 20
15.03490585243588
 10
90.97464010823561
 20
15.03490585243588
  0
LWPOLYLINE
  5
257
330
210
100
AcDbEntity
  8
06-99
100
AcDbPolyline
 90
        4
 70
     1
 43
0.010692
 10
76.60861942823558
 20
12.88042508443584
 10
89.06586862823544
 20
12.88042508443584
 10
88.94229049223557
 20
12.25209544843585
 10
76.48504485623553
 20
12.25209544843585
  0
SOLID
  5
258
330
210
100
AcDbEntity
  8
06-99
100
AcDbTrace
 10
76.60861942823558
 20
12.88042508443584
 30
0.0
 11
89.06586862823544
 21
12.88042508443584
 31
0.0
 12
76.48504485623553
 22
12.25209544843585
 32
0.0
 13
88.94229049223557
 23
12.25209544843585
 33
0.0
  0
LWPOLYLINE
  5
259
330
210
100
AcDbEntity
  8
06-99
100
AcDbPolyline
 90
       10
 70
     1
 43
0.010692
 10
82.3458504002356
 20
16.02886981243591
 10
83.32219038023552
 20
19.10266656043586
 10
84.33965535623546
 20
16.02886981243591
 10
85.56780619223562
 20
19.80153132043585
 10
85.22351666423551
 20
19.80153132043585
 10
84.33965535623546
 20
16.89302932843583
 10
83.32219038023552
 20
19.9454100004358
 10
82.3458504002356
 20
16.86733645243589
 10
81.42601764023565
 20
19.80153132043585
 10
81.07658882423564
 20
19.80153132043585
  0
LWPOLYLINE
  5
25A
330
210
100
AcDbEntity
  8
06-99
100
AcDbPolyline
 90
        3
 70
     1
 43
0.010692
 10
87.32442338423565
 20
17.65868344843591
 10
87.97704168023555
 20
19.25683094443582
 10
88.6039706642355
 20
17.65868344843591
  0
LWPOLYLINE
  5
25B
330
210
100
AcDbEntity
  8
06-99
100
AcDbPolyline
 90
        7
 70
     1
 43
0.010692
 10
86.38318880423563
 20
16.12735738843582
 10
86.72320153223555
 20
16.12735738843582
 10
87.21136974023549
 20
17.37092608843585
 10
88.71187076423566
 20
17.37092608843585
 10
89.17949964023549
 20
16.12735738843582
 10
89.54434632023552
 20
16.12735738843582
 10
87.99759883223558
 20
19.9454100004358
  0
LWPOLYLINE
  5
25C
330
210
100
AcDbEntity
  8
06-99
100
AcDbPolyline
 90
        8
 70
     1
 43
0.010692
 10
98.92981243223543
 20
12.25281181243593
 10
100.0043869442354
 20
12.25281181243593
 10
100.1574144122356
 20
12.60301045243585
 10
100.9122803042355
 20
12.60301045243585
 10
100.9343521562355
 20
12.25281181243593
 10
102.0082815842354
 20
12.25281181243593
 10
101.5711569842355
 20
15.03490585243588
 10
100.4583193682355
 20
15.03490585243588
  0
LWPOLYLINE
  5
25D
330
210
100
AcDbEntity
  8
06-99
100
AcDbPolyline
 90
       34
 70
     1
 43
0.010692
 10
96.0434642642356
 20
13.66137589243584
 10
96.07848769223544
 20
13.66137589243584
 10
96.0642316922356
 20
13.48699650043591
 10
96.06380757623552
 20
13.33509882043586
 10
96.06790617623554
 20
13.20222577243589
 10
96.09523849223561
 20
12.25281181243593
 10
96.9668360762354
 20
12.25281181243593
 10
98.31569602823542
 20
15.03490585243588
 10
97.31181345623557
 20
15.03490585243588
 10
96.85792023623552
 20
13.80922843243581
 10
96.80781752423563
 20
13.66872486043581
 10
96.74884758023544
 20
13.48671138043579
 10
96.69003445223545
 20
13.26059696443593
 10
96.66670094423549
 20
13.26059696443593
 10
96.6884270882355
 20
13.45803187243587
 10
96.69298544423558
 20
13.61569254043581
 10
96.69194475623548
 20
13.73531107243588
 10
96.67756045223544
 20
15.03490585243588
 10
95.97329266823548
 20
15.03490585243588
 10
95.45849068823557
 20
13.73531107243588
 10
95.41138886423542
 20
13.61569254043581
 10
95.35523448023562
 20
13.45803187243587
 10
95.30092981223551
 20
13.26059696443593
 10
95.27759630423545
 20
13.26059696443593
 10
95.30585169623558
 20
13.48671138043579
 10
95.31697137623556
 20
13.66872486043581
 10
95.32096662023551
 20
13.80922843243581
 10
95.33903966423546
 20
15.03490585243588
 10
94.33451200823553
 20
15.03490585243588
 10
94.61274279623561
 20
12.25281181243593
 10
95.48433681623547
 20
12.25281181243593
 10
95.87724643223557
 20
13.20222577243589
 10
95.93252050823551
 20
13.33509882043586
 10
95.99058519623557
 20
13.48699650043591
  0
LWPOLYLINE
  5
25E
330
210
100
AcDbEntity
  8
06-99
100
AcDbPolyline
 90
       10
 70
     1
 43
0.010692
 10
100.4520752402354
 20
13.26448172443588
 10
100.5983667482354
 20
13.57965693643587
 10
100.6731180842355
 20
13.74409276843596
 10
100.7541598802355
 20
13.94570824843589
 10
100.8288363722355
 20
14.19056217643595
 10
100.8482958122355
 20
14.19056217643595
 10
100.8286724282354
 20
13.94570824843589
 10
100.8320796122355
 20
13.74409276843596
 10
100.8435129242355
 20
13.57965693643587
 10
100.8684181562356
 20
13.26448172443588
  0
LWPOLYLINE
  5
25F
330
210
100
AcDbEntity
  8
06-99
100
AcDbPolyline
 90
       23
 70
     1
 43
0.010692
 10
103.5867130322356
 20
12.25281181243593
 10
104.5672478402354
 20
12.25281181243593
 10
104.7440436242355
 20
13.17110136043584
 10
105.0536340482356
 20
12.25281181243593
 10
106.1742447482354
 20
12.25281181243593
 10
105.6490750922355
 20
13.38511243243585
 10
105.8084357882355
 20
13.42380678043588
 10
105.9537079922354
 20
13.49881472443587
 10
106.0813562162355
 20
13.60690015243585
 10
106.1878378442354
 20
13.74481626043587
 10
106.2696066962354
 20
13.90931980843584
 10
106.3231201562354
 20
14.09716755643586
 10
106.3446075122355
 20
14.26808986843588
 10
106.3403093282354
 20
14.42329850443593
 10
106.3102362962355
 20
14.56225886443587
 10
106.2543991082354
 20
14.68443278443578
 10
106.1728155842354
 20
14.78928566443591
 10
106.0654999802355
 20
14.87627577643587
 10
105.9324594242355
 20
14.94487208443587
 10
105.7737153002354
 20
14.99453286043592
 10
105.5892711722355
 20
15.02472350443588
 10
105.3791519882354
 20
15.03490585243588
 10
104.1223501562355
 20
15.03490585243588
  0
LWPOLYLINE
  5
260
330
210
100
AcDbEntity
  8
06-99
100
AcDbPolyline
 90
        9
 70
     1
 43
0.010692
 10
104.9650401362355
 20
14.31896240443586
 10
105.1206907082355
 20
14.31896240443586
 10
105.2773605842356
 20
14.28538239643581
 10
105.3582277442354
 20
14.19040892443593
 10
105.3632244722355
 20
14.04269894443587
 10
105.3008722922355
 20
13.89699906043591
 10
105.1832994962355
 20
13.80577848043589
 10
105.0158200082354
 20
13.77421926043581
 10
104.8601694362355
 20
13.77421926043581
  0
LWPOLYLINE
  5
261
330
210
100
AcDbEntity
  8
06-99
100
AcDbPolyline
 90
       12
 70
     1
 43
0.010692
 10
100.5798090002356
 20
16.12735738843582
 10
102.3989066762356
 20
16.12735738843582
 10
102.3989066762356
 20
16.4408218804358
 10
100.9138270802356
 20
16.4408218804358
 10
100.9138270802356
 20
18.02353012843594
 10
102.3989066762356
 20
18.02353012843594
 10
102.3989066762356
 20
18.33699462043592
 10
100.9138270802356
 20
18.33699462043592
 10
100.9138270802356
 20
19.48806682843587
 10
102.3989066762356
 20
19.48806682843587
 10
102.3989066762356
 20
19.80153132043585
 10
100.5798090002356
 20
19.80153132043585
  0
LWPOLYLINE
  5
262
330
210
100
AcDbEntity
  8
06-99
100
AcDbPolyline
 90
        8
 70
     1
 43
0.010692
 10
95.85303261623565
 20
16.12735738843582
 10
96.18705426023556
 20
16.12735738843582
 10
96.18705426023556
 20
19.09753083643585
 10
98.76667389623552
 20
16.01858410843584
 10
98.76667389623552
 20
19.80153132043585
 10
98.4326665082356
 20
19.80153132043585
 10
98.4326665082356
 20
16.88274362443587
 10
95.85303261623565
 20
19.95568144843582
  0
LWPOLYLINE
  5
263
330
210
100
AcDbEntity
  8
06-99
100
AcDbPolyline
 90
       19
 70
     1
 43
0.010692
 10
104.4484312082357
 20
19.5086239804358
 10
104.7824385962356
 20
19.5086239804358
 10
104.9866237202355
 20
19.50030560443588
 10
105.1604542562355
 20
19.47385716043584
 10
105.3049031762356
 20
19.42705471243579
 10
105.4209256322356
 20
19.35767076043584
 10
105.5094874682356
 20
19.26347780443581
 10
105.5715509642355
 20
19.14224834443593
 10
105.6080855282355
 20
18.9917477524358
 10
105.6200498762355
 20
18.80975922043586
 10
105.6074547002355
 20
18.63100680043584
 10
105.5693840522356
 20
18.48585933643585
 10
105.5054245082356
 20
18.37130168443593
 10
105.4151448242355
 20
18.28432582843589
 10
105.2981315762356
 20
18.22192018843589
 10
105.1539570842356
 20
18.18106962043583
 10
104.9821972322354
 20
18.15876967243594
 10
104.7824385962356
 20
18.15200520043589
 10
104.4484312082357
 20
18.15200520043589
  0
LWPOLYLINE
  5
264
330
210
100
AcDbEntity
  8
06-99
100
AcDbPolyline
 90
       29
 70
     1
 43
0.010692
 10
106.3446075122355
 20
16.12735738843582
 10
105.0239637482355
 20
17.87965144843588
 10
105.2123817362357
 20
17.89225018843592
 10
105.3829084442356
 20
17.92941914443582
 10
105.5344069562356
 20
17.99022811243594
 10
105.6657296642355
 20
18.07375401643588
 10
105.7757360882356
 20
18.17905596043584
 10
105.8632821842355
 20
18.30521443243589
 10
105.9272310362355
 20
18.45129210043592
 10
105.9664386002355
 20
18.6163587604359
 10
105.9797608322353
 20
18.79948777243589
 10
105.9699455762357
 20
18.97455145243589
 10
105.9404891162357
 20
19.13261485243589
 10
105.8913629402356
 20
19.27374568843589
 10
105.8225492282356
 20
19.39801167643577
 10
105.7340230322356
 20
19.50548409643591
 10
105.6257594042356
 20
19.59623422843589
 10
105.4977369602356
 20
19.67032622443582
 10
105.3499307522354
 20
19.72783136443587
 10
105.1823193962355
 20
19.76882449243589
 10
104.9948815082355
 20
19.79336619643589
 10
104.7875885762355
 20
19.80153132043585
 10
104.7875885762355
 20
19.80153132043585
 10
104.1144131282356
 20
19.80153132043585
 10
104.1144131282356
 20
16.12735738843582
 10
104.4484312082357
 20
16.12735738843582
 10
104.4484312082357
 20
17.87965144843588
 10
104.6488456202355
 20
17.87965144843588
 10
105.9386465282355
 20
16.12735738843582
  0
TEXT
  5
265
330
210
100
AcDbEntity
  8
06-99
100
AcDbText
 10
85.6083656112951
 20
9.63320697282171
 30
0.0
 40
1.4256
  1
GmbH & Co KG
 41
1.199203187251
 51
15.0
  7
ROMAND8
 72
     5
 11
106.0419656112951
 21
9.63320697282171
 31
0.0
100
AcDbText
  0
TEXT
  5
267
330
210
100
AcDbEntity
  8
06-99
100
AcDbText
 10
85.70982236587898
 20
7.391013700398161
 30
0.0
 40
1.4256
  1
72774 Reutlingen
 50
0.5663244663116128
 41
1.087840993687879
 51
15.0
  7
ROMAND8
 72
     5
 11
105.943422365879
 21
7.59101370039815
 31
0.0
100
AcDbText
  0
TEXT
  5
268
330
210
100
AcDbEntity
  8
08-99
100
AcDbText
 10
73.414125712073
 20
48.45008961754581
 30
0.0
 40
2.25
  1
Zul. Abw.
 51
15.0
  7
ROMANS8
100
AcDbText
  0
TEXT
  5
269
330
210
100
AcDbEntity
  8
08-99
100
AcDbText
 10
123.2099338325191
 20
49.28616214647601
 30
0.0
 40
2.0
  1
Mat. Art.
 51
15.0
  7
ROMANS8
100
AcDbText
  0
TEXT
  5
26A
330
210
100
AcDbEntity
  8
08-99
100
AcDbText
 10
155.4865384826082
 20
49.4043113704472
 30
0.0
 40
2.0
  1
Oberfläche:
 51
15.0
  7
ROMANS8
100
AcDbText
  0
TEXT
  5
26B
330
210
100
AcDbEntity
  8
08-99
100
AcDbText
 10
184.762545350816
 20
41.73764470378046
 30
0.0
 40
2.0
  1
Blech Dicke:
 51
15.0
  7
ROMANS8
100
AcDbText
  0
TEXT
  5
26C
330
210
100
AcDbEntity
  8
08-99
100
AcDbText
 10
187.4380355407932
 20
49.28616214647604
 30
0.0
 40
2.0
  1
Maßstab:
 51
15.0
  7
ROMANS8
100
AcDbText
  0
LINE
  5
26D
330
210
100
AcDbEntity
  8
01-99
100
AcDbLine
 10
115.0000075122355
 20
46.8888868761025
 30
0.0
 11
92.0000075122355
 21
46.8888868761025
 31
0.0
  0
LINE
  5
26E
330
210
100
AcDbEntity
  8
01-99
100
AcDbLine
 10
115.0000075122355
 20
44.33333132043578
 30
0.0
 11
92.0000075122355
 21
44.33333132043578
 31
0.0
  0
LINE
  5
26F
330
210
100
AcDbEntity
  8
01-99
100
AcDbLine
 10
115.0000075122355
 20
40.49999798710246
 30
0.0
 11
92.00000751223544
 21
40.49999798710246
 31
0.0
  0
ATTDEF
  5
270
330
210
100
AcDbEntity
  8
06-99
100
AcDbText
 10
116.4954542514127
 20
26.18783668438471
 30
0.0
 40
4.0
  1

 41
0.9
  7
ROMANS8
100
AcDbAttributeDefinition
280
     0
  3
Benennung/Teil
  2
TEILE
 70
     0
280
     0
  0
ATTDEF
  5
271
330
210
100
AcDbEntity
  8
06-99
100
AcDbText
 10
116.4954542514127
 20
19.29547648609889
 30
0.0
 40
4.0
  1

 41
0.9
  7
ROMANS8
100
AcDbAttributeDefinition
280
     0
  3
Benennung/Teil2
  2
TEILE2
 70
     0
280
     0
  0
ATTDEF
  5
272
330
210
100
AcDbEntity
  8
06-99
100
AcDbText
 10
191.3473937239501
 20
45.33333132043583
 30
0.0
 40
3.375
  1

  7
ROMANS8
100
AcDbAttributeDefinition
280
     0
  3
Maßstab
  2
:
 70
     0
280
     0
  0
ATTDEF
  5
273
330
210
100
AcDbEntity
  8
06-99
100
AcDbText
 10
92.99707531160292
 20
27.44168345513378
 30
0.0
 40
2.5
  1

 41
0.9
  7
ROMANS8
100
AcDbAttributeDefinition
280
     0
  3
Name
  2
NAME
 70
     0
280
     0
  0
ATTDEF
  5
274
330
210
100
AcDbEntity
  8
06-99
100
AcDbText
 10
79.49315396412956
 20
27.46123316121373
 30
0.0
 40
2.5
  1

 50
359.9144597696142
 41
0.9542572414211148
  7
ROMANS8
 72
     5
 11
90.73974463267431
 21
27.44444245376917
 31
0.0
100
AcDbAttributeDefinition
280
     0
  3
Datum
  2
DATUM
 70
     0
280
     0
  0
ATTDEF
  5
275
330
210
100
AcDbEntity
  8
06-99
100
AcDbText
 10
178.5063514793938
 20
7.4928977873912
 30
0.0
 40
2.99376
  1

  7
ROMANS8
100
AcDbAttributeDefinition
280
     0
  3
Ident-Nummer
  2
ID.NR
 70
     0
280
     0
  0
ATTDEF
  5
276
330
210
100
AcDbEntity
  8
06-99
100
AcDbText
 10
116.731273767946
 20
37.66666463154695
 30
0.0
 40
3.0
  1

 41
0.9
  7
ROMANS8
100
AcDbAttributeDefinition
280
     0
  3
Zuschnitts.Länge
  2
LÄNGE
 70
     0
280
     0
  0
ATTDEF
  5
277
330
210
100
AcDbEntity
  8
06-99
100
AcDbText
 10
150.1808124240052
 20
37.67810185754732
 30
0.0
 40
3.0
  1

 41
0.9
  7
ROMANS8
100
AcDbAttributeDefinition
280
     0
  3
Zuschnitts Breite
  2
BREITE
 70
     0
280
     0
  0
ATTDEF
  5
278
330
210
100
AcDbEntity
  8
06-99
100
AcDbText
 10
190.6090996389673
 20
37.66666465376926
 30
0.0
 40
3.09375
  1

  7
ROMANS8
100
AcDbAttributeDefinition
280
     0
  3
Blech.Dicke
  2
1.0
 70
     0
280
     0
  0
ATTDEF
  5
279
330
210
100
AcDbEntity
  8
06-99
100
AcDbText
 10
164.1277931136382
 20
45.33333132043594
 30
0.0
 40
3.0
  1

  7
ROMANS8
 72
     1
 11
164.1277931136382
 21
45.33333132043594
 31
0.0
100
AcDbAttributeDefinition
280
     0
  3
Oberfläche
  2
IV
 70
     0
280
     0
  0
ATTDEF
  5
27A
330
210
100
AcDbEntity
  8
06-99
100
AcDbText
 10
123.2747480483513
 20
45.3333313204358
 30
0.0
 40
3.375
  1
1.4301
  7
ROMANS8
100
AcDbAttributeDefinition
280
     0
  3
Mat.Art
  2
1.4301
 70
     0
280
     0
  0
ATTDEF
  5
27B
330
210
100
AcDbEntity
  8
06-99
100
AcDbText
 10
146.0006413991156
 20
7.504394591457128
 30
0.0
 40
3.168
  1

 41
0.9
  7
ROMANS8
100
AcDbAttributeDefinition
280
     0
  3
Auftrags Nr.
  2
AUFTRAGS.NR.
 70
     0
280
     0
  0
ATTDEF
  5
27C
330
210
100
AcDbEntity
  8
06-99
100
AcDbText
 10
116.5000075122355
 20
7.499997987102517
 30
0.0
 40
3.168
  1

 41
0.9
  7
ROMANS8
100
AcDbAttributeDefinition
280
     0
  3
Sonder-NR,WPS
  2
SONDER-NR
 70
     0
280
     0
  0
ATTDEF
  5
27D
330
210
100
AcDbEntity
  8
06-99
100
AcDbText
 10
46.4997585072438
 20
6.601808056362358
 30
0.0
 40
1.5
  1

 41
0.9
  7
ROMANS8
100
AcDbAttributeDefinition
280
     0
  3
ERSETZT.Durch
  2
ERSETZT.DURCH
 70
     0
280
     0
  0
ATTDEF
  5
27E
330
210
100
AcDbEntity
  8
06-99
100
AcDbText
 10
21.49947529243403
 20
6.597454384974923
 30
0.0
 40
1.5
  1

 41
0.9
  7
ROMANS8
100
AcDbAttributeDefinition
280
     0
  3
ERSETZT.Für
  2
ERSETZT.FÜR
 70
     0
280
     0
  0
ATTDEF
  5
27F
330
210
100
AcDbEntity
  8
06-99
100
AcDbText
 10
99.97308015867309
 20
47.66850912711049
 30
0.0
 40
1.287
  1
DIN A4
  7
ROMANS8
 72
     1
 11
103.2518658729588
 21
47.66850912711049
 31
0.0
100
AcDbAttributeDefinition
280
     0
  3
Format
  2
FORMAT
 70
     0
280
     0
  0
ATTDEF
  5
280
330
210
100
AcDbEntity
  8
06-99
100
AcDbText
 10
95.9874465096418
 20
37.19696532096725
 30
0.0
 40
2.34
  1
DIN 2768
  7
ROMANS8
 72
     1
 11
104.0103036524989
 21
37.19696532096725
 31
0.0
100
AcDbAttributeDefinition
280
     0
  3
Norm / Kanten
  2
NORM2
 70
     0
280
     0
  0
ATTDEF
  5
281
330
210
100
AcDbEntity
  8
06-99
100
AcDbText
 10
92.81173222392748
 20
41.03029865430056
 30
0.0
 40
2.34
  1
DIN 6930-M
  7
ROMANS8
 72
     1
 11
103.5088750810703
 21
41.03029865430056
 31
0.0
100
AcDbAttributeDefinition
280
     0
  3
Norm / Fräsen
  2
NORM1
 70
     0
280
     0
  0
ENDBLK
  5
282
330
210
100
AcDbEntity
  8
0
100
AcDbBlockEnd
  0
BLOCK
  5
2DD
330
2DC
100
AcDbEntity
  8
0
100
AcDbBlockBegin
  2
*D1
 70
     1
 10
0.0
 20
0.0
 30
0.0
  3
*D1
  1

  0
LINE
  5
2DE
330
2DC
100
AcDbEntity
  8
09-01
 62
     4
370
    -2
100
AcDbLine
 10
246.0864461723434
 20
143.9047026736014
 30
0.0
 11
272.6569774301945
 21
143.9047026736014
 31
0.0
  0
LINE
  5
2DF
330
2DC
100
AcDbEntity
  8
09-01
 62
     4
370
    -2
100
AcDbLine
 10
247.0864461723433
 20
263.904702673601
 30
0.0
 11
272.6569774301945
 21
263.904702673601
 31
0.0
  0
LINE
  5
2E0
330
2DC
100
AcDbEntity
  8
09-01
 62
     4
370
    -2
100
AcDbLine
 10
270.1569774301945
 20
150.1547026736014
 30
0.0
 11
270.1569774301945
 21
257.654702673601
 31
0.0
  0
SOLID
  5
2E1
330
2DC
100
AcDbEntity
  8
09-01
 62
     4
100
AcDbTrace
 10
269.1153107635278
 20
150.1547026736014
 30
0.0
 11
271.1986440968612
 21
150.1547026736014
 31
0.0
 12
270.1569774301945
 22
143.9047026736014
 32
0.0
 13
270.1569774301945
 23
143.9047026736014
 33
0.0
  0
SOLID
  5
2E2
330
2DC
100
AcDbEntity
  8
09-01
 62
     4
100
AcDbTrace
 10
269.1153107635278
 20
257.654702673601
 30
0.0
 11
271.1986440968612
 21
257.654702673601
 31
0.0
 12
270.1569774301945
 22
263.904702673601
 32
0.0
 13
270.1569774301945
 23
263.904702673601
 33
0.0
  0
MTEXT
  5
2E3
330
2DC
100
AcDbEntity
  8
09-01
 62
     1
100
AcDbMText
 10
264.5319774301944
 20
203.9047026736013
 30
0.0
 40
6.25
 41
0.0
 46
0.0
 71
     5
 72
     1
  1
120
 11
0.0000000000000001
 21
1.0
 31
0.0
 73
     1
 44
1.0
  0
POINT
  5
2E4
330
2DC
100
AcDbEntity
  8
DEFPOINTS
 62
     0
100
AcDbPoint
 10
243.5864461723434
 20
143.9047026736014
 30
0.0
  0
POINT
  5
2E5
330
2DC
100
AcDbEntity
  8
DEFPOINTS
 62
     0
100
AcDbPoint
 10
244.5864461723433
 20
263.904702673601
 30
0.0
  0
POINT
  5
2E6
330
2DC
100
AcDbEntity
  8
DEFPOINTS
 62
     0
100
AcDbPoint
 10
270.1569774301945
 20
263.904702673601
 30
0.0
  0
ENDBLK
  5
2E7
330
2DC
100
AcDbEntity
  8
0
100
AcDbBlockEnd
  0
BLOCK
  5
2D0
330
2CF
100
AcDbEntity
  8
0
100
AcDbBlockBegin
  2
*D2
 70
     1
 10
0.0
 20
0.0
 30
0.0
  3
*D2
  1

  0
LINE
  5
2D1
330
2CF
100
AcDbEntity
  8
09-01
 62
     4
370
    -2
100
AcDbLine
 10
96.58644617234337
 20
151.4047026736009
 30
0.0
 11
96.58644617234337
 21
130.7489051043706
 31
0.0
  0
LINE
  5
2D2
330
2CF
100
AcDbEntity
  8
09-01
 62
     4
370
    -2
100
AcDbLine
 10
244.5864461723433
 20
151.4047026736014
 30
0.0
 11
244.5864461723433
 21
130.7489051043706
 31
0.0
  0
LINE
  5
2D3
330
2CF
100
AcDbEntity
  8
09-01
 62
     4
370
    -2
100
AcDbLine
 10
102.8364461723433
 20
133.2489051043706
 30
0.0
 11
238.3364461723433
 21
133.2489051043706
 31
0.0
  0
MTEXT
  5
2D4
330
2CF
100
AcDbEntity
  8
09-01
 62
     1
100
AcDbMText
 10
195.7765074139645
 20
139.2188290871284
 30
0.0
 40
6.25
 41
0.0
 46
0.0
 71
     5
 72
     1
  1
148
 73
     1
 44
1.0
  0
SOLID
  5
2D5
330
2CF
100
AcDbEntity
  8
09-01
 62
     4
100
AcDbTrace
 10
102.8364461723433
 20
134.2905717710373
 30
0.0
 11
102.8364461723433
 21
132.207238437704
 31
0.0
 12
96.58644617234337
 22
133.2489051043706
 32
0.0
 13
96.58644617234337
 23
133.2489051043706
 33
0.0
  0
SOLID
  5
2D6
330
2CF
100
AcDbEntity
  8
09-01
 62
     4
100
AcDbTrace
 10
238.3364461723433
 20
134.2905717710373
 30
0.0
 11
238.3364461723433
 21
132.207238437704
 31
0.0
 12
244.5864461723433
 22
133.2489051043706
 32
0.0
 13
244.5864461723433
 23
133.2489051043706
 33
0.0
  0
POINT
  5
2D7
330
2CF
100
AcDbEntity
  8
DEFPOINTS
 62
     0
100
AcDbPoint
 10
96.58644617234337
 20
153.904702673601
 30
0.0
  0
POINT
  5
2D8
330
2CF
100
AcDbEntity
  8
DEFPOINTS
 62
     0
100
AcDbPoint
 10
244.5864461723433
 20
153.9047026736014
 30
0.0
  0
POINT
  5
2D9
330
2CF
100
AcDbEntity
  8
DEFPOINTS
 62
     0
100
AcDbPoint
 10
244.5864461723433
 20
133.2489051043706
 30
0.0
  0
ENDBLK
  5
2DA
330
2CF
100
AcDbEntity
  8
0
100
AcDbBlockEnd
  0
BLOCK
  5
2C1
330
2C0
100
AcDbEntity
  8
0
100
AcDbBlockBegin
  2
*D3
 70
     1
 10
0.0
 20
0.0
 30
0.0
  3
*D3
  1

  0
LINE
  5
2C2
330
2C0
100
AcDbEntity
  8
09-01
 62
     4
370
    -2
100
AcDbLine
 10
349.9090715367922
 20
269.9226768328093
 30
0.0
 11
349.9090715367922
 21
244.662254101743
 31
0.0
  0
LINE
  5
2C3
330
2C0
100
AcDbEntity
  8
09-01
 62
     4
370
    -2
100
AcDbLine
 10
469.9090715295181
 20
270.9230582614894
 30
0.0
 11
469.9090715295181
 21
244.662254101743
 31
0.0
  0
LINE
  5
2C4
330
2C0
100
AcDbEntity
  8
09-01
 62
     4
370
    -2
100
AcDbLine
 10
356.1590715367922
 20
247.162254101743
 30
0.0
 11
463.6590715295181
 21
247.162254101743
 31
0.0
  0
SOLID
  5
2C5
330
2C0
100
AcDbEntity
  8
09-01
 62
     4
100
AcDbTrace
 10
356.1590715367922
 20
248.2039207684097
 30
0.0
 11
356.1590715367922
 21
246.1205874350764
 31
0.0
 12
349.9090715367922
 22
247.162254101743
 32
0.0
 13
349.9090715367922
 23
247.162254101743
 33
0.0
  0
SOLID
  5
2C6
330
2C0
100
AcDbEntity
  8
09-01
 62
     4
100
AcDbTrace
 10
463.6590715295181
 20
248.2039207684097
 30
0.0
 11
463.6590715295181
 21
246.1205874350764
 31
0.0
 12
469.9090715295181
 22
247.162254101743
 32
0.0
 13
469.9090715295181
 23
247.162254101743
 33
0.0
  0
MTEXT
  5
2C7
330
2C0
100
AcDbEntity
  8
09-01
 62
     1
100
AcDbMText
 10
409.9090715331551
 20
252.787254101743
 30
0.0
 40
6.25
 41
0.0
 46
0.0
 71
     5
 72
     1
  1
120
 73
     1
 44
1.0
  0
POINT
  5
2C8
330
2C0
100
AcDbEntity
  8
DEFPOINTS
 62
     0
100
AcDbPoint
 10
349.9090715367922
 20
272.4226768328092
 30
0.0
  0
POINT
  5
2C9
330
2C0
100
AcDbEntity
  8
DEFPOINTS
 62
     0
100
AcDbPoint
 10
469.9090715295181
 20
273.4230582614894
 30
0.0
  0
POINT
  5
2CA
330
2C0
100
AcDbEntity
  8
DEFPOINTS
 62
     0
100
AcDbPoint
 10
469.9090715295181
 20
247.162254101743
 30
0.0
  0
ENDBLK
  5
2CB
330
2C0
100
AcDbEntity
  8
0
100
AcDbBlockEnd
  0
BLOCK
  5
2B4
330
2B3
100
AcDbEntity
  8
0
100
AcDbBlockBegin
  2
*D4
 70
     1
 10
0.0
 20
0.0
 30
0.0
  3
*D4
  1

  0
LINE
  5
2B5
330
2B3
100
AcDbEntity
  8
09-01
 62
     4
370
    -2
100
AcDbLine
 10
92.83644617234335
 20
272.4226768328092
 30
0.0
 11
64.51885633261476
 21
272.4226768328092
 31
0.0
  0
LINE
  5
2B6
330
2B3
100
AcDbEntity
  8
09-01
 62
     4
370
    -2
100
AcDbLine
 10
92.83644617234335
 20
720.4226768328088
 30
0.0
 11
64.51885633261486
 21
720.4226768328088
 31
0.0
  0
LINE
  5
2B7
330
2B3
100
AcDbEntity
  8
09-01
 62
     4
370
    -2
100
AcDbLine
 10
67.01885633261476
 20
278.6726768328092
 30
0.0
 11
67.01885633261486
 21
714.1726768328088
 31
0.0
  0
SOLID
  5
2B8
330
2B3
100
AcDbEntity
  8
09-01
 62
     4
100
AcDbTrace
 10
65.97718966594809
 20
278.6726768328092
 30
0.0
 11
68.06052299928143
 21
278.6726768328092
 31
0.0
 12
67.01885633261476
 22
272.4226768328092
 32
0.0
 13
67.01885633261476
 23
272.4226768328092
 33
0.0
  0
SOLID
  5
2B9
330
2B3
100
AcDbEntity
  8
09-01
 62
     4
100
AcDbTrace
 10
65.97718966594818
 20
714.1726768328088
 30
0.0
 11
68.06052299928153
 21
714.1726768328088
 31
0.0
 12
67.01885633261486
 22
720.4226768328088
 32
0.0
 13
67.01885633261486
 23
720.4226768328088
 33
0.0
  0
MTEXT
  5
2BA
330
2B3
100
AcDbEntity
  8
09-01
 62
     1
100
AcDbMText
 10
61.39385633261473
 20
496.422676832809
 30
0.0
 40
6.25
 41
0.0
 46
0.0
 71
     5
 72
     1
  1
448
 11
0.0000000000000001
 21
1.0
 31
0.0
 73
     1
 44
1.0
  0
POINT
  5
2BB
330
2B3
100
AcDbEntity
  8
DEFPOINTS
 62
     0
100
AcDbPoint
 10
95.33644617234335
 20
272.4226768328092
 30
0.0
  0
POINT
  5
2BC
330
2B3
100
AcDbEntity
  8
DEFPOINTS
 62
     0
100
AcDbPoint
 10
95.33644617234335
 20
720.4226768328088
 30
0.0
  0
POINT
  5
2BD
330
2B3
100
AcDbEntity
  8
DEFPOINTS
 62
     0
100
AcDbPoint
 10
67.01885633261486
 20
720.4226768328088
 30
0.0
  0
ENDBLK
  5
2BE
330
2B3
100
AcDbEntity
  8
0
100
AcDbBlockEnd
  0
BLOCK
  5
1AA
330
1A9
100
AcDbEntity
  8
0
100
AcDbBlockBegin
  2
*D5
 70
     1
 10
0.0
 20
0.0
 30
0.0
  3
*D5
  1

  0
LINE
  5
1AB
330
1A9
100
AcDbEntity
  8
09-01
 62
     4
370
    -2
100
AcDbLine
 10
474.9090715295181
 20
273.4230582614894
 30
0.0
 11
496.0152256998447
 21
273.4230582614894
 31
0.0
  0
LINE
  5
1AC
330
1A9
100
AcDbEntity
  8
09-01
 62
     4
370
    -2
100
AcDbLine
 10
474.9090715295181
 20
295.4230582614894
 30
0.0
 11
496.0152256998447
 21
295.4230582614894
 31
0.0
  0
LINE
  5
1AD
330
1A9
100
AcDbEntity
  8
09-01
 62
     4
370
    -2
100
AcDbLine
 10
493.5152256998446
 20
279.6730582614894
 30
0.0
 11
493.5152256998446
 21
289.1730582614894
 31
0.0
  0
SOLID
  5
1AE
330
1A9
100
AcDbEntity
  8
09-01
 62
     4
100
AcDbTrace
 10
492.4735590331779
 20
279.6730582614894
 30
0.0
 11
494.5568923665113
 21
279.6730582614894
 31
0.0
 12
493.5152256998446
 22
273.4230582614894
 32
0.0
 13
493.5152256998446
 23
273.4230582614894
 33
0.0
  0
SOLID
  5
1AF
330
1A9
100
AcDbEntity
  8
09-01
 62
     4
100
AcDbTrace
 10
492.4735590331779
 20
289.1730582614894
 30
0.0
 11
494.5568923665113
 21
289.1730582614894
 31
0.0
 12
493.5152256998446
 22
295.4230582614894
 32
0.0
 13
493.5152256998446
 23
295.4230582614894
 33
0.0
  0
MTEXT
  5
1B0
330
1A9
100
AcDbEntity
  8
09-01
 62
     1
100
AcDbMText
 10
487.8902256998446
 20
284.4230582614894
 30
0.0
 40
6.25
 41
0.0
 46
0.0
 71
     5
 72
     1
  1
22
 11
0.0000000000000001
 21
1.0
 31
0.0
 73
     1
 44
1.0
  0
POINT
  5
1B1
330
1A9
100
AcDbEntity
  8
DEFPOINTS
 62
     0
100
AcDbPoint
 10
472.409071529518
 20
273.4230582614894
 30
0.0
  0
POINT
  5
1B2
330
1A9
100
AcDbEntity
  8
DEFPOINTS
 62
     0
100
AcDbPoint
 10
472.409071529518
 20
295.4230582614894
 30
0.0
  0
POINT
  5
1B3
330
1A9
100
AcDbEntity
  8
DEFPOINTS
 62
     0
100
AcDbPoint
 10
493.5152256998446
 20
295.4230582614894
 30
0.0
  0
ENDBLK
  5
1B4
330
1A9
100
AcDbEntity
  8
0
100
AcDbBlockEnd
  0
BLOCK
  5
19D
330
19C
100
AcDbEntity
  8
0
100
AcDbBlockBegin
  2
*D6
 70
     1
 10
0.0
 20
0.0
 30
0.0
  3
*D6
  1

  0
LINE
  5
19E
330
19C
100
AcDbEntity
  8
09-01
 62
     4
370
    -2
100
AcDbLine
 10
477.409071529518
 20
295.4230582614894
 30
0.0
 11
495.4943923665111
 21
295.4230582614894
 31
0.0
  0
LINE
  5
19F
330
19C
100
AcDbEntity
  8
09-01
 62
     4
370
    -2
100
AcDbLine
 10
477.409071529518
 20
415.4230582614894
 30
0.0
 11
495.4943923665111
 21
415.4230582614894
 31
0.0
  0
LINE
  5
1A0
330
19C
100
AcDbEntity
  8
09-01
 62
     4
370
    -2
100
AcDbLine
 10
492.9943923665111
 20
301.6730582614894
 30
0.0
 11
492.9943923665112
 21
409.1730582614894
 31
0.0
  0
SOLID
  5
1A1
330
19C
100
AcDbEntity
  8
09-01
 62
     4
100
AcDbTrace
 10
491.9527256998444
 20
301.6730582614894
 30
0.0
 11
494.0360590331778
 21
301.6730582614894
 31
0.0
 12
492.9943923665111
 22
295.4230582614894
 32
0.0
 13
492.9943923665111
 23
295.4230582614894
 33
0.0
  0
SOLID
  5
1A2
330
19C
100
AcDbEntity
  8
09-01
 62
     4
100
AcDbTrace
 10
491.9527256998445
 20
409.1730582614894
 30
0.0
 11
494.0360590331779
 21
409.1730582614894
 31
0.0
 12
492.9943923665112
 22
415.4230582614894
 32
0.0
 13
492.9943923665112
 23
415.4230582614894
 33
0.0
  0
MTEXT
  5
1A3
330
19C
100
AcDbEntity
  8
09-01
 62
     1
100
AcDbMText
 10
487.369392366511
 20
355.4230582614895
 30
0.0
 40
6.25
 41
0.0
 46
0.0
 71
     5
 72
     1
  1
120
 11
0.0000000000000001
 21
1.0
 31
0.0
 73
     1
 44
1.0
  0
POINT
  5
1A4
330
19C
100
AcDbEntity
  8
DEFPOINTS
 62
     0
100
AcDbPoint
 10
474.9090715295181
 20
295.4230582614894
 30
0.0
  0
POINT
  5
1A5
330
19C
100
AcDbEntity
  8
DEFPOINTS
 62
     0
100
AcDbPoint
 10
474.9090715295181
 20
415.4230582614894
 30
0.0
  0
POINT
  5
1A6
330
19C
100
AcDbEntity
  8
DEFPOINTS
 62
     0
100
AcDbPoint
 10
492.9943923665112
 20
415.4230582614894
 30
0.0
  0
ENDBLK
  5
1A7
330
19C
100
AcDbEntity
  8
0
100
AcDbBlockEnd
  0
BLOCK
  5
111
330
110
100
AcDbEntity
  8
0
100
AcDbBlockBegin
  2
*D7
 70
     1
 10
0.0
 20
0.0
 30
0.0
  3
*D7
  1

  0
LINE
  5
112
330
110
100
AcDbEntity
  8
09-01
 62
     4
370
    -2
100
AcDbLine
 10
347.4090715367922
 20
720.4226768328088
 30
0.0
 11
332.3823918300814
 21
720.4226768328088
 31
0.0
  0
LINE
  5
113
330
110
100
AcDbEntity
  8
09-01
 62
     4
370
    -2
100
AcDbLine
 10
418.9090715367922
 20
699.4226768328088
 30
0.0
 11
332.3823918300814
 21
699.4226768328088
 31
0.0
  0
LINE
  5
114
330
110
100
AcDbEntity
  8
09-01
 62
     4
370
    -2
100
AcDbLine
 10
334.8823918300813
 20
714.1726768328088
 30
0.0
 11
334.8823918300813
 21
705.6726768328088
 31
0.0
  0
SOLID
  5
115
330
110
100
AcDbEntity
  8
09-01
 62
     4
100
AcDbTrace
 10
333.8407251634147
 20
714.1726768328088
 30
0.0
 11
335.924058496748
 21
714.1726768328088
 31
0.0
 12
334.8823918300813
 22
720.4226768328088
 32
0.0
 13
334.8823918300813
 23
720.4226768328088
 33
0.0
  0
SOLID
  5
116
330
110
100
AcDbEntity
  8
09-01
 62
     4
100
AcDbTrace
 10
333.8407251634147
 20
705.6726768328088
 30
0.0
 11
335.924058496748
 21
705.6726768328088
 31
0.0
 12
334.8823918300813
 22
699.4226768328088
 32
0.0
 13
334.8823918300813
 23
699.4226768328088
 33
0.0
  0
MTEXT
  5
117
330
110
100
AcDbEntity
  8
09-01
 62
     1
100
AcDbMText
 10
329.2573918300813
 20
709.9226768328089
 30
0.0
 40
6.25
 41
0.0
 46
0.0
 71
     5
 72
     1
  1
21
 11
0.0000000000000001
 21
1.0
 31
0.0
 73
     1
 44
1.0
  0
POINT
  5
118
330
110
100
AcDbEntity
  8
DEFPOINTS
 62
     0
100
AcDbPoint
 10
349.9090715367922
 20
720.4226768328088
 30
0.0
  0
POINT
  5
119
330
110
100
AcDbEntity
  8
DEFPOINTS
 62
     0
100
AcDbPoint
 10
421.4090715367921
 20
699.4226768328088
 30
0.0
  0
POINT
  5
11A
330
110
100
AcDbEntity
  8
DEFPOINTS
 62
     0
100
AcDbPoint
 10
334.8823918300813
 20
699.4226768328088
 30
0.0
  0
ENDBLK
  5
11B
330
110
100
AcDbEntity
  8
0
100
AcDbBlockEnd
  0
BLOCK
  5
104
330
103
100
AcDbEntity
  8
0
100
AcDbBlockBegin
  2
*D8
 70
     1
 10
0.0
 20
0.0
 30
0.0
  3
*D8
  1

  0
LINE
  5
105
330
103
100
AcDbEntity
  8
09-01
 62
     4
370
    -2
100
AcDbLine
 10
418.9090715367922
 20
699.4226768328088
 30
0.0
 11
332.3823918300813
 21
699.4226768328088
 31
0.0
  0
LINE
  5
106
330
103
100
AcDbEntity
  8
09-01
 62
     4
370
    -2
100
AcDbLine
 10
418.9614028402856
 20
439.4226768328088
 30
0.0
 11
332.3823918300813
 21
439.4226768328088
 31
0.0
  0
LINE
  5
107
330
103
100
AcDbEntity
  8
09-01
 62
     4
370
    -2
100
AcDbLine
 10
334.8823918300813
 20
693.1726768328088
 30
0.0
 11
334.8823918300813
 21
445.6726768328088
 31
0.0
  0
SOLID
  5
108
330
103
100
AcDbEntity
  8
09-01
 62
     4
100
AcDbTrace
 10
333.8407251634146
 20
693.1726768328088
 30
0.0
 11
335.924058496748
 21
693.1726768328088
 31
0.0
 12
334.8823918300813
 22
699.4226768328088
 32
0.0
 13
334.8823918300813
 23
699.4226768328088
 33
0.0
  0
SOLID
  5
109
330
103
100
AcDbEntity
  8
09-01
 62
     4
100
AcDbTrace
 10
333.8407251634146
 20
445.6726768328088
 30
0.0
 11
335.924058496748
 21
445.6726768328088
 31
0.0
 12
334.8823918300813
 22
439.4226768328088
 32
0.0
 13
334.8823918300813
 23
439.4226768328088
 33
0.0
  0
MTEXT
  5
10A
330
103
100
AcDbEntity
  8
09-01
 62
     1
100
AcDbMText
 10
329.2573918300812
 20
569.4226768328089
 30
0.0
 40
6.25
 41
0.0
 46
0.0
 71
     5
 72
     1
  1
260
 11
0.0000000000000001
 21
1.0
 31
0.0
 73
     1
 44
1.0
  0
POINT
  5
10B
330
103
100
AcDbEntity
  8
DEFPOINTS
 62
     0
100
AcDbPoint
 10
421.4090715367921
 20
699.4226768328088
 30
0.0
  0
POINT
  5
10C
330
103
100
AcDbEntity
  8
DEFPOINTS
 62
     0
100
AcDbPoint
 10
421.4614028402857
 20
439.4226768328088
 30
0.0
  0
POINT
  5
10D
330
103
100
AcDbEntity
  8
DEFPOINTS
 62
     0
100
AcDbPoint
 10
334.8823918300813
 20
439.4226768328088
 30
0.0
  0
ENDBLK
  5
10E
330
103
100
AcDbEntity
  8
0
100
AcDbBlockEnd
  0
BLOCK
  5
F7
330
F6
100
AcDbEntity
  8
0
100
AcDbBlockBegin
  2
*D9
 70
     1
 10
0.0
 20
0.0
 30
0.0
  3
*D9
  1

  0
LINE
  5
F8
330
F6
100
AcDbEntity
  8
09-01
 62
     4
370
    -2
100
AcDbLine
 10
418.9614028402856
 20
439.4226768328088
 30
0.0
 11
332.3823918300812
 21
439.4226768328088
 31
0.0
  0
LINE
  5
F9
330
F6
100
AcDbEntity
  8
09-01
 62
     4
370
    -2
100
AcDbLine
 10
347.4090715367922
 20
272.4226768328088
 30
0.0
 11
332.3823918300811
 21
272.4226768328088
 31
0.0
  0
LINE
  5
FA
330
F6
100
AcDbEntity
  8
09-01
 62
     4
370
    -2
100
AcDbLine
 10
334.8823918300812
 20
433.1726768328088
 30
0.0
 11
334.8823918300811
 21
278.6726768328088
 31
0.0
  0
SOLID
  5
FB
330
F6
100
AcDbEntity
  8
09-01
 62
     4
100
AcDbTrace
 10
333.8407251634145
 20
433.1726768328088
 30
0.0
 11
335.9240584967479
 21
433.1726768328088
 31
0.0
 12
334.8823918300812
 22
439.4226768328088
 32
0.0
 13
334.8823918300812
 23
439.4226768328088
 33
0.0
  0
SOLID
  5
FC
330
F6
100
AcDbEntity
  8
09-01
 62
     4
100
AcDbTrace
 10
333.8407251634145
 20
278.6726768328088
 30
0.0
 11
335.9240584967478
 21
278.6726768328088
 31
0.0
 12
334.8823918300811
 22
272.4226768328088
 32
0.0
 13
334.8823918300811
 23
272.4226768328088
 33
0.0
  0
MTEXT
  5
FD
330
F6
100
AcDbEntity
  8
09-01
 62
     1
100
AcDbMText
 10
329.2573918300811
 20
355.922676832809
 30
0.0
 40
6.25
 41
0.0
 46
0.0
 71
     5
 72
     1
  1
167
 11
0.0000000000000001
 21
1.0
 31
0.0
 73
     1
 44
1.0
  0
POINT
  5
FE
330
F6
100
AcDbEntity
  8
DEFPOINTS
 62
     0
100
AcDbPoint
 10
421.4614028402857
 20
439.4226768328088
 30
0.0
  0
POINT
  5
FF
330
F6
100
AcDbEntity
  8
DEFPOINTS
 62
     0
100
AcDbPoint
 10
349.9090715367922
 20
272.4226768328088
 30
0.0
  0
POINT
  5
100
330
F6
100
AcDbEntity
  8
DEFPOINTS
 62
     0
100
AcDbPoint
 10
334.8823918300811
 20
272.4226768328088
 30
0.0
  0
ENDBLK
  5
101
330
F6
100
AcDbEntity
  8
0
100
AcDbBlockEnd
  0
BLOCK
  5
EA
330
E9
100
AcDbEntity
  8
0
100
AcDbBlockBegin
  2
*D10
 70
     1
 10
0.0
 20
0.0
 30
0.0
  3
*D10
  1

  0
LINE
  5
EB
330
E9
100
AcDbEntity
  8
09-01
 62
     4
370
    -2
100
AcDbLine
 10
349.9090715367922
 20
696.9226768328089
 30
0.0
 11
349.9090715367922
 21
667.5013798131094
 31
0.0
  0
LINE
  5
EC
330
E9
100
AcDbEntity
  8
09-01
 62
     4
370
    -2
100
AcDbLine
 10
429.9090715367922
 20
688.4226768328089
 30
0.0
 11
429.9090715367922
 21
667.5013798131094
 31
0.0
  0
LINE
  5
ED
330
E9
100
AcDbEntity
  8
09-01
 62
     4
370
    -2
100
AcDbLine
 10
356.1590715367922
 20
670.0013798131094
 30
0.0
 11
423.6590715367922
 21
670.0013798131094
 31
0.0
  0
SOLID
  5
EE
330
E9
100
AcDbEntity
  8
09-01
 62
     4
100
AcDbTrace
 10
356.1590715367922
 20
671.043046479776
 30
0.0
 11
356.1590715367922
 21
668.9597131464428
 31
0.0
 12
349.9090715367922
 22
670.0013798131094
 32
0.0
 13
349.9090715367922
 23
670.0013798131094
 33
0.0
  0
SOLID
  5
EF
330
E9
100
AcDbEntity
  8
09-01
 62
     4
100
AcDbTrace
 10
423.6590715367922
 20
671.043046479776
 30
0.0
 11
423.6590715367922
 21
668.9597131464428
 31
0.0
 12
429.9090715367922
 22
670.0013798131094
 32
0.0
 13
429.9090715367922
 23
670.0013798131094
 33
0.0
  0
MTEXT
  5
F0
330
E9
100
AcDbEntity
  8
09-01
 62
     1
100
AcDbMText
 10
389.9090715367922
 20
675.6263798131094
 30
0.0
 40
6.25
 41
0.0
 46
0.0
 71
     5
 72
     1
  1
80
 73
     1
 44
1.0
  0
POINT
  5
F1
330
E9
100
AcDbEntity
  8
DEFPOINTS
 62
     0
100
AcDbPoint
 10
349.9090715367922
 20
699.4226768328088
 30
0.0
  0
POINT
  5
F2
330
E9
100
AcDbEntity
  8
DEFPOINTS
 62
     0
100
AcDbPoint
 10
429.9090715367922
 20
690.9226768328088
 30
0.0
  0
POINT
  5
F3
330
E9
100
AcDbEntity
  8
DEFPOINTS
 62
     0
100
AcDbPoint
 10
429.9090715367922
 20
670.0013798131094
 30
0.0
  0
ENDBLK
  5
F4
330
E9
100
AcDbEntity
  8
0
100
AcDbBlockEnd
  0
BLOCK
  5
DB
330
DA
100
AcDbEntity
  8
0
100
AcDbBlockBegin
  2
*D11
 70
     1
 10
0.0
 20
0.0
 30
0.0
  3
*D11
  1

  0
LINE
  5
DC
330
DA
100
AcDbEntity
  8
09-01
 62
     4
370
    -2
100
AcDbLine
 10
427.4090715367922
 20
701.9226768328088
 30
0.0
 11
427.4090715367922
 21
711.470919061191
 31
0.0
  0
LINE
  5
DD
330
DA
100
AcDbEntity
  8
09-01
 62
     4
370
    -2
100
AcDbLine
 10
432.4090715367922
 20
701.9226768328088
 30
0.0
 11
432.4090715367922
 21
711.470919061191
 31
0.0
  0
LINE
  5
DE
330
DA
100
AcDbEntity
  8
09-01
 62
     4
370
    -2
100
AcDbLine
 10
421.1590715367922
 20
708.970919061191
 30
0.0
 11
414.9090715367922
 21
708.970919061191
 31
0.0
  0
LINE
  5
DF
330
DA
100
AcDbEntity
  8
09-01
 62
     4
370
    -2
100
AcDbLine
 10
438.6590715367922
 20
708.970919061191
 30
0.0
 11
444.9090715367922
 21
708.970919061191
 31
0.0
  0
MTEXT
  5
E0
330
DA
100
AcDbEntity
  8
09-01
 62
     1
100
AcDbMText
 10
416.2802057748058
 20
714.0976780759586
 30
0.0
 40
6.25
 41
0.0
 46
0.0
 71
     5
 72
     1
  1
5
 73
     1
 44
1.0
  0
LINE
  5
E1
330
DA
100
AcDbEntity
  8
09-01
 62
     4
370
    -2
100
AcDbLine
 10
427.4090715367922
 20
708.970919061191
 30
0.0
 11
432.4090715367922
 21
708.970919061191
 31
0.0
  0
SOLID
  5
E2
330
DA
100
AcDbEntity
  8
09-01
 62
     4
100
AcDbTrace
 10
421.1590715367922
 20
710.0125857278576
 30
0.0
 11
421.1590715367922
 21
707.9292523945244
 31
0.0
 12
427.4090715367922
 22
708.970919061191
 32
0.0
 13
427.4090715367922
 23
708.970919061191
 33
0.0
  0
SOLID
  5
E3
330
DA
100
AcDbEntity
  8
09-01
 62
     4
100
AcDbTrace
 10
438.6590715367922
 20
710.0125857278576
 30
0.0
 11
438.6590715367922
 21
707.9292523945244
 31
0.0
 12
432.4090715367922
 22
708.970919061191
 32
0.0
 13
432.4090715367922
 23
708.970919061191
 33
0.0
  0
POINT
  5
E4
330
DA
100
AcDbEntity
  8
DEFPOINTS
 62
     0
100
AcDbPoint
 10
427.4090715367922
 20
699.4226768328088
 30
0.0
  0
POINT
  5
E5
330
DA
100
AcDbEntity
  8
DEFPOINTS
 62
     0
100
AcDbPoint
 10
432.4090715367922
 20
699.4226768328088
 30
0.0
  0
POINT
  5
E6
330
DA
100
AcDbEntity
  8
DEFPOINTS
 62
     0
100
AcDbPoint
 10
432.4090715367922
 20
708.970919061191
 30
0.0
  0
ENDBLK
  5
E7
330
DA
100
AcDbEntity
  8
0
100
AcDbBlockEnd
  0
BLOCK
  5
CE
330
CD
100
AcDbEntity
  8
0
100
AcDbBlockBegin
  2
*D12
 70
     1
 10
0.0
 20
0.0
 30
0.0
  3
*D12
  1

  0
LINE
  5
CF
330
CD
100
AcDbEntity
  8
09-01
 62
     4
370
    -2
100
AcDbLine
 10
349.9090715367922
 20
267.4226768328093
 30
0.0
 11
349.9090715367922
 21
256.2590459848046
 31
0.0
  0
LINE
  5
D0
330
CD
100
AcDbEntity
  8
09-01
 62
     4
370
    -2
100
AcDbLine
 10
459.9090715367922
 20
269.9226768328093
 30
0.0
 11
459.9090715367922
 21
256.2590459848046
 31
0.0
  0
LINE
  5
D1
330
CD
100
AcDbEntity
  8
09-01
 62
     4
370
    -2
100
AcDbLine
 10
356.1590715367922
 20
258.7590459848046
 30
0.0
 11
453.6590715367922
 21
258.7590459848046
 31
0.0
  0
SOLID
  5
D2
330
CD
100
AcDbEntity
  8
09-01
 62
     4
100
AcDbTrace
 10
356.1590715367922
 20
259.8007126514713
 30
0.0
 11
356.1590715367922
 21
257.7173793181379
 31
0.0
 12
349.9090715367922
 22
258.7590459848046
 32
0.0
 13
349.9090715367922
 23
258.7590459848046
 33
0.0
  0
SOLID
  5
D3
330
CD
100
AcDbEntity
  8
09-01
 62
     4
100
AcDbTrace
 10
453.6590715367922
 20
259.8007126514713
 30
0.0
 11
453.6590715367922
 21
257.7173793181379
 31
0.0
 12
459.9090715367922
 22
258.7590459848046
 32
0.0
 13
459.9090715367922
 23
258.7590459848046
 33
0.0
  0
MTEXT
  5
D4
330
CD
100
AcDbEntity
  8
09-01
 62
     1
100
AcDbMText
 10
404.9090715367922
 20
264.3840459848046
 30
0.0
 40
6.25
 41
0.0
 46
0.0
 71
     5
 72
     1
  1
110
 73
     1
 44
1.0
  0
POINT
  5
D5
330
CD
100
AcDbEntity
  8
DEFPOINTS
 62
     0
100
AcDbPoint
 10
349.9090715367922
 20
269.9226768328093
 30
0.0
  0
POINT
  5
D6
330
CD
100
AcDbEntity
  8
DEFPOINTS
 62
     0
100
AcDbPoint
 10
459.9090715367922
 20
272.4226768328092
 30
0.0
  0
POINT
  5
D7
330
CD
100
AcDbEntity
  8
DEFPOINTS
 62
     0
100
AcDbPoint
 10
459.9090715367922
 20
258.7590459848046
 30
0.0
  0
ENDBLK
  5
D8
330
CD
100
AcDbEntity
  8
0
100
AcDbBlockEnd
  0
BLOCK
  5
BF
330
BE
100
AcDbEntity
  8
0
100
AcDbBlockBegin
  2
*D13
 70
     1
 10
0.0
 20
0.0
 30
0.0
  3
*D13
  1

  0
LINE
  5
C0
330
BE
100
AcDbEntity
  8
09-01
 62
     4
370
    -2
100
AcDbLine
 10
459.9090715367922
 20
269.9226768328093
 30
0.0
 11
459.9090715367922
 21
256.2590459848046
 31
0.0
  0
LINE
  5
C1
330
BE
100
AcDbEntity
  8
09-01
 62
     4
370
    -2
100
AcDbLine
 10
469.9090715295181
 20
268.4230582614894
 30
0.0
 11
469.9090715295181
 21
256.2590459848046
 31
0.0
  0
LINE
  5
C2
330
BE
100
AcDbEntity
  8
09-01
 62
     4
370
    -2
100
AcDbLine
 10
453.6590715367922
 20
258.7590459848046
 30
0.0
 11
447.4090715367922
 21
258.7590459848046
 31
0.0
  0
LINE
  5
C3
330
BE
100
AcDbEntity
  8
09-01
 62
     4
370
    -2
100
AcDbLine
 10
476.1590715295181
 20
258.7590459848046
 30
0.0
 11
482.4090715295181
 21
258.7590459848046
 31
0.0
  0
LINE
  5
C4
330
BE
100
AcDbEntity
  8
09-01
 62
     4
370
    -2
100
AcDbLine
 10
459.9090715367922
 20
258.7590459848046
 30
0.0
 11
469.9090715295181
 21
258.7590459848046
 31
0.0
  0
SOLID
  5
C5
330
BE
100
AcDbEntity
  8
09-01
 62
     4
100
AcDbTrace
 10
453.6590715367922
 20
259.8007126514713
 30
0.0
 11
453.6590715367922
 21
257.7173793181379
 31
0.0
 12
459.9090715367922
 22
258.7590459848046
 32
0.0
 13
459.9090715367922
 23
258.7590459848046
 33
0.0
  0
SOLID
  5
C6
330
BE
100
AcDbEntity
  8
09-01
 62
     4
100
AcDbTrace
 10
476.1590715295181
 20
259.8007126514713
 30
0.0
 11
476.1590715295181
 21
257.7173793181379
 31
0.0
 12
469.9090715295181
 22
258.7590459848046
 32
0.0
 13
469.9090715295181
 23
258.7590459848046
 33
0.0
  0
MTEXT
  5
C7
330
BE
100
AcDbEntity
  8
09-01
 62
     1
100
AcDbMText
 10
464.9090715331551
 20
264.3840459848046
 30
0.0
 40
6.25
 41
0.0
 46
0.0
 71
     5
 72
     1
  1
10
 73
     1
 44
1.0
  0
POINT
  5
C8
330
BE
100
AcDbEntity
  8
DEFPOINTS
 62
     0
100
AcDbPoint
 10
459.9090715367922
 20
272.4226768328092
 30
0.0
  0
POINT
  5
C9
330
BE
100
AcDbEntity
  8
DEFPOINTS
 62
     0
100
AcDbPoint
 10
469.9090715295181
 20
270.9230582614894
 30
0.0
  0
POINT
  5
CA
330
BE
100
AcDbEntity
  8
DEFPOINTS
 62
     0
100
AcDbPoint
 10
469.9090715295181
 20
258.7590459848046
 30
0.0
  0
ENDBLK
  5
CB
330
BE
100
AcDbEntity
  8
0
100
AcDbBlockEnd
  0
BLOCK
  5
AC
330
AB
100
AcDbEntity
  8
0
100
AcDbBlockBegin
  2
*D14
 70
     1
 10
0.0
 20
0.0
 30
0.0
  3
*D14
  1

  0
LINE
  5
AD
330
AB
100
AcDbEntity
  8
09-01
 62
     4
370
    -2
100
AcDbLine
 10
96.58644617234337
 20
274.9226768328092
 30
0.0
 11
96.58644617234337
 21
323.8212449819506
 31
0.0
  0
LINE
  5
AE
330
AB
100
AcDbEntity
  8
09-01
 62
     4
370
    -2
100
AcDbLine
 10
118.5864461723442
 20
312.1775994416583
 30
0.0
 11
118.5864461723442
 21
323.8212449819506
 31
0.0
  0
LINE
  5
AF
330
AB
100
AcDbEntity
  8
09-01
 62
     4
370
    -2
100
AcDbLine
 10
102.8364461723433
 20
321.3212449819506
 30
0.0
 11
112.3364461723442
 21
321.3212449819506
 31
0.0
  0
SOLID
  5
B0
330
AB
100
AcDbEntity
  8
09-01
 62
     4
100
AcDbTrace
 10
102.8364461723433
 20
322.3629116486173
 30
0.0
 11
102.8364461723433
 21
320.2795783152839
 31
0.0
 12
96.58644617234337
 22
321.3212449819506
 32
0.0
 13
96.58644617234337
 23
321.3212449819506
 33
0.0
  0
SOLID
  5
B1
330
AB
100
AcDbEntity
  8
09-01
 62
     4
100
AcDbTrace
 10
112.3364461723442
 20
322.3629116486173
 30
0.0
 11
112.3364461723442
 21
320.2795783152839
 31
0.0
 12
118.5864461723442
 22
321.3212449819506
 32
0.0
 13
118.5864461723442
 23
321.3212449819506
 33
0.0
  0
MTEXT
  5
B2
330
AB
100
AcDbEntity
  8
09-01
 62
     1
100
AcDbMText
 10
107.5864461723438
 20
326.9462449819506
 30
0.0
 40
6.25
 41
0.0
 46
0.0
 71
     5
 72
     1
  1
22
 73
     1
 44
1.0
  0
POINT
  5
B3
330
AB
100
AcDbEntity
  8
DEFPOINTS
 62
     0
100
AcDbPoint
 10
96.58644617234337
 20
272.4226768328092
 30
0.0
  0
POINT
  5
B4
330
AB
100
AcDbEntity
  8
DEFPOINTS
 62
     0
100
AcDbPoint
 10
118.5864461723442
 20
309.6775994416583
 30
0.0
  0
POINT
  5
B5
330
AB
100
AcDbEntity
  8
DEFPOINTS
 62
     0
100
AcDbPoint
 10
118.5864461723442
 20
321.3212449819506
 30
0.0
  0
ENDBLK
  5
B6
330
AB
100
AcDbEntity
  8
0
100
AcDbBlockEnd
  0
BLOCK
  5
9F
330
9E
100
AcDbEntity
  8
0
100
AcDbBlockBegin
  2
*D15
 70
     1
 10
0.0
 20
0.0
 30
0.0
  3
*D15
  1

  0
LINE
  5
A0
330
9E
100
AcDbEntity
  8
09-01
 62
     4
370
    -2
100
AcDbLine
 10
118.5864461723442
 20
312.1775994416583
 30
0.0
 11
118.5864461723442
 21
323.8212449819506
 31
0.0
  0
LINE
  5
A1
330
9E
100
AcDbEntity
  8
09-01
 62
     4
370
    -2
100
AcDbLine
 10
222.5864461723434
 20
311.0071871582471
 30
0.0
 11
222.5864461723434
 21
323.8212449819506
 31
0.0
  0
LINE
  5
A2
330
9E
100
AcDbEntity
  8
09-01
 62
     4
370
    -2
100
AcDbLine
 10
124.8364461723442
 20
321.3212449819506
 30
0.0
 11
216.3364461723434
 21
321.3212449819506
 31
0.0
  0
SOLID
  5
A3
330
9E
100
AcDbEntity
  8
09-01
 62
     4
100
AcDbTrace
 10
124.8364461723442
 20
322.3629116486173
 30
0.0
 11
124.8364461723442
 21
320.2795783152839
 31
0.0
 12
118.5864461723442
 22
321.3212449819506
 32
0.0
 13
118.5864461723442
 23
321.3212449819506
 33
0.0
  0
SOLID
  5
A4
330
9E
100
AcDbEntity
  8
09-01
 62
     4
100
AcDbTrace
 10
216.3364461723434
 20
322.3629116486173
 30
0.0
 11
216.3364461723434
 21
320.2795783152839
 31
0.0
 12
222.5864461723434
 22
321.3212449819506
 32
0.0
 13
222.5864461723434
 23
321.3212449819506
 33
0.0
  0
MTEXT
  5
A5
330
9E
100
AcDbEntity
  8
09-01
 62
     1
100
AcDbMText
 10
170.5864461723438
 20
326.9462449819506
 30
0.0
 40
6.25
 41
0.0
 46
0.0
 71
     5
 72
     1
  1
104
 73
     1
 44
1.0
  0
POINT
  5
A6
330
9E
100
AcDbEntity
  8
DEFPOINTS
 62
     0
100
AcDbPoint
 10
118.5864461723442
 20
309.6775994416583
 30
0.0
  0
POINT
  5
A7
330
9E
100
AcDbEntity
  8
DEFPOINTS
 62
     0
100
AcDbPoint
 10
222.5864461723434
 20
308.5071871582471
 30
0.0
  0
POINT
  5
A8
330
9E
100
AcDbEntity
  8
DEFPOINTS
 62
     0
100
AcDbPoint
 10
222.5864461723434
 20
321.3212449819506
 30
0.0
  0
ENDBLK
  5
A9
330
9E
100
AcDbEntity
  8
0
100
AcDbBlockEnd
  0
BLOCK
  5
90
330
8F
100
AcDbEntity
  8
0
100
AcDbBlockBegin
  2
*D16
 70
     1
 10
0.0
 20
0.0
 30
0.0
  3
*D16
  1

  0
LINE
  5
91
330
8F
100
AcDbEntity
  8
09-01
 62
     4
370
    -2
100
AcDbLine
 10
222.5864461723434
 20
311.0071871582471
 30
0.0
 11
222.5864461723434
 21
323.8212449819506
 31
0.0
  0
LINE
  5
92
330
8F
100
AcDbEntity
  8
09-01
 62
     4
370
    -2
100
AcDbLine
 10
244.5864461723433
 20
320.3579837934452
 30
0.0
 11
244.5864461723433
 21
323.8212449819506
 31
0.0
  0
LINE
  5
93
330
8F
100
AcDbEntity
  8
09-01
 62
     4
370
    -2
100
AcDbLine
 10
228.8364461723434
 20
321.3212449819506
 30
0.0
 11
238.3364461723433
 21
321.3212449819506
 31
0.0
  0
SOLID
  5
94
330
8F
100
AcDbEntity
  8
09-01
 62
     4
100
AcDbTrace
 10
228.8364461723434
 20
322.3629116486173
 30
0.0
 11
228.8364461723434
 21
320.2795783152839
 31
0.0
 12
222.5864461723434
 22
321.3212449819506
 32
0.0
 13
222.5864461723434
 23
321.3212449819506
 33
0.0
  0
SOLID
  5
95
330
8F
100
AcDbEntity
  8
09-01
 62
     4
100
AcDbTrace
 10
238.3364461723433
 20
322.3629116486173
 30
0.0
 11
238.3364461723433
 21
320.2795783152839
 31
0.0
 12
244.5864461723433
 22
321.3212449819506
 32
0.0
 13
244.5864461723433
 23
321.3212449819506
 33
0.0
  0
MTEXT
  5
96
330
8F
100
AcDbEntity
  8
09-01
 62
     1
100
AcDbMText
 10
233.5864461723434
 20
326.9462449819506
 30
0.0
 40
6.25
 41
0.0
 46
0.0
 71
     5
 72
     1
  1
22
 73
     1
 44
1.0
  0
POINT
  5
97
330
8F
100
AcDbEntity
  8
DEFPOINTS
 62
     0
100
AcDbPoint
 10
222.5864461723434
 20
308.5071871582471
 30
0.0
  0
POINT
  5
99
330
8F
100
AcDbEntity
  8
DEFPOINTS
 62
     0
100
AcDbPoint
 10
244.5864461723433
 20
317.8579837934452
 30
0.0
  0
POINT
  5
9A
330
8F
100
AcDbEntity
  8
DEFPOINTS
 62
     0
100
AcDbPoint
 10
244.5864461723433
 20
321.3212449819506
 30
0.0
  0
ENDBLK
  5
9B
330
8F
100
AcDbEntity
  8
0
100
AcDbBlockEnd
  0
ENDSEC
  0
SECTION
  2
ENTITIES
  0
LINE
  5
7A
330
2
100
AcDbEntity
  8
05-01
100
AcDbLine
 10
163.0864461723433
 20
479.0035193121
 30
0.0
 11
163.0864461723433
 21
473.5035193120995
 31
0.0
  0
LINE
  5
7F
330
2
100
AcDbEntity
  8
05-01
100
AcDbLine
 10
178.0864461723433
 20
479.0035193120995
 30
0.0
 11
163.0864461723433
 21
479.0035193121
 31
0.0
  0
LINE
  5
80
330
2
100
AcDbEntity
  8
05-01
100
AcDbLine
 10
156.6864461723432
 20
469.5035193120995
 30
0.0
 11
184.4864461723434
 21
469.5035193120995
 31
0.0
  0
LINE
  5
81
330
2
100
AcDbEntity
  8
05-01
100
AcDbLine
 10
178.0864461723433
 20
479.0035193120995
 30
0.0
 11
178.0864461723433
 21
469.5035193120995
 31
0.0
  0
LINE
  5
82
330
2
100
AcDbEntity
  8
05-01
100
AcDbLine
 10
163.0864461723433
 20
469.5035193120995
 30
0.0
 11
163.0864461723433
 21
473.5035193120995
 31
0.0
  0
LINE
  5
83
330
2
100
AcDbEntity
  8
05-01
100
AcDbLine
 10
156.6864461723432
 20
465.0035193120995
 30
0.0
 11
156.6864461723432
 21
469.5035193120995
 31
0.0
  0
LINE
  5
84
330
2
100
AcDbEntity
  8
05-01
100
AcDbLine
 10
184.4864461723434
 20
465.0035193120995
 30
0.0
 11
184.4864461723434
 21
469.5035193120995
 31
0.0
  0
LINE
  5
85
330
2
100
AcDbEntity
  8
05-01
100
AcDbLine
 10
200.5864461723434
 20
465.0035193120995
 30
0.0
 11
140.5864461723433
 21
465.0035193120996
 31
0.0
  0
LINE
  5
86
330
2
100
AcDbEntity
  8
05-01
100
AcDbLine
 10
200.5864461723434
 20
413.0035193120995
 30
0.0
 11
140.5864461723433
 21
413.0035193120995
 31
0.0
  0
LINE
  5
87
330
2
100
AcDbEntity
  8
05-01
100
AcDbLine
 10
200.5864461723434
 20
465.0035193120995
 30
0.0
 11
200.5864461723434
 21
413.0035193120995
 31
0.0
  0
LINE
  5
88
330
2
100
AcDbEntity
  8
05-01
100
AcDbLine
 10
140.5864461723433
 20
413.0035193120995
 30
0.0
 11
140.5864461723433
 21
465.0035193120996
 31
0.0
  0
LINE
  5
89
330
2
100
AcDbEntity
  8
05-01
100
AcDbLine
 10
172.7365963162967
 20
410.4612366511376
 30
0.0
 11
173.5861437059136
 21
412.9612692300041
 31
0.0
  0
LINE
  5
8A
330
2
100
AcDbEntity
  8
05-01
100
AcDbLine
 10
172.0996822296054
 20
408.0120237381734
 30
0.0
 11
172.7365963162967
 21
410.4612366511376
 31
0.0
  0
LINE
  5
8B
330
2
100
AcDbEntity
  8
05-01
100
AcDbLine
 10
169.0732101150815
 20
408.0120237381734
 30
0.0
 11
172.0996822296054
 21
408.0120237381734
 31
0.0
  0
LINE
  5
8C
330
2
100
AcDbEntity
  8
05-01
100
AcDbLine
 10
168.4361233624511
 20
410.4610475397089
 30
0.0
 11
169.0732101150815
 21
408.0120237381734
 31
0.0
  0
LINE
  5
8D
330
2
100
AcDbEntity
  8
05-01
100
AcDbLine
 10
167.5863638225598
 20
412.9610003112391
 30
0.0
 11
168.4361233624511
 21
410.4610475397089
 31
0.0
  0
DIMENSION
  5
8E
330
2
100
AcDbEntity
  8
09-01
100
AcDbDimension
280
     0
  2
*D16
 10
244.5864461723433
 20
321.3212449819506
 30
0.0
 11
233.5864461723434
 21
326.9462449819506
 31
0.0
 71
     5
 42
22.0
 73
     0
 74
     0
 75
     0
  3
Wagner$0
100
AcDbAlignedDimension
 13
222.5864461723434
 23
308.5071871582471
 33
0.0
 14
244.5864461723433
 24
317.8579837934452
 34
0.0
100
AcDbRotatedDimension
1001
ACAD
1000
DSTYLE
1002
{
1070
    40
1040
2.5
1002
}
  0
DIMENSION
  5
9D
330
2
100
AcDbEntity
  8
09-01
100
AcDbDimension
280
     0
  2
*D15
 10
222.5864461723434
 20
321.3212449819506
 30
0.0
 11
170.5864461723438
 21
326.9462449819506
 31
0.0
 71
     5
 42
103.9999999999991
 73
     0
 74
     0
 75
     0
  3
Wagner$0
100
AcDbAlignedDimension
 13
118.5864461723442
 23
309.6775994416583
 33
0.0
 14
222.5864461723434
 24
308.5071871582471
 34
0.0
100
AcDbRotatedDimension
1001
ACAD
1000
DSTYLE
1002
{
1070
    40
1040
2.5
1002
}
  0
DIMENSION
  5
AA
330
2
100
AcDbEntity
  8
09-01
100
AcDbDimension
280
     0
  2
*D14
 10
118.5864461723442
 20
321.3212449819506
 30
0.0
 11
107.5864461723438
 21
326.9462449819506
 31
0.0
 71
     5
 42
22.00000000000091
 73
     0
 74
     0
 75
     0
  3
Wagner$0
100
AcDbAlignedDimension
 13
96.58644617234337
 23
272.4226768328092
 33
0.0
 14
118.5864461723442
 24
309.6775994416583
 34
0.0
100
AcDbRotatedDimension
1001
ACAD
1000
DSTYLE
1002
{
1070
    40
1040
2.5
1002
}
  0
LINE
  5
B7
330
2
100
AcDbEntity
  8
0
100
AcDbLine
 10
162.0864461723433
 20
143.9047026736012
 30
0.0
 11
162.0864461723433
 21
142.1047026736013
 31
0.0
  0
LINE
  5
B8
330
2
100
AcDbEntity
  8
0
100
AcDbLine
 10
179.0864461723433
 20
142.1047026736013
 30
0.0
 11
179.0864461723433
 21
143.9047026736012
 31
0.0
  0
LINE
  5
B9
330
2
100
AcDbEntity
  8
0
100
AcDbLine
 10
162.0864461723433
 20
142.1047026736013
 30
0.0
 11
179.0864461723433
 21
142.1047026736013
 31
0.0
  0
LINE
  5
BA
330
2
100
AcDbEntity
  8
0
100
AcDbLine
 10
163.3364461723433
 20
140.6047026736013
 30
0.0
 11
162.0864461723433
 21
142.1047026736013
 31
0.0
  0
LINE
  5
BB
330
2
100
AcDbEntity
  8
0
100
AcDbLine
 10
177.8364461723433
 20
140.6047026736013
 30
0.0
 11
179.0864461723433
 21
142.1047026736013
 31
0.0
  0
LINE
  5
BC
330
2
100
AcDbEntity
  8
0
100
AcDbLine
 10
177.8364461723433
 20
140.6047026736013
 30
0.0
 11
163.3364461723433
 21
140.6047026736013
 31
0.0
  0
DIMENSION
  5
BD
330
2
100
AcDbEntity
  8
09-01
100
AcDbDimension
280
     0
  2
*D13
 10
469.9090715295181
 20
258.7590459848046
 30
0.0
 11
464.9090715331551
 21
264.3840459848046
 31
0.0
 71
     5
 42
9.999999992725861
 73
     0
 74
     0
 75
     0
  3
Wagner$0
100
AcDbAlignedDimension
 13
459.9090715367922
 23
272.4226768328092
 33
0.0
 14
469.9090715295181
 24
270.9230582614894
 34
0.0
100
AcDbRotatedDimension
1001
ACAD
1000
DSTYLE
1002
{
1070
    40
1040
2.5
1070
   271
1070
     0
1002
}
  0
DIMENSION
  5
CC
330
2
100
AcDbEntity
  8
09-01
100
AcDbDimension
280
     0
  2
*D12
 10
459.9090715367922
 20
258.7590459848046
 30
0.0
 11
404.9090715367922
 21
264.3840459848046
 31
0.0
 71
     5
 42
110.0
 73
     0
 74
     0
 75
     0
  3
Wagner$0
100
AcDbAlignedDimension
 13
349.9090715367922
 23
269.9226768328093
 33
0.0
 14
459.9090715367922
 24
272.4226768328092
 34
0.0
100
AcDbRotatedDimension
1001
ACAD
1000
DSTYLE
1002
{
1070
    40
1040
2.5
1002
}
  0
DIMENSION
  5
D9
330
2
100
AcDbEntity
  8
09-01
100
AcDbDimension
280
     0
  2
*D11
 10
432.4090715367922
 20
708.970919061191
 30
0.0
 11
416.2802057748058
 21
714.0976780759586
 31
0.0
 70
   128
 71
     5
 42
5.0
 73
     0
 74
     0
 75
     0
  3
Wagner$0
100
AcDbAlignedDimension
 13
427.4090715367922
 23
699.4226768328088
 33
0.0
 14
432.4090715367922
 24
699.4226768328088
 34
0.0
100
AcDbRotatedDimension
1001
ACAD
1000
DSTYLE
1002
{
1070
    40
1040
2.5
1002
}
  0
DIMENSION
  5
E8
330
2
100
AcDbEntity
  8
09-01
100
AcDbDimension
280
     0
  2
*D10
 10
429.9090715367922
 20
670.0013798131094
 30
0.0
 11
389.9090715367922
 21
675.6263798131094
 31
0.0
 71
     5
 42
80.0
 73
     0
 74
     0
 75
     0
  3
Wagner$0
100
AcDbAlignedDimension
 13
349.9090715367922
 23
699.4226768328088
 33
0.0
 14
429.9090715367922
 24
690.9226768328088
 34
0.0
100
AcDbRotatedDimension
1001
ACAD
1000
DSTYLE
1002
{
1070
    40
1040
2.5
1002
}
  0
DIMENSION
  5
F5
330
2
100
AcDbEntity
  8
09-01
100
AcDbDimension
280
     0
  2
*D9
 10
334.8823918300811
 20
272.4226768328088
 30
0.0
 11
329.2573918300811
 21
355.922676832809
 31
0.0
 71
     5
 42
167.0
 73
     0
 74
     0
 75
     0
  3
Wagner$0
100
AcDbAlignedDimension
 13
421.4614028402857
 23
439.4226768328088
 33
0.0
 14
349.9090715367922
 24
272.4226768328088
 34
0.0
 50
90.0
100
AcDbRotatedDimension
1001
ACAD
1000
DSTYLE
1002
{
1070
    40
1040
2.5
1002
}
  0
DIMENSION
  5
102
330
2
100
AcDbEntity
  8
09-01
100
AcDbDimension
280
     0
  2
*D8
 10
334.8823918300813
 20
439.4226768328088
 30
0.0
 11
329.2573918300812
 21
569.4226768328089
 31
0.0
 71
     5
 42
260.0
 73
     0
 74
     0
 75
     0
  3
Wagner$0
100
AcDbAlignedDimension
 13
421.4090715367921
 23
699.4226768328088
 33
0.0
 14
421.4614028402857
 24
439.4226768328088
 34
0.0
 50
90.0
100
AcDbRotatedDimension
1001
ACAD
1000
DSTYLE
1002
{
1070
    40
1040
2.5
1002
}
  0
DIMENSION
  5
10F
330
2
100
AcDbEntity
  8
09-01
100
AcDbDimension
280
     0
  2
*D7
 10
334.8823918300813
 20
699.4226768328088
 30
0.0
 11
329.2573918300813
 21
709.9226768328089
 31
0.0
 71
     5
 42
21.0
 73
     0
 74
     0
 75
     0
  3
Wagner$0
100
AcDbAlignedDimension
 13
349.9090715367922
 23
720.4226768328088
 33
0.0
 14
421.4090715367921
 24
699.4226768328088
 34
0.0
 50
90.0
100
AcDbRotatedDimension
1001
ACAD
1000
DSTYLE
1002
{
1070
    40
1040
2.5
1002
}
  0
LINE
  5
11C
330
2
100
AcDbEntity
  8
05-01
100
AcDbLine
 10
379.2615297615102
 20
400.000370615788
 30
0.0
 11
349.9090715367923
 21
400.000370615788
 31
0.0
  0
LINE
  5
11D
330
2
100
AcDbEntity
  8
0
100
AcDbLine
 10
469.9090715367922
 20
684.9230579566921
 30
0.0
 11
471.7090715367922
 21
684.9230579566921
 31
0.0
  0
LINE
  5
11E
330
2
100
AcDbEntity
  8
0
100
AcDbLine
 10
471.7090715367922
 20
701.9230579566922
 30
0.0
 11
469.9090715367922
 21
701.9230579566922
 31
0.0
  0
LINE
  5
11F
330
2
100
AcDbEntity
  8
0
100
AcDbLine
 10
471.7090715367922
 20
684.9230579566921
 30
0.0
 11
471.7090715367922
 21
701.9230579566922
 31
0.0
  0
LINE
  5
120
330
2
100
AcDbEntity
  8
0
100
AcDbLine
 10
473.2090715367921
 20
686.1730579566922
 30
0.0
 11
471.7090715367922
 21
684.9230579566921
 31
0.0
  0
LINE
  5
121
330
2
100
AcDbEntity
  8
0
100
AcDbLine
 10
473.2090715367921
 20
700.6730579566922
 30
0.0
 11
471.7090715367922
 21
701.9230579566922
 31
0.0
  0
LINE
  5
122
330
2
100
AcDbEntity
  8
0
100
AcDbLine
 10
473.2090715367921
 20
700.6730579566922
 30
0.0
 11
473.2090715367921
 21
686.1730579566922
 31
0.0
  0
CIRCLE
  5
123
330
2
100
AcDbEntity
  8
0
100
AcDbCircle
 10
170.5864461723433
 20
693.4226768328088
 30
0.0
 40
6.25
  0
CIRCLE
  5
124
330
2
100
AcDbEntity
  8
0
100
AcDbCircle
 10
170.5864461723433
 20
693.4226768328088
 30
0.0
 40
6.5
  0
LINE
  5
125
330
2
100
AcDbEntity
  8
0
100
AcDbLine
 10
171.7864461723431
 20
696.4226768328089
 30
0.0
 11
171.7864461723431
 21
688.4226768328089
 31
0.0
  0
LINE
  5
126
330
2
100
AcDbEntity
  8
0
100
AcDbLine
 10
169.3864461723433
 20
696.4226768328089
 30
0.0
 11
169.3864461723433
 21
688.4226768328089
 31
0.0
  0
LINE
  5
127
330
2
100
AcDbEntity
  8
05-01
100
AcDbLine
 10
170.5864461723433
 20
703.4726768328088
 30
0.0
 11
170.5864461723433
 21
683.3726768328089
 31
0.0
  0
LINE
  5
128
330
2
100
AcDbEntity
  8
0
100
AcDbLine
 10
171.7864461723431
 20
688.4226768328089
 30
0.0
 11
169.3864461723433
 21
688.4226768328089
 31
0.0
  0
LINE
  5
129
330
2
100
AcDbEntity
  8
0
100
AcDbLine
 10
171.7864461723431
 20
696.4226768328089
 30
0.0
 11
169.3864461723433
 21
696.4226768328089
 31
0.0
  0
LINE
  5
12A
330
2
100
AcDbEntity
  8
05-01
100
AcDbLine
 10
179.1364461723433
 20
693.4226768328088
 30
0.0
 11
162.0364461723434
 21
693.4226768328088
 31
0.0
  0
CIRCLE
  5
12B
330
2
100
AcDbEntity
  8
0
100
AcDbCircle
 10
170.5864461723433
 20
693.4226768328088
 30
0.0
 40
8.5
  0
TEXT
  5
12C
330
2
100
AcDbEntity
  8
09-01
100
AcDbText
 10
245.7395833246603
 20
406.782886641799
 30
0.0
 40
5.0
  1
Batteriefachdeckel
100
AcDbText
  0
LINE
  5
12D
330
2
100
AcDbEntity
  8
05-01
100
AcDbLine
 10
307.3307659474171
 20
417.6940582191462
 30
0.0
 11
301.306741127738
 21
425.1188855548075
 31
0.0
  0
LINE
  5
12E
330
2
100
AcDbEntity
  8
05-01
100
AcDbLine
 10
309.0447312351876
 20
427.1003996431434
 30
0.0
 11
301.306741127738
 21
425.1188855548075
 31
0.0
  0
LINE
  5
12F
330
2
100
AcDbEntity
  8
05-01
100
AcDbLine
 10
307.3307659474171
 20
417.6940582191462
 30
0.0
 11
309.0447312351876
 21
427.1003996431434
 31
0.0
  0
ARC
  5
130
330
2
100
AcDbEntity
  8
05-01
100
AcDbCircle
 10
212.5864461723429
 20
399.7940582191466
 30
0.0
 40
96.42041344882045
100
AcDbArc
 50
10.6987591782062
 51
90.0
  0
LINE
  5
131
330
2
100
AcDbEntity
  8
05-01
100
AcDbLine
 10
326.5864461723429
 20
417.6940582191462
 30
0.0
 11
214.5864461723429
 21
417.6940582191462
 31
0.0
  0
LINE
  5
132
330
2
100
AcDbEntity
  8
05-01
100
AcDbLine
 10
334.0864461723429
 20
402.7940582191466
 30
0.0
 11
326.5864461723429
 21
402.7940582191466
 31
0.0
  0
LINE
  5
133
330
2
100
AcDbEntity
  8
05-01
100
AcDbLine
 10
334.0864461723429
 20
399.7940582191466
 30
0.0
 11
334.0864461723429
 21
402.7940582191466
 31
0.0
  0
LINE
  5
134
330
2
100
AcDbEntity
  8
05-01
100
AcDbLine
 10
326.5864461723429
 20
417.6940582191462
 30
0.0
 11
326.5864461723429
 21
399.7940582191466
 31
0.0
  0
LINE
  5
135
330
2
100
AcDbEntity
  8
05-01
100
AcDbLine
 10
334.0864461723429
 20
399.7940582191466
 30
0.0
 11
214.5864461723429
 21
399.7940582191466
 31
0.0
  0
LINE
  5
136
330
2
100
AcDbEntity
  8
05-01
100
AcDbLine
 10
165.5864461723429
 20
511.7940582191466
 30
0.0
 11
165.5864461723429
 21
399.7940582191466
 31
0.0
  0
LINE
  5
137
330
2
100
AcDbEntity
  8
05-01
100
AcDbLine
 10
209.5864461723429
 20
519.2940582191466
 30
0.0
 11
209.5864461723429
 21
511.7940582191466
 31
0.0
  0
LINE
  5
138
330
2
100
AcDbEntity
  8
05-01
100
AcDbLine
 10
212.5864461723429
 20
519.2940582191466
 30
0.0
 11
209.5864461723429
 21
519.2940582191466
 31
0.0
  0
LINE
  5
139
330
2
100
AcDbEntity
  8
05-01
100
AcDbLine
 10
194.6864461723432
 20
511.7940582191466
 30
0.0
 11
194.6864461723432
 21
399.7940582191466
 31
0.0
  0
LINE
  5
13A
330
2
100
AcDbEntity
  8
05-01
100
AcDbLine
 10
137.0864461723433
 20
511.7940582191466
 30
0.0
 11
212.5864461723429
 21
511.7940582191466
 31
0.0
  0
LINE
  5
13B
330
2
100
AcDbEntity
  8
05-01
100
AcDbLine
 10
137.0864461723433
 20
399.7940582191466
 30
0.0
 11
212.5864461723429
 21
399.7940582191466
 31
0.0
  0
LINE
  5
13C
330
2
100
AcDbEntity
  8
05-01
100
AcDbLine
 10
137.0864461723433
 20
511.7940582191466
 30
0.0
 11
137.0864461723433
 21
399.7940582191466
 31
0.0
  0
LINE
  5
13D
330
2
100
AcDbEntity
  8
05-01
100
AcDbLine
 10
212.5864461723429
 20
519.2940582191466
 30
0.0
 11
212.5864461723429
 21
399.7940582191466
 31
0.0
  0
LINE
  5
13E
330
2
100
AcDbEntity
  8
05-01
100
AcDbLine
 10
431.7090749736687
 20
481.5511646425242
 30
0.0
 11
402.7090749736687
 21
481.5511646425236
 31
0.0
  0
ARC
  5
13F
330
2
100
AcDbEntity
  8
05-01
100
AcDbCircle
 10
357.9630116222306
 20
419.7513575833018
 30
0.0
 40
3.0
100
AcDbArc
 50
180.0
 51
261.4701831348376
  0
LINE
  5
140
330
2
100
AcDbEntity
  8
05-01
100
AcDbLine
 10
357.5180393900621
 20
416.7845411561195
 30
0.0
 11
380.8419505330016
 21
413.2863493876343
 31
0.0
  0
ARC
  5
141
330
2
100
AcDbEntity
  8
05-01
100
AcDbCircle
 10
392.6414156278761
 20
399.546793998447
 30
0.0
 40
0.3
100
AcDbArc
 50
280.0000769541885
 51
34.99999999999756
  0
LINE
  5
142
330
2
100
AcDbEntity
  8
05-01
100
AcDbLine
 10
388.2722712444709
 20
406.3096128794619
 30
0.0
 11
392.8871612411628
 21
399.7188669293521
 31
0.0
  0
LINE
  5
143
330
2
100
AcDbEntity
  8
05-01
100
AcDbLine
 10
379.2615297615102
 20
400.000370615788
 30
0.0
 11
381.0948824259788
 21
397.3820716623721
 31
0.0
  0
ARC
  5
144
330
2
100
AcDbEntity
  8
05-01
100
AcDbCircle
 10
387.7630116222315
 20
408.3945746305867
 30
0.0
 40
2.0
100
AcDbArc
 50
304.999999999997
 51
0.0
  0
LINE
  5
145
330
2
100
AcDbEntity
  8
05-01
100
AcDbLine
 10
386.1789282267362
 20
404.843838318385
 30
0.0
 11
388.9101644949335
 21
406.756270542009
 31
0.0
  0
LWPOLYLINE
  5
146
330
2
100
AcDbEntity
  8
05-01
100
AcDbPolyline
 90
        9
 70
     0
 43
0.0
 10
390.2847767691553
 20
398.8266236645369
 10
390.5803524773062
 20
398.8787181240705
 10
390.8645660500468
 20
398.9288456303266
 10
391.1264986615122
 20
398.9750392300276
 10
391.3560771267355
 20
399.0155107838301
 10
391.5444911341608
 20
399.0487403732923
 10
391.6844912688673
 20
399.0734166962294
 10
391.7707056622446
 20
399.0886158806471
 10
391.7998150806368
 20
399.0937418800978
  0
ARC
  5
147
330
2
100
AcDbEntity
  8
05-01
100
AcDbCircle
 10
381.3406280392655
 20
397.5541445932775
 30
0.0
 40
0.3
100
AcDbArc
 50
214.9999999999975
 51
280.0000769541885
  0
LINE
  5
148
330
2
100
AcDbEntity
  8
05-01
100
AcDbLine
 10
381.3927228893754
 20
397.2587023373422
 30
0.0
 11
392.6935104779859
 21
399.2513517425117
 31
0.0
  0
LINE
  5
149
330
2
100
AcDbEntity
  8
05-01
100
AcDbLine
 10
380.5148212130016
 20
413.3270883412563
 30
0.0
 11
387.9500865374346
 21
418.7191599081957
 31
0.0
  0
LINE
  5
14A
330
2
100
AcDbEntity
  8
05-01
100
AcDbLine
 10
388.3630116222316
 20
419.5286925165194
 30
0.0
 11
388.3630116222316
 21
477.2691356425242
 31
0.0
  0
ARC
  5
14B
330
2
100
AcDbEntity
  8
05-01
100
AcDbCircle
 10
380.1230116222316
 20
477.2691356425242
 30
0.0
 40
9.639999999999981
100
AcDbArc
 50
0.0
 51
20.00000000001892
  0
ARC
  5
14C
330
2
100
AcDbEntity
  8
05-01
100
AcDbCircle
 10
380.1230116222316
 20
477.2691356425242
 30
0.0
 40
8.23999999999998
100
AcDbArc
 50
0.0
 51
20.00000000001892
  0
ARC
  5
14D
330
2
100
AcDbEntity
  8
05-01
100
AcDbCircle
 10
370.9366307728965
 20
513.1511576091766
 30
0.0
 40
6.0
100
AcDbArc
 50
20.00000000000387
 51
90.0
  0
LINE
  5
14E
330
2
100
AcDbEntity
  8
05-01
100
AcDbLine
 10
389.1816484866076
 20
480.5662098241835
 30
0.0
 11
376.574786497612
 21
515.2032784691308
 31
0.0
  0
LINE
  5
14F
330
2
100
AcDbEntity
  8
05-01
100
AcDbLine
 10
387.8660788175075
 20
480.0873816235275
 30
0.0
 11
378.6107062781259
 21
505.5163086841192
 31
0.0
  0
ARC
  5
150
330
2
100
AcDbEntity
  8
05-01
100
AcDbCircle
 10
371.5630116222317
 20
502.9511576091766
 30
0.0
 40
7.500000000000028
100
AcDbArc
 50
20.00000000001892
 51
90.0
  0
LINE
  5
151
330
2
100
AcDbEntity
  8
05-01
100
AcDbLine
 10
371.5630116222317
 20
510.4511576091765
 30
0.0
 11
354.9630116222313
 21
510.4511576091768
 31
0.0
  0
ARC
  5
152
330
2
100
AcDbEntity
  8
05-01
100
AcDbCircle
 10
387.3630116222316
 20
419.5286925165194
 30
0.0
 40
1.000000000000005
100
AcDbArc
 50
305.9497089065581
 51
0.0
  0
LINE
  5
153
330
2
100
AcDbEntity
  8
05-01
100
AcDbLine
 10
396.7630116222315
 20
411.5511576091765
 30
0.0
 11
389.7630116222313
 21
411.5511576091765
 31
0.0
  0
LINE
  5
154
330
2
100
AcDbEntity
  8
05-01
100
AcDbLine
 10
396.7630116222315
 20
459.5511576091765
 30
0.0
 11
389.7630116222315
 21
459.5511576091765
 31
0.0
  0
ARC
  5
155
330
2
100
AcDbEntity
  8
05-01
100
AcDbCircle
 10
371.7703005906622
 20
503.5511576091765
 30
0.0
 40
8.5
100
AcDbArc
 50
20.00000000000387
 51
90.0
  0
LINE
  5
156
330
2
100
AcDbEntity
  8
05-01
100
AcDbLine
 10
371.7703005906622
 20
512.0511576091765
 30
0.0
 11
354.9630116222313
 21
512.0511576091765
 31
0.0
  0
LINE
  5
157
330
2
100
AcDbEntity
  8
05-01
100
AcDbLine
 10
370.9366307728965
 20
519.1511576091767
 30
0.0
 11
354.9630116222313
 21
519.1511576091769
 31
0.0
  0
LINE
  5
158
330
2
100
AcDbEntity
  8
05-01
100
AcDbLine
 10
396.7630116222315
 20
459.5511576091765
 30
0.0
 11
396.7630116222315
 21
411.5511576091765
 31
0.0
  0
LINE
  5
159
330
2
100
AcDbEntity
  8
05-01
100
AcDbLine
 10
389.7630116222313
 20
411.5511576091765
 30
0.0
 11
389.7630116222315
 21
408.394574630587
 31
0.0
  0
LINE
  5
15A
330
2
100
AcDbEntity
  8
05-01
100
AcDbLine
 10
389.7630116222315
 20
477.2691356425242
 30
0.0
 11
389.7630116222315
 21
459.5511576091765
 31
0.0
  0
LINE
  5
15B
330
2
100
AcDbEntity
  8
05-01
100
AcDbLine
 10
397.3630116222309
 20
459.5511576091761
 30
0.0
 11
397.4593168953922
 21
413.5511576091761
 31
0.0
  0
LINE
  5
15C
330
2
100
AcDbEntity
  8
05-01
100
AcDbLine
 10
397.3630116222309
 20
459.5511576091761
 30
0.0
 11
394.9340747173519
 21
459.5511576091761
 31
0.0
  0
LWPOLYLINE
  5
15D
330
2
100
AcDbEntity
  8
05-01
100
AcDbPolyline
 90
       17
 70
     0
 43
0.0
 10
446.3590727205964
 20
408.5658917581552
 10
446.6460839863511
 20
408.5649082815164
 10
446.8894050474855
 20
408.5621962701791
 10
447.0519841666909
 20
408.558113352012
 10
447.1090779658052
 20
408.5532853757852
 10
447.0519841666909
 20
408.5484573995584
 10
446.8894050474855
 20
408.5443744813913
 10
446.6460839863511
 20
408.5416326677316
 10
446.3590727205964
 20
408.5406789934152
 10
446.0720614548417
 20
408.5416326677316
 10
445.828747844288
 20
408.5443744813913
 10
445.6661687250825
 20
408.5484573995584
 10
445.6090749259683
 20
408.5532853757852
 10
445.6661687250825
 20
408.558113352012
 10
445.828747844288
 20
408.5621962701791
 10
446.0720614548417
 20
408.5649082815164
 10
446.3590727205964
 20
408.5658917581552
  0
LWPOLYLINE
  5
15E
330
2
100
AcDbEntity
  8
05-01
100
AcDbPolyline
 90
       17
 70
     0
 43
0.0
 10
446.3590727205964
 20
408.5784683382028
 10
446.9350249524804
 20
408.5766205942148
 10
447.4197373743745
 20
408.571107164573
 10
447.7490306850167
 20
408.5629711305612
 10
447.8590757604333
 20
408.5532853757852
 10
447.7494479175302
 20
408.5436294233316
 10
447.4197373743745
 20
408.5354635869974
 10
446.9353974815103
 20
408.5299203550333
 10
446.3590727205964
 20
408.5280726110452
 10
445.7837463374826
 20
408.5299203550333
 10
445.2984155173989
 20
408.5354635869974
 10
444.9691147561761
 20
408.5435996210092
 10
444.8590771313401
 20
408.5532853757852
 10
444.9687049742433
 20
408.5629413282388
 10
445.2984155173989
 20
408.571107164573
 10
445.7833738084527
 20
408.5766503965372
 10
446.3590727205964
 20
408.5784683382028
  0
LINE
  5
15F
330
2
100
AcDbEntity
  8
05-01
100
AcDbLine
 10
400.3590763564798
 20
463.5511616622919
 30
0.0
 11
400.3590763564798
 21
461.551157609176
 31
0.0
  0
LINE
  5
160
330
2
100
AcDbEntity
  8
05-01
100
AcDbLine
 10
390.3590747173521
 20
461.551157609176
 30
0.0
 11
390.3590747173521
 21
413.5511646425241
 31
0.0
  0
LINE
  5
161
330
2
100
AcDbEntity
  8
05-01
100
AcDbLine
 10
440.3590754624101
 20
413.5511646425241
 30
0.0
 11
390.3590747173521
 21
413.5511646425241
 31
0.0
  0
LINE
  5
162
330
2
100
AcDbEntity
  8
05-01
100
AcDbLine
 10
403.709073459694
 20
461.551157609176
 30
0.0
 11
390.3590747173521
 21
461.551157609176
 31
0.0
  0
LINE
  5
163
330
2
100
AcDbEntity
  8
05-01
100
AcDbLine
 10
403.709073459694
 20
461.551157609176
 30
0.0
 11
403.709073459694
 21
463.5511616622919
 31
0.0
  0
LINE
  5
164
330
2
100
AcDbEntity
  8
05-01
100
AcDbLine
 10
460.3590712900849
 20
413.5511646425241
 30
0.0
 11
460.3590712900849
 21
463.5511616622919
 31
0.0
  0
LINE
  5
165
330
2
100
AcDbEntity
  8
05-01
100
AcDbLine
 10
440.3590754624101
 20
413.5511646425241
 30
0.0
 11
460.3590712900849
 21
413.5511646425241
 31
0.0
  0
ARC
  5
166
330
2
100
AcDbEntity
  8
05-01
100
AcDbCircle
 10
403.4973120370336
 20
480.0511636684872
 30
0.0
 40
1.500000000000056
100
AcDbArc
 50
90.0
 51
178.9999999999982
  0
ARC
  5
167
330
2
100
AcDbEntity
  8
05-01
100
AcDbCircle
 10
457.2208379102705
 20
480.0511636684872
 30
0.0
 40
1.500000000000056
100
AcDbArc
 50
1.000000000001748
 51
90.0
  0
LINE
  5
168
330
2
100
AcDbEntity
  8
05-01
100
AcDbLine
 10
457.2208345885965
 20
481.5511683380121
 30
0.0
 11
440.3590754624101
 21
481.5511683380121
 31
0.0
  0
LINE
  5
169
330
2
100
AcDbEntity
  8
05-01
100
AcDbLine
 10
440.3590754624101
 20
481.5511683380121
 30
0.0
 11
403.709073459694
 21
481.5511683380121
 31
0.0
  0
LINE
  5
16A
330
2
100
AcDbEntity
  8
05-01
100
AcDbLine
 10
401.9975409861299
 20
480.0773391878122
 30
0.0
 11
401.7352581973764
 21
465.0511572515481
 31
0.0
  0
LINE
  5
16B
330
2
100
AcDbEntity
  8
05-01
100
AcDbLine
 10
401.9975409861299
 20
480.0773391878122
 30
0.0
 11
403.709073459694
 21
480.0773391878122
 31
0.0
  0
LINE
  5
16C
330
2
100
AcDbEntity
  8
05-01
100
AcDbLine
 10
440.3590754624101
 20
480.0773391878122
 30
0.0
 11
458.7206066604348
 21
480.0773391878122
 31
0.0
  0
LINE
  5
16D
330
2
100
AcDbEntity
  8
05-01
100
AcDbLine
 10
458.7206066604348
 20
480.0773391878122
 30
0.0
 11
458.9828894491883
 21
465.0511572515481
 31
0.0
  0
LINE
  5
16E
330
2
100
AcDbEntity
  8
05-01
100
AcDbLine
 10
403.709073459694
 20
480.0773391878122
 30
0.0
 11
440.3590754624101
 21
480.0773391878122
 31
0.0
  0
LINE
  5
16F
330
2
100
AcDbEntity
  8
05-01
100
AcDbLine
 10
440.3590754624101
 20
463.5511616622919
 30
0.0
 11
460.3590712900849
 21
463.5511616622919
 31
0.0
  0
LINE
  5
170
330
2
100
AcDbEntity
  8
05-01
100
AcDbLine
 10
440.3590754624101
 20
465.0511572515481
 30
0.0
 11
460.3590712900849
 21
465.0511572515481
 31
0.0
  0
LINE
  5
171
330
2
100
AcDbEntity
  8
05-01
100
AcDbLine
 10
460.3590712900849
 20
465.0511572515481
 30
0.0
 11
460.3590712900849
 21
463.5511616622919
 31
0.0
  0
LINE
  5
172
330
2
100
AcDbEntity
  8
05-01
100
AcDbLine
 10
400.3590763564798
 20
463.5511616622919
 30
0.0
 11
403.709073459694
 21
463.5511616622919
 31
0.0
  0
LINE
  5
173
330
2
100
AcDbEntity
  8
05-01
100
AcDbLine
 10
400.3590763564798
 20
465.0511572515481
 30
0.0
 11
403.709073459694
 21
465.0511572515481
 31
0.0
  0
LINE
  5
174
330
2
100
AcDbEntity
  8
05-01
100
AcDbLine
 10
400.3590763564798
 20
465.0511572515481
 30
0.0
 11
400.3590763564798
 21
463.5511616622919
 31
0.0
  0
LINE
  5
175
330
2
100
AcDbEntity
  8
05-01
100
AcDbLine
 10
403.709073459694
 20
463.5511616622919
 30
0.0
 11
440.3590754624101
 21
463.5511616622919
 31
0.0
  0
LINE
  5
176
330
2
100
AcDbEntity
  8
05-01
100
AcDbLine
 10
403.709073459694
 20
465.0511572515481
 30
0.0
 11
440.3590754624101
 21
465.0511572515481
 31
0.0
  0
LINE
  5
177
330
2
100
AcDbEntity
  8
05-01
100
AcDbLine
 10
403.709073459694
 20
465.0511572515481
 30
0.0
 11
403.709073459694
 21
463.5511616622919
 31
0.0
  0
SPLINE
  5
178
330
2
100
AcDbEntity
  8
05-01
100
AcDbSpline
210
0.0
220
0.0
230
1.0
 70
     8
 71
     3
 72
     9
 73
     5
 74
     0
 42
0.0000000001
 43
0.0000000001
 40
0.0
 40
0.0
 40
0.0
 40
0.0
 40
0.4955569444815929
 40
1.0
 40
1.0
 40
1.0
 40
1.0
 10
444.8590771313404
 20
408.5532853757852
 30
0.0
 10
444.6487427633472
 20
409.388616951668
 30
0.0
 10
444.224302403192
 20
411.0742589049987
 30
0.0
 10
443.6491919941047
 20
412.7215243369605
 30
0.0
 10
443.3590815420841
 20
413.5524759447092
 30
0.0
  0
SPLINE
  5
179
330
2
100
AcDbEntity
  8
05-01
100
AcDbSpline
210
0.0
220
0.0
230
1.0
 70
     8
 71
     3
 72
     9
 73
     5
 74
     0
 42
0.0000000001
 43
0.0000000001
 40
0.0
 40
0.0
 40
0.0
 40
0.0
 40
0.5044956677141813
 40
1.0
 40
1.0
 40
1.0
 40
1.0
 10
449.3589521404003
 20
413.5521183168405
 30
0.0
 10
449.0697267501484
 20
412.724302467009
 30
0.0
 10
448.496430667027
 20
411.0834244519761
 30
0.0
 10
448.0702201931978
 20
409.3914549686244
 30
0.0
 10
447.85903105695
 20
408.5530767595285
 30
0.0
  0
ARC
  5
17A
330
2
100
AcDbEntity
  8
05-01
100
AcDbCircle
 10
379.8630116222307
 20
406.7593532478329
 30
0.0
 40
6.600000000000363
100
AcDbArc
 50
278.5298168651625
 51
84.3322856700442
  0
ARC
  5
17B
330
2
100
AcDbEntity
  8
05-01
100
AcDbCircle
 10
352.9630116222313
 20
561.9144790187792
 30
0.0
 40
2.0
100
AcDbArc
 50
0.0
 51
65.00000000002181
  0
LINE
  5
17C
330
2
100
AcDbEntity
  8
05-01
100
AcDbLine
 10
349.9090715367923
 20
565.5453105060913
 30
0.0
 11
353.8082481457129
 21
563.7270945928529
 31
0.0
  0
LINE
  5
17D
330
2
100
AcDbEntity
  8
05-01
100
AcDbLine
 10
354.9630116222306
 20
419.7513575833018
 30
0.0
 11
354.9630116222318
 21
561.9144790187792
 31
0.0
  0
LINE
  5
17E
330
2
100
AcDbEntity
  8
03-01
100
AcDbLine
 10
468.9090715367922
 20
415.4230582614894
 30
0.0
 11
469.9090715367922
 21
415.4230582614894
 31
0.0
  0
ARC
  5
183
330
2
100
AcDbEntity
  8
05-01
100
AcDbCircle
 10
390.6090710576261
 20
516.9421567616089
 30
0.0
 40
10.00000000000007
100
AcDbArc
 50
180.0
 51
259.9999999999949
  0
ARC
  5
184
330
2
100
AcDbEntity
  8
05-01
100
AcDbCircle
 10
195.5864461723438
 20
157.4047026736011
 30
0.0
 40
5.0
100
AcDbArc
 50
270.0
 51
0.0
  0
ARC
  5
185
330
2
100
AcDbEntity
  8
05-01
100
AcDbCircle
 10
183.5864461723476
 20
157.4047026736006
 30
0.0
 40
5.0
100
AcDbArc
 50
270.0
 51
0.0
  0
LINE
  5
186
330
2
100
AcDbEntity
  8
05-01
100
AcDbLine
 10
155.0864461723438
 20
226.4047026736011
 30
0.0
 11
188.0864461723438
 21
226.4047026736011
 31
0.0
  0
LINE
  5
187
330
2
100
AcDbEntity
  8
05-01
100
AcDbLine
 10
155.0864461723438
 20
152.4047026736011
 30
0.0
 11
188.0864461723438
 21
152.4047026736011
 31
0.0
  0
ARC
  5
188
330
2
100
AcDbEntity
  8
05-01
100
AcDbCircle
 10
195.5864461723438
 20
221.4047026736016
 30
0.0
 40
5.0
100
AcDbArc
 50
0.0
 51
90.0
  0
LINE
  5
189
330
2
100
AcDbEntity
  8
05-01
100
AcDbLine
 10
200.586446172344
 20
221.4047026736016
 30
0.0
 11
200.5864461723438
 21
157.4047026736011
 31
0.0
  0
ARC
  5
18A
330
2
100
AcDbEntity
  8
05-01
100
AcDbCircle
 10
183.5864461723476
 20
221.4047026736016
 30
0.0
 40
5.0
100
AcDbArc
 50
0.0
 51
90.0
  0
LINE
  5
18B
330
2
100
AcDbEntity
  8
05-01
100
AcDbLine
 10
188.5864461723479
 20
221.4047026736016
 30
0.0
 11
188.5864461723476
 21
157.4047026736011
 31
0.0
  0
ARC
  5
18C
330
2
100
AcDbEntity
  8
05-01
100
AcDbCircle
 10
147.5864461723438
 20
221.4047026736016
 30
0.0
 40
5.0
100
AcDbArc
 50
90.0
 51
180.0
  0
ARC
  5
18D
330
2
100
AcDbEntity
  8
05-01
100
AcDbCircle
 10
147.5864461723438
 20
157.4047026736011
 30
0.0
 40
5.0
100
AcDbArc
 50
180.0
 51
270.0
  0
LINE
  5
18E
330
2
100
AcDbEntity
  8
05-01
100
AcDbLine
 10
142.5864461723438
 20
221.4047026736016
 30
0.0
 11
142.5864461723438
 21
157.4047026736011
 31
0.0
  0
LINE
  5
18F
330
2
100
AcDbEntity
  8
05-01
100
AcDbLine
 10
190.0864461723438
 20
234.9047026736011
 30
0.0
 11
201.0864461723402
 21
234.9047026736011
 31
0.0
  0
ARC
  5
190
330
2
100
AcDbEntity
  8
05-01
100
AcDbCircle
 10
201.0864461723402
 20
148.9047026736016
 30
0.0
 40
5.0
100
AcDbArc
 50
270.0
 51
0.0
  0
ARC
  5
191
330
2
100
AcDbEntity
  8
05-01
100
AcDbCircle
 10
190.0864461723438
 20
148.9047026736016
 30
0.0
 40
5.0
100
AcDbArc
 50
270.0
 51
0.0
  0
LINE
  5
192
330
2
100
AcDbEntity
  8
05-01
100
AcDbLine
 10
142.0864461723438
 20
143.9047026736011
 30
0.0
 11
190.0864461723438
 21
143.9047026736011
 31
0.0
  0
LINE
  5
193
330
2
100
AcDbEntity
  8
05-01
100
AcDbLine
 10
142.0864461723438
 20
234.9047026736011
 30
0.0
 11
190.0864461723438
 21
234.9047026736011
 31
0.0
  0
ARC
  5
194
330
2
100
AcDbEntity
  8
05-01
100
AcDbCircle
 10
201.0864461723402
 20
229.9047026736011
 30
0.0
 40
5.0
100
AcDbArc
 50
0.0
 51
90.0
  0
LINE
  5
195
330
2
100
AcDbEntity
  8
05-01
100
AcDbLine
 10
206.0864461723402
 20
229.9047026736011
 30
0.0
 11
206.0864461723402
 21
148.9047026736016
 31
0.0
  0
ARC
  5
196
330
2
100
AcDbEntity
  8
05-01
100
AcDbCircle
 10
190.0864461723438
 20
229.9047026736011
 30
0.0
 40
5.0
100
AcDbArc
 50
0.0
 51
90.0
  0
LINE
  5
197
330
2
100
AcDbEntity
  8
05-01
100
AcDbLine
 10
195.0864461723438
 20
229.9047026736011
 30
0.0
 11
195.0864461723438
 21
148.9047026736016
 31
0.0
  0
ARC
  5
198
330
2
100
AcDbEntity
  8
05-01
100
AcDbCircle
 10
142.0864461723438
 20
229.9047026736011
 30
0.0
 40
5.0
100
AcDbArc
 50
90.0
 51
180.0
  0
ARC
  5
199
330
2
100
AcDbEntity
  8
05-01
100
AcDbCircle
 10
142.0864461723438
 20
148.9047026736011
 30
0.0
 40
5.0
100
AcDbArc
 50
180.0
 51
270.0
  0
LINE
  5
19A
330
2
100
AcDbEntity
  8
05-01
100
AcDbLine
 10
137.0864461723438
 20
229.9047026736011
 30
0.0
 11
137.0864461723438
 21
148.9047026736011
 31
0.0
  0
DIMENSION
  5
19B
330
2
100
AcDbEntity
  8
09-01
100
AcDbDimension
280
     0
  2
*D6
 10
492.9943923665112
 20
415.4230582614894
 30
0.0
 11
487.369392366511
 21
355.4230582614895
 31
0.0
 71
     5
 42
120.0
 73
     0
 74
     0
 75
     0
  3
Wagner$0
100
AcDbAlignedDimension
 13
474.9090715295181
 23
295.4230582614894
 33
0.0
 14
474.9090715295181
 24
415.4230582614894
 34
0.0
 50
90.0
100
AcDbRotatedDimension
1001
ACAD
1000
DSTYLE
1002
{
1070
    40
1040
2.5
1070
   271
1070
     1
1002
}
  0
DIMENSION
  5
1A8
330
2
100
AcDbEntity
  8
09-01
100
AcDbDimension
280
     0
  2
*D5
 10
493.5152256998446
 20
295.4230582614894
 30
0.0
 11
487.8902256998446
 21
284.4230582614894
 31
0.0
 71
     5
 42
22.0
 73
     0
 74
     0
 75
     0
  3
Wagner$0
100
AcDbAlignedDimension
 13
472.409071529518
 23
273.4230582614894
 33
0.0
 14
472.409071529518
 24
295.4230582614894
 34
0.0
 50
90.0
100
AcDbRotatedDimension
1001
ACAD
1000
DSTYLE
1002
{
1070
    40
1040
2.5
1070
   271
1070
     1
1002
}
  0
LINE
  5
1B5
330
2
100
AcDbEntity
  8
05-01
100
AcDbLine
 10
137.0864461723433
 20
511.7940582191466
 30
0.0
 11
212.5864461723434
 21
511.7940582191466
 31
0.0
  0
LINE
  5
1B6
330
2
100
AcDbEntity
  8
05-01
100
AcDbLine
 10
137.0864461723433
 20
399.7940582191466
 30
0.0
 11
212.5864461723434
 21
399.7940582191471
 31
0.0
  0
LINE
  5
1B7
330
2
100
AcDbEntity
  8
03-01
100
AcDbLine
 10
159.0864461723433
 20
496.0035193120994
 30
0.0
 11
159.0864461723433
 21
497.0035193120991
 31
0.0
  0
LINE
  5
1B8
330
2
100
AcDbEntity
  8
03-01
100
AcDbLine
 10
182.0864461723433
 20
496.0035193120994
 30
0.0
 11
182.0864461723433
 21
497.0035193120991
 31
0.0
  0
LINE
  5
1B9
330
2
100
AcDbEntity
  8
03-01
100
AcDbLine
 10
201.954687060678
 20
506.1982540236884
 30
0.0
 11
183.8364461723447
 21
503.0035193120996
 31
0.0
  0
ARC
  5
1BA
330
2
100
AcDbEntity
  8
03-01
100
AcDbCircle
 10
140.0864461723433
 20
511.122292788749
 30
0.0
 40
5.0
100
AcDbArc
 50
180.0
 51
260.0000000000014
  0
LINE
  5
1BB
330
2
100
AcDbEntity
  8
03-01
100
AcDbLine
 10
139.2182052840087
 20
506.1982540236879
 30
0.0
 11
157.3364461723433
 21
503.0035193120996
 31
0.0
  0
LINE
  5
1BC
330
2
100
AcDbEntity
  8
03-01
100
AcDbLine
 10
157.3364461723433
 20
499.0035193120994
 30
0.0
 11
183.8364461723433
 21
499.0035193120994
 31
0.0
  0
LINE
  5
1BD
330
2
100
AcDbEntity
  8
03-01
100
AcDbLine
 10
160.0864461723433
 20
469.5035193120996
 30
0.0
 11
181.0864461723433
 21
469.5035193120993
 31
0.0
  0
LINE
  5
1BE
330
2
100
AcDbEntity
  8
03-01
100
AcDbLine
 10
156.0864461723433
 20
481.0035193120996
 30
0.0
 11
185.0864461723433
 21
481.0035193120993
 31
0.0
  0
LINE
  5
1BF
330
2
100
AcDbEntity
  8
03-01
100
AcDbLine
 10
156.0864461723433
 20
496.0035193120994
 30
0.0
 11
185.0864461723433
 21
496.0035193120994
 31
0.0
  0
LINE
  5
1C0
330
2
100
AcDbEntity
  8
03-01
100
AcDbLine
 10
157.3364461723433
 20
497.0035193120994
 30
0.0
 11
183.8364461723433
 21
497.0035193120994
 31
0.0
  0
LINE
  5
1C1
330
2
100
AcDbEntity
  8
03-01
100
AcDbLine
 10
157.3364461723433
 20
503.0035193120996
 30
0.0
 11
183.8364461723447
 21
503.0035193120996
 31
0.0
  0
ARC
  5
1C2
330
2
100
AcDbEntity
  8
03-01
100
AcDbCircle
 10
140.0864461723433
 20
678.0035193120997
 30
0.0
 40
5.0
100
AcDbArc
 50
90.0
 51
180.0
  0
LINE
  5
1C3
330
2
100
AcDbEntity
  8
03-01
100
AcDbLine
 10
199.0864461723433
 20
655.0035193120992
 30
0.0
 11
201.0864461723433
 21
655.0035193120992
 31
0.0
  0
LINE
  5
1C4
330
2
100
AcDbEntity
  8
03-01
100
AcDbLine
 10
140.0864461723433
 20
683.0035193120997
 30
0.0
 11
189.0864461723433
 21
683.0035193120997
 31
0.0
  0
ARC
  5
1C5
330
2
100
AcDbEntity
  8
03-01
100
AcDbCircle
 10
201.0864461723433
 20
650.0035193120992
 30
0.0
 40
5.0
100
AcDbArc
 50
0.0
 51
90.0
  0
ARC
  5
1C6
330
2
100
AcDbEntity
  8
03-01
100
AcDbCircle
 10
201.0864461723433
 20
511.1222927887495
 30
0.0
 40
5.0
100
AcDbArc
 50
279.9999999999986
 51
0.0
  0
LINE
  5
1C7
330
2
100
AcDbEntity
  8
03-01
100
AcDbLine
 10
206.0864461723434
 20
650.0035193120992
 30
0.0
 11
206.0864461723434
 21
511.1222927887495
 31
0.0
  0
LINE
  5
1C8
330
2
100
AcDbEntity
  8
03-01
100
AcDbLine
 10
157.3364461723433
 20
499.0035193120994
 30
0.0
 11
157.3364461723433
 21
497.0035193120994
 31
0.0
  0
LINE
  5
1C9
330
2
100
AcDbEntity
  8
03-01
100
AcDbLine
 10
183.8364461723433
 20
499.0035193120994
 30
0.0
 11
183.8364461723433
 21
497.0035193120994
 31
0.0
  0
LINE
  5
1CA
330
2
100
AcDbEntity
  8
03-01
100
AcDbLine
 10
159.0864461723433
 20
503.0035193120996
 30
0.0
 11
159.0864461723433
 21
499.0035193120996
 31
0.0
  0
LINE
  5
1CB
330
2
100
AcDbEntity
  8
03-01
100
AcDbLine
 10
182.0864461723433
 20
503.0035193120996
 30
0.0
 11
182.0864461723433
 21
499.0035193120996
 31
0.0
  0
LINE
  5
1CC
330
2
100
AcDbEntity
  8
03-01
100
AcDbLine
 10
156.0864461723433
 20
496.0035193120994
 30
0.0
 11
156.0864461723433
 21
481.0035193120996
 31
0.0
  0
LINE
  5
1CD
330
2
100
AcDbEntity
  8
03-01
100
AcDbLine
 10
185.0864461723433
 20
496.0035193120994
 30
0.0
 11
185.0864461723433
 21
481.0035193120993
 31
0.0
  0
LINE
  5
1CE
330
2
100
AcDbEntity
  8
03-01
100
AcDbLine
 10
160.0864461723434
 20
481.0035193120998
 30
0.0
 11
160.0864461723433
 21
469.5035193120996
 31
0.0
  0
LINE
  5
1CF
330
2
100
AcDbEntity
  8
03-01
100
AcDbLine
 10
181.0864461723433
 20
481.0035193120996
 30
0.0
 11
181.0864461723433
 21
469.5035193120993
 31
0.0
  0
ARC
  5
1D0
330
2
100
AcDbEntity
  8
03-01
100
AcDbCircle
 10
189.0864461723433
 20
678.0035193120997
 30
0.0
 40
5.0
100
AcDbArc
 50
0.0
 51
90.0
  0
ARC
  5
1D1
330
2
100
AcDbEntity
  8
03-01
100
AcDbCircle
 10
199.0864461723433
 20
660.0035193120992
 30
0.0
 40
5.0
100
AcDbArc
 50
180.0
 51
270.0
  0
LINE
  5
1D2
330
2
100
AcDbEntity
  8
03-01
100
AcDbLine
 10
194.0864461723433
 20
678.0035193120997
 30
0.0
 11
194.0864461723433
 21
660.0035193120992
 31
0.0
  0
LINE
  5
1D3
330
2
100
AcDbEntity
  8
03-01
100
AcDbLine
 10
135.0864461723433
 20
678.0035193120997
 30
0.0
 11
135.0864461723433
 21
511.122292788749
 31
0.0
  0
LINE
  5
1D4
330
2
100
AcDbEntity
  8
05-01
100
AcDbLine
 10
137.0864461723433
 20
511.7940582191466
 30
0.0
 11
137.0864461723433
 21
399.7940582191466
 31
0.0
  0
LINE
  5
1D5
330
2
100
AcDbEntity
  8
05-01
100
AcDbLine
 10
212.5864461723434
 20
511.7940582191466
 30
0.0
 11
212.5864461723434
 21
399.7940582191471
 31
0.0
  0
LINE
  5
1D6
330
2
100
AcDbEntity
  8
03-01
100
AcDbLine
 10
469.9090715367924
 20
413.8618567922149
 30
0.0
 11
384.4575026172242
 21
398.7944396478268
 31
0.0
  0
LINE
  5
1D7
330
2
100
AcDbEntity
  8
03-01
100
AcDbLine
 10
384.4575026172242
 20
398.7944396478268
 30
0.0
 11
352.709071536793
 21
398.7944396478268
 31
0.0
  0
LINE
  5
1D8
330
2
100
AcDbEntity
  8
05-01
100
AcDbLine
 10
193.0864461723442
 20
259.904702673601
 30
0.0
 11
193.0864461723442
 21
258.8047026736011
 31
0.0
  0
LINE
  5
1D9
330
2
100
AcDbEntity
  8
05-01
100
AcDbLine
 10
190.5864461723442
 20
262.0047026736009
 30
0.0
 11
190.5864461723442
 21
258.8047026736011
 31
0.0
  0
LINE
  5
1DA
330
2
100
AcDbEntity
  8
05-01
100
AcDbLine
 10
195.5864461723442
 20
262.0047026736009
 30
0.0
 11
195.5864461723442
 21
258.8047026736011
 31
0.0
  0
LINE
  5
1DB
330
2
100
AcDbEntity
  8
05-01
100
AcDbLine
 10
190.5864461723442
 20
259.904702673601
 30
0.0
 11
193.0864461723442
 21
259.904702673601
 31
0.0
  0
LINE
  5
1DC
330
2
100
AcDbEntity
  8
05-01
100
AcDbLine
 10
190.5864461723442
 20
262.0047026736009
 30
0.0
 11
195.5864461723442
 21
262.0047026736009
 31
0.0
  0
LINE
  5
1DD
330
2
100
AcDbEntity
  8
05-01
100
AcDbLine
 10
141.0864461723442
 20
259.904702673601
 30
0.0
 11
141.0864461723442
 21
258.8047026736011
 31
0.0
  0
LINE
  5
1DE
330
2
100
AcDbEntity
  8
05-01
100
AcDbLine
 10
143.5864461723442
 20
262.0047026736009
 30
0.0
 11
143.5864461723442
 21
258.8047026736011
 31
0.0
  0
LINE
  5
1DF
330
2
100
AcDbEntity
  8
05-01
100
AcDbLine
 10
138.5864461723443
 20
262.0047026736009
 30
0.0
 11
138.5864461723443
 21
258.8047026736011
 31
0.0
  0
LINE
  5
1E0
330
2
100
AcDbEntity
  8
05-01
100
AcDbLine
 10
215.0864461723434
 20
258.8047026736011
 30
0.0
 11
215.0864461723434
 21
216.3047026736011
 31
0.0
  0
LINE
  5
1E1
330
2
100
AcDbEntity
  8
05-01
100
AcDbLine
 10
138.5864461723443
 20
258.8047026736011
 30
0.0
 11
138.5864461723443
 21
216.3047026736011
 31
0.0
  0
LINE
  5
1E2
330
2
100
AcDbEntity
  8
05-01
100
AcDbLine
 10
143.5864461723442
 20
259.904702673601
 30
0.0
 11
141.0864461723442
 21
259.904702673601
 31
0.0
  0
LINE
  5
1E3
330
2
100
AcDbEntity
  8
05-01
100
AcDbLine
 10
215.0864461723434
 20
216.3047026736011
 30
0.0
 11
138.5864461723443
 21
216.3047026736011
 31
0.0
  0
LINE
  5
1E4
330
2
100
AcDbEntity
  8
05-01
100
AcDbLine
 10
215.0864461723434
 20
258.8047026736011
 30
0.0
 11
138.5864461723443
 21
258.8047026736011
 31
0.0
  0
LINE
  5
1E5
330
2
100
AcDbEntity
  8
05-01
100
AcDbLine
 10
143.5864461723442
 20
262.0047026736009
 30
0.0
 11
138.5864461723443
 21
262.0047026736009
 31
0.0
  0
LINE
  5
1E6
330
2
100
AcDbEntity
  8
05-01
100
AcDbLine
 10
411.8590700085844
 20
481.5511647617334
 30
0.0
 11
438.8590725715841
 21
481.5511647617334
 31
0.0
  0
LINE
  5
1E7
330
2
100
AcDbEntity
  8
05-01
100
AcDbLine
 10
439.8590745981421
 20
499.0511629735941
 30
0.0
 11
425.3590750153746
 21
499.0511629735941
 31
0.0
  0
LINE
  5
1E8
330
2
100
AcDbEntity
  8
05-01
100
AcDbLine
 10
425.3590750153746
 20
499.0511629735941
 30
0.0
 11
410.8590717073168
 21
499.0511629735941
 31
0.0
  0
LINE
  5
1E9
330
2
100
AcDbEntity
  8
05-01
100
AcDbLine
 10
439.8590745981421
 20
482.0511583244319
 30
0.0
 11
425.3590750153746
 21
482.0511583244319
 31
0.0
  0
LINE
  5
1EA
330
2
100
AcDbEntity
  8
05-01
100
AcDbLine
 10
425.3590750153746
 20
482.0511583244319
 30
0.0
 11
410.8590717073168
 21
482.0511583244319
 31
0.0
  0
ARC
  5
1EB
330
2
100
AcDbEntity
  8
05-01
100
AcDbCircle
 10
440.8777757891948
 20
513.5511604498364
 30
0.0
 40
10.0
100
AcDbArc
 50
270.0
 51
279.9999999999986
  0
LINE
  5
1EC
330
2
100
AcDbEntity
  8
05-01
100
AcDbLine
 10
436.6667839344229
 20
503.5511646425241
 30
0.0
 11
440.8777775819983
 21
503.5511646425241
 31
0.0
  0
ARC
  5
1ED
330
2
100
AcDbEntity
  8
05-01
100
AcDbCircle
 10
409.8403672558902
 20
513.5511604498364
 30
0.0
 40
10.0
100
AcDbArc
 50
260.0000000000014
 51
270.0
  0
LINE
  5
1EE
330
2
100
AcDbEntity
  8
05-01
100
AcDbLine
 10
409.8403687234606
 20
503.5511646425241
 30
0.0
 11
414.0513586457457
 21
503.5511646425241
 31
0.0
  0
LINE
  5
1EF
330
2
100
AcDbEntity
  8
05-01
100
AcDbLine
 10
414.0513586457457
 20
503.5511646425241
 30
0.0
 11
436.6667839344229
 21
503.5511646425241
 31
0.0
  0
ARC
  5
1F0
330
2
100
AcDbEntity
  8
05-01
100
AcDbCircle
 10
390.6090715225425
 20
672.1511604498362
 30
0.0
 40
10.0
100
AcDbArc
 50
90.0
 51
180.0
  0
LINE
  5
1F1
330
2
100
AcDbEntity
  8
05-01
100
AcDbLine
 10
470.1090725715841
 20
660.1511612540003
 30
0.0
 11
470.1090725715841
 21
672.1511613583085
 31
0.0
  0
LINE
  5
1F2
330
2
100
AcDbEntity
  8
05-01
100
AcDbLine
 10
380.6090718712296
 20
672.1511613583085
 30
0.0
 11
380.6090718712296
 21
660.1511612540003
 31
0.0
  0
ARC
  5
1F3
330
2
100
AcDbEntity
  8
05-01
100
AcDbCircle
 10
460.1090715225425
 20
672.1511604498362
 30
0.0
 40
10.00000000000007
100
AcDbArc
 50
0.0
 51
90.0
  0
LINE
  5
1F4
330
2
100
AcDbEntity
  8
05-01
100
AcDbLine
 10
460.1090746577467
 20
682.1511602034682
 30
0.0
 11
390.6090716477122
 21
682.1511602034682
 31
0.0
  0
LINE
  5
1F5
330
2
100
AcDbEntity
  8
05-01
100
AcDbLine
 10
388.8725909050192
 20
507.0940796291347
 30
0.0
 11
408.1038842554773
 21
503.7030819808954
 31
0.0
  0
LINE
  5
1F6
330
2
100
AcDbEntity
  8
05-01
100
AcDbLine
 10
442.6142545994009
 20
503.7030819808954
 30
0.0
 11
461.8455516751494
 21
507.0940796291347
 31
0.0
  0
LINE
  5
1F7
330
2
100
AcDbEntity
  8
05-01
100
AcDbLine
 10
380.6090718712296
 20
650.1511614775178
 30
0.0
 11
380.6090718712296
 21
660.1511612540003
 31
0.0
  0
LINE
  5
1F8
330
2
100
AcDbEntity
  8
05-01
100
AcDbLine
 10
380.6090718712296
 20
660.1511612540003
 30
0.0
 11
385.6090726907935
 21
660.1511612540003
 31
0.0
  0
LINE
  5
1F9
330
2
100
AcDbEntity
  8
05-01
100
AcDbLine
 10
470.1090725715841
 20
660.1511612540003
 30
0.0
 11
470.1090725715841
 21
650.1511614775178
 31
0.0
  0
LINE
  5
1FA
330
2
100
AcDbEntity
  8
05-01
100
AcDbLine
 10
465.1090698893751
 20
660.1511612540003
 30
0.0
 11
470.1090725715841
 21
660.1511612540003
 31
0.0
  0
LINE
  5
1FB
330
2
100
AcDbEntity
  8
05-01
100
AcDbLine
 10
465.1090698893751
 20
660.1511612540003
 30
0.0
 11
385.6090726907935
 21
660.1511612540003
 31
0.0
  0
LINE
  5
1FC
330
2
100
AcDbEntity
  8
05-01
100
AcDbLine
 10
470.1090725715841
 20
516.9421527540204
 30
0.0
 11
470.1090725715841
 21
517.5676885997766
 31
0.0
  0
ARC
  5
1FD
330
2
100
AcDbEntity
  8
05-01
100
AcDbCircle
 10
460.1090715225425
 20
516.9421567616089
 30
0.0
 40
10.00000000000007
100
AcDbArc
 50
279.9999999999986
 51
0.0
  0
ELLIPSE
  5
1FE
330
2
100
AcDbEntity
  8
05-01
100
AcDbEllipse
 10
460.1090715225425
 20
532.1735559398954
 30
0.0
 11
-1.608213306142876
 21
25.09486865272837
 31
0.0
210
0.0
220
0.0
230
-1.0
 40
0.2150135483539775
 41
3.1177333700828
 42
3.125935762967285
  0
SPLINE
  5
1FF
330
2
100
AcDbEntity
  8
05-01
100
AcDbSpline
210
0.0
220
0.0
230
1.0
 70
     8
 71
     3
 72
    15
 73
    11
 74
     0
 42
0.0000000001
 43
0.0000000001
 40
0.0
 40
0.0
 40
0.0
 40
0.0
 40
0.4197118006006214
 40
0.6630449162760727
 40
0.8042910783345069
 40
0.886310081004712
 40
0.9339517855535886
 40
0.9565596230196312
 40
0.9644899637768077
 40
1.0
 40
1.0
 40
1.0
 40
1.0
 10
462.2882428224768
 20
507.1870032703394
 30
0.0
 10
462.2204058074414
 20
507.1715705855559
 30
0.0
 10
462.1132394425924
 20
507.1471906105929
 30
0.0
 10
461.9826751873749
 20
507.1208654259916
 30
0.0
 10
461.9068146001587
 20
507.1063010232879
 30
0.0
 10
461.862721392652
 20
507.098156712676
 30
0.0
 10
461.8379271791022
 20
507.0936554815798
 30
0.0
 10
461.8251871866116
 20
507.091385016844
 30
0.0
 10
461.814432910078
 20
507.0894338271241
 30
0.0
 10
461.807351828527
 20
507.0881939337662
 30
0.0
 10
461.8015634473051
 20
507.0871803915018
 30
0.0
  0
SPLINE
  5
200
330
2
100
AcDbEntity
  8
05-01
100
AcDbSpline
210
0.0
220
0.0
230
1.0
 70
     8
 71
     3
 72
    15
 73
    11
 74
     0
 42
0.0000000001
 43
0.0000000001
 40
0.0
 40
0.0
 40
0.0
 40
0.0
 40
0.4078594384238964
 40
0.6492858608099136
 40
0.7922601121596999
 40
0.8769457002568362
 40
0.9271134714357621
 40
0.9565666751951701
 40
0.9638598172643371
 40
1.0
 40
1.0
 40
1.0
 40
1.0
 10
462.0653661545004
 20
507.1507934486383
 30
0.0
 10
462.02975957967
 20
507.1406452812421
 30
0.0
 10
461.9730762142474
 20
507.1244900547528
 30
0.0
 10
461.9033373738873
 20
507.1080534388137
 30
0.0
 10
461.861914633504
 20
507.0990732213975
 30
0.0
 10
461.8373497842426
 20
507.0940666740233
 30
0.0
 10
461.8227869577975
 20
507.091180057252
 30
0.0
 10
461.8150804877764
 20
507.0897354403202
 30
0.0
 10
461.8086292051339
 20
507.0884895463527
 30
0.0
 10
461.804772527651
 20
507.0877749750135
 30
0.0
 10
461.8015634473051
 20
507.0871803915018
 30
0.0
  0
ARC
  5
201
330
2
100
AcDbEntity
  8
05-01
100
AcDbCircle
 10
465.1090715225425
 20
650.1511604498363
 30
0.0
 40
5.0
100
AcDbArc
 50
0.0
 51
90.0
  0
ARC
  5
202
330
2
100
AcDbEntity
  8
05-01
100
AcDbCircle
 10
385.6090715225425
 20
650.1511604498363
 30
0.0
 40
5.0
100
AcDbArc
 50
90.0
 51
180.0
  0
LINE
  5
203
330
2
100
AcDbEntity
  8
05-01
100
AcDbLine
 10
465.1090698893751
 20
655.1511604344365
 30
0.0
 11
385.6090726907935
 21
655.1511604344365
 31
0.0
  0
LINE
  5
204
330
2
100
AcDbEntity
  8
05-01
100
AcDbLine
 10
470.1090725715841
 20
517.5676885997766
 30
0.0
 11
470.1090725715841
 21
517.8237948572153
 31
0.0
  0
LINE
  5
205
330
2
100
AcDbEntity
  8
05-01
100
AcDbLine
 10
470.1090725715841
 20
517.8237948572153
 30
0.0
 11
470.1090725715841
 21
650.1511614775178
 31
0.0
  0
LINE
  5
206
330
2
100
AcDbEntity
  8
05-01
100
AcDbLine
 10
380.6090718712296
 20
650.1511614775178
 30
0.0
 11
380.6090718712295
 21
516.9381228963247
 31
0.0
  0
SPLINE
  5
207
330
2
100
AcDbEntity
  8
05-01
100
AcDbSpline
210
0.0
220
0.0
230
1.0
 70
     8
 71
     3
 72
    15
 73
    11
 74
     0
 42
0.0000000001
 43
0.0000000001
 40
0.0
 40
0.0
 40
0.0
 40
0.0
 40
0.0574192201238862
 40
0.2367432093540814
 40
0.3452458953825946
 40
0.4538041473869529
 40
0.59126544257467
 40
0.7288297834292046
 40
0.8643948065333756
 40
1.0
 40
1.0
 40
1.0
 40
1.0
 10
470.1090725715841
 20
517.5676885997766
 30
0.0
 10
470.1016043923234
 20
517.2813143133506
 30
0.0
 10
470.0708125995673
 20
516.1005743538257
 30
0.0
 10
469.6875425652121
 20
514.3822900879857
 30
0.0
 10
468.9231616491408
 20
512.583041307641
 30
0.0
 10
468.0428981580933
 20
511.1141773523955
 30
0.0
 10
466.8896012948764
 20
509.7400927585998
 30
0.0
 10
465.4722614544832
 20
508.5595088470985
 30
0.0
 10
463.9406147957436
 20
507.6738677713017
 30
0.0
 10
462.8390878725574
 20
507.3493074637982
 30
0.0
 10
462.2882428224768
 20
507.1870032703394
 30
0.0
  0
ARC
  5
208
330
2
100
AcDbEntity
  8
05-01
100
AcDbCircle
 10
461.754219348177
 20
509.7699707642803
 30
0.0
 40
2.63759400701828
100
AcDbArc
 50
276.7747377244209
 51
281.6812092906314
  0
ARC
  5
209
330
2
100
AcDbEntity
  8
05-01
100
AcDbCircle
 10
412.3590715225425
 20
481.5511604498363
 30
0.0
 40
0.5000000000000427
100
AcDbArc
 50
90.0
 51
180.0
  0
ARC
  5
20A
330
2
100
AcDbEntity
  8
05-01
100
AcDbCircle
 10
438.3590715225425
 20
481.5511604498363
 30
0.0
 40
0.5000000000000427
100
AcDbArc
 50
0.0
 51
90.0
  0
LINE
  5
20B
330
2
100
AcDbEntity
  8
05-01
100
AcDbLine
 10
414.1090708430494
 20
499.0511629735941
 30
0.0
 11
414.1090708430494
 21
503.5511646425241
 31
0.0
  0
LINE
  5
20C
330
2
100
AcDbEntity
  8
05-01
100
AcDbLine
 10
436.6090717371191
 20
503.5511646425241
 30
0.0
 11
436.6090717371191
 21
499.0511629735941
 31
0.0
  0
LINE
  5
20D
330
2
100
AcDbEntity
  8
05-01
100
AcDbLine
 10
410.8590717073168
 20
482.0511583244319
 30
0.0
 11
410.8590717073168
 21
499.0511629735941
 31
0.0
  0
LINE
  5
20E
330
2
100
AcDbEntity
  8
05-01
100
AcDbLine
 10
439.8590745981421
 20
499.0511629735941
 30
0.0
 11
439.8590745981421
 21
482.0511583244319
 31
0.0
  0
INSERT
  5
20F
330
2
100
AcDbEntity
  8
0
100
AcDbBlockReference
 66
     1
  2
DIN A4
 10
-0.000018780588789
 20
0.0000050322435641
 30
0.0
 41
2.5
 42
2.5
 43
2.5
  0
ATTRIB
  5
283
330
20F
100
AcDbEntity
  8
06-99
100
AcDbText
 10
291.2386168479427
 20
65.46959674320516
 30
0.0
 40
10.0
  1
Flüssigseifenspender WP 208-E
 41
0.9
  7
ROMANS8
100
AcDbAttribute
280
     0
  2
TEILE
 70
     0
280
     0
  0
ATTRIB
  5
284
330
20F
100
AcDbEntity
  8
06-99
100
AcDbText
 10
291.2386168479427
 20
48.23869624749097
 30
0.0
 40
10.0
  1

 41
0.9
  7
ROMANS8
100
AcDbAttribute
280
     0
  2
TEILE2
 70
     0
280
     0
  0
ATTRIB
  5
285
330
20F
100
AcDbEntity
  8
06-99
100
AcDbText
 10
478.3684655292866
 20
113.3333333333328
 30
0.0
 40
8.4375
  1
1:2.5
  7
ROMANS8
100
AcDbAttribute
280
     0
  2
:
 70
     0
280
     0
  0
ATTRIB
  5
286
330
20F
100
AcDbEntity
  8
06-99
100
AcDbText
 10
232.4926694984181
 20
68.60421367007785
 30
0.0
 40
6.25
  1
Häberle
 41
0.9
  7
ROMANS8
100
AcDbAttribute
280
     0
  2
NAME
 70
     0
280
     0
  0
ATTRIB
  5
287
330
20F
100
AcDbEntity
  8
06-99
100
AcDbText
 10
198.7328661297354
 20
68.65308793527794
 30
0.0
 40
6.25
  1
18.07.2014
 50
359.9144597696145
 41
0.5656974065909603
  7
ROMANS8
 72
     5
 11
226.8493428010972
 21
68.61111116666672
 31
0.0
100
AcDbAttribute
280
     0
  2
DATUM
 70
     0
280
     0
  0
ATTRIB
  5
288
330
20F
100
AcDbEntity
  8
06-99
100
AcDbText
 10
446.265859917896
 20
18.73224950072182
 30
0.0
 40
7.4844
  1
727598
  7
ROMANS8
100
AcDbAttribute
280
     0
  2
ID.NR
 70
     0
280
     0
  0
ATTRIB
  5
289
330
20F
100
AcDbEntity
  8
06-99
100
AcDbText
 10
291.8281656392767
 20
94.16666661111122
 30
0.0
 40
7.5
  1

 41
0.9
  7
ROMANS8
100
AcDbAttribute
280
     0
  2
LÄNGE
 70
     0
280
     0
  0
ATTRIB
  5
28A
330
20F
100
AcDbEntity
  8
06-99
100
AcDbText
 10
375.452012279424
 20
94.19525967611191
 30
0.0
 40
7.5
  1

 41
0.9
  7
ROMANS8
100
AcDbAttribute
280
     0
  2
BREITE
 70
     0
280
     0
  0
ATTRIB
  5
28B
330
20F
100
AcDbEntity
  8
06-99
100
AcDbText
 10
476.5227303168297
 20
94.1666666666668
 30
0.0
 40
7.734375
  1

  7
ROMANS8
100
AcDbAttribute
280
     0
  2
1.0
 70
     0
280
     0
  0
ATTRIB
  5
28C
330
20F
100
AcDbEntity
  8
06-99
100
AcDbText
 10
410.3194640035065
 20
113.3333333333333
 30
0.0
 40
7.5
  1

  7
ROMANS8
 72
     1
 11
410.3194640035065
 21
113.3333333333333
 31
0.0
100
AcDbAttribute
280
     0
  2
IV
 70
     0
280
     0
  0
ATTRIB
  5
28D
330
20F
100
AcDbEntity
  8
06-99
100
AcDbText
 10
308.1868513402899
 20
113.3333333333328
 30
0.0
 40
8.4375
  1
1.4301
  7
ROMANS8
100
AcDbAttribute
280
     0
  2
1.4301
 70
     0
280
     0
  0
ATTRIB
  5
28E
330
20F
100
AcDbEntity
  8
06-99
100
AcDbText
 10
365.0015847172001
 20
18.7609915108863
 30
0.0
 40
7.919999999999999
  1

 41
0.9000000000000001
  7
ROMANS8
100
AcDbAttribute
280
     0
  2
AUFTRAGS.NR.
 70
     0
280
     0
  0
ATTRIB
  5
28F
330
20F
100
AcDbEntity
  8
06-99
100
AcDbText
 10
291.2500000000002
 20
18.74999999999983
 30
0.0
 40
7.919999999999999
  1

 41
0.9000000000000001
  7
ROMANS8
100
AcDbAttribute
280
     0
  2
SONDER-NR
 70
     0
280
     0
  0
ATTRIB
  5
290
330
20F
100
AcDbEntity
  8
06-99
100
AcDbText
 10
116.2493774875204
 20
16.50452517314971
 30
0.0
 40
3.75
  1

 41
0.9
  7
ROMANS8
100
AcDbAttribute
280
     0
  2
ERSETZT.DURCH
 70
     0
280
     0
  0
ATTRIB
  5
291
330
20F
100
AcDbEntity
  8
06-99
100
AcDbText
 10
53.74866945049621
 20
16.49364099468113
 30
0.0
 40
3.75
  1

 41
0.9
  7
ROMANS8
100
AcDbAttribute
280
     0
  2
ERSETZT.FÜR
 70
     0
280
     0
  0
ATTRIB
  5
292
330
20F
100
AcDbEntity
  8
06-99
100
AcDbText
 10
249.9326816160936
 20
119.1712778500198
 30
0.0
 40
3.2175
  1
DIN A4
  7
ROMANS8
 72
     1
 11
258.1296459018079
 21
119.1712778500198
 31
0.0
100
AcDbAttribute
280
     0
  2
FORMAT
 70
     0
280
     0
  0
ATTRIB
  5
293
330
20F
100
AcDbEntity
  8
06-99
100
AcDbText
 10
239.9685974935158
 20
92.99241833466187
 30
0.0
 40
5.85
  1
DIN 2768
  7
ROMANS8
 72
     1
 11
260.0257403506587
 21
92.99241833466187
 31
0.0
100
AcDbAttribute
280
     0
  2
NORM2
 70
     0
280
     0
  0
ATTRIB
  5
294
330
20F
100
AcDbEntity
  8
06-99
100
AcDbText
 10
232.0293117792302
 20
102.5757516679949
 30
0.0
 40
5.85
  1
DIN 6930-M
  7
ROMANS8
 72
     1
 11
258.7721689220873
 21
102.5757516679949
 31
0.0
100
AcDbAttribute
280
     0
  2
NORM1
 70
     0
280
     0
  0
SEQEND
  5
295
330
20F
100
AcDbEntity
  8
0
  0
CIRCLE
  5
296
330
2
100
AcDbEntity
  8
01-01
100
AcDbCircle
 10
429.9090715367922
 20
699.4226768328088
 30
0.0
 40
2.5
  0
CIRCLE
  5
29A
330
2
100
AcDbEntity
  8
01-01
100
AcDbCircle
 10
429.9614028402849
 20
439.4226768328088
 30
0.0
 40
2.5
  0
LINE
  5
29B
330
2
100
AcDbEntity
  8
05-01
100
AcDbLine
 10
429.9090715367922
 20
690.9226768328088
 30
0.0
 11
429.9090715367922
 21
707.9226768328088
 31
0.0
  0
LINE
  5
29C
330
2
100
AcDbEntity
  8
05-01
100
AcDbLine
 10
438.4090715367922
 20
699.4226768328088
 30
0.0
 11
421.4090715367921
 21
699.4226768328088
 31
0.0
  0
LINE
  5
29D
330
2
100
AcDbEntity
  8
05-01
100
AcDbLine
 10
429.9614028402849
 20
430.9226768328088
 30
0.0
 11
429.9614028402849
 21
447.9226768328088
 31
0.0
  0
LINE
  5
29E
330
2
100
AcDbEntity
  8
05-01
100
AcDbLine
 10
438.4614028402849
 20
439.4226768328088
 30
0.0
 11
421.4614028402849
 21
439.4226768328088
 31
0.0
  0
LINE
  5
29F
330
2
100
AcDbEntity
  8
09-01
100
AcDbLine
 10
243.5864461723443
 20
273.4226768328097
 30
0.0
 11
97.58644617234336
 21
273.4226768328093
 31
0.0
  0
LINE
  5
2A0
330
2
100
AcDbEntity
  8
03-01
100
AcDbLine
 10
468.9090715367922
 20
295.4230582614894
 30
0.0
 11
469.9090715367922
 21
295.4230582614894
 31
0.0
  0
LINE
  5
2A1
330
2
100
AcDbEntity
  8
03-01
100
AcDbLine
 10
468.9090715367922
 20
484.4226768328097
 30
0.0
 11
469.9090715367922
 21
484.4226768328097
 31
0.0
  0
LINE
  5
2A2
330
2
100
AcDbEntity
  8
0
100
AcDbLine
 10
462.9090715367921
 20
273.4226768328093
 30
0.0
 11
469.9090715367922
 21
273.4226768328093
 31
0.0
  0
LINE
  5
2A3
330
2
100
AcDbEntity
  8
09-01
100
AcDbLine
 10
459.9090715367922
 20
273.4226768328093
 30
0.0
 11
469.9090715367922
 21
273.4226768328093
 31
0.0
  0
LINE
  5
2A4
330
2
100
AcDbEntity
  8
0
100
AcDbLine
 10
459.9090715367922
 20
719.4226768328088
 30
0.0
 11
469.9090715367922
 21
719.4226768328088
 31
0.0
  0
LINE
  5
2A5
330
2
100
AcDbEntity
  8
03-01
100
AcDbLine
 10
352.709071536793
 20
398.7944396478268
 30
0.0
 11
352.7090715367933
 21
296.5934705449006
 31
0.0
  0
LINE
  5
2A6
330
2
100
AcDbEntity
  8
03-01
100
AcDbLine
 10
352.7090715367933
 20
296.5934705449006
 30
0.0
 11
469.9090715367922
 21
296.5934705449006
 31
0.0
  0
LINE
  5
2A7
330
2
100
AcDbEntity
  8
03-01
100
AcDbLine
 10
228.0864461723433
 20
144.904702673601
 30
0.0
 11
228.0864461723433
 21
258.7047026736012
 31
0.0
  0
LINE
  5
2A8
330
2
100
AcDbEntity
  8
03-01
100
AcDbLine
 10
113.8864461723444
 20
145.7047014162461
 30
0.0
 11
113.8864461723444
 21
258.7047026736012
 31
0.0
  0
LINE
  5
2A9
330
2
100
AcDbEntity
  8
0
100
AcDbLine
 10
120.0864461723424
 20
413.6855298115068
 30
0.0
 11
221.0864461723424
 21
413.6855298115068
 31
0.0
  0
LINE
  5
2AA
330
2
100
AcDbEntity
  8
0
100
AcDbLine
 10
120.0864461723442
 20
296.5934705449006
 30
0.0
 11
221.0864461723434
 21
296.5934705449006
 31
0.0
  0
LINE
  5
2AB
330
2
100
AcDbEntity
  8
0
100
AcDbLine
 10
120.0864461723442
 20
296.5934705449006
 30
0.0
 11
120.0864461723424
 21
413.6855298115068
 31
0.0
  0
LINE
  5
2AC
330
2
100
AcDbEntity
  8
0
100
AcDbLine
 10
221.0864461723434
 20
296.5934705449006
 30
0.0
 11
221.0864461723424
 21
413.6855298115068
 31
0.0
  0
LINE
  5
2AD
330
2
100
AcDbEntity
  8
0
100
AcDbLine
 10
222.5864461723434
 20
295.4230582614894
 30
0.0
 11
222.5864461723434
 21
415.4230582614898
 31
0.0
  0
LINE
  5
2AE
330
2
100
AcDbEntity
  8
0
100
AcDbLine
 10
118.5864461723442
 20
295.4230582614894
 30
0.0
 11
118.5864461723433
 21
415.4230582614894
 31
0.0
  0
LINE
  5
2AF
330
2
100
AcDbEntity
  8
0
100
AcDbLine
 10
118.5864461723433
 20
415.4230582614894
 30
0.0
 11
222.5864461723434
 21
415.4230582614898
 31
0.0
  0
LINE
  5
2B0
330
2
100
AcDbEntity
  8
0
100
AcDbLine
 10
118.5864461723442
 20
295.4230582614894
 30
0.0
 11
222.5864461723434
 21
295.4230582614894
 31
0.0
  0
LINE
  5
2B1
330
2
100
AcDbEntity
  8
0
100
AcDbLine
 10
97.58644617234336
 20
153.904702673601
 30
0.0
 11
97.58644617234336
 21
143.904702673601
 31
0.0
  0
DIMENSION
  5
2B2
330
2
100
AcDbEntity
  8
09-01
100
AcDbDimension
280
     0
  2
*D4
 10
67.01885633261486
 20
720.4226768328088
 30
0.0
 11
61.39385633261473
 21
496.422676832809
 31
0.0
 71
     5
 42
447.9999999999995
 73
     0
 74
     0
 75
     0
  3
Wagner$0
100
AcDbAlignedDimension
 13
95.33644617234335
 23
272.4226768328092
 33
0.0
 14
95.33644617234335
 24
720.4226768328088
 34
0.0
 50
90.0
100
AcDbRotatedDimension
1001
ACAD
1000
DSTYLE
1002
{
1070
    40
1040
2.5
1002
}
  0
DIMENSION
  5
2BF
330
2
100
AcDbEntity
  8
09-01
100
AcDbDimension
280
     0
  2
*D3
 10
469.9090715295181
 20
247.162254101743
 30
0.0
 11
409.9090715331551
 21
252.787254101743
 31
0.0
 71
     5
 42
119.9999999927258
 73
     0
 74
     0
 75
     0
  3
Wagner$0
100
AcDbAlignedDimension
 13
349.9090715367922
 23
272.4226768328092
 33
0.0
 14
469.9090715295181
 24
273.4230582614894
 34
0.0
100
AcDbRotatedDimension
1001
ACAD
1000
DSTYLE
1002
{
1070
   271
1070
     1
1070
    40
1040
2.5
1002
}
  0
LINE
  5
2CC
330
2
100
AcDbEntity
  8
03-01
100
AcDbLine
 10
228.0864461723433
 20
258.7047026736012
 30
0.0
 11
113.8864461723444
 21
258.7047026736012
 31
0.0
  0
LINE
  5
2CD
330
2
100
AcDbEntity
  8
0
100
AcDbLine
 10
97.58644617234427
 20
719.4226768328088
 30
0.0
 11
243.5864461723434
 21
719.4226768328088
 31
0.0
  0
DIMENSION
  5
2CE
330
2
100
AcDbEntity
  8
09-01
100
AcDbDimension
280
     0
  2
*D2
 10
244.5864461723433
 20
133.2489051043706
 30
0.0
 11
195.7765074139645
 21
139.2188290871284
 31
0.0
 70
   128
 71
     5
 42
148.0
 73
     0
 74
     0
 75
     0
  3
Wagner$0
100
AcDbAlignedDimension
 13
96.58644617234337
 23
153.904702673601
 33
0.0
 14
244.5864461723433
 24
153.9047026736014
 34
0.0
100
AcDbRotatedDimension
1001
ACAD
1000
DSTYLE
1002
{
1070
    40
1040
2.5
1002
}
  0
DIMENSION
  5
2DB
330
2
100
AcDbEntity
  8
09-01
100
AcDbDimension
280
     0
  2
*D1
 10
270.1569774301945
 20
263.904702673601
 30
0.0
 11
264.5319774301944
 21
203.9047026736013
 31
0.0
 71
     5
 42
119.9999999999995
 73
     0
 74
     0
 75
     0
  3
Wagner$0
100
AcDbAlignedDimension
 13
243.5864461723434
 23
143.9047026736014
 33
0.0
 14
244.5864461723433
 24
263.904702673601
 34
0.0
 50
90.0
100
AcDbRotatedDimension
1001
ACAD
1000
DSTYLE
1002
{
1070
    40
1040
2.5
1002
}
  0
LINE
  5
2E8
330
2
100
AcDbEntity
  8
0
100
AcDbLine
 10
243.5864461723434
 20
153.9047026736014
 30
0.0
 11
243.5864461723434
 21
143.9047026736014
 31
0.0
  0
LINE
  5
2E9
330
2
100
AcDbEntity
  8
01-01
100
AcDbLine
 10
97.58644617234336
 20
153.904702673601
 30
0.0
 11
97.58644617234336
 21
143.904702673601
 31
0.0
  0
LINE
  5
2EA
330
2
100
AcDbEntity
  8
0
100
AcDbLine
 10
97.58644617234336
 20
143.904702673601
 30
0.0
 11
243.5864461723434
 21
143.9047026736014
 31
0.0
  0
LINE
  5
2EB
330
2
100
AcDbEntity
  8
0
100
AcDbLine
 10
96.58644617234337
 20
153.904702673601
 30
0.0
 11
244.5864461723433
 21
153.9047026736014
 31
0.0
  0
LINE
  5
2EC
330
2
100
AcDbEntity
  8
0
100
AcDbLine
 10
244.5864461723433
 20
263.904702673601
 30
0.0
 11
244.5864461723433
 21
153.9047026736014
 31
0.0
  0
LINE
  5
2ED
330
2
100
AcDbEntity
  8
0
100
AcDbLine
 10
96.58644617234337
 20
263.904702673601
 30
0.0
 11
244.5864461723433
 21
263.904702673601
 31
0.0
  0
LINE
  5
2EE
330
2
100
AcDbEntity
  8
0
100
AcDbLine
 10
96.58644617234337
 20
263.904702673601
 30
0.0
 11
96.58644617234337
 21
153.904702673601
 31
0.0
  0
LINE
  5
2EF
330
2
100
AcDbEntity
  8
0
100
AcDbLine
 10
243.5864461723434
 20
719.4226768328088
 30
0.0
 11
243.5864461723443
 21
273.4226768328097
 31
0.0
  0
LINE
  5
2F0
330
2
100
AcDbEntity
  8
0
100
AcDbLine
 10
349.9090715367922
 20
272.4226768328092
 30
0.0
 11
459.9090715367922
 21
272.4226768328092
 31
0.0
  0
LINE
  5
2F1
330
2
100
AcDbEntity
  8
0
100
AcDbLine
 10
349.9090715367922
 20
720.4226768328088
 30
0.0
 11
459.9090715367922
 21
720.4226768328088
 31
0.0
  0
LINE
  5
2F2
330
2
100
AcDbEntity
  8
0
100
AcDbLine
 10
469.9090715367922
 20
719.4226768328088
 30
0.0
 11
469.9090715367922
 21
273.4226768328093
 31
0.0
  0
LINE
  5
2F3
330
2
100
AcDbEntity
  8
0
100
AcDbLine
 10
459.9090715367922
 20
720.4226768328088
 30
0.0
 11
459.9090715367922
 21
272.4226768328092
 31
0.0
  0
LINE
  5
2F4
330
2
100
AcDbEntity
  8
0
100
AcDbLine
 10
349.9090715367922
 20
720.4226768328088
 30
0.0
 11
349.9090715367922
 21
272.4226768328092
 31
0.0
  0
LINE
  5
2F5
330
2
100
AcDbEntity
  8
0
100
AcDbLine
 10
244.5864461723433
 20
720.4226768328088
 30
0.0
 11
244.5864461723433
 21
272.4226768328092
 31
0.0
  0
LINE
  5
2F6
330
2
100
AcDbEntity
  8
0
100
AcDbLine
 10
97.58644617234427
 20
719.4226768328088
 30
0.0
 11
97.58644617234336
 21
273.4226768328093
 31
0.0
  0
LINE
  5
2F7
330
2
100
AcDbEntity
  8
0
100
AcDbLine
 10
96.58644617234337
 20
720.4226768328088
 30
0.0
 11
96.58644617234337
 21
272.4226768328092
 31
0.0
  0
LINE
  5
2F8
330
2
100
AcDbEntity
  8
0
100
AcDbLine
 10
96.58644617234337
 20
272.4226768328092
 30
0.0
 11
244.5864461723433
 21
272.4226768328092
 31
0.0
  0
LINE
  5
2F9
330
2
100
AcDbEntity
  8
0
100
AcDbLine
 10
96.58644617234337
 20
720.4226768328088
 30
0.0
 11
244.5864461723433
 21
720.4226768328088
 31
0.0
  0
ENDSEC
  0
SECTION
  2
OBJECTS
  0
DICTIONARY
  5
B
330
0
100
AcDbDictionary
281
     1
  3
ACAD_COLOR
350
4C
  3
ACAD_GROUP
350
39
  3
ACAD_LAYOUT
350
18
  3
ACAD_MATERIAL
350
D
  3
ACAD_MLEADERSTYLE
350
4F
  3
ACAD_MLINESTYLE
350
3A
  3
ACAD_PLOTSETTINGS
350
3B
  3
ACAD_PLOTSTYLENAME
350
A
  3
ACAD_SCALELIST
350
4D
  3
ACAD_TABLESTYLE
350
4E
  3
ACAD_VISUALSTYLE
350
31
  3
ACDB_RECOMPOSE_DATA
350
306
  3
AcDbVariableDictionary
350
2FC
  0
DICTIONARY
  5
21
330
20
100
AcDbDictionary
280
     1
281
     1
  3
ACAD_LAYERFILTERS
360
22
  3
ACAD_LAYERSTATES
360
23
  3
ACLYDICTIONARY
360
24
  0
DICTIONARY
  5
7
330
6
100
AcDbDictionary
280
     1
281
     1
  3
ADSK_XREC_LAYER_RECONCILED
360
8
  0
DICTIONARY
  5
298
330
297
100
AcDbDictionary
280
     1
281
     1
  3
ADSK_XREC_LAYER_RECONCILED
360
299
  0
DICTIONARY
  5
180
330
17F
100
AcDbDictionary
280
     1
281
     1
  3
ADSK_XREC_LAYER_RECONCILED
360
181
  0
DICTIONARY
  5
7C
330
7B
100
AcDbDictionary
280
     1
281
     1
  3
ADSK_XREC_LAYER_RECONCILED
360
7D
  0
DICTIONARY
  5
51
330
50
100
AcDbDictionary
280
     1
281
     1
  3
ADSK_XREC_LAYER_RECONCILED
360
52
  0
DICTIONARY
  5
216
330
215
100
AcDbDictionary
280
     1
281
     1
  3
ADSK_XREC_LAYER_RECONCILED
360
217
  0
DICTIONARY
  5
21C
330
21B
100
AcDbDictionary
280
     1
281
     1
  3
ADSK_XREC_LAYER_RECONCILED
360
21D
  0
DICTIONARY
  5
254
330
253
100
AcDbDictionary
280
     1
281
     1
  3
ADSK_XREC_LAYER_RECONCILED
360
255
  0
DICTIONARY
  5
23E
330
23D
100
AcDbDictionary
280
     1
281
     1
  3
ADSK_XREC_LAYER_RECONCILED
360
23F
  0
DICTIONARY
  5
3
330
2
100
AcDbDictionary
280
     1
281
     1
  3
ACAD_SORTENTS
360
2FB
  0
DICTIONARY
  5
211
330
210
100
AcDbDictionary
280
     1
281
     1
  3
ACAD_SORTENTS
360
2FA
  0
DICTIONARY
  5
4C
102
{ACAD_REACTORS
330
B
102
}
330
B
100
AcDbDictionary
281
     1
  0
DICTIONARY
  5
39
102
{ACAD_REACTORS
330
B
102
}
330
B
100
AcDbDictionary
281
     1
  0
DICTIONARY
  5
18
102
{ACAD_REACTORS
330
B
102
}
330
B
100
AcDbDictionary
281
     1
  3
Layout1
350
1F
  3
Model
350
17
  0
DICTIONARY
  5
D
102
{ACAD_REACTORS
330
B
102
}
330
B
100
AcDbDictionary
281
     1
  3
ByBlock
350
44
  3
ByLayer
350
3C
  3
Global
350
C
  0
DICTIONARY
  5
4F
102
{ACAD_REACTORS
330
B
102
}
330
B
100
AcDbDictionary
281
     1
  0
DICTIONARY
  5
3A
102
{ACAD_REACTORS
330
B
102
}
330
B
100
AcDbDictionary
281
     1
  3
Standard
350
54
  0
DICTIONARY
  5
3B
102
{ACAD_REACTORS
330
B
102
}
330
B
100
AcDbDictionary
281
     1
  0
ACDBDICTIONARYWDFLT
  5
A
102
{ACAD_REACTORS
330
B
102
}
330
B
100
AcDbDictionary
281
     1
  3
Normal
350
9
100
AcDbDictionaryWithDefault
340
9
  0
DICTIONARY
  5
4D
102
{ACAD_REACTORS
330
B
102
}
330
B
100
AcDbDictionary
281
     1
  3
A0
350
59
  3
A1
350
5A
  3
A2
350
5B
  3
A3
350
5C
  3
A4
350
5D
  3
A5
350
5E
  3
A6
350
5F
  3
A7
350
60
  3
A8
350
61
  3
A9
350
62
  3
B0
350
63
  3
B1
350
64
  3
B2
350
65
  3
B3
350
66
  3
B4
350
67
  3
B5
350
68
  3
B6
350
69
  3
B7
350
6A
  3
B8
350
6B
  3
B9
350
6C
  3
C0
350
6D
  3
C1
350
6E
  3
C2
350
6F
  3
C3
350
70
  3
C4
350
71
  3
C5
350
72
  3
C6
350
73
  3
C7
350
74
  3
C8
350
75
  3
C9
350
76
  3
D0
350
77
  3
D1
350
78
  3
D2
350
79
  0
DICTIONARY
  5
4E
102
{ACAD_REACTORS
330
B
102
}
330
B
100
AcDbDictionary
281
     1
  3
Standard
350
55
  0
DICTIONARY
  5
31
102
{ACAD_REACTORS
330
B
102
}
330
B
100
AcDbDictionary
281
     1
  3
2dWireframe
350
30
  3
3dWireframe
350
58
  3
Realistic
350
57
  0
XRECORD
  5
306
102
{ACAD_REACTORS
330
B
102
}
330
B
100
AcDbXrecord
280
     1
 90
        1
330
55
  0
DICTIONARY
  5
2FC
102
{ACAD_REACTORS
330
B
102
}
330
B
100
AcDbDictionary
281
     1
  3
CANNOSCALE
350
300
  3
CMLEADERSTYLE
350
2FE
  3
CTABLESTYLE
350
2FD
  3
LAYEREVAL
350
302
  3
LAYERNOTIFY
350
303
  3
LIGHTINGUNITS
350
301
  3
MSLTSCALE
350
2FF
  0
DICTIONARY
  5
22
102
{ACAD_REACTORS
330
21
102
}
330
21
100
AcDbDictionary
281
     1
  0
DICTIONARY
  5
23
102
{ACAD_REACTORS
330
21
102
}
330
21
100
AcDbDictionary
281
     1
  0
DICTIONARY
  5
24
102
{ACAD_REACTORS
330
21
102
}
330
21
100
AcDbDictionary
281
     1
1001
ACAD
1000
<All
  0
XRECORD
  5
8
102
{ACAD_REACTORS
330
7
102
}
330
7
100
AcDbXrecord
280
     1
290
     1
  0
XRECORD
  5
299
102
{ACAD_REACTORS
330
298
102
}
330
298
100
AcDbXrecord
280
     1
290
     1
  0
XRECORD
  5
181
102
{ACAD_REACTORS
330
180
102
}
330
180
100
AcDbXrecord
280
     1
290
     1
  0
XRECORD
  5
7D
102
{ACAD_REACTORS
330
7C
102
}
330
7C
100
AcDbXrecord
280
     1
290
     1
  0
XRECORD
  5
52
102
{ACAD_REACTORS
330
51
102
}
330
51
100
AcDbXrecord
280
     1
290
     1
  0
XRECORD
  5
217
102
{ACAD_REACTORS
330
216
102
}
330
216
100
AcDbXrecord
280
     1
290
     1
  0
XRECORD
  5
21D
102
{ACAD_REACTORS
330
21C
102
}
330
21C
100
AcDbXrecord
280
     1
290
     1
  0
XRECORD
  5
255
102
{ACAD_REACTORS
330
254
102
}
330
254
100
AcDbXrecord
280
     1
290
     1
  0
XRECORD
  5
23F
102
{ACAD_REACTORS
330
23E
102
}
330
23E
100
AcDbXrecord
280
     1
290
     1
  0
SORTENTSTABLE
  5
2FB
102
{ACAD_REACTORS
330
3
102
}
330
3
100
AcDbSortentsTable
330
2
331
1DE
  5
15E
331
1DA
  5
162
331
19B
  5
18D
331
12F
  5
20D
331
296
  5
12C
331
12B
  5
29A
331
127
  5
29E
331
166
  5
1D6
331
2CD
  5
B8
331
162
  5
1DA
331
E8
  5
2AD
331
123
  5
2A2
331
197
  5
191
331
1D6
  5
166
331
193
  5
195
331
1D2
  5
16A
331
20D
  5
12F
331
18F
  5
199
331
1CE
  5
16E
331
209
  5
133
331
1CA
  5
172
331
205
  5
137
331
18B
  5
1B5
331
201
  5
13B
331
11F
  5
2A6
331
15E
  5
1DE
331
15A
  5
1E2
331
9D
  5
2E8
331
2F8
  5
7F
331
156
  5
1E6
331
152
  5
1EA
331
2F4
  5
83
331
2F0
  5
87
331
1C6
  5
176
331
187
  5
1B9
331
183
  5
1BD
331
1C2
  5
17A
331
1FD
  5
13F
331
1BE
  5
17E
331
1F9
  5
143
331
1F5
  5
147
331
17B
  5
1C1
331
1BA
  5
186
331
1F1
  5
14B
331
10F
  5
2AA
331
14E
  5
1EE
331
14A
  5
1F2
331
2B1
  5
BC
331
2EC
  5
8B
331
8D
  5
2EA
331
CC
  5
2AF
331
146
  5
1F6
331
2AD
  5
E8
331
2E8
  5
9D
331
142
  5
1FA
331
2A9
  5
11C
331
89
  5
2EE
331
1B6
  5
18A
331
177
  5
1C5
331
173
  5
1C9
331
1ED
  5
14F
331
16F
  5
1CD
331
1E9
  5
153
331
1E5
  5
157
331
16B
  5
1D1
331
1E1
  5
15B
331
13E
  5
1FE
331
2A5
  5
120
331
85
  5
2F2
331
13A
  5
202
331
2A1
  5
124
331
81
  5
2F6
331
BC
  5
2B1
331
136
  5
206
331
29D
  5
128
331
B8
  5
2CD
331
132
  5
20A
331
1DD
  5
15F
331
1D9
  5
163
331
19A
  5
18E
331
12E
  5
20E
331
12A
  5
29B
331
2CC
  5
B9
331
126
  5
29F
331
165
  5
1D7
331
161
  5
1DB
331
122
  5
2A3
331
196
  5
192
331
1D5
  5
167
331
192
  5
196
331
1D1
  5
16B
331
20C
  5
130
331
18E
  5
19A
331
1CD
  5
16F
331
208
  5
134
331
1C9
  5
173
331
204
  5
138
331
18A
  5
1B6
331
200
  5
13C
331
11E
  5
2A7
331
15D
  5
1DF
331
159
  5
1E3
331
2F7
  5
80
331
155
  5
1E7
331
151
  5
1EB
331
2F3
  5
84
331
186
  5
1BA
331
1C5
  5
177
331
1C1
  5
17B
331
1FC
  5
140
331
17E
  5
1BE
331
1BD
  5
183
331
1F8
  5
144
331
1B9
  5
187
331
1F4
  5
148
331
17A
  5
1C2
331
1F0
  5
14C
331
14D
  5
1EF
331
2EF
  5
88
331
149
  5
1F3
331
2B0
  5
BD
331
2EB
  5
8C
331
8C
  5
2EB
331
145
  5
1F7
331
2AC
  5
F5
331
141
  5
1FB
331
2A8
  5
11D
331
88
  5
2EF
331
102
  5
2AB
331
1B5
  5
18B
331
176
  5
1C6
331
172
  5
1CA
331
1EC
  5
150
331
16E
  5
1CE
331
1E8
  5
154
331
1E4
  5
158
331
16A
  5
1D2
331
1E0
  5
15C
331
13D
  5
1FF
331
2A4
  5
121
331
84
  5
2F3
331
139
  5
203
331
2A0
  5
125
331
2DB
  5
AA
331
80
  5
2F7
331
BB
  5
2B2
331
135
  5
207
331
29C
  5
129
331
131
  5
20B
331
1DC
  5
160
331
1D8
  5
164
331
199
  5
18F
331
B7
  5
2CE
331
12D
  5
20F
331
129
  5
29C
331
164
  5
1D8
331
125
  5
2A0
331
160
  5
1DC
331
121
  5
2A4
331
195
  5
193
331
1D4
  5
168
331
20F
  5
12D
331
191
  5
197
331
1D0
  5
16C
331
20B
  5
131
331
207
  5
135
331
18D
  5
19B
331
1CC
  5
170
331
1C8
  5
174
331
203
  5
139
331
189
  5
1B7
331
11D
  5
2A8
331
15C
  5
1E0
331
158
  5
1E4
331
2BF
  5
BA
331
2F6
  5
81
331
154
  5
1E8
331
150
  5
1EC
331
2F2
  5
85
331
185
  5
1BB
331
1C4
  5
178
331
1FF
  5
13D
331
1C0
  5
17C
331
1FB
  5
141
331
17D
  5
1BF
331
1BC
  5
184
331
1F7
  5
145
331
1B8
  5
188
331
1F3
  5
149
331
179
  5
1C3
331
14C
  5
1F0
331
2EE
  5
89
331
148
  5
1F4
331
2AF
  5
CC
331
2EA
  5
8D
331
8B
  5
2EC
331
144
  5
1F8
331
2AB
  5
102
331
140
  5
1FC
331
175
  5
1C7
331
1EF
  5
14D
331
171
  5
1CB
331
1EB
  5
151
331
16D
  5
1CF
331
1E7
  5
155
331
1A8
  5
18C
331
1E3
  5
159
331
169
  5
1D3
331
2A7
  5
11E
331
87
  5
2F0
331
13C
  5
200
331
2A3
  5
122
331
83
  5
2F4
331
138
  5
204
331
29F
  5
126
331
7F
  5
2F8
331
BA
  5
2BF
331
F5
  5
2AC
331
134
  5
208
331
29B
  5
12A
331
130
  5
20C
331
1DF
  5
15D
331
1DB
  5
161
331
198
  5
190
331
12C
  5
296
331
128
  5
29D
331
167
  5
1D5
331
2CE
  5
B7
331
163
  5
1D9
331
AA
  5
2DB
331
124
  5
2A1
331
120
  5
2A5
331
1D7
  5
165
331
1D3
  5
169
331
20E
  5
12E
331
190
  5
198
331
1CF
  5
16D
331
20A
  5
132
331
206
  5
136
331
18C
  5
1A8
331
1CB
  5
171
331
202
  5
13A
331
188
  5
1B8
331
15F
  5
1DD
331
11C
  5
2A9
331
15B
  5
1E1
331
157
  5
1E5
331
2F9
  5
7A
331
153
  5
1E9
331
2F5
  5
82
331
D9
  5
2AE
331
2F1
  5
86
331
1C7
  5
175
331
184
  5
1BC
331
1C3
  5
179
331
1FE
  5
13E
331
1BF
  5
17D
331
1FA
  5
142
331
1F6
  5
146
331
17C
  5
1C0
331
1BB
  5
185
331
1F2
  5
14A
331
178
  5
1C4
331
14F
  5
1ED
331
14B
  5
1F1
331
2B2
  5
BB
331
2ED
  5
8A
331
8E
  5
2E9
331
147
  5
1F5
331
2AE
  5
D9
331
2E9
  5
8E
331
2AA
  5
10F
331
8A
  5
2ED
331
143
  5
1F9
331
1B7
  5
189
331
174
  5
1C8
331
1EE
  5
14E
331
170
  5
1CC
331
1EA
  5
152
331
16C
  5
1D0
331
1E6
  5
156
331
1E2
  5
15A
331
168
  5
1D4
331
13F
  5
1FD
331
2A6
  5
11F
331
86
  5
2F1
331
13B
  5
201
331
2A2
  5
123
331
82
  5
2F5
331
BD
  5
2B0
331
137
  5
205
331
29E
  5
127
331
7A
  5
2F9
331
B9
  5
2CC
331
133
  5
209
331
29A
  5
12B
  0
SORTENTSTABLE
  5
2FA
102
{ACAD_REACTORS
330
211
102
}
330
211
100
AcDbSortentsTable
330
210
  0
LAYOUT
  5
1F
102
{ACAD_REACTORS
330
18
102
}
330
18
100
AcDbPlotSettings
  1

  2
HP LaserJet 4 Plus
  4

  6

 40
0.0
 41
0.0
 42
0.0
 43
0.0
 44
0.0
 45
0.0
 46
0.0
 47
0.0
 48
0.0
 49
0.0
140
0.0
141
0.0
142
1.0
143
1.0
 70
   688
 72
     0
 73
     0
 74
     5
  7
CNC-Soft.ctb
 75
    16
147
1.0
 76
     0
 77
     2
 78
   300
148
0.0
149
0.0
100
AcDbLayout
  1
Layout1
 70
     0
 71
     1
 10
0.0
 20
0.0
 11
12.0
 21
9.0
 12
0.0
 22
0.0
 32
0.0
 14
1.000000000000000E+20
 24
1.000000000000000E+20
 34
1.000000000000000E+20
 15
-1.000000000000000E+20
 25
-1.000000000000000E+20
 35
-1.000000000000000E+20
146
0.0
 13
0.0
 23
0.0
 33
0.0
 16
1.0
 26
0.0
 36
0.0
 17
0.0
 27
1.0
 37
0.0
 76
     0
330
1C
  0
LAYOUT
  5
17
102
{ACAD_XDICTIONARY
360
19
102
}
102
{ACAD_REACTORS
330
18
102
}
330
18
100
AcDbPlotSettings
  1

  2
none_device
  4
Letter_(8.50_x_11.00_Inches)
  6

 40
6.349999904632568
 41
6.349999904632568
 42
6.350006103515625
 43
6.350006103515625
 44
215.8999938964844
 45
279.3999938964844
 46
0.0
 47
0.0
 48
0.0
 49
0.0
140
0.0
141
0.0
142
1.0
143
288.3337745544651
 70
 11952
 72
     0
 73
     1
 74
     0
  7
CNC-Soft.ctb
 75
     0
147
0.0034682027852797
 76
     0
 77
     2
 78
   300
148
37189.18191030514
149
-6290.54426628976
100
AcDbLayout
  1
Model
 70
     1
 71
     0
 10
0.0
 20
0.0
 11
12.0
 21
9.0
 12
0.0
 22
0.0
 32
0.0
 14
0.0
 24
0.0
 34
0.0
 15
0.0
 25
0.0
 35
0.0
146
0.0
 13
0.0
 23
0.0
 33
0.0
 16
1.0
 26
0.0
 36
0.0
 17
0.0
 27
1.0
 37
0.0
 76
     0
330
2
331
2F
1001
ACAD_PSEXT
1000
Kein
1000
Kein
1000
Nicht anwendbar
1000
Das Layout wird erst geplottet, wenn ein neuer Plotter-Konfigurationsname ausgewählt wird.
1070
     0
  0
MATERIAL
  5
44
102
{ACAD_XDICTIONARY
360
45
102
}
102
{ACAD_REACTORS
330
D
102
}
330
D
100
AcDbMaterial
  1
ByBlock
 72
     0
 43
0.0208333333333333
 43
0.0
 43
0.0
 43
0.0
 43
0.0
 43
0.0208333333333333
 43
0.0
 43
0.0
 43
0.0
 43
0.0
 43
1.0
 43
0.0
 43
0.0
 43
0.0
 43
0.0
 43
1.0
 77
     0
 47
0.0208333333333333
 47
0.0
 47
0.0
 47
0.0
 47
0.0
 47
0.0208333333333333
 47
0.0
 47
0.0
 47
0.0
 47
0.0
 47
1.0
 47
0.0
 47
0.0
 47
0.0
 47
0.0
 47
1.0
171
     0
 49
0.0208333333333333
 49
0.0
 49
0.0
 49
0.0
 49
0.0
 49
0.0208333333333333
 49
0.0
 49
0.0
 49
0.0
 49
0.0
 49
1.0
 49
0.0
 49
0.0
 49
0.0
 49
0.0
 49
1.0
175
     0
142
0.0208333333333333
142
0.0
142
0.0
142
0.0
142
0.0
142
0.0208333333333333
142
0.0
142
0.0
142
0.0
142
0.0
142
1.0
142
0.0
142
0.0
142
0.0
142
0.0
142
1.0
179
     0
144
0.0208333333333333
144
0.0
144
0.0
144
0.0
144
0.0
144
0.0208333333333333
144
0.0
144
0.0
144
0.0
144
0.0
144
1.0
144
0.0
144
0.0
144
0.0
144
0.0
144
1.0
147
0.0208333333333333
147
0.0
147
0.0
147
0.0
147
0.0
147
0.0208333333333333
147
0.0
147
0.0
147
0.0
147
0.0
147
1.0
147
0.0
147
0.0
147
0.0
147
0.0
147
1.0
  0
MATERIAL
  5
3C
102
{ACAD_XDICTIONARY
360
3D
102
}
102
{ACAD_REACTORS
330
D
102
}
330
D
100
AcDbMaterial
  1
ByLayer
 72
     0
 43
0.0208333333333333
 43
0.0
 43
0.0
 43
0.0
 43
0.0
 43
0.0208333333333333
 43
0.0
 43
0.0
 43
0.0
 43
0.0
 43
1.0
 43
0.0
 43
0.0
 43
0.0
 43
0.0
 43
1.0
 77
     0
 47
0.0208333333333333
 47
0.0
 47
0.0
 47
0.0
 47
0.0
 47
0.0208333333333333
 47
0.0
 47
0.0
 47
0.0
 47
0.0
 47
1.0
 47
0.0
 47
0.0
 47
0.0
 47
0.0
 47
1.0
171
     0
 49
0.0208333333333333
 49
0.0
 49
0.0
 49
0.0
 49
0.0
 49
0.0208333333333333
 49
0.0
 49
0.0
 49
0.0
 49
0.0
 49
1.0
 49
0.0
 49
0.0
 49
0.0
 49
0.0
 49
1.0
175
     0
142
0.0208333333333333
142
0.0
142
0.0
142
0.0
142
0.0
142
0.0208333333333333
142
0.0
142
0.0
142
0.0
142
0.0
142
1.0
142
0.0
142
0.0
142
0.0
142
0.0
142
1.0
179
     0
144
0.0208333333333333
144
0.0
144
0.0
144
0.0
144
0.0
144
0.0208333333333333
144
0.0
144
0.0
144
0.0
144
0.0
144
1.0
144
0.0
144
0.0
144
0.0
144
0.0
144
1.0
147
0.0208333333333333
147
0.0
147
0.0
147
0.0
147
0.0
147
0.0208333333333333
147
0.0
147
0.0
147
0.0
147
0.0
147
1.0
147
0.0
147
0.0
147
0.0
147
0.0
147
1.0
  0
MATERIAL
  5
C
102
{ACAD_XDICTIONARY
360
E
102
}
102
{ACAD_REACTORS
330
D
102
}
330
D
100
AcDbMaterial
  1
Global
 72
     0
 43
0.0208333333333333
 43
0.0
 43
0.0
 43
0.0
 43
0.0
 43
0.0208333333333333
 43
0.0
 43
0.0
 43
0.0
 43
0.0
 43
1.0
 43
0.0
 43
0.0
 43
0.0
 43
0.0
 43
1.0
 77
     0
 47
0.0208333333333333
 47
0.0
 47
0.0
 47
0.0
 47
0.0
 47
0.0208333333333333
 47
0.0
 47
0.0
 47
0.0
 47
0.0
 47
1.0
 47
0.0
 47
0.0
 47
0.0
 47
0.0
 47
1.0
171
     0
 49
0.0208333333333333
 49
0.0
 49
0.0
 49
0.0
 49
0.0
 49
0.0208333333333333
 49
0.0
 49
0.0
 49
0.0
 49
0.0
 49
1.0
 49
0.0
 49
0.0
 49
0.0
 49
0.0
 49
1.0
175
     0
142
0.0208333333333333
142
0.0
142
0.0
142
0.0
142
0.0
142
0.0208333333333333
142
0.0
142
0.0
142
0.0
142
0.0
142
1.0
142
0.0
142
0.0
142
0.0
142
0.0
142
1.0
179
     0
144
0.0208333333333333
144
0.0
144
0.0
144
0.0
144
0.0
144
0.0208333333333333
144
0.0
144
0.0
144
0.0
144
0.0
144
1.0
144
0.0
144
0.0
144
0.0
144
0.0
144
1.0
147
0.0208333333333333
147
0.0
147
0.0
147
0.0
147
0.0
147
0.0208333333333333
147
0.0
147
0.0
147
0.0
147
0.0
147
1.0
147
0.0
147
0.0
147
0.0
147
0.0
147
1.0
  0
MLINESTYLE
  5
54
102
{ACAD_REACTORS
330
3A
102
}
330
3A
100
AcDbMlineStyle
  2
STANDARD
 70
     0
  3

 62
   256
 51
90.0
 52
90.0
 71
     2
 49
0.5
 62
   256
  6
BYLAYER
 49
-0.5
 62
   256
  6
BYLAYER
  0
ACDBPLACEHOLDER
  5
9
102
{ACAD_REACTORS
330
A
102
}
330
A
  0
SCALE
  5
59
102
{ACAD_REACTORS
330
4D
102
}
330
4D
100
AcDbScale
 70
     0
300
1:1
140
1.0
141
1.0
290
     1
  0
SCALE
  5
5A
102
{ACAD_REACTORS
330
4D
102
}
330
4D
100
AcDbScale
 70
     0
300
1:2
140
1.0
141
2.0
290
     0
  0
SCALE
  5
5B
102
{ACAD_REACTORS
330
4D
102
}
330
4D
100
AcDbScale
 70
     0
300
1:4
140
1.0
141
4.0
290
     0
  0
SCALE
  5
5C
102
{ACAD_REACTORS
330
4D
102
}
330
4D
100
AcDbScale
 70
     0
300
1:5
140
1.0
141
5.0
290
     0
  0
SCALE
  5
5D
102
{ACAD_REACTORS
330
4D
102
}
330
4D
100
AcDbScale
 70
     0
300
1:8
140
1.0
141
8.0
290
     0
  0
SCALE
  5
5E
102
{ACAD_REACTORS
330
4D
102
}
330
4D
100
AcDbScale
 70
     0
300
1:10
140
1.0
141
10.0
290
     0
  0
SCALE
  5
5F
102
{ACAD_REACTORS
330
4D
102
}
330
4D
100
AcDbScale
 70
     0
300
1:16
140
1.0
141
16.0
290
     0
  0
SCALE
  5
60
102
{ACAD_REACTORS
330
4D
102
}
330
4D
100
AcDbScale
 70
     0
300
1:20
140
1.0
141
20.0
290
     0
  0
SCALE
  5
61
102
{ACAD_REACTORS
330
4D
102
}
330
4D
100
AcDbScale
 70
     0
300
1:30
140
1.0
141
30.0
290
     0
  0
SCALE
  5
62
102
{ACAD_REACTORS
330
4D
102
}
330
4D
100
AcDbScale
 70
     0
300
1:40
140
1.0
141
40.0
290
     0
  0
SCALE
  5
63
102
{ACAD_REACTORS
330
4D
102
}
330
4D
100
AcDbScale
 70
     0
300
1:50
140
1.0
141
50.0
290
     0
  0
SCALE
  5
64
102
{ACAD_REACTORS
330
4D
102
}
330
4D
100
AcDbScale
 70
     0
300
1:100
140
1.0
141
100.0
290
     0
  0
SCALE
  5
65
102
{ACAD_REACTORS
330
4D
102
}
330
4D
100
AcDbScale
 70
     0
300
2:1
140
2.0
141
1.0
290
     0
  0
SCALE
  5
66
102
{ACAD_REACTORS
330
4D
102
}
330
4D
100
AcDbScale
 70
     0
300
4:1
140
4.0
141
1.0
290
     0
  0
SCALE
  5
67
102
{ACAD_REACTORS
330
4D
102
}
330
4D
100
AcDbScale
 70
     0
300
8:1
140
8.0
141
1.0
290
     0
  0
SCALE
  5
68
102
{ACAD_REACTORS
330
4D
102
}
330
4D
100
AcDbScale
 70
     0
300
10:1
140
10.0
141
1.0
290
     0
  0
SCALE
  5
69
102
{ACAD_REACTORS
330
4D
102
}
330
4D
100
AcDbScale
 70
     0
300
100:1
140
100.0
141
1.0
290
     0
  0
SCALE
  5
6A
102
{ACAD_REACTORS
330
4D
102
}
330
4D
100
AcDbScale
 70
     0
300
1/128" = 1'-0"
140
0.0078125
141
12.0
290
     0
  0
SCALE
  5
6B
102
{ACAD_REACTORS
330
4D
102
}
330
4D
100
AcDbScale
 70
     0
300
1/64" = 1'-0"
140
0.015625
141
12.0
290
     0
  0
SCALE
  5
6C
102
{ACAD_REACTORS
330
4D
102
}
330
4D
100
AcDbScale
 70
     0
300
1/32" = 1'-0"
140
0.03125
141
12.0
290
     0
  0
SCALE
  5
6D
102
{ACAD_REACTORS
330
4D
102
}
330
4D
100
AcDbScale
 70
     0
300
1/16" = 1'-0"
140
0.0625
141
12.0
290
     0
  0
SCALE
  5
6E
102
{ACAD_REACTORS
330
4D
102
}
330
4D
100
AcDbScale
 70
     0
300
3/32" = 1'-0"
140
0.09375
141
12.0
290
     0
  0
SCALE
  5
6F
102
{ACAD_REACTORS
330
4D
102
}
330
4D
100
AcDbScale
 70
     0
300
1/8" = 1'-0"
140
0.125
141
12.0
290
     0
  0
SCALE
  5
70
102
{ACAD_REACTORS
330
4D
102
}
330
4D
100
AcDbScale
 70
     0
300
3/16" = 1'-0"
140
0.1875
141
12.0
290
     0
  0
SCALE
  5
71
102
{ACAD_REACTORS
330
4D
102
}
330
4D
100
AcDbScale
 70
     0
300
1/4" = 1'-0"
140
0.25
141
12.0
290
     0
  0
SCALE
  5
72
102
{ACAD_REACTORS
330
4D
102
}
330
4D
100
AcDbScale
 70
     0
300
3/8" = 1'-0"
140
0.375
141
12.0
290
     0
  0
SCALE
  5
73
102
{ACAD_REACTORS
330
4D
102
}
330
4D
100
AcDbScale
 70
     0
300
1/2" = 1'-0"
140
0.5
141
12.0
290
     0
  0
SCALE
  5
74
102
{ACAD_REACTORS
330
4D
102
}
330
4D
100
AcDbScale
 70
     0
300
3/4" = 1'-0"
140
0.75
141
12.0
290
     0
  0
SCALE
  5
75
102
{ACAD_REACTORS
330
4D
102
}
330
4D
100
AcDbScale
 70
     0
300
1" = 1'-0"
140
1.0
141
12.0
290
     0
  0
SCALE
  5
76
102
{ACAD_REACTORS
330
4D
102
}
330
4D
100
AcDbScale
 70
     0
300
1-1/2" = 1'-0"
140
1.5
141
12.0
290
     0
  0
SCALE
  5
77
102
{ACAD_REACTORS
330
4D
102
}
330
4D
100
AcDbScale
 70
     0
300
3" = 1'-0"
140
3.0
141
12.0
290
     0
  0
SCALE
  5
78
102
{ACAD_REACTORS
330
4D
102
}
330
4D
100
AcDbScale
 70
     0
300
6" = 1'-0"
140
6.0
141
12.0
290
     0
  0
SCALE
  5
79
102
{ACAD_REACTORS
330
4D
102
}
330
4D
100
AcDbScale
 70
     0
300
1'-0" = 1'-0"
140
12.0
141
12.0
290
     0
  0
TABLESTYLE
  5
55
102
{ACAD_XDICTIONARY
360
56
102
}
102
{ACAD_REACTORS
330
4E
102
}
330
4E
100
AcDbTableStyle
280
     0
  3
Standard
 70
     0
 71
     0
 40
0.06
 41
0.06
280
     0
281
     0
  7
STANDARD
140
0.18
170
     2
 62
     0
 63
     7
283
     0
 90
      512
 91
        0
  1

274
    -2
284
     1
 64
     0
275
    -2
285
     1
 65
     0
276
    -2
286
     1
 66
     0
277
    -2
287
     1
 67
     0
278
    -2
288
     1
 68
     0
279
    -2
289
     1
 69
     0
  7
STANDARD
140
0.25
170
     5
 62
     0
 63
     7
283
     0
 90
      512
 91
        0
  1

274
    -2
284
     1
 64
     0
275
    -2
285
     1
 65
     0
276
    -2
286
     1
 66
     0
277
    -2
287
     1
 67
     0
278
    -2
288
     1
 68
     0
279
    -2
289
     1
 69
     0
  7
STANDARD
140
0.18
170
     5
 62
     0
 63
     7
283
     0
 90
      512
 91
        0
  1

274
    -2
284
     1
 64
     0
275
    -2
285
     1
 65
     0
276
    -2
286
     1
 66
     0
277
    -2
287
     1
 67
     0
278
    -2
288
     1
 68
     0
279
    -2
289
     1
 69
     0
  0
VISUALSTYLE
  5
30
102
{ACAD_REACTORS
330
31
102
}
330
31
100
AcDbVisualStyle
  2
2dWireframe
 70
     4
177
     2
291
     0
 71
     0
176
     1
 72
     2
176
     1
 73
     0
176
     1
 90
        0
176
     1
 40
0.6
176
     1
 41
30.0
176
     1
 63
     7
421
 16777215
176
     1
 74
     1
176
     1
 91
        4
176
     1
 64
     7
176
     1
 65
   257
176
     1
 75
     1
176
     1
175
     1
176
     1
 42
1.0
176
     1
 92
        0
176
     1
 66
   257
176
     1
 43
1.0
176
     1
 76
     1
176
     1
 77
     6
176
     1
 78
     2
176
     1
 67
     7
176
     1
 79
     5
176
     1
170
     0
176
     1
171
     0
176
     1
290
     0
176
     1
 93
        1
176
     1
 44
0.0
176
     1
173
     0
176
     1
  0
VISUALSTYLE
  5
58
102
{ACAD_REACTORS
330
31
102
}
330
31
100
AcDbVisualStyle
  2
3dWireframe
 70
     5
177
     2
291
     0
 71
     0
176
     1
 72
     2
176
     1
 73
     0
176
     1
 90
        0
176
     1
 40
0.6
176
     1
 41
30.0
176
     1
 63
     7
421
 16777215
176
     1
 74
     1
176
     1
 91
        4
176
     1
 64
     7
176
     1
 65
   257
176
     1
 75
     1
176
     1
175
     1
176
     1
 42
1.0
176
     1
 92
        0
176
     1
 66
   257
176
     1
 43
1.0
176
     1
 76
     1
176
     1
 77
     6
176
     1
 78
     2
176
     1
 67
     7
176
     1
 79
     5
176
     1
170
     0
176
     1
171
     0
176
     1
290
     0
176
     1
 93
        1
176
     1
 44
0.0
176
     1
173
     0
176
     1
  0
VISUALSTYLE
  5
57
102
{ACAD_REACTORS
330
31
102
}
330
31
100
AcDbVisualStyle
  2
Realistic
 70
     8
177
     2
291
     0
 71
     2
176
     1
 72
     2
176
     1
 73
     0
176
     1
 90
        0
176
     1
 40
0.6
176
     1
 41
30.0
176
     1
 63
     7
421
 16777215
176
     1
 74
     1
176
     1
 91
        0
176
     1
 64
     7
176
     1
 65
   257
176
     1
 75
     1
176
     1
175
     1
176
     1
 42
1.0
176
     1
 92
        8
176
     1
 66
     8
424
  7895160
176
     1
 43
1.0
176
     1
 76
     1
176
     1
 77
     6
176
     1
 78
     2
176
     1
 67
     7
176
     1
 79
     5
176
     1
170
     0
176
     1
171
     0
176
     1
290
     0
176
     1
 93
       13
176
     1
 44
0.0
176
     1
173
     0
176
     1
  0
DICTIONARYVAR
  5
300
102
{ACAD_REACTORS
330
2FC
102
}
330
2FC
100
DictionaryVariables
280
     0
  1
1:1
  0
DICTIONARYVAR
  5
2FE
102
{ACAD_REACTORS
330
2FC
102
}
330
2FC
100
DictionaryVariables
280
     0
  1
STANDARD
  0
DICTIONARYVAR
  5
2FD
102
{ACAD_REACTORS
330
2FC
102
}
330
2FC
100
DictionaryVariables
280
     0
  1
STANDARD
  0
DICTIONARYVAR
  5
302
102
{ACAD_REACTORS
330
2FC
102
}
330
2FC
100
DictionaryVariables
280
     0
  1
1
  0
DICTIONARYVAR
  5
303
102
{ACAD_REACTORS
330
2FC
102
}
330
2FC
100
DictionaryVariables
280
     0
  1
15
  0
DICTIONARYVAR
  5
301
102
{ACAD_REACTORS
330
2FC
102
}
330
2FC
100
DictionaryVariables
280
     0
  1
0
  0
DICTIONARYVAR
  5
2FF
102
{ACAD_REACTORS
330
2FC
102
}
330
2FC
100
DictionaryVariables
280
     0
  1
0
  0
DICTIONARY
  5
19
330
17
100
AcDbDictionary
280
     1
281
     1
  3
ADSK_XREC_LAYOUTTHUMBNAIL
360
1A
  0
DICTIONARY
  5
45
330
44
100
AcDbDictionary
280
     1
281
     1
  3
BUMPTILE
360
46
  3
DIFFUSETILE
360
47
  3
OPACITYTILE
360
48
  3
REFLECTIONTILE
360
49
  3
REFRACTIONTILE
360
4A
  3
SPECULARTILE
360
4B
  0
DICTIONARY
  5
3D
330
3C
100
AcDbDictionary
280
     1
281
     1
  3
BUMPTILE
360
3E
  3
DIFFUSETILE
360
3F
  3
OPACITYTILE
360
40
  3
REFLECTIONTILE
360
41
  3
REFRACTIONTILE
360
42
  3
SPECULARTILE
360
43
  0
DICTIONARY
  5
E
330
C
100
AcDbDictionary
280
     1
281
     1
  3
BUMPTILE
360
F
  3
DIFFUSETILE
360
10
  3
OPACITYTILE
360
11
  3
REFLECTIONTILE
360
12
  3
REFRACTIONTILE
360
13
  3
SPECULARTILE
360
14
  0
DICTIONARY
  5
56
330
55
100
AcDbDictionary
280
     1
281
     1
  3
ACAD_ROUNDTRIP_2008_TABLESTYLE_CELLSTYLEMAP
360
304
  0
XRECORD
  5
1A
102
{ACAD_REACTORS
330
19
102
}
330
19
100
AcDbXrecord
280
     1
310
280000000001000084000000010008000000000000840000000000000000000000010000000000000000000000000000FFFFFF000000000000000000000000000000000000000000000000000000000000000000330000006600000099000000CC000000FF00000000330000333300006633000099330000CC330000FF3300
310
0000660000336600006666000099660000CC660000FF66000000990000339900006699000099990000CC990000FF99000000CC000033CC000066CC000099CC0000CCCC0000FFCC000000FF000033FF000066FF000099FF0000CCFF0000FFFF000000003300330033006600330099003300CC003300FF003300003333003333
310
33006633330099333300CC333300FF33330000663300336633006666330099663300CC663300FF66330000993300339933006699330099993300CC993300FF99330000CC330033CC330066CC330099CC3300CCCC3300FFCC330000FF330033FF330066FF330099FF3300CCFF3300FFFF330000006600330066006600660099
310
006600CC006600FF00660000336600333366006633660099336600CC336600FF33660000666600336666006666660099666600CC666600FF66660000996600339966006699660099996600CC996600FF99660000CC660033CC660066CC660099CC6600CCCC6600FFCC660000FF660033FF660066FF660099FF6600CCFF6600
310
FFFF660000009900330099006600990099009900CC009900FF00990000339900333399006633990099339900CC339900FF33990000669900336699006666990099669900CC669900FF66990000999900339999006699990099999900CC999900FF99990000CC990033CC990066CC990099CC9900CCCC9900FFCC990000FF99
310
0033FF990066FF990099FF9900CCFF9900FFFF99000000CC003300CC006600CC009900CC00CC00CC00FF00CC000033CC003333CC006633CC009933CC00CC33CC00FF33CC000066CC003366CC006666CC009966CC00CC66CC00FF66CC000099CC003399CC006699CC009999CC00CC99CC00FF99CC0000CCCC0033CCCC0066CC
310
CC0099CCCC00CCCCCC00FFCCCC0000FFCC0033FFCC0066FFCC0099FFCC00CCFFCC00FFFFCC000000FF003300FF006600FF009900FF00CC00FF00FF00FF000033FF003333FF006633FF009933FF00CC33FF00FF33FF000066FF003366FF006666FF009966FF00CC66FF00FF66FF000099FF003399FF006699FF009999FF00CC
310
99FF00FF99FF0000CCFF0033CCFF0066CCFF0099CCFF00CCCCFF00FFCCFF0000FFFF0033FFFF0066FFFF0099FFFF00CCFFFF00FFFFFF00000000000D0D0D001A1A1A00282828003535350043434300505050005D5D5D006B6B6B00787878008686860093939300A1A1A100AEAEAE00BBBBBB00C9C9C900D6D6D600E4E4E400
310
F1F1F100FFFFFF0000000000000000000000000000000000000000000000000000000000000000000000000000000000E2E2E2E2E2E2E2E2E2E2E2E2E2E2E2E2E2E2E2E2E2E2E2E2E2E2E2E2E2E2E2E2E2E2E2E2E2E2E2E2E2E2E2E2E2E2E2E2E2E2E2E2E2E2E2E2E2E2E2E2E2E2E2E2E2E2E2E2E2E2E2E2E2E2E2E2E2E2E2
310
E2E2BEBEBEBEBEBEBEBEBEBEBEBEBEBEBEBEBEBEBEBEBEBEBEBEBEBEBEBEBEBEBEBEBEBEBEBEBEBEBEBEBEBEBEBEBEBEBEBEBEBEBEBEBEBEBEBEBEBEBEBEBEBEBEBEBEBEBEBEBEBEBEBEBEBEBEBEBEBEBEBEBEBEBEBEBEBEBEBEBEBEBEBEBEBEE2E2E2E2E2E2E2E2E2E2E2E2E2E2E2E2E2E2E2E2E2E2E2E2E2E2E2E2E2E2E2
310
E2E2E2E2E2E2E2E2E2E2E2E2E2E2E2E2E2E2E2E2E2E2E2E2E2E2E2E2E2E2E2E2E2E2E2E2E2E2E2E2E2E2E2E2E2E2E2E2E2E2E2E2E2E2E2E2E2E2E2E2E2E2E2E2E2E2E2E2E2E2E2E2E2E2E2E2E2E2E2E2E2E2E2E2E2E2E2E2E2E2E2E2E2E2E2E2E2E2E2E2E2E2E2E2E2E2E2E2E2E2E2E2E2E2E2E2E2E2E2E2E2E2E2E2E2E2E2
310
E2E2E2E2BEE2E2E2E2E2E2E2E2E2E2E2E2E2E2E2E2E2E2E2E2E2E2E2E2E2E2E2E2E2E2E2E2E2E2E2E2E2E2E2E2E2E2E2E2E2E2E2E2E2E2E2E2E2E2E2E2E2E2E2E2E2E2E2E2E2E2E2E2E2E2E2E2E2E2E2E2E2E2E2E2E2E2E2E2E2E2E2E2E2E2E2E2BEE2E2E2E2E2E2E2E2E2E2E2E2E2E2E2E2E2E2E2E2E2E2E2E2E2E2E2E2E2
310
E2E2E2E2E2E2E2E2E2E2E2E2E2E2E2E2E2E2E2E2E2E2E2E2E2E2E2E2E2E2E2E2E2E2E2E2E2E2E2E2E2E2E2E2E2E2E2E2E2E2E2E2E2E2E2E2E2E2E2E2E2E2E2E2E2E2E2E2E2E2E2E2E2E2E2E2E2E2E2E2E2E2E2E2E2E2E2E2E2E2E2E2E2E2E2E2E2E2E2E2E2E2E2E2E2E2E2E2E2E2E2E2E2E2E2E2E2E2E2E2E2E2E2E2E2E2E2
310
E2E2E2E2E2E2BEE2E2E2E2E2E2E2E2E2E2E2E2E2E2E2E2E2E2E2E2E2E2E2E2E2E2E2E2E2E2E2E2E2E2E2E2E2E2E2E2E2E2E2E2E2E2E2E2E2E2E2E2E2E2E2E2E2E2E2E2E2E2E2E2E2E2E2E2E2E2E2E2E2E2E2E2E2E2E2E2E2E2E2E2E2E2E2E2E2E2E2E2BEE2E2E2E2E2E2E2E2E2E2E2E2E2E2E2E2E2E2E2E2E2E2E2E2E2E2E2
310
E2E2E2E2E2E2E2E2E2E2E2E2E2E2E2E2E2E2E2E2E2E2E2E2E2E2E2E2E2E2E2E2E2E2E2E2E2E2E2E2E2E2E2E2E2E2E2E2E2E2E2E2E2E2E2E2E2E2E2E2E2E2E2E2E2E2E2E2E2E2E2E2E2E2E2E2E2E2E2E2E2E2E2E2E2E2E2E2E2E2E2E2E2E2E2E2E2E2E2E2E2E2E2E2E2E2E2E2E2E2E2E2E2E2E2E2E2E2E2E2E2E2E2E2E2E2E2
310
E2E2E2E2E2E2E2E2BEE2E2E2E2E2E2E2E2DCDCDCDCDCDCDCDCDCDCDCDCDCDCDCDCDCDCDCDCDCDCDCDCDCDCDCDCDCDCDCDCDCDCDCDCDCDCDCDCDCDCDCDCDCDCDCDCDCDCDCDCDCDCDCDCDCDCDCDCDCDCDCDCDCDCDCDCDCDCDCDCDCDCDCDCDCDCDCDCDCDCE2E2BEE2E2E2E2E2E2E2E2E2E2E2E2E2E2E2E2E2E2E2E2E2E2E2E2E2
310
E2E2E2E2E2E2E2E2E2E2E2E2E2E2E2E2E2E2E2E2E2E2E2E2E2E2E2E2E2E2E2E2E2E2E2E2E2E2E2E2E2E2E2E2E2E2E2E2E2E2E2E2E2E2E2E2E2E2E2E2E2E2E2E2E2E2E2E2E2E2E2E2E2E2E2E2E2E2E2E2E2E2E2E2E2E2E2E2E2E2E2E2E2E2E2E2E2E2E2E2E2E2E2E2E2E2E2E2E2E2E2E2E2E2E2E2E2E2E2E2E2E2E2E2E2E2E2
310
E2E2E2E2E2E2E2E2E2E2BEE2E2E2E2E2E2E2E2DCF5F5F5F5F5E2E2E2E2E2DCF5F5F5F5F5F5E2E2E2E2DCE2E2E2E2E2E2BEBEBEBEBEBEBEBEBEBEE2E2E2DCE2E2E2E2E2E2E2E2E2E2E2E2DCE2E2E2E2E2E2E2E2E2E2E2E2E2DCBEBEBEBEBEBEBEBEE2E2E2DCE2E2BEE2E2E2E2E2E2E2E2E2E2E2E2E2E2E2E2E2E2E2E2E2E2E2
310
E2E2E2E2E2E2E2E2E2E2E2E2E2E2E2E2E2E2E2E2E2E2E2E2E2E2E2E2E2E2E2E2E2E2E2E2E2E2E2E2E2E2E2E2E2E2E2E2E2E2E2E2E2E2E2E2E2E2E2E2E2E2E2E2E2E2E2E2E2E2E2E2E2E2E2E2E2E2E2E2E2E2E2E2E2E2E2E2E2E2E2E2E2E2E2E2E2E2E2E2E2E2E2E2E2E2E2E2E2E2E2E2E2E2E2E2E2E2E2E2E2E2E2E2E2E2E2
310
E2E2E2E2E2E2E2E2E2E2E2E2BEE2E2E2E2E2E2E2E2DCF5F5F5F5F5DCDCDCDCDCDCF5F5F5F5F5F5DCDCDCDCDCE2E2E2E2E2E2BEBEBEBEBEBEBEBEBEBEE2E2E2DCE2E2E2E2E2E2E2E2E2E2E2E2DCE2E2E2E2E2E2E2E2E2E2E2E2E2DCBEBEBEBEBEBEBEBEE2E2E2DCE2E2BEE2E2E2E2E2E2E2E2E2E2E2E2E2E2E2E2E2E2E2E2E2
310
E2E2E2E2E2E2E2E2E2E2E2E2E2E2E2E2E2E2E2E2E2E2E2E2E2E2E2E2E2E2E2E2E2E2E2E2E2E2E2E2E2E2E2E2E2E2E2E2E2E2E2E2E2E2E2E2E2E2E2E2E2E2E2E2E2E2E2E2E2E2E2E2E2E2E2E2E2E2E2E2E2E2E2E2E2E2E2E2E2E2E2E2E2E2E2E2E2E2E2E2E2E2E2E2E2E2E2E2E2E2E2E2E2E2E2E2E2E2E2E2E2E2E2E2E2E2E2
310
E2E2E2E2E2E2E2E2E2E2E2E2E2E2BEE2E2E2E2E2E2E2E2DCE2E2E2DCE2E2E2E2E2E2E2DCE2E2E2E2E2DCE2E2E2DCE2E2BEBEBEBEBEBEBEBEBEBEBEBEBEBEE2E2E2DCF5F5F5F5F5F5F5F5E2E2E2E2DCF5F5E2F5F5F5F5F5F5F5F5E2E2DCF5F5F5F5F5F5F5F5F5E2E2DCE2E2BEE2E2E2E2E2E2E2E2E2E2E2E2E2E2E2E2E2E2E2
310
E2E2E2E2E2E2E2E2E2E2E2E2E2E2E2E2E2E2E2E2E2E2E2E2E2E2E2E2E2E2E2E2E2E2E2E2E2E2E2E2E2E2E2E2E2E2E2E2E2E2E2E2E2E2E2E2E2E2E2E2E2E2E2E2E2E2E2E2E2E2E2E2E2E2E2E2E2E2E2E2E2E2E2E2E2E2E2E2E2E2E2E2E2E2E2E2E2E2E2E2E2E2E2E2E2E2E2E2E2E2E2E2E2E2E2E2E2E2E2E2E2E2E2E2E2E2E2
310
E2E2E2E2E2E2E2E2E2E2E2E2E2E2E2E2BEE2E2E2E2E2E2E2E2DCE2E2E2DCE2E2E2E2E2E2E2DCE2E2E2E2E2DCE2E2E2DCE2E2E2E2E2E2E2E2BEBEBEBEBEBEBEBEE2E2E2DCF5F5F5F5F5E2F5F5E2E2E2E2DCF5F5F5F5F5F5F5F5F5F5F5E2E2DCF5F5F5F5F5E2F5F5F5E2E2DCE2E2BEE2E2E2E2E2E2E2E2E2E2E2E2E2E2E2E2E2
310
E2E2E2E2E2E2E2E2E2E2E2E2E2E2E2E2E2E2E2E2E2E2E2E2E2E2E2E2E2E2E2E2E2E2E2E2E2E2E2E2E2E2E2E2E2E2E2E2E2E2E2E2E2E2E2E2E2E2E2E2E2E2E2E2E2E2E2E2E2E2E2E2E2E2E2E2E2E2E2E2E2E2E2E2E2E2E2E2E2E2E2E2E2E2E2E2E2E2E2E2E2E2E2E2E2E2E2E2E2E2E2E2E2E2E2E2E2E2E2E2E2E2E2E2E2E2E2
310
E2E2E2E2E2E2E2E2E2E2E2E2E2E2E2E2E2E2BEE2E2E2E2E2E2E2E2DCDCDCDCDCDCDCDCDCDCDCDCDCDCDCDCDCDCDCDCDCDCDCE2E2E2E2BEBEBEBEBEBEBEBEBEBEBEBEE2E2E2DCDCDCDCDCDCDCDCDCDCDCDCDCDCDCDCDCDCDCDCDCDCDCDCDCDCDCDCDCDCDCDCDCDCDCDCDCDCDCDCE2E2BEE2E2E2E2E2E2E2E2E2E2E2E2E2E2E2
310
E2E2E2E2E2E2E2E2E2E2E2E2E2E2E2E2E2E2E2E2E2E2E2E2E2E2E2E2E2E2E2E2E2E2E2E2E2E2E2E2E2E2E2E2E2E2E2E2E2E2E2E2E2E2E2E2E2E2E2E2E2E2E2E2E2E2E2E2E2E2E2E2E2E2E2E2E2E2E2E2E2E2E2E2E2E2E2E2E2E2E2E2E2E2E2E2E2E2E2E2E2E2E2E2E2E2E2E2E2E2E2E2E2E2E2E2E2E2E2E2E2E2E2E2E2E2E2
310
E2E2E2E2E2E2E2E2E2E2E2E2E2E2E2E2E2E2E2E2BEE2E2E2E2E2E2E2E2DCE2E2E2DCE2E2E2E2E2E2E2DCE2E2E2E2E2DCE2E2E2DCE2E2E2E2BEBEBEBEBEBEBEBEBEBEBEBEE2E2E2DCE2E2E2E2E2E2E2E2E2E2E2E2E2E2E2E2E2E2E2E2E2E2E2E2E2E2E2E2E2E2E2E2E2E2E2E2E2E2DCE2E2BEE2E2E2E2E2E2E2E2E2E2E2E2E2
310
E2E2E2E2E2E2E2E2E2E2E2E2E2E2E2E2E2E2E2E2E2E2E2E2E2E2E2E2E2E2E2E2E2E2E2E2E2E2E2E2E2E2E2E2E2E2E2E2E2E2E2E2E2E2E2E2E2E2E2E2E2E2E2E2E2E2E2E2E2E2E2E2E2E2E2E2E2E2E2E2E2E2E2E2E2E2E2E2E2E2E2E2E2E2E2E2E2E2E2E2E2E2E2E2E2E2E2E2E2E2E2E2E2E2E2E2E2E2E2E2E2E2E2E2E2E2E2
310
E2E2E2E2E2E2E2E2E2E2E2E2E2E2E2E2E2E2E2E2E2E2BEE2E2E2E2E2E2E2E2DCDCDCDCDCDCDCDCDCDCDCDCDCDCDCDCDCDCDCDCDCDCDCDCDCDCDCDCDCDCDCDCDCDCDCDCDCDCDCDCDCDCDCE2E2E2E2E2E2E2E2E2E2E2E2E2E2E2E2E2E2E2E2E2E2E2E2E2E2E2E2E2E2E2E2E2E2E2E2E2E2DCE2E2BEE2E2E2E2E2E2E2E2E2E2E2
310
E2E2E2E2E2E2E2E2E2E2E2E2E2E2E2E2E2E2E2E2E2E2E2E2E2E2E2E2E2E2E2E2E2E2E2E2E2E2E2E2E2E2E2E2E2E2E2E2E2E2E2E2E2E2E2E2E2E2E2E2E2E2E2E2E2E2E2E2E2E2E2E2E2E2E2E2E2E2E2E2E2E2E2E2E2E2E2E2E2E2E2E2E2E2E2E2E2E2E2E2E2E2E2E2E2E2E2E2E2E2E2E2E2E2E2E2E2E2E2E2E2E2E2E2E2E2E2
310
E2E2E2E2E2E2E2E2E2E2E2E2E2E2E2E2E2E2E2E2E2E2E2E2BEE2E2E2E2E2E2E2E2DCE2E2E2DCE2E2E2E2E2E2E2DCE2E2E2E2E2DCE2E2E2F5F5F5F5DCE2E2E2E2E2DCE2E2E2E2E2E2E2E2E2DCE2E2E2E2E2E2BEBEE2E2E2E2E2E2E2E2BEE2E2E2E2E2E2E2E2E2E2E2E2E2E2E2E2E2E2E2E2E2DCE2E2BEE2E2E2E2E2E2E2E2E2
310
E2E2E2E2E2E2E2E2E2E2E2E2E2E2E2E2E2E2E2E2E2E2E2E2E2E2E2E2E2E2E2E2E2E2E2E2E2E2E2E2E2E2E2E2E2E2E2E2E2E2E2E2E2E2E2E2E2E2E2E2E2E2E2E2E2E2E2E2E2E2E2E2E2E2E2E2E2E2E2E2E2E2E2E2E2E2E2E2E2E2E2E2E2E2E2E2E2E2E2E2E2E2E2E2E2E2E2E2E2E2E2E2E2E2E2E2E2E2E2E2E2E2E2E2E2E2E2
310
E2E2E2E2E2E2E2E2E2E2E2E2E2E2E2E2E2E2E2E2E2E2E2E2E2E2BEE2E2E2E2E2E2E2E2DCDCDCDCDCDCDCDCDCDCDCDCDCDCDCDCDCDCDCDCDCDCDCDCDCDCDCDCDCDCDCDCDCDCDCDCDCDCDCDCDCDCDCBEBEBEBEBEBEBEBEBEBEBEBEBEBEBEBEBEBEBEBEBEBEBEBEE2E2BEBEE2E2BEBEBEBEBEE2BEBEDCE2E2BEE2E2E2E2E2E2E2
310
E2E2E2E2E2E2E2E2E2E2E2E2E2E2E2E2E2E2E2E2E2E2E2E2E2E2E2E2E2E2E2E2E2E2E2E2E2E2E2E2E2E2E2E2E2E2E2E2E2E2E2E2E2E2E2E2E2E2E2E2E2E2E2E2E2E2E2E2E2E2E2E2E2E2E2E2E2E2E2E2E2E2E2E2E2E2E2E2E2E2E2E2E2E2E2E2E2E2E2E2E2E2E2E2E2E2E2E2E2E2E2E2E2E2E2E2E2E2E2E2E2E2E2E2E2E2E2
310
E2E2E2E2E2E2E2E2E2E2E2E2E2E2E2E2E2E2E2E2E2E2E2E2E2E2E2E2BEE2E2E2E2E2E2E2E2DCE2E2E2DCE2E2E2E2E2E2E2DCE2E2E2E2E2DCE2E2E2DCF5F5F5BEBEBEBEBEBEBEBEBEBEBEBEE2E2E2E2DCBEBEBEBEBEBEBEBEBEBEBEBEBEBEBEBEBEBEBEBEBEBEBEBEE2E2BEBEBEE2BEBEBEBEBEBEBEBEDCE2E2BEE2E2E2E2E2
310
E2E2E2E2E2E2E2E2E2E2E2E2E2E2E2E2E2E2E2E2E2E2E2E2E2E2E2E2E2E2E2E2E2E2E2E2E2E2E2E2E2E2E2E2E2E2E2E2E2E2E2E2E2E2E2E2E2E2E2E2E2E2E2E2E2E2E2E2E2E2E2E2E2E2E2E2E2E2E2E2E2E2E2E2E2E2E2E2E2E2E2E2E2E2E2E2E2E2E2E2E2E2E2E2E2E2E2E2E2E2E2E2E2E2E2E2E2E2E2E2E2E2E2E2E2E2E2
310
E2E2E2E2E2E2E2E2E2E2E2E2E2E2E2E2E2E2E2E2E2E2E2E2E2E2E2E2E2E2BEE2E2E2E2E2E2E2E2DCDCDCDCDCDCDCDCDCDCDCDCDCDCDCDCDCDCDCDCDCDCDCDCDCDCBEBEBEBEBEBEBEBEBEDCDCBEDCDCDCDCDCBEBEBEE2E2E2BEE2F5E2BEBEE2E2E2E2E2E2E2E2E2BEE2E2E2BEBEBEBEE2BEBEBEBEBEE2BEBEDCE2E2BEE2E2E2
310
E2E2E2E2E2E2E2E2E2E2E2E2E2E2E2E2E2E2E2E2E2E2E2E2E2E2E2E2E2E2E2E2E2E2E2E2E2E2E2E2E2E2E2E2E2E2E2E2E2E2E2E2E2E2E2E2E2E2E2E2E2E2E2E2E2E2E2E2E2E2E2E2E2E2E2E2E2E2E2E2E2E2E2E2E2E2E2E2E2E2E2E2E2E2E2E2E2E2E2E2E2E2E2E2E2E2E2E2E2E2E2E2E2E2E2E2E2E2E2E2E2E2E2E2E2E2E2
310
E2E2E2E2E2E2E2E2E2E2E2E2E2E2E2E2E2E2E2E2E2E2E2E2E2E2E2E2E2E2E2E2BEE2E2E2E2E2E2E2E2DCF5F5F5F5F5F5F5F5F5E2E2DCF5F5F5F5F5F5F5F5F5F5DCDCDCF5F5F5F5F5F5F5F5F5F5F5F5E2E2E2E2DCF5F5F5F5F5F5F5F5F5F5F5F5F5F5E2E2E2E2E2E2E2E2E2E2E2E2E2E2E2E2E2E2E2E2E2E2E2E2DCE2E2BEE2
310
E2E2E2E2E2E2E2E2E2E2E2E2E2E2E2E2E2E2E2E2E2E2E2E2E2E2E2E2E2E2E2E2E2E2E2E2E2E2E2E2E2E2E2E2E2E2E2E2E2E2E2E2E2E2E2E2E2E2E2E2E2E2E2E2E2E2E2E2E2E2E2E2E2E2E2E2E2E2E2E2E2E2E2E2E2E2E2E2E2E2E2E2E2E2E2E2E2E2E2E2E2E2E2E2E2E2E2E2E2E2E2E2E2E2E2E2E2E2E2E2E2E2E2E2E2E2E2
310
E2E2E2E2E2E2E2E2E2E2E2E2E2E2E2E2E2E2E2E2E2E2E2E2E2E2E2E2E2E2E2E2E2E2BEE2E2E2E2E2E2E2E2DCF5E2F5DCF5F5E2E2E2E2E2DCF5F5F5E2E2DCF5E2E2DCDCDCDCDCF5F5F5F5F5DCF5F5F5F5F5E2E2E2E2DCF5F5F5F5F5F5F5F5F5E2F5F5F5F5E2E2E2E2E2E2E2E2E2E2E2E2E2E2E2E2E2E2E2E2E2E2E2E2DCE2E2
310
BEE2E2E2E2E2E2E2E2E2E2E2E2E2E2E2E2E2E2E2E2E2E2E2E2E2E2E2E2E2E2E2E2E2E2E2E2E2E2E2E2E2E2E2E2E2E2E2E2E2E2E2E2E2E2E2E2E2E2E2E2E2E2E2E2E2E2E2E2E2E2E2E2E2E2E2E2E2E2E2E2E2E2E2E2E2E2E2E2E2E2E2E2E2E2E2E2E2E2E2E2E2E2E2E2E2E2E2E2E2E2E2E2E2E2E2E2E2E2E2E2E2E2E2E2E2E2
310
E2E2E2E2E2E2E2E2E2E2E2E2E2E2E2E2E2E2E2E2E2E2E2E2E2E2E2E2E2E2E2E2E2E2E2E2BEE2E2E2E2E2E2E2E2DCDCDCDCDCDCDCDCDCDCDCDCDCDCDCDCDCDCDCDCDCDCDCDCDCDCDCDCDCDCDCDCDCDCBEBEBEBEBEBEBEBEDCDCDCDCDCDCDCDCDCDCDCDCDCDCDCDCDCDCDCDCDCDCDCDCDCDCDCDCDCDCDCDCDCDCDCDCDCDCDCDC
310
E2E2BEE2E2E2E2E2E2E2E2E2E2E2E2E2E2E2E2E2E2E2E2E2E2E2E2E2E2E2E2E2E2E2E2E2E2E2E2E2E2E2E2E2E2E2E2E2E2E2E2E2E2E2E2E2E2E2E2E2E2E2E2E2E2E2E2E2E2E2E2E2E2E2E2E2E2E2E2E2E2E2E2E2E2E2E2E2E2E2E2E2E2E2E2E2E2E2E2E2E2E2E2E2E2E2E2E2E2E2E2E2E2E2E2E2E2E2E2E2E2E2E2E2E2E2E2
310
E2E2E2E2E2E2E2E2E2E2E2E2E2E2E2E2E2E2E2E2E2E2E2E2E2E2E2E2E2E2E2E2E2E2E2E2E2E2BEE2E2E2E2E2E2E2E2DCE2E2E2E2E2E2E2E2E2E2E2E2E2E2E2E2E2E2E2E2E2DCE2E2E2E2E2E2E2E2E2BEBEBEBEBEBEBEBEBEBEBEE2E2E2E2E2E2E2E2F5E2E2E2E2E2DCE2E2E2E2E2E2E2E2E2E2E2E2E2DCE2E2E2E2E2E2E2E2
310
E2DCE2E2BEE2E2E2E2E2E2E2E2E2E2E2E2E2E2E2E2E2E2E2E2E2E2E2E2E2E2E2E2E2E2E2E2E2E2E2E2E2E2E2E2E2E2E2E2E2E2E2E2E2E2E2E2E2E2E2E2E2E2E2E2E2E2E2E2E2E2E2E2E2E2E2E2E2E2E2E2E2E2E2E2E2E2E2E2E2E2E2E2E2E2E2E2E2E2E2E2E2E2E2E2E2E2E2E2E2E2E2E2E2E2E2E2E2E2E2E2E2E2E2E2E2E2
310
E2E2E2E2E2E2E2E2E2E2E2E2E2E2E2E2E2E2E2E2E2E2E2E2E2E2E2E2E2E2E2E2E2E2E2E2E2E2E2E2BEE2E2E2E2E2E2E2E2DCE2E2E2E2E2E2E2E2E2E2E2E2E2E2E2E2E2E2E2E2E2DCDCDCDCDCDCDCDCDCDCBEBEBEE2BEBEBEBEBEBEBEF5F5F5F5F5F5F5F5F5F5F5E2E2E2F5F5F5F5F5F5F5F5F5F5F5F5E2E2DCE2F5F5F5F5F5
310
F5F5F5F5E2E2BEE2E2E2E2E2E2E2E2E2E2E2E2E2E2E2E2E2E2E2E2E2E2E2E2E2E2E2E2E2E2E2E2E2E2E2E2E2E2E2E2E2E2E2E2E2E2E2E2E2E2E2E2E2E2E2E2E2E2E2E2E2E2E2E2E2E2E2E2E2E2E2E2E2E2E2E2E2E2E2E2E2E2E2E2E2E2E2E2E2E2E2E2E2E2E2E2E2E2E2E2E2E2E2E2E2E2E2E2E2E2E2E2E2E2E2E2E2E2E2E2
310
E2E2E2E2E2E2E2E2E2E2E2E2E2E2E2E2E2E2E2E2E2E2E2E2E2E2E2E2E2E2E2E2E2E2E2E2E2E2E2E2E2E2BEE2E2E2E2E2E2E2E2DCE2E2E2E2E2E2E2E2E2E2E2E2E2E2E2E2E2E2E2E2E2DCE2E2E2E2E2E2E2E2E2DCDCDCDCDCDCDCDCDCDCDCF5DCDCBEBEBEBEBEBEBEDCDCDCDCF5F5DCF5DCF5F5F5DCF5F5DCDCDCDCDCF5F5DC
310
BEBEBEBEBEBEE2E2BEE2E2E2E2E2E2E2E2E2E2E2E2E2E2E2E2E2E2E2E2E2E2E2E2E2E2E2E2E2E2E2E2E2E2E2E2E2E2E2E2E2E2E2E2E2E2E2E2E2E2E2E2E2E2E2E2E2E2E2E2E2E2E2E2E2E2E2E2E2E2E2E2E2E2E2E2E2E2E2E2E2E2E2E2E2E2E2E2E2E2E2E2E2E2E2E2E2E2E2E2E2E2E2E2E2E2E2E2E2E2E2E2E2E2E2E2E2E2
310
E2E2E2E2E2E2E2E2E2E2E2E2E2E2E2E2E2E2E2E2E2E2E2E2E2E2E2E2E2E2E2E2E2E2E2E2E2E2E2E2E2E2E2E2BEE2E2E2E2E2E2E2E2DCE2E2E2E2E2E2E2E2E2E2E2E2E2E2E2E2E2E2E2E2E2DCDCDCDCDCDCDCDCDCDCDCDCDCBEBEBEBEDCDCDCDCE2E2E2BEBEBEBEBEBEBEE2E2E2E2DCE2E2E2E2E2E2E2E2E2E2E2E2E2DCE2E2
310
E2E2BEBEBEBEBEBEE2E2BEE2E2E2E2E2E2E2E2E2E2E2E2E2E2E2E2E2E2E2E2E2E2E2E2E2E2E2E2E2E2E2E2E2E2E2E2E2E2E2E2E2E2E2E2E2E2E2E2E2E2E2E2E2E2E2E2E2E2E2E2E2E2E2E2E2E2E2E2E2E2E2E2E2E2E2E2E2E2E2E2E2E2E2E2E2E2E2E2E2E2E2E2E2E2E2E2E2E2E2E2E2E2E2E2E2E2E2E2E2E2E2E2E2E2E2E2
310
E2E2E2E2E2E2E2E2E2E2E2E2E2E2E2E2E2E2E2E2E2E2E2E2E2E2E2E2E2E2E2E2E2E2E2E2E2E2E2E2E2E2E2E2E2E2BEE2E2E2E2E2E2E2E2DCE2E2E2E2E2E2E2E2E2E2E2E2E2E2E2E2E2E2E2E2E2DCE2F5F5F5F5F5F5F5E2DCE2E2BEBEBEBEE2E2E2DCE2E2E2BEF5BEBEBEBEBEE2E2E2E2DCE2E2F5F5F5F5F5F5F5F5E2E2E2DC
310
E2E2F5BEBEF5BEBEBEBEE2E2BEE2E2E2E2E2E2E2E2E2E2E2E2E2E2E2E2E2E2E2E2E2E2E2E2E2E2E2E2E2E2E2E2E2E2E2E2E2E2E2E2E2E2E2E2E2E2E2E2E2E2E2E2E2E2E2E2E2E2E2E2E2E2E2E2E2E2E2E2E2E2E2E2E2E2E2E2E2E2E2E2E2E2E2E2E2E2E2E2E2E2E2E2E2E2E2E2E2E2E2E2E2E2E2E2E2E2E2E2E2E2E2E2E2E2
310
E2E2E2E2E2E2E2E2E2E2E2E2E2E2E2E2E2E2E2E2E2E2E2E2E2E2E2E2E2E2E2E2E2E2E2E2E2E2E2E2E2E2E2E2E2E2E2E2BEE2E2E2E2E2E2E2E2DCDCDCDCDCDCDCDC2DDCDCDCDCDCDCDCDCDCDCDCDCDCDCDCF5F5F5DCF5DCDCDCDCDC2DF5F5F5F5DCDCDCDCDCDCDCF5F5F5DCF5F5DCDCDCDCDCDCDCDCF5F5F5F5F5F5F5F5DCDC
310
DCDCDCDCF5F5F5F5F5F5DCDCE2E2BEE2E2E2E2E2E2E2E2E2E2E2E2E2E2E2E2E2E2E2E2E2E2E2E2E2E2E2E2E2E2E2E2E2E2E2E2E2E2E2E2E2E2E2E2E2E2E2E2E2E2E2E2E2E2E2E2E2E2E2E2E2E2E2E2E2E2E2E2E2E2E2E2E2E2E2E2E2E2E2E2E2E2E2E2E2E2E2E2E2E2E2E2E2E2E2E2E2E2E2E2E2E2E2E2E2E2E2E2E2E2E2E2
310
E2E2E2E2E2E2E2E2E2E2E2E2E2E2E2E2E2E2E2E2E2E2E2E2E2E2E2E2E2E2E2E2E2E2E2E2E2E2E2E2E2E2E2E2E2E2E2E2E2E2BEE2E2E2E2E2E2E2E2DCE2E2E2E2E2E2E22D2D2D2D2D2D2D2D2D2D2D2D2D2D2D2DBEBEBEBE2D2D2D2D2D2DF5E2E2E2E2E2E2E2E2E2E2E2E2E2E2E2E2E2E2E2E2E2E2E2E2E2E2E2E2E2E2E2E2E2
310
E2E2E2E2E2E2E2E2E2E2E2E2E2DCE2E2BEE2E2E2E2E2E2E2E2E2E2E2E2E2E2E2E2E2E2E2E2E2E2E2E2E2E2E2E2E2E2E2E2E2E2E2E2E2E2E2E2E2E2E2E2E2E2E2E2E2E2E2E2E2E2E2E2E2E2E2E2E2E2E2E2E2E2E2E2E2E2E2E2E2E2E2E2E2E2E2E2E2E2E2E2E2E2E2E2E2E2E2E2E2E2E2E2E2E2E2E2E2E2E2E2E2E2E2E2E2E2
310
E2E2E2E2E2E2E2E2E2E2E2E2E2E2E2E2E2E2E2E2E2E2E2E2E2E2E2E2E2E2E2E2E2E2E2E2E2E2E2E2E2E2E2E2E2E2E2E2E2E2E2E2BEE2E2E2E2E2E2E2E2DCE2E2E2E2E2E2E22DE2E2E2E2E2E2E2E2E2E2E2F5F5F5F5BEBEBEBEE2E2E2E2E2E22DE2E2E2E2E2E2E2E2E2E2E2E2E2E2E2E2E2E2E2E2E2E2E2E2E2E2E2E2E2E2E2
310
E2E2E2E2E2E2E2E2E2E2E2E2E2E2E2DCE2E2BEE2E2E2E2E2E2E2E2E2E2E2E2E2E2E2E2E2E2E2E2E2E2E2E2E2E2E2E2E2E2E2E2E2E2E2E2E2E2E2E2E2E2E2E2E2E2E2E2E2E2E2E2E2E2E2E2E2E2E2E2E2E2E2E2E2E2E2E2E2E2E2E2E2E2E2E2E2E2E2E2E2E2E2E2E2E2E2E2E2E2E2E2E2E2E2E2E2E2E2E2E2E2E2E2E2E2E2E2
310
E2E2E2E2E2E2E2E2E2E2E2E2E2E2E2E2E2E2E2E2E2E2E2E2E2E2E2E2E2E2E2E2E2E2E2E2E2E2E2E2E2E2E2E2E2E2E2E2E2E2E2E2E2E2BEE2E2E2E2E2E2E2E2DCE2E2E2E2E2E2E22DF5F528F5F5F5F5BEBEBEBEF5BEBEF5BEBEF5BEF5F5F528F5F52D2D2D2D2D2DE2E2E2E2E2E2E2E2E2E2E2E2E2E2E2E2E2E2E2E2E2E2E2E2
310
E2E2E2E2E2E2E2E2E2E2E2E2E2E2E2E2E2DCE2E2BEE2E2E2E2E2E2E2E2E2E2E2E2E2E2E2E2E2E2E2E2E2E2E2E2E2E2E2E2E2E2E2E2E2E2E2E2E2E2E2E2E2E2E2E2E2E2E2E2E2E2E2E2E2E2E2E2E2E2E2E2E2E2E2E2E2E2E2E2E2E2E2E2E2E2E2E2E2E2E2E2E2E2E2E2E2E2E2E2E2E2E2E2E2E2E2E2E2E2E2E2E2E2E2E2E2E2
310
E2E2E2E2E2E2E2E2E2E2E2E2E2E2E2E2E2E2E2E2E2E2E2E2E2E2E2E2E2E2E2E2E2E2E2E2E2E2E2E2E2E2E2E2E2E2E2E2E2E2E2E2E2E2E2E2BEE2E2E2E2E2E2E2E2DCE2E2E2E2E2E2E2F5F5F528F5F5F5BEF5BEF5BEBEBEBEBEBEF5BEF5BEF5F528F5F5F5E2E2E2E22DE2E2E2E2E2E2E2E2E2E2E2E2E2E2E2E2E2E2E2E2E2E2
310
E2E2E2E2E2E2E2E2E2E2E2E2E2E2E2E2E2E2E2DCE2E2BEE2E2E2E2E2E2E2E2E2E2E2E2E2E2E2E2E2E2E2E2E2E2E2E2E2E2E2E2E2E2E2E2E2E2E2E2E2E2E2E2E2E2E2E2E2E2E2E2E2E2E2E2E2E2E2E2E2E2E2E2E2E2E2E2E2E2E2E2E2E2E2E2E2E2E2E2E2E2E2E2E2E2E2E2E2E2E2E2E2E2E2E2E2E2E2E2E2E2E2E2E2E2E2E2
310
E2E2E2E2E2E2E2E2E2E2E2E2E2E2E2E2E2E2E2E2E2E2E2E2E2E2E2E2E2E2E2E2E2E2E2E2E2E2E2E2E2E2E2E2E2E2E2E2E2E2E2E2E2E2E2E2E2E2BEE2E2E2E2E2E2E2E2DCE2E2E2E2E2E2E2F5E2E228E2E2E2BEBEE2E2E2E2E2E2E2BEE2BEBEBEE2E228E2E2F5E2E2E2E22DE2E2E2E2E2E2E2E2E2E2E2E2E2E2E2E2E2E2E2E2
310
E2E2E2E2E2E2E2E2E2E2E2E2E2E2E2E2E2E2E2E2E2DCE2E2BEE2E2E2E2E2E2E2E2E2E2E2E2E2E2E2E2E2E2E2E2E2E2E2E2E2E2E2E2E2E2E2E2E2E2E2E2E2E2E2E2E2E2E2E2E2E2E2E2E2E2E2E2E2E2E2E2E2E2E2E2E2E2E2E2E2E2E2E2E2E2E2E2E2E2E2E2E2E2E2E2E2E2E2E2E2E2E2E2E2E2E2E2E2E2E2E2E2E2E2E2E2E2
310
E2E2E2E2E2E2E2E2E2E2E2E2E2E2E2E2E2E2E2E2E2E2E2E2E2E2E2E2E2E2E2E2E2E2E2E2E2E2E2E2E2E2E2E2E2E2E2E2E2E2E2E2E2E2E2E2E2E2E2E2BEE2E2E2E2E2E2E2E2DCE2E2E2E2E2E2E2F5E2E228E2E2E2BEBEE2E2E2E2E2E2E2BEE2BEBEBEE2E228E2E2F5E2E2E2E22DE2E2E2E2E2E2E2E2E2E2E2E2E2E2E2E2E2E2
310
E2E2E2E2E2E2E2E2E2E2E2E2E2E2E2E2E2E2E2E2E2E2E2DCE2E2BEE2E2E2E2E2E2E2E2E2E2E2E2E2E2E2E2E2E2E2E2E2E2E2E2E2E2E2E2E2E2E2E2E2E2E2E2E2E2E2E2E2E2E2E2E2E2E2E2E2E2E2E2E2E2E2E2E2E2E2E2E2E2E2E2E2E2E2E2E2E2E2E2E2E2E2E2E2E2E2E2E2E2E2E2E2E2E2E2E2E2E2E2E2E2E2E2E2E2E2E2
310
E2E2E2E2E2E2E2E2E2E2E2E2E2E2E2E2E2E2E2E2E2E2E2E2E2E2E2E2E2E2E2E2E2E2E2E2E2E2E2E2E2E2E2E2E2E2E2E2E2E2E2E2E2E2E2E2E2E2E2E2E2E2BEE2E2E2E2E2E2E2E2DCE2E2E2E2E2E2E2F5E2E228E2E2E2BEBEE2E2E2E2E2E2E2BEE2BEBEBEE2E228E2E2F5E2E2E2E22DE2E2E2E2E2E2E2E2E2E2E2E2E2E2E2E2
310
E2E2E2E2E2E2E2E2E2E2E2E2E2E2E2E2E2E2E2E2E2E2E2E2E2DCE2E2BEE2E2E2E2E2E2E2E2E2E2E2E2E2E2E2E2E2E2E2E2E2E2E2E2E2E2E2E2E2E2E2E2E2E2E2E2E2E2E2E2E2E2E2E2E2E2E2E2E2E2E2E2E2E2E2E2E2E2E2E2E2E2E2E2E2E2E2E2E2E2E2E2E2E2E2E2E2E2E2E2E2E2E2E2E2E2E2E2E2E2E2E2E2E2E2E2E2E2
310
E2E2E2E2E2E2E2E2E2E2E2E2E2E2E2E2E2E2E2E2E2E2E2E2E2E2E2E2E2E2E2E2E2E2E2E2E2E2E2E2E2E2E2E2E2E2E2E2E2E2E2E2E2E2E2E2E2E2E2E2E2E2E2E2BEE2E2E2E2E2E2E2E2DCE2E2E2E2E2E2E2F5E2E228E2E2E2BEBEE2E2E2E2E2E2E2BEE2BEBEBEE2E228E2E2F5E2E2E2E22DE2E2E2E2E2E2E2E2E2E2E2E2E2E2
310
E2E2E2E2E2E2E2E2E2E2E2E2E2E2E2E2E2E2E2E2E2E2E2E2E2E2E2DCE2E2BEE2E2E2E2E2E2E2E2E2E2E2E2E2E2E2E2E2E2E2E2E2E2E2E2E2E2E2E2E2E2E2E2E2E2E2E2E2E2E2E2E2E2E2E2E2E2E2E2E2E2E2E2E2E2E2E2E2E2E2E2E2E2E2E2E2E2E2E2E2E2E2E2E2E2E2E2E2E2E2E2E2E2E2E2E2E2E2E2E2E2E2E2E2E2E2E2
310
E2E2E2E2E2E2E2E2E2E2E2E2E2E2E2E2E2E2E2E2E2E2E2E2E2E2E2E2E2E2E2E2E2E2E2E2E2E2E2E2E2E2E2E2E2E2E2E2E2E2E2E2E2E2E2E2E2E2E2E2E2E2E2E2E2E2BEE2E2E2E2E2E2E2E2DCE2E2E2E2E2E2E2F5E2E228E2E2E2BEBEE2E2E2E2E2E2E2BEE2BEBEBEE2E228E2E2F5E2E2E2E22DE2E2E2E2E2E2E2E2E2E2E2E2
310
E2E2E2E2E2E2E2E2E2E2E2E2E2E2E2E2E2E2E2E2E2E2E2E2E2E2E2E2E2DCE2E2BEE2E2E2E2E2E2E2E2E2E2E2E2E2E2E2E2E2E2E2E2E2E2E2E2E2E2E2E2E2E2E2E2E2E2E2E2E2E2E2E2E2E2E2E2E2E2E2E2E2E2E2E2E2E2E2E2E2E2E2E2E2E2E2E2E2E2E2E2E2E2E2E2E2E2E2E2E2E2E2E2E2E2E2E2E2E2E2E2E2E2E2E2E2E2
310
E2E2E2E2E2E2E2E2E2E2E2E2E2E2E2E2E2E2E2E2E2E2E2E2E2E2E2E2E2E2E2E2E2E2E2E2E2E2E2E2E2E2E2E2E2E2E2E2E2E2E2E2E2E2E2E2E2E2E2E2E2E2E2E2E2E2E2E2BEE2E2E2E2E2E2E2E2DCE2E2E2E2E2E2E2F5E2E228E2E2E2BEBEE2E2E2E2E2E2E2BEE2BEBEBEE2E228E2E2F5E2E2E2E22DE2E2E2E2E2E2E2E2E2E2
310
E2E2E2E2E2E2E2E2E2E2E2E2E2E2E2E2E2E2E2E2E2E2E2E2E2E2E2E2E2E2E2DCE2E2BEE2E2E2E2E2E2E2E2E2E2E2E2E2E2E2E2E2E2E2E2E2E2E2E2E2E2E2E2E2E2E2E2E2E2E2E2E2E2E2E2E2E2E2E2E2E2E2E2E2E2E2E2E2E2E2E2E2E2E2E2E2E2E2E2E2E2E2E2E2E2E2E2E2E2E2E2E2E2E2E2E2E2E2E2E2E2E2E2E2E2E2E2
310
E2E2E2E2E2E2E2E2E2E2E2E2E2E2E2E2E2E2E2E2E2E2E2E2E2E2E2E2E2E2E2E2E2E2E2E2E2E2E2E2E2E2E2E2E2E2E2E2E2E2E2E2E2E2E2E2E2E2E2E2E2E2E2E2E2E2E2E2E2E2BEE2E2E2E2E2E2E2E2DCE2E2E2E2E2E2E2F5E2E228E2E2E2BEBEE2E2E2E2E2E2E2BEE2BEBEBEE2E228E2E2F5E2E2E2E22DE2E2E2E2E2E2E2E2
310
E2E2E2E2E2E2E2E2E2E2E2E2E2E2E2E2E2E2E2E2E2E2E2E2E2E2E2E2E2E2E2E2E2DCE2E2BEE2E2E2E2E2E2E2E2E2E2E2E2E2E2E2E2E2E2E2E2E2E2E2E2E2E2E2E2E2E2E2E2E2E2E2E2E2E2E2E2E2E2E2E2E2E2E2E2E2E2E2E2E2E2E2E2E2E2E2E2E2E2E2E2E2E2E2E2E2E2E2E2E2E2E2E2E2E2E2E2E2E2E2E2E2E2E2E2E2E2
310
E2E2E2E2E2E2E2E2E2E2E2E2E2E2E2E2E2E2E2E2E2E2E2E2E2E2E2E2E2E2E2E2E2E2E2E2E2E2E2E2E2E2E2E2E2E2E2E2E2E2E2E2E2E2E2E2E2E2E2E2E2E2E2E2E2E2E2E2E2E2E2E2BEE2E2E2E2E2E2E2E2DCE2E2E2E2E2E2E2F5E2E228E2E2E2BEBEE2E2E2E2E2E2E2BEE2BEBEBEE2E228E2E2F5E2E2BEBE2DE2E2E2E2E2E2
310
E2E2E2E2E2E2E2E2E2E2E2E2E2E2E2E2E2E2E2E2E2E2E2E2E2E2E2E2E2E2E2E2E2E2E2DCE2E2BEE2E2E2E2E2E2E2E2E2E2E2E2E2E2E2E2E2E2E2E2E2E2E2E2E2E2E2E2E2E2E2E2E2E2E2E2E2E2E2E2E2E2E2E2E2E2E2E2E2E2E2E2E2E2E2E2E2E2E2E2E2E2E2E2E2E2E2E2E2E2E2E2E2E2E2E2E2E2E2E2E2E2E2E2E2E2E2E2
310
E2E2E2E2E2E2E2E2E2E2E2E2E2E2E2E2E2E2E2E2E2E2E2E2E2E2E2E2E2E2E2E2E2E2E2E2E2E2E2E2E2E2E2E2E2E2E2E2E2E2E2E2E2E2E2E2E2E2E2E2E2E2E2E2E2E2E2E2E2E2E2E2E2E2BEE2E2E2E2E2E2E2E2DCE2E2E2E2E2E2E2F5E2E228E2E2E2BEBEE2E2E2E2E2E2E2BEE2BEBEBEE2E228E2E2F5E2E2BEBE2DE2E2E2E2
310
E2E2E2E2E2E2E2E2E2E2E2E2E2E2E2E2E2E2E2E2E2E2E2E2E2E2E2E2E2E2E2E2E2E2E2E2E2DCE2E2BEE2E2E2E2E2E2E2E2E2E2E2E2E2E2E2E2E2E2E2E2E2E2E2E2E2E2E2E2E2E2E2E2E2E2E2E2E2E2E2E2E2E2E2E2E2E2E2E2E2E2E2E2E2E2E2E2E2E2E2E2E2E2E2E2E2E2E2E2E2E2E2E2E2E2E2E2E2E2E2E2E2E2E2E2E2E2
310
E2E2E2E2E2E2E2E2E2E2E2E2E2E2E2E2E2E2E2E2E2E2E2E2E2E2E2E2E2E2E2E2E2E2E2E2E2E2E2E2E2E2E2E2E2E2E2E2E2E2E2E2E2E2E2E2E2E2E2E2E2E2E2E2E2E2E2E2E2E2E2E2E2E2E2E2BEE2E2E2E2E2E2E2E2DCE2E2E2E2E2E2E2F5E2E228E2E2E2BEBEE2E2E2E2E2E2E2BEE2BEBEBEE2E228E2E2F5E2E2BEBE2DE2E2
310
E2E2E2E2E2E2E2E2E2E2E2E2E2E2E2E2E2E2E2E2E2E2E2E2E2E2E2E2E2E2E2E2E2E2E2E2E2E2E2DCE2E2BEE2E2E2E2E2E2E2E2E2E2E2E2E2E2E2E2E2E2E2E2E2E2E2E2E2E2E2E2E2E2E2E2E2E2E2E2E2E2E2E2E2E2E2E2E2E2E2E2E2E2E2E2E2E2E2E2E2E2E2E2E2E2E2E2E2E2E2E2E2E2E2E2E2E2E2E2E2E2E2E2E2E2E2E2
310
E2E2E2E2E2E2E2E2E2E2E2E2E2E2E2E2E2E2E2E2E2E2E2E2E2E2E2E2E2E2E2E2E2E2E2E2E2E2E2E2E2E2E2E2E2E2E2E2E2E2E2E2E2E2E2E2E2E2E2E2E2E2E2E2E2E2E2E2E2E2E2E2E2E2E2E2E2E2BEE2E2E2E2E2E2E2E2DCE2E2E2E2E2E2E2F5E2E228E2E2E2BEBEBEBEBEBEBEBEBEBEBEBEBEBEBEE228E2E2F5E2E2E2E22D
310
E2E2E2E2E2E2E2E2E2E2E2E2E2E2E2E2E2E2E2E2E2E2E2E2E2E2E2E2E2E2E2E2E2E2E2E2E2E2E2E2E2DCE2E2BEE2E2E2E2E2E2E2E2E2E2E2E2E2E2E2E2E2E2E2E2E2E2E2E2E2E2E2E2E2E2E2E2E2E2E2E2E2E2E2E2E2E2E2E2E2E2E2E2E2E2E2E2E2E2E2E2E2E2E2E2E2E2E2E2E2E2E2E2E2E2E2E2E2E2E2E2E2E2E2E2E2E2
310
E2E2E2E2E2E2E2E2E2E2E2E2E2E2E2E2E2E2E2E2E2E2E2E2E2E2E2E2E2E2E2E2E2E2E2E2E2E2E2E2E2E2E2E2E2E2E2E2E2E2E2E2E2E2E2E2E2E2E2E2E2E2E2E2E2E2E2E2E2E2E2E2E2E2E2E2E2E2E2E2BEE2E2E2E2E2E2E2E2DCE2E2E2E2E2E2E2F5E2E228E2E2E2BEBEE2E2E2E2E2E2E2BEE2BEBEBEBEE228E2E2F5E2E2E2
310
E22DE2E2E2E2E2E2E2E2E2E2E2E2E2E2E2E2E2E2E2E2E2E2E2E2E2E2E2E2E2E2E2E2E2E2E2E2E2E2E2E2E2DCE2E2BEE2E2E2E2E2E2E2E2E2E2E2E2E2E2E2E2E2E2E2E2E2E2E2E2E2E2E2E2E2E2E2E2E2E2E2E2E2E2E2E2E2E2E2E2E2E2E2E2E2E2E2E2E2E2E2E2E2E2E2E2E2E2E2E2E2E2E2E2E2E2E2E2E2E2E2E2E2E2E2E2
310
E2E2E2E2E2E2E2E2E2E2E2E2E2E2E2E2E2E2E2E2E2E2E2E2E2E2E2E2E2E2E2E2E2E2E2E2E2E2E2E2E2E2E2E2E2E2E2E2E2E2E2E2E2E2E2E2E2E2E2E2E2E2E2E2E2E2E2E2E2E2E2E2E2E2E2E2E2E2E2E2E2E2BEE2E2E2E2E2E2E2E2DCE2E2E2E2E2E2E2F5E2E228E2E2E2BEBEBEE2BEBEBEBEBEBEE2BEE2BEBEE228E2E2F5E2
310
E2E2E22DE2E2E2E2E2E2E2E2E2E2E2E2E2E2E2E2E2E2E2E2E2E2E2E2E2E2E2E2E2E2E2E2E2E2E2E2E2E2E2E2E2DCE2E2BEE2E2E2E2E2E2E2E2E2E2E2E2E2E2E2E2E2E2E2E2E2E2E2E2E2E2E2E2E2E2E2E2E2E2E2E2E2E2E2E2E2E2E2E2E2E2E2E2E2E2E2E2E2E2E2E2E2E2E2E2E2E2E2E2E2E2E2E2E2E2E2E2E2E2E2E2E2E2
310
E2E2E2E2E2E2E2E2E2E2E2E2E2E2E2E2E2E2E2E2E2E2E2E2E2E2E2E2E2E2E2E2E2E2E2E2E2E2E2E2E2E2E2E2E2E2E2E2E2E2E2E2E2E2E2E2E2E2E2E2E2E2E2E2E2E2E2E2E2E2E2E2E2E2E2E2E2E2E2E2E2E2E2E2BEE2E2E2E2E2E2E2E2DCE2E2E2E2E2E2E2F5E2E228E2E2E2BEBEE2E2E2E2E2E2E2E2BEBEBEBEBEE228E2E2
310
F5E2E2E2E22DE2E2E2E2E2E2E2E2E2E2E2E2E2E2E2E2E2E2E2E2E2E2E2E2E2E2E2E2E2E2E2E2E2E2E2E2E2E2E2E2E2DCE2E2BEE2E2E2E2E2E2E2E2E2E2E2E2E2E2E2E2E2E2E2E2E2E2E2E2E2E2E2E2E2E2E2E2E2E2E2E2E2E2E2E2E2E2E2E2E2E2E2E2E2E2E2E2E2E2E2E2E2E2E2E2E2E2E2E2E2E2E2E2E2E2E2E2E2E2E2E2
310
E2E2E2E2E2E2E2E2E2E2E2E2E2E2E2E2E2E2E2E2E2E2E2E2E2E2E2E2E2E2E2E2E2E2E2E2E2E2E2E2E2E2E2E2E2E2E2E2E2E2E2E2E2E2E2E2E2E2E2E2E2E2E2E2E2E2E2E2E2E2E2E2E2E2E2E2E2E2E2E2E2E2E2E2E2E2BEE2E2E2E2E2E2E2E2DCE2E2E2E2E2E2E2F5E2E228E2E2E2E2BEBEBEBEBEBEBEBEBEBEBEBEE2BEE228
310
E2E2F5E2E2E2E22DE2E2E2E2E2E2E2E2E2E2E2E2E2E2E2E2E2E2E2E2E2E2E2E2E2E2E2E2E2E2E2E2E2E2E2E2E2E2E2E2E2DCE2E2BEE2E2E2E2E2E2E2E2E2E2E2E2E2E2E2E2E2E2E2E2E2E2E2E2E2E2E2E2E2E2E2E2E2E2E2E2E2E2E2E2E2E2E2E2E2E2E2E2E2E2E2E2E2E2E2E2E2E2E2E2E2E2E2E2E2E2E2E2E2E2E2E2E2E2
310
E2E2E2E2E2E2E2E2E2E2E2E2E2E2E2E2E2E2E2E2E2E2E2E2E2E2E2E2E2E2E2E2E2E2E2E2E2E2E2E2E2E2E2E2E2E2E2E2E2E2E2E2E2E2E2E2E2E2E2E2E2E2E2E2E2E2E2E2E2E2E2E2E2E2E2E2E2E2E2E2E2E2E2E2E2E2E2E2BEE2E2E2E2E2E2E2E2DCE2E2E2E2E2E2E2F5E2E228E2E2E2E2BEE2E2E2E2E2E2E2E2E2E2E2E2BE
310
E228E2E2F5E2E2E2E22DE2E2E2E2E2E2E2E2E2E2E2E2E22DE2E2E2E2E2E2E2E2E2E2E2E2E2E2E2E2E2E2E2E22DE2E2E2E2E2E2DCE2E2BEE2E2E2E2E2E2E2E2E2E2E2E2E2E2E2E2E2E2E2E2E2E2E2E2E2E2E2E2E2E2E2E2E2E2E2E2E2E2E2E2E2E2E2E2E2E2E2E2E2E2E2E2E2E2E2E2E2E2E2E2E2E2E2E2E2E2E2E2E2E2E2E2
310
E2E2E2E2E2E2E2E2E2E2E2E2E2E2E2E2E2E2E2E2E2E2E2E2E2E2E2E2E2E2E2E2E2E2E2E2E2E2E2E2E2E2E2E2E2E2E2E2E2E2E2E2E2E2E2E2E2E2E2E2E2E2E2E2E2E2E2E2E2E2E2E2E2E2E2E2E2E2E2E2E2E2E2E2E2E2E2E2E2E2BEE2E2E2E2E2E2E2E2DCE2E2E2E2E2E2E2F5E2E228E2E2E2E2BEE2E2E2E2E2E2E2E2E2E2E2
310
E2BEE228E2E2F5E2E2E2E22DE2E2E2E2E2E2E2E2E2E2E2E2E22D2D2D2D2D2D2D2D2DBEBEBEBE2D2D2D2D2D2D2D2DF5E2E2E2E2E2E2DCE2E2BEE2E2E2E2E2E2E2E2E2E2E2E2E2E2E2E2E2E2E2E2E2E2E2E2E2E2E2E2E2E2E2E2E2E2E2E2E2E2E2E2E2E2E2E2E2E2E2E2E2E2E2E2E2E2E2E2E2E2E2E2E2E2E2E2E2E2E2E2E2E2
310
E2E2E2E2E2E2E2E2E2E2E2E2E2E2E2E2E2E2E2E2E2E2E2E2E2E2E2E2E2E2E2E2E2E2E2E2E2E2E2E2E2E2E2E2E2E2E2E2E2E2E2E2E2E2E2E2E2E2E2E2E2E2E2E2E2E2E2E2E2E2E2E2E2E2E2E2E2E2E2E2E2E2E2E2E2E2E2E2E2E2E2E2BEE2E2E2E2E2E2E2E2DCE2E2E2E2E2E2E2F5E2E228E2E2E2E2BEE2E2E2E2E2E2E2E2E2
310
E2E2E2BEE228E2E2F5E2E2E2E22DE2E2E2E2E2E2E2E2E2E2E2E2E22DE2E2E2E2E2E2E2E2BEBEBEBEE2E2E2E2E2E22DE22DE2E2E2E2E2E2DCE2E2BEE2E2E2E2E2E2E2E2E2E2E2E2E2E2E2E2E2E2E2E2E2E2E2E2E2E2E2E2E2E2E2E2E2E2E2E2E2E2E2E2E2E2E2E2E2E2E2E2E2E2E2E2E2E2E2E2E2E2E2E2E2E2E2E2E2E2E2E2
310
E2E2E2E2E2E2E2E2E2E2E2E2E2E2E2E2E2E2E2E2E2E2E2E2E2E2E2E2E2E2E2E2E2E2E2E2E2E2E2E2E2E2E2E2E2E2E2E2E2E2E2E2E2E2E2E2E2E2E2E2E2E2E2E2E2E2E2E2E2E2E2E2E2E2E2E2E2E2E2E2E2E2E2E2E2E2E2E2E2E2E2E2E2E2BEE2E2E2E2E2E2E2E2DCE2E2E2E2E2E2E2F5E2E22828282828BEBEBEBEBEBEBEBE
310
BEBEBEBEBEBE2828E2E2F5E2E2E2E22DE2E2E2E2E2E2E2E2E2E2E2E2E22D2D2D2D2D2D2D2D2DBEBEBE2D2D2D2D2D2D2DBEBE2D2D2DE2E2E2E2DCE2E2BEE2E2E2E2E2E2E2E2E2E2E2E2E2E2E2E2E2E2E2E2E2E2E2E2E2E2E2E2E2E2E2E2E2E2E2E2E2E2E2E2E2E2E2E2E2E2E2E2E2E2E2E2E2E2E2E2E2E2E2E2E2E2E2E2E2E2
310
E2E2E2E2E2E2E2E2E2E2E2E2E2E2E2E2E2E2E2E2E2E2E2E2E2E2E2E2E2E2E2E2E2E2E2E2E2E2E2E2E2E2E2E2E2E2E2E2E2E2E2E2E2E2E2E2E2E2E2E2E2E2E2E2E2E2E2E2E2E2E2E2E2E2E2E2E2E2E2E2E2E2E2E2E2E2E2E2E2E2E2E2E2E2E2E2BEE2E2E2E2E2E2E2E2DCE2E2E2E2E2E2E2F5F5F5F5F5F5F5F5F5F5F5F5F5F5
310
F5F5F5F5F5F5F5F5F5F5F5F5F52D2D2D2DF5E2E2E2E2E2E2E2E2E2E2E2E2E22DE2E2E2E2E2E2E2E2BEBEBEE2E2E2E2E2E2E2BEBE2DE2E2E2E2E2E2DCE2E2BEE2E2E2E2E2E2E2E2E2E2E2E2E2E2E2E2E2E2E2E2E2E2E2E2E2E2E2E2E2E2E2E2E2E2E2E2E2E2E2E2E2E2E2E2E2E2E2E2E2E2E2E2E2E2E2E2E2E2E2E2E2E2E2E2
310
E2E2E2E2E2E2E2E2E2E2E2E2E2E2E2E2E2E2E2E2E2E2E2E2E2E2E2E2E2E2E2E2E2E2E2E2E2E2E2E2E2E2E2E2E2E2E2E2E2E2E2E2E2E2E2E2E2E2E2E2E2E2E2E2E2E2E2E2E2E2E2E2E2E2E2E2E2E2E2E2E2E2E2E2E2E2E2E2E2E2E2E2E2E2E2E2E2E2BEE2E2E2E2E2E2E2E2DCE2E22D2D2D2D2DF5F5F5F5F5F5F5F5F5F5F5F5
310
F5F5F5F5F5F5F5F5F5F5F5F5F5F5F5E2E2E2E2E2E2E2E2E2E2E2E2E2E2E2F52D2DF5F5F5F5F5F5F5F5F5F5F5F5F5F5F5F5F5F5F5F5F5F52D2D2D2D2DE2DCE2E2BEE2E2E2E2E2E2E2E2E2E2E2E2E2E2E2E2E2E2E2E2E2E2E2E2E2E2E2E2E2E2E2E2E2E2E2E2E2E2E2E2E2E2E2E2E2E2E2E2E2E2E2E2E2E2E2E2E2E2E2E2E2E2
310
E2E2E2E2E2E2E2E2E2E2E2E2E2E2E2E2E2E2E2E2E2E2E2E2E2E2E2E2E2E2E2E2E2E2E2E2E2E2E2E2E2E2E2E2E2E2E2E2E2E2E2E2E2E2E2E2E2E2E2E2E2E2E2E2E2E2E2E2E2E2E2E2E2E2E2E2E2E2E2E2E2E2E2E2E2E2E2E2E2E2E2E2E2E2E2E2E2E2E2E2BEE2E2E2E2E2E2E2E2DCE2E22DE2E2E2E22DE2E2E2E2E2E2E2E2E2
310
E2E2E2E2E2E2E2E2E2E2E2E2E2E2E2E2F5E2E2E2E2E2E2E2E2E2E2E2E2E2E2E22DE2E2F5E2E2E2E2E2E2E2E2E2E2E2E2E2E2E2E2E2E2F5E2F5E2E2BEBEE2E2DCE2E2BEE2E2E2E2E2E2E2E2E2E2E2E2E2E2E2E2E2E2E2E2E2E2E2E2E2E2E2E2E2E2E2E2E2E2E2E2E2E2E2E2E2E2E2E2E2E2E2E2E2E2E2E2E2E2E2E2E2E2E2E2
310
E2E2E2E2E2E2E2E2E2E2E2E2E2E2E2E2E2E2E2E2E2E2E2E2E2E2E2E2E2E2E2E2E2E2E2E2E2E2E2E2E2E2E2E2E2E2E2E2E2E2E2E2E2E2E2E2E2E2E2E2E2E2E2E2E2E2E2E2E2E2E2E2E2E2E2E2E2E2E2E2E2E2E2E2E2E2E2E2E2E2E2E2E2E2E2E2E2E2E2E2E2E2BEE2E2E2E2E2E2E2E2DCE2E22DE2E2E2E22DE2E2E2E2E2E2E2
310
E2E2E2E2E2E2E2E2E2E2E2E2E2E2E2E2E2E2F5E2E2E2E2E2E2E2E2E2E2E2E2E2E2E22DE2E2F5E2E2E2E2E2E2E2E2E2E2E2E2E2E2E2E2E2E2F5E2F5E2E2BEBEE2E2DCE2E2BEE2E2E2E2E2E2E2E2E2E2E2E2E2E2E2E2E2E2E2E2E2E2E2E2E2E2E2E2E2E2E2E2E2E2E2E2E2E2E2E2E2E2E2E2E2E2E2E2E2E2E2E2E2E2E2E2E2E2
310
E2E2E2E2E2E2E2E2E2E2E2E2E2E2E2E2E2E2E2E2E2E2E2E2E2E2E2E2E2E2E2E2E2E2E2E2E2E2E2E2E2E2E2E2E2E2E2E2E2E2E2E2E2E2E2E2E2E2E2E2E2E2E2E2E2E2E2E2E2E2E2E2E2E2E2E2E2E2E2E2E2E2E2E2E2E2E2E2E2E2E2E2E2E2E2E2E2E2E2E2E2E2E2E2BEE2E2E2E2E2E2E2E2DCE2E22DE2E2E2E22DE2E2E2E2E2
310
E2E2E2E2E2E2E2E2E2E2E2E2E2E2E2E2E2E2E2E2F5E2E2E2E2E2E2E2E2E2E2E2E2E2E2E22DE2E2F5E2E2E2E2E2E2E2E2E2E2E2E2E2E2E2E2E2E2F5E2F5E2E2BEBEE2E2DCE2E2BEE2E2E2E2E2E2E2E2E2E2E2E2E2E2E2E2E2E2E2E2E2E2E2E2E2E2E2E2E2E2E2E2E2E2E2E2E2E2E2E2E2E2E2E2E2E2E2E2E2E2E2E2E2E2E2E2
310
E2E2E2E2E2E2E2E2E2E2E2E2E2E2E2E2E2E2E2E2E2E2E2E2E2E2E2E2E2E2E2E2E2E2E2E2E2E2E2E2E2E2E2E2E2E2E2E2E2E2E2E2E2E2E2E2E2E2E2E2E2E2E2E2E2E2E2E2E2E2E2E2E2E2E2E2E2E2E2E2E2E2E2E2E2E2E2E2E2E2E2E2E2E2E2E2E2E2E2E2E2E2E2E2E2E2BEE2E2E2E2E2E2E2E2DCE2E22DE2E2E2E22DE2E2E2
310
F5F5F5F5F5F5F5F5F5F5F5F5F5F5F5F5F5F5F5E2E2E2F5E2E2E2E2E2E2E2E2E2E2E2E2E2E2E22DE2E2282828282828282828282828282828282828282828F5F52D2D2D2DE2DCE2E2BEE2E2E2E2E2E2E2E2E2E2E2E2E2E2E2E2E2E2E2E2E2E2E2E2E2E2E2E2E2E2E2E2E2E2E2E2E2E2E2E2E2E2E2E2E2E2E2E2E2E2E2E2E2E2
310
E2E2E2E2E2E2E2E2E2E2E2E2E2E2E2E2E2E2E2E2E2E2E2E2E2E2E2E2E2E2E2E2E2E2E2E2E2E2E2E2E2E2E2E2E2E2E2E2E2E2E2E2E2E2E2E2E2E2E2E2E2E2E2E2E2E2E2E2E2E2E2E2E2E2E2E2E2E2E2E2E2E2E2E2E2E2E2E2E2E2E2E2E2E2E2E2E2E2E2E2E2E2E2E2E2E2E2E2BEE2E2E2E2E2E2E2E2DCE2E22DE2E2E2E22DE2
310
E2E2F5E2E2E2E2E2E2E2E2E2E2E2E2E2E2E2E2E2F5E2E2E2F5E2E2E2E2E2E2E2E2E2E2E2E2E2E2E22DE2E228E2E2E2E2E2E2E2E2E2E2E2E2E2E2E2E2E2E2F5E2F5E2E2E22DE2E2DCE2E2BEE2E2E2E2E2E2E2E2E2E2E2E2E2E2E2E2E2E2E2E2E2E2E2E2E2E2E2E2E2E2E2E2E2E2E2E2E2E2E2E2E2E2E2E2E2E2E2E2E2E2E2E2
310
E2E2E2E2E2E2E2E2E2E2E2E2E2E2E2E2E2E2E2E2E2E2E2E2E2E2E2E2E2E2E2E2E2E2E2E2E2E2E2E2E2E2E2E2E2E2E2E2E2E2E2E2E2E2E2E2E2E2E2E2E2E2E2E2E2E2E2E2E2E2E2E2E2E2E2E2E2E2E2E2E2E2E2E2E2E2E2E2E2E2E2E2E2E2E2E2E2E2E2E2E2E2E2E2E2E2E2E2E2E2BEE2E2E2E2E2E2E2E2DCE2E22DE2E2E2E2
310
2DE2E2E2F5E2E2E2E2E2E2E2E2E2E2E2E2E2E2E2E2E2F5E2E2E2F5E2E2E2E2E2E2E2E2E2E2E2E2E2E2E22DE2E228E2E2E2E2E2E2E2E2E2E2E2E2E2E2E2E2E2E2F5E2F5E2E2E22DE2E2DCE2E2BEE2E2E2E2E2E2E2E2E2E2E2E2E2E2E2E2E2E2E2E2E2E2E2E2E2E2E2E2E2E2E2E2E2E2E2E2E2E2E2E2E2E2E2E2E2E2E2E2E2E2
310
E2E2E2E2E2E2E2E2E2E2E2E2E2E2E2E2E2E2E2E2E2E2E2E2E2E2E2E2E2E2E2E2E2E2E2E2E2E2E2E2E2E2E2E2E2E2E2E2E2E2E2E2E2E2E2E2E2E2E2E2E2E2E2E2E2E2E2E2E2E2E2E2E2E2E2E2E2E2E2E2E2E2E2E2E2E2E2E2E2E2E2E2E2E2E2E2E2E2E2E2E2E2E2E2E2E2E2E2E2E2E2E2BEE2E2E2E2E2E2E2E2DCE2E22DE2E2
310
E2E22DE2E2E2F5E2E2E2E2E2E2E2E2E2E2E2E2E2E2E2E2E2F5E2E2E2F5E2E2E2E2E2E2E2E2E2E2E2E2E2E2E22DE2E228E2E2E2E2E2E2E2E2E2E2E2E2E2E2E2E2E2E2F5E2F5E2E2E22DE2E2DCE2E2BEE2E2E2E2E2E2E2E2E2E2E2E2E2E2E2E2E2E2E2E2E2E2E2E2E2E2E2E2E2E2E2E2E2E2E2E2E2E2E2E2E2E2E2E2E2E2E2E2
310
E2E2E2E2E2E2E2E2E2E2E2E2E2E2E2E2E2E2E2E2E2E2E2E2E2E2E2E2E2E2E2E2E2E2E2E2E2E2E2E2E2E2E2E2E2E2E2E2E2E2E2E2E2E2E2E2E2E2E2E2E2E2E2E2E2E2E2E2E2E2E2E2E2E2E2E2E2E2E2E2E2E2E2E2E2E2E2E2E2E2E2E2E2E2E2E2E2E2E2E2E2E2E2E2E2E2E2E2E2E2E2E2E2E2BEE2E2E2E2E2E2E2E2DCE2E22D
310
E2E2E2E22DE2E2E22DE2E2E2E2E2E2E2E2E2E2E2E2E2E2E2E2E22DE2E2E2F5E2E2E2E2E2E2E2E2E2E2E2E2E2E2E22DE2E228E2E2E2E2E2E2E2E2E2E2E2E2E2E2E2E2E2E2F5E2F5E2E2E22DE2E2DCE2E2BEE2E2E2E2E2E2E2E2E2E2E2E2E2E2E2E2E2E2E2E2E2E2E2E2E2E2E2E2E2E2E2E2E2E2E2E2E2E2E2E2E2E2E2E2E2E2
310
E2E2E2E2E2E2E2E2E2E2E2E2E2E2E2E2E2E2E2E2E2E2E2E2E2E2E2E2E2E2E2E2E2E2E2E2E2E2E2E2E2E2E2E2E2E2E2E2E2E2E2E2E2E2E2E2E2E2E2E2E2E2E2E2E2E2E2E2E2E2E2E2E2E2E2E2E2E2E2E2E2E2E2E2E2E2E2E2E2E2E2E2E2E2E2E2E2E2E2E2E2E2E2E2E2E2E2E2E2E2E2E2E2E2E2E2BEE2E2E2E2E2E2E2E2DCE2
310
E22DE2E2E2E22DBEBEBE2D2D2D2D2D2D2D2DBEBEBE2D2D2D2D2D2D2D2DBEBEBEF5E2E2E2E2E2E2E2E2E2E2E2E2E2E2E22DE2E228E2E2E2E2E2E2E2E2E2E2E2E2E2E2E2E2E2E2F5E2F5E2E2E22DE2E2DCE2E2BEE2E2E2E2E2E2E2E2E2E2E2E2E2E2E2E2E2E2E2E2E2E2E2E2E2E2E2E2E2E2E2E2E2E2E2E2E2E2E2E2E2E2E2E2
310
E2E2E2E2E2E2E2E2E2E2E2E2E2E2E2E2E2E2E2E2E2E2E2E2E2E2E2E2E2E2E2E2E2E2E2E2E2E2E2E2E2E2E2E2E2E2E2E2E2E2E2E2E2E2E2E2E2E2E2E2E2E2E2E2E2E2E2E2E2E2E2E2E2E2E2E2E2E2E2E2E2E2E2E2E2E2E2E2E2E2E2E2E2E2E2E2E2E2E2E2E2E2E2E2E2E2E2E2E2E2E2E2E2E2E2E2E2E2BEE2E2E2E2E2E2E2E2
310
DCE2E22DE2E2E2E2F5BEBEBEF5E2E2E2E2E2E2E2BEBEBEBEE2E2E2E2E2E2F5BEBEBEF5E2E2E2E2E2E2E2E2E2E2E2E2E2E2E22DE2E228E2E2E2E2E2E2E2E2E2E2E2E2E2E2E2E2E2E2F5E2F5E2E2E22DE2E2DCE2E2BEE2E2E2E2E2E2E2E2E2E2E2E2E2E2E2E2E2E2E2E2E2E2E2E2E2E2E2E2E2E2E2E2E2E2E2E2E2E2E2E2E2E2
310
E2E2E2E2E2E2E2E2E2E2E2E2E2E2E2E2E2E2E2E2E2E2E2E2E2E2E2E2E2E2E2E2E2E2E2E2E2E2E2E2E2E2E2E2E2E2E2E2E2E2E2E2E2E2E2E2E2E2E2E2E2E2E2E2E2E2E2E2E2E2E2E2E2E2E2E2E2E2E2E2E2E2E2E2E2E2E2E2E2E2E2E2E2E2E2E2E2E2E2E2E2E2E2E2E2E2E2E2E2E2E2E2E2E2E2E2E2E2E2E2BEE2E2E2E2E2E2
310
E2E2DCE2E22DE2E2E2E2F5E2E2E2F5E2E2E2E2E2E2E2E2E2E2E2E2E2E2E2E2E2F5E2E2E2F5E2E2E2E2E2E2E2E2E2E2E2E2E2E2E22DE2E228E2E2E2E2E2E2E2E2E2E2E2E2E2E2E2E2E2E2F5E2F5E2E2E22DE2E2DCE2E2BEE2E2E2E2E2E2E2E2E2E2E2E2E2E2E2E2E2E2E2E2E2E2E2E2E2E2E2E2E2E2E2E2E2E2E2E2E2E2E2E2
310
E2E2E2E2E2E2E2E2E2E2E2E2E2E2E2E2E2E2E2E2E2E2E2E2E2E2E2E2E2E2E2E2E2E2E2E2E2E2E2E2E2E2E2E2E2E2E2E2E2E2E2E2E2E2E2E2E2E2E2E2E2E2E2E2E2E2E2E2E2E2E2E2E2E2E2E2E2E2E2E2E2E2E2E2E2E2E2E2E2E2E2E2E2E2E2E2E2E2E2E2E2E2E2E2E2E2E2E2E2E2E2E2E2E2E2E2E2E2E2E2E2E2BEE2E2E2E2
310
E2E2E2E2DCE2E22DE2E2E2E2F5E2E2E2F5E2E2E2E2E2E2E2E2E2E2E2E2E2E2E2E2E2F5E2E2E2F5E2E2E2E2E2E2E2E2E2E2E2E2E2E2E22DE2E228E2E2E2E2E2E2E2E2E2E2E2E2E2E2E2E2E2E2F5E2F5E2E2E22DE2E2DCE2E2BEE2E2E2E2E2E2E2E2E2E2E2E2E2E2E2E2E2E2E2E2E2E2E2E2E2E2E2E2E2E2E2E2E2E2E2E2E2E2
310
E2E2E2E2E2E2E2E2E2E2E2E2E2E2E2E2E2E2E2E2E2E2E2E2E2E2E2E2E2E2E2E2E2E2E2E2E2E2E2E2E2E2E2E2E2E2E2E2E2E2E2E2E2E2E2E2E2E2E2E2E2E2E2E2E2E2E2E2E2E2E2E2E2E2E2E2E2E2E2E2E2E2E2E2E2E2E2E2E2E2E2E2E2E2E2E2E2E2E2E2E2E2E2E2E2E2E2E2E2E2E2E2E2E2E2E2E2E2E2E2E2E2E2E2BEE2E2
310
E2E2E2E2E2E2DCE2E22DE2E2E2E2F5E2E2E2F5E2E2E2E2E2E2E2E2E2E2E2E2E2E2E2E2E2F5E2E2E2F5E2E2E2E2E2E2E2E2E2E2E2E2E2E2E22DE2E228E2E2E2E2E2E2E2E2E2E2E2E2E2E2E2E2E2E2F5E2F5E2E2E22DE2E2DCE2E2BEE2E2E2E2E2E2E2E2E2E2E2E2E2E2E2E2E2E2E2E2E2E2E2E2E2E2E2E2E2E2E2E2E2E2E2E2
310
E2E2E2E2E2E2E2E2E2E2E2E2E2E2E2E2E2E2E2E2E2E2E2E2E2E2E2E2E2E2E2E2E2E2E2E2E2E2E2E2E2E2E2E2E2E2E2E2E2E2E2E2E2E2E2E2E2E2E2E2E2E2E2E2E2E2E2E2E2E2E2E2E2E2E2E2E2E2E2E2E2E2E2E2E2E2E2E2E2E2E2E2E2E2E2E2E2E2E2E2E2E2E2E2E2E2E2E2E2E2E2E2E2E2E2E2E2E2E2E2E2E2E2E2E2E2BE
310
E2E2E2E2E2E2E2E2DCE2E22DE2E2E2E2F5E2E2E2F5E2E2E2E2E2E2E2E2E2E2E2E2E2E2E2E2E2F5E2E2E2F5E2E2E2E2E2E2E2E2E2E2E2E2E2E2BEBEE2E228E2E2E2E2E2E2E2E2E2E2E2E2E2E2E2E2E2E2F5E2F5E2BEBEBEE2E2DCE2E2BEE2E2E2E2E2E2E2E2E2E2E2E2E2E2E2E2E2E2E2E2E2E2E2E2E2E2E2E2E2E2E2E2E2E2
310
E2E2E2E2E2E2E2E2E2E2E2E2E2E2E2E2E2E2E2E2E2E2E2E2E2E2E2E2E2E2E2E2E2E2E2E2E2E2E2E2E2E2E2E2E2E2E2E2E2E2E2E2E2E2E2E2E2E2E2E2E2E2E2E2E2E2E2E2E2E2E2E2E2E2E2E2E2E2E2E2E2E2E2E2E2E2E2E2E2E2E2E2E2E2E2E2E2E2E2E2E2E2E2E2E2E2E2E2E2E2E2E2E2E2E2E2E2E2E2E2E2E2E2E2E2E2E2
310
E2BEE2E2E2E2E2E2E2E2DCE2E22DE2E2E2E2F5E2E2E2F5E2E2E2E2E2E2E2E2E2E2E2E2E2E2E2E2E2F5E2E2E2F5E2E2E2E2E2E2E2E2E2E2E2E2E2E2BEBEE2E228E2E2E2E2E2E2E2E2E2E2E2E2E2E2E2E2E2E2F5E2F5E2BEBEBEE2E2DCE2E2BEE2E2E2E2E2E2E2E2E2E2E2E2E2E2E2E2E2E2E2E2E2E2E2E2E2E2E2E2E2E2E2E2
310
E2E2E2E2E2E2E2E2E2E2E2E2E2E2E2E2E2E2E2E2E2E2E2E2E2E2E2E2E2E2E2E2E2E2E2E2E2E2E2E2E2E2E2E2E2E2E2E2E2E2E2E2E2E2E2E2E2E2E2E2E2E2E2E2E2E2E2E2E2E2E2E2E2E2E2E2E2E2E2E2E2E2E2E2E2E2E2E2E2E2E2E2E2E2E2E2E2E2E2E2E2E2E2E2E2E2E2E2E2E2E2E2E2E2E2E2E2E2E2E2E2E2E2E2E2E2E2
310
E2E2E2BEE2E2E2E2E2E2E2E2DCE2E22DE2E2E2E2F5E2E2E2F5E2E2E2E2E2E2E2E2E2E2E2E2E2E2E2E2E2F5E2E2E2F5E2E2E2E2E2E2E2E2E2E2E2E2E2E2BEBEE2E228E2E2E2E2E2E2E2E2E2E2E2E2E2E2E2E2E2E2F5E2F5E2BEBEBEE2E2DCE2E2BEE2E2E2E2E2E2E2E2E2E2E2E2E2E2E2E2E2E2E2E2E2E2E2E2E2E2E2E2E2E2
310
E2E2E2E2E2E2E2E2E2E2E2E2E2E2E2E2E2E2E2E2E2E2E2E2E2E2E2E2E2E2E2E2E2E2E2E2E2E2E2E2E2E2E2E2E2E2E2E2E2E2E2E2E2E2E2E2E2E2E2E2E2E2E2E2E2E2E2E2E2E2E2E2E2E2E2E2E2E2E2E2E2E2E2E2E2E2E2E2E2E2E2E2E2E2E2E2E2E2E2E2E2E2E2E2E2E2E2E2E2E2E2E2E2E2E2E2E2E2E2E2E2E2E2E2E2E2E2
310
E2E2E2E2E2BEE2E2E2E2E2E2E2E2DCE2E22DE2E2E2E2F5E2E2E2F5E2E2E2E2E2E2E2E2E2E2E2E2E2E2E2E2E2F5E2E2E2F5E2E2E2E2E2E2E2E2E2E2E2E2E2E2E22DE2E228E2E2E2E2E2E2E2E2E2E2E2E2E2E2E2E2E2E2F5E2F5E2E2E22DE2E2DCE2E2BEE2E2E2E2E2E2E2E2E2E2E2E2E2E2E2E2E2E2E2E2E2E2E2E2E2E2E2E2
310
E2E2E2E2E2E2E2E2E2E2E2E2E2E2E2E2E2E2E2E2E2E2E2E2E2E2E2E2E2E2E2E2E2E2E2E2E2E2E2E2E2E2E2E2E2E2E2E2E2E2E2E2E2E2E2E2E2E2E2E2E2E2E2E2E2E2E2E2E2E2E2E2E2E2E2E2E2E2E2E2E2E2E2E2E2E2E2E2E2E2E2E2E2E2E2E2E2E2E2E2E2E2E2E2E2E2E2E2E2E2E2E2E2E2E2E2E2E2E2E2E2E2E2E2E2E2E2
310
E2E2E2E2E2E2E2BEE2E2E2E2E2E2E2E2DCE2E22DE2E2E2E2F5E2E2E2F5E2E2E2E2E2E2E2E2E2E2E2E2E2E2E2E2E2F5E2E2E2F5E2E2E2E2E2E2E2E2E2E2E2E2E2E2E22DE2E228E2E2E2E2E2E2E2E2E2E2E2E2E2E2E2E2E2E2F5E2F5E2E2E22DE2E2DCE2E2BEE2E2E2E2E2E2E2E2E2E2E2E2E2E2E2E2E2E2E2E2E2E2E2E2E2E2
310
E2E2E2E2E2E2E2E2E2E2E2E2E2E2E2E2E2E2E2E2E2E2E2E2E2E2E2E2E2E2E2E2E2E2E2E2E2E2E2E2E2E2E2E2E2E2E2E2E2E2E2E2E2E2E2E2E2E2E2E2E2E2E2E2E2E2E2E2E2E2E2E2E2E2E2E2E2E2E2E2E2E2E2E2E2E2E2E2E2E2E2E2E2E2E2E2E2E2E2E2E2E2E2E2E2E2E2E2E2E2E2E2E2E2E2E2E2E2E2E2E2E2E2E2E2E2E2
310
E2E2E2E2E2E2E2E2E2BEE2E2E2E2E2E2E2E2DCE2E22DE2E2E2E2F5E2E2E2F5E2E2E2E2E2E2E2E2E2E2E2E2E2E2E2E2E2F5E2E2E2F5E2E2E2E2E2E2E2E2E2E2E2E2E2E2E22DE2E228E2E2E2E2E2E2E2E2E2E2E2E2E2E2E2E2E2E2F5E2F5E2E2E22DE2E2DCE2E2BEE2E2E2E2E2E2E2E2E2E2E2E2E2E2E2E2E2E2E2E2E2E2E2E2
310
E2E2E2E2E2E2E2E2E2E2E2E2E2E2E2E2E2E2E2E2E2E2E2E2E2E2E2E2E2E2E2E2E2E2E2E2E2E2E2E2E2E2E2E2E2E2E2E2E2E2E2E2E2E2E2E2E2E2E2E2E2E2E2E2E2E2E2E2E2E2E2E2E2E2E2E2E2E2E2E2E2E2E2E2E2E2E2E2E2E2E2E2E2E2E2E2E2E2E2E2E2E2E2E2E2E2E2E2E2E2E2E2E2E2E2E2E2E2E2E2E2E2E2E2E2E2E2
310
E2E2E2E2E2E2E2E2E2E2E2BEE2E2E2E2E2E2E2E2DCE2E22DE2E2E2E2F5E2E2E2F5E2E2E2E2E2E2E2E2E2E2E2E2E2E2E2E2E2F5E2E2E2F5E2E2E2E2E2E2E2E2E2E2E2E2E2E2E22DE2E228E2E2E2E2E2E2E2E2E2E2E2E2E2E2E2E2E2E2F5E2F5E2E2E22DE2E2DCE2E2BEE2E2E2E2E2E2E2E2E2E2E2E2E2E2E2E2E2E2E2E2E2E2
310
E2E2E2E2E2E2E2E2E2E2E2E2E2E2E2E2E2E2E2E2E2E2E2E2E2E2E2E2E2E2E2E2E2E2E2E2E2E2E2E2E2E2E2E2E2E2E2E2E2E2E2E2E2E2E2E2E2E2E2E2E2E2E2E2E2E2E2E2E2E2E2E2E2E2E2E2E2E2E2E2E2E2E2E2E2E2E2E2E2E2E2E2E2E2E2E2E2E2E2E2E2E2E2E2E2E2E2E2E2E2E2E2E2E2E2E2E2E2E2E2E2E2E2E2E2E2E2
310
E2E2E2E2E2E2E2E2E2E2E2E2E2BEE2E2E2E2E2E2E2E2DCE2E22DE2E2E2E2F5E2E2E2F5E2E2E2E2E2E2E2E2E2E2E2E2E2E2E2E2E2F5E2E2E2F5E2E2E2E2E2E2E2E2E2E2E2E2E2E2E22DE2E228E2E2E2E2E2E2E2E2E2E2E2E2E2E2E2E2E2E2F5E2F5E2E2E22DE2E2DCE2E2BEE2E2E2E2E2E2E2E2E2E2E2E2E2E2E2E2E2E2E2E2
310
E2E2E2E2E2E2E2E2E2E2E2E2E2E2E2E2E2E2E2E2E2E2E2E2E2E2E2E2E2E2E2E2E2E2E2E2E2E2E2E2E2E2E2E2E2E2E2E2E2E2E2E2E2E2E2E2E2E2E2E2E2E2E2E2E2E2E2E2E2E2E2E2E2E2E2E2E2E2E2E2E2E2E2E2E2E2E2E2E2E2E2E2E2E2E2E2E2E2E2E2E2E2E2E2E2E2E2E2E2E2E2E2E2E2E2E2E2E2E2E2E2E2E2E2E2E2E2
310
E2E2E2E2E2E2E2E2E2E2E2E2E2E2E2BEE2E2E2E2E2E2E2E2DCE2E22DE2E2E2E2F5E2E2E2F5E2E2BEBEBEBEBEBEBEBEBEBEBEBEBEBEBEBEBEBEBEBEBEBEBEBEBEBEBEBEBEBEBEBEBEBEBE2DE2E22828282828BEBEBEE2E2E2E2E2E2E2E2E2E2E2F5E2F5E2E2E22DE2E2DCE2E2BEE2E2E2E2E2E2E2E2E2E2E2E2E2E2E2E2E2E2
310
E2E2E2E2E2E2E2E2E2E2E2E2E2E2E2E2E2E2E2E2E2E2E2E2E2E2E2E2E2E2E2E2E2E2E2E2E2E2E2E2E2E2E2E2E2E2E2E2E2E2E2E2E2E2E2E2E2E2E2E2E2E2E2E2E2E2E2E2E2E2E2E2E2E2E2E2E2E2E2E2E2E2E2E2E2E2E2E2E2E2E2E2E2E2E2E2E2E2E2E2E2E2E2E2E2E2E2E2E2E2E2E2E2E2E2E2E2E2E2E2E2E2E2E2E2E2E2
310
E2E2E2E2E2E2E2E2E2E2E2E2E2E2E2E2E2BEE2E2E2E2E2E2E2E2DCE2E22DE2E2E2E2F5E2E2E2F5E2E2BEE2E2E2E2BEE2E2E2E2E2BEE2E2BEF5E2E2E2F5E2E2E2E2E2E2E2E2E2E2E2E2E2E2BE2DE2E2BEBEBEBEBEBEBEBE282828282828E2E2E2E2E2F5E2F5E2E2E22DE2E2DCE2E2BEE2E2E2E2E2E2E2E2E2E2E2E2E2E2E2E2
310
E2E2E2E2E2E2E2E2E2E2E2E2E2E2E2E2E2E2E2E2E2E2E2E2E2E2E2E2E2E2E2E2E2E2E2E2E2E2E2E2E2E2E2E2E2E2E2E2E2E2E2E2E2E2E2E2E2E2E2E2E2E2E2E2E2E2E2E2E2E2E2E2E2E2E2E2E2E2E2E2E2E2E2E2E2E2E2E2E2E2E2E2E2E2E2E2E2E2E2E2E2E2E2E2E2E2E2E2E2E2E2E2E2E2E2E2E2E2E2E2E2E2E2E2E2E2E2
310
E2E2E2E2E2E2E2E2E2E2E2E2E2E2E2E2E2E2E2BEE2E2E2E2E2E2E2E2DCE2E22DE2E2E2E2F5E2E2E2F5E2E2BEE2E2E2E2BEBEBEE2E2E2BEE2E2BEF5E2E2E2F5F5F5F5F5F5F5F5F5F5F5F5F5F5F5F52DE2E2F5E2E2E2E2E2BEBEE2E2E2E2E2282828BEBE28F5E2F5E2E2E22DE2E2DCE2E2BEE2E2E2E2E2E2E2E2E2E2E2E2E2E2
310
E2E2E2E2E2E2E2E2E2E2E2E2E2E2E2E2E2E2E2E2E2E2E2E2E2E2E2E2E2E2E2E2E2E2E2E2E2E2E2E2E2E2E2E2E2E2E2E2E2E2E2E2E2E2E2E2E2E2E2E2E2E2E2E2E2E2E2E2E2E2E2E2E2E2E2E2E2E2E2E2E2E2E2E2E2E2E2E2E2E2E2E2E2E2E2E2E2E2E2E2E2E2E2E2E2E2E2E2E2E2E2E2E2E2E2E2E2E2E2E2E2E2E2E2E2E2E2
310
E2E2E2E2E2E2E2E2E2E2E2E2E2E2E2E2E2E2E2E2E2BEE2E2E2E2E2E2E2E2DCE2E22DE2E2E2E2F5E2E2E2F5F5F5BEBEBEBEBEBEBEBEBEBEBEBEBEF5BEF5E2E2E2F5F5E2F5E2E2F5F5E2E2F5F5E2F5E2F52DE2E2F5BEBEBEBEBEBEBEBEBEBEBEBEBEBEBEBEBEBEBE2828F52D2DF5E2E2DCE2E2BEE2E2E2E2E2E2E2E2E2E2E2E2
310
E2E2E2E2E2E2E2E2E2E2E2E2E2E2E2E2E2E2E2E2E2E2E2E2E2E2E2E2E2E2E2E2E2E2E2E2E2E2E2E2E2E2E2E2E2E2E2E2E2E2E2E2E2E2E2E2E2E2E2E2E2E2E2E2E2E2E2E2E2E2E2E2E2E2E2E2E2E2E2E2E2E2E2E2E2E2E2E2E2E2E2E2E2E2E2E2E2E2E2E2E2E2E2E2E2E2E2E2E2E2E2E2E2E2E2E2E2E2E2E2E2E2E2E2E2E2E2
310
E2E2E2E2E2E2E2E2E2E2E2E2E2E2E2E2E2E2E2E2E2E2E2BEE2E2E2E2E2E2E2E2DCE2E22DE2E2E2E2F5E2E2E2E2E2E2BEBEE2E2E2BEE2E2E2E2E2BEBEE2BEBEBEBEBEBEBEBEBEBEBEBEBEBEBEBEBEBEBEBEBE2DE2E2F5BEE2E2E2E2BEBEBEE2E2E2E2E2E2E2E2E2E2BEE2F5E2E2E2E2E2E2DCE2E2BEE2E2E2E2E2E2E2E2E2E2
310
E2E2E2E2E2E2E2E2E2E2E2E2E2E2E2E2E2E2E2E2E2E2E2E2E2E2E2E2E2E2E2E2E2E2E2E2E2E2E2E2E2E2E2E2E2E2E2E2E2E2E2E2E2E2E2E2E2E2E2E2E2E2E2E2E2E2E2E2E2E2E2E2E2E2E2E2E2E2E2E2E2E2E2E2E2E2E2E2E2E2E2E2E2E2E2E2E2E2E2E2E2E2E2E2E2E2E2E2E2E2E2E2E2E2E2E2E2E2E2E2E2E2E2E2E2E2E2
310
E2E2E2E2E2E2E2E2E2E2E2E2E2E2E2E2E2E2E2E2E2E2E2E2E2BEE2E2E2E2E2E2E2E2DCE2E22DE2E2E2E2F5E2E2E2E2E2E2BEBEE2E2E2BEE2E2E2E2E2BEBEE2BEE2E2E2E2F5E2E2E2E2E2E2E2E2E2BEBEBEE2E2E22DE2E2F5BEE2E2E2E2E2BEBEE2E2E2E2E2E2E2E2E2E2BEE2F5E2E2E2E2E2E2DCE2E2BEE2E2E2E2E2E2E2E2
310
E2E2E2E2E2E2E2E2E2E2E2E2E2E2E2E2E2E2E2E2E2E2E2E2E2E2E2E2E2E2E2E2E2E2E2E2E2E2E2E2E2E2E2E2E2E2E2E2E2E2E2E2E2E2E2E2E2E2E2E2E2E2E2E2E2E2E2E2E2E2E2E2E2E2E2E2E2E2E2E2E2E2E2E2E2E2E2E2E2E2E2E2E2E2E2E2E2E2E2E2E2E2E2E2E2E2E2E2E2E2E2E2E2E2E2E2E2E2E2E2E2E2E2E2E2E2E2
310
E2E2E2E2E2E2E2E2E2E2E2E2E2E2E2E2E2E2E2E2E2E2E2E2E2E2E2BEE2E2E2E2E2E2E2E2DCE2E22DE2E2E2E2F5E2E2E2E2E2E2BEBEE2E2E2BEE2E2E2E2E2BEBEE2BEE2E2E2E2F5E2E2E2E2E2E2E2E2E2E2BEE2E2E2E22DE2E2F5BEE2E2E2E2E2BEBEE2E2E2E2E2BEE2E2E2E2BEE2F5E2E2E2E2E2E2DCE2E2BEE2E2E2E2E2E2
310
E2E2E2E2E2E2E2E2E2E2E2E2E2E2E2E2E2E2E2E2E2E2E2E2E2E2E2E2E2E2E2E2E2E2E2E2E2E2E2E2E2E2E2E2E2E2E2E2E2E2E2E2E2E2E2E2E2E2E2E2E2E2E2E2E2E2E2E2E2E2E2E2E2E2E2E2E2E2E2E2E2E2E2E2E2E2E2E2E2E2E2E2E2E2E2E2E2E2E2E2E2E2E2E2E2E2E2E2E2E2E2E2E2E2E2E2E2E2E2E2E2E2E2E2E2E2E2
310
E2E2E2E2E2E2E2E2E2E2E2E2E2E2E2E2E2E2E2E2E2E2E2E2E2E2E2E2E2BEE2E2E2E2E2E2E2E2DCE2E22DE2E2E2E2F5E2E2E2E2E2E2BEBEE2E2E2BEE2E2E2E2E2BEBEE2BEE2E2E2E2F5E2E2E2E2E2E2E2E2E2BEE2E2E2E2E22D2D2D2D2D2D2D2D2D2D2D2D2D2D2DF5BEDCBEE2E2E2BEE2F5E2E2E2E2E2E2DCE2E2BEE2E2E2E2
310
E2E2E2E2E2E2E2E2E2E2E2E2E2E2E2E2E2E2E2E2E2E2E2E2E2E2E2E2E2E2E2E2E2E2E2E2E2E2E2E2E2E2E2E2E2E2E2E2E2E2E2E2E2E2E2E2E2E2E2E2E2E2E2E2E2E2E2E2E2E2E2E2E2E2E2E2E2E2E2E2E2E2E2E2E2E2E2E2E2E2E2E2E2E2E2E2E2E2E2E2E2E2E2E2E2E2E2E2E2E2E2E2E2E2E2E2E2E2E2E2E2E2E2E2E2E2E2
310
E2E2E2E2E2E2E2E2E2E2E2E2E2E2E2E2E2E2E2E2E2E2E2E2E2E2E2E2E2E2E2BEE2E2E2E2E2E2E2E2DCE2E22DE2E2E2E2F5E2E2E2E2E2E2BEBEE2E2E2BEE2E2E2E2E2BEBEE2BEE2E2E2E2F5E2E2E2E2E2E2E2E2E2BEE2E2E2E2E22DE2E2F5BEE2E2E2E2E2BEBEE2E2E2E2E2DCE2E2E2E2BEE2F5E2E2E2E2E2E2DCE2E2BEE2E2
310
E2E2E2E2E2E2E2E2E2E2E2E2E2E2E2E2E2E2E2E2E2E2E2E2E2E2E2E2E2E2E2E2E2E2E2E2E2E2E2E2E2E2E2E2E2E2E2E2E2E2E2E2E2E2E2E2E2E2E2E2E2E2E2E2E2E2E2E2E2E2E2E2E2E2E2E2E2E2E2E2E2E2E2E2E2E2E2E2E2E2E2E2E2E2E2E2E2E2E2E2E2E2E2E2E2E2E2E2E2E2E2E2E2E2E2E2E2E2E2E2E2E2E2E2E2E2E2
310
E2E2E2E2E2E2E2E2E2E2E2E2E2E2E2E2E2E2E2E2E2E2E2E2E2E2E2E2E2E2E2E2E2BEE2E2E2E2E2E2E2E2DCE2E22DE2E2E2E2F5E2E2E2E2E2E2BEBEE2E2E2BEE2E2E2E2E2BEBEE2BEE2E2E2E2F5E2E2E2E2E2E2E2E2BEE2E2E2E2E2E22DE2E2F5BEE2E2E2E2E2BEBEE2E2E2E2E2BEE2E2E2E2BEE2F5E2E2E2E2E2E2DCE2E2BE
310
E2E2E2E2E2E2E2E2E2E2E2E2E2E2E2E2E2E2E2E2E2E2E2E2E2E2E2E2E2E2E2E2E2E2E2E2E2E2E2E2E2E2E2E2E2E2E2E2E2E2E2E2E2E2E2E2E2E2E2E2E2E2E2E2E2E2E2E2E2E2E2E2E2E2E2E2E2E2E2E2E2E2E2E2E2E2E2E2E2E2E2E2E2E2E2E2E2E2E2E2E2E2E2E2E2E2E2E2E2E2E2E2E2E2E2E2E2E2E2E2E2E2E2E2E2E2E2
310
E2E2E2E2E2E2E2E2E2E2E2E2E2E2E2E2E2E2E2E2E2E2E2E2E2E2E2E2E2E2E2E2E2E2E2BEE2E2E2E2E2E2E2E2DCE2E22DE2E2E2E2F5E2E2E2E2E2E2BEBEE2E2E2BEE2E2E2E2E2BEBEE2BEE2E2E2E2F5E2E2E2E2E2E2E2E2BEE2E2E2E2E2E22DE2E2F5BEE2E2E2E2E2BEBEE2E2E2E2E2E2E2E2E2E2BEE2F5E2E2E2E2E2E2DCE2
310
E2BEE2E2E2E2E2E2E2E2E2E2E2E2E2E2E2E2E2E2E2E2E2E2E2E2E2E2E2E2E2E2E2E2E2E2E2E2E2E2E2E2E2E2E2E2E2E2E2E2E2E2E2E2E2E2E2E2E2E2E2E2E2E2E2E2E2E2E2E2E2E2E2E2E2E2E2E2E2E2E2E2E2E2E2E2E2E2E2E2E2E2E2E2E2E2E2E2E2E2E2E2E2E2E2E2E2E2E2E2E2E2E2E2E2E2E2E2E2E2E2E2E2E2E2E2E2
310
E2E2E2E2E2E2E2E2E2E2E2E2E2E2E2E2E2E2E2E2E2E2E2E2E2E2E2E2E2E2E2E2E2E2E2E2E2BEE2E2E2E2E2E2E2E2DCE2E22DE2E2E2E2F5E2E2E2E2E2E2BEBEE2E2E2BEE2E2E2E2E2BEBEE2BEE2E2E2E2F5E2E2E2E2E2E2E2BEE2E2E2E2E2E2E22DE2E2F5BEE2E2E2E2E2BEBEBEE2E2E2E2E2E2E2E2E2BEE2F5E2E2E2E2E2E2
310
DCE2E2BEE2E2E2E2E2E2E2E2E2E2E2E2E2E2E2E2E2E2E2E2E2E2E2E2E2E2E2E2E2E2E2E2E2E2E2E2E2E2E2E2E2E2E2E2E2E2E2E2E2E2E2E2E2E2E2E2E2E2E2E2E2E2E2E2E2E2E2E2E2E2E2E2E2E2E2E2E2E2E2E2E2E2E2E2E2E2E2E2E2E2E2E2E2E2E2E2E2E2E2E2E2E2E2E2E2E2E2E2E2E2E2E2E2E2E2E2E2E2E2E2E2E2E2
310
E2E2E2E2E2E2E2E2E2E2E2E2E2E2E2E2E2E2E2E2E2E2E2E2E2E2E2E2E2E2E2E2E2E2E2E2E2E2E2BEE2E2E2E2E2E2E2E2DCE2E22DE2E2E2E2F5E2E2E2E2E2E2BEBEBEBEBEBEBEBEBEBEBEBEBEE2BEE2E2E2E2F5E2E2E2E2E2E2BEE2E2E2E2E2E2E2E22DE2E2F5BEE2E2E2E2E2BEE2BEBEBEBEBEBEBEBEBEBEBEE2F5E2E2E2E2
310
E2E2DCE2E2BEE2E2E2E2E2E2E2E2E2E2E2E2E2E2E2E2E2E2E2E2E2E2E2E2E2E2E2E2E2E2E2E2E2E2E2E2E2E2E2E2E2E2E2E2E2E2E2E2E2E2E2E2E2E2E2E2E2E2E2E2E2E2E2E2E2E2E2E2E2E2E2E2E2E2E2E2E2E2E2E2E2E2E2E2E2E2E2E2E2E2E2E2E2E2E2E2E2E2E2E2E2E2E2E2E2E2E2E2E2E2E2E2E2E2E2E2E2E2E2E2E2
310
E2E2E2E2E2E2E2E2E2E2E2E2E2E2E2E2E2E2E2E2E2E2E2E2E2E2E2E2E2E2E2E2E2E2E2E2E2E2E2E2E2BEE2E2E2E2E2E2E2E2DCE2E22DE2E2E2E2F5E2E2E2E2E2E2BEE2E2E2BEBEBEBEBEBEE2BEE2E2BEE2E2E2E2F5E2E2E2E2E2BEBEE2E2E2E2E2E2E2E22DE2E2F5BEE2E2E2E2E2BEE2BEE2E2E2E2E2E2E2E2E2BEE2F5E2E2
310
E2E2E2E2DCE2E2BEE2E2E2E2E2E2E2E2E2E2E2E2E2E2E2E2E2E2E2E2E2E2E2E2E2E2E2E2E2E2E2E2E2E2E2E2E2E2E2E2E2E2E2E2E2E2E2E2E2E2E2E2E2E2E2E2E2E2E2E2E2E2E2E2E2E2E2E2E2E2E2E2E2E2E2E2E2E2E2E2E2E2E2E2E2E2E2E2E2E2E2E2E2E2E2E2E2E2E2E2E2E2E2E2E2E2E2E2E2E2E2E2E2E2E2E2E2E2E2
310
E2E2E2E2E2E2E2E2E2E2E2E2E2E2E2E2E2E2E2E2E2E2E2E2E2E2E2E2E2E2E2E2E2E2E2E2E2E2E2E2E2E2E2BEE2E2E2E2E2E2E2E2DCE2E22DE2E2E2E2F5E2E2E2E2E2E2BEE2E2E228BEBEBEBEE2E2BEE2E2BEE2E2E2E2F5E2E2E2BEBEE2E2E2E2E2E2E2E2E2E22DE2E2F5BEE2E2E2E2E2BEE2BEE2E2E2E2E2E2E2E2E2BEE2F5
310
E2E2E2E2E2E2DCE2E2BEE2E2E2E2E2E2E2E2E2E2E2E2E2E2E2E2E2E2E2E2E2E2E2E2E2E2E2E2E2E2E2E2E2E2E2E2E2E2E2E2E2E2E2E2E2E2E2E2E2E2E2E2E2E2E2E2E2E2E2E2E2E2E2E2E2E2E2E2E2E2E2E2E2E2E2E2E2E2E2E2E2E2E2E2E2E2E2E2E2E2E2E2E2E2E2E2E2E2E2E2E2E2E2E2E2E2E2E2E2E2E2E2E2E2E2E2E2
310
E2E2E2E2E2E2E2E2E2E2E2E2E2E2E2E2E2E2E2E2E2E2E2E2E2E2E2E2E2E2E2E2E2E2E2E2E2E2E2E2E2E2E2E2E2BEE2E2E2E2E2E2E2E2DCE2E22DE2E2E2E2F5E2E2E2E2E2E2BEE2E2E228BE28282828E2BEE2E2BEE2E2E2E2F5E2E2BEBEE2E2E2E2E2E2E2E2E2E2E22DE2E2F5BEE2E2E2E2E2BEE2BEBEBEBEBEBEBEBEBEBEBE
310
E228E2E2E2E2E2E2DCE2E2BEE2E2E2E2E2E2E2E2E2E2E2E2E2E2E2E2E2E2E2E2E2E2E2E2E2E2E2E2E2E2E2E2E2E2E2E2E2E2E2E2E2E2E2E2E2E2E2E2E2E2E2E2E2E2E2E2E2E2E2E2E2E2E2E2E2E2E2E2E2E2E2E2E2E2E2E2E2E2E2E2E2E2E2E2E2E2E2E2E2E2E2E2E2E2E2E2E2E2E2E2E2E2E2E2E2E2E2E2E2E2E2E2E2E2E2
310
E2E2E2E2E2E2E2E2E2E2E2E2E2E2E2E2E2E2E2E2E2E2E2E2E2E2E2E2E2E2E2E2E2E2E2E2E2E2E2E2E2E2E2E2E2E2E2BEE2E2E2E2E2E2E2E2DCE2BEBEE2E2E2E2F5E2E2E2E2E2E2BEE2E2E228BEE2E2E228E2BEE2E2BEE2E2E2E2BEBEBEE2E2E2E2E2E2E2E2E2E2E2E2E22DE2E2F5BEE2E2E2E2BEE2E2E2E2BEE2E2E2E2BEE2
310
E2F5E2F5E2E2E2E2E2E2DCE2E2BEE2E2E2E2E2E2E2E2E2E2E2E2E2E2E2E2E2E2E2E2E2E2E2E2E2E2E2E2E2E2E2E2E2E2E2E2E2E2E2E2E2E2E2E2E2E2E2E2E2E2E2E2E2E2E2E2E2E2E2E2E2E2E2E2E2E2E2E2E2E2E2E2E2E2E2E2E2E2E2E2E2E2E2E2E2E2E2E2E2E2E2E2E2E2E2E2E2E2E2E2E2E2E2E2E2E2E2E2E2E2E2E2E2
310
E2E2E2E2E2E2E2E2E2E2E2E2E2E2E2E2E2E2E2E2E2E2E2E2E2E2E2E2E2E2E2E2E2E2E2E2E2E2E2E2E2E2E2E2E2E2E2E2E2BEE2E2E2E2E2E2E2E2DCE2BE2DE2E2E2E2F5E2E2E2E2E2E2BEE2E2E228BE28282828E2BEE2E2BEBEBEBEBEBEE2E2E2E2E2E2E2E2E2E2E2E2E2E2E22DE2E2F5BEE2E2E2E2BEE2E2E2E2BEE2E2E2E2
310
BEE2E2F5E2F5E2E2E2E2E2E2DCE2E2BEE2E2E2E2E2E2E2E2E2E2E2E2E2E2E2E2E2E2E2E2E2E2E2E2E2E2E2E2E2E2E2E2E2E2E2E2E2E2E2E2E2E2E2E2E2E2E2E2E2E2E2E2E2E2E2E2E2E2E2E2E2E2E2E2E2E2E2E2E2E2E2E2E2E2E2E2E2E2E2E2E2E2E2E2E2E2E2E2E2E2E2E2E2E2E2E2E2E2E2E2E2E2E2E2E2E2E2E2E2E2E2
310
E2E2E2E2E2E2E2E2E2E2E2E2E2E2E2E2E2E2E2E2E2E2E2E2E2E2E2E2E2E2E2E2E2E2E2E2E2E2E2E2E2E2E2E2E2E2E2E2E2E2E2BEE2E2E2E2E2E2E2E2DCE2BEBEE2E2E2E2F5E2E2E2E2E2E2BEE2E2E228BE28282828E2BEE2E2BEE2E2E2E2F5E2E2E2E2E2E2E2E2E2E2E2E2E2E2E22DE2E2F5BEE2E2E2BEBEE2E2E2E2BEBEBE
310
BEBEBEE2E2F5E2F5E2E2E2E2E2E2DCE2E2BEE2E2E2E2E2E2E2E2E2E2E2E2E2E2E2E2E2E2E2E2E2E2E2E2E2E2E2E2E2E2E2E2E2E2E2E2E2E2E2E2E2E2E2E2E2E2E2E2E2E2E2E2E2E2E2E2E2E2E2E2E2E2E2E2E2E2E2E2E2E2E2E2E2E2E2E2E2E2E2E2E2E2E2E2E2E2E2E2E2E2E2E2E2E2E2E2E2E2E2E2E2E2E2E2E2E2E2E2E2
310
E2E2E2E2E2E2E2E2E2E2E2E2E2E2E2E2E2E2E2E2E2E2E2E2E2E2E2E2E2E2E2E2E2E2E2E2E2E2E2E2E2E2E2E2E2E2E2E2E2E2E2E2E2BEE2E2E2E2E2E2E2E2DCE2BEBEE2E2E2E2F5E2E2E2E2E2E2BE28282828BE2828282828BE28E2BEE2E2E2E2F5E2E2E2E2E2E2E2E2E2E2E2E2E2E2E22DE2E2F5BEE2E2E2BEE2BEBEBEBEBE
310
BEBEBEBEBEBEBEBEBEF5E2E2E2E2E2E2DCE2E2BEE2E2E2E2E2E2E2E2E2E2E2E2E2E2E2E2E2E2E2E2E2E2E2E2E2E2E2E2E2E2E2E2E2E2E2E2E2E2E2E2E2E2E2E2E2E2E2E2E2E2E2E2E2E2E2E2E2E2E2E2E2E2E2E2E2E2E2E2E2E2E2E2E2E2E2E2E2E2E2E2E2E2E2E2E2E2E2E2E2E2E2E2E2E2E2E2E2E2E2E2E2E2E2E2E2E2E2
310
E2E2E2E2E2E2E2E2E2E2E2E2E2E2E2E2E2E2E2E2E2E2E2E2E2E2E2E2E2E2E2E2E2E2E2E2E2E2E2E2E2E2E2E2E2E2E2E2E2E2E2E2E2E2E2BEE2E2E2E2E2E2E2E2DCE2E22DE2E2E2E2F5E2E2E2E2E2E2BEBEBEBEBEBEBEBEBEBEBEBEBEBEBEE2E2E2E2F5E2E2E2E2E2E2E2E2E2E2E2E2E2E2E22DE2E2F5BEBEBEBEBEBEE2E2E2
310
E2E2E2E2E2E2E2E2E2F5BEBEE2E2E2E2E2E2DCE2E2BEE2E2E2E2E2E2E2E2E2E2E2E2E2E2E2E2E2E2E2E2E2E2E2E2E2E2E2E2E2E2E2E2E2E2E2E2E2E2E2E2E2E2E2E2E2E2E2E2E2E2E2E2E2E2E2E2E2E2E2E2E2E2E2E2E2E2E2E2E2E2E2E2E2E2E2E2E2E2E2E2E2E2E2E2E2E2E2E2E2E2E2E2E2E2E2E2E2E2E2E2E2E2E2E2E2
310
E2E2E2E2E2E2E2E2E2E2E2E2E2E2E2E2E2E2E2E2E2E2E2E2E2E2E2E2E2E2E2E2E2E2E2E2E2E2E2E2E2E2E2E2E2E2E2E2E2E2E2E2E2E2E2E2E2BEE2E2E2E2E2E2E2E2DCE2E22DE2E2E2E2F5E2E2E2E2E2E228E2E2E2E2E2E2E2E2E2E2E2E2BEBEE2E2E2E2F5E2E2E2E2E2E2E2E2E2E2E2E2E2E2E22DE2E2F5BEBEBEBEBEE2E2
310
E2E2E2E2E2E2E2E2E2E2E2F5E2BEE2E2E2E2E2E2DCE2E2BEE2E2E2E2E2E2E2E2E2E2E2E2E2E2E2E2E2E2E2E2E2E2E2E2E2E2E2E2E2E2E2E2E2E2E2E2E2E2E2E2E2E2E2E2E2E2E2E2E2E2E2E2E2E2E2E2E2E2E2E2E2E2E2E2E2E2E2E2E2E2E2E2E2E2E2E2E2E2E2E2E2E2E2E2E2E2E2E2E2E2E2E2E2E2E2E2E2E2E2E2E2E2E2
310
E2E2E2E2E2E2E2E2E2E2E2E2E2E2E2E2E2E2E2E2E2E2E2E2E2E2E2E2E2E2E2E2E2E2E2E2E2E2E2E2E2E2E2E2E2E2E2E2E2E2E2E2E2E2E2E2E2E2E2BEE2E2E2E2E2E2E2E2DCE2E22DE2E2E2E2F5E2E2E2E2E2E228E2E2E2E2E2E2E2E2E2E2E2E228E2E2E2E2E2F5E2E2E2E2E2E2E2E2E2E2E2E2E2E2E22DE2E2F5BEE2E2E2BE
310
E2E2E2E2E2E2E2E2E2E2E2E2E2F5E2BEE2E2E2E2E2E2DCE2E2BEE2E2E2E2E2E2E2E2E2E2E2E2E2E2E2E2E2E2E2E2E2E2E2E2E2E2E2E2E2E2E2E2E2E2E2E2E2E2E2E2E2E2E2E2E2E2E2E2E2E2E2E2E2E2E2E2E2E2E2E2E2E2E2E2E2E2E2E2E2E2E2E2E2E2E2E2E2E2E2E2E2E2E2E2E2E2E2E2E2E2E2E2E2E2E2E2E2E2E2E2E2
310
E2E2E2E2E2E2E2E2E2E2E2E2E2E2E2E2E2E2E2E2E2E2E2E2E2E2E2E2E2E2E2E2E2E2E2E2E2E2E2E2E2E2E2E2E2E2E2E2E2E2E2E2E2E2E2E2E2E2E2E2E2BEE2E2E2E2E2E2E2E2DCE2E22DE2E2E2E2F5E2E2E2E2E2E228E2E2E2E2E2E2E2E2E2E2E2E228E2E2E2E2E2F5E2E2E2E2E2E2E2E2E2E2E2E2E2E2E22DE2E2F5BEE2E2
310
E2BEE2E2E2E2E2E2E2E2E2E2E2E2E2F5E2BEE2E2E2E2E2E2DCE2E2BEE2E2E2E2E2E2E2E2E2E2E2E2E2E2E2E2E2E2E2E2E2E2E2E2E2E2E2E2E2E2E2E2E2E2E2E2E2E2E2E2E2E2E2E2E2E2E2E2E2E2E2E2E2E2E2E2E2E2E2E2E2E2E2E2E2E2E2E2E2E2E2E2E2E2E2E2E2E2E2E2E2E2E2E2E2E2E2E2E2E2E2E2E2E2E2E2E2E2E2
310
E2E2E2E2E2E2E2E2E2E2E2E2E2E2E2E2E2E2E2E2E2E2E2E2E2E2E2E2E2E2E2E2E2E2E2E2E2E2E2E2E2E2E2E2E2E2E2E2E2E2E2E2E2E2E2E2E2E2E2E2E2E2E2BEE2E2E2E2E2E2E2E2DCE2E22DE2E2E2E2F5E2E2E2E2E2E228E2E2E2E2E2E2E2E2E2E2E2E228E2E2E2E2E2F5E2E2E2E2E2E2E2E2E2E2E2E2E2E2E22DE2E2F5BE
310
E2E2E2BEE2E2E2E2E2E2E2E2E2E2E2E2E2F5E2BEE2E2E2E2E2E2DCE2E2BEE2E2E2E2E2E2E2E2E2E2E2E2E2E2E2E2E2E2E2E2E2E2E2E2E2E2E2E2E2E2E2E2E2E2E2E2E2E2E2E2E2E2E2E2E2E2E2E2E2E2E2E2E2E2E2E2E2E2E2E2E2E2E2E2E2E2E2E2E2E2E2E2E2E2E2E2E2E2E2E2E2E2E2E2E2E2E2E2E2E2E2E2E2E2E2E2E2
310
E2E2E2E2E2E2E2E2E2E2E2E2E2E2E2E2E2E2E2E2E2E2E2E2E2E2E2E2E2E2E2E2E2E2E2E2E2E2E2E2E2E2E2E2E2E2E2E2E2E2E2E2E2E2E2E2E2E2E2E2E2E2E2E2E2BEE2E2E2E2E2E2E2E2DCE2E22DE2E2E2E2F5E2E2E2E2E2E228E2E2E2E2E2E2E2E2E2E2E2E228E2E2E2E2E2F5E2E2E2E2E2E2E2E2E2E2E2E2E2E2E22DE2E2
310
F5BEE2E2E2BEE2E2E2E2E2E2E2E2E2E2E2E2E2F5E2BEE2E2E2E2E2E2DCE2E2BEE2E2E2E2E2E2E2E2E2E2E2E2E2E2E2E2E2E2E2E2E2E2E2E2E2E2E2E2E2E2E2E2E2E2E2E2E2E2E2E2E2E2E2E2E2E2E2E2E2E2E2E2E2E2E2E2E2E2E2E2E2E2E2E2E2E2E2E2E2E2E2E2E2E2E2E2E2E2E2E2E2E2E2E2E2E2E2E2E2E2E2E2E2E2E2
310
E2E2E2E2E2E2E2E2E2E2E2E2E2E2E2E2E2E2E2E2E2E2E2E2E2E2E2E2E2E2E2E2E2E2E2E2E2E2E2E2E2E2E2E2E2E2E2E2E2E2E2E2E2E2E2E2E2E2E2E2E2E2E2E2E2E2E2BEE2E2E2E2E2E2E2E2DCE2E22DE2E2E2E2F5E2E2E2E2E2E228E2E2E2E2E2E2E2E2E2E2E2E228E2E2E2E2E2F5E2E2E2E2E2E2E2E2E2E2E2E2E2E2E22D
310
E2E2F5BEE2E2E2BEE2E2E2E2E2E2E2E2E2E2E2E2E2F5E2BEE2E2E2E2E2E2DCE2E2BEE2E2E2E2E2E2E2E2E2E2E2E2E2E2E2E2E2E2E2E2E2E2E2E2E2E2E2E2E2E2E2E2E2E2E2E2E2E2E2E2E2E2E2E2E2E2E2E2E2E2E2E2E2E2E2E2E2E2E2E2E2E2E2E2E2E2E2E2E2E2E2E2E2E2E2E2E2E2E2E2E2E2E2E2E2E2E2E2E2E2E2E2E2
310
E2E2E2E2E2E2E2E2E2E2E2E2E2E2E2E2E2E2E2E2E2E2E2E2E2E2E2E2E2E2E2E2E2E2E2E2E2E2E2E2E2E2E2E2E2E2E2E2E2E2E2E2E2E2E2E2E2E2E2E2E2E2E2E2E2E2E2E2E2BEE2E2E2E2E2E2E2E2DCE2E22DE2E2E2E2F5E2E2E2E2E2E228E2E2E2E2E2E2E2E2E2E2E2E228E2E2E2E2E2F5E2E2E2E2E2E2E2E2E2E2E2E2E2E2
310
E22DE2E2F5BEE2E2E2BEE2E2E2E2E2E2E2E2E2E2E2E2E2F5E2BEE2E2E2E2E2E2DCE2E2BEE2E2E2E2E2E2E2E2E2E2E2E2E2E2E2E2E2E2E2E2E2E2E2E2E2E2E2E2E2E2E2E2E2E2E2E2E2E2E2E2E2E2E2E2E2E2E2E2E2E2E2E2E2E2E2E2E2E2E2E2E2E2E2E2E2E2E2E2E2E2E2E2E2E2E2E2E2E2E2E2E2E2E2E2E2E2E2E2E2E2E2
310
E2E2E2E2E2E2E2E2E2E2E2E2E2E2E2E2E2E2E2E2E2E2E2E2E2E2E2E2E2E2E2E2E2E2E2E2E2E2E2E2E2E2E2E2E2E2E2E2E2E2E2E2E2E2E2E2E2E2E2E2E2E2E2E2E2E2E2E2E2E2E2BEE2E2E2E2E2E2E2E2DCE2E22DE2E2E2E2F5E2E2E2E2E2E228E2E2E2E2E2E2E2E2E2E2E2E228E2E2E2E2E2F5E2E2E2E2E2E2E2E2E2E2E2E2
310
E2E2E22DE2E2F5BEE2E2E2BEE2E2E2E2E2E2E2E2E2E2E2E2E2F5E2BEE2E2E2E2E2E2DCE2E2BEE2E2E2E2E2E2E2E2E2E2E2E2E2E2E2E2E2E2E2E2E2E2E2E2E2E2E2E2E2E2E2E2E2E2E2E2E2E2E2E2E2E2E2E2E2E2E2E2E2E2E2E2E2E2E2E2E2E2E2E2E2E2E2E2E2E2E2E2E2E2E2E2E2E2E2E2E2E2E2E2E2E2E2E2E2E2E2E2E2
310
E2E2E2E2E2E2E2E2E2E2E2E2E2E2E2E2E2E2E2E2E2E2E2E2E2E2E2E2E2E2E2E2E2E2E2E2E2E2E2E2E2E2E2E2E2E2E2E2E2E2E2E2E2E2E2E2E2E2E2E2E2E2E2E2E2E2E2E2E2E2E2E2E2BEE2E2E2E2E2E2E2E2DCE2E22DE2E2E2E2F5E2E2E2E2E2E228E2E2E2E2E2E2E2E2E2E2E2E228E2E2E2E2E2F5E2E2E2E2E2E2E2E2E2E2
310
E2E2E2E2BEBEE2E2F5BEE2E2E2BEE2E2E2E2E2E2E2E2E2E2E2E2E2F5E2BEE2E2E2E2E2E2DCE2E2BEE2E2E2E2E2E2E2E2E2E2E2E2E2E2E2E2E2E2E2E2E2E2E2E2E2E2E2E2E2E2E2E2E2E2E2E2E2E2E2E2E2E2E2E2E2E2E2E2E2E2E2E2E2E2E2E2E2E2E2E2E2E2E2E2E2E2E2E2E2E2E2E2E2E2E2E2E2E2E2E2E2E2E2E2E2E2E2
310
E2E2E2E2E2E2E2E2E2E2E2E2E2E2E2E2E2E2E2E2E2E2E2E2E2E2E2E2E2E2E2E2E2E2E2E2E2E2E2E2E2E2E2E2E2E2E2E2E2E2E2E2E2E2E2E2E2E2E2E2E2E2E2E2E2E2E2E2E2E2E2E2E2E2E2BEE2E2E2E2E2E2E2E2DCE2E22DE2E2E2E2F5E2E2E2E2E2E228E2E2E2E2E2E2E2E2E2E2E2E228E2E2E2E2E2F5E2E2E2E2E2E2E2E2
310
E2E2E2E2E2E2BEBEE2E2BEE2E2E2E2BEE2E2E2E2E2E2E2E2E2E2E2E2E2F5E2BEE2E2E2E2E2E2DCE2E2BEE2E2E2E2E2E2E2E2E2E2E2E2E2E2E2E2E2E2E2E2E2E2E2E2E2E2E2E2E2E2E2E2E2E2E2E2E2E2E2E2E2E2E2E2E2E2E2E2E2E2E2E2E2E2E2E2E2E2E2E2E2E2E2E2E2E2E2E2E2E2E2E2E2E2E2E2E2E2E2E2E2E2E2E2E2
310
E2E2E2E2E2E2E2E2E2E2E2E2E2E2E2E2E2E2E2E2E2E2E2E2E2E2E2E2E2E2E2E2E2E2E2E2E2E2E2E2E2E2E2E2E2E2E2E2E2E2E2E2E2E2E2E2E2E2E2E2E2E2E2E2E2E2E2E2E2E2E2E2E2E2E2E2E2BEE2E2E2E2E2E2E2E2DCE2E22DE2E2E2E2F5E2E2E2E2E2E228E2E2E2E2E2E2E2E2E2E2E2E228E2E2E2E2E2F5E2E2E2E2E2E2
310
E2E2E2E2E2E2E2E2BEBEE2E2F5E2E2E2E2BEE2E2E2E2E2E2E2E2E2E2E2E2E2F5E2BEE2E2E2E2E2E2DCE2E2BEE2E2E2E2E2E2E2E2E2E2E2E2E2E2E2E2E2E2E2E2E2E2E2E2E2E2E2E2E2E2E2E2E2E2E2E2E2E2E2E2E2E2E2E2E2E2E2E2E2E2E2E2E2E2E2E2E2E2E2E2E2E2E2E2E2E2E2E2E2E2E2E2E2E2E2E2E2E2E2E2E2E2E2
310
E2E2E2E2E2E2E2E2E2E2E2E2E2E2E2E2E2E2E2E2E2E2E2E2E2E2E2E2E2E2E2E2E2E2E2E2E2E2E2E2E2E2E2E2E2E2E2E2E2E2E2E2E2E2E2E2E2E2E2E2E2E2E2E2E2E2E2E2E2E2E2E2E2E2E2E2E2E2E2BEE2E2E2E2E2E2E2E2DCE2E22DE2E2E2E2F5E2E2E2E2E2E228E2E2E2E2E2E2E2E2E2E2E2E228E2E2E2E2E2F5E2E2E2E2
310
E2E2E2E2E2E2E2E2E2E2BEBEE2E2F5E2E2E2E2BEE2E2E2E2E2E2E2E2E2E2E2E2E2F5E2BEE2E2E2E2E2E2DCE2E2BEE2E2E2E2E2E2E2E2E2E2E2E2E2E2E2E2E2E2E2E2E2E2E2E2E2E2E2E2E2E2E2E2E2E2E2E2E2E2E2E2E2E2E2E2E2E2E2E2E2E2E2E2E2E2E2E2E2E2E2E2E2E2E2E2E2E2E2E2E2E2E2E2E2E2E2E2E2E2E2E2E2
310
E2E2E2E2E2E2E2E2E2E2E2E2E2E2E2E2E2E2E2E2E2E2E2E2E2E2E2E2E2E2E2E2E2E2E2E2E2E2E2E2E2E2E2E2E2E2E2E2E2E2E2E2E2E2E2E2E2E2E2E2E2E2E2E2E2E2E2E2E2E2E2E2E2E2E2E2E2E2E2E2E2BEE2E2E2E2E2E2E2E2DCE2E22DE2E2E2E2F5E2E2E2E2E2E228E2E2E2E2E2E2E2E2E2E2E2E228E2E2E2E2E2F5E2E2
310
E2E2E2E2E2E2E2E2E2E2E2E2E22DE2E2F5E2E2E2E2BEE2E2E2E2E2E2E2E2E2E2E2E2E2F5E2BEE2E2E2E2E2E2DCE2E2BEE2E2E2E2E2E2E2E2E2E2E2E2E2E2E2E2E2E2E2E2E2E2E2E2E2E2E2E2E2E2E2E2E2E2E2E2E2E2E2E2E2E2E2E2E2E2E2E2E2E2E2E2E2E2E2E2E2E2E2E2E2E2E2E2E2E2E2E2E2E2E2E2E2E2E2E2E2E2E2
310
E2E2E2E2E2E2E2E2E2E2E2E2E2E2E2E2E2E2E2E2E2E2E2E2E2E2E2E2E2E2E2E2E2E2E2E2E2E2E2E2E2E2E2E2E2E2E2E2E2E2E2E2E2E2E2E2E2E2E2E2E2E2E2E2E2E2E2E2E2E2E2E2E2E2E2E2E2E2E2E2E2E2E2BEE2E2E2E2E2E2E2E2DCE2E22DE2E2E2E2F5E2E2E2E2E2E228E2E2E2E2E2E2E2E2E2E2E2E228E2E2E2E2E2F5
310
E2E2E2E2E2E2E2E2E2E2E2E2E2E2E22DE2E2F5E2E2E2E2BEE2E2E2E2E2E2E2E2E2E2E2E2E2F5E2BEE2E2E2E2E2E2DCE2E2BEE2E2E2E2E2E2E2E2E2E2E2E2E2E2E2E2E2E2E2E2E2E2E2E2E2E2E2E2E2E2E2E2E2E2E2E2E2E2E2E2E2E2E2E2E2E2E2E2E2E2E2E2E2E2E2E2E2E2E2E2E2E2E2E2E2E2E2E2E2E2E2E2E2E2E2E2E2
310
E2E2E2E2E2E2E2E2E2E2E2E2E2E2E2E2E2E2E2E2E2E2E2E2E2E2E2E2E2E2E2E2E2E2E2E2E2E2E2E2E2E2E2E2E2E2E2E2E2E2E2E2E2E2E2E2E2E2E2E2E2E2E2E2E2E2E2E2E2E2E2E2E2E2E2E2E2E2E2E2E2E2E2E2E2BEE2E2E2E2E2E2E2E2DCE2E22DE2E2E2E2F5E2E2E2E2E2E228E2E2E2E2E2E2E2E2E2E2E2E228E2E2E2E2
310
E2F5E2E2E2E2E2E2E2E2E2E2E2E2E2E2E22DE2E2F5E2E2E2E2BEE2E2E2E2E2E2E2E2E2E2E2E2E2F5E2BEE2E2E2E2E2E2DCE2E2BEE2E2E2E2E2E2E2E2E2E2E2E2E2E2E2E2E2E2E2E2E2E2E2E2E2E2E2E2E2E2E2E2E2E2E2E2E2E2E2E2E2E2E2E2E2E2E2E2E2E2E2E2E2E2E2E2E2E2E2E2E2E2E2E2E2E2E2E2E2E2E2E2E2E2E2
310
E2E2E2E2E2E2E2E2E2E2E2E2E2E2E2E2E2E2E2E2E2E2E2E2E2E2E2E2E2E2E2E2E2E2E2E2E2E2E2E2E2E2E2E2E2E2E2E2E2E2E2E2E2E2E2E2E2E2E2E2E2E2E2E2E2E2E2E2E2E2E2E2E2E2E2E2E2E2E2E2E2E2E2E2E2E2E2BEE2E2E2E2E2E2E2E2DCE2E22DE2E2E2E2F5E2E2E2E2E2E228E2E2E2E2E2E2E2E2E2E2E2E228E2E2
310
E2E2E2F5E2E2E2E2E2E2E2E2E2E2E2E2E2E2E22DE2E2F5E2E2E2E2BEE2E2E2E2E2E2E2E2E2E2E2E2E2F5E2BEE2E2E2E2E2E2DCE2E2BEE2E2E2E2E2E2E2E2E2E2E2E2E2E2E2E2E2E2E2E2E2E2E2E2E2E2E2E2E2E2E2E2E2E2E2E2E2E2E2E2E2E2E2E2E2E2E2E2E2E2E2E2E2E2E2E2E2E2E2E2E2E2E2E2E2E2E2E2E2E2E2E2E2
310
E2E2E2E2E2E2E2E2E2E2E2E2E2E2E2E2E2E2E2E2E2E2E2E2E2E2E2E2E2E2E2E2E2E2E2E2E2E2E2E2E2E2E2E2E2E2E2E2E2E2E2E2E2E2E2E2E2E2E2E2E2E2E2E2E2E2E2E2E2E2E2E2E2E2E2E2E2E2E2E2E2E2E2E2E2E2E2E2E2BEE2E2E2E2E2E2E2E2DCE2E22DE2E2E2E2F5E2E2E2E2E2E228E2E2E2E2E2E2E2E2E2E2E2E228
310
E2E2E2E2E2F5E2E2E2E2E2E2E2E2E2E2E2E2E2E2E22DE2E2F5E2E2E2E2BEE2E2E2E2E2E2E2E2E2E2E2E2E2F5E2BEE2E2E2E2E2E2DCE2E2BEE2E2E2E2E2E2E2E2E2E2E2E2E2E2E2E2E2E2E2E2E2E2E2E2E2E2E2E2E2E2E2E2E2E2E2E2E2E2E2E2E2E2E2E2E2E2E2E2E2E2E2E2E2E2E2E2E2E2E2E2E2E2E2E2E2E2E2E2E2E2E2
310
E2E2E2E2E2E2E2E2E2E2E2E2E2E2E2E2E2E2E2E2E2E2E2E2E2E2E2E2E2E2E2E2E2E2E2E2E2E2E2E2E2E2E2E2E2E2E2E2E2E2E2E2E2E2E2E2E2E2E2E2E2E2E2E2E2E2E2E2E2E2E2E2E2E2E2E2E2E2E2E2E2E2E2E2E2E2E2E2E2E2E2BEE2E2E2E2E2E2E2E2DCE2E22DE2E2E2E2F5E2E2E2E2E2E228E2E2E2E2E2E2E2E2E2E2E2
310
E228E2E2E2E2E2F5E2E2E2E2E2E2E2E2E2E2E2E2E2E2E22DE2E2F5E2E2E2E2BEE2E2E2E2E2E2E2E2E2E2E2E2E2F5E2BEE2E2E2E2E2E2DCE2E2BEE2E2E2E2E2E2E2E2E2E2E2E2E2E2E2E2E2E2E2E2E2E2E2E2E2E2E2E2E2E2E2E2E2E2E2E2E2E2E2E2E2E2E2E2E2E2E2E2E2E2E2E2E2E2E2E2E2E2E2E2E2E2E2E2E2E2E2E2E2
310
E2E2E2E2E2E2E2E2E2E2E2E2E2E2E2E2E2E2E2E2E2E2E2E2E2E2E2E2E2E2E2E2E2E2E2E2E2E2E2E2E2E2E2E2E2E2E2E2E2E2E2E2E2E2E2E2E2E2E2E2E2E2E2E2E2E2E2E2E2E2E2E2E2E2E2E2E2E2E2E2E2E2E2E2E2E2E2E2E2E2E2E2E2BEE2E2E2E2E2E2E2E2DCE2E22DE2E2E2E2F5E2E2E2E2E2E228E2E2E2E2E2E2E2E2E2
310
E2E2E228E2E2E2E2E2F5E2E2E2E2E2E2E2E2E2E2E2E2E2E2E22DE2E2F5E2E2E2E2BEE2E2E2E2E2E2E2E2E2E2E2E2E2F5E2BEE2E2E2E2E2E2DCE2E2BEE2E2E2E2E2E2E2E2E2E2E2E2E2E2E2E2E2E2E2E2E2E2E2E2E2E2E2E2E2E2E2E2E2E2E2E2E2E2E2E2E2E2E2E2E2E2E2E2E2E2E2E2E2E2E2E2E2E2E2E2E2E2E2E2E2E2E2
310
E2E2E2E2E2E2E2E2E2E2E2E2E2E2E2E2E2E2E2E2E2E2E2E2E2E2E2E2E2E2E2E2E2E2E2E2E2E2E2E2E2E2E2E2E2E2E2E2E2E2E2E2E2E2E2E2E2E2E2E2E2E2E2E2E2E2E2E2E2E2E2E2E2E2E2E2E2E2E2E2E2E2E2E2E2E2E2E2E2E2E2E2E2E2E2BEE2E2E2E2E2E2E2E2DCE2E22DE2E2E2E2F5E2E2E2E2E2E228E2E2E2E2E2E2E2
310
E2E2E2E2E228E2E2E2E2E2F5E2E2E2E2E2E2E2E2E2E2E2E2E2E2E22DE2E2F5E2E2E2E2BEE2E2E2E2E2E2E2E2E2E2E2E2E2F5E2BEE2E2E2E2E2E2DCE2E2BEE2E2E2E2E2E2E2E2E2E2E2E2E2E2E2E2E2E2E2E2E2E2E2E2E2E2E2E2E2E2E2E2E2E2E2E2E2E2E2E2E2E2E2E2E2E2E2E2E2E2E2E2E2E2E2E2E2E2E2E2E2E2E2E2E2
310
E2E2E2E2E2E2E2E2E2E2E2E2E2E2E2E2E2E2E2E2E2E2E2E2E2E2E2E2E2E2E2E2E2E2E2E2E2E2E2E2E2E2E2E2E2E2E2E2E2E2E2E2E2E2E2E2E2E2E2E2E2E2E2E2E2E2E2E2E2E2E2E2E2E2E2E2E2E2E2E2E2E2E2E2E2E2E2E2E2E2E2E2E2E2E2E2E2BEE2E2E2E2E2E2E2E2DCE2E22DE2E2E2E2F5E2E2E2E2E2E228E2E2E2E2E2
310
E2E2E2E2E2E2E228E2E2E2E2E2F5E2E2E2E2E2E2E2E2E2E2E2E2E2E2E22DE2E2F5E2E2E2E2BEE2E2E2E2E2E2E2E2E2E2E2E2E2F5E2BEE2E2E2E2E2E2DCE2E2BEE2E2E2E2E2E2E2E2E2E2E2E2E2E2E2E2E2E2E2E2E2E2E2E2E2E2E2E2E2E2E2E2E2E2E2E2E2E2E2E2E2E2E2E2E2E2E2E2E2E2E2E2E2E2E2E2E2E2E2E2E2E2E2
310
E2E2E2E2E2E2E2E2E2E2E2E2E2E2E2E2E2E2E2E2E2E2E2E2E2E2E2E2E2E2E2E2E2E2E2E2E2E2E2E2E2E2E2E2E2E2E2E2E2E2E2E2E2E2E2E2E2E2E2E2E2E2E2E2E2E2E2E2E2E2E2E2E2E2E2E2E2E2E2E2E2E2E2E2E2E2E2E2E2E2E2E2E2E2E2E2E2E2E2BEE2E2E2E2E2E2E2E2DCE2E22DE2E2E2E2F5E2E2E2E2E2E228E2E2E2
310
E2E2E2E2E2E2E2E2E228E2E2E2E2E2F5E2E2E2E2E2E2E2E2E2E2E2E2E2E2E22DE2E2F5E2E2E2E2BEE2E2E2E2E2E2E2E2E2E2E2E2E2F5E2BEE2E2E2E2E2E2DCE2E2BEE2E2E2E2E2E2E2E2E2E2E2E2E2E2E2E2E2E2E2E2E2E2E2E2E2E2E2E2E2E2E2E2E2E2E2E2E2E2E2E2E2E2E2E2E2E2E2E2E2E2E2E2E2E2E2E2E2E2E2E2E2
310
E2E2E2E2E2E2E2E2E2E2E2E2E2E2E2E2E2E2E2E2E2E2E2E2E2E2E2E2E2E2E2E2E2E2E2E2E2E2E2E2E2E2E2E2E2E2E2E2E2E2E2E2E2E2E2E2E2E2E2E2E2E2E2E2E2E2E2E2E2E2E2E2E2E2E2E2E2E2E2E2E2E2E2E2E2E2E2E2E2E2E2E2E2E2E2E2E2E2E2E2E2BEE2E2E2E2E2E2E2E2DCE2E22DE2E2E2E2F5E2E2E2E2E2E228E2
310
E2E2E2E2E2E2E2E2E2E2E228E2E2E2E2E2F5E2E2E2E2E2E2E2E2E2E2E2E2E2E2E22DE2E2F5E2E2E2E2BEE2E2E2E2E2E2E2E2E2E2E2E2E2F5E2BEE2E2E2E2E2E2DCE2E2BEE2E2E2E2E2E2E2E2E2E2E2E2E2E2E2E2E2E2E2E2E2E2E2E2E2E2E2E2E2E2E2E2E2E2E2E2E2E2E2E2E2E2E2E2E2E2E2E2E2E2E2E2E2E2E2E2E2E2E2
310
E2E2E2E2E2E2E2E2E2E2E2E2E2E2E2E2E2E2E2E2E2E2E2E2E2E2E2E2E2E2E2E2E2E2E2E2E2E2E2E2E2E2E2E2E2E2E2E2E2E2E2E2E2E2E2E2E2E2E2E2E2E2E2E2E2E2E2E2E2E2E2E2E2E2E2E2E2E2E2E2E2E2E2E2E2E2E2E2E2E2E2E2E2E2E2E2E2E2E2E2E2E2E2BEE2E2E2E2E2E2E2E2DCE2E22DE2E2E2E2F5E2E2E2E2E2E2
310
28E2E2E2E2E2E2E2E2E2E2E2E228E2E2E2E2E2F5E2E2E2E2E2E2E2E2E2E2E2E2E2E2E22DE2E2F5E2E2E2E2BEE2E2E2E2E2E2E2E2E2E2E2E2E2F5E2BEE2E2E2E2E2E2DCE2E2BEE2E2E2E2E2E2E2E2E2E2E2E2E2E2E2E2E2E2E2E2E2E2E2E2E2E2E2E2E2E2E2E2E2E2E2E2E2E2E2E2E2E2E2E2E2E2E2E2E2E2E2E2E2E2E2E2E2
310
E2E2E2E2E2E2E2E2E2E2E2E2E2E2E2E2E2E2E2E2E2E2E2E2E2E2E2E2E2E2E2E2E2E2E2E2E2E2E2E2E2E2E2E2E2E2E2E2E2E2E2E2E2E2E2E2E2E2E2E2E2E2E2E2E2E2E2E2E2E2E2E2E2E2E2E2E2E2E2E2E2E2E2E2E2E2E2E2E2E2E2E2E2E2E2E2E2E2E2E2E2E2E2E2E2BEE2E2E2E2E2E2E2E2DCE2E22DE2E2E2E2F5E2E2E2E2
310
E2E228E2E2E2E2E2E2E2E2E2E22828E2E2E2E2E2E2F5E2E2E2E2E2E2E2E2E2E2E2E2E2E2E22DE2E2F5E2E2E2E2BEBEBEBEBEBEBEBEBEBEBEBEBEBEBEBEBEE2E2E2E2E2E2DCE2E2BEE2E2E2E2E2E2E2E2E2E2E2E2E2E2E2E2E2E2E2E2E2E2E2E2E2E2E2E2E2E2E2E2E2E2E2E2E2E2E2E2E2E2E2E2E2E2E2E2E2E2E2E2E2E2E2
310
E2E2E2E2E2E2E2E2E2E2E2E2E2E2E2E2E2E2E2E2E2E2E2E2E2E2E2E2E2E2E2E2E2E2E2E2E2E2E2E2E2E2E2E2E2E2E2E2E2E2E2E2E2E2E2E2E2E2E2E2E2E2E2E2E2E2E2E2E2E2E2E2E2E2E2E2E2E2E2E2E2E2E2E2E2E2E2E2E2E2E2E2E2E2E2E2E2E2E2E2E2E2E2E2E2E2E2BEE2E2E2E2E2E2E2E2DCE2E22DE2E2E2E2F5E2E2
310
E2E2E2E228E2E2E2E2E2E2E2E2E22828E2E2E2E2E2E2E2F5E2E2E2E2E2E2E2E2E2E2E2E2E2E2E22DE2E2F5E2E2E2E2BEBEBEBEBEBEBEBEBEBEBEBEBEBEBEBEBEE2E2E2E2E2E2DCE2E2BEE2E2E2E2E2E2E2E2E2E2E2E2E2E2E2E2E2E2E2E2E2E2E2E2E2E2E2E2E2E2E2E2E2E2E2E2E2E2E2E2E2E2E2E2E2E2E2E2E2E2E2E2E2
310
E2E2E2E2E2E2E2E2E2E2E2E2E2E2E2E2E2E2E2E2E2E2E2E2E2E2E2E2E2E2E2E2E2E2E2E2E2E2E2E2E2E2E2E2E2E2E2E2E2E2E2E2E2E2E2E2E2E2E2E2E2E2E2E2E2E2E2E2E2E2E2E2E2E2E2E2E2E2E2E2E2E2E2E2E2E2E2E2E2E2E2E2E2E2E2E2E2E2E2E2E2E2E2E2E2E2E2E2E2BEE2E2E2E2E2E2E2E2DCE2E22DE2E2E2E2F5
310
E2E2E2E2E2E228E2E2E2E2E2E2E2E2E228E2E2E2E2E2E2E2E2F5E2E2E2E2E2E2E2E2E2E2E2E2E2E2E22DE2E22DE2E2E2E2BEE2E2E2E2E2E2E2E22DE2E2E2E2F5E2BEE2E2E2E2E2E2DCE2E2BEE2E2E2E2E2E2E2E2E2E2E2E2E2E2E2E2E2E2E2E2E2E2E2E2E2E2E2E2E2E2E2E2E2E2E2E2E2E2E2E2E2E2E2E2E2E2E2E2E2E2E2
310
E2E2E2E2E2E2E2E2E2E2E2E2E2E2E2E2E2E2E2E2E2E2E2E2E2E2E2E2E2E2E2E2E2E2E2E2E2E2E2E2E2E2E2E2E2E2E2E2E2E2E2E2E2E2E2E2E2E2E2E2E2E2E2E2E2E2E2E2E2E2E2E2E2E2E2E2E2E2E2E2E2E2E2E2E2E2E2E2E2E2E2E2E2E2E2E2E2E2E2E2E2E2E2E2E2E2E2E2E2E2E2BEE2E2E2E2E2E2E2E2DCE2E22DE2E2E2
310
E2F5E2E2E2E2E2E228E2E2E2E2E2E2E2E2E228E2E2E2E2E2E2E2E2F5E2E2E2E2E2E2E2E2E2E2E2E2E2E2E22DE2E22D2D2D2D2D2DBEBEBE2D2D2D2D2DF5E2E2E2E2F5E2BEE2E2E2E2E2E2DCE2E2BEE2E2E2E2E2E2E2E2E2E2E2E2E2E2E2E2E2E2E2E2E2E2E2E2E2E2E2E2E2E2E2E2E2E2E2E2E2E2E2E2E2E2E2E2E2E2E2E2E2
310
E2E2E2E2E2E2E2E2E2E2E2E2E2E2E2E2E2E2E2E2E2E2E2E2E2E2E2E2E2E2E2E2E2E2E2E2E2E2E2E2E2E2E2E2E2E2E2E2E2E2E2E2E2E2E2E2E2E2E2E2E2E2E2E2E2E2E2E2E2E2E2E2E2E2E2E2E2E2E2E2E2E2E2E2E2E2E2E2E2E2E2E2E2E2E2E2E2E2E2E2E2E2E2E2E2E2E2E2E2E2E2E2E2BEE2E2E2E2E2E2E2E2DCE2E22DE2
310
E2E2E2F5E2E2E2E2E2E228E2E2E2E2E2E2E2E2E228E2E2E2E2E2E2E2E2F5E2E2E2E2E2E2E2E2E2E2E2E2E2E2E22DE2E22DE2E2E2E2BEBEBEBEE2E2E2E2E22DE2E2E2E2F5BEBEE2E2E2E2E2E2DCE2E2BEE2E2E2E2E2E2E2E2E2E2E2E2E2E2E2E2E2E2E2E2E2E2E2E2E2E2E2E2E2E2E2E2E2E2E2E2E2E2E2E2E2E2E2E2E2E2E2
310
E2E2E2E2E2E2E2E2E2E2E2E2E2E2E2E2E2E2E2E2E2E2E2E2E2E2E2E2E2E2E2E2E2E2E2E2E2E2E2E2E2E2E2E2E2E2E2E2E2E2E2E2E2E2E2E2E2E2E2E2E2E2E2E2E2E2E2E2E2E2E2E2E2E2E2E2E2E2E2E2E2E2E2E2E2E2E2E2E2E2E2E2E2E2E2E2E2E2E2E2E2E2E2E2E2E2E2E2E2E2E2E2E2E2E2BEE2E2E2E2E2E2E2E2DCE2E2
310
2DE2E2E2E2F5E2E2E2E2E2E2282828282828BE28282828E2E2E2E2E2E2E2E2F5E2E2E2E2E2E2E2E2E2E2E2E2E2E2E22DE2E22DE2E2E2E2E2BEBEBEBEBEBEBEBE2DBEBEBEBEBEBEF5E2E2E2E2E2E2DCE2E2BEE2E2E2E2E2E2E2E2E2E2E2E2E2E2E2E2E2E2E2E2E2E2E2E2E2E2E2E2E2E2E2E2E2E2E2E2E2E2E2E2E2E2E2E2E2
310
E2E2E2E2E2E2E2E2E2E2E2E2E2E2E2E2E2E2E2E2E2E2E2E2E2E2E2E2E2E2E2E2E2E2E2E2E2E2E2E2E2E2E2E2E2E2E2E2E2E2E2E2E2E2E2E2E2E2E2E2E2E2E2E2E2E2E2E2E2E2E2E2E2E2E2E2E2E2E2E2E2E2E2E2E2E2E2E2E2E2E2E2E2E2E2E2E2E2E2E2E2E2E2E2E2E2E2E2E2E2E2E2E2E2E2E2E2BEE2E2E2E2E2E2E2E2DC
310
E2E22DE2E2E2E2F5E2E2E2E2E2E2E2E2E2E2E2F5F5F5F5E2E2E2E2E2E2E2E2E2E2F5E2E2E2E2E2E2E2E2E2E2E2E2E2E2E22DE2E22DE2E2E2E2E2E2E2E2E2E2E2E2E2F5E2E2E2E2F5E2F5F5E2E2E2E2E2DCE2E2BEE2E2E2E2E2E2E2E2E2E2E2E2E2E2E2E2E2E2E2E2E2E2E2E2E2E2E2E2E2E2E2E2E2E2E2E2E2E2E2E2E2E2E2
310
E2E2E2E2E2E2E2E2E2E2E2E2E2E2E2E2E2E2E2E2E2E2E2E2E2E2E2E2E2E2E2E2E2E2E2E2E2E2E2E2E2E2E2E2E2E2E2E2E2E2E2E2E2E2E2E2E2E2E2E2E2E2E2E2E2E2E2E2E2E2E2E2E2E2E2E2E2E2E2E2E2E2E2E2E2E2E2E2E2E2E2E2E2E2E2E2E2E2E2E2E2E2E2E2E2E2E2E2E2E2E2E2E2E2E2E2E2E2E2BEE2E2E2E2E2E2E2
310
E2DCE2E22DE2E2E2E2F5E2E2E2E2E2E2E2E2E2E2E2F5F5F5BEE2E2E2E2E2E2E2E2E2E2F5E2E2E2E2E2E2E2E2E2E2E2E2E2E2E22DE2E22DE2E2E2E2E2E2E2E2E2E2E2E2E2BEE2E2E2E2F5E2F5F5E2E2E2E2E2DCE2E2BEE2E2E2E2E2E2E2E2E2E2E2E2E2E2E2E2E2E2E2E2E2E2E2E2E2E2E2E2E2E2E2E2E2E2E2E2E2E2E2E2E2
310
E2E2E2E2E2E2E2E2E2E2E2E2E2E2E2E2E2E2E2E2E2E2E2E2E2E2E2E2E2E2E2E2E2E2E2E2E2E2E2E2E2E2E2E2E2E2E2E2E2E2E2E2E2E2E2E2E2E2E2E2E2E2E2E2E2E2E2E2E2E2E2E2E2E2E2E2E2E2E2E2E2E2E2E2E2E2E2E2E2E2E2E2E2E2E2E2E2E2E2E2E2E2E2E2E2E2E2E2E2E2E2E2E2E2E2E2E2E2E2E2E2BEE2E2E2E2E2
310
E2E2E2DCE2E22DE2E2E2E2F5E2E2E2E2E2E2E2E2E2E2E2F5F5F5F5E2E2E2E2E2E2E2E2E2E2F5E2E2E2E2E2E2E2E2E2E2E2E2E2E2E22D2D2DF52D2D2D2D2D2D2D2D2D2D2DF5F5F5BEE2E2E2F5E2F5F5E2E2E2E2E2DCE2E2BEE2E2E2E2E2E2E2E2E2E2E2E2E2E2E2E2E2E2E2E2E2E2E2E2E2E2E2E2E2E2E2E2E2E2E2E2E2E2E2
310
E2E2E2E2E2E2E2E2E2E2E2E2E2E2E2E2E2E2E2E2E2E2E2E2E2E2E2E2E2E2E2E2E2E2E2E2E2E2E2E2E2E2E2E2E2E2E2E2E2E2E2E2E2E2E2E2E2E2E2E2E2E2E2E2E2E2E2E2E2E2E2E2E2E2E2E2E2E2E2E2E2E2E2E2E2E2E2E2E2E2E2E2E2E2E2E2E2E2E2E2E2E2E2E2E2E2E2E2E2E2E2E2E2E2E2E2E2E2E2E2E2E2E2BEE2E2E2
310
E2E2E2E2E2DCE2E22DE2E2E2E2F5E2E2E2E2E2E2E2E2E2E2E2E2BEE2E2E2E2E2E2E2E2E2E2E2E2F5E2E2E2E2E2E2E2E2E2E2E2E2E2E2BEBEE2E2F5E2E2E2E2E2E2E2E2E2E2E22D2D2D2DE2E2E2F5E2F5E2E2E2E2E2E2DCE2E2BEE2E2E2E2E2E2E2E2E2E2E2E2E2E2E2E2E2E2E2E2E2E2E2E2E2E2E2E2E2E2E2E2E2E2E2E2E2
310
E2E2E2E2E2E2E2E2E2E2E2E2E2E2E2E2E2E2E2E2E2E2E2E2E2E2E2E2E2E2E2E2E2E2E2E2E2E2E2E2E2E2E2E2E2E2E2E2E2E2E2E2E2E2E2E2E2E2E2E2E2E2E2E2E2E2E2E2E2E2E2E2E2E2E2E2E2E2E2E2E2E2E2E2E2E2E2E2E2E2E2E2E2E2E2E2E2E2E2E2E2E2E2E2E2E2E2E2E2E2E2E2E2E2E2E2E2E2E2E2E2E2E2E2E2BEE2
310
E2E2E2E2E2E2E2DCE2E22DE2E2E2E2F5E2E2E2E2E2E2E2E2E2E2E2E2E2E2E2E2E2E2E2E2E2E2E2E2E2F5E2E2E2E2E2E2E2E2E2E2E2E2E2E2BEBEE2E2F5E2E2E2E2E2E2E2E2E2E2BE2D2DF52D2D2DE2F5E2F5E2E2E2E2E2E2DCE2E2BEE2E2E2E2E2E2E2E2E2E2E2E2E2E2E2E2E2E2E2E2E2E2E2E2E2E2E2E2E2E2E2E2E2E2E2
310
E2E2E2E2E2E2E2E2E2E2E2E2E2E2E2E2E2E2E2E2E2E2E2E2E2E2E2E2E2E2E2E2E2E2E2E2E2E2E2E2E2E2E2E2E2E2E2E2E2E2E2E2E2E2E2E2E2E2E2E2E2E2E2E2E2E2E2E2E2E2E2E2E2E2E2E2E2E2E2E2E2E2E2E2E2E2E2E2E2E2E2E2E2E2E2E2E2E2E2E2E2E2E2E2E2E2E2E2E2E2E2E2E2E2E2E2E2E2E2E2E2E2E2E2E2E2E2
310
BEE2E2E2E2E2E2E2E2DCE2E22DE2E2E2E2F5F5F5F5F5F5F5F5F5F5F5F5F5F5F5F5F5F5F5F5F5F5F5F5F5F5F5E2E2E2E2E2E2E2E2E2E2E2E2E2E2E2BEE2E2F5E2E2E2E2E2E2E2E2E2E2BEBEE2E2E2E2E2E2F5F5F5E2E2E2E2E2E2DCE2E2BEE2E2E2E2E2E2E2E2E2E2E2E2E2E2E2E2E2E2E2E2E2E2E2E2E2E2E2E2E2E2E2E2E2
310
E2E2E2E2E2E2E2E2E2E2E2E2E2E2E2E2E2E2E2E2E2E2E2E2E2E2E2E2E2E2E2E2E2E2E2E2E2E2E2E2E2E2E2E2E2E2E2E2E2E2E2E2E2E2E2E2E2E2E2E2E2E2E2E2E2E2E2E2E2E2E2E2E2E2E2E2E2E2E2E2E2E2E2E2E2E2E2E2E2E2E2E2E2E2E2E2E2E2E2E2E2E2E2E2E2E2E2E2E2E2E2E2E2E2E2E2E2E2E2E2E2E2E2E2E2E2E2
310
E2E2BEE2E2E2E2E2E2E2E2DCE2E2F52D2D2D2DF5F5F5F5F5F5F5F5F5F5F5F5F5F5F5F5F5F5F5F5F5F5F5F5F5F5F5E2E2E2E2E2E2E2E2E2E2E2E2E2E2E22D2D2DF5F5F5F5F5F5F5F5F5F5F5F5F5F5F5F5F5F5F5F5E2E2E2E2E2E2E2E2DCE2E2BEE2E2E2E2E2E2E2E2E2E2E2E2E2E2E2E2E2E2E2E2E2E2E2E2E2E2E2E2E2E2E2
310
E2E2E2E2E2E2E2E2E2E2E2E2E2E2E2E2E2E2E2E2E2E2E2E2E2E2E2E2E2E2E2E2E2E2E2E2E2E2E2E2E2E2E2E2E2E2E2E2E2E2E2E2E2E2E2E2E2E2E2E2E2E2E2E2E2E2E2E2E2E2E2E2E2E2E2E2E2E2E2E2E2E2E2E2E2E2E2E2E2E2E2E2E2E2E2E2E2E2E2E2E2E2E2E2E2E2E2E2E2E2E2E2E2E2E2E2E2E2E2E2E2E2E2E2E2E2E2
310
E2E2E2E2BEE2E2E2E2E2E2E2E2DCDCDCDCDCDCDCDCDCDCDCDCDCDCDCDCDCDCDCDCDCDCDCDCDCDCDCDCDCDCDCDCDCDCDCDCDCDCDCDCDCDCDCDCDCDCDCDCDCDCDCDCDCDCDCDCDCDCDCDCDCDCDCDCDCDCDCDCDCDCDCDCDCDCDCDCDCDCDCDCDCDCE2E2BEE2E2E2E2E2E2E2E2E2E2E2E2E2E2E2E2E2E2E2E2E2E2E2E2E2E2E2E2E2
310
E2E2E2E2E2E2E2E2E2E2E2E2E2E2E2E2E2E2E2E2E2E2E2E2E2E2E2E2E2E2E2E2E2E2E2E2E2E2E2E2E2E2E2E2E2E2E2E2E2E2E2E2E2E2E2E2E2E2E2E2E2E2E2E2E2E2E2E2E2E2E2E2E2E2E2E2E2E2E2E2E2E2E2E2E2E2E2E2E2E2E2E2E2E2E2E2E2E2E2E2E2E2E2E2E2E2E2E2E2E2E2E2E2E2E2E2E2E2E2E2E2E2E2E2E2E2E2
310
E2E2E2E2E2E2BEE2E2E2E2E2E2E2E2E2E2E2E2E2E2E2E2E2E2E2E2E2E2E2E2E2E2E2E2E2E2E2E2E2E2E2E2E2E2E2E2E2E2E2E2E2E2E2E2E2E2E2E2E2E2E2E2E2E2E2E2E2E2E2E2E2E2E2E2E2E2E2E2E2E2E2E2E2E2E2E2E2E2E2E2E2E2E2E2E2E2E2E2BEE2E2E2E2E2E2E2E2E2E2E2E2E2E2E2E2E2E2E2E2E2E2E2E2E2E2E2
310
E2E2E2E2E2E2E2E2E2E2E2E2E2E2E2E2E2E2E2E2E2E2E2E2E2E2E2E2E2E2E2E2E2E2E2E2E2E2E2E2E2E2E2E2E2E2E2E2E2E2E2E2E2E2E2E2E2E2E2E2E2E2E2E2E2E2E2E2E2E2E2E2E2E2E2E2E2E2E2E2E2E2E2E2E2E2E2E2E2E2E2E2E2E2E2E2E2E2E2E2E2E2E2E2E2E2E2E2E2E2E2E2E2E2E2E2E2E2E2E2E2E2E2E2E2E2E2
310
E2E2E2E2E2E2E2E2BEBEBEBEBEBEBEBEBEBEBEBEBEBEBEBEBEBEBEBEBEBEBEBEBEBEBEBEBEBEBEBEBEBEBEBEBEBEBEBEBEBEBEBEBEBEBEBEBEBEBEBEBEBEBEBEBEBEBEBEBEBEBEBEBEBEBEBEBEBEBEBEBEBEBEBEBEBEBEBEBEBEBEBEBEBEBEBEBEBEBEBEBEBEE2E2E2E2E2E2E2E2E2E2E2E2E2E2E2E2E2E2E2E2E2E2E2E2E2
310
E2E2E2E2E2E2E2E2E2E2E2E2E2E2E2E2E2E2E2E2E2E2E2E2E2E2E2E2E2E2E2E2E2E2E2E2E2E2E2E2E2E2E2E2E2E2E2E2E2E2E2E2E2E2E2E2E2E2E2E2E2E2E2E2E2E2E2E2E2E2E2E2E2E2E2E2E2E2E2E2E2E2E2E2E2E2E2E2E2E2E2E2E2E2E2E2E2E2E2E2E2E2E2E2E2E2E2E2E2E2E2E2E2E2E2E2E2E2E2E2E2E2E2E2E2E2E2
310
E2E2E2E2E2E2E2E2E2E2E2E2E2E2E2E2E2E2E2E2E2E2E2E2E2E2E2E2E2E2E2E2E2E2E2E2E2E2E2E2E2E2E2E2E2E2E2E2E2E2E2E2E2E2E2E2E2E2E2E2E2E2E2E2E2E2E2E2E2E2E2E2E2E2E2E2E2E2E2E2E2E2E2E2E2E2E2E2E2E2E2E2E2E2E2E2E2E2E2E2E2E2E2E2E2E2E2E2E2E2E2E2E2E2E2E2E2E2E2E2E2E2E2E2E2E2E2
310
E2E2E2E2E2E2E2E2E2E2E2E2E2E2E2E2E2E2E2E2E2E2E2E2E2E2E2E2E2E2E2E2E2E2E2E2E2E2E2E2E2E2E2E2E2E2E2E2E2E2E2E2E2E2E2E2E2E2
  0
XRECORD
  5
46
102
{ACAD_REACTORS
330
45
102
}
330
45
100
AcDbXrecord
280
     1
270
     1
271
     1
  0
XRECORD
  5
47
102
{ACAD_REACTORS
330
45
102
}
330
45
100
AcDbXrecord
280
     1
270
     1
271
     1
  0
XRECORD
  5
48
102
{ACAD_REACTORS
330
45
102
}
330
45
100
AcDbXrecord
280
     1
270
     1
271
     1
  0
XRECORD
  5
49
102
{ACAD_REACTORS
330
45
102
}
330
45
100
AcDbXrecord
280
     1
270
     1
271
     1
  0
XRECORD
  5
4A
102
{ACAD_REACTORS
330
45
102
}
330
45
100
AcDbXrecord
280
     1
270
     1
271
     1
  0
XRECORD
  5
4B
102
{ACAD_REACTORS
330
45
102
}
330
45
100
AcDbXrecord
280
     1
270
     1
271
     1
  0
XRECORD
  5
3E
102
{ACAD_REACTORS
330
3D
102
}
330
3D
100
AcDbXrecord
280
     1
270
     1
271
     1
  0
XRECORD
  5
3F
102
{ACAD_REACTORS
330
3D
102
}
330
3D
100
AcDbXrecord
280
     1
270
     1
271
     1
  0
XRECORD
  5
40
102
{ACAD_REACTORS
330
3D
102
}
330
3D
100
AcDbXrecord
280
     1
270
     1
271
     1
  0
XRECORD
  5
41
102
{ACAD_REACTORS
330
3D
102
}
330
3D
100
AcDbXrecord
280
     1
270
     1
271
     1
  0
XRECORD
  5
42
102
{ACAD_REACTORS
330
3D
102
}
330
3D
100
AcDbXrecord
280
     1
270
     1
271
     1
  0
XRECORD
  5
43
102
{ACAD_REACTORS
330
3D
102
}
330
3D
100
AcDbXrecord
280
     1
270
     1
271
     1
  0
XRECORD
  5
F
102
{ACAD_REACTORS
330
E
102
}
330
E
100
AcDbXrecord
280
     1
270
     1
271
     1
  0
XRECORD
  5
10
102
{ACAD_REACTORS
330
E
102
}
330
E
100
AcDbXrecord
280
     1
270
     1
271
     1
  0
XRECORD
  5
11
102
{ACAD_REACTORS
330
E
102
}
330
E
100
AcDbXrecord
280
     1
270
     1
271
     1
  0
XRECORD
  5
12
102
{ACAD_REACTORS
330
E
102
}
330
E
100
AcDbXrecord
280
     1
270
     1
271
     1
  0
XRECORD
  5
13
102
{ACAD_REACTORS
330
E
102
}
330
E
100
AcDbXrecord
280
     1
270
     1
271
     1
  0
XRECORD
  5
14
102
{ACAD_REACTORS
330
E
102
}
330
E
100
AcDbXrecord
280
     1
270
     1
271
     1
  0
CELLSTYLEMAP
  5
304
102
{ACAD_REACTORS
330
56
102
}
330
56
100
AcDbCellStyleMap
 90
        3
300
CELLSTYLE
  1
TABLEFORMAT_BEGIN
 90
        5
170
     1
 91
        0
 92
    32768
 62
   257
 93
        1
300
CONTENTFORMAT
  1
CONTENTFORMAT_BEGIN
 90
        0
 91
        0
 92
      512
 93
        0
300

 40
0.0
140
1.0
 94
        5
 62
     0
340
27
144
0.25
309
CONTENTFORMAT_END
171
     0
 94
        0
309
TABLEFORMAT_END
  1
CELLSTYLE_BEGIN
 90
        1
 91
        1
300
_TITLE
309
CELLSTYLE_END
300
CELLSTYLE
  1
TABLEFORMAT_BEGIN
 90
        5
170
     1
 91
        0
 92
        0
 62
   257
 93
        1
300
CONTENTFORMAT
  1
CONTENTFORMAT_BEGIN
 90
        0
 91
        0
 92
      512
 93
        0
300

 40
0.0
140
1.0
 94
        5
 62
     0
340
27
144
0.18
309
CONTENTFORMAT_END
171
     0
 94
        0
309
TABLEFORMAT_END
  1
CELLSTYLE_BEGIN
 90
        2
 91
        1
300
_HEADER
309
CELLSTYLE_END
300
CELLSTYLE
  1
TABLEFORMAT_BEGIN
 90
        5
170
     1
 91
        0
 92
        0
 62
   257
 93
        1
300
CONTENTFORMAT
  1
CONTENTFORMAT_BEGIN
 90
        0
 91
        0
 92
      512
 93
        0
300

 40
0.0
140
1.0
 94
        2
 62
     0
340
27
144
0.18
309
CONTENTFORMAT_END
171
     0
 94
        0
309
TABLEFORMAT_END
  1
CELLSTYLE_BEGIN
 90
        3
 91
        2
300
_DATA
309
CELLSTYLE_END
  0
ENDSEC
  0
EOF
