  0
SECTION
  2
HEADER
  9
$ACADVER
  1
AC1024
  9
$ACADMAINTVER
 70
     6
  9
$DWGCODEPAGE
  3
ANSI_1252
  9
$INSBASE
 10
0.0
 20
0.0
 30
0.0
  9
$EXTMIN
 10
0.0
 20
0.0
 30
0.0
  9
$EXTMAX
 10
1050.0
 20
1485.0
 30
0.0
  9
$LIMMIN
 10
0.0
 20
0.0
  9
$LIMMAX
 10
1050.0
 20
1485.0
  9
$ORTHOMODE
 70
     1
  9
$REGENMODE
 70
     1
  9
$FILLMODE
 70
     1
  9
$QTEXTMODE
 70
     0
  9
$MIRRTEXT
 70
     1
  9
$LTSCALE
 40
30.0
  9
$ATTMODE
 70
     1
  9
$TEXTSIZE
 40
42.0
  9
$TRACEWID
 40
1.0
  9
$TEXTSTYLE
  7
ROMANS
  9
$CLAYER
  8
09-01
  9
$CELTYPE
  6
ByLayer
  9
$CECOLOR
 62
   256
  9
$CELTSCALE
 40
1.0
  9
$DISPSILH
 70
     0
  9
$DIMSCALE
 40
5.0
  9
$DIMASZ
 40
2.5
  9
$DIMEXO
 40
0.625
  9
$DIMDLI
 40
0.0
  9
$DIMRND
 40
0.0
  9
$DIMDLE
 40
0.0
  9
$DIMEXE
 40
1.25
  9
$DIMTP
 40
0.0
  9
$DIMTM
 40
0.0
  9
$DIMTXT
 40
2.5
  9
$DIMCEN
 40
2.5
  9
$DIMTSZ
 40
0.0
  9
$DIMTOL
 70
     0
  9
$DIMLIM
 70
     0
  9
$DIMTIH
 70
     0
  9
$DIMTOH
 70
     0
  9
$DIMSE1
 70
     0
  9
$DIMSE2
 70
     0
  9
$DIMTAD
 70
     1
  9
$DIMZIN
 70
     8
  9
$DIMBLK
  1

  9
$DIMASO
 70
     1
  9
$DIMSHO
 70
     0
  9
$DIMPOST
  1

  9
$DIMAPOST
  1

  9
$DIMALT
 70
     0
  9
$DIMALTD
 70
     3
  9
$DIMALTF
 40
0.03937007874016
  9
$DIMLFAC
 40
1.0
  9
$DIMTOFL
 70
     1
  9
$DIMTVP
 40
0.0
  9
$DIMTIX
 70
     0
  9
$DIMSOXD
 70
     0
  9
$DIMSAH
 70
     0
  9
$DIMBLK1
  1

  9
$DIMBLK2
  1

  9
$DIMSTYLE
  2
Wagner
  9
$DIMCLRD
 70
     4
  9
$DIMCLRE
 70
     4
  9
$DIMCLRT
 70
     1
  9
$DIMTFAC
 40
1.0
  9
$DIMGAP
 40
0.625
  9
$DIMJUST
 70
     0
  9
$DIMSD1
 70
     0
  9
$DIMSD2
 70
     0
  9
$DIMTOLJ
 70
     0
  9
$DIMTZIN
 70
     8
  9
$DIMALTZ
 70
     0
  9
$DIMALTTZ
 70
     0
  9
$DIMUPT
 70
     0
  9
$DIMDEC
 70
     2
  9
$DIMTDEC
 70
     2
  9
$DIMALTU
 70
     2
  9
$DIMALTTD
 70
     3
  9
$DIMTXSTY
  7
ROMANS
  9
$DIMAUNIT
 70
     0
  9
$DIMADEC
 70
     2
  9
$DIMALTRND
 40
0.0
  9
$DIMAZIN
 70
     2
  9
$DIMDSEP
 70
    44
  9
$DIMATFIT
 70
     3
  9
$DIMFRAC
 70
     0
  9
$DIMLDRBLK
  1

  9
$DIMLUNIT
 70
     2
  9
$DIMLWD
 70
    -2
  9
$DIMLWE
 70
    -2
  9
$DIMTMOVE
 70
     2
  9
$DIMFXL
 40
1.0
  9
$DIMFXLON
 70
     0
  9
$DIMJOGANG
 40
0.7853981633974483
  9
$DIMTFILL
 70
     0
  9
$DIMTFILLCLR
 70
     0
  9
$DIMARCSYM
 70
     0
  9
$DIMLTYPE
  6

  9
$DIMLTEX1
  6

  9
$DIMLTEX2
  6

  9
$DIMTXTDIRECTION
 70
     0
  9
$LUNITS
 70
     2
  9
$LUPREC
 70
     1
  9
$SKETCHINC
 40
1.0
  9
$FILLETRAD
 40
0.0
  9
$AUNITS
 70
     0
  9
$AUPREC
 70
     2
  9
$MENU
  1
cncmenue
  9
$ELEVATION
 40
0.0
  9
$PELEVATION
 40
0.0
  9
$THICKNESS
 40
0.0
  9
$LIMCHECK
 70
     0
  9
$CHAMFERA
 40
0.0
  9
$CHAMFERB
 40
0.0
  9
$CHAMFERC
 40
0.0
  9
$CHAMFERD
 40
0.0
  9
$SKPOLY
 70
     0
  9
$TDCREATE
 40
2451219.619898496
  9
$TDUCREATE
 40
2451219.536565163
  9
$TDUPDATE
 40
2456826.386945555
  9
$TDUUPDATE
 40
2456826.303612223
  9
$TDINDWG
 40
0.1019642014
  9
$TDUSRTIMER
 40
0.1019642014
  9
$USRTIMER
 70
     1
  9
$ANGBASE
 50
0.0
  9
$ANGDIR
 70
     0
  9
$PDMODE
 70
     0
  9
$PDSIZE
 40
0.0
  9
$PLINEWID
 40
0.0
  9
$SPLFRAME
 70
     0
  9
$SPLINETYPE
 70
     6
  9
$SPLINESEGS
 70
     8
  9
$HANDSEED
  5
567
  9
$SURFTAB1
 70
    24
  9
$SURFTAB2
 70
    24
  9
$SURFTYPE
 70
     6
  9
$SURFU
 70
     6
  9
$SURFV
 70
     6
  9
$UCSBASE
  2

  9
$UCSNAME
  2

  9
$UCSORG
 10
0.0
 20
0.0
 30
0.0
  9
$UCSXDIR
 10
1.0
 20
0.0
 30
0.0
  9
$UCSYDIR
 10
0.0
 20
1.0
 30
0.0
  9
$UCSORTHOREF
  2

  9
$UCSORTHOVIEW
 70
     0
  9
$UCSORGTOP
 10
0.0
 20
0.0
 30
0.0
  9
$UCSORGBOTTOM
 10
0.0
 20
0.0
 30
0.0
  9
$UCSORGLEFT
 10
0.0
 20
0.0
 30
0.0
  9
$UCSORGRIGHT
 10
0.0
 20
0.0
 30
0.0
  9
$UCSORGFRONT
 10
0.0
 20
0.0
 30
0.0
  9
$UCSORGBACK
 10
0.0
 20
0.0
 30
0.0
  9
$PUCSBASE
  2

  9
$PUCSNAME
  2

  9
$PUCSORG
 10
0.0
 20
0.0
 30
0.0
  9
$PUCSXDIR
 10
1.0
 20
0.0
 30
0.0
  9
$PUCSYDIR
 10
0.0
 20
1.0
 30
0.0
  9
$PUCSORTHOREF
  2

  9
$PUCSORTHOVIEW
 70
     0
  9
$PUCSORGTOP
 10
0.0
 20
0.0
 30
0.0
  9
$PUCSORGBOTTOM
 10
0.0
 20
0.0
 30
0.0
  9
$PUCSORGLEFT
 10
0.0
 20
0.0
 30
0.0
  9
$PUCSORGRIGHT
 10
0.0
 20
0.0
 30
0.0
  9
$PUCSORGFRONT
 10
0.0
 20
0.0
 30
0.0
  9
$PUCSORGBACK
 10
0.0
 20
0.0
 30
0.0
  9
$USERI1
 70
     0
  9
$USERI2
 70
     0
  9
$USERI3
 70
     0
  9
$USERI4
 70
     0
  9
$USERI5
 70
     0
  9
$USERR1
 40
0.0
  9
$USERR2
 40
0.0
  9
$USERR3
 40
0.0
  9
$USERR4
 40
0.0
  9
$USERR5
 40
0.0
  9
$WORLDVIEW
 70
     1
  9
$SHADEDGE
 70
     3
  9
$SHADEDIF
 70
    70
  9
$TILEMODE
 70
     1
  9
$MAXACTVP
 70
    16
  9
$PINSBASE
 10
0.0
 20
0.0
 30
0.0
  9
$PLIMCHECK
 70
     0
  9
$PEXTMIN
 10
1.000000000000000E+20
 20
1.000000000000000E+20
 30
1.000000000000000E+20
  9
$PEXTMAX
 10
-1.000000000000000E+20
 20
-1.000000000000000E+20
 30
-1.000000000000000E+20
  9
$PLIMMIN
 10
0.0
 20
0.0
  9
$PLIMMAX
 10
12.0
 20
9.0
  9
$UNITMODE
 70
     0
  9
$VISRETAIN
 70
     0
  9
$PLINEGEN
 70
     0
  9
$PSLTSCALE
 70
     0
  9
$TREEDEPTH
 70
  3020
  9
$CMLSTYLE
  2
Standard
  9
$CMLJUST
 70
     0
  9
$CMLSCALE
 40
1.0
  9
$PROXYGRAPHICS
 70
     1
  9
$MEASUREMENT
 70
     0
  9
$CELWEIGHT
370
    -1
  9
$ENDCAPS
280
     0
  9
$JOINSTYLE
280
     0
  9
$LWDISPLAY
290
     0
  9
$INSUNITS
 70
     0
  9
$HYPERLINKBASE
  1

  9
$STYLESHEET
  1

  9
$XEDIT
290
     1
  9
$CEPSNTYPE
380
     0
  9
$PSTYLEMODE
290
     1
  9
$FINGERPRINTGUID
  2
{6519AC08-D5B9-4874-9A14-4131663711A4}
  9
$VERSIONGUID
  2
{4F78E31A-1331-4586-A0BA-EF3466F00802}
  9
$EXTNAMES
290
     1
  9
$PSVPSCALE
 40
0.0
  9
$OLESTARTUP
290
     0
  9
$SORTENTS
280
   127
  9
$INDEXCTL
280
     0
  9
$HIDETEXT
280
     1
  9
$XCLIPFRAME
280
     0
  9
$HALOGAP
280
     0
  9
$OBSCOLOR
 70
   257
  9
$OBSLTYPE
280
     0
  9
$INTERSECTIONDISPLAY
280
     0
  9
$INTERSECTIONCOLOR
 70
   257
  9
$DIMASSOC
280
     1
  9
$PROJECTNAME
  1

  9
$CAMERADISPLAY
290
     0
  9
$LENSLENGTH
 40
50.0
  9
$CAMERAHEIGHT
 40
0.0
  9
$STEPSPERSEC
 40
2.0
  9
$STEPSIZE
 40
6.0
  9
$3DDWFPREC
 40
2.0
  9
$PSOLWIDTH
 40
0.25
  9
$PSOLHEIGHT
 40
4.0
  9
$LOFTANG1
 40
1.570796326794896
  9
$LOFTANG2
 40
1.570796326794896
  9
$LOFTMAG1
 40
0.0
  9
$LOFTMAG2
 40
0.0
  9
$LOFTPARAM
 70
     7
  9
$LOFTNORMALS
280
     1
  9
$LATITUDE
 40
37.795
  9
$LONGITUDE
 40
-122.394
  9
$NORTHDIRECTION
 40
0.0
  9
$TIMEZONE
 70
 -8000
  9
$LIGHTGLYPHDISPLAY
280
     1
  9
$TILEMODELIGHTSYNCH
280
     1
  9
$CMATERIAL
347
3C
  9
$SOLIDHIST
280
     1
  9
$SHOWHIST
280
     1
  9
$DWFFRAME
280
     2
  9
$DGNFRAME
280
     0
  9
$REALWORLDSCALE
290
     1
  9
$INTERFERECOLOR
 62
     1
  9
$INTERFEREOBJVS
345
56
  9
$INTERFEREVPVS
346
57
  9
$CSHADOW
280
     0
  9
$SHADOWPLANELOCATION
 40
0.0
  0
ENDSEC
  0
SECTION
  2
CLASSES
  0
CLASS
  1
ACDBDICTIONARYWDFLT
  2
AcDbDictionaryWithDefault
  3
ObjectDBX Classes
 90
        0
 91
        1
280
     0
281
     0
  0
CLASS
  1
MATERIAL
  2
AcDbMaterial
  3
ObjectDBX Classes
 90
     1153
 91
        3
280
     0
281
     0
  0
CLASS
  1
VISUALSTYLE
  2
AcDbVisualStyle
  3
ObjectDBX Classes
 90
     4095
 91
        3
280
     0
281
     0
  0
CLASS
  1
TABLESTYLE
  2
AcDbTableStyle
  3
ObjectDBX Classes
 90
     4095
 91
        1
280
     0
281
     0
  0
CLASS
  1
SCALE
  2
AcDbScale
  3
ObjectDBX Classes
 90
     1153
 91
       33
280
     0
281
     0
  0
CLASS
  1
MLEADERSTYLE
  2
AcDbMLeaderStyle
  3
ACDB_MLEADERSTYLE_CLASS
 90
     4095
 91
        0
280
     0
281
     0
  0
CLASS
  1
SORTENTSTABLE
  2
AcDbSortentsTable
  3
ObjectDBX Classes
 90
        0
 91
        6
280
     0
281
     0
  0
CLASS
  1
CELLSTYLEMAP
  2
AcDbCellStyleMap
  3
ObjectDBX Classes
 90
     1152
 91
        1
280
     0
281
     0
  0
CLASS
  1
DICTIONARYVAR
  2
AcDbDictionaryVar
  3
ObjectDBX Classes
 90
        0
 91
        7
280
     0
281
     0
  0
CLASS
  1
EXACXREFPANELOBJECT
  2
ExAcXREFPanelObject
  3
EXAC_ESW
 90
     1025
 91
        0
280
     1
281
     0
  0
CLASS
  1
NPOCOLLECTION
  2
AcDbImpNonPersistentObjectsCollection
  3
ObjectDBX Classes
 90
     1153
 91
        0
280
     0
281
     0
  0
CLASS
  1
AEC_REFEDIT_STATUS_TRACKER
  2
AecDbRefEditStatusTracker
  3
AecArchBase60|Product Desc: Autodesk Architectural Desktop 2007 |Company: Autodesk,Inc. |WEB Address: www.autodesk.com
 90
      129
 91
        0
280
     0
281
     0
  0
ENDSEC
  0
SECTION
  2
TABLES
  0
TABLE
  2
VPORT
  5
2A
102
{ACAD_XDICTIONARY
360
2E
102
}
330
0
100
AcDbSymbolTable
 70
     1
  0
VPORT
  5
2B
330
2A
100
AcDbSymbolTableRecord
100
AcDbViewportTableRecord
  2
*Active
 70
     0
 10
0.0
 20
0.0
 11
1.0
 21
1.0
 12
356.5650424217233
 22
315.8105253752024
 13
0.0
 23
0.0
 14
1.0
 24
1.0
 15
100.0
 25
100.0
 16
0.0
 26
0.0
 36
1.0
 17
0.0
 27
0.0
 37
0.0
 40
2659.839279475748
 41
1.937738246505718
 42
50.0
 43
0.0
 44
0.0
 50
0.0
 51
0.0
 71
     0
 72
  1000
 73
     1
 74
     0
 75
     0
 76
     0
 77
     0
 78
     0
281
     0
 65
     1
110
0.0
120
0.0
130
0.0
111
1.0
121
0.0
131
0.0
112
0.0
122
1.0
132
0.0
 79
     0
146
0.0
348
2C
 60
     3
 61
     5
292
     1
282
     1
141
0.0
142
0.0
 63
   250
421
  3355443
  0
ENDTAB
  0
TABLE
  2
LTYPE
  5
25
330
0
100
AcDbSymbolTable
 70
     4
  0
LTYPE
  5
26
330
25
100
AcDbSymbolTableRecord
100
AcDbLinetypeTableRecord
  2
ByBlock
 70
     0
  3

 72
    65
 73
     0
 40
0.0
  0
LTYPE
  5
27
330
25
100
AcDbSymbolTableRecord
100
AcDbLinetypeTableRecord
  2
ByLayer
 70
     0
  3

 72
    65
 73
     0
 40
0.0
  0
LTYPE
  5
15
330
25
100
AcDbSymbolTableRecord
100
AcDbLinetypeTableRecord
  2
CONTINUOUS
 70
     0
  3
Ausgezogene Linie
 72
    65
 73
     0
 40
0.0
  0
LTYPE
  5
8B
330
25
100
AcDbSymbolTableRecord
100
AcDbLinetypeTableRecord
  2
VERDECKT
 70
     0
  3
__ __ __ __ __ __ __ __ __ __ __ __ __ __ __ __
 72
    65
 73
     2
 40
0.375
 49
0.25
 74
     0
 49
-0.125
 74
     0
  0
LTYPE
  5
82
330
25
100
AcDbSymbolTableRecord
100
AcDbLinetypeTableRecord
  2
STRICHPUNKT
 70
     0
  3
__ . __ . __ . __ . __ . __ . __ . __ . __ . __
 72
    65
 73
     4
 40
1.0
 49
0.5
 74
     0
 49
-0.25
 74
     0
 49
0.0
 74
     0
 49
-0.25
 74
     0
  0
LTYPE
  5
C6
330
25
100
AcDbSymbolTableRecord
100
AcDbLinetypeTableRecord
  2
AUSGEZOGEN
 70
     0
  3
Ausgezogene Linie
 72
    65
 73
     0
 40
0.0
  0
ENDTAB
  0
TABLE
  2
LAYER
  5
1F
102
{ACAD_XDICTIONARY
360
20
102
}
330
0
100
AcDbSymbolTable
 70
    12
  0
LAYER
  5
6
102
{ACAD_XDICTIONARY
360
7
102
}
330
1F
100
AcDbSymbolTableRecord
100
AcDbLayerTableRecord
  2
0
 70
     0
 62
     7
  6
CONTINUOUS
370
    -3
390
9
347
C
  0
LAYER
  5
8E
102
{ACAD_XDICTIONARY
360
8F
102
}
330
1F
100
AcDbSymbolTableRecord
100
AcDbLayerTableRecord
  2
01-01
 70
     0
 62
     2
  6
CONTINUOUS
370
    -3
390
9
347
C
  0
LAYER
  5
88
102
{ACAD_XDICTIONARY
360
89
102
}
330
1F
100
AcDbSymbolTableRecord
100
AcDbLayerTableRecord
  2
03-01
 70
     0
 62
     3
  6
VERDECKT
370
    -3
390
9
347
C
  0
LAYER
  5
7F
102
{ACAD_XDICTIONARY
360
80
102
}
330
1F
100
AcDbSymbolTableRecord
100
AcDbLayerTableRecord
  2
05-01
 70
     0
 62
     1
  6
STRICHPUNKT
370
    -3
390
9
347
C
  0
LAYER
  5
50
102
{ACAD_XDICTIONARY
360
51
102
}
330
1F
100
AcDbSymbolTableRecord
100
AcDbLayerTableRecord
  2
09-01
 70
     0
 62
     7
  6
CONTINUOUS
370
    -3
390
9
347
C
  0
LAYER
  5
AF
102
{ACAD_XDICTIONARY
360
B0
102
}
330
1F
100
AcDbSymbolTableRecord
100
AcDbLayerTableRecord
  2
01-99
 70
     0
 62
     2
  6
CONTINUOUS
370
    -3
390
9
347
C
  0
LAYER
  5
C3
102
{ACAD_XDICTIONARY
360
C4
102
}
330
1F
100
AcDbSymbolTableRecord
100
AcDbLayerTableRecord
  2
02-99
 70
     0
 62
     1
  6
AUSGEZOGEN
370
    -3
390
9
347
C
  0
LAYER
  5
F0
102
{ACAD_XDICTIONARY
360
F1
102
}
330
1F
100
AcDbSymbolTableRecord
100
AcDbLayerTableRecord
  2
06-99
 70
     0
 62
     1
  6
AUSGEZOGEN
370
    -3
390
9
347
C
  0
LAYER
  5
F7
102
{ACAD_XDICTIONARY
360
F8
102
}
330
1F
100
AcDbSymbolTableRecord
100
AcDbLayerTableRecord
  2
07-99
 70
     0
 62
     6
  6
AUSGEZOGEN
370
    -3
390
9
347
C
  0
LAYER
  5
A3
330
1F
100
AcDbSymbolTableRecord
100
AcDbLayerTableRecord
  2
DEFPOINTS
 70
     0
 62
     7
  6
CONTINUOUS
290
     0
370
    -3
390
9
347
C
  0
LAYER
  5
B6
102
{ACAD_XDICTIONARY
360
B7
102
}
330
1F
100
AcDbSymbolTableRecord
100
AcDbLayerTableRecord
  2
08-99
 70
     0
 62
     7
  6
CONTINUOUS
370
    -3
390
9
347
C
  0
LAYER
  5
DA
102
{ACAD_XDICTIONARY
360
DB
102
}
330
1F
100
AcDbSymbolTableRecord
100
AcDbLayerTableRecord
  2
10-98
 70
     0
 62
     4
  6
CONTINUOUS
370
    -3
390
9
347
C
  0
ENDTAB
  0
TABLE
  2
STYLE
  5
22
330
0
100
AcDbSymbolTable
 70
     3
  0
STYLE
  5
23
330
22
100
AcDbSymbolTableRecord
100
AcDbTextStyleTableRecord
  2
STANDARD
 70
     0
 40
0.0
 41
1.0
 50
0.0
 71
     0
 42
3.5
  3
txt.shx
  4

  0
STYLE
  5
33
330
22
100
AcDbSymbolTableRecord
100
AcDbTextStyleTableRecord
  2
ROMANS
 70
     0
 40
0.0
 41
1.0
 50
0.0
 71
     0
 42
42.0
  3
ROMANS.SHX
  4

  0
STYLE
  5
B9
330
22
100
AcDbSymbolTableRecord
100
AcDbTextStyleTableRecord
  2
ROMANS8
 70
     0
 40
0.0
 41
1.0
 50
0.0
 71
     0
 42
2.5
  3
ROMANS8
  4

  0
ENDTAB
  0
TABLE
  2
VIEW
  5
28
330
0
100
AcDbSymbolTable
 70
     0
  0
ENDTAB
  0
TABLE
  2
UCS
  5
29
330
0
100
AcDbSymbolTable
 70
     0
  0
ENDTAB
  0
TABLE
  2
APPID
  5
2F
330
0
100
AcDbSymbolTable
 70
     5
  0
APPID
  5
30
330
2F
100
AcDbSymbolTableRecord
100
AcDbRegAppTableRecord
  2
ACAD
 70
     0
  0
APPID
  5
35
330
2F
100
AcDbSymbolTableRecord
100
AcDbRegAppTableRecord
  2
ACAD_DSTYLE_DIMJAG
 70
     0
  0
APPID
  5
36
330
2F
100
AcDbSymbolTableRecord
100
AcDbRegAppTableRecord
  2
ACAD_DSTYLE_DIMTALN
 70
     0
  0
APPID
  5
A8
330
2F
100
AcDbSymbolTableRecord
100
AcDbRegAppTableRecord
  2
ACAD_DSTYLE_DIMJOGGED_JOGANGLE_SYMBOL
 70
     0
  0
APPID
  5
34
330
2F
100
AcDbSymbolTableRecord
100
AcDbRegAppTableRecord
  2
ACAD_DSTYLE_DIMBREAK
 70
     0
  0
ENDTAB
  0
TABLE
  2
DIMSTYLE
  5
31
330
0
100
AcDbSymbolTable
 70
     3
100
AcDbDimStyleTable
 71
     2
340
32
340
37
  0
DIMSTYLE
105
37
330
31
100
AcDbSymbolTableRecord
100
AcDbDimStyleTableRecord
  2
Standard
 70
     0
340
23
  0
DIMSTYLE
105
32
330
31
100
AcDbSymbolTableRecord
100
AcDbDimStyleTableRecord
  2
Wagner
 70
     0
 40
10.0
 41
2.5
 42
0.625
 43
0.0
 44
1.25
 73
     0
 74
     0
 77
     1
 78
     8
 79
     2
140
2.5
141
2.5
143
0.03937007874016
147
0.625
171
     3
172
     1
176
     4
177
     4
178
     1
179
     2
271
     8
272
     8
274
     3
278
    44
279
     2
283
     0
284
     8
340
33
1001
ACAD_DSTYLE_DIMBREAK
1070
   391
1040
3.75
1001
ACAD_DSTYLE_DIMJAG
1070
   388
1040
1.5
1001
ACAD_DSTYLE_DIMTALN
1070
   392
1070
     0
  0
DIMSTYLE
105
A7
102
{ACAD_REACTORS
330
2E6
330
2F1
330
2FD
330
382
330
391
330
3C8
330
3DA
330
3E7
330
3F4
330
434
330
44A
330
469
330
4AB
330
516
330
523
330
530
330
53F
330
54C
330
14C
330
13F
330
132
330
125
330
118
330
10B
330
99
102
}
330
31
100
AcDbSymbolTableRecord
100
AcDbDimStyleTableRecord
  2
Wagner$0
 70
     0
 41
2.5
 42
1.0
 43
10.0
 44
1.0
 73
     0
 74
     0
 77
     1
 78
     8
 79
     2
140
2.5
141
0.0
143
0.03937007874016
147
1.0
171
     3
172
     1
174
     1
176
     4
177
     4
178
     1
179
     2
271
     8
272
     8
274
     3
279
     2
283
     0
284
     8
340
23
1001
ACAD_DSTYLE_DIMJOGGED_JOGANGLE_SYMBOL
1070
   384
1040
0.7853981633974483
1001
ACAD_DSTYLE_DIMJAG
1070
   388
1040
1.5
1001
ACAD_DSTYLE_DIMTALN
1070
   392
1070
     0
  0
ENDTAB
  0
TABLE
  2
BLOCK_RECORD
  5
1
330
0
100
AcDbSymbolTable
 70
    30
  0
BLOCK_RECORD
  5
2
102
{ACAD_XDICTIONARY
360
3
102
}
330
1
100
AcDbSymbolTableRecord
100
AcDbBlockTableRecord
  2
*Model_Space
340
17
 70
     0
280
     1
281
     0
  0
BLOCK_RECORD
  5
1B
330
1
100
AcDbSymbolTableRecord
100
AcDbBlockTableRecord
  2
*Paper_Space
340
1E
 70
     0
280
     1
281
     0
  0
BLOCK_RECORD
  5
4AC
330
1
100
AcDbSymbolTableRecord
100
AcDbBlockTableRecord
  2
*D0
340
0
 70
     0
280
     1
281
     0
  0
BLOCK_RECORD
  5
540
330
1
100
AcDbSymbolTableRecord
100
AcDbBlockTableRecord
  2
*D1
340
0
 70
     0
280
     1
281
     0
  0
BLOCK_RECORD
  5
54D
330
1
100
AcDbSymbolTableRecord
100
AcDbBlockTableRecord
  2
*D2
340
0
 70
     0
280
     1
281
     0
  0
BLOCK_RECORD
  5
46A
330
1
100
AcDbSymbolTableRecord
100
AcDbBlockTableRecord
  2
*D3
340
0
 70
     0
280
     1
281
     0
  0
BLOCK_RECORD
  5
524
330
1
100
AcDbSymbolTableRecord
100
AcDbBlockTableRecord
  2
*D4
340
0
 70
     0
280
     1
281
     0
  0
BLOCK_RECORD
  5
44B
330
1
100
AcDbSymbolTableRecord
100
AcDbBlockTableRecord
  2
*D5
340
0
 70
     0
280
     1
281
     0
  0
BLOCK_RECORD
  5
517
330
1
100
AcDbSymbolTableRecord
100
AcDbBlockTableRecord
  2
*D6
340
0
 70
     0
280
     1
281
     0
  0
BLOCK_RECORD
  5
435
330
1
100
AcDbSymbolTableRecord
100
AcDbBlockTableRecord
  2
*D7
340
0
 70
     0
280
     1
281
     0
  0
BLOCK_RECORD
  5
531
330
1
100
AcDbSymbolTableRecord
100
AcDbBlockTableRecord
  2
*D8
340
0
 70
     0
280
     1
281
     0
  0
BLOCK_RECORD
  5
3DB
330
1
100
AcDbSymbolTableRecord
100
AcDbBlockTableRecord
  2
*D9
340
0
 70
     0
280
     1
281
     0
  0
BLOCK_RECORD
  5
3E8
330
1
100
AcDbSymbolTableRecord
100
AcDbBlockTableRecord
  2
*D10
340
0
 70
     0
280
     1
281
     0
  0
BLOCK_RECORD
  5
3F5
330
1
100
AcDbSymbolTableRecord
100
AcDbBlockTableRecord
  2
*D11
340
0
 70
     0
280
     1
281
     0
  0
BLOCK_RECORD
  5
3C9
330
1
100
AcDbSymbolTableRecord
100
AcDbBlockTableRecord
  2
*D12
340
0
 70
     0
280
     1
281
     0
  0
BLOCK_RECORD
  5
392
330
1
100
AcDbSymbolTableRecord
100
AcDbBlockTableRecord
  2
*D13
340
0
 70
     0
280
     1
281
     0
  0
BLOCK_RECORD
  5
383
330
1
100
AcDbSymbolTableRecord
100
AcDbBlockTableRecord
  2
*D14
340
0
 70
     0
280
     1
281
     0
  0
BLOCK_RECORD
  5
2FE
330
1
100
AcDbSymbolTableRecord
100
AcDbBlockTableRecord
  2
*D15
340
0
 70
     0
280
     1
281
     0
  0
BLOCK_RECORD
  5
2F2
330
1
100
AcDbSymbolTableRecord
100
AcDbBlockTableRecord
  2
*D16
340
0
 70
     0
280
     1
281
     0
  0
BLOCK_RECORD
  5
2E7
330
1
100
AcDbSymbolTableRecord
100
AcDbBlockTableRecord
  2
*D17
340
0
 70
     0
280
     1
281
     0
  0
BLOCK_RECORD
  5
15B
330
1
100
AcDbSymbolTableRecord
100
AcDbBlockTableRecord
  2
Gitterkorb WP134-01-v
340
0
310
2800000020000000200000000100080000000000000400000000000000000000000000000000000000000000000080000080000000808000800000008000800080800000C0C0C000C0DCC000F0CAA6000020400000206000002080000020A0000020C0000020E00000400000004020000040400000406000004080000040A0
310
000040C0000040E00000600000006020000060400000606000006080000060A0000060C0000060E00000800000008020000080400000806000008080000080A0000080C0000080E00000A0000000A0200000A0400000A0600000A0800000A0A00000A0C00000A0E00000C0000000C0200000C0400000C0600000C0800000C0
310
A00000C0C00000C0E00000E0000000E0200000E0400000E0600000E0800000E0A00000E0C00000E0E00040000000400020004000400040006000400080004000A0004000C0004000E00040200000402020004020400040206000402080004020A0004020C0004020E000404000004040200040404000404060004040800040
310
40A0004040C0004040E00040600000406020004060400040606000406080004060A0004060C0004060E00040800000408020004080400040806000408080004080A0004080C0004080E00040A0000040A0200040A0400040A0600040A0800040A0A00040A0C00040A0E00040C0000040C0200040C0400040C0600040C08000
310
40C0A00040C0C00040C0E00040E0000040E0200040E0400040E0600040E0800040E0A00040E0C00040E0E00080000000800020008000400080006000800080008000A0008000C0008000E00080200000802020008020400080206000802080008020A0008020C0008020E00080400000804020008040400080406000804080
310
008040A0008040C0008040E00080600000806020008060400080606000806080008060A0008060C0008060E00080800000808020008080400080806000808080008080A0008080C0008080E00080A0000080A0200080A0400080A0600080A0800080A0A00080A0C00080A0E00080C0000080C0200080C0400080C0600080C0
310
800080C0A00080C0C00080C0E00080E0000080E0200080E0400080E0600080E0800080E0A00080E0C00080E0E000C0000000C0002000C0004000C0006000C0008000C000A000C000C000C000E000C0200000C0202000C0204000C0206000C0208000C020A000C020C000C020E000C0400000C0402000C0404000C0406000C0
310
408000C040A000C040C000C040E000C0600000C0602000C0604000C0606000C0608000C060A000C060C000C060E000C0800000C0802000C0804000C0806000C0808000C080A000C080C000C080E000C0A00000C0A02000C0A04000C0A06000C0A08000C0A0A000C0A0C000C0A0E000C0C00000C0C02000C0C04000C0C06000
310
C0C08000C0C0A000F0FBFF00A4A0A000808080000000FF0000FF000000FFFF00FF000000FF00FF00FFFF0000FFFFFF00000000000000000000000000000000000000000000000000000000000000000000000000000000FFFFFFFFFFFFFFFFFFFFFFFFFFFFFFFFFFFF00000000000000000000000000FFFFFFFFFFFFFFFFFF
310
FFFFFFFFFFFFFFFFFFFFFF000000000000000000000000FFFFFFFFFFFFFFFFFFFFFFFFFFFFFFFFFFFFFFFF000000000000000000000000FF00FF000000FF0000FFFF0000FF000000FF00FF000000000000000000000000FF00FF000000FF0000FFFF0000FF000000FF00FF000000000000000000000000FF00FF000000FF00
310
00FFFF0000FF000000FF00FF000000000000000000000000FFFFFFFFFFFFFFFFFFFFFFFFFFFFFFFFFFFFFFFF000000000000000000000000FF00FF000000FF0000FFFF0000FF000000FF00FF000000000000000000000000FF00FF000000FF0000FFFF0000FF000000FF00FF000000000000000000000000FFFFFFFFFFFFFF
310
FFFFFFFFFFFFFFFFFFFFFFFFFF000000000000000000000000FFFFFFFFFFFFFFFFFFFFFFFFFFFFFFFFFFFFFFFF000000000000000000000000FF00FF000000FF0000FFFF0000FF000000FF00FF000000000000000000000000FF00FF000000FF0000FFFF0000FF000000FF00FF000000000000000000000000FFFFFFFFFFFF
310
FFFFFFFFFFFFFFFFFFFFFFFFFFFF000000000000000000000000FF00FF000000FF0000FFFF0000FF000000FF00FF000000000000000000000000FF00FF000000FF0000FFFF0000FF000000FF00FF000000000000000000000000FF00FF000000FF0000FFFF0000FF000000FF00FF000000000000000000000000FFFFFFFFFF
310
FFFFFFFFFFFFFFFFFFFFFFFFFFFFFF000000000000000000000000FF00FF000000FF0000FFFF0000FF000000FF00FF000000000000000000000000FF00FF000000FF0000FFFF0000FF000000FF00FF000000000000000000000000FFFFFFFFFFFFFFFFFFFFFFFFFFFFFFFFFFFFFFFF000000000000000000000000FFFFFFFF
310
FFFFFFFFFFFFFFFFFFFFFFFFFFFFFFFF000000000000000000000000FF00FF000000FF0000FFFF0000FF000000FF00FF000000000000000000000000FF00FF000000FF0000FFFF0000FF000000FF00FF000000000000000000000000FFFFFFFFFFFFFFFFFFFFFFFFFFFFFFFFFFFFFFFF000000000000000000000000FF00FF
310
000000FF0000FFFF0000FF000000FF00FF000000000000000000000000FF00FF000000FF0000FFFF0000FF000000FF00FF000000000000000000000000FF00FF000000FF0000FFFF0000FF000000FF00FF000000000000000000000000FFFFFFFFFFFFFFFFFFFFFFFFFFFFFFFFFFFFFFFF000000000000000000000000FFFF
310
FFFFFFFFFFFFFFFFFFFFFFFFFFFFFFFFFFFF0000000000000000000000000000000000000000000000000000000000000000000000000000
102
{BLKREFS
331
15A
102
}
 70
     4
280
     1
281
     0
  0
BLOCK_RECORD
  5
246
330
1
100
AcDbSymbolTableRecord
100
AcDbBlockTableRecord
  2
Gitterkorb WP134-01-s
340
0
310
2800000020000000200000000100080000000000000400000000000000000000000000000000000000000000000080000080000000808000800000008000800080800000C0C0C000C0DCC000F0CAA6000020400000206000002080000020A0000020C0000020E00000400000004020000040400000406000004080000040A0
310
000040C0000040E00000600000006020000060400000606000006080000060A0000060C0000060E00000800000008020000080400000806000008080000080A0000080C0000080E00000A0000000A0200000A0400000A0600000A0800000A0A00000A0C00000A0E00000C0000000C0200000C0400000C0600000C0800000C0
310
A00000C0C00000C0E00000E0000000E0200000E0400000E0600000E0800000E0A00000E0C00000E0E00040000000400020004000400040006000400080004000A0004000C0004000E00040200000402020004020400040206000402080004020A0004020C0004020E000404000004040200040404000404060004040800040
310
40A0004040C0004040E00040600000406020004060400040606000406080004060A0004060C0004060E00040800000408020004080400040806000408080004080A0004080C0004080E00040A0000040A0200040A0400040A0600040A0800040A0A00040A0C00040A0E00040C0000040C0200040C0400040C0600040C08000
310
40C0A00040C0C00040C0E00040E0000040E0200040E0400040E0600040E0800040E0A00040E0C00040E0E00080000000800020008000400080006000800080008000A0008000C0008000E00080200000802020008020400080206000802080008020A0008020C0008020E00080400000804020008040400080406000804080
310
008040A0008040C0008040E00080600000806020008060400080606000806080008060A0008060C0008060E00080800000808020008080400080806000808080008080A0008080C0008080E00080A0000080A0200080A0400080A0600080A0800080A0A00080A0C00080A0E00080C0000080C0200080C0400080C0600080C0
310
800080C0A00080C0C00080C0E00080E0000080E0200080E0400080E0600080E0800080E0A00080E0C00080E0E000C0000000C0002000C0004000C0006000C0008000C000A000C000C000C000E000C0200000C0202000C0204000C0206000C0208000C020A000C020C000C020E000C0400000C0402000C0404000C0406000C0
310
408000C040A000C040C000C040E000C0600000C0602000C0604000C0606000C0608000C060A000C060C000C060E000C0800000C0802000C0804000C0806000C0808000C080A000C080C000C080E000C0A00000C0A02000C0A04000C0A06000C0A08000C0A0A000C0A0C000C0A0E000C0C00000C0C02000C0C04000C0C06000
310
C0C08000C0C0A000F0FBFF00A4A0A000808080000000FF0000FF000000FFFF00FF000000FF00FF00FFFF0000FFFFFF000000000000000000000000000000000000000000000000000000000000000000000000000000000000000000FFFFFFFFFFFFFFFF000000000000000000000000000000000000000000000000FFFFFF
310
FFFFFFFFFF000000000000000000000000000000000000000000000000FFFFFFFFFFFFFFFF000000000000000000000000000000000000000000000000FFFF00FFFF00FFFF000000000000000000000000000000000000000000000000FFFF00FFFF00FFFF000000000000000000000000000000000000000000000000FFFF
310
FFFFFFFFFFFF000000000000000000000000000000000000000000000000FFFFFFFFFFFFFFFF000000000000000000000000000000000000000000000000FFFF00FFFF00FFFF000000000000000000000000000000000000000000000000FFFF00FFFF00FFFF000000000000000000000000000000000000000000000000FF
310
FFFFFFFFFFFFFF000000000000000000000000000000000000000000000000FFFF00FFFF00FFFF000000000000000000000000000000000000000000000000FFFF00FFFF00FFFF000000000000000000000000000000000000000000000000FFFF00FFFF00FFFF000000000000000000000000000000000000000000000000
310
FFFFFFFFFFFFFFFF000000000000000000000000000000000000000000000000FFFF00FFFF00FFFF000000000000000000000000000000000000000000000000FFFF00FFFF00FFFF000000000000000000000000000000000000000000000000FFFF00FFFF00FFFF0000000000000000000000000000000000000000000000
310
00FFFFFFFFFFFFFFFF000000000000000000000000000000000000000000000000FFFF00FFFF00FFFF000000000000000000000000000000000000000000000000FFFF00FFFF00FFFF000000000000000000000000000000000000000000000000FFFFFFFFFFFFFFFF00000000000000000000000000000000000000000000
310
0000FFFFFFFFFFFFFFFF000000000000000000000000000000000000000000000000FFFF00FFFF00FFFF000000000000000000000000000000000000000000000000FFFF00FFFF00FFFF000000000000000000000000000000000000000000000000FFFFFFFFFFFFFFFF000000000000000000000000000000000000000000
310
000000FFFF00FFFF00FFFF000000000000000000000000000000000000000000000000FFFF00FFFF00FFFF000000000000000000000000000000000000000000000000FFFF00FFFF00FFFF000000000000000000000000000000000000000000000000FFFFFFFFFFFFFFFF0000000000000000000000000000000000000000
310
00000000FFFFFFFFFFFFFFFF0000000000000000000000000000000000000000000000000000000000000000000000000000000000000000
102
{BLKREFS
331
245
102
}
 70
     4
280
     1
281
     0
  0
BLOCK_RECORD
  5
201
330
1
100
AcDbSymbolTableRecord
100
AcDbBlockTableRecord
  2
Gitterkorb WP134-01-d
340
0
310
2800000020000000200000000100080000000000000400000000000000000000000000000000000000000000000080000080000000808000800000008000800080800000C0C0C000C0DCC000F0CAA6000020400000206000002080000020A0000020C0000020E00000400000004020000040400000406000004080000040A0
310
000040C0000040E00000600000006020000060400000606000006080000060A0000060C0000060E00000800000008020000080400000806000008080000080A0000080C0000080E00000A0000000A0200000A0400000A0600000A0800000A0A00000A0C00000A0E00000C0000000C0200000C0400000C0600000C0800000C0
310
A00000C0C00000C0E00000E0000000E0200000E0400000E0600000E0800000E0A00000E0C00000E0E00040000000400020004000400040006000400080004000A0004000C0004000E00040200000402020004020400040206000402080004020A0004020C0004020E000404000004040200040404000404060004040800040
310
40A0004040C0004040E00040600000406020004060400040606000406080004060A0004060C0004060E00040800000408020004080400040806000408080004080A0004080C0004080E00040A0000040A0200040A0400040A0600040A0800040A0A00040A0C00040A0E00040C0000040C0200040C0400040C0600040C08000
310
40C0A00040C0C00040C0E00040E0000040E0200040E0400040E0600040E0800040E0A00040E0C00040E0E00080000000800020008000400080006000800080008000A0008000C0008000E00080200000802020008020400080206000802080008020A0008020C0008020E00080400000804020008040400080406000804080
310
008040A0008040C0008040E00080600000806020008060400080606000806080008060A0008060C0008060E00080800000808020008080400080806000808080008080A0008080C0008080E00080A0000080A0200080A0400080A0600080A0800080A0A00080A0C00080A0E00080C0000080C0200080C0400080C0600080C0
310
800080C0A00080C0C00080C0E00080E0000080E0200080E0400080E0600080E0800080E0A00080E0C00080E0E000C0000000C0002000C0004000C0006000C0008000C000A000C000C000C000E000C0200000C0202000C0204000C0206000C0208000C020A000C020C000C020E000C0400000C0402000C0404000C0406000C0
310
408000C040A000C040C000C040E000C0600000C0602000C0604000C0606000C0608000C060A000C060C000C060E000C0800000C0802000C0804000C0806000C0808000C080A000C080C000C080E000C0A00000C0A02000C0A04000C0A06000C0A08000C0A0A000C0A0C000C0A0E000C0C00000C0C02000C0C04000C0C06000
310
C0C08000C0C0A000F0FBFF00A4A0A000808080000000FF0000FF000000FFFF00FF000000FF00FF00FFFF0000FFFFFF0000000000000000000000000000000000000000000000000000000000000000000000000000000000000000000000000000000000000000000000000000000000000000000000000000000000000000
310
00000000000000000000000000000000000000000000000000000000000000000000000000000000000000000000000000000000000000000000000000000000000000000000000000000000000000000000000000000000000000000000000000000000000000000000000000000000000000000000000000000000000000
310
0000000000000000000000000000000000000000000000000000000000000000000000000000000000000000000000000000000000000000000000000000000000000000000000000000000000000000000000000000000000000000000000000000000000000000000000000000000000000000FFFFFFFFFFFFFFFFFFFFFF
310
FFFFFFFFFFFFFFFFFFFFFFFFFFFFFFFFFF000000FFFFFFFFFFFFFFFFFFFFFFFFFFFFFFFFFFFFFFFFFFFFFFFFFFFFFFFFFFFF0000FFFF00FFFF00000000FF00000000FFFF00000000FF00000000FFFF00FFFF0000FFFF00FFFF00000000FF00000000FFFF00000000FF00000000FFFF00FFFF0000FFFF00FFFF00000000FF00
310
000000FFFF00000000FF00000000FFFF00FFFF0000FFFFFFFFFFFFFFFFFFFFFFFFFFFFFFFFFFFFFFFFFFFFFFFFFFFFFFFFFFFF0000FFFFFFFFFFFFFFFFFFFFFFFFFFFFFFFFFFFFFFFFFFFFFFFFFFFFFFFFFFFF0000FFFF00FFFF00000000FF00000000FFFF00000000FF00000000FFFF00FFFF0000FFFF00FFFF00000000FF
310
00000000FFFF00000000FF00000000FFFF00FFFF0000FFFF00FFFF00000000FF00000000FFFF00000000FF00000000FFFF00FFFF0000FFFFFFFFFFFFFFFFFFFFFFFFFFFFFFFFFFFFFFFFFFFFFFFFFFFFFFFFFFFF000000FFFFFFFFFFFFFFFFFFFFFFFFFFFFFFFFFFFFFFFFFFFFFFFFFFFFFFFF000000000000000000000000
310
00000000000000000000000000000000000000000000000000000000000000000000000000000000000000000000000000000000000000000000000000000000000000000000000000000000000000000000000000000000000000000000000000000000000000000000000000000000000000000000000000000000000000
310
00000000000000000000000000000000000000000000000000000000000000000000000000000000000000000000000000000000000000000000000000000000000000000000000000000000000000000000000000000000000000000000000000000000000000000000000000000000000000000000000000000000000000
310
0000000000000000000000000000000000000000000000000000000000000000000000000000000000000000000000000000000000000000
102
{BLKREFS
331
200
102
}
 70
     4
280
     1
281
     0
  0
BLOCK_RECORD
  5
14D
330
1
100
AcDbSymbolTableRecord
100
AcDbBlockTableRecord
  2
*D21
340
0
 70
     0
280
     1
281
     0
  0
BLOCK_RECORD
  5
140
330
1
100
AcDbSymbolTableRecord
100
AcDbBlockTableRecord
  2
*D22
340
0
 70
     0
280
     1
281
     0
  0
BLOCK_RECORD
  5
133
330
1
100
AcDbSymbolTableRecord
100
AcDbBlockTableRecord
  2
*D23
340
0
 70
     0
280
     1
281
     0
  0
BLOCK_RECORD
  5
126
330
1
100
AcDbSymbolTableRecord
100
AcDbBlockTableRecord
  2
*D24
340
0
 70
     0
280
     1
281
     0
  0
BLOCK_RECORD
  5
119
330
1
100
AcDbSymbolTableRecord
100
AcDbBlockTableRecord
  2
*D25
340
0
 70
     0
280
     1
281
     0
  0
BLOCK_RECORD
  5
10C
330
1
100
AcDbSymbolTableRecord
100
AcDbBlockTableRecord
  2
*D26
340
0
 70
     0
280
     1
281
     0
  0
BLOCK_RECORD
  5
AA
102
{ACAD_XDICTIONARY
360
AB
102
}
330
1
100
AcDbSymbolTableRecord
100
AcDbBlockTableRecord
  2
Wagner A4
340
0
102
{BLKREFS
331
A9
102
}
 70
     4
280
     1
281
     0
  0
BLOCK_RECORD
  5
9A
330
1
100
AcDbSymbolTableRecord
100
AcDbBlockTableRecord
  2
*D28
340
0
 70
     0
280
     1
281
     0
  0
BLOCK_RECORD
  5
7A
102
{ACAD_XDICTIONARY
360
7B
102
}
330
1
100
AcDbSymbolTableRecord
100
AcDbBlockTableRecord
  2
langloch
340
0
102
{BLKREFS
331
98
331
97
331
96
331
79
102
}
 70
     4
280
     1
281
     0
  0
ENDTAB
  0
ENDSEC
  0
SECTION
  2
BLOCKS
  0
BLOCK
  5
5
330
2
100
AcDbEntity
  8
0
100
AcDbBlockBegin
  2
*Model_Space
 70
     0
 10
0.0
 20
0.0
 30
0.0
  3
*Model_Space
  1

  0
ENDBLK
  5
16
330
2
100
AcDbEntity
  8
0
100
AcDbBlockEnd
  0
BLOCK
  5
1C
330
1B
100
AcDbEntity
 67
     1
  8
0
100
AcDbBlockBegin
  2
*Paper_Space
 70
     0
 10
0.0
 20
0.0
 30
0.0
  3
*Paper_Space
  1

  0
ENDBLK
  5
1D
330
1B
100
AcDbEntity
 67
     1
  8
0
100
AcDbBlockEnd
  0
BLOCK
  5
4AD
330
4AC
100
AcDbEntity
  8
0
100
AcDbBlockBegin
  2
*D0
 70
     1
 10
0.0
 20
0.0
 30
0.0
  3
*D0
  1

  0
LINE
  5
4AE
330
4AC
100
AcDbEntity
  8
09-01
 62
     4
370
    -2
100
AcDbLine
 10
461.7517397708629
 20
732.6492690065228
 30
0.0
 11
461.7517397708629
 21
741.7822361127132
 31
0.0
  0
LINE
  5
4AF
330
4AC
100
AcDbEntity
  8
09-01
 62
     4
370
    -2
100
AcDbLine
 10
488.7484465699217
 20
732.6492690065228
 30
0.0
 11
488.7484465699217
 21
741.7822361127132
 31
0.0
  0
LINE
  5
4B0
330
4AC
100
AcDbEntity
  8
09-01
 62
     4
370
    -2
100
AcDbLine
 10
449.2517397708629
 20
736.7822361127132
 30
0.0
 11
436.7517397708629
 21
736.7822361127132
 31
0.0
  0
LINE
  5
4B1
330
4AC
100
AcDbEntity
  8
09-01
 62
     4
370
    -2
100
AcDbLine
 10
501.2484465699217
 20
736.7822361127132
 30
0.0
 11
513.7484465699217
 21
736.7822361127132
 31
0.0
  0
MTEXT
  5
4B2
330
4AC
100
AcDbEntity
  8
09-01
 62
     1
100
AcDbMText
 10
514.7484465699217
 20
749.3334307322284
 30
0.0
 40
12.5
 41
0.0
 46
0.0
 71
     5
 72
     1
  1
27
 73
     1
 44
1.0
  0
LINE
  5
4B3
330
4AC
100
AcDbEntity
  8
09-01
 62
     4
370
    -2
100
AcDbLine
 10
461.7517397708629
 20
736.7822361127132
 30
0.0
 11
488.7484465699217
 21
736.7822361127132
 31
0.0
  0
SOLID
  5
4B4
330
4AC
100
AcDbEntity
  8
09-01
 62
     4
100
AcDbTrace
 10
449.2517397708629
 20
738.8655694460465
 30
0.0
 11
449.2517397708629
 21
734.6989027793799
 31
0.0
 12
461.7517397708629
 22
736.7822361127132
 32
0.0
 13
461.7517397708629
 23
736.7822361127132
 33
0.0
  0
SOLID
  5
4B5
330
4AC
100
AcDbEntity
  8
09-01
 62
     4
100
AcDbTrace
 10
501.2484465699217
 20
738.8655694460465
 30
0.0
 11
501.2484465699217
 21
734.6989027793799
 31
0.0
 12
488.7484465699217
 22
736.7822361127132
 32
0.0
 13
488.7484465699217
 23
736.7822361127132
 33
0.0
  0
POINT
  5
4B6
330
4AC
100
AcDbEntity
  8
DEFPOINTS
 62
     0
100
AcDbPoint
 10
461.7517397708629
 20
727.6492690065229
 30
0.0
  0
POINT
  5
4B7
330
4AC
100
AcDbEntity
  8
DEFPOINTS
 62
     0
100
AcDbPoint
 10
488.7484465699217
 20
727.6492690065229
 30
0.0
  0
POINT
  5
4B8
330
4AC
100
AcDbEntity
  8
DEFPOINTS
 62
     0
100
AcDbPoint
 10
488.7484465699217
 20
736.7822361127132
 30
0.0
  0
ENDBLK
  5
4B9
330
4AC
100
AcDbEntity
  8
0
100
AcDbBlockEnd
  0
BLOCK
  5
541
330
540
100
AcDbEntity
  8
0
100
AcDbBlockBegin
  2
*D1
 70
     1
 10
0.0
 20
0.0
 30
0.0
  3
*D1
  1

  0
LINE
  5
542
330
540
100
AcDbEntity
  8
09-01
 62
     4
370
    -2
100
AcDbLine
 10
507.7484465699218
 20
994.1338255920431
 30
0.0
 11
561.6071607657393
 21
994.1338255920431
 31
0.0
  0
LINE
  5
543
330
540
100
AcDbEntity
  8
09-01
 62
     4
370
    -2
100
AcDbLine
 10
493.7484465699217
 20
403.6170927098239
 30
0.0
 11
561.6071607657391
 21
403.6170927098239
 31
0.0
  0
LINE
  5
544
330
540
100
AcDbEntity
  8
09-01
 62
     4
370
    -2
100
AcDbLine
 10
556.6071607657392
 20
981.6338255920431
 30
0.0
 11
556.6071607657391
 21
416.1170927098239
 31
0.0
  0
SOLID
  5
545
330
540
100
AcDbEntity
  8
09-01
 62
     4
100
AcDbTrace
 10
554.5238274324059
 20
981.6338255920431
 30
0.0
 11
558.6904940990726
 21
981.6338255920431
 31
0.0
 12
556.6071607657392
 22
994.1338255920431
 32
0.0
 13
556.6071607657392
 23
994.1338255920431
 33
0.0
  0
SOLID
  5
546
330
540
100
AcDbEntity
  8
09-01
 62
     4
100
AcDbTrace
 10
554.5238274324058
 20
416.1170927098239
 30
0.0
 11
558.6904940990725
 21
416.1170927098239
 31
0.0
 12
556.6071607657391
 22
403.6170927098239
 32
0.0
 13
556.6071607657391
 23
403.6170927098239
 33
0.0
  0
MTEXT
  5
547
330
540
100
AcDbEntity
  8
09-01
 62
     1
100
AcDbMText
 10
545.3571607657391
 20
698.8754591509336
 30
0.0
 40
12.5
 41
0.0
 46
0.0
 71
     5
 72
     1
  1
590.5
 11
0.0000000000000001
 21
1.0
 31
0.0
 73
     1
 44
1.0
  0
POINT
  5
548
330
540
100
AcDbEntity
  8
DEFPOINTS
 62
     0
100
AcDbPoint
 10
502.7484465699218
 20
994.1338255920431
 30
0.0
  0
POINT
  5
549
330
540
100
AcDbEntity
  8
DEFPOINTS
 62
     0
100
AcDbPoint
 10
488.7484465699217
 20
403.6170927098239
 30
0.0
  0
POINT
  5
54A
330
540
100
AcDbEntity
  8
DEFPOINTS
 62
     0
100
AcDbPoint
 10
556.6071607657391
 20
403.6170927098239
 30
0.0
  0
ENDBLK
  5
54B
330
540
100
AcDbEntity
  8
0
100
AcDbBlockEnd
  0
BLOCK
  5
54E
330
54D
100
AcDbEntity
  8
0
100
AcDbBlockBegin
  2
*D2
 70
     1
 10
0.0
 20
0.0
 30
0.0
  3
*D2
  1

  0
LINE
  5
54F
330
54D
100
AcDbEntity
  8
01-01
 62
     4
370
    -2
100
AcDbLine
 10
498.7484465699217
 20
1451.617092709824
 30
0.0
 11
591.3880362022096
 21
1451.617092709823
 31
0.0
  0
LINE
  5
550
330
54D
100
AcDbEntity
  8
01-01
 62
     4
370
    -2
100
AcDbLine
 10
498.7484465699217
 20
403.6170927098239
 30
0.0
 11
591.3880362022093
 21
403.6170927098239
 31
0.0
  0
LINE
  5
551
330
54D
100
AcDbEntity
  8
01-01
 62
     4
370
    -2
100
AcDbLine
 10
586.3880362022095
 20
1439.117092709824
 30
0.0
 11
586.3880362022094
 21
416.1170927098239
 31
0.0
  0
SOLID
  5
552
330
54D
100
AcDbEntity
  8
01-01
 62
     4
100
AcDbTrace
 10
584.3047028688762
 20
1439.117092709824
 30
0.0
 11
588.4713695355429
 21
1439.117092709824
 31
0.0
 12
586.3880362022095
 22
1451.617092709823
 32
0.0
 13
586.3880362022095
 23
1451.617092709823
 33
0.0
  0
SOLID
  5
553
330
54D
100
AcDbEntity
  8
01-01
 62
     4
100
AcDbTrace
 10
584.304702868876
 20
416.1170927098239
 30
0.0
 11
588.4713695355427
 21
416.1170927098239
 31
0.0
 12
586.3880362022094
 22
403.6170927098239
 32
0.0
 13
586.3880362022094
 23
403.6170927098239
 33
0.0
  0
MTEXT
  5
554
330
54D
100
AcDbEntity
  8
01-01
 62
     1
100
AcDbMText
 10
575.1380362022092
 20
927.617092709824
 30
0.0
 40
12.5
 41
0.0
 46
0.0
 71
     5
 72
     1
  1
1048
 11
0.0000000000000001
 21
1.0
 31
0.0
 73
     1
 44
1.0
  0
POINT
  5
555
330
54D
100
AcDbEntity
  8
DEFPOINTS
 62
     0
100
AcDbPoint
 10
493.7484465699217
 20
1451.617092709824
 30
0.0
  0
POINT
  5
556
330
54D
100
AcDbEntity
  8
DEFPOINTS
 62
     0
100
AcDbPoint
 10
493.7484465699217
 20
403.6170927098239
 30
0.0
  0
POINT
  5
557
330
54D
100
AcDbEntity
  8
DEFPOINTS
 62
     0
100
AcDbPoint
 10
586.3880362022094
 20
403.6170927098239
 30
0.0
  0
ENDBLK
  5
558
330
54D
100
AcDbEntity
  8
0
100
AcDbBlockEnd
  0
BLOCK
  5
46B
330
46A
100
AcDbEntity
  8
0
100
AcDbBlockBegin
  2
*D3
 70
     1
 10
0.0
 20
0.0
 30
0.0
  3
*D3
  1

  0
LINE
  5
46C
330
46A
100
AcDbEntity
  8
09-01
 62
     4
370
    -2
100
AcDbLine
 10
195.7484465699216
 20
973.1197160913078
 30
0.0
 11
153.3406050804302
 21
973.1197160913078
 31
0.0
  0
LINE
  5
46D
330
46A
100
AcDbEntity
  8
09-01
 62
     4
370
    -2
100
AcDbLine
 10
186.7668869316202
 20
994.119716091307
 30
0.0
 11
153.3406050804302
 21
994.119716091307
 31
0.0
  0
LINE
  5
46E
330
46A
100
AcDbEntity
  8
09-01
 62
     4
370
    -2
100
AcDbLine
 10
158.3406050804302
 20
960.6197160913078
 30
0.0
 11
158.3406050804302
 21
948.1197160913078
 31
0.0
  0
LINE
  5
46F
330
46A
100
AcDbEntity
  8
09-01
 62
     4
370
    -2
100
AcDbLine
 10
158.3406050804302
 20
1006.619716091307
 30
0.0
 11
158.3406050804302
 21
1019.119716091307
 31
0.0
  0
LINE
  5
470
330
46A
100
AcDbEntity
  8
09-01
 62
     4
370
    -2
100
AcDbLine
 10
158.3406050804302
 20
973.1197160913078
 30
0.0
 11
158.3406050804302
 21
994.119716091307
 31
0.0
  0
SOLID
  5
471
330
46A
100
AcDbEntity
  8
09-01
 62
     4
100
AcDbTrace
 10
156.2572717470969
 20
960.6197160913078
 30
0.0
 11
160.4239384137636
 21
960.6197160913078
 31
0.0
 12
158.3406050804302
 22
973.1197160913078
 32
0.0
 13
158.3406050804302
 23
973.1197160913078
 33
0.0
  0
SOLID
  5
472
330
46A
100
AcDbEntity
  8
09-01
 62
     4
100
AcDbTrace
 10
156.2572717470969
 20
1006.619716091307
 30
0.0
 11
160.4239384137636
 21
1006.619716091307
 31
0.0
 12
158.3406050804302
 22
994.119716091307
 32
0.0
 13
158.3406050804302
 23
994.119716091307
 33
0.0
  0
MTEXT
  5
473
330
46A
100
AcDbEntity
  8
09-01
 62
     1
100
AcDbMText
 10
147.09060508043
 20
983.6197160913073
 30
0.0
 40
12.5
 41
0.0
 46
0.0
 71
     5
 72
     1
  1
21
 11
0.0000000000000001
 21
1.0
 31
0.0
 73
     1
 44
1.0
  0
POINT
  5
474
330
46A
100
AcDbEntity
  8
DEFPOINTS
 62
     0
100
AcDbPoint
 10
200.7484465699216
 20
973.1197160913078
 30
0.0
  0
POINT
  5
475
330
46A
100
AcDbEntity
  8
DEFPOINTS
 62
     0
100
AcDbPoint
 10
191.7668869316202
 20
994.119716091307
 30
0.0
  0
POINT
  5
476
330
46A
100
AcDbEntity
  8
DEFPOINTS
 62
     0
100
AcDbPoint
 10
158.3406050804302
 20
994.119716091307
 30
0.0
  0
ENDBLK
  5
477
330
46A
100
AcDbEntity
  8
0
100
AcDbBlockEnd
  0
BLOCK
  5
525
330
524
100
AcDbEntity
  8
0
100
AcDbBlockBegin
  2
*D4
 70
     1
 10
0.0
 20
0.0
 30
0.0
  3
*D4
  1

  0
LINE
  5
526
330
524
100
AcDbEntity
  8
09-01
 62
     4
370
    -2
100
AcDbLine
 10
200.7484465699216
 20
973.1197160913078
 30
0.0
 11
153.3406050804302
 21
973.1197160913078
 31
0.0
  0
LINE
  5
527
330
524
100
AcDbEntity
  8
09-01
 62
     4
370
    -2
100
AcDbLine
 10
200.7484465699216
 20
850.1201280201989
 30
0.0
 11
153.3406050804302
 21
850.1201280201989
 31
0.0
  0
LINE
  5
528
330
524
100
AcDbEntity
  8
09-01
 62
     4
370
    -2
100
AcDbLine
 10
158.3406050804302
 20
960.6197160913078
 30
0.0
 11
158.3406050804302
 21
862.6201280201989
 31
0.0
  0
SOLID
  5
529
330
524
100
AcDbEntity
  8
09-01
 62
     4
100
AcDbTrace
 10
156.2572717470969
 20
960.6197160913078
 30
0.0
 11
160.4239384137636
 21
960.6197160913078
 31
0.0
 12
158.3406050804302
 22
973.1197160913078
 32
0.0
 13
158.3406050804302
 23
973.1197160913078
 33
0.0
  0
SOLID
  5
52A
330
524
100
AcDbEntity
  8
09-01
 62
     4
100
AcDbTrace
 10
156.2572717470969
 20
862.6201280201989
 30
0.0
 11
160.4239384137636
 21
862.6201280201989
 31
0.0
 12
158.3406050804302
 22
850.1201280201989
 32
0.0
 13
158.3406050804302
 23
850.1201280201989
 33
0.0
  0
MTEXT
  5
52B
330
524
100
AcDbEntity
  8
09-01
 62
     1
100
AcDbMText
 10
147.0906050804301
 20
911.6199220557533
 30
0.0
 40
12.5
 41
0.0
 46
0.0
 71
     5
 72
     1
  1
123
 11
0.0000000000000001
 21
1.0
 31
0.0
 73
     1
 44
1.0
  0
POINT
  5
52C
330
524
100
AcDbEntity
  8
DEFPOINTS
 62
     0
100
AcDbPoint
 10
205.7484465699216
 20
973.1197160913078
 30
0.0
  0
POINT
  5
52D
330
524
100
AcDbEntity
  8
DEFPOINTS
 62
     0
100
AcDbPoint
 10
205.7484465699216
 20
850.1201280201989
 30
0.0
  0
POINT
  5
52E
330
524
100
AcDbEntity
  8
DEFPOINTS
 62
     0
100
AcDbPoint
 10
158.3406050804302
 20
850.1201280201989
 30
0.0
  0
ENDBLK
  5
52F
330
524
100
AcDbEntity
  8
0
100
AcDbBlockEnd
  0
BLOCK
  5
44C
330
44B
100
AcDbEntity
  8
0
100
AcDbBlockBegin
  2
*D5
 70
     1
 10
0.0
 20
0.0
 30
0.0
  3
*D5
  1

  0
LINE
  5
44D
330
44B
100
AcDbEntity
  8
09-01
 62
     4
370
    -2
100
AcDbLine
 10
507.7484465699217
 20
1003.119716091307
 30
0.0
 11
561.607160765739
 21
1003.119716091307
 31
0.0
  0
LINE
  5
44E
330
44B
100
AcDbEntity
  8
09-01
 62
     4
370
    -2
100
AcDbLine
 10
493.7484465699217
 20
1451.617092709824
 30
0.0
 11
561.6071607657391
 21
1451.617092709823
 31
0.0
  0
LINE
  5
44F
330
44B
100
AcDbEntity
  8
09-01
 62
     4
370
    -2
100
AcDbLine
 10
556.6071607657391
 20
1015.619716091307
 30
0.0
 11
556.6071607657391
 21
1439.117092709824
 31
0.0
  0
SOLID
  5
450
330
44B
100
AcDbEntity
  8
09-01
 62
     4
100
AcDbTrace
 10
554.5238274324057
 20
1015.619716091307
 30
0.0
 11
558.6904940990724
 21
1015.619716091307
 31
0.0
 12
556.6071607657391
 22
1003.119716091307
 32
0.0
 13
556.6071607657391
 23
1003.119716091307
 33
0.0
  0
SOLID
  5
451
330
44B
100
AcDbEntity
  8
09-01
 62
     4
100
AcDbTrace
 10
554.5238274324058
 20
1439.117092709824
 30
0.0
 11
558.6904940990725
 21
1439.117092709824
 31
0.0
 12
556.6071607657391
 22
1451.617092709823
 32
0.0
 13
556.6071607657391
 23
1451.617092709823
 33
0.0
  0
MTEXT
  5
452
330
44B
100
AcDbEntity
  8
09-01
 62
     1
100
AcDbMText
 10
545.3571607657389
 20
1227.368404400565
 30
0.0
 40
12.5
 41
0.0
 46
0.0
 71
     5
 72
     1
  1
448.5
 11
0.0000000000000001
 21
1.0
 31
0.0
 73
     1
 44
1.0
  0
POINT
  5
453
330
44B
100
AcDbEntity
  8
DEFPOINTS
 62
     0
100
AcDbPoint
 10
502.7484465699217
 20
1003.119716091307
 30
0.0
  0
POINT
  5
454
330
44B
100
AcDbEntity
  8
DEFPOINTS
 62
     0
100
AcDbPoint
 10
488.7484465699217
 20
1451.617092709824
 30
0.0
  0
POINT
  5
455
330
44B
100
AcDbEntity
  8
DEFPOINTS
 62
     0
100
AcDbPoint
 10
556.6071607657391
 20
1451.617092709823
 30
0.0
  0
ENDBLK
  5
456
330
44B
100
AcDbEntity
  8
0
100
AcDbBlockEnd
  0
BLOCK
  5
518
330
517
100
AcDbEntity
  8
0
100
AcDbBlockBegin
  2
*D6
 70
     1
 10
0.0
 20
0.0
 30
0.0
  3
*D6
  1

  0
LINE
  5
519
330
517
100
AcDbEntity
  8
09-01
 62
     4
370
    -2
100
AcDbLine
 10
473.7484465699217
 20
892.1201280201982
 30
0.0
 11
473.7484465699217
 21
911.832374760436
 31
0.0
  0
LINE
  5
51A
330
517
100
AcDbEntity
  8
09-01
 62
     4
370
    -2
100
AcDbLine
 10
205.7484465699216
 20
892.1201280201989
 30
0.0
 11
205.7484465699216
 21
911.832374760436
 31
0.0
  0
LINE
  5
51B
330
517
100
AcDbEntity
  8
09-01
 62
     4
370
    -2
100
AcDbLine
 10
461.2484465699217
 20
906.8323747604361
 30
0.0
 11
218.2484465699216
 21
906.8323747604361
 31
0.0
  0
SOLID
  5
51C
330
517
100
AcDbEntity
  8
09-01
 62
     4
100
AcDbTrace
 10
461.2484465699217
 20
908.9157080937694
 30
0.0
 11
461.2484465699217
 21
904.7490414271027
 31
0.0
 12
473.7484465699217
 22
906.8323747604361
 32
0.0
 13
473.7484465699217
 23
906.8323747604361
 33
0.0
  0
SOLID
  5
51D
330
517
100
AcDbEntity
  8
09-01
 62
     4
100
AcDbTrace
 10
218.2484465699216
 20
908.9157080937694
 30
0.0
 11
218.2484465699216
 21
904.7490414271027
 31
0.0
 12
205.7484465699216
 22
906.8323747604361
 32
0.0
 13
205.7484465699216
 23
906.8323747604361
 33
0.0
  0
MTEXT
  5
51E
330
517
100
AcDbEntity
  8
09-01
 62
     1
100
AcDbMText
 10
339.7484465699217
 20
918.082374760436
 30
0.0
 40
12.5
 41
0.0
 46
0.0
 71
     5
 72
     1
  1
268
 73
     1
 44
1.0
  0
POINT
  5
51F
330
517
100
AcDbEntity
  8
DEFPOINTS
 62
     0
100
AcDbPoint
 10
473.7484465699217
 20
887.1201280201983
 30
0.0
  0
POINT
  5
520
330
517
100
AcDbEntity
  8
DEFPOINTS
 62
     0
100
AcDbPoint
 10
205.7484465699216
 20
887.120128020199
 30
0.0
  0
POINT
  5
521
330
517
100
AcDbEntity
  8
DEFPOINTS
 62
     0
100
AcDbPoint
 10
205.7484465699216
 20
906.8323747604361
 30
0.0
  0
ENDBLK
  5
522
330
517
100
AcDbEntity
  8
0
100
AcDbBlockEnd
  0
BLOCK
  5
436
330
435
100
AcDbEntity
  8
0
100
AcDbBlockBegin
  2
*D7
 70
     1
 10
0.0
 20
0.0
 30
0.0
  3
*D7
  1

  0
LINE
  5
437
330
435
100
AcDbEntity
  8
09-01
 62
     4
370
    -2
100
AcDbLine
 10
492.7484465699217
 20
1003.119716091307
 30
0.0
 11
561.607160765739
 21
1003.119716091307
 31
0.0
  0
LINE
  5
438
330
435
100
AcDbEntity
  8
09-01
 62
     4
370
    -2
100
AcDbLine
 10
492.7484465699217
 20
994.119716091307
 30
0.0
 11
561.607160765739
 21
994.119716091307
 31
0.0
  0
LINE
  5
439
330
435
100
AcDbEntity
  8
09-01
 62
     4
370
    -2
100
AcDbLine
 10
556.6071607657391
 20
1015.619716091307
 30
0.0
 11
556.6071607657391
 21
1028.119716091307
 31
0.0
  0
LINE
  5
43A
330
435
100
AcDbEntity
  8
09-01
 62
     4
370
    -2
100
AcDbLine
 10
556.6071607657391
 20
981.619716091307
 30
0.0
 11
556.6071607657391
 21
969.119716091307
 31
0.0
  0
MTEXT
  5
43B
330
435
100
AcDbEntity
  8
09-01
 62
     1
100
AcDbMText
 10
541.6876341508005
 20
970.3334307322284
 30
0.0
 40
12.5
 41
0.0
 46
0.0
 71
     5
 72
     1
  1
9
 11
0.0000000000000001
 21
1.0
 31
0.0
 73
     1
 44
1.0
  0
LINE
  5
43C
330
435
100
AcDbEntity
  8
09-01
 62
     4
370
    -2
100
AcDbLine
 10
556.6071607657391
 20
1003.119716091307
 30
0.0
 11
556.6071607657391
 21
994.119716091307
 31
0.0
  0
SOLID
  5
43D
330
435
100
AcDbEntity
  8
09-01
 62
     4
100
AcDbTrace
 10
554.5238274324057
 20
1015.619716091307
 30
0.0
 11
558.6904940990724
 21
1015.619716091307
 31
0.0
 12
556.6071607657391
 22
1003.119716091307
 32
0.0
 13
556.6071607657391
 23
1003.119716091307
 33
0.0
  0
SOLID
  5
43E
330
435
100
AcDbEntity
  8
09-01
 62
     4
100
AcDbTrace
 10
554.5238274324057
 20
981.619716091307
 30
0.0
 11
558.6904940990724
 21
981.619716091307
 31
0.0
 12
556.6071607657391
 22
994.119716091307
 32
0.0
 13
556.6071607657391
 23
994.119716091307
 33
0.0
  0
POINT
  5
43F
330
435
100
AcDbEntity
  8
DEFPOINTS
 62
     0
100
AcDbPoint
 10
487.7484465699217
 20
1003.119716091307
 30
0.0
  0
POINT
  5
440
330
435
100
AcDbEntity
  8
DEFPOINTS
 62
     0
100
AcDbPoint
 10
487.7484465699217
 20
994.119716091307
 30
0.0
  0
POINT
  5
441
330
435
100
AcDbEntity
  8
DEFPOINTS
 62
     0
100
AcDbPoint
 10
556.6071607657391
 20
994.119716091307
 30
0.0
  0
ENDBLK
  5
442
330
435
100
AcDbEntity
  8
0
100
AcDbBlockEnd
  0
BLOCK
  5
532
330
531
100
AcDbEntity
  8
0
100
AcDbBlockBegin
  2
*D8
 70
     1
 10
0.0
 20
0.0
 30
0.0
  3
*D8
  1

  0
LINE
  5
533
330
531
100
AcDbEntity
  8
09-01
 62
     4
370
    -2
100
AcDbLine
 10
473.7484465699217
 20
892.1201280201982
 30
0.0
 11
473.7484465699217
 21
911.832374760436
 31
0.0
  0
LINE
  5
534
330
531
100
AcDbEntity
  8
09-01
 62
     4
370
    -2
100
AcDbLine
 10
488.7484465699217
 20
892.1201280201987
 30
0.0
 11
488.7484465699217
 21
911.832374760436
 31
0.0
  0
LINE
  5
535
330
531
100
AcDbEntity
  8
09-01
 62
     4
370
    -2
100
AcDbLine
 10
461.2484465699217
 20
906.8323747604361
 30
0.0
 11
448.7484465699217
 21
906.8323747604361
 31
0.0
  0
LINE
  5
536
330
531
100
AcDbEntity
  8
09-01
 62
     4
370
    -2
100
AcDbLine
 10
501.2484465699217
 20
906.8323747604361
 30
0.0
 11
513.7484465699217
 21
906.8323747604361
 31
0.0
  0
MTEXT
  5
537
330
531
100
AcDbEntity
  8
09-01
 62
     1
100
AcDbMText
 10
514.808817844163
 20
917.5625572551535
 30
0.0
 40
12.5
 41
0.0
 46
0.0
 71
     5
 72
     1
  1
15
 73
     1
 44
1.0
  0
LINE
  5
538
330
531
100
AcDbEntity
  8
09-01
 62
     4
370
    -2
100
AcDbLine
 10
473.7484465699217
 20
906.8323747604361
 30
0.0
 11
488.7484465699217
 21
906.8323747604361
 31
0.0
  0
SOLID
  5
539
330
531
100
AcDbEntity
  8
09-01
 62
     4
100
AcDbTrace
 10
461.2484465699217
 20
908.9157080937694
 30
0.0
 11
461.2484465699217
 21
904.7490414271027
 31
0.0
 12
473.7484465699217
 22
906.8323747604361
 32
0.0
 13
473.7484465699217
 23
906.8323747604361
 33
0.0
  0
SOLID
  5
53A
330
531
100
AcDbEntity
  8
09-01
 62
     4
100
AcDbTrace
 10
501.2484465699217
 20
908.9157080937694
 30
0.0
 11
501.2484465699217
 21
904.7490414271027
 31
0.0
 12
488.7484465699217
 22
906.8323747604361
 32
0.0
 13
488.7484465699217
 23
906.8323747604361
 33
0.0
  0
POINT
  5
53B
330
531
100
AcDbEntity
  8
DEFPOINTS
 62
     0
100
AcDbPoint
 10
473.7484465699217
 20
887.1201280201983
 30
0.0
  0
POINT
  5
53C
330
531
100
AcDbEntity
  8
DEFPOINTS
 62
     0
100
AcDbPoint
 10
488.7484465699217
 20
887.1201280201987
 30
0.0
  0
POINT
  5
53D
330
531
100
AcDbEntity
  8
DEFPOINTS
 62
     0
100
AcDbPoint
 10
488.7484465699217
 20
906.8323747604361
 30
0.0
  0
ENDBLK
  5
53E
330
531
100
AcDbEntity
  8
0
100
AcDbBlockEnd
  0
BLOCK
  5
3DC
330
3DB
100
AcDbEntity
  8
0
100
AcDbBlockBegin
  2
*D9
 70
     1
 10
0.0
 20
0.0
 30
0.0
  3
*D9
  1

  0
LINE
  5
3DD
330
3DB
100
AcDbEntity
  8
01-01
 62
     4
370
    -2
100
AcDbLine
 10
738.585434236129
 20
1451.617092709826
 30
0.0
 11
668.1615870262287
 21
1451.617092709826
 31
0.0
  0
LINE
  5
3DE
330
3DB
100
AcDbEntity
  8
01-01
 62
     4
370
    -2
100
AcDbLine
 10
738.585434236129
 20
403.6170927098265
 30
0.0
 11
668.1615870262285
 21
403.6170927098265
 31
0.0
  0
LINE
  5
3DF
330
3DB
100
AcDbEntity
  8
01-01
 62
     4
370
    -2
100
AcDbLine
 10
673.1615870262287
 20
1439.117092709826
 30
0.0
 11
673.1615870262285
 21
416.1170927098265
 31
0.0
  0
SOLID
  5
3E0
330
3DB
100
AcDbEntity
  8
01-01
 62
     4
100
AcDbTrace
 10
671.0782536928953
 20
1439.117092709826
 30
0.0
 11
675.2449203595621
 21
1439.117092709826
 31
0.0
 12
673.1615870262287
 22
1451.617092709826
 32
0.0
 13
673.1615870262287
 23
1451.617092709826
 33
0.0
  0
SOLID
  5
3E1
330
3DB
100
AcDbEntity
  8
01-01
 62
     4
100
AcDbTrace
 10
671.0782536928951
 20
416.1170927098265
 30
0.0
 11
675.2449203595618
 21
416.1170927098265
 31
0.0
 12
673.1615870262285
 22
403.6170927098265
 32
0.0
 13
673.1615870262285
 23
403.6170927098265
 33
0.0
  0
MTEXT
  5
3E2
330
3DB
100
AcDbEntity
  8
01-01
 62
     1
100
AcDbMText
 10
661.9115870262284
 20
927.6170927098267
 30
0.0
 40
12.5
 41
0.0
 46
0.0
 71
     5
 72
     1
  1
1048
 11
0.0000000000000001
 21
1.0
 31
0.0
 73
     1
 44
1.0
  0
POINT
  5
3E3
330
3DB
100
AcDbEntity
  8
DEFPOINTS
 62
     0
100
AcDbPoint
 10
743.585434236129
 20
1451.617092709826
 30
0.0
  0
POINT
  5
3E4
330
3DB
100
AcDbEntity
  8
DEFPOINTS
 62
     0
100
AcDbPoint
 10
743.585434236129
 20
403.6170927098265
 30
0.0
  0
POINT
  5
3E5
330
3DB
100
AcDbEntity
  8
DEFPOINTS
 62
     0
100
AcDbPoint
 10
673.1615870262285
 20
403.6170927098265
 30
0.0
  0
ENDBLK
  5
3E6
330
3DB
100
AcDbEntity
  8
0
100
AcDbBlockEnd
  0
BLOCK
  5
3E9
330
3E8
100
AcDbEntity
  8
0
100
AcDbBlockBegin
  2
*D10
 70
     1
 10
0.0
 20
0.0
 30
0.0
  3
*D10
  1

  0
LINE
  5
3EA
330
3E8
100
AcDbEntity
  8
09-01
 62
     4
370
    -2
100
AcDbLine
 10
873.5854133122625
 20
994.119716091307
 30
0.0
 11
954.4617728706695
 21
994.119716091307
 31
0.0
  0
LINE
  5
3EB
330
3E8
100
AcDbEntity
  8
09-01
 62
     4
370
    -2
100
AcDbLine
 10
863.5854133122625
 20
404.6170927098264
 30
0.0
 11
954.4617728706693
 21
404.6170927098263
 31
0.0
  0
LINE
  5
3EC
330
3E8
100
AcDbEntity
  8
09-01
 62
     4
370
    -2
100
AcDbLine
 10
949.4617728706694
 20
981.619716091307
 30
0.0
 11
949.4617728706694
 21
417.1170927098263
 31
0.0
  0
SOLID
  5
3ED
330
3E8
100
AcDbEntity
  8
09-01
 62
     4
100
AcDbTrace
 10
947.378439537336
 20
981.619716091307
 30
0.0
 11
951.5451062040028
 21
981.619716091307
 31
0.0
 12
949.4617728706694
 22
994.119716091307
 32
0.0
 13
949.4617728706694
 23
994.119716091307
 33
0.0
  0
SOLID
  5
3EE
330
3E8
100
AcDbEntity
  8
09-01
 62
     4
100
AcDbTrace
 10
947.378439537336
 20
417.1170927098263
 30
0.0
 11
951.5451062040026
 21
417.1170927098263
 31
0.0
 12
949.4617728706694
 22
404.6170927098263
 32
0.0
 13
949.4617728706694
 23
404.6170927098263
 33
0.0
  0
MTEXT
  5
3EF
330
3E8
100
AcDbEntity
  8
09-01
 62
     1
100
AcDbMText
 10
938.2117728706692
 20
699.3684044005668
 30
0.0
 40
12.5
 41
0.0
 46
0.0
 71
     5
 72
     1
  1
589.5 Tür
 11
0.0000000000000001
 21
1.0
 31
0.0
 73
     1
 44
1.0
  0
POINT
  5
3F0
330
3E8
100
AcDbEntity
  8
DEFPOINTS
 62
     0
100
AcDbPoint
 10
868.5854133122624
 20
994.119716091307
 30
0.0
  0
POINT
  5
3F1
330
3E8
100
AcDbEntity
  8
DEFPOINTS
 62
     0
100
AcDbPoint
 10
858.5854133122625
 20
404.6170927098264
 30
0.0
  0
POINT
  5
3F2
330
3E8
100
AcDbEntity
  8
DEFPOINTS
 62
     0
100
AcDbPoint
 10
949.4617728706694
 20
404.6170927098263
 30
0.0
  0
ENDBLK
  5
3F3
330
3E8
100
AcDbEntity
  8
0
100
AcDbBlockEnd
  0
BLOCK
  5
3F6
330
3F5
100
AcDbEntity
  8
0
100
AcDbBlockBegin
  2
*D11
 70
     1
 10
0.0
 20
0.0
 30
0.0
  3
*D11
  1

  0
LINE
  5
3F7
330
3F5
100
AcDbEntity
  8
01-01
 62
     4
370
    -2
100
AcDbLine
 10
878.5854133122624
 20
1451.617092709826
 30
0.0
 11
983.8291921447382
 21
1451.617092709826
 31
0.0
  0
LINE
  5
3F8
330
3F5
100
AcDbEntity
  8
01-01
 62
     4
370
    -2
100
AcDbLine
 10
858.5854133122625
 20
403.6170927098265
 30
0.0
 11
983.829192144738
 21
403.6170927098264
 31
0.0
  0
LINE
  5
3F9
330
3F5
100
AcDbEntity
  8
01-01
 62
     4
370
    -2
100
AcDbLine
 10
978.8291921447383
 20
1439.117092709826
 30
0.0
 11
978.8291921447379
 21
416.1170927098264
 31
0.0
  0
SOLID
  5
3FA
330
3F5
100
AcDbEntity
  8
01-01
 62
     4
100
AcDbTrace
 10
976.7458588114049
 20
1439.117092709826
 30
0.0
 11
980.9125254780717
 21
1439.117092709826
 31
0.0
 12
978.8291921447383
 22
1451.617092709826
 32
0.0
 13
978.8291921447383
 23
1451.617092709826
 33
0.0
  0
SOLID
  5
3FB
330
3F5
100
AcDbEntity
  8
01-01
 62
     4
100
AcDbTrace
 10
976.7458588114047
 20
416.1170927098264
 30
0.0
 11
980.9125254780713
 21
416.1170927098264
 31
0.0
 12
978.8291921447379
 22
403.6170927098264
 32
0.0
 13
978.8291921447379
 23
403.6170927098264
 33
0.0
  0
MTEXT
  5
3FC
330
3F5
100
AcDbEntity
  8
01-01
 62
     1
100
AcDbMText
 10
967.5791921447379
 20
927.6170927098265
 30
0.0
 40
12.5
 41
0.0
 46
0.0
 71
     5
 72
     1
  1
1048
 11
0.0000000000000001
 21
1.0
 31
0.0
 73
     1
 44
1.0
  0
POINT
  5
3FD
330
3F5
100
AcDbEntity
  8
DEFPOINTS
 62
     0
100
AcDbPoint
 10
873.5854133122625
 20
1451.617092709826
 30
0.0
  0
POINT
  5
3FE
330
3F5
100
AcDbEntity
  8
DEFPOINTS
 62
     0
100
AcDbPoint
 10
853.5854133122624
 20
403.6170927098265
 30
0.0
  0
POINT
  5
3FF
330
3F5
100
AcDbEntity
  8
DEFPOINTS
 62
     0
100
AcDbPoint
 10
978.8291921447379
 20
403.6170927098264
 30
0.0
  0
ENDBLK
  5
400
330
3F5
100
AcDbEntity
  8
0
100
AcDbBlockEnd
  0
BLOCK
  5
3CA
330
3C9
100
AcDbEntity
  8
0
100
AcDbBlockBegin
  2
*D12
 70
     1
 10
0.0
 20
0.0
 30
0.0
  3
*D12
  1

  0
LINE
  5
3CB
330
3C9
100
AcDbEntity
  8
09-01
 62
     4
370
    -2
100
AcDbLine
 10
892.0854133122626
 20
706.6170927098264
 30
0.0
 11
918.2628771955277
 21
706.6170927098264
 31
0.0
  0
LINE
  5
3CC
330
3C9
100
AcDbEntity
  8
09-01
 62
     4
370
    -2
100
AcDbLine
 10
868.5854133122624
 20
404.6170927098264
 30
0.0
 11
918.2628771955277
 21
404.6170927098263
 31
0.0
  0
LINE
  5
3CD
330
3C9
100
AcDbEntity
  8
09-01
 62
     4
370
    -2
100
AcDbLine
 10
913.2628771955278
 20
694.1170927098264
 30
0.0
 11
913.2628771955278
 21
417.1170927098263
 31
0.0
  0
SOLID
  5
3CE
330
3C9
100
AcDbEntity
  8
09-01
 62
     4
100
AcDbTrace
 10
911.1795438621944
 20
694.1170927098264
 30
0.0
 11
915.3462105288612
 21
694.1170927098264
 31
0.0
 12
913.2628771955278
 22
706.6170927098264
 32
0.0
 13
913.2628771955278
 23
706.6170927098264
 33
0.0
  0
SOLID
  5
3CF
330
3C9
100
AcDbEntity
  8
09-01
 62
     4
100
AcDbTrace
 10
911.1795438621944
 20
417.1170927098263
 30
0.0
 11
915.3462105288612
 21
417.1170927098263
 31
0.0
 12
913.2628771955278
 22
404.6170927098263
 32
0.0
 13
913.2628771955278
 23
404.6170927098263
 33
0.0
  0
MTEXT
  5
3D0
330
3C9
100
AcDbEntity
  8
09-01
 62
     1
100
AcDbMText
 10
902.0128771955278
 20
555.6170927098267
 30
0.0
 40
12.5
 41
0.0
 46
0.0
 71
     5
 72
     1
  1
302
 11
0.0000000000000001
 21
1.0
 31
0.0
 73
     1
 44
1.0
  0
POINT
  5
3D1
330
3C9
100
AcDbEntity
  8
DEFPOINTS
 62
     0
100
AcDbPoint
 10
887.0854133122625
 20
706.6170927098264
 30
0.0
  0
POINT
  5
3D2
330
3C9
100
AcDbEntity
  8
DEFPOINTS
 62
     0
100
AcDbPoint
 10
863.5854133122625
 20
404.6170927098264
 30
0.0
  0
POINT
  5
3D3
330
3C9
100
AcDbEntity
  8
DEFPOINTS
 62
     0
100
AcDbPoint
 10
913.2628771955278
 20
404.6170927098263
 30
0.0
  0
ENDBLK
  5
3D4
330
3C9
100
AcDbEntity
  8
0
100
AcDbBlockEnd
  0
BLOCK
  5
393
330
392
100
AcDbEntity
  8
0
100
AcDbBlockBegin
  2
*D13
 70
     1
 10
0.0
 20
0.0
 30
0.0
  3
*D13
  1

  0
LINE
  5
394
330
392
100
AcDbEntity
  8
09-01
 62
     4
370
    -2
100
AcDbLine
 10
873.6041819107567
 20
1003.119716091307
 30
0.0
 11
954.4617728706693
 21
1003.119716091307
 31
0.0
  0
LINE
  5
395
330
392
100
AcDbEntity
  8
09-01
 62
     4
370
    -2
100
AcDbLine
 10
868.585434236129
 20
1451.117092709826
 30
0.0
 11
954.4617728706693
 21
1451.117092709826
 31
0.0
  0
LINE
  5
396
330
392
100
AcDbEntity
  8
09-01
 62
     4
370
    -2
100
AcDbLine
 10
949.4617728706693
 20
1015.619716091307
 30
0.0
 11
949.4617728706694
 21
1438.617092709826
 31
0.0
  0
SOLID
  5
397
330
392
100
AcDbEntity
  8
09-01
 62
     4
100
AcDbTrace
 10
947.3784395373359
 20
1015.619716091307
 30
0.0
 11
951.5451062040026
 21
1015.619716091307
 31
0.0
 12
949.4617728706693
 22
1003.119716091307
 32
0.0
 13
949.4617728706693
 23
1003.119716091307
 33
0.0
  0
SOLID
  5
398
330
392
100
AcDbEntity
  8
09-01
 62
     4
100
AcDbTrace
 10
947.378439537336
 20
1438.617092709826
 30
0.0
 11
951.5451062040026
 21
1438.617092709826
 31
0.0
 12
949.4617728706694
 22
1451.117092709826
 32
0.0
 13
949.4617728706694
 23
1451.117092709826
 33
0.0
  0
MTEXT
  5
399
330
392
100
AcDbEntity
  8
09-01
 62
     1
100
AcDbMText
 10
938.2117728706692
 20
1227.118404400567
 30
0.0
 40
12.5
 41
0.0
 46
0.0
 71
     5
 72
     1
  1
448 Tür
 11
0.0000000000000001
 21
1.0
 31
0.0
 73
     1
 44
1.0
  0
POINT
  5
39A
330
392
100
AcDbEntity
  8
DEFPOINTS
 62
     0
100
AcDbPoint
 10
868.6041819107568
 20
1003.119716091307
 30
0.0
  0
POINT
  5
39B
330
392
100
AcDbEntity
  8
DEFPOINTS
 62
     0
100
AcDbPoint
 10
863.5854342361289
 20
1451.117092709826
 30
0.0
  0
POINT
  5
39C
330
392
100
AcDbEntity
  8
DEFPOINTS
 62
     0
100
AcDbPoint
 10
949.4617728706694
 20
1451.117092709826
 30
0.0
  0
ENDBLK
  5
39D
330
392
100
AcDbEntity
  8
0
100
AcDbBlockEnd
  0
BLOCK
  5
384
330
383
100
AcDbEntity
  8
0
100
AcDbBlockBegin
  2
*D14
 70
     1
 10
0.0
 20
0.0
 30
0.0
  3
*D14
  1

  0
LINE
  5
385
330
383
100
AcDbEntity
  8
09-01
 62
     4
370
    -2
100
AcDbLine
 10
868.6041819107568
 20
1003.119716091307
 30
0.0
 11
954.4617728706693
 21
1003.119716091307
 31
0.0
  0
LINE
  5
386
330
383
100
AcDbEntity
  8
09-01
 62
     4
370
    -2
100
AcDbLine
 10
868.5854133122624
 20
994.119716091307
 30
0.0
 11
954.4617728706693
 21
994.119716091307
 31
0.0
  0
LINE
  5
387
330
383
100
AcDbEntity
  8
09-01
 62
     4
370
    -2
100
AcDbLine
 10
949.4617728706694
 20
1015.619716091307
 30
0.0
 11
949.4617728706694
 21
1028.119716091307
 31
0.0
  0
LINE
  5
388
330
383
100
AcDbEntity
  8
09-01
 62
     4
370
    -2
100
AcDbLine
 10
949.4617728706694
 20
981.619716091307
 30
0.0
 11
949.4617728706694
 21
969.119716091307
 31
0.0
  0
MTEXT
  5
389
330
383
100
AcDbEntity
  8
09-01
 62
     1
100
AcDbMText
 10
931.9617728706694
 20
1012.472651176831
 30
0.0
 40
12.5
 41
0.0
 46
0.0
 71
     5
 72
     1
  1
9
 11
0.0000000000000001
 21
1.0
 31
0.0
 73
     1
 44
1.0
  0
LINE
  5
38A
330
383
100
AcDbEntity
  8
09-01
 62
     4
370
    -2
100
AcDbLine
 10
949.4617728706694
 20
1003.119716091307
 30
0.0
 11
949.4617728706694
 21
994.119716091307
 31
0.0
  0
SOLID
  5
38B
330
383
100
AcDbEntity
  8
09-01
 62
     4
100
AcDbTrace
 10
947.378439537336
 20
1015.619716091307
 30
0.0
 11
951.5451062040026
 21
1015.619716091307
 31
0.0
 12
949.4617728706694
 22
1003.119716091307
 32
0.0
 13
949.4617728706694
 23
1003.119716091307
 33
0.0
  0
SOLID
  5
38C
330
383
100
AcDbEntity
  8
09-01
 62
     4
100
AcDbTrace
 10
947.378439537336
 20
981.619716091307
 30
0.0
 11
951.5451062040026
 21
981.619716091307
 31
0.0
 12
949.4617728706694
 22
994.119716091307
 32
0.0
 13
949.4617728706694
 23
994.119716091307
 33
0.0
  0
POINT
  5
38D
330
383
100
AcDbEntity
  8
DEFPOINTS
 62
     0
100
AcDbPoint
 10
863.6041819107568
 20
1003.119716091307
 30
0.0
  0
POINT
  5
38E
330
383
100
AcDbEntity
  8
DEFPOINTS
 62
     0
100
AcDbPoint
 10
863.5854133122625
 20
994.119716091307
 30
0.0
  0
POINT
  5
38F
330
383
100
AcDbEntity
  8
DEFPOINTS
 62
     0
100
AcDbPoint
 10
949.4617728706694
 20
994.119716091307
 30
0.0
  0
ENDBLK
  5
390
330
383
100
AcDbEntity
  8
0
100
AcDbBlockEnd
  0
BLOCK
  5
2FF
330
2FE
100
AcDbEntity
  8
0
100
AcDbBlockBegin
  2
*D15
 70
     1
 10
0.0
 20
0.0
 30
0.0
  3
*D15
  1

  0
LINE
  5
300
330
2FE
100
AcDbEntity
  8
09-01
 62
     4
370
    -2
100
AcDbLine
 10
738.585434236129
 20
1451.617092709826
 30
0.0
 11
698.5132192439578
 21
1451.617092709826
 31
0.0
  0
LINE
  5
301
330
2FE
100
AcDbEntity
  8
09-01
 62
     4
370
    -2
100
AcDbLine
 10
734.0132192439564
 20
1351.617092709824
 30
0.0
 11
698.5132192439578
 21
1351.617092709824
 31
0.0
  0
LINE
  5
302
330
2FE
100
AcDbEntity
  8
09-01
 62
     4
370
    -2
100
AcDbLine
 10
703.5132192439577
 20
1439.117092709826
 30
0.0
 11
703.5132192439577
 21
1364.117092709824
 31
0.0
  0
SOLID
  5
303
330
2FE
100
AcDbEntity
  8
09-01
 62
     4
100
AcDbTrace
 10
701.4298859106244
 20
1439.117092709826
 30
0.0
 11
705.5965525772911
 21
1439.117092709826
 31
0.0
 12
703.5132192439577
 22
1451.617092709826
 32
0.0
 13
703.5132192439577
 23
1451.617092709826
 33
0.0
  0
SOLID
  5
304
330
2FE
100
AcDbEntity
  8
09-01
 62
     4
100
AcDbTrace
 10
701.4298859106244
 20
1364.117092709824
 30
0.0
 11
705.5965525772911
 21
1364.117092709824
 31
0.0
 12
703.5132192439577
 22
1351.617092709824
 32
0.0
 13
703.5132192439577
 23
1351.617092709824
 33
0.0
  0
MTEXT
  5
305
330
2FE
100
AcDbEntity
  8
09-01
 62
     1
100
AcDbMText
 10
692.2632192439575
 20
1401.617092709825
 30
0.0
 40
12.5
 41
0.0
 46
0.0
 71
     5
 72
     1
  1
100
 11
0.0000000000000001
 21
1.0
 31
0.0
 73
     1
 44
1.0
  0
POINT
  5
306
330
2FE
100
AcDbEntity
  8
DEFPOINTS
 62
     0
100
AcDbPoint
 10
743.585434236129
 20
1451.617092709826
 30
0.0
  0
POINT
  5
307
330
2FE
100
AcDbEntity
  8
DEFPOINTS
 62
     0
100
AcDbPoint
 10
739.0132192439564
 20
1351.617092709824
 30
0.0
  0
POINT
  5
308
330
2FE
100
AcDbEntity
  8
DEFPOINTS
 62
     0
100
AcDbPoint
 10
703.5132192439577
 20
1351.617092709824
 30
0.0
  0
ENDBLK
  5
309
330
2FE
100
AcDbEntity
  8
0
100
AcDbBlockEnd
  0
BLOCK
  5
2F3
330
2F2
100
AcDbEntity
  8
0
100
AcDbBlockBegin
  2
*D16
 70
     1
 10
0.0
 20
0.0
 30
0.0
  3
*D16
  1

  0
LINE
  5
2F4
330
2F2
100
AcDbEntity
  8
09-01
 62
     4
370
    -2
100
AcDbLine
 10
735.0132192439578
 20
504.1170927098237
 30
0.0
 11
698.5132192439575
 21
504.1170927098237
 31
0.0
  0
LINE
  5
2F5
330
2F2
100
AcDbEntity
  8
09-01
 62
     4
370
    -2
100
AcDbLine
 10
703.5132192439577
 20
1339.117092709823
 30
0.0
 11
703.5132192439576
 21
516.6170927098238
 31
0.0
  0
SOLID
  5
2F6
330
2F2
100
AcDbEntity
  8
09-01
 62
     4
100
AcDbTrace
 10
701.4298859106244
 20
1339.117092709823
 30
0.0
 11
705.5965525772911
 21
1339.117092709823
 31
0.0
 12
703.5132192439577
 22
1351.617092709824
 32
0.0
 13
703.5132192439577
 23
1351.617092709824
 33
0.0
  0
SOLID
  5
2F7
330
2F2
100
AcDbEntity
  8
09-01
 62
     4
100
AcDbTrace
 10
701.4298859106242
 20
516.6170927098238
 30
0.0
 11
705.5965525772909
 21
516.6170927098238
 31
0.0
 12
703.5132192439576
 22
504.1170927098237
 32
0.0
 13
703.5132192439576
 23
504.1170927098237
 33
0.0
  0
MTEXT
  5
2F8
330
2F2
100
AcDbEntity
  8
09-01
 62
     1
100
AcDbMText
 10
692.2632192439574
 20
927.8670927098239
 30
0.0
 40
12.5
 41
0.0
 46
0.0
 71
     5
 72
     1
  1
847.5
 11
0.0000000000000001
 21
1.0
 31
0.0
 73
     1
 44
1.0
  0
POINT
  5
2F9
330
2F2
100
AcDbEntity
  8
DEFPOINTS
 62
     0
100
AcDbPoint
 10
703.5132192439577
 20
1351.617092709824
 30
0.0
  0
POINT
  5
2FA
330
2F2
100
AcDbEntity
  8
DEFPOINTS
 62
     0
100
AcDbPoint
 10
740.0132192439578
 20
504.1170927098237
 30
0.0
  0
POINT
  5
2FB
330
2F2
100
AcDbEntity
  8
DEFPOINTS
 62
     0
100
AcDbPoint
 10
703.5132192439576
 20
504.1170927098237
 30
0.0
  0
ENDBLK
  5
2FC
330
2F2
100
AcDbEntity
  8
0
100
AcDbBlockEnd
  0
BLOCK
  5
2E8
330
2E7
100
AcDbEntity
  8
0
100
AcDbBlockBegin
  2
*D17
 70
     1
 10
0.0
 20
0.0
 30
0.0
  3
*D17
  1

  0
LINE
  5
2E9
330
2E7
100
AcDbEntity
  8
09-01
 62
     4
370
    -2
100
AcDbLine
 10
703.5132192439576
 20
491.6170927098237
 30
0.0
 11
703.5132192439576
 21
416.1170927098265
 31
0.0
  0
SOLID
  5
2EA
330
2E7
100
AcDbEntity
  8
09-01
 62
     4
100
AcDbTrace
 10
701.4298859106242
 20
491.6170927098237
 30
0.0
 11
705.5965525772909
 21
491.6170927098237
 31
0.0
 12
703.5132192439576
 22
504.1170927098237
 32
0.0
 13
703.5132192439576
 23
504.1170927098237
 33
0.0
  0
SOLID
  5
2EB
330
2E7
100
AcDbEntity
  8
09-01
 62
     4
100
AcDbTrace
 10
701.4298859106242
 20
416.1170927098265
 30
0.0
 11
705.5965525772909
 21
416.1170927098265
 31
0.0
 12
703.5132192439576
 22
403.6170927098265
 32
0.0
 13
703.5132192439576
 23
403.6170927098265
 33
0.0
  0
MTEXT
  5
2EC
330
2E7
100
AcDbEntity
  8
09-01
 62
     1
100
AcDbMText
 10
692.2632192439574
 20
453.8670927098252
 30
0.0
 40
12.5
 41
0.0
 46
0.0
 71
     5
 72
     1
  1
100.5
 11
0.0000000000000001
 21
1.0
 31
0.0
 73
     1
 44
1.0
  0
POINT
  5
2ED
330
2E7
100
AcDbEntity
  8
DEFPOINTS
 62
     0
100
AcDbPoint
 10
703.5132192439576
 20
504.1170927098237
 30
0.0
  0
POINT
  5
2EE
330
2E7
100
AcDbEntity
  8
DEFPOINTS
 62
     0
100
AcDbPoint
 10
703.5132192439576
 20
403.6170927098265
 30
0.0
  0
POINT
  5
2EF
330
2E7
100
AcDbEntity
  8
DEFPOINTS
 62
     0
100
AcDbPoint
 10
703.5132192439576
 20
403.6170927098265
 30
0.0
  0
ENDBLK
  5
2F0
330
2E7
100
AcDbEntity
  8
0
100
AcDbBlockEnd
  0
BLOCK
  5
15C
330
15B
100
AcDbEntity
  8
0
100
AcDbBlockBegin
  2
Gitterkorb WP134-01-v
 70
     0
 10
0.0
 20
0.0
 30
0.0
  3
Gitterkorb WP134-01-v
  1

  0
LINE
  5
15D
330
15B
100
AcDbEntity
  8
0
100
AcDbLine
 10
-6.0
 20
325.9999999999998
 30
0.0
 11
-6.0
 21
379.9999999999999
 31
0.0
  0
LINE
  5
15E
330
15B
100
AcDbEntity
  8
0
100
AcDbLine
 10
250.0
 20
325.9999999999998
 30
0.0
 11
250.0
 21
379.9999999999999
 31
0.0
  0
LINE
  5
15F
330
15B
100
AcDbEntity
  8
0
100
AcDbLine
 10
246.0
 20
325.9999999999998
 30
0.0
 11
246.0
 21
379.9999999999999
 31
0.0
  0
LINE
  5
160
330
15B
100
AcDbEntity
  8
0
100
AcDbLine
 10
223.9999999999995
 20
325.9999999999998
 30
0.0
 11
223.9999999999995
 21
379.9999999999999
 31
0.0
  0
LINE
  5
161
330
15B
100
AcDbEntity
  8
0
100
AcDbLine
 10
219.9999999999995
 20
325.9999999999998
 30
0.0
 11
219.9999999999995
 21
379.9999999999999
 31
0.0
  0
LINE
  5
162
330
15B
100
AcDbEntity
  8
0
100
AcDbLine
 10
174.0
 20
325.9999999999998
 30
0.0
 11
173.9999999999995
 21
379.9999999999999
 31
0.0
  0
LINE
  5
163
330
15B
100
AcDbEntity
  8
0
100
AcDbLine
 10
170.0
 20
325.9999999999998
 30
0.0
 11
169.9999999999995
 21
379.9999999999999
 31
0.0
  0
LINE
  5
164
330
15B
100
AcDbEntity
  8
0
100
AcDbLine
 10
69.99999999999954
 20
325.9999999999998
 30
0.0
 11
69.99999999999954
 21
379.9999999999999
 31
0.0
  0
LINE
  5
165
330
15B
100
AcDbEntity
  8
0
100
AcDbLine
 10
73.99999999999955
 20
325.9999999999998
 30
0.0
 11
73.99999999999955
 21
379.9999999999999
 31
0.0
  0
LINE
  5
166
330
15B
100
AcDbEntity
  8
0
100
AcDbLine
 10
119.9999999999995
 20
325.9999999999998
 30
0.0
 11
119.9999999999995
 21
379.9999999999999
 31
0.0
  0
LINE
  5
167
330
15B
100
AcDbEntity
  8
0
100
AcDbLine
 10
123.9999999999995
 20
325.9999999999998
 30
0.0
 11
123.9999999999995
 21
379.9999999999999
 31
0.0
  0
LINE
  5
168
330
15B
100
AcDbEntity
  8
0
100
AcDbLine
 10
23.99999999999955
 20
325.9999999999998
 30
0.0
 11
23.99999999999955
 21
379.9999999999999
 31
0.0
  0
LINE
  5
169
330
15B
100
AcDbEntity
  8
0
100
AcDbLine
 10
19.99999999999954
 20
325.9999999999998
 30
0.0
 11
19.99999999999954
 21
379.9999999999999
 31
0.0
  0
LINE
  5
16A
330
15B
100
AcDbEntity
  8
0
100
AcDbLine
 10
-2.0
 20
325.9999999999998
 30
0.0
 11
-2.0
 21
379.9999999999999
 31
0.0
  0
LINE
  5
16B
330
15B
100
AcDbEntity
  8
0
100
AcDbLine
 10
-8.0
 20
25.99999999999977
 30
0.0
 11
252.0
 21
25.99999999999977
 31
0.0
  0
LINE
  5
16C
330
15B
100
AcDbEntity
  8
0
100
AcDbLine
 10
-8.0
 20
21.99999999999977
 30
0.0
 11
252.0
 21
21.99999999999977
 31
0.0
  0
LINE
  5
16D
330
15B
100
AcDbEntity
  8
0
100
AcDbLine
 10
-8.0
 20
75.99999999999977
 30
0.0
 11
252.0
 21
75.99999999999977
 31
0.0
  0
LINE
  5
16E
330
15B
100
AcDbEntity
  8
0
100
AcDbLine
 10
-8.0
 20
71.99999999999977
 30
0.0
 11
252.0
 21
71.99999999999977
 31
0.0
  0
LINE
  5
16F
330
15B
100
AcDbEntity
  8
0
100
AcDbLine
 10
-8.0
 20
125.9999999999998
 30
0.0
 11
252.0
 21
125.9999999999998
 31
0.0
  0
LINE
  5
170
330
15B
100
AcDbEntity
  8
0
100
AcDbLine
 10
-8.0
 20
121.9999999999997
 30
0.0
 11
252.0
 21
121.9999999999997
 31
0.0
  0
LINE
  5
171
330
15B
100
AcDbEntity
  8
0
100
AcDbLine
 10
-8.0
 20
175.9999999999998
 30
0.0
 11
252.0
 21
175.9999999999998
 31
0.0
  0
LINE
  5
172
330
15B
100
AcDbEntity
  8
0
100
AcDbLine
 10
-8.0
 20
171.9999999999997
 30
0.0
 11
252.0
 21
171.9999999999997
 31
0.0
  0
LINE
  5
173
330
15B
100
AcDbEntity
  8
0
100
AcDbLine
 10
-8.0
 20
225.9999999999998
 30
0.0
 11
252.0
 21
225.9999999999998
 31
0.0
  0
LINE
  5
174
330
15B
100
AcDbEntity
  8
0
100
AcDbLine
 10
-8.0
 20
221.9999999999998
 30
0.0
 11
252.0
 21
221.9999999999998
 31
0.0
  0
LINE
  5
175
330
15B
100
AcDbEntity
  8
0
100
AcDbLine
 10
-8.0
 20
275.9999999999998
 30
0.0
 11
252.0
 21
275.9999999999998
 31
0.0
  0
LINE
  5
176
330
15B
100
AcDbEntity
  8
0
100
AcDbLine
 10
-8.0
 20
271.9999999999998
 30
0.0
 11
252.0
 21
271.9999999999998
 31
0.0
  0
LINE
  5
177
330
15B
100
AcDbEntity
  8
0
100
AcDbLine
 10
-8.0
 20
321.9999999999998
 30
0.0
 11
252.0
 21
321.9999999999998
 31
0.0
  0
LINE
  5
178
330
15B
100
AcDbEntity
  8
0
100
AcDbLine
 10
-8.0
 20
325.9999999999998
 30
0.0
 11
252.0
 21
325.9999999999998
 31
0.0
  0
LINE
  5
179
330
15B
100
AcDbEntity
  8
0
100
AcDbLine
 10
0.0
 20
3.999999999999772
 30
0.0
 11
244.0
 21
4.0
 31
0.0
  0
LINE
  5
17A
330
15B
100
AcDbEntity
  8
0
100
AcDbLine
 10
0.0
 20
0.0
 30
0.0
 11
244.0
 21
0.0
 31
0.0
  0
LINE
  5
17B
330
15B
100
AcDbEntity
  8
0
100
AcDbLine
 10
-2.0
 20
75.99999999999977
 30
0.0
 11
-2.0
 21
120.9999999999997
 31
0.0
  0
LINE
  5
17C
330
15B
100
AcDbEntity
  8
0
100
AcDbLine
 10
19.99999999999954
 20
75.99999999999977
 30
0.0
 11
19.99999999999954
 21
120.9999999999997
 31
0.0
  0
LINE
  5
17D
330
15B
100
AcDbEntity
  8
0
100
AcDbLine
 10
23.99999999999955
 20
75.99999999999977
 30
0.0
 11
23.99999999999955
 21
120.9999999999997
 31
0.0
  0
LINE
  5
17E
330
15B
100
AcDbEntity
  8
0
100
AcDbLine
 10
73.99999999999955
 20
75.99999999999977
 30
0.0
 11
73.99999999999955
 21
120.9999999999997
 31
0.0
  0
LINE
  5
17F
330
15B
100
AcDbEntity
  8
0
100
AcDbLine
 10
69.99999999999954
 20
75.99999999999977
 30
0.0
 11
69.99999999999954
 21
120.9999999999997
 31
0.0
  0
LINE
  5
180
330
15B
100
AcDbEntity
  8
0
100
AcDbLine
 10
-6.0
 20
75.99999999999977
 30
0.0
 11
-6.0
 21
120.9999999999997
 31
0.0
  0
LINE
  5
181
330
15B
100
AcDbEntity
  8
0
100
AcDbLine
 10
-6.0
 20
25.99999999999977
 30
0.0
 11
-6.0
 21
70.99999999999977
 31
0.0
  0
LINE
  5
182
330
15B
100
AcDbEntity
  8
0
100
AcDbLine
 10
23.99999999999955
 20
25.99999999999977
 30
0.0
 11
23.99999999999955
 21
70.99999999999977
 31
0.0
  0
LINE
  5
183
330
15B
100
AcDbEntity
  8
0
100
AcDbLine
 10
19.99999999999954
 20
25.99999999999977
 30
0.0
 11
19.99999999999954
 21
70.99999999999977
 31
0.0
  0
LINE
  5
184
330
15B
100
AcDbEntity
  8
0
100
AcDbLine
 10
-2.0
 20
25.99999999999977
 30
0.0
 11
-2.0
 21
70.99999999999977
 31
0.0
  0
ARC
  5
185
330
15B
100
AcDbEntity
  8
0
100
AcDbCircle
 10
-8.0
 20
23.99999999999977
 30
0.0
 40
2.0
100
AcDbArc
 50
90.0
 51
270.0
  0
ARC
  5
186
330
15B
100
AcDbEntity
  8
0
100
AcDbCircle
 10
0.0
 20
6.0
 30
0.0
 40
6.0
100
AcDbArc
 50
180.0
 51
270.0
  0
LINE
  5
187
330
15B
100
AcDbEntity
  8
0
100
AcDbLine
 10
-6.0
 20
6.0
 30
0.0
 11
-6.0
 21
21.99999999999977
 31
0.0
  0
ARC
  5
188
330
15B
100
AcDbEntity
  8
0
100
AcDbCircle
 10
0.0
 20
5.999999999999772
 30
0.0
 40
2.0
100
AcDbArc
 50
180.0
 51
270.0
  0
LINE
  5
189
330
15B
100
AcDbEntity
  8
0
100
AcDbLine
 10
-2.0
 20
5.999999999999772
 30
0.0
 11
-2.0
 21
21.99999999999977
 31
0.0
  0
LINE
  5
18A
330
15B
100
AcDbEntity
  8
0
100
AcDbLine
 10
24.0
 20
6.0
 30
0.0
 11
24.0
 21
21.99999999999977
 31
0.0
  0
LINE
  5
18B
330
15B
100
AcDbEntity
  8
0
100
AcDbLine
 10
20.0
 20
6.0
 30
0.0
 11
20.0
 21
21.99999999999977
 31
0.0
  0
LINE
  5
18C
330
15B
100
AcDbEntity
  8
0
100
AcDbLine
 10
20.0
 20
4.0
 30
0.0
 11
24.0
 21
4.0
 31
0.0
  0
ARC
  5
18D
330
15B
100
AcDbEntity
  8
0
100
AcDbCircle
 10
22.0
 20
6.0
 30
0.0
 40
2.0
100
AcDbArc
 50
180.0
 51
0.0
  0
ARC
  5
18E
330
15B
100
AcDbEntity
  8
0
100
AcDbCircle
 10
-8.0
 20
73.99999999999977
 30
0.0
 40
2.0
100
AcDbArc
 50
90.0
 51
270.0
  0
LINE
  5
18F
330
15B
100
AcDbEntity
  8
0
100
AcDbLine
 10
69.99999999999954
 20
25.99999999999977
 30
0.0
 11
69.99999999999954
 21
70.99999999999977
 31
0.0
  0
LINE
  5
190
330
15B
100
AcDbEntity
  8
0
100
AcDbLine
 10
73.99999999999955
 20
25.99999999999977
 30
0.0
 11
73.99999999999955
 21
70.99999999999977
 31
0.0
  0
LINE
  5
191
330
15B
100
AcDbEntity
  8
0
100
AcDbLine
 10
74.0
 20
6.0
 30
0.0
 11
74.0
 21
21.99999999999977
 31
0.0
  0
LINE
  5
192
330
15B
100
AcDbEntity
  8
0
100
AcDbLine
 10
70.0
 20
6.0
 30
0.0
 11
70.0
 21
21.99999999999977
 31
0.0
  0
LINE
  5
193
330
15B
100
AcDbEntity
  8
0
100
AcDbLine
 10
70.0
 20
4.0
 30
0.0
 11
74.0
 21
4.0
 31
0.0
  0
ARC
  5
194
330
15B
100
AcDbEntity
  8
0
100
AcDbCircle
 10
72.0
 20
6.0
 30
0.0
 40
2.0
100
AcDbArc
 50
180.0
 51
0.0
  0
LINE
  5
195
330
15B
100
AcDbEntity
  8
0
100
AcDbLine
 10
-2.0
 20
225.9999999999998
 30
0.0
 11
-2.0
 21
270.9999999999998
 31
0.0
  0
LINE
  5
196
330
15B
100
AcDbEntity
  8
0
100
AcDbLine
 10
19.99999999999954
 20
225.9999999999998
 30
0.0
 11
19.99999999999954
 21
270.9999999999998
 31
0.0
  0
LINE
  5
197
330
15B
100
AcDbEntity
  8
0
100
AcDbLine
 10
23.99999999999955
 20
225.9999999999998
 30
0.0
 11
23.99999999999955
 21
270.9999999999998
 31
0.0
  0
LINE
  5
198
330
15B
100
AcDbEntity
  8
0
100
AcDbLine
 10
-6.0
 20
225.9999999999998
 30
0.0
 11
-6.0
 21
270.9999999999998
 31
0.0
  0
LINE
  5
199
330
15B
100
AcDbEntity
  8
0
100
AcDbLine
 10
-2.0
 20
125.9999999999998
 30
0.0
 11
-2.0
 21
170.9999999999998
 31
0.0
  0
LINE
  5
19A
330
15B
100
AcDbEntity
  8
0
100
AcDbLine
 10
19.99999999999954
 20
125.9999999999998
 30
0.0
 11
19.99999999999954
 21
170.9999999999998
 31
0.0
  0
LINE
  5
19B
330
15B
100
AcDbEntity
  8
0
100
AcDbLine
 10
23.99999999999955
 20
125.9999999999998
 30
0.0
 11
23.99999999999955
 21
170.9999999999998
 31
0.0
  0
LINE
  5
19C
330
15B
100
AcDbEntity
  8
0
100
AcDbLine
 10
-6.0
 20
125.9999999999998
 30
0.0
 11
-6.0
 21
170.9999999999998
 31
0.0
  0
ARC
  5
19D
330
15B
100
AcDbEntity
  8
0
100
AcDbCircle
 10
-8.0
 20
123.9999999999997
 30
0.0
 40
2.0
100
AcDbArc
 50
90.0
 51
270.0
  0
LINE
  5
19E
330
15B
100
AcDbEntity
  8
0
100
AcDbLine
 10
-2.0
 20
175.9999999999998
 30
0.0
 11
-2.0
 21
220.9999999999998
 31
0.0
  0
LINE
  5
19F
330
15B
100
AcDbEntity
  8
0
100
AcDbLine
 10
-6.0
 20
175.9999999999998
 30
0.0
 11
-6.0
 21
220.9999999999998
 31
0.0
  0
ARC
  5
1A0
330
15B
100
AcDbEntity
  8
0
100
AcDbCircle
 10
-8.0
 20
173.9999999999997
 30
0.0
 40
2.0
100
AcDbArc
 50
90.0
 51
270.0
  0
ARC
  5
1A1
330
15B
100
AcDbEntity
  8
0
100
AcDbCircle
 10
-8.0
 20
223.9999999999998
 30
0.0
 40
2.0
100
AcDbArc
 50
90.0
 51
270.0
  0
LINE
  5
1A2
330
15B
100
AcDbEntity
  8
0
100
AcDbLine
 10
19.99999999999954
 20
175.9999999999998
 30
0.0
 11
19.99999999999954
 21
220.9999999999998
 31
0.0
  0
LINE
  5
1A3
330
15B
100
AcDbEntity
  8
0
100
AcDbLine
 10
23.99999999999955
 20
175.9999999999998
 30
0.0
 11
23.99999999999955
 21
220.9999999999998
 31
0.0
  0
LINE
  5
1A4
330
15B
100
AcDbEntity
  8
0
100
AcDbLine
 10
-2.0
 20
275.9999999999998
 30
0.0
 11
-2.0
 21
320.9999999999998
 31
0.0
  0
LINE
  5
1A5
330
15B
100
AcDbEntity
  8
0
100
AcDbLine
 10
19.99999999999954
 20
275.9999999999998
 30
0.0
 11
19.99999999999954
 21
320.9999999999998
 31
0.0
  0
LINE
  5
1A6
330
15B
100
AcDbEntity
  8
0
100
AcDbLine
 10
23.99999999999955
 20
275.9999999999998
 30
0.0
 11
23.99999999999955
 21
320.9999999999998
 31
0.0
  0
LINE
  5
1A7
330
15B
100
AcDbEntity
  8
0
100
AcDbLine
 10
-6.0
 20
275.9999999999998
 30
0.0
 11
-6.0
 21
320.9999999999998
 31
0.0
  0
ARC
  5
1A8
330
15B
100
AcDbEntity
  8
0
100
AcDbCircle
 10
-8.0
 20
273.9999999999998
 30
0.0
 40
2.0
100
AcDbArc
 50
90.0
 51
270.0
  0
ARC
  5
1A9
330
15B
100
AcDbEntity
  8
0
100
AcDbCircle
 10
-8.0
 20
323.9999999999998
 30
0.0
 40
2.0
100
AcDbArc
 50
90.0
 51
270.0
  0
LINE
  5
1AA
330
15B
100
AcDbEntity
  8
0
100
AcDbLine
 10
73.99999999999955
 20
225.9999999999998
 30
0.0
 11
73.99999999999955
 21
270.9999999999998
 31
0.0
  0
LINE
  5
1AB
330
15B
100
AcDbEntity
  8
0
100
AcDbLine
 10
69.99999999999954
 20
225.9999999999998
 30
0.0
 11
69.99999999999954
 21
270.9999999999998
 31
0.0
  0
LINE
  5
1AC
330
15B
100
AcDbEntity
  8
0
100
AcDbLine
 10
73.99999999999955
 20
125.9999999999998
 30
0.0
 11
73.99999999999955
 21
170.9999999999998
 31
0.0
  0
LINE
  5
1AD
330
15B
100
AcDbEntity
  8
0
100
AcDbLine
 10
69.99999999999954
 20
125.9999999999998
 30
0.0
 11
69.99999999999954
 21
170.9999999999998
 31
0.0
  0
LINE
  5
1AE
330
15B
100
AcDbEntity
  8
0
100
AcDbLine
 10
73.99999999999955
 20
175.9999999999998
 30
0.0
 11
73.99999999999955
 21
220.9999999999998
 31
0.0
  0
LINE
  5
1AF
330
15B
100
AcDbEntity
  8
0
100
AcDbLine
 10
69.99999999999954
 20
175.9999999999998
 30
0.0
 11
69.99999999999954
 21
220.9999999999998
 31
0.0
  0
LINE
  5
1B0
330
15B
100
AcDbEntity
  8
0
100
AcDbLine
 10
73.99999999999955
 20
275.9999999999998
 30
0.0
 11
73.99999999999955
 21
320.9999999999998
 31
0.0
  0
LINE
  5
1B1
330
15B
100
AcDbEntity
  8
0
100
AcDbLine
 10
69.99999999999954
 20
275.9999999999998
 30
0.0
 11
69.99999999999954
 21
320.9999999999998
 31
0.0
  0
LINE
  5
1B2
330
15B
100
AcDbEntity
  8
0
100
AcDbLine
 10
123.9999999999995
 20
75.99999999999977
 30
0.0
 11
123.9999999999995
 21
120.9999999999997
 31
0.0
  0
LINE
  5
1B3
330
15B
100
AcDbEntity
  8
0
100
AcDbLine
 10
119.9999999999995
 20
75.99999999999977
 30
0.0
 11
119.9999999999995
 21
120.9999999999997
 31
0.0
  0
LINE
  5
1B4
330
15B
100
AcDbEntity
  8
0
100
AcDbLine
 10
170.0
 20
75.99999999999977
 30
0.0
 11
169.9999999999995
 21
120.9999999999997
 31
0.0
  0
LINE
  5
1B5
330
15B
100
AcDbEntity
  8
0
100
AcDbLine
 10
174.0
 20
75.99999999999977
 30
0.0
 11
173.9999999999995
 21
120.9999999999997
 31
0.0
  0
LINE
  5
1B6
330
15B
100
AcDbEntity
  8
0
100
AcDbLine
 10
219.9999999999995
 20
75.99999999999977
 30
0.0
 11
219.9999999999995
 21
120.9999999999997
 31
0.0
  0
LINE
  5
1B7
330
15B
100
AcDbEntity
  8
0
100
AcDbLine
 10
223.9999999999995
 20
75.99999999999977
 30
0.0
 11
223.9999999999995
 21
120.9999999999997
 31
0.0
  0
LINE
  5
1B8
330
15B
100
AcDbEntity
  8
0
100
AcDbLine
 10
246.0
 20
75.99999999999977
 30
0.0
 11
246.0
 21
120.9999999999995
 31
0.0
  0
LINE
  5
1B9
330
15B
100
AcDbEntity
  8
0
100
AcDbLine
 10
250.0
 20
75.99999999999977
 30
0.0
 11
250.0
 21
120.9999999999995
 31
0.0
  0
LINE
  5
1BA
330
15B
100
AcDbEntity
  8
0
100
AcDbLine
 10
119.9999999999995
 20
25.99999999999977
 30
0.0
 11
119.9999999999995
 21
70.99999999999977
 31
0.0
  0
LINE
  5
1BB
330
15B
100
AcDbEntity
  8
0
100
AcDbLine
 10
123.9999999999995
 20
25.99999999999977
 30
0.0
 11
123.9999999999995
 21
70.99999999999977
 31
0.0
  0
LINE
  5
1BC
330
15B
100
AcDbEntity
  8
0
100
AcDbLine
 10
124.0
 20
6.0
 30
0.0
 11
124.0
 21
21.99999999999977
 31
0.0
  0
LINE
  5
1BD
330
15B
100
AcDbEntity
  8
0
100
AcDbLine
 10
120.0
 20
6.0
 30
0.0
 11
120.0
 21
21.99999999999977
 31
0.0
  0
LINE
  5
1BE
330
15B
100
AcDbEntity
  8
0
100
AcDbLine
 10
120.0
 20
4.0
 30
0.0
 11
124.0
 21
4.0
 31
0.0
  0
ARC
  5
1BF
330
15B
100
AcDbEntity
  8
0
100
AcDbCircle
 10
122.0
 20
6.0
 30
0.0
 40
2.0
100
AcDbArc
 50
180.0
 51
0.0
  0
LINE
  5
1C0
330
15B
100
AcDbEntity
  8
0
100
AcDbLine
 10
174.0
 20
25.99999999999977
 30
0.0
 11
173.9999999999995
 21
70.99999999999977
 31
0.0
  0
LINE
  5
1C1
330
15B
100
AcDbEntity
  8
0
100
AcDbLine
 10
170.0
 20
25.99999999999977
 30
0.0
 11
169.9999999999995
 21
70.99999999999977
 31
0.0
  0
LINE
  5
1C2
330
15B
100
AcDbEntity
  8
0
100
AcDbLine
 10
174.0
 20
6.0
 30
0.0
 11
174.0
 21
21.99999999999977
 31
0.0
  0
LINE
  5
1C3
330
15B
100
AcDbEntity
  8
0
100
AcDbLine
 10
170.0
 20
6.0
 30
0.0
 11
170.0
 21
21.99999999999977
 31
0.0
  0
LINE
  5
1C4
330
15B
100
AcDbEntity
  8
0
100
AcDbLine
 10
170.0
 20
4.0
 30
0.0
 11
174.0
 21
4.0
 31
0.0
  0
ARC
  5
1C5
330
15B
100
AcDbEntity
  8
0
100
AcDbCircle
 10
172.0
 20
6.0
 30
0.0
 40
2.0
100
AcDbArc
 50
180.0
 51
0.0
  0
LINE
  5
1C6
330
15B
100
AcDbEntity
  8
0
100
AcDbLine
 10
223.9999999999995
 20
25.99999999999977
 30
0.0
 11
223.9999999999995
 21
70.99999999999977
 31
0.0
  0
LINE
  5
1C7
330
15B
100
AcDbEntity
  8
0
100
AcDbLine
 10
219.9999999999995
 20
25.99999999999977
 30
0.0
 11
219.9999999999995
 21
70.99999999999977
 31
0.0
  0
ARC
  5
1C8
330
15B
100
AcDbEntity
  8
0
100
AcDbCircle
 10
222.0
 20
6.0
 30
0.0
 40
2.0
100
AcDbArc
 50
180.0
 51
0.0
  0
LINE
  5
1C9
330
15B
100
AcDbEntity
  8
0
100
AcDbLine
 10
220.0
 20
4.0
 30
0.0
 11
224.0
 21
4.0
 31
0.0
  0
LINE
  5
1CA
330
15B
100
AcDbEntity
  8
0
100
AcDbLine
 10
220.0
 20
6.0
 30
0.0
 11
219.9999999999995
 21
21.99999999999977
 31
0.0
  0
LINE
  5
1CB
330
15B
100
AcDbEntity
  8
0
100
AcDbLine
 10
224.0
 20
6.0
 30
0.0
 11
223.9999999999995
 21
21.99999999999977
 31
0.0
  0
LINE
  5
1CC
330
15B
100
AcDbEntity
  8
0
100
AcDbLine
 10
250.0
 20
25.99999999999977
 30
0.0
 11
250.0
 21
70.99999999999955
 31
0.0
  0
LINE
  5
1CD
330
15B
100
AcDbEntity
  8
0
100
AcDbLine
 10
246.0
 20
25.99999999999977
 30
0.0
 11
246.0
 21
70.99999999999955
 31
0.0
  0
ARC
  5
1CE
330
15B
100
AcDbEntity
  8
0
100
AcDbCircle
 10
252.0
 20
23.99999999999977
 30
0.0
 40
2.0
100
AcDbArc
 50
270.0
 51
90.0
  0
ARC
  5
1CF
330
15B
100
AcDbEntity
  8
0
100
AcDbCircle
 10
244.0
 20
6.0
 30
0.0
 40
2.0
100
AcDbArc
 50
270.0
 51
0.0
  0
ARC
  5
1D0
330
15B
100
AcDbEntity
  8
0
100
AcDbCircle
 10
244.0
 20
6.0
 30
0.0
 40
6.0
100
AcDbArc
 50
270.0
 51
0.0
  0
LINE
  5
1D1
330
15B
100
AcDbEntity
  8
0
100
AcDbLine
 10
246.0
 20
6.0
 30
0.0
 11
246.0
 21
21.99999999999977
 31
0.0
  0
LINE
  5
1D2
330
15B
100
AcDbEntity
  8
0
100
AcDbLine
 10
250.0
 20
6.0
 30
0.0
 11
250.0
 21
21.99999999999977
 31
0.0
  0
ARC
  5
1D3
330
15B
100
AcDbEntity
  8
0
100
AcDbCircle
 10
252.0
 20
73.99999999999977
 30
0.0
 40
2.0
100
AcDbArc
 50
270.0
 51
90.0
  0
LINE
  5
1D4
330
15B
100
AcDbEntity
  8
0
100
AcDbLine
 10
123.9999999999995
 20
225.9999999999998
 30
0.0
 11
123.9999999999995
 21
270.9999999999998
 31
0.0
  0
LINE
  5
1D5
330
15B
100
AcDbEntity
  8
0
100
AcDbLine
 10
119.9999999999995
 20
225.9999999999998
 30
0.0
 11
119.9999999999995
 21
270.9999999999998
 31
0.0
  0
LINE
  5
1D6
330
15B
100
AcDbEntity
  8
0
100
AcDbLine
 10
170.0
 20
225.9999999999998
 30
0.0
 11
169.9999999999995
 21
270.9999999999998
 31
0.0
  0
LINE
  5
1D7
330
15B
100
AcDbEntity
  8
0
100
AcDbLine
 10
174.0
 20
225.9999999999998
 30
0.0
 11
173.9999999999995
 21
270.9999999999998
 31
0.0
  0
LINE
  5
1D8
330
15B
100
AcDbEntity
  8
0
100
AcDbLine
 10
123.9999999999995
 20
125.9999999999998
 30
0.0
 11
123.9999999999995
 21
170.9999999999998
 31
0.0
  0
LINE
  5
1D9
330
15B
100
AcDbEntity
  8
0
100
AcDbLine
 10
119.9999999999995
 20
125.9999999999998
 30
0.0
 11
119.9999999999995
 21
170.9999999999998
 31
0.0
  0
LINE
  5
1DA
330
15B
100
AcDbEntity
  8
0
100
AcDbLine
 10
123.9999999999995
 20
175.9999999999998
 30
0.0
 11
123.9999999999995
 21
220.9999999999998
 31
0.0
  0
LINE
  5
1DB
330
15B
100
AcDbEntity
  8
0
100
AcDbLine
 10
119.9999999999995
 20
175.9999999999998
 30
0.0
 11
119.9999999999995
 21
220.9999999999998
 31
0.0
  0
LINE
  5
1DC
330
15B
100
AcDbEntity
  8
0
100
AcDbLine
 10
170.0
 20
125.9999999999998
 30
0.0
 11
169.9999999999995
 21
170.9999999999998
 31
0.0
  0
LINE
  5
1DD
330
15B
100
AcDbEntity
  8
0
100
AcDbLine
 10
174.0
 20
125.9999999999998
 30
0.0
 11
173.9999999999995
 21
170.9999999999998
 31
0.0
  0
LINE
  5
1DE
330
15B
100
AcDbEntity
  8
0
100
AcDbLine
 10
170.0
 20
175.9999999999998
 30
0.0
 11
169.9999999999995
 21
220.9999999999998
 31
0.0
  0
LINE
  5
1DF
330
15B
100
AcDbEntity
  8
0
100
AcDbLine
 10
174.0
 20
175.9999999999998
 30
0.0
 11
173.9999999999995
 21
220.9999999999998
 31
0.0
  0
LINE
  5
1E0
330
15B
100
AcDbEntity
  8
0
100
AcDbLine
 10
123.9999999999995
 20
275.9999999999998
 30
0.0
 11
123.9999999999995
 21
320.9999999999998
 31
0.0
  0
LINE
  5
1E1
330
15B
100
AcDbEntity
  8
0
100
AcDbLine
 10
119.9999999999995
 20
275.9999999999998
 30
0.0
 11
119.9999999999995
 21
320.9999999999998
 31
0.0
  0
LINE
  5
1E2
330
15B
100
AcDbEntity
  8
0
100
AcDbLine
 10
170.0
 20
275.9999999999998
 30
0.0
 11
169.9999999999995
 21
320.9999999999998
 31
0.0
  0
LINE
  5
1E3
330
15B
100
AcDbEntity
  8
0
100
AcDbLine
 10
174.0
 20
275.9999999999998
 30
0.0
 11
173.9999999999995
 21
320.9999999999998
 31
0.0
  0
LINE
  5
1E4
330
15B
100
AcDbEntity
  8
0
100
AcDbLine
 10
219.9999999999995
 20
225.9999999999998
 30
0.0
 11
219.9999999999995
 21
270.9999999999998
 31
0.0
  0
LINE
  5
1E5
330
15B
100
AcDbEntity
  8
0
100
AcDbLine
 10
223.9999999999995
 20
225.9999999999998
 30
0.0
 11
223.9999999999995
 21
270.9999999999998
 31
0.0
  0
LINE
  5
1E6
330
15B
100
AcDbEntity
  8
0
100
AcDbLine
 10
246.0
 20
225.9999999999998
 30
0.0
 11
246.0
 21
270.9999999999995
 31
0.0
  0
LINE
  5
1E7
330
15B
100
AcDbEntity
  8
0
100
AcDbLine
 10
250.0
 20
225.9999999999998
 30
0.0
 11
250.0
 21
270.9999999999995
 31
0.0
  0
LINE
  5
1E8
330
15B
100
AcDbEntity
  8
0
100
AcDbLine
 10
219.9999999999995
 20
125.9999999999998
 30
0.0
 11
219.9999999999995
 21
170.9999999999998
 31
0.0
  0
LINE
  5
1E9
330
15B
100
AcDbEntity
  8
0
100
AcDbLine
 10
223.9999999999995
 20
125.9999999999998
 30
0.0
 11
223.9999999999995
 21
170.9999999999998
 31
0.0
  0
LINE
  5
1EA
330
15B
100
AcDbEntity
  8
0
100
AcDbLine
 10
219.9999999999995
 20
175.9999999999998
 30
0.0
 11
219.9999999999995
 21
220.9999999999998
 31
0.0
  0
LINE
  5
1EB
330
15B
100
AcDbEntity
  8
0
100
AcDbLine
 10
223.9999999999995
 20
175.9999999999998
 30
0.0
 11
223.9999999999995
 21
220.9999999999998
 31
0.0
  0
LINE
  5
1EC
330
15B
100
AcDbEntity
  8
0
100
AcDbLine
 10
246.0
 20
125.9999999999998
 30
0.0
 11
246.0
 21
170.9999999999995
 31
0.0
  0
LINE
  5
1ED
330
15B
100
AcDbEntity
  8
0
100
AcDbLine
 10
250.0
 20
125.9999999999998
 30
0.0
 11
250.0
 21
170.9999999999995
 31
0.0
  0
ARC
  5
1EE
330
15B
100
AcDbEntity
  8
0
100
AcDbCircle
 10
252.0
 20
123.9999999999997
 30
0.0
 40
2.0
100
AcDbArc
 50
270.0
 51
90.0
  0
ARC
  5
1EF
330
15B
100
AcDbEntity
  8
0
100
AcDbCircle
 10
252.0
 20
173.9999999999997
 30
0.0
 40
2.0
100
AcDbArc
 50
270.0
 51
90.0
  0
ARC
  5
1F0
330
15B
100
AcDbEntity
  8
0
100
AcDbCircle
 10
252.0
 20
223.9999999999998
 30
0.0
 40
2.0
100
AcDbArc
 50
90.0
 51
270.0
  0
ARC
  5
1F1
330
15B
100
AcDbEntity
  8
0
100
AcDbCircle
 10
252.0
 20
223.9999999999998
 30
0.0
 40
2.0
100
AcDbArc
 50
270.0
 51
90.0
  0
LINE
  5
1F2
330
15B
100
AcDbEntity
  8
0
100
AcDbLine
 10
246.0
 20
175.9999999999998
 30
0.0
 11
246.0
 21
220.9999999999995
 31
0.0
  0
LINE
  5
1F3
330
15B
100
AcDbEntity
  8
0
100
AcDbLine
 10
250.0
 20
175.9999999999998
 30
0.0
 11
250.0
 21
220.9999999999995
 31
0.0
  0
LINE
  5
1F4
330
15B
100
AcDbEntity
  8
0
100
AcDbLine
 10
219.9999999999995
 20
275.9999999999998
 30
0.0
 11
219.9999999999995
 21
320.9999999999998
 31
0.0
  0
LINE
  5
1F5
330
15B
100
AcDbEntity
  8
0
100
AcDbLine
 10
223.9999999999995
 20
275.9999999999998
 30
0.0
 11
223.9999999999995
 21
320.9999999999998
 31
0.0
  0
LINE
  5
1F6
330
15B
100
AcDbEntity
  8
0
100
AcDbLine
 10
246.0
 20
275.9999999999998
 30
0.0
 11
246.0
 21
320.9999999999995
 31
0.0
  0
LINE
  5
1F7
330
15B
100
AcDbEntity
  8
0
100
AcDbLine
 10
250.0
 20
275.9999999999998
 30
0.0
 11
250.0
 21
320.9999999999995
 31
0.0
  0
ARC
  5
1F8
330
15B
100
AcDbEntity
  8
0
100
AcDbCircle
 10
252.0
 20
273.9999999999998
 30
0.0
 40
2.0
100
AcDbArc
 50
270.0
 51
90.0
  0
ARC
  5
1F9
330
15B
100
AcDbEntity
  8
0
100
AcDbCircle
 10
252.0
 20
323.9999999999998
 30
0.0
 40
2.0
100
AcDbArc
 50
270.0
 51
90.0
  0
LINE
  5
1FA
330
15B
100
AcDbEntity
  8
0
100
AcDbLine
 10
-8.0
 20
383.9999999999999
 30
0.0
 11
252.0
 21
383.9999999999999
 31
0.0
  0
LINE
  5
1FB
330
15B
100
AcDbEntity
  8
0
100
AcDbLine
 10
-8.0
 20
379.9999999999999
 30
0.0
 11
252.0
 21
379.9999999999999
 31
0.0
  0
ARC
  5
1FC
330
15B
100
AcDbEntity
  8
0
100
AcDbCircle
 10
-8.0
 20
381.9999999999999
 30
0.0
 40
2.0
100
AcDbArc
 50
90.0
 51
270.0
  0
ARC
  5
1FD
330
15B
100
AcDbEntity
  8
0
100
AcDbCircle
 10
252.0
 20
381.9999999999999
 30
0.0
 40
2.0
100
AcDbArc
 50
270.0
 51
90.0
  0
ENDBLK
  5
1FE
330
15B
100
AcDbEntity
  8
0
100
AcDbBlockEnd
  0
BLOCK
  5
247
330
246
100
AcDbEntity
  8
0
100
AcDbBlockBegin
  2
Gitterkorb WP134-01-s
 70
     0
 10
0.0
 20
0.0
 30
0.0
  3
Gitterkorb WP134-01-s
  1

  0
LINE
  5
248
330
246
100
AcDbEntity
  8
0
100
AcDbLine
 10
43.5
 20
4.000000000000227
 30
0.0
 11
83.0
 21
4.000000000000227
 31
0.0
  0
ARC
  5
249
330
246
100
AcDbEntity
  8
0
100
AcDbCircle
 10
81.0
 20
6.0
 30
0.0
 40
2.0
100
AcDbArc
 50
180.0
 51
359.9999999999935
  0
ARC
  5
24A
330
246
100
AcDbEntity
  8
0
100
AcDbCircle
 10
81.0
 20
6.000000000000227
 30
0.0
 40
2.0
100
AcDbArc
 50
0.0000000000065138
 51
180.0
  0
LINE
  5
24B
330
246
100
AcDbEntity
  8
0
100
AcDbLine
 10
91.0
 20
376.0000000000001
 30
0.0
 11
-8.5
 21
376.0000000000001
 31
0.0
  0
LINE
  5
24C
330
246
100
AcDbEntity
  8
0
100
AcDbLine
 10
91.0
 20
380.0000000000001
 30
0.0
 11
-8.5
 21
380.0000000000001
 31
0.0
  0
LINE
  5
24D
330
246
100
AcDbEntity
  8
0
100
AcDbLine
 10
91.0
 20
318.0
 30
0.0
 11
35.0
 21
318.0
 31
0.0
  0
LINE
  5
24E
330
246
100
AcDbEntity
  8
0
100
AcDbLine
 10
91.0
 20
322.0
 30
0.0
 11
35.0
 21
322.0
 31
0.0
  0
LINE
  5
24F
330
246
100
AcDbEntity
  8
0
100
AcDbLine
 10
91.0
 20
272.0
 30
0.0
 11
35.0
 21
272.0
 31
0.0
  0
LINE
  5
250
330
246
100
AcDbEntity
  8
0
100
AcDbLine
 10
91.0
 20
268.0
 30
0.0
 11
35.0
 21
268.0
 31
0.0
  0
LINE
  5
251
330
246
100
AcDbEntity
  8
0
100
AcDbLine
 10
91.0
 20
218.0
 30
0.0
 11
35.0
 21
218.0
 31
0.0
  0
LINE
  5
252
330
246
100
AcDbEntity
  8
0
100
AcDbLine
 10
91.0
 20
222.0
 30
0.0
 11
35.0
 21
222.0
 31
0.0
  0
LINE
  5
253
330
246
100
AcDbEntity
  8
0
100
AcDbLine
 10
91.0
 20
168.0
 30
0.0
 11
35.0
 21
168.0
 31
0.0
  0
LINE
  5
254
330
246
100
AcDbEntity
  8
0
100
AcDbLine
 10
91.0
 20
172.0
 30
0.0
 11
35.0
 21
172.0
 31
0.0
  0
LINE
  5
255
330
246
100
AcDbEntity
  8
0
100
AcDbLine
 10
91.0
 20
118.0
 30
0.0
 11
35.0
 21
118.0
 31
0.0
  0
LINE
  5
256
330
246
100
AcDbEntity
  8
0
100
AcDbLine
 10
91.0
 20
122.0
 30
0.0
 11
35.0
 21
122.0
 31
0.0
  0
LINE
  5
257
330
246
100
AcDbEntity
  8
0
100
AcDbLine
 10
91.0
 20
68.0
 30
0.0
 11
35.0
 21
68.0
 31
0.0
  0
LINE
  5
258
330
246
100
AcDbEntity
  8
0
100
AcDbLine
 10
91.0
 20
72.0
 30
0.0
 11
35.0
 21
72.0
 31
0.0
  0
LINE
  5
259
330
246
100
AcDbEntity
  8
0
100
AcDbLine
 10
91.0
 20
22.0
 30
0.0
 11
35.0
 21
22.0
 31
0.0
  0
LINE
  5
25A
330
246
100
AcDbEntity
  8
0
100
AcDbLine
 10
91.0
 20
18.0
 30
0.0
 11
35.0
 21
18.0
 31
0.0
  0
LINE
  5
25B
330
246
100
AcDbEntity
  8
0
100
AcDbLine
 10
91.0
 20
380.0000000000001
 30
0.0
 11
35.0
 21
380.0000000000001
 31
0.0
  0
LINE
  5
25C
330
246
100
AcDbEntity
  8
0
100
AcDbLine
 10
0.0
 20
0.0
 30
0.0
 11
83.0
 21
0.0000000000004547
 31
0.0
  0
LINE
  5
25D
330
246
100
AcDbEntity
  8
0
100
AcDbLine
 10
4.0
 20
322.0
 30
0.0
 11
4.0
 21
376.0000000000001
 31
0.0
  0
LINE
  5
25E
330
246
100
AcDbEntity
  8
0
100
AcDbLine
 10
0.0
 20
322.0
 30
0.0
 11
0.0
 21
376.0000000000001
 31
0.0
  0
LINE
  5
25F
330
246
100
AcDbEntity
  8
0
100
AcDbLine
 10
79.0
 20
321.9999999999998
 30
0.0
 11
79.0
 21
376.0000000000001
 31
0.0
  0
LINE
  5
260
330
246
100
AcDbEntity
  8
0
100
AcDbLine
 10
-2.0
 20
322.0
 30
0.0
 11
-2.0
 21
375.9999999999997
 31
0.0
  0
LINE
  5
261
330
246
100
AcDbEntity
  8
0
100
AcDbLine
 10
-6.0
 20
322.0
 30
0.0
 11
-6.0
 21
375.9999999999997
 31
0.0
  0
LINE
  5
262
330
246
100
AcDbEntity
  8
0
100
AcDbLine
 10
39.5
 20
322.0
 30
0.0
 11
39.5
 21
375.9999999999997
 31
0.0
  0
LINE
  5
263
330
246
100
AcDbEntity
  8
0
100
AcDbLine
 10
43.5
 20
322.0
 30
0.0
 11
43.5
 21
375.9999999999997
 31
0.0
  0
LINE
  5
264
330
246
100
AcDbEntity
  8
0
100
AcDbLine
 10
4.0
 20
72.00000000000023
 30
0.0
 11
4.0
 21
118.0
 31
0.0
  0
LINE
  5
265
330
246
100
AcDbEntity
  8
0
100
AcDbLine
 10
0.0
 20
72.00000000000023
 30
0.0
 11
0.0
 21
118.0
 31
0.0
  0
LINE
  5
266
330
246
100
AcDbEntity
  8
0
100
AcDbLine
 10
79.0
 20
72.0
 30
0.0
 11
79.0
 21
118.0
 31
0.0
  0
LINE
  5
267
330
246
100
AcDbEntity
  8
0
100
AcDbLine
 10
-6.0
 20
72.0
 30
0.0
 11
-6.0
 21
118.0
 31
0.0
  0
LINE
  5
268
330
246
100
AcDbEntity
  8
0
100
AcDbLine
 10
-2.0
 20
72.0
 30
0.0
 11
-2.0
 21
118.0
 31
0.0
  0
LINE
  5
269
330
246
100
AcDbEntity
  8
0
100
AcDbLine
 10
39.5
 20
72.0
 30
0.0
 11
39.5
 21
118.0
 31
0.0
  0
LINE
  5
26A
330
246
100
AcDbEntity
  8
0
100
AcDbLine
 10
43.5
 20
72.0
 30
0.0
 11
43.5
 21
118.0
 31
0.0
  0
ARC
  5
26B
330
246
100
AcDbEntity
  8
0
100
AcDbCircle
 10
0.0
 20
6.000000000000227
 30
0.0
 40
2.0
100
AcDbArc
 50
180.0
 51
270.0
  0
ARC
  5
26C
330
246
100
AcDbEntity
  8
0
100
AcDbCircle
 10
0.0
 20
6.000000000000227
 30
0.0
 40
6.0
100
AcDbArc
 50
180.0
 51
270.0
  0
LINE
  5
26D
330
246
100
AcDbEntity
  8
0
100
AcDbLine
 10
-6.5
 20
72.00000000000023
 30
0.0
 11
35.0
 21
72.0
 31
0.0
  0
LINE
  5
26E
330
246
100
AcDbEntity
  8
0
100
AcDbLine
 10
-6.5
 20
68.0
 30
0.0
 11
35.0
 21
68.0
 31
0.0
  0
LINE
  5
26F
330
246
100
AcDbEntity
  8
0
100
AcDbLine
 10
-6.5
 20
18.0
 30
0.0
 11
35.0
 21
18.0
 31
0.0
  0
LINE
  5
270
330
246
100
AcDbEntity
  8
0
100
AcDbLine
 10
-6.5
 20
22.00000000000023
 30
0.0
 11
35.0
 21
22.0
 31
0.0
  0
LINE
  5
271
330
246
100
AcDbEntity
  8
0
100
AcDbLine
 10
-2.0
 20
22.0
 30
0.0
 11
-2.0
 21
68.0
 31
0.0
  0
LINE
  5
272
330
246
100
AcDbEntity
  8
0
100
AcDbLine
 10
-6.0
 20
22.0
 30
0.0
 11
-6.0
 21
68.0
 31
0.0
  0
ARC
  5
273
330
246
100
AcDbEntity
  8
0
100
AcDbCircle
 10
-8.0
 20
20.0
 30
0.0
 40
2.0
100
AcDbArc
 50
270.0
 51
90.0
  0
ARC
  5
274
330
246
100
AcDbEntity
  8
0
100
AcDbCircle
 10
-8.0
 20
20.0
 30
0.0
 40
2.0
100
AcDbArc
 50
90.0
 51
270.0
  0
LINE
  5
275
330
246
100
AcDbEntity
  8
0
100
AcDbLine
 10
-6.0
 20
6.000000000000227
 30
0.0
 11
-6.0
 21
18.0
 31
0.0
  0
LINE
  5
276
330
246
100
AcDbEntity
  8
0
100
AcDbLine
 10
-2.0
 20
6.000000000000227
 30
0.0
 11
-2.0
 21
18.0
 31
0.0
  0
ARC
  5
277
330
246
100
AcDbEntity
  8
0
100
AcDbCircle
 10
-8.0
 20
70.0
 30
0.0
 40
2.0
100
AcDbArc
 50
90.0
 51
270.0
  0
ARC
  5
278
330
246
100
AcDbEntity
  8
0
100
AcDbCircle
 10
-8.0
 20
70.0
 30
0.0
 40
2.0
100
AcDbArc
 50
270.0
 51
90.0
  0
ARC
  5
279
330
246
100
AcDbEntity
  8
0
100
AcDbCircle
 10
41.5
 20
6.0
 30
0.0
 40
2.0
100
AcDbArc
 50
0.0000000000065138
 51
180.0
  0
ARC
  5
27A
330
246
100
AcDbEntity
  8
0
100
AcDbCircle
 10
41.5
 20
5.999999999999772
 30
0.0
 40
2.0
100
AcDbArc
 50
180.0
 51
359.9999999999935
  0
LINE
  5
27B
330
246
100
AcDbEntity
  8
0
100
AcDbLine
 10
0.0
 20
22.00000000000023
 30
0.0
 11
0.0
 21
68.00000000000022
 31
0.0
  0
LINE
  5
27C
330
246
100
AcDbEntity
  8
0
100
AcDbLine
 10
4.0
 20
22.0
 30
0.0
 11
4.0
 21
68.00000000000022
 31
0.0
  0
LINE
  5
27D
330
246
100
AcDbEntity
  8
0
100
AcDbLine
 10
39.5
 20
22.0
 30
0.0
 11
39.5
 21
68.0
 31
0.0
  0
LINE
  5
27E
330
246
100
AcDbEntity
  8
0
100
AcDbLine
 10
0.0
 20
4.0
 30
0.0
 11
35.0
 21
4.000000000000227
 31
0.0
  0
LINE
  5
27F
330
246
100
AcDbEntity
  8
0
100
AcDbLine
 10
0.0
 20
6.000000000000227
 30
0.0
 11
0.0
 21
18.0
 31
0.0
  0
LINE
  5
280
330
246
100
AcDbEntity
  8
0
100
AcDbLine
 10
4.0
 20
6.000000000000227
 30
0.0
 11
4.0
 21
18.0
 31
0.0
  0
ARC
  5
281
330
246
100
AcDbEntity
  8
0
100
AcDbCircle
 10
2.0
 20
6.000000000000227
 30
0.0
 40
2.0
100
AcDbArc
 50
0.0
 51
179.9999999999935
  0
ARC
  5
282
330
246
100
AcDbEntity
  8
0
100
AcDbCircle
 10
2.0
 20
6.0
 30
0.0
 40
2.0
100
AcDbArc
 50
180.0
 51
0.0
  0
LINE
  5
283
330
246
100
AcDbEntity
  8
0
100
AcDbLine
 10
39.50000000000045
 20
18.0
 30
0.0
 11
39.5
 21
4.000000000000454
 31
0.0
  0
LINE
  5
284
330
246
100
AcDbEntity
  8
0
100
AcDbLine
 10
35.0
 20
4.000000000000227
 30
0.0
 11
39.50000000000045
 21
4.000000000000227
 31
0.0
  0
LINE
  5
285
330
246
100
AcDbEntity
  8
0
100
AcDbLine
 10
43.50000000000045
 20
22.0
 30
0.0
 11
43.5
 21
68.0
 31
0.0
  0
LINE
  5
286
330
246
100
AcDbEntity
  8
0
100
AcDbLine
 10
79.0
 20
22.0
 30
0.0
 11
79.0
 21
68.0
 31
0.0
  0
LINE
  5
287
330
246
100
AcDbEntity
  8
0
100
AcDbLine
 10
43.50000000000045
 20
4.000000000000227
 30
0.0
 11
43.50000000000045
 21
18.0
 31
0.0
  0
LINE
  5
288
330
246
100
AcDbEntity
  8
0
100
AcDbLine
 10
79.0
 20
6.000000000000227
 30
0.0
 11
79.0
 21
18.0
 31
0.0
  0
LINE
  5
289
330
246
100
AcDbEntity
  8
0
100
AcDbLine
 10
-6.5
 20
322.0
 30
0.0
 11
35.0
 21
322.0
 31
0.0
  0
LINE
  5
28A
330
246
100
AcDbEntity
  8
0
100
AcDbLine
 10
-6.5
 20
318.0
 30
0.0
 11
35.0
 21
318.0
 31
0.0
  0
LINE
  5
28B
330
246
100
AcDbEntity
  8
0
100
AcDbLine
 10
-6.5
 20
268.0
 30
0.0
 11
35.0
 21
268.0
 31
0.0
  0
LINE
  5
28C
330
246
100
AcDbEntity
  8
0
100
AcDbLine
 10
-6.5
 20
272.0
 30
0.0
 11
35.0
 21
272.0
 31
0.0
  0
LINE
  5
28D
330
246
100
AcDbEntity
  8
0
100
AcDbLine
 10
-6.5
 20
222.0
 30
0.0
 11
35.0
 21
222.0
 31
0.0
  0
LINE
  5
28E
330
246
100
AcDbEntity
  8
0
100
AcDbLine
 10
-6.5
 20
218.0
 30
0.0
 11
35.0
 21
218.0
 31
0.0
  0
LINE
  5
28F
330
246
100
AcDbEntity
  8
0
100
AcDbLine
 10
-6.5
 20
172.0
 30
0.0
 11
35.0
 21
172.0
 31
0.0
  0
LINE
  5
290
330
246
100
AcDbEntity
  8
0
100
AcDbLine
 10
-6.5
 20
168.0
 30
0.0
 11
35.0
 21
168.0
 31
0.0
  0
LINE
  5
291
330
246
100
AcDbEntity
  8
0
100
AcDbLine
 10
-6.5
 20
122.0000000000002
 30
0.0
 11
35.0
 21
122.0
 31
0.0
  0
LINE
  5
292
330
246
100
AcDbEntity
  8
0
100
AcDbLine
 10
-6.5
 20
118.0
 30
0.0
 11
35.0
 21
118.0
 31
0.0
  0
LINE
  5
293
330
246
100
AcDbEntity
  8
0
100
AcDbLine
 10
-6.0
 20
222.0
 30
0.0
 11
-6.0
 21
268.0
 31
0.0
  0
LINE
  5
294
330
246
100
AcDbEntity
  8
0
100
AcDbLine
 10
-2.0
 20
222.0
 30
0.0
 11
-2.0
 21
268.0
 31
0.0
  0
LINE
  5
295
330
246
100
AcDbEntity
  8
0
100
AcDbLine
 10
-6.0
 20
122.0
 30
0.0
 11
-6.0
 21
168.0
 31
0.0
  0
LINE
  5
296
330
246
100
AcDbEntity
  8
0
100
AcDbLine
 10
-2.0
 20
122.0
 30
0.0
 11
-2.0
 21
168.0
 31
0.0
  0
ARC
  5
297
330
246
100
AcDbEntity
  8
0
100
AcDbCircle
 10
-8.0
 20
120.0
 30
0.0
 40
2.0
100
AcDbArc
 50
90.0
 51
270.0
  0
ARC
  5
298
330
246
100
AcDbEntity
  8
0
100
AcDbCircle
 10
-8.0
 20
120.0
 30
0.0
 40
2.0
100
AcDbArc
 50
270.0
 51
90.0
  0
LINE
  5
299
330
246
100
AcDbEntity
  8
0
100
AcDbLine
 10
-6.0
 20
172.0
 30
0.0
 11
-6.0
 21
218.0
 31
0.0
  0
LINE
  5
29A
330
246
100
AcDbEntity
  8
0
100
AcDbLine
 10
-2.0
 20
172.0
 30
0.0
 11
-2.0
 21
218.0
 31
0.0
  0
ARC
  5
29B
330
246
100
AcDbEntity
  8
0
100
AcDbCircle
 10
-8.0
 20
170.0
 30
0.0
 40
2.0
100
AcDbArc
 50
90.0
 51
270.0
  0
ARC
  5
29C
330
246
100
AcDbEntity
  8
0
100
AcDbCircle
 10
-8.0
 20
170.0
 30
0.0
 40
2.0
100
AcDbArc
 50
270.0
 51
90.0
  0
ARC
  5
29D
330
246
100
AcDbEntity
  8
0
100
AcDbCircle
 10
-8.0
 20
220.0
 30
0.0
 40
2.0
100
AcDbArc
 50
90.0
 51
270.0
  0
ARC
  5
29E
330
246
100
AcDbEntity
  8
0
100
AcDbCircle
 10
-8.0
 20
220.0
 30
0.0
 40
2.0
100
AcDbArc
 50
270.0
 51
90.0
  0
LINE
  5
29F
330
246
100
AcDbEntity
  8
0
100
AcDbLine
 10
-6.0
 20
272.0
 30
0.0
 11
-6.0
 21
318.0
 31
0.0
  0
LINE
  5
2A0
330
246
100
AcDbEntity
  8
0
100
AcDbLine
 10
-2.0
 20
272.0
 30
0.0
 11
-2.0
 21
318.0
 31
0.0
  0
ARC
  5
2A1
330
246
100
AcDbEntity
  8
0
100
AcDbCircle
 10
-8.0
 20
270.0
 30
0.0
 40
2.0
100
AcDbArc
 50
270.0
 51
90.0
  0
ARC
  5
2A2
330
246
100
AcDbEntity
  8
0
100
AcDbCircle
 10
-8.0
 20
270.0
 30
0.0
 40
2.0
100
AcDbArc
 50
90.0
 51
270.0
  0
ARC
  5
2A3
330
246
100
AcDbEntity
  8
0
100
AcDbCircle
 10
-8.0
 20
320.0
 30
0.0
 40
2.0
100
AcDbArc
 50
90.0
 51
270.0
  0
ARC
  5
2A4
330
246
100
AcDbEntity
  8
0
100
AcDbCircle
 10
-8.0
 20
320.0
 30
0.0
 40
2.0
100
AcDbArc
 50
270.0
 51
90.0
  0
LINE
  5
2A5
330
246
100
AcDbEntity
  8
0
100
AcDbLine
 10
79.0
 20
222.0
 30
0.0
 11
79.0
 21
268.0
 31
0.0
  0
LINE
  5
2A6
330
246
100
AcDbEntity
  8
0
100
AcDbLine
 10
4.0
 20
222.0
 30
0.0
 11
4.0
 21
268.0
 31
0.0
  0
LINE
  5
2A7
330
246
100
AcDbEntity
  8
0
100
AcDbLine
 10
0.0
 20
222.0
 30
0.0
 11
0.0
 21
268.0
 31
0.0
  0
LINE
  5
2A8
330
246
100
AcDbEntity
  8
0
100
AcDbLine
 10
39.5
 20
222.0
 30
0.0
 11
39.5
 21
268.0
 31
0.0
  0
LINE
  5
2A9
330
246
100
AcDbEntity
  8
0
100
AcDbLine
 10
43.5
 20
222.0
 30
0.0
 11
43.5
 21
268.0
 31
0.0
  0
LINE
  5
2AA
330
246
100
AcDbEntity
  8
0
100
AcDbLine
 10
4.0
 20
122.0000000000002
 30
0.0
 11
4.0
 21
168.0
 31
0.0
  0
LINE
  5
2AB
330
246
100
AcDbEntity
  8
0
100
AcDbLine
 10
0.0
 20
122.0
 30
0.0
 11
0.0
 21
168.0
 31
0.0
  0
LINE
  5
2AC
330
246
100
AcDbEntity
  8
0
100
AcDbLine
 10
39.5
 20
122.0
 30
0.0
 11
39.5
 21
168.0
 31
0.0
  0
LINE
  5
2AD
330
246
100
AcDbEntity
  8
0
100
AcDbLine
 10
4.0
 20
172.0
 30
0.0
 11
4.0
 21
218.0
 31
0.0
  0
LINE
  5
2AE
330
246
100
AcDbEntity
  8
0
100
AcDbLine
 10
0.0
 20
172.0
 30
0.0
 11
0.0
 21
218.0
 31
0.0
  0
LINE
  5
2AF
330
246
100
AcDbEntity
  8
0
100
AcDbLine
 10
39.5
 20
172.0
 30
0.0
 11
39.5
 21
218.0
 31
0.0
  0
LINE
  5
2B0
330
246
100
AcDbEntity
  8
0
100
AcDbLine
 10
79.0
 20
122.0
 30
0.0
 11
79.0
 21
168.0
 31
0.0
  0
LINE
  5
2B1
330
246
100
AcDbEntity
  8
0
100
AcDbLine
 10
43.5
 20
122.0
 30
0.0
 11
43.5
 21
168.0
 31
0.0
  0
LINE
  5
2B2
330
246
100
AcDbEntity
  8
0
100
AcDbLine
 10
43.5
 20
172.0
 30
0.0
 11
43.5
 21
218.0
 31
0.0
  0
LINE
  5
2B3
330
246
100
AcDbEntity
  8
0
100
AcDbLine
 10
79.0
 20
172.0
 30
0.0
 11
79.0
 21
218.0
 31
0.0
  0
LINE
  5
2B4
330
246
100
AcDbEntity
  8
0
100
AcDbLine
 10
4.0
 20
272.0
 30
0.0
 11
4.0
 21
318.0
 31
0.0
  0
LINE
  5
2B5
330
246
100
AcDbEntity
  8
0
100
AcDbLine
 10
0.0
 20
272.0
 30
0.0
 11
0.0
 21
318.0
 31
0.0
  0
LINE
  5
2B6
330
246
100
AcDbEntity
  8
0
100
AcDbLine
 10
39.5
 20
272.0
 30
0.0
 11
39.5
 21
318.0
 31
0.0
  0
LINE
  5
2B7
330
246
100
AcDbEntity
  8
0
100
AcDbLine
 10
79.0
 20
272.0
 30
0.0
 11
79.0
 21
317.9999999999998
 31
0.0
  0
LINE
  5
2B8
330
246
100
AcDbEntity
  8
0
100
AcDbLine
 10
43.5
 20
272.0
 30
0.0
 11
43.5
 21
318.0
 31
0.0
  0
ARC
  5
2B9
330
246
100
AcDbEntity
  8
0
100
AcDbCircle
 10
-8.0
 20
378.0000000000001
 30
0.0
 40
2.0
100
AcDbArc
 50
270.0
 51
90.0
  0
ARC
  5
2BA
330
246
100
AcDbEntity
  8
0
100
AcDbCircle
 10
-8.0
 20
378.0000000000001
 30
0.0
 40
2.0
100
AcDbArc
 50
90.0
 51
270.0
  0
LINE
  5
2BB
330
246
100
AcDbEntity
  8
0
100
AcDbLine
 10
83.0
 20
321.9999999999998
 30
0.0
 11
83.0
 21
376.0000000000001
 31
0.0
  0
LINE
  5
2BC
330
246
100
AcDbEntity
  8
0
100
AcDbLine
 10
89.0
 20
322.0
 30
0.0
 11
89.0
 21
375.9999999999997
 31
0.0
  0
LINE
  5
2BD
330
246
100
AcDbEntity
  8
0
100
AcDbLine
 10
85.0
 20
322.0
 30
0.0
 11
85.0
 21
375.9999999999997
 31
0.0
  0
LINE
  5
2BE
330
246
100
AcDbEntity
  8
0
100
AcDbLine
 10
83.0
 20
72.0
 30
0.0
 11
83.0
 21
118.0
 31
0.0
  0
LINE
  5
2BF
330
246
100
AcDbEntity
  8
0
100
AcDbLine
 10
85.0
 20
72.0
 30
0.0
 11
85.0
 21
118.0
 31
0.0
  0
LINE
  5
2C0
330
246
100
AcDbEntity
  8
0
100
AcDbLine
 10
89.0
 20
72.0
 30
0.0
 11
89.0
 21
118.0
 31
0.0
  0
LINE
  5
2C1
330
246
100
AcDbEntity
  8
0
100
AcDbLine
 10
83.0
 20
22.0
 30
0.0
 11
83.0
 21
68.0
 31
0.0
  0
LINE
  5
2C2
330
246
100
AcDbEntity
  8
0
100
AcDbLine
 10
89.0
 20
22.0
 30
0.0
 11
89.0
 21
68.0
 31
0.0
  0
LINE
  5
2C3
330
246
100
AcDbEntity
  8
0
100
AcDbLine
 10
85.0
 20
22.0
 30
0.0
 11
85.0
 21
68.0
 31
0.0
  0
ARC
  5
2C4
330
246
100
AcDbEntity
  8
0
100
AcDbCircle
 10
91.0
 20
20.0
 30
0.0
 40
2.0
100
AcDbArc
 50
270.0
 51
90.0
  0
ARC
  5
2C5
330
246
100
AcDbEntity
  8
0
100
AcDbCircle
 10
91.0
 20
20.0
 30
0.0
 40
2.0
100
AcDbArc
 50
90.0
 51
270.0
  0
LINE
  5
2C6
330
246
100
AcDbEntity
  8
0
100
AcDbLine
 10
83.0
 20
6.000000000000227
 30
0.0
 11
83.0
 21
18.0
 31
0.0
  0
ARC
  5
2C7
330
246
100
AcDbEntity
  8
0
100
AcDbCircle
 10
83.0
 20
6.000000000000227
 30
0.0
 40
6.0
100
AcDbArc
 50
270.0
 51
0.0
  0
ARC
  5
2C8
330
246
100
AcDbEntity
  8
0
100
AcDbCircle
 10
83.0
 20
6.000000000000227
 30
0.0
 40
2.0
100
AcDbArc
 50
270.0
 51
0.0
  0
LINE
  5
2C9
330
246
100
AcDbEntity
  8
0
100
AcDbLine
 10
85.0
 20
6.000000000000227
 30
0.0
 11
85.0
 21
18.0
 31
0.0
  0
LINE
  5
2CA
330
246
100
AcDbEntity
  8
0
100
AcDbLine
 10
89.0
 20
6.000000000000227
 30
0.0
 11
89.0
 21
18.0
 31
0.0
  0
ARC
  5
2CB
330
246
100
AcDbEntity
  8
0
100
AcDbCircle
 10
91.0
 20
70.0
 30
0.0
 40
2.0
100
AcDbArc
 50
90.0
 51
270.0
  0
ARC
  5
2CC
330
246
100
AcDbEntity
  8
0
100
AcDbCircle
 10
91.0
 20
70.0
 30
0.0
 40
2.0
100
AcDbArc
 50
270.0
 51
90.0
  0
LINE
  5
2CD
330
246
100
AcDbEntity
  8
0
100
AcDbLine
 10
83.0
 20
222.0
 30
0.0
 11
83.0
 21
268.0
 31
0.0
  0
LINE
  5
2CE
330
246
100
AcDbEntity
  8
0
100
AcDbLine
 10
85.0
 20
222.0
 30
0.0
 11
85.0
 21
268.0
 31
0.0
  0
LINE
  5
2CF
330
246
100
AcDbEntity
  8
0
100
AcDbLine
 10
89.0
 20
222.0
 30
0.0
 11
89.0
 21
268.0
 31
0.0
  0
LINE
  5
2D0
330
246
100
AcDbEntity
  8
0
100
AcDbLine
 10
83.0
 20
122.0
 30
0.0
 11
83.0
 21
168.0
 31
0.0
  0
LINE
  5
2D1
330
246
100
AcDbEntity
  8
0
100
AcDbLine
 10
85.0
 20
122.0
 30
0.0
 11
85.0
 21
168.0
 31
0.0
  0
LINE
  5
2D2
330
246
100
AcDbEntity
  8
0
100
AcDbLine
 10
89.0
 20
122.0
 30
0.0
 11
89.0
 21
168.0
 31
0.0
  0
ARC
  5
2D3
330
246
100
AcDbEntity
  8
0
100
AcDbCircle
 10
91.0
 20
120.0
 30
0.0
 40
2.0
100
AcDbArc
 50
90.0
 51
270.0
  0
ARC
  5
2D4
330
246
100
AcDbEntity
  8
0
100
AcDbCircle
 10
91.0
 20
120.0
 30
0.0
 40
2.0
100
AcDbArc
 50
270.0
 51
90.0
  0
LINE
  5
2D5
330
246
100
AcDbEntity
  8
0
100
AcDbLine
 10
83.0
 20
172.0
 30
0.0
 11
83.0
 21
218.0
 31
0.0
  0
LINE
  5
2D6
330
246
100
AcDbEntity
  8
0
100
AcDbLine
 10
85.0
 20
172.0
 30
0.0
 11
85.0
 21
218.0
 31
0.0
  0
LINE
  5
2D7
330
246
100
AcDbEntity
  8
0
100
AcDbLine
 10
89.0
 20
172.0
 30
0.0
 11
89.0
 21
218.0
 31
0.0
  0
ARC
  5
2D8
330
246
100
AcDbEntity
  8
0
100
AcDbCircle
 10
91.0
 20
170.0
 30
0.0
 40
2.0
100
AcDbArc
 50
90.0
 51
270.0
  0
ARC
  5
2D9
330
246
100
AcDbEntity
  8
0
100
AcDbCircle
 10
91.0
 20
170.0
 30
0.0
 40
2.0
100
AcDbArc
 50
270.0
 51
90.0
  0
ARC
  5
2DA
330
246
100
AcDbEntity
  8
0
100
AcDbCircle
 10
91.0
 20
220.0
 30
0.0
 40
2.0
100
AcDbArc
 50
90.0
 51
270.0
  0
ARC
  5
2DB
330
246
100
AcDbEntity
  8
0
100
AcDbCircle
 10
91.0
 20
220.0
 30
0.0
 40
2.0
100
AcDbArc
 50
270.0
 51
90.0
  0
LINE
  5
2DC
330
246
100
AcDbEntity
  8
0
100
AcDbLine
 10
83.0
 20
272.0
 30
0.0
 11
83.0
 21
317.9999999999998
 31
0.0
  0
LINE
  5
2DD
330
246
100
AcDbEntity
  8
0
100
AcDbLine
 10
85.0
 20
272.0
 30
0.0
 11
85.0
 21
318.0
 31
0.0
  0
LINE
  5
2DE
330
246
100
AcDbEntity
  8
0
100
AcDbLine
 10
89.0
 20
272.0
 30
0.0
 11
89.0
 21
318.0
 31
0.0
  0
ARC
  5
2DF
330
246
100
AcDbEntity
  8
0
100
AcDbCircle
 10
91.0
 20
270.0
 30
0.0
 40
2.0
100
AcDbArc
 50
270.0
 51
90.0
  0
ARC
  5
2E0
330
246
100
AcDbEntity
  8
0
100
AcDbCircle
 10
91.0
 20
270.0
 30
0.0
 40
2.0
100
AcDbArc
 50
90.0
 51
270.0
  0
ARC
  5
2E1
330
246
100
AcDbEntity
  8
0
100
AcDbCircle
 10
91.0
 20
320.0
 30
0.0
 40
2.0
100
AcDbArc
 50
90.0
 51
270.0
  0
ARC
  5
2E2
330
246
100
AcDbEntity
  8
0
100
AcDbCircle
 10
91.0
 20
320.0
 30
0.0
 40
2.0
100
AcDbArc
 50
270.0
 51
90.0
  0
ARC
  5
2E3
330
246
100
AcDbEntity
  8
0
100
AcDbCircle
 10
91.0
 20
378.0000000000001
 30
0.0
 40
2.0
100
AcDbArc
 50
270.0
 51
90.0
  0
ARC
  5
2E4
330
246
100
AcDbEntity
  8
0
100
AcDbCircle
 10
91.0
 20
378.0000000000001
 30
0.0
 40
2.0
100
AcDbArc
 50
90.0
 51
270.0
  0
ENDBLK
  5
2E5
330
246
100
AcDbEntity
  8
0
100
AcDbBlockEnd
  0
BLOCK
  5
202
330
201
100
AcDbEntity
  8
0
100
AcDbBlockBegin
  2
Gitterkorb WP134-01-d
 70
     0
 10
0.0
 20
0.0
 30
0.0
  3
Gitterkorb WP134-01-d
  1

  0
LINE
  5
203
330
201
100
AcDbEntity
  8
0
100
AcDbLine
 10
75.99999999999977
 20
93.0
 30
0.0
 11
121.9999999999997
 21
93.0
 31
0.0
  0
LINE
  5
204
330
201
100
AcDbEntity
  8
0
100
AcDbLine
 10
75.99999999999977
 20
89.0
 30
0.0
 11
121.9999999999997
 21
89.0
 31
0.0
  0
LINE
  5
205
330
201
100
AcDbEntity
  8
0
100
AcDbLine
 10
75.99999999999977
 20
14.0
 30
0.0
 11
121.9999999999997
 21
14.0
 31
0.0
  0
LINE
  5
206
330
201
100
AcDbEntity
  8
0
100
AcDbLine
 10
75.99999999999977
 20
10.0
 30
0.0
 11
121.9999999999997
 21
10.0
 31
0.0
  0
LWPOLYLINE
  5
207
330
201
100
AcDbEntity
  8
0
100
AcDbPolyline
 90
        8
 70
     1
 43
0.0
 10
0.0
 20
0.0
 10
248.0
 20
0.0
 42
0.4142135623730951
 10
254.0
 20
6.0
 10
254.0
 20
97.0
 42
0.4142135623730951
 10
248.0
 20
103.0
 10
0.0
 20
103.0
 42
0.4142135623730951
 10
-6.0
 20
97.0
 10
-6.0
 20
6.0
 42
0.4142135623730951
  0
LINE
  5
208
330
201
100
AcDbEntity
  8
0
100
AcDbLine
 10
75.99999999999977
 20
49.5
 30
0.0
 11
121.9999999999997
 21
49.5
 31
0.0
  0
LINE
  5
209
330
201
100
AcDbEntity
  8
0
100
AcDbLine
 10
75.99999999999977
 20
53.5
 30
0.0
 11
121.9999999999997
 21
53.5
 31
0.0
  0
LWPOLYLINE
  5
20A
330
201
100
AcDbEntity
  8
0
100
AcDbPolyline
 90
        8
 70
     1
 43
0.0
 10
0.0
 20
4.0
 10
248.0
 20
4.0
 42
0.4142135623730951
 10
250.0
 20
6.0
 10
250.0
 20
97.0
 42
0.4142135623730951
 10
248.0
 20
99.0
 10
0.0
 20
99.0
 42
0.4142135623730951
 10
-2.0
 20
97.0
 10
-2.0
 20
6.0
 42
0.4142135623730951
  0
LINE
  5
20B
330
201
100
AcDbEntity
  8
0
100
AcDbLine
 10
25.99999999999977
 20
93.0
 30
0.0
 11
71.99999999999977
 21
93.0
 31
0.0
  0
LINE
  5
20C
330
201
100
AcDbEntity
  8
0
100
AcDbLine
 10
25.99999999999977
 20
89.0
 30
0.0
 11
71.99999999999977
 21
89.0
 31
0.0
  0
LINE
  5
20D
330
201
100
AcDbEntity
  8
0
100
AcDbLine
 10
25.99999999999977
 20
14.0
 30
0.0
 11
71.99999999999977
 21
14.0
 31
0.0
  0
LINE
  5
20E
330
201
100
AcDbEntity
  8
0
100
AcDbLine
 10
25.99999999999977
 20
10.0
 30
0.0
 11
71.99999999999977
 21
10.0
 31
0.0
  0
LINE
  5
20F
330
201
100
AcDbEntity
  8
0
100
AcDbLine
 10
25.99999999999977
 20
49.5
 30
0.0
 11
71.99999999999977
 21
49.5
 31
0.0
  0
LINE
  5
210
330
201
100
AcDbEntity
  8
0
100
AcDbLine
 10
25.99999999999977
 20
53.5
 30
0.0
 11
71.99999999999977
 21
53.5
 31
0.0
  0
LINE
  5
211
330
201
100
AcDbEntity
  8
0
100
AcDbLine
 10
25.99999999999977
 20
6.0
 30
0.0
 11
25.99999999999977
 21
99.0
 31
0.0
  0
LINE
  5
212
330
201
100
AcDbEntity
  8
0
100
AcDbLine
 10
21.99999999999977
 20
6.0
 30
0.0
 11
21.99999999999977
 21
99.0
 31
0.0
  0
LINE
  5
213
330
201
100
AcDbEntity
  8
0
100
AcDbLine
 10
0.0
 20
14.0
 30
0.0
 11
21.99999999999977
 21
14.0
 31
0.0
  0
LINE
  5
214
330
201
100
AcDbEntity
  8
0
100
AcDbLine
 10
0.0
 20
10.00000000000005
 30
0.0
 11
21.99999999999977
 21
10.0
 31
0.0
  0
CIRCLE
  5
215
330
201
100
AcDbEntity
  8
0
100
AcDbCircle
 10
0.0
 20
12.0
 30
0.0
 40
2.0
  0
CIRCLE
  5
216
330
201
100
AcDbEntity
  8
0
100
AcDbCircle
 10
23.99999999999977
 20
6.0
 30
0.0
 40
2.0
  0
LINE
  5
217
330
201
100
AcDbEntity
  8
0
100
AcDbLine
 10
0.0
 20
49.5
 30
0.0
 11
21.99999999999977
 21
49.5
 31
0.0
  0
LINE
  5
218
330
201
100
AcDbEntity
  8
0
100
AcDbLine
 10
0.0
 20
53.5
 30
0.0
 11
21.99999999999977
 21
53.5
 31
0.0
  0
CIRCLE
  5
219
330
201
100
AcDbEntity
  8
0
100
AcDbCircle
 10
0.0
 20
51.5
 30
0.0
 40
2.0
  0
LINE
  5
21A
330
201
100
AcDbEntity
  8
0
100
AcDbLine
 10
0.0
 20
92.99999999999988
 30
0.0
 11
21.99999999999977
 21
93.0
 31
0.0
  0
LINE
  5
21B
330
201
100
AcDbEntity
  8
0
100
AcDbLine
 10
0.0
 20
89.0
 30
0.0
 11
21.99999999999977
 21
89.0
 31
0.0
  0
CIRCLE
  5
21C
330
201
100
AcDbEntity
  8
0
100
AcDbCircle
 10
0.0
 20
91.0
 30
0.0
 40
2.0
  0
CIRCLE
  5
21D
330
201
100
AcDbEntity
  8
0
100
AcDbCircle
 10
23.99999999999977
 20
97.0
 30
0.0
 40
2.0
  0
LINE
  5
21E
330
201
100
AcDbEntity
  8
0
100
AcDbLine
 10
71.99999999999977
 20
6.0
 30
0.0
 11
71.99999999999977
 21
99.0
 31
0.0
  0
LINE
  5
21F
330
201
100
AcDbEntity
  8
0
100
AcDbLine
 10
75.99999999999977
 20
6.0
 30
0.0
 11
75.99999999999977
 21
99.0
 31
0.0
  0
CIRCLE
  5
220
330
201
100
AcDbEntity
  8
0
100
AcDbCircle
 10
73.99999999999977
 20
6.0
 30
0.0
 40
2.0
  0
CIRCLE
  5
221
330
201
100
AcDbEntity
  8
0
100
AcDbCircle
 10
73.99999999999977
 20
97.0
 30
0.0
 40
2.0
  0
LINE
  5
222
330
201
100
AcDbEntity
  8
0
100
AcDbLine
 10
175.9999999999998
 20
93.0
 30
0.0
 11
221.9999999999998
 21
93.0
 31
0.0
  0
LINE
  5
223
330
201
100
AcDbEntity
  8
0
100
AcDbLine
 10
175.9999999999998
 20
89.0
 30
0.0
 11
221.9999999999998
 21
89.0
 31
0.0
  0
LINE
  5
224
330
201
100
AcDbEntity
  8
0
100
AcDbLine
 10
175.9999999999998
 20
14.0
 30
0.0
 11
221.9999999999998
 21
14.0
 31
0.0
  0
LINE
  5
225
330
201
100
AcDbEntity
  8
0
100
AcDbLine
 10
175.9999999999998
 20
10.0
 30
0.0
 11
221.9999999999998
 21
10.0
 31
0.0
  0
LINE
  5
226
330
201
100
AcDbEntity
  8
0
100
AcDbLine
 10
175.9999999999998
 20
49.5
 30
0.0
 11
221.9999999999998
 21
49.5
 31
0.0
  0
LINE
  5
227
330
201
100
AcDbEntity
  8
0
100
AcDbLine
 10
175.9999999999998
 20
53.5
 30
0.0
 11
221.9999999999998
 21
53.5
 31
0.0
  0
LINE
  5
228
330
201
100
AcDbEntity
  8
0
100
AcDbLine
 10
171.9999999999997
 20
6.0
 30
0.0
 11
171.9999999999997
 21
99.0
 31
0.0
  0
LINE
  5
229
330
201
100
AcDbEntity
  8
0
100
AcDbLine
 10
175.9999999999998
 20
6.0
 30
0.0
 11
175.9999999999998
 21
99.0
 31
0.0
  0
LINE
  5
22A
330
201
100
AcDbEntity
  8
0
100
AcDbLine
 10
121.9999999999997
 20
6.0
 30
0.0
 11
121.9999999999997
 21
99.0
 31
0.0
  0
LINE
  5
22B
330
201
100
AcDbEntity
  8
0
100
AcDbLine
 10
125.9999999999998
 20
6.0
 30
0.0
 11
125.9999999999998
 21
99.0
 31
0.0
  0
LINE
  5
22C
330
201
100
AcDbEntity
  8
0
100
AcDbLine
 10
125.9999999999998
 20
14.0
 30
0.0
 11
171.9999999999997
 21
14.0
 31
0.0
  0
LINE
  5
22D
330
201
100
AcDbEntity
  8
0
100
AcDbLine
 10
125.9999999999998
 20
10.0
 30
0.0
 11
171.9999999999997
 21
10.0
 31
0.0
  0
LINE
  5
22E
330
201
100
AcDbEntity
  8
0
100
AcDbLine
 10
125.9999999999998
 20
49.5
 30
0.0
 11
171.9999999999997
 21
49.5
 31
0.0
  0
LINE
  5
22F
330
201
100
AcDbEntity
  8
0
100
AcDbLine
 10
125.9999999999998
 20
53.5
 30
0.0
 11
171.9999999999997
 21
53.5
 31
0.0
  0
CIRCLE
  5
230
330
201
100
AcDbEntity
  8
0
100
AcDbCircle
 10
124.0
 20
6.0
 30
0.0
 40
2.0
  0
CIRCLE
  5
231
330
201
100
AcDbEntity
  8
0
100
AcDbCircle
 10
174.0
 20
6.0
 30
0.0
 40
2.0
  0
LINE
  5
232
330
201
100
AcDbEntity
  8
0
100
AcDbLine
 10
125.9999999999998
 20
93.0
 30
0.0
 11
171.9999999999997
 21
93.0
 31
0.0
  0
LINE
  5
233
330
201
100
AcDbEntity
  8
0
100
AcDbLine
 10
125.9999999999998
 20
89.0
 30
0.0
 11
171.9999999999997
 21
89.0
 31
0.0
  0
CIRCLE
  5
234
330
201
100
AcDbEntity
  8
0
100
AcDbCircle
 10
124.0
 20
97.0
 30
0.0
 40
2.0
  0
CIRCLE
  5
235
330
201
100
AcDbEntity
  8
0
100
AcDbCircle
 10
174.0
 20
97.0
 30
0.0
 40
2.0
  0
LINE
  5
236
330
201
100
AcDbEntity
  8
0
100
AcDbLine
 10
221.9999999999998
 20
6.0
 30
0.0
 11
221.9999999999998
 21
99.0
 31
0.0
  0
LINE
  5
237
330
201
100
AcDbEntity
  8
0
100
AcDbLine
 10
225.9999999999998
 20
6.0
 30
0.0
 11
225.9999999999998
 21
99.0
 31
0.0
  0
LINE
  5
238
330
201
100
AcDbEntity
  8
0
100
AcDbLine
 10
248.0
 20
14.0
 30
0.0
 11
226.0000000000002
 21
14.0
 31
0.0
  0
LINE
  5
239
330
201
100
AcDbEntity
  8
0
100
AcDbLine
 10
248.0
 20
10.00000000000005
 30
0.0
 11
226.0000000000002
 21
10.0
 31
0.0
  0
LINE
  5
23A
330
201
100
AcDbEntity
  8
0
100
AcDbLine
 10
225.9999999999998
 20
53.5
 30
0.0
 11
248.0
 21
53.50000000000022
 31
0.0
  0
LINE
  5
23B
330
201
100
AcDbEntity
  8
0
100
AcDbLine
 10
225.9999999999998
 20
49.5
 30
0.0
 11
248.0
 21
49.50000000000023
 31
0.0
  0
CIRCLE
  5
23C
330
201
100
AcDbEntity
  8
0
100
AcDbCircle
 10
224.0
 20
6.0
 30
0.0
 40
2.0
  0
CIRCLE
  5
23D
330
201
100
AcDbEntity
  8
0
100
AcDbCircle
 10
248.0
 20
12.0
 30
0.0
 40
2.0
  0
CIRCLE
  5
23E
330
201
100
AcDbEntity
  8
0
100
AcDbCircle
 10
248.0
 20
51.5
 30
0.0
 40
2.0
  0
CIRCLE
  5
23F
330
201
100
AcDbEntity
  8
0
100
AcDbCircle
 10
248.0
 20
51.5
 30
0.0
 40
2.0
  0
LINE
  5
240
330
201
100
AcDbEntity
  8
0
100
AcDbLine
 10
248.0
 20
92.99999999999988
 30
0.0
 11
226.0000000000002
 21
93.0
 31
0.0
  0
LINE
  5
241
330
201
100
AcDbEntity
  8
0
100
AcDbLine
 10
248.0
 20
89.0
 30
0.0
 11
226.0000000000002
 21
89.0
 31
0.0
  0
CIRCLE
  5
242
330
201
100
AcDbEntity
  8
0
100
AcDbCircle
 10
224.0
 20
97.0
 30
0.0
 40
2.0
  0
CIRCLE
  5
243
330
201
100
AcDbEntity
  8
0
100
AcDbCircle
 10
248.0
 20
91.0
 30
0.0
 40
2.0
  0
ENDBLK
  5
244
330
201
100
AcDbEntity
  8
0
100
AcDbBlockEnd
  0
BLOCK
  5
14E
330
14D
100
AcDbEntity
  8
0
100
AcDbBlockBegin
  2
*D21
 70
     1
 10
0.0
 20
0.0
 30
0.0
  3
*D21
  1

  0
LINE
  5
14F
330
14D
100
AcDbEntity
  8
09-01
 62
     4
370
    -2
100
AcDbLine
 10
241.7484465699204
 20
1351.117092709824
 30
0.0
 11
241.7484465699204
 21
1369.996859056501
 31
0.0
  0
LINE
  5
150
330
14D
100
AcDbEntity
  8
09-01
 62
     4
370
    -2
100
AcDbLine
 10
437.7484465699203
 20
1351.117092709824
 30
0.0
 11
437.7484465699203
 21
1369.996859056501
 31
0.0
  0
LINE
  5
151
330
14D
100
AcDbEntity
  8
09-01
 62
     4
370
    -2
100
AcDbLine
 10
254.2484465699204
 20
1364.996859056501
 30
0.0
 11
425.2484465699203
 21
1364.996859056501
 31
0.0
  0
MTEXT
  5
152
330
14D
100
AcDbEntity
  8
09-01
 62
     1
100
AcDbMText
 10
376.2879649206388
 20
1379.653585425448
 30
0.0
 40
12.5
 41
0.0
 46
0.0
 71
     5
 72
     1
  1
196
 73
     1
 44
1.0
  0
SOLID
  5
153
330
14D
100
AcDbEntity
  8
09-01
 62
     4
100
AcDbTrace
 10
254.2484465699204
 20
1367.080192389834
 30
0.0
 11
254.2484465699204
 21
1362.913525723168
 31
0.0
 12
241.7484465699204
 22
1364.996859056501
 32
0.0
 13
241.7484465699204
 23
1364.996859056501
 33
0.0
  0
SOLID
  5
154
330
14D
100
AcDbEntity
  8
09-01
 62
     4
100
AcDbTrace
 10
425.2484465699203
 20
1367.080192389834
 30
0.0
 11
425.2484465699203
 21
1362.913525723168
 31
0.0
 12
437.7484465699203
 22
1364.996859056501
 32
0.0
 13
437.7484465699203
 23
1364.996859056501
 33
0.0
  0
POINT
  5
155
330
14D
100
AcDbEntity
  8
DEFPOINTS
 62
     0
100
AcDbPoint
 10
241.7484465699204
 20
1346.117092709824
 30
0.0
  0
POINT
  5
156
330
14D
100
AcDbEntity
  8
DEFPOINTS
 62
     0
100
AcDbPoint
 10
437.7484465699203
 20
1346.117092709824
 30
0.0
  0
POINT
  5
157
330
14D
100
AcDbEntity
  8
DEFPOINTS
 62
     0
100
AcDbPoint
 10
437.7484465699203
 20
1364.996859056501
 30
0.0
  0
ENDBLK
  5
158
330
14D
100
AcDbEntity
  8
0
100
AcDbBlockEnd
  0
BLOCK
  5
141
330
140
100
AcDbEntity
  8
0
100
AcDbBlockBegin
  2
*D22
 70
     1
 10
0.0
 20
0.0
 30
0.0
  3
*D22
  1

  0
LINE
  5
142
330
140
100
AcDbEntity
  8
09-01
 62
     4
370
    -2
100
AcDbLine
 10
493.7484465699217
 20
390.7766619451522
 30
0.0
 11
544.6905731986126
 21
390.7766619451522
 31
0.0
  0
LINE
  5
143
330
140
100
AcDbEntity
  8
09-01
 62
     4
370
    -2
100
AcDbLine
 10
492.7484465699217
 20
270.7766619451522
 30
0.0
 11
544.6905731986126
 21
270.7766619451522
 31
0.0
  0
LINE
  5
144
330
140
100
AcDbEntity
  8
09-01
 62
     4
370
    -2
100
AcDbLine
 10
539.6905731986126
 20
378.2766619451522
 30
0.0
 11
539.6905731986126
 21
283.2766619451522
 31
0.0
  0
SOLID
  5
145
330
140
100
AcDbEntity
  8
09-01
 62
     4
100
AcDbTrace
 10
537.6072398652792
 20
378.2766619451522
 30
0.0
 11
541.7739065319459
 21
378.2766619451522
 31
0.0
 12
539.6905731986126
 22
390.7766619451522
 32
0.0
 13
539.6905731986126
 23
390.7766619451522
 33
0.0
  0
SOLID
  5
146
330
140
100
AcDbEntity
  8
09-01
 62
     4
100
AcDbTrace
 10
537.6072398652792
 20
283.2766619451522
 30
0.0
 11
541.7739065319459
 21
283.2766619451522
 31
0.0
 12
539.6905731986126
 22
270.7766619451522
 32
0.0
 13
539.6905731986126
 23
270.7766619451522
 33
0.0
  0
MTEXT
  5
147
330
140
100
AcDbEntity
  8
09-01
 62
     1
100
AcDbMText
 10
528.4405731986124
 20
330.7766619451523
 30
0.0
 40
12.5
 41
0.0
 46
0.0
 71
     5
 72
     1
  1
120
 11
0.0000000000000001
 21
1.0
 31
0.0
 73
     1
 44
1.0
  0
POINT
  5
148
330
140
100
AcDbEntity
  8
DEFPOINTS
 62
     0
100
AcDbPoint
 10
488.7484465699217
 20
390.7766619451522
 30
0.0
  0
POINT
  5
149
330
140
100
AcDbEntity
  8
DEFPOINTS
 62
     0
100
AcDbPoint
 10
487.7484465699217
 20
270.7766619451522
 30
0.0
  0
POINT
  5
14A
330
140
100
AcDbEntity
  8
DEFPOINTS
 62
     0
100
AcDbPoint
 10
539.6905731986126
 20
270.7766619451522
 30
0.0
  0
ENDBLK
  5
14B
330
140
100
AcDbEntity
  8
0
100
AcDbBlockEnd
  0
BLOCK
  5
134
330
133
100
AcDbEntity
  8
0
100
AcDbBlockBegin
  2
*D23
 70
     1
 10
0.0
 20
0.0
 30
0.0
  3
*D23
  1

  0
LINE
  5
135
330
133
100
AcDbEntity
  8
09-01
 62
     4
370
    -2
100
AcDbLine
 10
493.7484465699217
 20
390.7766619451522
 30
0.0
 11
521.0672722872096
 21
390.7766619451522
 31
0.0
  0
LINE
  5
136
330
133
100
AcDbEntity
  8
09-01
 62
     4
370
    -2
100
AcDbLine
 10
493.7484465699217
 20
280.7766619451522
 30
0.0
 11
521.0672722872096
 21
280.7766619451522
 31
0.0
  0
LINE
  5
137
330
133
100
AcDbEntity
  8
09-01
 62
     4
370
    -2
100
AcDbLine
 10
516.0672722872095
 20
378.2766619451522
 30
0.0
 11
516.0672722872095
 21
293.2766619451522
 31
0.0
  0
SOLID
  5
138
330
133
100
AcDbEntity
  8
09-01
 62
     4
100
AcDbTrace
 10
513.9839389538762
 20
378.2766619451522
 30
0.0
 11
518.1506056205429
 21
378.2766619451522
 31
0.0
 12
516.0672722872095
 22
390.7766619451522
 32
0.0
 13
516.0672722872095
 23
390.7766619451522
 33
0.0
  0
SOLID
  5
139
330
133
100
AcDbEntity
  8
09-01
 62
     4
100
AcDbTrace
 10
513.9839389538762
 20
293.2766619451522
 30
0.0
 11
518.1506056205429
 21
293.2766619451522
 31
0.0
 12
516.0672722872095
 22
280.7766619451522
 32
0.0
 13
516.0672722872095
 23
280.7766619451522
 33
0.0
  0
MTEXT
  5
13A
330
133
100
AcDbEntity
  8
09-01
 62
     1
100
AcDbMText
 10
504.8172722872094
 20
335.7766619451523
 30
0.0
 40
12.5
 41
0.0
 46
0.0
 71
     5
 72
     1
  1
110
 11
0.0000000000000001
 21
1.0
 31
0.0
 73
     1
 44
1.0
  0
POINT
  5
13B
330
133
100
AcDbEntity
  8
DEFPOINTS
 62
     0
100
AcDbPoint
 10
488.7484465699217
 20
390.7766619451522
 30
0.0
  0
POINT
  5
13C
330
133
100
AcDbEntity
  8
DEFPOINTS
 62
     0
100
AcDbPoint
 10
488.7484465699217
 20
280.7766619451522
 30
0.0
  0
POINT
  5
13D
330
133
100
AcDbEntity
  8
DEFPOINTS
 62
     0
100
AcDbPoint
 10
516.0672722872095
 20
280.7766619451522
 30
0.0
  0
ENDBLK
  5
13E
330
133
100
AcDbEntity
  8
0
100
AcDbBlockEnd
  0
BLOCK
  5
127
330
126
100
AcDbEntity
  8
0
100
AcDbBlockBegin
  2
*D24
 70
     1
 10
0.0
 20
0.0
 30
0.0
  3
*D24
  1

  0
LINE
  5
128
330
126
100
AcDbEntity
  8
09-01
 62
     4
370
    -2
100
AcDbLine
 10
185.7484465699216
 20
403.6170927098239
 30
0.0
 11
153.3406050804301
 21
403.6170927098239
 31
0.0
  0
LINE
  5
129
330
126
100
AcDbEntity
  8
09-01
 62
     4
370
    -2
100
AcDbLine
 10
200.7484465699217
 20
850.1201280201989
 30
0.0
 11
153.3406050804302
 21
850.1201280201989
 31
0.0
  0
LINE
  5
12A
330
126
100
AcDbEntity
  8
09-01
 62
     4
370
    -2
100
AcDbLine
 10
158.3406050804301
 20
416.1170927098239
 30
0.0
 11
158.3406050804302
 21
837.6201280201989
 31
0.0
  0
SOLID
  5
12B
330
126
100
AcDbEntity
  8
09-01
 62
     4
100
AcDbTrace
 10
156.2572717470968
 20
416.1170927098239
 30
0.0
 11
160.4239384137635
 21
416.1170927098239
 31
0.0
 12
158.3406050804301
 22
403.6170927098239
 32
0.0
 13
158.3406050804301
 23
403.6170927098239
 33
0.0
  0
SOLID
  5
12C
330
126
100
AcDbEntity
  8
09-01
 62
     4
100
AcDbTrace
 10
156.2572717470969
 20
837.6201280201989
 30
0.0
 11
160.4239384137636
 21
837.6201280201989
 31
0.0
 12
158.3406050804302
 22
850.1201280201989
 32
0.0
 13
158.3406050804302
 23
850.1201280201989
 33
0.0
  0
MTEXT
  5
12D
330
126
100
AcDbEntity
  8
09-01
 62
     1
100
AcDbMText
 10
147.09060508043
 20
626.8686103650114
 30
0.0
 40
12.5
 41
0.0
 46
0.0
 71
     5
 72
     1
  1
446.5
 11
0.0000000000000001
 21
1.0
 31
0.0
 73
     1
 44
1.0
  0
POINT
  5
12E
330
126
100
AcDbEntity
  8
DEFPOINTS
 62
     0
100
AcDbPoint
 10
190.7484465699216
 20
403.6170927098239
 30
0.0
  0
POINT
  5
12F
330
126
100
AcDbEntity
  8
DEFPOINTS
 62
     0
100
AcDbPoint
 10
205.7484465699217
 20
850.1201280201989
 30
0.0
  0
POINT
  5
130
330
126
100
AcDbEntity
  8
DEFPOINTS
 62
     0
100
AcDbPoint
 10
158.3406050804302
 20
850.1201280201989
 30
0.0
  0
ENDBLK
  5
131
330
126
100
AcDbEntity
  8
0
100
AcDbBlockEnd
  0
BLOCK
  5
11A
330
119
100
AcDbEntity
  8
0
100
AcDbBlockBegin
  2
*D25
 70
     1
 10
0.0
 20
0.0
 30
0.0
  3
*D25
  1

  0
LINE
  5
11B
330
119
100
AcDbEntity
  8
09-01
 62
     4
370
    -2
100
AcDbLine
 10
200.7484465699217
 20
1019.619716091307
 30
0.0
 11
125.2323811350371
 21
1019.619716091307
 31
0.0
  0
LINE
  5
11C
330
119
100
AcDbEntity
  8
09-01
 62
     4
370
    -2
100
AcDbLine
 10
185.7484465699217
 20
403.6170927098239
 30
0.0
 11
125.232381135037
 21
403.617092709824
 31
0.0
  0
LINE
  5
11D
330
119
100
AcDbEntity
  8
09-01
 62
     4
370
    -2
100
AcDbLine
 10
130.2323811350371
 20
1007.119716091307
 30
0.0
 11
130.232381135037
 21
416.1170927098239
 31
0.0
  0
SOLID
  5
11E
330
119
100
AcDbEntity
  8
09-01
 62
     4
100
AcDbTrace
 10
128.1490478017038
 20
1007.119716091307
 30
0.0
 11
132.3157144683705
 21
1007.119716091307
 31
0.0
 12
130.2323811350371
 22
1019.619716091307
 32
0.0
 13
130.2323811350371
 23
1019.619716091307
 33
0.0
  0
SOLID
  5
11F
330
119
100
AcDbEntity
  8
09-01
 62
     4
100
AcDbTrace
 10
128.1490478017036
 20
416.1170927098239
 30
0.0
 11
132.3157144683703
 21
416.1170927098239
 31
0.0
 12
130.232381135037
 22
403.6170927098239
 32
0.0
 13
130.232381135037
 23
403.6170927098239
 33
0.0
  0
MTEXT
  5
120
330
119
100
AcDbEntity
  8
09-01
 62
     1
100
AcDbMText
 10
118.9823811350369
 20
711.6184044005655
 30
0.0
 40
12.5
 41
0.0
 46
0.0
 71
     5
 72
     1
  1
616
 11
0.0000000000000001
 21
1.0
 31
0.0
 73
     1
 44
1.0
  0
POINT
  5
121
330
119
100
AcDbEntity
  8
DEFPOINTS
 62
     0
100
AcDbPoint
 10
205.7484465699217
 20
1019.619716091307
 30
0.0
  0
POINT
  5
122
330
119
100
AcDbEntity
  8
DEFPOINTS
 62
     0
100
AcDbPoint
 10
190.7484465699217
 20
403.6170927098239
 30
0.0
  0
POINT
  5
123
330
119
100
AcDbEntity
  8
DEFPOINTS
 62
     0
100
AcDbPoint
 10
130.232381135037
 20
403.6170927098239
 30
0.0
  0
ENDBLK
  5
124
330
119
100
AcDbEntity
  8
0
100
AcDbBlockEnd
  0
BLOCK
  5
10D
330
10C
100
AcDbEntity
  8
0
100
AcDbBlockBegin
  2
*D26
 70
     1
 10
0.0
 20
0.0
 30
0.0
  3
*D26
  1

  0
LINE
  5
10E
330
10C
100
AcDbEntity
  8
09-01
 62
     4
370
    -2
100
AcDbLine
 10
200.7484465699217
 20
1019.619716091307
 30
0.0
 11
125.2323811350371
 21
1019.619716091307
 31
0.0
  0
LINE
  5
10F
330
10C
100
AcDbEntity
  8
09-01
 62
     4
370
    -2
100
AcDbLine
 10
200.7484465699217
 20
1154.600023794623
 30
0.0
 11
125.2323811350372
 21
1154.600023794623
 31
0.0
  0
LINE
  5
110
330
10C
100
AcDbEntity
  8
09-01
 62
     4
370
    -2
100
AcDbLine
 10
130.2323811350371
 20
1032.119716091307
 30
0.0
 11
130.2323811350371
 21
1142.100023794623
 31
0.0
  0
SOLID
  5
111
330
10C
100
AcDbEntity
  8
09-01
 62
     4
100
AcDbTrace
 10
128.1490478017038
 20
1032.119716091307
 30
0.0
 11
132.3157144683705
 21
1032.119716091307
 31
0.0
 12
130.2323811350371
 22
1019.619716091307
 32
0.0
 13
130.2323811350371
 23
1019.619716091307
 33
0.0
  0
SOLID
  5
112
330
10C
100
AcDbEntity
  8
09-01
 62
     4
100
AcDbTrace
 10
128.1490478017038
 20
1142.100023794623
 30
0.0
 11
132.3157144683705
 21
1142.100023794623
 31
0.0
 12
130.2323811350371
 22
1154.600023794623
 32
0.0
 13
130.2323811350371
 23
1154.600023794623
 33
0.0
  0
MTEXT
  5
113
330
10C
100
AcDbEntity
  8
09-01
 62
     1
100
AcDbMText
 10
118.982381135037
 20
1087.109869942965
 30
0.0
 40
12.5
 41
0.0
 46
0.0
 71
     5
 72
     1
  1
135
 11
0.0000000000000001
 21
1.0
 31
0.0
 73
     1
 44
1.0
  0
POINT
  5
114
330
10C
100
AcDbEntity
  8
DEFPOINTS
 62
     0
100
AcDbPoint
 10
205.7484465699217
 20
1019.619716091307
 30
0.0
  0
POINT
  5
115
330
10C
100
AcDbEntity
  8
DEFPOINTS
 62
     0
100
AcDbPoint
 10
205.7484465699217
 20
1154.600023794623
 30
0.0
  0
POINT
  5
116
330
10C
100
AcDbEntity
  8
DEFPOINTS
 62
     0
100
AcDbPoint
 10
130.2323811350371
 20
1154.600023794623
 30
0.0
  0
ENDBLK
  5
117
330
10C
100
AcDbEntity
  8
0
100
AcDbBlockEnd
  0
BLOCK
  5
AD
330
AA
100
AcDbEntity
  8
0
100
AcDbBlockBegin
  2
Wagner A4
 70
     2
 10
0.0
 20
0.0
 30
0.0
  3
Wagner A4
  1

  0
LINE
  5
AE
330
AA
100
AcDbEntity
  8
01-99
100
AcDbLine
 10
203.9999999999998
 20
291.0
 30
0.0
 11
20.0
 21
291.0
 31
0.0
  0
LINE
  5
B2
330
AA
100
AcDbEntity
  8
01-99
100
AcDbLine
 10
203.9999999999998
 20
291.0
 30
0.0
 11
204.0
 21
6.0
 31
0.0
  0
LINE
  5
B3
330
AA
100
AcDbEntity
  8
01-99
100
AcDbLine
 10
204.0
 20
6.0
 30
0.0
 11
20.0
 21
5.999999999999886
 31
0.0
  0
LINE
  5
B4
330
AA
100
AcDbEntity
  8
01-99
100
AcDbLine
 10
20.0
 20
5.999999999999886
 30
0.0
 11
20.0
 21
291.0
 31
0.0
  0
TEXT
  5
B5
330
AA
100
AcDbEntity
  8
08-99
100
AcDbText
 10
21.5
 20
12.99999999999988
 30
0.0
 40
2.5
  1
Benennung/Teil:
 51
15.0
  7
ROMANS8
100
AcDbText
  0
TEXT
  5
BA
330
AA
100
AcDbEntity
  8
08-99
100
AcDbText
 10
196.5
 20
13.49999999999988
 30
0.0
 40
2.5
  1
Index
 41
0.7840000000000002
 51
15.0
  7
ROMANS8
 72
     5
 11
203.5
 21
13.49999999999988
 31
0.0
100
AcDbText
  0
TEXT
  5
BB
330
AA
100
AcDbEntity
  8
08-99
100
AcDbText
 10
188.5
 20
13.49999999999988
 30
0.0
 40
2.5
  1
Form
 41
0.7583333333333337
 51
15.0
  7
ROMANS8
 72
     5
 11
195.0
 21
13.49999999999988
 31
0.0
100
AcDbText
  0
TEXT
  5
BC
330
AA
100
AcDbEntity
  8
08-99
100
AcDbText
 10
139.5
 20
13.49999999999988
 30
0.0
 40
2.5
  1
Ident-Nr.
 51
15.0
  7
ROMANS8
100
AcDbText
  0
TEXT
  5
BD
330
AA
100
AcDbEntity
  8
08-99
100
AcDbText
 10
115.5
 20
13.49999999999988
 30
0.0
 40
2.5
  1
Maßstab
 51
15.0
  7
ROMANS8
100
AcDbText
  0
LINE
  5
BE
330
AA
100
AcDbEntity
  8
01-99
100
AcDbLine
 10
138.0
 20
17.0
 30
0.0
 11
138.0
 21
6.0
 31
0.0
  0
LINE
  5
BF
330
AA
100
AcDbEntity
  8
01-99
100
AcDbLine
 10
188.0
 20
17.0
 30
0.0
 11
188.0
 21
6.0
 31
0.0
  0
LINE
  5
C0
330
AA
100
AcDbEntity
  8
01-99
100
AcDbLine
 10
196.0
 20
17.0
 30
0.0
 11
196.0
 21
6.0
 31
0.0
  0
LINE
  5
C1
330
AA
100
AcDbEntity
  8
01-99
100
AcDbLine
 10
113.9999999999982
 20
16.99999999999988
 30
0.0
 11
113.9999999999982
 21
6.000000000000113
 31
0.0
  0
LINE
  5
C2
330
AA
100
AcDbEntity
  8
02-99
100
AcDbLine
 10
109.9999999999982
 20
31.99999999999989
 30
0.0
 11
109.9999999999984
 21
51.99999999999988
 31
0.0
  0
TEXT
  5
C7
330
AA
100
AcDbEntity
  8
01-99
100
AcDbText
 10
188.9166666666666
 20
8.249999999999886
 30
0.0
 40
3.5
  1
A4
  7
ROMANS8
 72
     4
 11
192.0
 21
9.999999999999886
 31
0.0
100
AcDbText
  0
LINE
  5
C8
330
AA
100
AcDbEntity
  8
01-99
100
AcDbLine
 10
204.0
 20
17.0
 30
0.0
 11
20.0
 21
16.99999999999988
 31
0.0
  0
TEXT
  5
C9
330
AA
100
AcDbEntity
  8
08-99
100
AcDbText
 10
74.0
 20
17.99999999999988
 30
0.0
 40
2.5
  1
Name:
 51
15.0
  7
ROMANS8
100
AcDbText
  0
TEXT
  5
CA
330
AA
100
AcDbEntity
  8
08-99
100
AcDbText
 10
21.0
 20
17.99999999999988
 30
0.0
 40
2.5
  1
gezeichnet Datum:
 41
0.920547945205479
 51
15.0
  7
ROMANS8
 72
     5
 11
53.0
 21
17.99999999999988
 31
0.0
100
AcDbText
  0
LINE
  5
CB
330
AA
100
AcDbEntity
  8
01-99
100
AcDbLine
 10
157.0
 20
32.0
 30
0.0
 11
157.0
 21
17.0
 31
0.0
  0
LINE
  5
CC
330
AA
100
AcDbEntity
  8
02-99
100
AcDbLine
 10
156.9999999999982
 20
22.0
 30
0.0
 11
20.0
 21
21.99999999999989
 31
0.0
  0
LINE
  5
CD
330
AA
100
AcDbEntity
  8
01-99
100
AcDbLine
 10
167.0
 20
17.0
 30
0.0
 11
167.0
 21
6.0
 31
0.0
  0
TEXT
  5
CE
330
AA
100
AcDbEntity
  8
08-99
100
AcDbText
 10
167.5
 20
13.49999999999988
 30
0.0
 40
2.5
  1
DWG-Name
 41
0.9360000000000001
 51
15.0
  7
ROMANS8
 72
     5
 11
187.0
 21
13.49999999999988
 31
0.0
100
AcDbText
  0
LINE
  5
CF
330
AA
100
AcDbEntity
  8
01-99
100
AcDbLine
 10
156.9999999999982
 20
22.0
 30
0.0
 11
20.0
 21
21.99999999999989
 31
0.0
  0
LINE
  5
D0
330
AA
100
AcDbEntity
  8
02-99
100
AcDbLine
 10
156.9999999999982
 20
27.0
 30
0.0
 11
20.0
 21
26.99999999999989
 31
0.0
  0
LINE
  5
D1
330
AA
100
AcDbEntity
  8
01-99
100
AcDbLine
 10
204.0
 20
32.0
 30
0.0
 11
19.99999999999818
 21
31.99999999999989
 31
0.0
  0
LINE
  5
D2
330
AA
100
AcDbEntity
  8
02-99
100
AcDbLine
 10
204.0
 20
42.0
 30
0.0
 11
19.99999999999818
 21
41.99999999999988
 31
0.0
  0
LINE
  5
D3
330
AA
100
AcDbEntity
  8
01-99
100
AcDbLine
 10
204.0
 20
52.0
 30
0.0
 11
19.99999999999818
 21
51.99999999999988
 31
0.0
  0
TEXT
  5
D4
330
AA
100
AcDbEntity
  8
08-99
100
AcDbText
 10
21.5
 20
27.99999999999989
 30
0.0
 40
2.5
  1
Änderung:
 51
15.0
  7
ROMANS8
100
AcDbText
  0
TEXT
  5
D5
330
AA
100
AcDbEntity
  8
08-99
100
AcDbText
 10
21.5
 20
37.99999999999989
 30
0.0
 40
2.5
  1
Com:
 51
15.0
  7
ROMANS8
100
AcDbText
  0
TEXT
  5
D6
330
AA
100
AcDbEntity
  8
08-99
100
AcDbText
 10
21.5
 20
47.99999999999989
 30
0.0
 40
2.5
  1
Kunde:
 51
15.0
  7
ROMANS8
100
AcDbText
  0
TEXT
  5
D7
330
AA
100
AcDbEntity
  8
08-99
100
AcDbText
 10
111.5
 20
47.99999999999989
 30
0.0
 40
2.5
  1
Projekt:
 51
15.0
  7
ROMANS8
100
AcDbText
  0
TEXT
  5
D8
330
AA
100
AcDbEntity
  8
08-99
100
AcDbText
 10
111.5
 20
37.99999999999989
 30
0.0
 40
2.5
  1
Pos:
 51
15.0
  7
ROMANS8
100
AcDbText
  0
LWPOLYLINE
  5
D9
330
AA
100
AcDbEntity
  8
10-98
100
AcDbPolyline
 90
      133
 70
     1
 43
0.0135
 10
182.3791309999999
 20
27.86422649999986
 10
182.6840645
 20
28.1302394999999
 10
182.5752319999999
 20
28.3057574999998
 10
182.4507529999998
 20
28.46427899999992
 10
182.3110595
 20
28.60586249999995
 10
182.1566014999998
 20
28.73057549999976
 10
181.9878109999999
 20
28.83846749999987
 10
181.8051244999999
 20
28.92959699999983
 10
181.6089875
 20
29.00403149999988
 10
181.3998320000001
 20
29.06182049999984
 10
181.1780989999999
 20
29.10302249999995
 10
180.9442295000001
 20
29.12770499999988
 10
180.69866
 20
29.13591749999989
 10
180.4954714999999
 20
29.12826299999983
 10
180.2988304999999
 20
29.10563249999984
 10
180.1091555
 20
29.06851649999999
 10
179.9268695000001
 20
29.01741449999986
 10
179.752391
 20
28.95282599999996
 10
179.5861294999999
 20
28.87524599999983
 10
179.428517
 20
28.78516949999982
 10
179.2799629999999
 20
28.68309149999982
 10
179.1408859999999
 20
28.56950699999993
 10
179.0117135
 20
28.44491999999991
 10
178.8928505000001
 20
28.3098164999999
 10
178.7847245
 20
28.16470499999991
 10
178.687754
 20
28.01007149999987
 10
178.602353
 20
27.84641549999992
 10
178.5289445
 20
27.67423199999985
 10
178.4679424999999
 20
27.49402499999985
 10
178.4197655
 20
27.30628049999984
 10
178.3848409999998
 20
27.1115024999998
 10
178.363574
 20
26.91018149999991
 10
178.3563965
 20
26.70281699999987
 10
178.3634839999999
 20
26.48930099999996
 10
178.3845080000001
 20
26.28307049999989
 10
178.4190904999998
 20
26.08452599999987
 10
178.4668534999998
 20
25.89406349999979
 10
178.5274234999999
 20
25.7120789999999
 10
178.6004270000001
 20
25.5389684999999
 10
178.6854905
 20
25.37512349999986
 10
178.782236
 20
25.22094449999986
 10
178.89029
 20
25.07682299999988
 10
179.0092835
 20
24.94315949999986
 10
179.1388294999999
 20
24.82034549999992
 10
179.2785679999999
 20
24.70878149999976
 10
179.428112
 20
24.60885899999994
 10
179.5870924999999
 20
24.52097399999991
 10
179.7551314999998
 20
24.44552699999986
 10
179.9318599999999
 20
24.38290949999987
 10
180.1168955
 20
24.33351749999997
 10
180.3098734999998
 20
24.29774699999996
 10
180.510407
 20
24.27599399999986
 10
180.7181315
 20
24.26865449999991
 10
180.925199
 20
24.27528749999988
 10
181.1238515
 20
24.29503349999993
 10
181.3138504999999
 20
24.32764949999989
 10
181.4949574999998
 20
24.37289249999992
 10
181.6669385
 20
24.43052399999988
 10
181.8295504999998
 20
24.50030549999985
 10
181.9825595
 20
24.5819939999999
 10
182.125718
 20
24.67535549999991
 10
182.2588009999999
 20
24.78014699999983
 10
182.3815565
 20
24.89612099999988
 10
182.4937549999999
 20
25.02305249999984
 10
182.595158
 20
25.16068499999983
 10
182.6855224999999
 20
25.30879349999987
 10
182.7646099999999
 20
25.4671259999999
 10
182.8321865
 20
25.63544849999983
 10
182.8880134999999
 20
25.81351799999982
 10
182.9318435
 20
26.00109599999985
 10
182.9634515
 20
26.19794399999989
 10
182.9825900000001
 20
26.40382349999982
 10
182.9890204999999
 20
26.61848699999985
 10
182.9890204999999
 20
26.61848699999985
 10
182.9890204999999
 20
26.68336349999993
 10
180.9257525
 20
26.68336349999993
 10
180.9257525
 20
26.32001549999984
 10
182.5283554999998
 20
26.32001549999984
 10
182.5147969999998
 20
26.11478399999987
 10
182.4802864999999
 20
25.91952449999985
 10
182.4257150000001
 20
25.73507399999994
 10
182.3519734999999
 20
25.56227399999989
 10
182.2599620000001
 20
25.40195249999988
 10
182.150576
 20
25.25495999999987
 10
182.0246975
 20
25.12211999999988
 10
181.883231
 20
25.00428299999987
 10
181.7270674999999
 20
24.90227249999987
 10
181.557098
 20
24.81693449999989
 10
181.3742179999999
 20
24.74910149999983
 10
181.1793230000001
 20
24.699615
 10
180.9733040000001
 20
24.66930749999983
 10
180.7570565000001
 20
24.65902049999988
 10
180.549152
 20
24.66905999999983
 10
180.3492844999998
 20
24.69858449999981
 10
180.1582009999999
 20
24.74669849999987
 10
179.9766439999998
 20
24.81251099999986
 10
179.805347
 20
24.89512649999984
 10
179.6450569999999
 20
24.99364949999995
 10
179.4965119999999
 20
25.10719349999988
 10
179.360459
 20
25.23485849999997
 10
179.237636
 20
25.37575349999986
 10
179.1287809999999
 20
25.52898749999986
 10
179.0346409999999
 20
25.69366049999985
 10
178.955954
 20
25.86888599999986
 10
178.8934624999999
 20
26.05376849999982
 10
178.8479089999998
 20
26.24740799999995
 10
178.8200314999999
 20
26.44892249999998
 10
178.8105769999999
 20
26.6574119999998
 10
178.818641
 20
26.87000549999993
 10
178.842509
 20
27.07456649999983
 10
178.8816770000001
 20
27.27046499999983
 10
178.9356454999999
 20
27.45707549999986
 10
179.0039194999999
 20
27.63377249999985
 10
179.0859949999999
 20
27.79993499999989
 10
179.1813724999999
 20
27.95492849999994
 10
179.289557
 20
28.0981364999999
 10
179.4100444999999
 20
28.22892449999995
 10
179.5423444999999
 20
28.34667149999985
 10
179.685944
 20
28.45074749999992
 10
179.840357
 20
28.54053149999993
 10
180.0050749999998
 20
28.61539349999987
 10
180.179603
 20
28.6747079999999
 10
180.3634460000001
 20
28.71784949999983
 10
180.5560955000001
 20
28.74419699999987
 10
180.7570565000001
 20
28.75311599999987
 10
180.9814309999999
 20
28.74185699999987
 10
181.195766
 20
28.70822399999986
 10
181.3996340000001
 20
28.65242849999993
 10
181.5926075
 20
28.57468199999983
 10
181.774259
 20
28.47520499999985
 10
181.9441655
 20
28.35420449999992
 10
182.1018994999999
 20
28.2119009999999
 10
182.2470290000001
 20
28.04850149999993
  0
LWPOLYLINE
  5
DD
330
AA
100
AcDbEntity
  8
10-98
100
AcDbPolyline
 90
       12
 70
     1
 43
0.0135
 10
178.6186339999999
 20
19.50090449999993
 10
180.9964970000001
 20
19.50090449999993
 10
181.1800025
 20
20.45401799999991
 10
180.040193
 20
20.45401799999991
 10
180.1111309999999
 20
20.8224869999998
 10
181.1182805000001
 20
20.8224869999998
 10
181.2913684999998
 20
21.72154649999982
 10
180.2842189999999
 20
21.72154649999982
 10
180.3495049999999
 20
22.0605539999998
 10
181.4598349999999
 20
22.0605539999998
 10
181.643327
 20
23.01364949999993
 10
179.2949435
 20
23.01364949999993
  0
LWPOLYLINE
  5
DE
330
AA
100
AcDbEntity
  8
10-98
100
AcDbPolyline
 90
        4
 70
     1
 43
0.0135
 10
161.1560285
 20
20.29334549999987
 10
176.8848785
 20
20.29334549999987
 10
176.7288455
 20
19.49999999999988
 10
161.0
 20
19.49999999999988
  0
SOLID
  5
DF
330
AA
100
AcDbEntity
  8
10-98
100
AcDbTrace
 10
161.1560285
 20
20.29334549999987
 30
0.0
 11
176.8848785
 21
20.29334549999987
 31
0.0
 12
161.0
 22
19.49999999999988
 32
0.0
 13
176.7288455
 23
19.49999999999988
 33
0.0
  0
LWPOLYLINE
  5
E0
330
AA
100
AcDbEntity
  8
10-98
100
AcDbPolyline
 90
       10
 70
     1
 43
0.0135
 10
167.9577965000001
 20
24.26865449999991
 10
169.1905489999999
 20
28.14971099999991
 10
170.4752269999999
 20
24.26865449999991
 10
172.0259224999999
 20
29.03211599999986
 10
171.5912134999998
 20
29.03211599999986
 10
170.4752269999999
 20
25.35976499999981
 10
169.1905489999999
 20
29.21378099999981
 10
167.9577965000001
 20
25.32732449999992
 10
166.7963915
 20
29.03211599999986
 10
166.3551935
 20
29.03211599999986
  0
LWPOLYLINE
  5
E1
330
AA
100
AcDbEntity
  8
10-98
100
AcDbPolyline
 90
        3
 70
     1
 43
0.0135
 10
174.2438735
 20
26.3264999999999
 10
175.0678865
 20
28.34436299999982
 10
175.8594634999999
 20
26.3264999999999
  0
LWPOLYLINE
  5
E2
330
AA
100
AcDbEntity
  8
10-98
100
AcDbPolyline
 90
        7
 70
     1
 43
0.0135
 10
173.055446
 20
24.39300749999984
 10
173.4847549999999
 20
24.39300749999984
 10
174.1011289999999
 20
25.96316999999988
 10
175.995701
 20
25.96316999999988
 10
176.5861414999999
 20
24.39300749999984
 10
177.0468065
 20
24.39300749999984
 10
175.0938424999999
 20
29.21378099999981
  0
LWPOLYLINE
  5
E3
330
AA
100
AcDbEntity
  8
10-98
100
AcDbPolyline
 90
        8
 70
     1
 43
0.0135
 10
189.3393529999998
 20
19.50090449999993
 10
190.6961389999999
 20
19.50090449999993
 10
190.8893554999999
 20
19.94307449999985
 10
191.8424689999999
 20
19.94307449999985
 10
191.8703375
 20
19.50090449999993
 10
193.2263089999999
 20
19.50090449999993
 10
192.6743839999999
 20
23.01364949999993
 10
191.2692859999999
 20
23.01364949999993
  0
LWPOLYLINE
  5
E4
330
AA
100
AcDbEntity
  8
10-98
100
AcDbPolyline
 90
       34
 70
     1
 43
0.0135
 10
185.694974
 20
21.27939449999985
 10
185.7391954999998
 20
21.27939449999985
 10
185.7211955
 20
21.05921849999993
 10
185.7206599999999
 20
20.86742849999985
 10
185.725835
 20
20.69965949999994
 10
185.7603455000001
 20
19.50090449999993
 10
186.8608474999998
 20
19.50090449999993
 10
188.5639534999998
 20
23.01364949999993
 10
187.296425
 20
23.01364949999993
 10
186.7233275000001
 20
21.46607699999981
 10
186.6600665000001
 20
21.28867349999985
 10
186.5856094999999
 20
21.05885849999982
 10
186.5113504999999
 20
20.77336049999997
 10
186.4818889999999
 20
20.77336049999997
 10
186.509321
 20
21.02264699999989
 10
186.5150765
 20
21.22171349999985
 10
186.5137625
 20
21.37274699999989
 10
186.4956004999999
 20
23.01364949999993
 10
185.6063735
 20
23.01364949999993
 10
184.956371
 20
21.37274699999989
 10
184.8968989999998
 20
21.22171349999985
 10
184.8259970000001
 20
21.02264699999989
 10
184.7574305
 20
20.77336049999997
 10
184.7279689999998
 20
20.77336049999997
 10
184.763645
 20
21.05885849999982
 10
184.777685
 20
21.28867349999985
 10
184.7827294999999
 20
21.46607699999981
 10
184.8055489999999
 20
23.01364949999993
 10
183.5372059999999
 20
23.01364949999993
 10
183.8885075
 20
19.50090449999993
 10
184.9890049999999
 20
19.50090449999993
 10
185.485103
 20
20.69965949999994
 10
185.5548934999999
 20
20.86742849999985
 10
185.6282075000001
 20
21.05921849999993
  0
LWPOLYLINE
  5
E5
330
AA
100
AcDbEntity
  8
10-98
100
AcDbPolyline
 90
       10
 70
     1
 43
0.0135
 10
191.2614019999998
 20
20.77826549999986
 10
191.4461134999999
 20
21.17621399999984
 10
191.5404965
 20
21.38383499999997
 10
191.642822
 20
21.63839999999993
 10
191.7371104999999
 20
21.94755899999996
 10
191.7616805
 20
21.94755899999996
 10
191.7369034999999
 20
21.63839999999993
 10
191.7412054999999
 20
21.38383499999997
 10
191.7556414999999
 20
21.17621399999984
 10
191.7870875000001
 20
20.77826549999986
  0
LWPOLYLINE
  5
E6
330
AA
100
AcDbEntity
  8
10-98
100
AcDbPolyline
 90
       23
 70
     1
 43
0.0135
 10
195.219278
 20
19.50090449999993
 10
196.4573269999998
 20
19.50090449999993
 10
196.680554
 20
20.66036099999985
 10
197.071451
 20
19.50090449999993
 10
198.4863634999999
 20
19.50090449999993
 10
197.8232705
 20
20.93057699999986
 10
198.0244835
 20
20.97943349999991
 10
198.2079079999998
 20
21.07414049999988
 10
198.3690799999999
 20
21.21061199999985
 10
198.5035264999999
 20
21.38474849999989
 10
198.6067699999998
 20
21.59245499999986
 10
198.6743374999998
 20
21.82963649999988
 10
198.701468
 20
22.04544749999991
 10
198.6960409999999
 20
22.24141799999995
 10
198.6580699999999
 20
22.41687299999989
 10
198.5875684999998
 20
22.5711329999998
 10
198.484559
 20
22.7035229999999
 10
198.3490595000001
 20
22.81335899999988
 10
198.1810789999999
 20
22.89997049999988
 10
197.9806444999999
 20
22.96267349999994
 10
197.7477604999999
 20
23.00079299999993
 10
197.4824584999999
 20
23.01364949999993
 10
195.8955874999999
 20
23.01364949999993
  0
LWPOLYLINE
  5
E7
330
AA
100
AcDbEntity
  8
10-98
100
AcDbPolyline
 90
        9
 70
     1
 43
0.0135
 10
196.9595899999999
 20
22.10968049999985
 10
197.1561185
 20
22.10968049999985
 10
197.353934
 20
22.06728149999981
 10
197.4560389999999
 20
21.94736549999993
 10
197.462348
 20
21.76086299999986
 10
197.3836205
 20
21.57689849999997
 10
197.2351699999999
 20
21.4617209999999
 10
197.0237059999999
 20
21.42187349999983
 10
196.8271775
 20
21.42187349999983
  0
LWPOLYLINE
  5
E8
330
AA
100
AcDbEntity
  8
10-98
100
AcDbPolyline
 90
       12
 70
     1
 43
0.0135
 10
190.9804715
 20
24.39300749999984
 10
193.2773119999999
 20
24.39300749999984
 10
193.2773119999999
 20
24.78879599999982
 10
191.4022115
 20
24.78879599999982
 10
191.4022115
 20
26.78716499999996
 10
193.2773119999999
 20
26.78716499999996
 10
193.2773119999999
 20
27.18295349999994
 10
191.4022115
 20
27.18295349999994
 10
191.4022115
 20
28.63632749999988
 10
193.2773119999999
 20
28.63632749999988
 10
193.2773119999999
 20
29.03211599999986
 10
190.9804715
 20
29.03211599999986
  0
LWPOLYLINE
  5
E9
330
AA
100
AcDbEntity
  8
10-98
100
AcDbPolyline
 90
        8
 70
     1
 43
0.0135
 10
185.0123195000001
 20
24.39300749999984
 10
185.434064
 20
24.39300749999984
 10
185.434064
 20
28.14322649999986
 10
188.6911594999999
 20
24.25566749999985
 10
188.6911594999999
 20
29.03211599999986
 10
188.2694329999999
 20
29.03211599999986
 10
188.2694329999999
 20
25.34677799999986
 10
185.0123195000001
 20
29.22674999999981
  0
LWPOLYLINE
  5
EA
330
AA
100
AcDbEntity
  8
10-98
100
AcDbPolyline
 90
       19
 70
     1
 43
0.0135
 10
195.8650955
 20
28.66228349999983
 10
196.286822
 20
28.66228349999983
 10
196.5446314999999
 20
28.65178049999986
 10
196.7641145
 20
28.61838599999988
 10
196.9464995
 20
28.5592919999998
 10
197.0929925
 20
28.47168599999987
 10
197.204813
 20
28.35275549999983
 10
197.2831759999999
 20
28.19968799999993
 10
197.3293054999999
 20
28.00966199999982
 10
197.3444119999999
 20
27.77987849999988
 10
197.3285089999999
 20
27.55418099999986
 10
197.28044
 20
27.37091399999986
 10
197.199683
 20
27.22627049999994
 10
197.0856934999999
 20
27.11645249999993
 10
196.9379495
 20
27.03765749999991
 10
196.755911
 20
26.98607849999985
 10
196.5390424999998
 20
26.95792199999994
 10
196.286822
 20
26.94938099999991
 10
195.8650955
 20
26.94938099999991
  0
LWPOLYLINE
  5
EB
330
AA
100
AcDbEntity
  8
10-98
100
AcDbPolyline
 90
       29
 70
     1
 43
0.0135
 10
198.2592574999999
 20
24.39300749999984
 10
196.591778
 20
26.60549999999989
 10
196.8296795000001
 20
26.62140749999992
 10
197.044991
 20
26.66833799999984
 10
197.2362769999999
 20
26.74511699999994
 10
197.4020885
 20
26.85057899999993
 10
197.5409855
 20
26.98353599999985
 10
197.6515234999999
 20
27.1428269999999
 10
197.7322669999998
 20
27.32726849999995
 10
197.7817714999999
 20
27.53568599999994
 10
197.7985924999998
 20
27.76690949999988
 10
197.7861995000001
 20
27.9879494999999
 10
197.7490070000001
 20
28.18752449999988
 10
197.6869790000001
 20
28.3657199999999
 10
197.600093
 20
28.52262149999979
 10
197.4883175
 20
28.65831899999989
 10
197.351621
 20
28.77290249999987
 10
197.1899765
 20
28.86645299999987
 10
197.0033524999999
 20
28.93906049999987
 10
196.7917219999999
 20
28.99081949999993
 10
196.5550579999999
 20
29.02180649999991
 10
196.2933244999999
 20
29.03211599999986
 10
196.2933244999999
 20
29.03211599999986
 10
195.4433555
 20
29.03211599999986
 10
195.4433555
 20
24.39300749999984
 10
195.8650955
 20
24.39300749999984
 10
195.8650955
 20
26.60549999999989
 10
196.118144
 20
26.60549999999989
 10
197.7466804999999
 20
24.39300749999984
  0
LWPOLYLINE
  5
EC
330
AA
100
AcDbEntity
  8
02-99
100
AcDbPolyline
 90
        4
 70
     1
 43
0.0
 10
0.0
 20
0.0
 10
210.0
 20
0.0
 10
210.0
 20
297.0
 10
0.0
 20
297.0
  0
ATTDEF
  5
ED
330
AA
100
AcDbEntity
  8
02-99
100
AcDbText
 10
167.5
 20
7.999999999999886
 30
0.0
 40
2.5
  1
.
  7
ROMANS8
100
AcDbAttributeDefinition
280
     0
  3
DWG-Name
  2
E:DOS
 70
     0
280
     0
  0
ATTDEF
  5
EE
330
AA
100
AcDbEntity
  8
01-99
100
AcDbText
 10
125.3571428571428
 20
7.999999999999886
 30
0.0
 40
3.0
  1
.
  7
ROMANS8
 72
     1
 11
125.5
 21
7.999999999999886
 31
0.0
100
AcDbAttributeDefinition
280
     0
  3
Maßstab
  2
E:MA
 70
     0
280
     0
  0
ATTDEF
  5
EF
330
AA
100
AcDbEntity
  8
06-99
100
AcDbText
 10
54.0
 20
17.99999999999988
 30
0.0
 40
2.5
  1
.
 41
73.5
  7
ROMANS8
 72
     5
 11
71.5
 21
17.99999999999988
 31
0.0
100
AcDbAttributeDefinition
280
     0
  3
Datum
  2
E:M6
 70
     0
280
     0
  0
ATTDEF
  5
F3
330
AA
100
AcDbEntity
  8
06-99
100
AcDbText
 10
87.0
 20
17.99999999999852
 30
0.0
 40
2.5
  1
.
 41
0.9
  7
ROMANS8
100
AcDbAttributeDefinition
280
     0
  3
Name
  2
E:M5
 70
     0
280
     0
  0
ATTDEF
  5
F4
330
AA
100
AcDbEntity
  8
01-99
100
AcDbText
 10
21.5
 20
42.99999999999989
 30
0.0
 40
3.0
  1
.
 41
0.9
  7
ROMANS8
100
AcDbAttributeDefinition
280
     0
  3
Kunde
  2
E:M4
 70
     0
280
     0
  0
ATTDEF
  5
F5
330
AA
100
AcDbEntity
  8
01-99
100
AcDbText
 10
21.5
 20
7.999999999999886
 30
0.0
 40
3.0
  1
.
 41
0.9
  7
ROMANS8
100
AcDbAttributeDefinition
280
     0
  3
Benennung/Teil
  2
E:M3
 70
     0
280
     0
  0
ATTDEF
  5
F6
330
AA
100
AcDbEntity
  8
07-99
100
AcDbText
 10
203.9904761904762
 20
5.999999999999886
 30
0.0
 40
0.1
  1
.
  7
ROMANS8
 72
     2
 11
204.0
 21
5.999999999999886
 31
0.0
100
AcDbAttributeDefinition
280
     0
  3
Unsichtbar
  2
E:M2
 70
     0
280
     0
  0
ATTDEF
  5
FA
330
AA
100
AcDbEntity
  8
01-99
100
AcDbText
 10
138.5
 20
7.999999999999886
 30
0.0
 40
3.5
  1
.
  7
ROMANS8
100
AcDbAttributeDefinition
280
     0
  3
Ident-Nummer
  2
E:M1
 70
     0
280
     0
  0
ATTDEF
  5
FB
330
AA
100
AcDbEntity
  8
01-99
100
AcDbText
 10
111.5
 20
32.99999999999989
 30
0.0
 40
3.0
  1
.
 41
0.9
  7
ROMANS8
100
AcDbAttributeDefinition
280
     0
  3
Positionen
  2
POS
 70
     0
280
     0
  0
ATTDEF
  5
FC
330
AA
100
AcDbEntity
  8
01-99
100
AcDbText
 10
111.5
 20
42.99999999999989
 30
0.0
 40
3.0
  1
.
 41
0.9
  7
ROMANS8
100
AcDbAttributeDefinition
280
     0
  3
Projekt
  2
PROJ
 70
     0
280
     0
  0
ATTDEF
  5
FD
330
AA
100
AcDbEntity
  8
01-99
100
AcDbText
 10
21.5
 20
32.99999999999989
 30
0.0
 40
3.0
  1
.
 41
0.9
  7
ROMANS8
100
AcDbAttributeDefinition
280
     0
  3
Kommission
  2
COM
 70
     0
280
     0
  0
ENDBLK
  5
FE
330
AA
100
AcDbEntity
  8
0
100
AcDbBlockEnd
  0
BLOCK
  5
9B
330
9A
100
AcDbEntity
  8
0
100
AcDbBlockBegin
  2
*D28
 70
     1
 10
0.0
 20
0.0
 30
0.0
  3
*D28
  1

  0
LINE
  5
9C
330
9A
100
AcDbEntity
  8
09-01
 62
     4
370
    -2
100
AcDbLine
 10
190.7484465699217
 20
385.7766619451522
 30
0.0
 11
190.7484465699217
 21
348.5290079326214
 31
0.0
  0
LINE
  5
9D
330
9A
100
AcDbEntity
  8
09-01
 62
     4
370
    -2
100
AcDbLine
 10
488.7484465699217
 20
385.7766619451522
 30
0.0
 11
488.7484465699217
 21
348.5290079326214
 31
0.0
  0
LINE
  5
9E
330
9A
100
AcDbEntity
  8
09-01
 62
     4
370
    -2
100
AcDbLine
 10
203.2484465699217
 20
353.5290079326214
 30
0.0
 11
476.2484465699217
 21
353.5290079326214
 31
0.0
  0
MTEXT
  5
9F
330
9A
100
AcDbEntity
  8
09-01
 62
     1
100
AcDbMText
 10
363.3624339737007
 20
365.8193813696348
 30
0.0
 40
12.5
 41
0.0
 46
0.0
 71
     5
 72
     1
  1
298
 73
     1
 44
1.0
  0
SOLID
  5
A0
330
9A
100
AcDbEntity
  8
09-01
 62
     4
100
AcDbTrace
 10
203.2484465699217
 20
355.6123412659547
 30
0.0
 11
203.2484465699217
 21
351.4456745992881
 31
0.0
 12
190.7484465699217
 22
353.5290079326214
 32
0.0
 13
190.7484465699217
 23
353.5290079326214
 33
0.0
  0
SOLID
  5
A1
330
9A
100
AcDbEntity
  8
09-01
 62
     4
100
AcDbTrace
 10
476.2484465699217
 20
355.6123412659547
 30
0.0
 11
476.2484465699217
 21
351.4456745992881
 31
0.0
 12
488.7484465699217
 22
353.5290079326214
 32
0.0
 13
488.7484465699217
 23
353.5290079326214
 33
0.0
  0
POINT
  5
A2
330
9A
100
AcDbEntity
  8
DEFPOINTS
 62
     0
100
AcDbPoint
 10
190.7484465699217
 20
390.7766619451522
 30
0.0
  0
POINT
  5
A4
330
9A
100
AcDbEntity
  8
DEFPOINTS
 62
     0
100
AcDbPoint
 10
488.7484465699217
 20
390.7766619451522
 30
0.0
  0
POINT
  5
A5
330
9A
100
AcDbEntity
  8
DEFPOINTS
 62
     0
100
AcDbPoint
 10
488.7484465699217
 20
353.5290079326214
 30
0.0
  0
ENDBLK
  5
A6
330
9A
100
AcDbEntity
  8
0
100
AcDbBlockEnd
  0
BLOCK
  5
7D
330
7A
100
AcDbEntity
  8
0
100
AcDbBlockBegin
  2
langloch
 70
     0
 10
0.0
 20
0.0
 30
0.0
  3
langloch
  1

  0
LINE
  5
7E
330
7A
100
AcDbEntity
  8
05-01
100
AcDbLine
 10
54.21757992077878
 20
225.0496220644468
 30
0.0
 11
61.21757992077878
 21
225.0496220644468
 31
0.0
  0
LINE
  5
83
330
7A
100
AcDbEntity
  8
05-01
100
AcDbLine
 10
57.71757992077877
 20
221.5496220644468
 30
0.0
 11
57.71757992077877
 21
228.5496220644468
 31
0.0
  0
LINE
  5
84
330
7A
100
AcDbEntity
  8
05-01
100
AcDbLine
 10
60.36757992077875
 20
225.0496220644468
 30
0.0
 11
55.06757992077879
 21
225.0496220644468
 31
0.0
  0
LINE
  5
85
330
7A
100
AcDbEntity
  8
05-01
100
AcDbLine
 10
57.71757992077877
 20
227.6996220644468
 30
0.0
 11
57.71757992077877
 21
222.3996220644468
 31
0.0
  0
LINE
  5
86
330
7A
100
AcDbEntity
  8
05-01
100
AcDbLine
 10
57.71757992077877
 20
228.5496220644468
 30
0.0
 11
57.71757992077877
 21
205.7996220644468
 31
0.0
  0
LINE
  5
87
330
7A
100
AcDbEntity
  8
03-01
100
AcDbLine
 10
60.21757992077877
 20
218.7778416831416
 30
0.0
 11
60.21757992077877
 21
225.0496220644468
 31
0.0
  0
ARC
  5
8C
330
7A
100
AcDbEntity
  8
03-01
100
AcDbCircle
 10
57.71757992077877
 20
225.0496220644468
 30
0.0
 40
2.5
100
AcDbArc
 50
0.0
 51
180.0
  0
LINE
  5
8D
330
7A
100
AcDbEntity
  8
01-01
100
AcDbLine
 10
57.71757992077877
 20
227.5496220644468
 30
0.0
 11
57.71757992077877
 21
227.5496220644468
 31
0.0
  0
LINE
  5
91
330
7A
100
AcDbEntity
  8
03-01
100
AcDbLine
 10
55.21757992077877
 20
225.0496220644468
 30
0.0
 11
55.21757992077877
 21
218.7778416831418
 31
0.0
  0
LINE
  5
92
330
7A
100
AcDbEntity
  8
05-01
100
AcDbLine
 10
54.21757992077878
 20
225.0496220644468
 30
0.0
 11
61.21757992077878
 21
225.0496220644468
 31
0.0
  0
LINE
  5
93
330
7A
100
AcDbEntity
  8
05-01
100
AcDbLine
 10
50.46757992077878
 20
213.0496220644468
 30
0.0
 11
64.96757992077878
 21
213.0496220644468
 31
0.0
  0
ARC
  5
94
330
7A
100
AcDbEntity
  8
03-01
100
AcDbCircle
 10
57.71757992077877
 20
213.0496220644468
 30
0.0
 40
6.25
100
AcDbArc
 50
113.5781784782068
 51
66.42182152179313
  0
ENDBLK
  5
95
330
7A
100
AcDbEntity
  8
0
100
AcDbBlockEnd
  0
ENDSEC
  0
SECTION
  2
ENTITIES
  0
INSERT
  5
79
330
2
100
AcDbEntity
  8
09-01
100
AcDbBlockReference
  2
langloch
 10
380.0308666491429
 20
279.0674706453771
 30
0.0
  0
INSERT
  5
96
330
2
100
AcDbEntity
  8
09-01
100
AcDbBlockReference
  2
langloch
 10
184.0308666491429
 20
279.0674706453767
 30
0.0
  0
INSERT
  5
97
330
2
100
AcDbEntity
  8
09-01
100
AcDbBlockReference
  2
langloch
 10
380.0308666491416
 20
1126.567470645377
 30
0.0
  0
INSERT
  5
98
330
2
100
AcDbEntity
  8
09-01
100
AcDbBlockReference
  2
langloch
 10
184.0308666491415
 20
1126.567470645377
 30
0.0
  0
DIMENSION
  5
99
330
2
100
AcDbEntity
  8
09-01
100
AcDbDimension
280
     0
  2
*D28
 10
488.7484465699217
 20
353.5290079326214
 30
0.0
 11
363.3624339737007
 21
365.8193813696348
 31
0.0
 70
   128
 71
     5
 42
298.0
 73
     0
 74
     0
 75
     0
  3
Wagner$0
100
AcDbAlignedDimension
 13
190.7484465699217
 23
390.7766619451522
 33
0.0
 14
488.7484465699217
 24
390.7766619451522
 34
0.0
100
AcDbRotatedDimension
1001
ACAD
1000
DSTYLE
1002
{
1070
    40
1040
5.0
1070
   271
1070
     2
1070
   272
1070
     2
1002
}
  0
INSERT
  5
A9
330
2
100
AcDbEntity
  8
09-01
100
AcDbBlockReference
 66
     1
  2
Wagner A4
 10
0.0
 20
0.0
 30
0.0
 41
5.0
 42
5.0
 43
5.0
  0
ATTRIB
  5
FF
330
A9
100
AcDbEntity
  8
02-99
100
AcDbText
 10
837.5
 20
39.99999999999943
 30
0.0
 40
12.5
  1
.
  7
ROMANS8
100
AcDbAttribute
280
     0
  2
E:DOS
 70
     0
280
     0
  0
ATTRIB
  5
100
330
A9
100
AcDbEntity
  8
01-99
100
AcDbText
 10
605.7142857142856
 20
39.99999999999943
 30
0.0
 40
15.0
  1
1:10
  7
ROMANS8
 72
     1
 11
627.5
 21
39.99999999999943
 31
0.0
100
AcDbAttribute
280
     0
  2
E:MA
 70
     0
280
     0
  0
ATTRIB
  5
101
330
A9
100
AcDbEntity
  8
06-99
100
AcDbText
 10
270.0
 20
89.99999999999943
 30
0.0
 40
12.5
  1
18.03.2010
 41
0.8855421686746991
  7
ROMANS8
 72
     5
 11
357.5
 21
89.99999999999943
 31
0.0
100
AcDbAttribute
280
     0
  2
E:M6
 70
     0
280
     0
  0
ATTRIB
  5
102
330
A9
100
AcDbEntity
  8
06-99
100
AcDbText
 10
435.0
 20
89.99999999999261
 30
0.0
 40
12.5
  1
Pfrepper
 41
0.9
  7
ROMANS8
100
AcDbAttribute
280
     0
  2
E:M5
 70
     0
280
     0
  0
ATTRIB
  5
103
330
A9
100
AcDbEntity
  8
01-99
100
AcDbText
 10
107.5
 20
214.9999999999995
 30
0.0
 40
15.0
  1
.
 41
0.9
  7
ROMANS8
100
AcDbAttribute
280
     0
  2
E:M4
 70
     0
280
     0
  0
ATTRIB
  5
104
330
A9
100
AcDbEntity
  8
01-99
100
AcDbText
 10
107.5
 20
39.99999999999943
 30
0.0
 40
15.0
  1
Kombination WP 545
 41
0.9
  7
ROMANS8
100
AcDbAttribute
280
     0
  2
E:M3
 70
     0
280
     0
  0
ATTRIB
  5
105
330
A9
100
AcDbEntity
  8
07-99
100
AcDbText
 10
1019.952380952381
 20
29.99999999999943
 30
0.0
 40
0.5000000000000001
  1
.
  7
ROMANS8
 72
     2
 11
1020.0
 21
29.99999999999943
 31
0.0
100
AcDbAttribute
280
     0
  2
E:M2
 70
     0
280
     0
  0
ATTRIB
  5
106
330
A9
100
AcDbEntity
  8
01-99
100
AcDbText
 10
692.4999999999999
 20
39.99999999999943
 30
0.0
 40
17.5
  1
722982
  7
ROMANS8
100
AcDbAttribute
280
     0
  2
E:M1
 70
     0
280
     0
  0
ATTRIB
  5
107
330
A9
100
AcDbEntity
  8
01-99
100
AcDbText
 10
557.5
 20
164.9999999999994
 30
0.0
 40
15.0
  1
.
 41
0.9
  7
ROMANS8
100
AcDbAttribute
280
     0
  2
POS
 70
     0
280
     0
  0
ATTRIB
  5
108
330
A9
100
AcDbEntity
  8
01-99
100
AcDbText
 10
557.5
 20
214.9999999999995
 30
0.0
 40
15.0
  1
.
 41
0.9
  7
ROMANS8
100
AcDbAttribute
280
     0
  2
PROJ
 70
     0
280
     0
  0
ATTRIB
  5
109
330
A9
100
AcDbEntity
  8
01-99
100
AcDbText
 10
107.5
 20
164.9999999999994
 30
0.0
 40
15.0
  1
.
 41
0.9
  7
ROMANS8
100
AcDbAttribute
280
     0
  2
COM
 70
     0
280
     0
  0
SEQEND
  5
10A
330
A9
100
AcDbEntity
  8
09-01
  0
DIMENSION
  5
10B
330
2
100
AcDbEntity
  8
09-01
100
AcDbDimension
280
     0
  2
*D26
 10
130.2323811350371
 20
1154.600023794623
 30
0.0
 11
118.982381135037
 21
1087.109869942965
 31
0.0
 71
     5
 42
134.9803077033157
 73
     0
 74
     0
 75
     0
  3
Wagner$0
100
AcDbAlignedDimension
 13
205.7484465699217
 23
1019.619716091307
 33
0.0
 14
205.7484465699217
 24
1154.600023794623
 34
0.0
 50
90.0
100
AcDbRotatedDimension
1001
ACAD
1000
DSTYLE
1002
{
1070
    40
1040
5.0
1070
   271
1070
     1
1070
   272
1070
     2
1002
}
  0
DIMENSION
  5
118
330
2
100
AcDbEntity
  8
09-01
100
AcDbDimension
280
     0
  2
*D25
 10
130.232381135037
 20
403.6170927098239
 30
0.0
 11
118.9823811350369
 21
711.6184044005655
 31
0.0
 71
     5
 42
616.002623381483
 73
     0
 74
     0
 75
     0
  3
Wagner$0
100
AcDbAlignedDimension
 13
205.7484465699217
 23
1019.619716091307
 33
0.0
 14
190.7484465699217
 24
403.6170927098239
 34
0.0
 50
90.0
100
AcDbRotatedDimension
1001
ACAD
1000
DSTYLE
1002
{
1070
    40
1040
5.0
1070
   271
1070
     2
1070
   272
1070
     2
1002
}
  0
DIMENSION
  5
125
330
2
100
AcDbEntity
  8
09-01
100
AcDbDimension
280
     0
  2
*D24
 10
158.3406050804302
 20
850.1201280201989
 30
0.0
 11
147.09060508043
 21
626.8686103650114
 31
0.0
 71
     5
 42
446.5030353103749
 73
     0
 74
     0
 75
     0
  3
Wagner$0
100
AcDbAlignedDimension
 13
190.7484465699216
 23
403.6170927098239
 33
0.0
 14
205.7484465699217
 24
850.1201280201989
 34
0.0
 50
90.0
100
AcDbRotatedDimension
1001
ACAD
1000
DSTYLE
1002
{
1070
    40
1040
5.0
1070
   271
1070
     2
1070
   272
1070
     2
1002
}
  0
DIMENSION
  5
132
330
2
100
AcDbEntity
  8
09-01
100
AcDbDimension
280
     0
  2
*D23
 10
516.0672722872095
 20
280.7766619451522
 30
0.0
 11
504.8172722872094
 21
335.7766619451523
 31
0.0
 71
     5
 42
110.0
 73
     0
 74
     0
 75
     0
  3
Wagner$0
100
AcDbAlignedDimension
 13
488.7484465699217
 23
390.7766619451522
 33
0.0
 14
488.7484465699217
 24
280.7766619451522
 34
0.0
 50
90.0
100
AcDbRotatedDimension
1001
ACAD
1000
DSTYLE
1002
{
1070
    40
1040
5.0
1070
   271
1070
     2
1070
   272
1070
     2
1002
}
  0
DIMENSION
  5
13F
330
2
100
AcDbEntity
  8
09-01
100
AcDbDimension
280
     0
  2
*D22
 10
539.6905731986126
 20
270.7766619451522
 30
0.0
 11
528.4405731986124
 21
330.7766619451523
 31
0.0
 71
     5
 42
120.0
 73
     0
 74
     0
 75
     0
  3
Wagner$0
100
AcDbAlignedDimension
 13
488.7484465699217
 23
390.7766619451522
 33
0.0
 14
487.7484465699217
 24
270.7766619451522
 34
0.0
 50
90.0
100
AcDbRotatedDimension
1001
ACAD
1000
DSTYLE
1002
{
1070
    40
1040
5.0
1070
   271
1070
     2
1070
   272
1070
     2
1002
}
  0
DIMENSION
  5
14C
330
2
100
AcDbEntity
  8
09-01
100
AcDbDimension
280
     0
  2
*D21
 10
437.7484465699203
 20
1364.996859056501
 30
0.0
 11
376.2879649206388
 21
1379.653585425448
 31
0.0
 70
   128
 71
     5
 42
196.0
 73
     0
 74
     0
 75
     0
  3
Wagner$0
100
AcDbAlignedDimension
 13
241.7484465699204
 23
1346.117092709824
 33
0.0
 14
437.7484465699203
 24
1346.117092709824
 34
0.0
100
AcDbRotatedDimension
1001
ACAD
1000
DSTYLE
1002
{
1070
    40
1040
5.0
1070
   271
1070
     2
1070
   272
1070
     2
1002
}
  0
LINE
  5
159
330
2
100
AcDbEntity
  8
05-01
100
AcDbLine
 10
739.0132192439562
 20
504.1170927098237
 30
0.0
 11
750.0132192439561
 21
504.1170927098237
 31
0.0
  0
INSERT
  5
15A
330
2
100
AcDbEntity
  8
03-01
100
AcDbBlockReference
  2
Gitterkorb WP134-01-v
 10
217.7484465699217
 20
418.8170927098264
 30
0.0
  0
LINE
  5
1FF
330
2
100
AcDbEntity
  8
03-01
100
AcDbLine
 10
486.7484465699217
 20
418.8170927098264
 30
0.0
 11
192.7484465699217
 21
418.8170927098263
 31
0.0
  0
INSERT
  5
200
330
2
100
AcDbEntity
  8
03-01
100
AcDbBlockReference
  2
Gitterkorb WP134-01-d
 10
215.7484465699219
 20
286.9766619451523
 30
0.0
  0
INSERT
  5
245
330
2
100
AcDbEntity
  8
03-01
100
AcDbBlockReference
  2
Gitterkorb WP134-01-s
 10
757.0854237741957
 20
418.817092709826
 30
0.0
  0
DIMENSION
  5
2E6
330
2
100
AcDbEntity
  8
09-01
100
AcDbDimension
280
     0
  2
*D17
 10
703.5132192439576
 20
403.6170927098265
 30
0.0
 11
692.2632192439574
 21
453.8670927098252
 31
0.0
 71
     5
 42
100.4999999999973
 73
     0
 74
     0
 75
     0
  3
Wagner$0
100
AcDbAlignedDimension
 13
703.5132192439576
 23
504.1170927098237
 33
0.0
 14
703.5132192439576
 24
403.6170927098265
 34
0.0
 50
90.0
100
AcDbRotatedDimension
1001
ACAD
1000
DSTYLE
1002
{
1070
    40
1040
5.0
1070
   271
1070
     2
1070
   272
1070
     2
1002
}
  0
DIMENSION
  5
2F1
330
2
100
AcDbEntity
  8
09-01
100
AcDbDimension
280
     0
  2
*D16
 10
703.5132192439576
 20
504.1170927098237
 30
0.0
 11
692.2632192439574
 21
927.8670927098239
 31
0.0
 71
     5
 42
847.4999999999999
 73
     0
 74
     0
 75
     0
  3
Wagner$0
100
AcDbAlignedDimension
 13
703.5132192439577
 23
1351.617092709824
 33
0.0
 14
740.0132192439578
 24
504.1170927098237
 34
0.0
 50
90.0
100
AcDbRotatedDimension
1001
ACAD
1000
DSTYLE
1002
{
1070
    40
1040
5.0
1070
   271
1070
     2
1070
   272
1070
     2
1002
}
  0
DIMENSION
  5
2FD
330
2
100
AcDbEntity
  8
09-01
100
AcDbDimension
280
     0
  2
*D15
 10
703.5132192439577
 20
1351.617092709824
 30
0.0
 11
692.2632192439575
 21
1401.617092709825
 31
0.0
 71
     5
 42
100.0000000000027
 73
     0
 74
     0
 75
     0
  3
Wagner$0
100
AcDbAlignedDimension
 13
743.585434236129
 23
1451.617092709826
 33
0.0
 14
739.0132192439564
 24
1351.617092709824
 34
0.0
 50
90.0
100
AcDbRotatedDimension
1001
ACAD
1000
DSTYLE
1002
{
1070
    40
1040
5.0
1070
   271
1070
     2
1070
   272
1070
     2
1002
}
  0
LINE
  5
30A
330
2
100
AcDbEntity
  8
05-01
100
AcDbLine
 10
739.0132192439564
 20
1351.617092709824
 30
0.0
 11
750.0132192439564
 21
1351.617092709824
 31
0.0
  0
LINE
  5
30B
330
2
100
AcDbEntity
  8
05-01
100
AcDbLine
 10
437.7484465699217
 20
395.5252342215081
 30
0.0
 11
437.7484465699217
 21
384.5252342215081
 31
0.0
  0
LINE
  5
30C
330
2
100
AcDbEntity
  8
05-01
100
AcDbLine
 10
241.7484465699217
 20
395.5252342215081
 30
0.0
 11
241.7484465699217
 21
384.5252342215081
 31
0.0
  0
LINE
  5
30D
330
2
100
AcDbEntity
  8
05-01
100
AcDbLine
 10
432.2484465699217
 20
504.1170927098237
 30
0.0
 11
443.2484465699217
 21
504.1170927098237
 31
0.0
  0
LINE
  5
30E
330
2
100
AcDbEntity
  8
05-01
100
AcDbLine
 10
437.7484465699217
 20
509.6170927098237
 30
0.0
 11
437.7484465699217
 21
498.6170927098237
 31
0.0
  0
LINE
  5
30F
330
2
100
AcDbEntity
  8
05-01
100
AcDbLine
 10
241.7484465699217
 20
509.6170927098237
 30
0.0
 11
241.7484465699217
 21
498.6170927098237
 31
0.0
  0
LINE
  5
310
330
2
100
AcDbEntity
  8
05-01
100
AcDbLine
 10
247.2484465699217
 20
504.1170927098237
 30
0.0
 11
236.2484465699217
 21
504.1170927098237
 31
0.0
  0
LINE
  5
311
330
2
100
AcDbEntity
  8
05-01
100
AcDbLine
 10
432.2484465699203
 20
1351.617092709824
 30
0.0
 11
443.2484465699203
 21
1351.617092709824
 31
0.0
  0
POINT
  5
312
330
2
100
AcDbEntity
  8
DEFPOINTS
  6
ByBlock
 62
     0
100
AcDbPoint
 10
437.9484465699206
 20
1349.117092709824
 30
0.0
  0
POINT
  5
313
330
2
100
AcDbEntity
  8
DEFPOINTS
  6
ByBlock
 62
     0
100
AcDbPoint
 10
437.9484465699206
 20
1354.117092709824
 30
0.0
  0
LINE
  5
314
330
2
100
AcDbEntity
  8
05-01
100
AcDbLine
 10
437.7484465699203
 20
1357.117092709823
 30
0.0
 11
437.7484465699203
 21
1346.117092709824
 31
0.0
  0
POINT
  5
315
330
2
100
AcDbEntity
  8
DEFPOINTS
  6
ByBlock
 62
     0
100
AcDbPoint
 10
241.5484465699201
 20
1349.117092709824
 30
0.0
  0
LINE
  5
316
330
2
100
AcDbEntity
  8
05-01
100
AcDbLine
 10
247.2484465699204
 20
1351.617092709824
 30
0.0
 11
236.2484465699203
 21
1351.617092709824
 31
0.0
  0
POINT
  5
317
330
2
100
AcDbEntity
  8
DEFPOINTS
  6
ByBlock
 62
     0
100
AcDbPoint
 10
241.5484465699201
 20
1354.117092709824
 30
0.0
  0
LINE
  5
318
330
2
100
AcDbEntity
  8
05-01
100
AcDbLine
 10
241.7484465699204
 20
1357.117092709823
 30
0.0
 11
241.7484465699204
 21
1346.117092709824
 31
0.0
  0
LINE
  5
319
330
2
100
AcDbEntity
  8
0
100
AcDbLine
 10
859.6079043103346
 20
1435.071482341795
 30
0.0
 11
862.6079043103345
 21
1435.071482341795
 31
0.0
  0
LINE
  5
31A
330
2
100
AcDbEntity
  8
0
100
AcDbLine
 10
868.1079043103345
 20
1433.921071217142
 30
0.0
 11
868.6079043103346
 21
1433.421071217141
 31
0.0
  0
LINE
  5
31B
330
2
100
AcDbEntity
  8
0
100
AcDbLine
 10
868.1079043103345
 20
1433.921071217142
 30
0.0
 11
863.6079043103345
 21
1433.921071217142
 31
0.0
  0
LINE
  5
31C
330
2
100
AcDbEntity
  8
0
100
AcDbLine
 10
853.5854133122624
 20
1451.617092709826
 30
0.0
 11
853.5854133122624
 21
1439.617092709826
 31
0.0
  0
LINE
  5
31D
330
2
100
AcDbEntity
  8
0
100
AcDbLine
 10
853.5854133122624
 20
1444.617092709826
 30
0.0
 11
853.5854133122624
 21
1438.071536376086
 31
0.0
  0
LINE
  5
31E
330
2
100
AcDbEntity
  8
0
100
AcDbLine
 10
852.7854133122627
 20
1450.817092709826
 30
0.0
 11
852.7854133122627
 21
1439.617092709826
 31
0.0
  0
LINE
  5
31F
330
2
100
AcDbEntity
  8
0
100
AcDbLine
 10
852.7854133122627
 20
1444.617092709826
 30
0.0
 11
852.7856136078899
 21
1439.182297335565
 31
0.0
  0
LINE
  5
320
330
2
100
AcDbEntity
  8
0
100
AcDbLine
 10
853.6079043103345
 20
1431.971482341795
 30
0.0
 11
850.6079043103346
 21
1431.971482341795
 31
0.0
  0
LINE
  5
321
330
2
100
AcDbEntity
  8
0
100
AcDbLine
 10
855.6079043103345
 20
1431.971482341795
 30
0.0
 11
853.6079043103345
 21
1431.971482341795
 31
0.0
  0
LINE
  5
322
330
2
100
AcDbEntity
  8
0
100
AcDbLine
 10
852.6079043103345
 20
1439.429099814712
 30
0.0
 11
855.6079043103345
 21
1435.262703077857
 31
0.0
  0
LINE
  5
323
330
2
100
AcDbEntity
  8
0
100
AcDbLine
 10
850.6079043103346
 20
1439.429099814712
 30
0.0
 11
853.6079043103345
 21
1435.262703077857
 31
0.0
  0
LINE
  5
324
330
2
100
AcDbEntity
  8
0
100
AcDbLine
 10
850.6079043103346
 20
1439.429099814712
 30
0.0
 11
850.6079043103346
 21
1443.929099814712
 31
0.0
  0
LINE
  5
325
330
2
100
AcDbEntity
  8
0
100
AcDbLine
 10
852.6079043103345
 20
1439.429099814712
 30
0.0
 11
852.6079043103345
 21
1443.929099814712
 31
0.0
  0
LINE
  5
326
330
2
100
AcDbEntity
  8
0
100
AcDbLine
 10
850.6079043103346
 20
1443.929099814712
 30
0.0
 11
852.6079043103345
 21
1443.929099814712
 31
0.0
  0
LINE
  5
327
330
2
100
AcDbEntity
  8
0
100
AcDbLine
 10
853.5854133122624
 20
1435.293938551516
 30
0.0
 11
853.5854133122624
 21
1431.971482341795
 31
0.0
  0
LINE
  5
328
330
2
100
AcDbEntity
  8
0
100
AcDbLine
 10
852.7857159795772
 20
1436.404557337306
 30
0.0
 11
852.7858793574919
 21
1431.971482341795
 31
0.0
  0
LINE
  5
329
330
2
100
AcDbEntity
  8
0
100
AcDbLine
 10
852.7854133122627
 20
1439.617092709826
 30
0.0
 11
853.5854133122624
 21
1439.617092709826
 31
0.0
  0
LINE
  5
32A
330
2
100
AcDbEntity
  8
0
100
AcDbLine
 10
853.5854133122624
 20
1450.117092709826
 30
0.0
 11
862.5854133122626
 21
1450.117092709826
 31
0.0
  0
LINE
  5
32B
330
2
100
AcDbEntity
  8
0
100
AcDbLine
 10
853.5854133122624
 20
1451.117092709826
 30
0.0
 11
863.5854342361289
 21
1451.117092709826
 31
0.0
  0
LINE
  5
32C
330
2
100
AcDbEntity
  8
0
100
AcDbLine
 10
859.6079043103346
 20
1431.971482341795
 30
0.0
 11
855.6079043103345
 21
1431.971482341795
 31
0.0
  0
LINE
  5
32D
330
2
100
AcDbEntity
  8
0
100
AcDbLine
 10
859.6079043103346
 20
1416.071482341795
 30
0.0
 11
862.6079043103345
 21
1416.071482341795
 31
0.0
  0
LINE
  5
32E
330
2
100
AcDbEntity
  8
0
100
AcDbLine
 10
868.6079043103346
 20
1417.421071217142
 30
0.0
 11
868.1079043103345
 21
1416.921071217142
 31
0.0
  0
LINE
  5
32F
330
2
100
AcDbEntity
  8
0
100
AcDbLine
 10
868.1079043103345
 20
1416.921071217142
 30
0.0
 11
863.6079043103345
 21
1416.921071217142
 31
0.0
  0
LINE
  5
330
330
2
100
AcDbEntity
  8
0
100
AcDbLine
 10
855.6079043103345
 20
1420.971482341795
 30
0.0
 11
853.6079043103345
 21
1420.971482341795
 31
0.0
  0
LINE
  5
331
330
2
100
AcDbEntity
  8
05-01
100
AcDbLine
 10
864.6057284147337
 20
1424.617092709826
 30
0.0
 11
839.8254055650387
 21
1424.617092709826
 31
0.0
  0
LINE
  5
332
330
2
100
AcDbEntity
  8
0
100
AcDbLine
 10
850.6079043103346
 20
1419.171482341795
 30
0.0
 11
859.6079043103346
 21
1419.171482341795
 31
0.0
  0
LINE
  5
333
330
2
100
AcDbEntity
  8
0
100
AcDbLine
 10
850.6079043103346
 20
1431.971482341795
 30
0.0
 11
850.6079043103346
 21
1419.171482341795
 31
0.0
  0
LINE
  5
334
330
2
100
AcDbEntity
  8
0
100
AcDbLine
 10
852.6079043103345
 20
1431.971482341795
 30
0.0
 11
852.6079043103345
 21
1419.171482341795
 31
0.0
  0
LINE
  5
335
330
2
100
AcDbEntity
  8
0
100
AcDbLine
 10
868.6079043103346
 20
1433.421071217141
 30
0.0
 11
868.6079043103346
 21
1417.421071217142
 31
0.0
  0
LINE
  5
336
330
2
100
AcDbEntity
  8
0
100
AcDbLine
 10
868.1079043103345
 20
1433.921071217142
 30
0.0
 11
868.1079043103345
 21
1416.921071217142
 31
0.0
  0
LINE
  5
337
330
2
100
AcDbEntity
  8
0
100
AcDbLine
 10
859.6079043103346
 20
1435.071482341795
 30
0.0
 11
859.6079043103346
 21
1416.071482341795
 31
0.0
  0
LINE
  5
338
330
2
100
AcDbEntity
  8
0
100
AcDbLine
 10
853.6079043103345
 20
1431.971482341795
 30
0.0
 11
853.6079043103345
 21
1419.171482341795
 31
0.0
  0
LINE
  5
339
330
2
100
AcDbEntity
  8
0
100
AcDbLine
 10
855.6079043103345
 20
1419.171482341795
 30
0.0
 11
855.6079043103345
 21
1435.262703077857
 31
0.0
  0
ARC
  5
33A
330
2
100
AcDbEntity
  8
0
100
AcDbCircle
 10
788.8470323576162
 20
1407.93525313873
 30
0.0
 40
5.0
100
AcDbArc
 50
0.0
 51
90.0
  0
LINE
  5
33B
330
2
100
AcDbEntity
  8
0
100
AcDbLine
 10
748.8008875947785
 20
1412.93525313873
 30
0.0
 11
788.8470323576162
 21
1412.93525313873
 31
0.0
  0
LINE
  5
33C
330
2
100
AcDbEntity
  8
0
100
AcDbLine
 10
743.585434236129
 20
1451.617092709826
 30
0.0
 11
853.5854133122624
 21
1451.617092709826
 31
0.0
  0
LINE
  5
33D
330
2
100
AcDbEntity
  8
0
100
AcDbLine
 10
744.3854342361292
 20
1450.817092709826
 30
0.0
 11
852.7854133122627
 21
1450.817092709826
 31
0.0
  0
LINE
  5
33E
330
2
100
AcDbEntity
  8
0
100
AcDbLine
 10
862.5854133122626
 20
1155.190026213928
 30
0.0
 11
862.5854133122622
 21
1004.081941713032
 31
0.0
  0
LINE
  5
33F
330
2
100
AcDbEntity
  8
0
100
AcDbLine
 10
862.5854133122626
 20
1156.7971321256
 30
0.0
 11
862.5854133122626
 21
1141.190026213928
 31
0.0
  0
LINE
  5
340
330
2
100
AcDbEntity
  8
0
100
AcDbLine
 10
862.5854133122626
 20
1154.619716091307
 30
0.0
 11
863.5946859142386
 21
1154.619716091307
 31
0.0
  0
LINE
  5
341
330
2
100
AcDbEntity
  8
0
100
AcDbLine
 10
861.7854133122623
 20
1156.7971321256
 30
0.0
 11
861.7854133122628
 21
1155.001339275296
 31
0.0
  0
LINE
  5
342
330
2
100
AcDbEntity
  8
0
100
AcDbLine
 10
861.7854133122628
 20
1168.28785096343
 30
0.0
 11
861.7854133122628
 21
1154.872521551709
 31
0.0
  0
LINE
  5
343
330
2
100
AcDbEntity
  8
0
100
AcDbLine
 10
861.7854133122628
 20
1168.28785096343
 30
0.0
 11
862.5854133122626
 21
1168.28785096343
 31
0.0
  0
LINE
  5
344
330
2
100
AcDbEntity
  8
0
100
AcDbLine
 10
835.5110627608519
 20
1144.809695003596
 30
0.0
 11
836.1715288141885
 21
1142.707289971408
 31
0.0
  0
ARC
  5
345
330
2
100
AcDbEntity
  8
0
100
AcDbCircle
 10
836.2742878217591
 20
1145.049460527397
 30
0.0
 40
0.8
100
AcDbArc
 50
107.7037865679259
 51
197.4400000000229
  0
ARC
  5
346
330
2
100
AcDbEntity
  8
0
100
AcDbCircle
 10
836.2742878217591
 20
1145.049460527397
 30
0.0
 40
1.6
100
AcDbArc
 50
107.7037865679259
 51
197.4400000000229
  0
LINE
  5
347
330
2
100
AcDbEntity
  8
0
100
AcDbLine
 10
834.6832414203344
 20
1144.880429913263
 30
0.0
 11
835.4082849835426
 21
1142.463652213888
 31
0.0
  0
LINE
  5
348
330
2
100
AcDbEntity
  8
0
100
AcDbLine
 10
799.2086512916812
 20
1130.908239354206
 30
0.0
 11
798.0697529834324
 21
1134.533596815531
 31
0.0
  0
LINE
  5
349
330
2
100
AcDbEntity
  8
05-01
100
AcDbLine
 10
807.0077034898822
 20
1133.087210233727
 30
0.0
 11
802.0170828973892
 21
1148.929483753226
 31
0.0
  0
LINE
  5
34A
330
2
100
AcDbEntity
  8
0
100
AcDbLine
 10
817.1227826342096
 20
1140.615581669759
 30
0.0
 11
818.261680942458
 21
1136.990224208434
 31
0.0
  0
LINE
  5
34B
330
2
100
AcDbEntity
  8
0
100
AcDbLine
 10
780.7007631013098
 20
1127.094864127653
 30
0.0
 11
781.2988034199511
 21
1125.191173591232
 31
0.0
  0
ARC
  5
34C
330
2
100
AcDbEntity
  8
0
100
AcDbCircle
 10
779.7467317751761
 20
1126.795157222902
 30
0.0
 40
1.0
100
AcDbArc
 50
17.43999999999222
 51
107.7037865679259
  0
ARC
  5
34D
330
2
100
AcDbEntity
  8
0
100
AcDbCircle
 10
779.7467317751761
 20
1126.795157222902
 30
0.0
 40
1.8
100
AcDbArc
 50
17.43999999999222
 51
107.7037865679259
  0
LINE
  5
34E
330
2
100
AcDbEntity
  8
0
100
AcDbLine
 10
781.4639881622165
 20
1127.334629651453
 30
0.0
 11
782.0609246059817
 21
1125.434452985401
 31
0.0
  0
LINE
  5
34F
330
2
100
AcDbEntity
  8
0
100
AcDbLine
 10
831.7444301978312
 20
1155.233109256919
 30
0.0
 11
793.8470323576166
 21
1155.233109256919
 31
0.0
  0
LINE
  5
350
330
2
100
AcDbEntity
  8
0
100
AcDbLine
 10
836.1715288141885
 20
1142.707289971408
 30
0.0
 11
781.2988034199511
 21
1125.191173591232
 31
0.0
  0
LINE
  5
351
330
2
100
AcDbEntity
  8
0
100
AcDbLine
 10
834.0667277375336
 20
1155.006291145887
 30
0.0
 11
749.6113044560257
 21
1128.4748001898
 31
0.0
  0
LINE
  5
352
330
2
100
AcDbEntity
  8
0
100
AcDbLine
 10
750.4008875947779
 20
1118.527015192499
 30
0.0
 11
779.7140057167876
 21
1127.871104960852
 31
0.0
  0
LINE
  5
353
330
2
100
AcDbEntity
  8
0
100
AcDbLine
 10
861.7854133122623
 20
1155.233109256919
 30
0.0
 11
831.7444301978312
 21
1155.233109256919
 31
0.0
  0
LINE
  5
354
330
2
100
AcDbEntity
  8
0
100
AcDbLine
 10
749.6014996021135
 20
1119.111857813733
 30
0.0
 11
861.7854133122628
 21
1154.872521551709
 31
0.0
  0
LINE
  5
355
330
2
100
AcDbEntity
  8
0
100
AcDbLine
 10
836.0310110058968
 20
1145.811573636367
 30
0.0
 11
862.5854133122626
 21
1154.28785096343
 31
0.0
  0
LINE
  5
356
330
2
100
AcDbEntity
  8
0
100
AcDbLine
 10
861.7854133122628
 20
1155.006291145887
 30
0.0
 11
834.0667277375336
 21
1155.006291145887
 31
0.0
  0
LINE
  5
357
330
2
100
AcDbEntity
  8
0
100
AcDbLine
 10
862.5854133122629
 20
1019.619716091307
 30
0.0
 11
863.6032171707283
 21
1019.619716091307
 31
0.0
  0
LINE
  5
358
330
2
100
AcDbEntity
  8
0
100
AcDbLine
 10
861.7854133122628
 20
1018.058753745872
 30
0.0
 11
861.7854133122623
 21
1004.981941713032
 31
0.0
  0
LINE
  5
359
330
2
100
AcDbEntity
  8
0
100
AcDbLine
 10
857.6041819107564
 20
1004.081941713032
 30
0.0
 11
857.6041819107564
 21
1003.119716091307
 31
0.0
  0
LINE
  5
35A
330
2
100
AcDbEntity
  8
0
100
AcDbLine
 10
842.6029465370506
 20
1004.133333276186
 30
0.0
 11
856.1694597501741
 21
1004.133333276186
 31
0.0
  0
LINE
  5
35B
330
2
100
AcDbEntity
  8
0
100
AcDbLine
 10
842.6029465370506
 20
1004.933333276186
 30
0.0
 11
842.6029465370506
 21
1004.133333276186
 31
0.0
  0
LINE
  5
35C
330
2
100
AcDbEntity
  8
0
100
AcDbLine
 10
857.6041819107567
 20
1004.081941713032
 30
0.0
 11
856.05696178363
 21
1004.081941713032
 31
0.0
  0
LINE
  5
35D
330
2
100
AcDbEntity
  8
0
100
AcDbLine
 10
856.05696178363
 20
1004.081941713032
 30
0.0
 11
855.7791020729878
 21
1004.987840168237
 31
0.0
  0
CIRCLE
  5
35E
330
2
100
AcDbEntity
  8
0
100
AcDbCircle
 10
855.9180319283091
 20
1004.534890940634
 30
0.0
 40
1.0
  0
LINE
  5
35F
330
2
100
AcDbEntity
  8
0
100
AcDbLine
 10
842.6029465370506
 20
1004.933333276186
 30
0.0
 11
855.6777674215886
 21
1004.933333276186
 31
0.0
  0
LINE
  5
360
330
2
100
AcDbEntity
  8
05-01
100
AcDbLine
 10
855.9180319283091
 20
995.2490770522718
 30
0.0
 11
855.9180319283091
 21
1008.534890940634
 31
0.0
  0
LINE
  5
361
330
2
100
AcDbEntity
  8
0
100
AcDbLine
 10
853.5854133122629
 20
1004.081941713032
 30
0.0
 11
842.585413312263
 21
1004.081941713032
 31
0.0
  0
LINE
  5
362
330
2
100
AcDbEntity
  8
0
100
AcDbLine
 10
852.7854133122627
 20
1003.281941713032
 30
0.0
 11
842.585413312263
 21
1003.281941713032
 31
0.0
  0
LINE
  5
363
330
2
100
AcDbEntity
  8
0
100
AcDbLine
 10
852.7854133122623
 20
995.3197160913077
 30
0.0
 11
852.7854133122623
 21
1003.319334662627
 31
0.0
  0
LINE
  5
364
330
2
100
AcDbEntity
  8
0
100
AcDbLine
 10
853.5854133122624
 20
995.3197160913077
 30
0.0
 11
853.5854133122624
 21
1003.638075803374
 31
0.0
  0
LINE
  5
365
330
2
100
AcDbEntity
  8
0
100
AcDbLine
 10
842.585413312263
 20
1003.281941713032
 30
0.0
 11
842.585413312263
 21
1004.081941713032
 31
0.0
  0
LINE
  5
366
330
2
100
AcDbEntity
  8
05-01
100
AcDbLine
 10
848.6029465370506
 20
1010.707377267105
 30
0.0
 11
848.6029465370506
 21
995.5029248237369
 31
0.0
  0
LINE
  5
367
330
2
100
AcDbEntity
  8
0
100
AcDbLine
 10
853.5797350093194
 20
995.119722110709
 30
0.0
 11
853.5797350093199
 21
1004.081941713032
 31
0.0
  0
LINE
  5
368
330
2
100
AcDbEntity
  8
0
100
AcDbLine
 10
857.6041819107567
 20
1004.081941713032
 30
0.0
 11
862.5854133122626
 21
1004.081941713032
 31
0.0
  0
LINE
  5
369
330
2
100
AcDbEntity
  8
0
100
AcDbLine
 10
857.6041819107564
 20
1003.119716091307
 30
0.0
 11
863.6041819107568
 21
1003.119716091307
 31
0.0
  0
LINE
  5
36A
330
2
100
AcDbEntity
  8
0
100
AcDbLine
 10
855.7890787009428
 20
1004.981941713032
 30
0.0
 11
862.5854133122626
 21
1004.981941713032
 31
0.0
  0
LINE
  5
36B
330
2
100
AcDbEntity
  8
05-01
100
AcDbLine
 10
859.9180319283091
 20
1004.534890940634
 30
0.0
 11
851.9180319283091
 21
1004.534890940634
 31
0.0
  0
LINE
  5
36C
330
2
100
AcDbEntity
  8
0
100
AcDbLine
 10
852.7854133122623
 20
982.0819417130319
 30
0.0
 11
853.5854133122629
 21
982.0819417130319
 31
0.0
  0
LINE
  5
36D
330
2
100
AcDbEntity
  8
0
100
AcDbLine
 10
853.5854133122624
 20
994.119716091307
 30
0.0
 11
863.5854133122625
 21
994.119716091307
 31
0.0
  0
LINE
  5
36E
330
2
100
AcDbEntity
  8
0
100
AcDbLine
 10
853.5854133122624
 20
993.119716091307
 30
0.0
 11
862.5854133122626
 21
993.119716091307
 31
0.0
  0
LINE
  5
36F
330
2
100
AcDbEntity
  8
0
100
AcDbLine
 10
853.5854133122624
 20
983.1201035393892
 30
0.0
 11
853.5854133122629
 21
1004.081941713032
 31
0.0
  0
LINE
  5
370
330
2
100
AcDbEntity
  8
0
100
AcDbLine
 10
749.6008875947782
 20
1055.189792247225
 30
0.0
 11
749.6008875947782
 21
1044.668257564359
 31
0.0
  0
LINE
  5
371
330
2
100
AcDbEntity
  8
0
100
AcDbLine
 10
830.291027699233
 20
1019.322423967307
 30
0.0
 11
748.8121897426208
 21
1044.918826997018
 31
0.0
  0
LINE
  5
372
330
2
100
AcDbEntity
  8
0
100
AcDbLine
 10
749.60149963094
 20
1055.127546841902
 30
0.0
 11
861.7854133122628
 21
1019.372431013686
 31
0.0
  0
LINE
  5
373
330
2
100
AcDbEntity
  8
0
100
AcDbLine
 10
750.4008875947779
 20
1055.712416990115
 30
0.0
 11
862.5854133122626
 21
1019.957106094503
 31
0.0
  0
LINE
  5
374
330
2
100
AcDbEntity
  8
0
100
AcDbLine
 10
861.7854133122628
 20
1019.31653536917
 30
0.0
 11
830.2783203284448
 21
1019.294539265184
 31
0.0
  0
LINE
  5
375
330
2
100
AcDbEntity
  8
03-01
100
AcDbLine
 10
853.5854133122624
 20
1154.135407267647
 30
0.0
 11
853.5854133122624
 21
1004.081941713032
 31
0.0
  0
LINE
  5
376
330
2
100
AcDbEntity
  8
03-01
100
AcDbLine
 10
852.7854133122623
 20
1154.135407267647
 30
0.0
 11
852.7854133122627
 21
1004.081941713032
 31
0.0
  0
LINE
  5
377
330
2
100
AcDbEntity
  8
0
100
AcDbLine
 10
749.6008875947786
 20
1055.189792247225
 30
0.0
 11
749.6008875947786
 21
1119.072492202162
 31
0.0
  0
LINE
  5
378
330
2
100
AcDbEntity
  8
0
100
AcDbLine
 10
749.6008875947782
 20
1055.128384279558
 30
0.0
 11
749.6008875947782
 21
1119.111020376062
 31
0.0
  0
LINE
  5
379
330
2
100
AcDbEntity
  8
0
100
AcDbLine
 10
750.4008875947779
 20
1055.712416990115
 30
0.0
 11
750.4008875947779
 21
1118.527015192499
 31
0.0
  0
LINE
  5
37A
330
2
100
AcDbEntity
  8
0
100
AcDbLine
 10
743.585434236129
 20
1451.617092709826
 30
0.0
 11
743.585434236129
 21
403.617092709826
 31
0.0
  0
LINE
  5
37B
330
2
100
AcDbEntity
  8
0
100
AcDbLine
 10
863.5854342361289
 20
1451.117092709826
 30
0.0
 11
863.6041819107568
 21
1003.119716091307
 31
0.0
  0
LINE
  5
37C
330
2
100
AcDbEntity
  8
0
100
AcDbLine
 10
853.5854133122624
 20
1419.171482341795
 30
0.0
 11
853.5854133122624
 21
1154.641936759785
 31
0.0
  0
LINE
  5
37D
330
2
100
AcDbEntity
  8
0
100
AcDbLine
 10
862.5854133122626
 20
1450.117092709826
 30
0.0
 11
862.5854133122626
 21
1154.598853716794
 31
0.0
  0
LINE
  5
37E
330
2
100
AcDbEntity
  8
0
100
AcDbLine
 10
852.785413312263
 20
1419.171482341795
 30
0.0
 11
852.7854133122627
 21
1154.641936759785
 31
0.0
  0
LINE
  5
37F
330
2
100
AcDbEntity
  8
0
100
AcDbLine
 10
748.8008875947785
 20
1044.920496595462
 30
0.0
 11
748.8008875947785
 21
1412.93525313873
 31
0.0
  0
LINE
  5
380
330
2
100
AcDbEntity
  8
0
100
AcDbLine
 10
749.6008875947782
 20
1055.189792247225
 30
0.0
 11
749.6008875947786
 21
1412.93525313873
 31
0.0
  0
LINE
  5
381
330
2
100
AcDbEntity
  8
0
100
AcDbLine
 10
793.8470323576166
 20
1155.233109256919
 30
0.0
 11
793.8470323576162
 21
1407.93525313873
 31
0.0
  0
DIMENSION
  5
382
330
2
100
AcDbEntity
  8
09-01
100
AcDbDimension
280
     0
  2
*D14
 10
949.4617728706694
 20
994.119716091307
 30
0.0
 11
931.9617728706694
 21
1012.472651176831
 31
0.0
 70
   128
 71
     5
 42
9.0
 73
     0
 74
     0
 75
     0
  3
Wagner$0
100
AcDbAlignedDimension
 13
863.6041819107568
 23
1003.119716091307
 33
0.0
 14
863.5854133122625
 24
994.119716091307
 34
0.0
 50
270.0
100
AcDbRotatedDimension
1001
ACAD
1000
DSTYLE
1002
{
1070
    40
1040
5.0
1070
   271
1070
     2
1070
   272
1070
     2
1002
}
  0
DIMENSION
  5
391
330
2
100
AcDbEntity
  8
09-01
100
AcDbDimension
280
     0
  2
*D13
 10
949.4617728706694
 20
1451.117092709826
 30
0.0
 11
938.2117728706692
 21
1227.118404400567
 31
0.0
  1
<> Tür
 71
     5
 42
447.9973766185194
 73
     0
 74
     0
 75
     0
  3
Wagner$0
100
AcDbAlignedDimension
 13
868.6041819107568
 23
1003.119716091307
 33
0.0
 14
863.5854342361289
 24
1451.117092709826
 34
0.0
 50
90.0
100
AcDbRotatedDimension
1001
ACAD
1000
DSTYLE
1002
{
1070
    40
1040
5.0
1070
   271
1070
     2
1070
   272
1070
     2
1002
}
  0
LINE
  5
39E
330
2
100
AcDbEntity
  8
0
100
AcDbLine
 10
859.5854133122625
 20
850.1209639956478
 30
0.0
 11
862.5854133122626
 21
851.8530148032168
 31
0.0
  0
LINE
  5
39F
330
2
100
AcDbEntity
  8
0
100
AcDbLine
 10
841.5589897964673
 20
854.0417572852692
 30
0.0
 11
840.9854133122621
 21
853.2226052744881
 31
0.0
  0
LINE
  5
3A0
330
2
100
AcDbEntity
  8
0
100
AcDbLine
 10
860.5854133122624
 20
849.4985290263976
 30
0.0
 11
860.5854133122624
 21
839.4985358191743
 31
0.0
  0
LINE
  5
3A1
330
2
100
AcDbEntity
  8
0
100
AcDbLine
 10
852.7854133122623
 20
844.960155296289
 30
0.0
 11
852.7854133122623
 21
831.6784914082754
 31
0.0
  0
LINE
  5
3A2
330
2
100
AcDbEntity
  8
0
100
AcDbLine
 10
853.5854133122624
 20
844.399989196072
 30
0.0
 11
853.5854133122624
 21
832.1391332088619
 31
0.0
  0
LINE
  5
3A3
330
2
100
AcDbEntity
  8
0
100
AcDbLine
 10
860.5871784080223
 20
849.5446328049702
 30
0.0
 11
863.5854133122625
 21
851.2756645340269
 31
0.0
  0
LINE
  5
3A4
330
2
100
AcDbEntity
  8
0
100
AcDbLine
 10
860.5854133122624
 20
839.4985358191743
 30
0.0
 11
840.9854133122621
 21
853.2226052744881
 31
0.0
  0
LINE
  5
3A5
330
2
100
AcDbEntity
  8
0
100
AcDbLine
 10
859.5854133122625
 20
841.4195180831429
 30
0.0
 11
841.5589897964673
 21
854.0417572852692
 31
0.0
  0
LINE
  5
3A6
330
2
100
AcDbEntity
  8
0
100
AcDbLine
 10
859.5854133122625
 20
850.1209639956478
 30
0.0
 11
859.5854133122625
 21
841.4195180831429
 31
0.0
  0
LINE
  5
3A7
330
2
100
AcDbEntity
  8
0
100
AcDbLine
 10
862.5854133122626
 20
850.6983142648373
 30
0.0
 11
862.5854133122626
 21
837.3213534654595
 31
0.0
  0
LINE
  5
3A8
330
2
100
AcDbEntity
  8
03-01
100
AcDbLine
 10
859.5854133122625
 20
716.1573039443969
 30
0.0
 11
862.5854133122626
 21
716.1573039443969
 31
0.0
  0
LINE
  5
3A9
330
2
100
AcDbEntity
  8
03-01
100
AcDbLine
 10
859.5854133122625
 20
713.0573039443966
 30
0.0
 11
862.5854133122626
 21
713.057303944397
 31
0.0
  0
LINE
  5
3AA
330
2
100
AcDbEntity
  8
0
100
AcDbLine
 10
868.0854133122625
 20
715.1170927098264
 30
0.0
 11
863.5854133122625
 21
715.1170927098264
 31
0.0
  0
LINE
  5
3AB
330
2
100
AcDbEntity
  8
0
100
AcDbLine
 10
868.5854133122624
 20
714.6170927098264
 30
0.0
 11
868.0854133122625
 21
715.1170927098264
 31
0.0
  0
LINE
  5
3AC
330
2
100
AcDbEntity
  8
03-01
100
AcDbLine
 10
862.5854133122626
 20
713.057303944397
 30
0.0
 11
863.5854133122625
 21
713.057303944397
 31
0.0
  0
LINE
  5
3AD
330
2
100
AcDbEntity
  8
03-01
100
AcDbLine
 10
850.5854133122625
 20
713.057303944397
 30
0.0
 11
859.5854133122625
 21
713.057303944397
 31
0.0
  0
LINE
  5
3AE
330
2
100
AcDbEntity
  8
05-01
100
AcDbLine
 10
863.5854133122625
 20
706.6170927098264
 30
0.0
 11
887.0854133122625
 21
706.6170927098264
 31
0.0
  0
LINE
  5
3AF
330
2
100
AcDbEntity
  8
03-01
100
AcDbLine
 10
859.5854133122625
 20
697.157303944397
 30
0.0
 11
862.5854133122626
 21
697.157303944397
 31
0.0
  0
LINE
  5
3B0
330
2
100
AcDbEntity
  8
03-01
100
AcDbLine
 10
862.5854133122626
 20
700.2573039443968
 30
0.0
 11
859.5854133122625
 21
700.2573039443968
 31
0.0
  0
LINE
  5
3B1
330
2
100
AcDbEntity
  8
0
100
AcDbLine
 10
868.0854133122625
 20
698.1170927098264
 30
0.0
 11
863.5854133122625
 21
698.1170927098264
 31
0.0
  0
LINE
  5
3B2
330
2
100
AcDbEntity
  8
0
100
AcDbLine
 10
868.0854133122625
 20
698.1170927098264
 30
0.0
 11
868.5854133122624
 21
698.6170927098264
 31
0.0
  0
LINE
  5
3B3
330
2
100
AcDbEntity
  8
03-01
100
AcDbLine
 10
863.5854133122625
 20
700.2573039443968
 30
0.0
 11
862.5854133122626
 21
700.2573039443968
 31
0.0
  0
LINE
  5
3B4
330
2
100
AcDbEntity
  8
03-01
100
AcDbLine
 10
859.5854133122625
 20
700.2573039443968
 30
0.0
 11
850.5854133122625
 21
700.2573039443968
 31
0.0
  0
LINE
  5
3B5
330
2
100
AcDbEntity
  8
03-01
100
AcDbLine
 10
855.5854133122625
 20
700.2573039443968
 30
0.0
 11
855.5854133122625
 21
713.057303944397
 31
0.0
  0
LINE
  5
3B6
330
2
100
AcDbEntity
  8
03-01
100
AcDbLine
 10
859.5854133122625
 20
697.157303944397
 30
0.0
 11
859.5854133122625
 21
716.1573039443969
 31
0.0
  0
LINE
  5
3B7
330
2
100
AcDbEntity
  8
0
100
AcDbLine
 10
868.0854133122625
 20
698.1170927098264
 30
0.0
 11
868.0854133122625
 21
715.1170927098264
 31
0.0
  0
LINE
  5
3B8
330
2
100
AcDbEntity
  8
0
100
AcDbLine
 10
868.5854133122624
 20
698.6170927098264
 30
0.0
 11
868.5854133122624
 21
714.6170927098264
 31
0.0
  0
LINE
  5
3B9
330
2
100
AcDbEntity
  8
0
100
AcDbLine
 10
863.5854133122625
 20
715.1170927098264
 30
0.0
 11
863.5854133122625
 21
698.1170927098264
 31
0.0
  0
LINE
  5
3BA
330
2
100
AcDbEntity
  8
0
100
AcDbLine
 10
853.5854133122624
 20
830.9852059009481
 30
0.0
 11
853.5854133122624
 21
403.6170927098265
 31
0.0
  0
LINE
  5
3BB
330
2
100
AcDbEntity
  8
0
100
AcDbLine
 10
852.7854133122623
 20
830.5245641003617
 30
0.0
 11
852.7854133122623
 21
403.6170927098265
 31
0.0
  0
LINE
  5
3BC
330
2
100
AcDbEntity
  8
0
100
AcDbLine
 10
862.5854133122626
 20
836.1675712731825
 30
0.0
 11
862.5854133122626
 21
405.6170927098264
 31
0.0
  0
LINE
  5
3BD
330
2
100
AcDbEntity
  8
0
100
AcDbLine
 10
828.058234174688
 20
817.4405260065805
 30
0.0
 11
828.5695172397828
 21
816.5793221322873
 31
0.0
  0
LINE
  5
3BE
330
2
100
AcDbEntity
  8
0
100
AcDbLine
 10
828.5854133122624
 20
816.5901496326213
 30
0.0
 11
863.5854133122625
 21
836.7432284082788
 31
0.0
  0
LINE
  5
3BF
330
2
100
AcDbEntity
  8
0
100
AcDbLine
 10
828.058234174688
 20
817.4405260065805
 30
0.0
 11
862.5854133122626
 21
837.3213534654595
 31
0.0
  0
LINE
  5
3C0
330
2
100
AcDbEntity
  8
03-01
100
AcDbLine
 10
744.3854342361292
 20
418.8170927098262
 30
0.0
 11
852.7854133122623
 21
418.8170927098262
 31
0.0
  0
LINE
  5
3C1
330
2
100
AcDbEntity
  8
03-01
100
AcDbLine
 10
745.1854342361289
 20
418.0170927098263
 30
0.0
 11
851.9854133122626
 21
418.0170927098263
 31
0.0
  0
LINE
  5
3C2
330
2
100
AcDbEntity
  8
03-01
100
AcDbLine
 10
752.085434236129
 20
418.8170927098262
 30
0.0
 11
845.0854133122625
 21
418.8170927098262
 31
0.0
  0
LINE
  5
3C3
330
2
100
AcDbEntity
  8
0
100
AcDbLine
 10
853.5854133122624
 20
404.6170927098264
 30
0.0
 11
863.5854133122625
 21
404.6170927098264
 31
0.0
  0
LINE
  5
3C4
330
2
100
AcDbEntity
  8
0
100
AcDbLine
 10
853.5854133122624
 20
405.6170927098264
 30
0.0
 11
862.5854133122626
 21
405.6170927098264
 31
0.0
  0
LINE
  5
3C5
330
2
100
AcDbEntity
  8
0
100
AcDbLine
 10
743.585434236129
 20
403.617092709826
 30
0.0
 11
853.5854133122624
 21
403.6170927098265
 31
0.0
  0
LINE
  5
3C6
330
2
100
AcDbEntity
  8
0
100
AcDbLine
 10
743.585434236129
 20
403.6170927098265
 30
0.0
 11
853.5854133122624
 21
403.6170927098265
 31
0.0
  0
LINE
  5
3C7
330
2
100
AcDbEntity
  8
03-01
100
AcDbLine
 10
745.1854342361289
 20
418.0170927098263
 30
0.0
 11
745.1854342361289
 21
403.6170927098265
 31
0.0
  0
DIMENSION
  5
3C8
330
2
100
AcDbEntity
  8
09-01
100
AcDbDimension
280
     0
  2
*D12
 10
913.2628771955278
 20
404.6170927098263
 30
0.0
 11
902.0128771955278
 21
555.6170927098267
 31
0.0
 71
     5
 42
302.0
 73
     0
 74
     0
 75
     0
  3
Wagner$0
100
AcDbAlignedDimension
 13
887.0854133122625
 23
706.6170927098264
 33
0.0
 14
863.5854133122625
 24
404.6170927098264
 34
0.0
 50
270.0
100
AcDbRotatedDimension
1001
ACAD
1000
DSTYLE
1002
{
1070
    40
1040
5.0
1070
   271
1070
     2
1070
   272
1070
     2
1002
}
  0
LINE
  5
3D5
330
2
100
AcDbEntity
  8
03-01
100
AcDbLine
 10
851.9854133122626
 20
418.0170927098263
 30
0.0
 11
851.9854133122626
 21
403.6170927098259
 31
0.0
  0
LINE
  5
3D6
330
2
100
AcDbEntity
  8
0
100
AcDbLine
 10
863.5854133122625
 20
994.119716091307
 30
0.0
 11
863.5854133122625
 21
404.6170927098264
 31
0.0
  0
LINE
  5
3D7
330
2
100
AcDbEntity
  8
0
100
AcDbLine
 10
862.5854133122626
 20
993.119716091307
 30
0.0
 11
862.5854133122626
 21
851.8530148032168
 31
0.0
  0
LINE
  5
3D8
330
2
100
AcDbEntity
  8
0
100
AcDbLine
 10
744.3854342361292
 20
1450.817092709826
 30
0.0
 11
744.3854342361292
 21
403.6170927098259
 31
0.0
  0
LINE
  5
3D9
330
2
100
AcDbEntity
  8
0
100
AcDbLine
 10
852.7854133122627
 20
1003.281941713032
 30
0.0
 11
852.7854133122623
 21
846.1809299349866
 31
0.0
  0
DIMENSION
  5
3DA
330
2
100
AcDbEntity
  8
01-01
100
AcDbDimension
280
     0
  2
*D9
 10
673.1615870262285
 20
403.6170927098265
 30
0.0
 11
661.9115870262284
 21
927.6170927098267
 31
0.0
 71
     5
 42
1048.0
 73
     0
 74
     0
 75
     0
  3
Wagner$0
100
AcDbAlignedDimension
 13
743.585434236129
 23
1451.617092709826
 33
0.0
 14
743.585434236129
 24
403.6170927098265
 34
0.0
 50
270.0
100
AcDbRotatedDimension
1001
ACAD
1000
DSTYLE
1002
{
1070
    40
1040
5.0
1070
   271
1070
     2
1070
   272
1070
     2
1002
}
  0
DIMENSION
  5
3E7
330
2
100
AcDbEntity
  8
09-01
100
AcDbDimension
280
     0
  2
*D10
 10
949.4617728706694
 20
404.6170927098263
 30
0.0
 11
938.2117728706692
 21
699.3684044005668
 31
0.0
  1
<> Tür
 71
     5
 42
589.5026233814806
 73
     0
 74
     0
 75
     0
  3
Wagner$0
100
AcDbAlignedDimension
 13
868.5854133122624
 23
994.119716091307
 33
0.0
 14
858.5854133122625
 24
404.6170927098264
 34
0.0
 50
270.0
100
AcDbRotatedDimension
1001
ACAD
1000
DSTYLE
1002
{
1070
    40
1040
5.0
1070
   271
1070
     2
1070
   272
1070
     2
1002
}
  0
DIMENSION
  5
3F4
330
2
100
AcDbEntity
  8
01-01
100
AcDbDimension
280
     0
  2
*D11
 10
978.8291921447379
 20
403.6170927098264
 30
0.0
 11
967.5791921447379
 21
927.6170927098265
 31
0.0
 71
     5
 42
1048.0
 73
     0
 74
     0
 75
     0
  3
Wagner$0
100
AcDbAlignedDimension
 13
873.5854133122625
 23
1451.617092709826
 33
0.0
 14
853.5854133122624
 24
403.6170927098265
 34
0.0
 50
270.0
100
AcDbRotatedDimension
1001
ACAD
1000
DSTYLE
1002
{
1070
    40
1040
5.0
1070
   271
1070
     2
1070
   272
1070
     2
1002
}
  0
LINE
  5
401
330
2
100
AcDbEntity
  8
03-01
100
AcDbLine
 10
427.7484465699217
 20
1413.258184122927
 30
0.0
 11
473.7484465699217
 21
1413.258184122927
 31
0.0
  0
LINE
  5
402
330
2
100
AcDbEntity
  8
03-01
100
AcDbLine
 10
427.7484465699217
 20
1229.191123999317
 30
0.0
 11
427.7484465699217
 21
1413.258184122927
 31
0.0
  0
LINE
  5
403
330
2
100
AcDbEntity
  8
03-01
100
AcDbLine
 10
487.7484465699222
 20
1450.617092709824
 30
0.0
 11
475.7484465699217
 21
1438.617092709824
 31
0.0
  0
LINE
  5
404
330
2
100
AcDbEntity
  8
03-01
100
AcDbLine
 10
346.1484465699218
 20
1438.217092709824
 30
0.0
 11
346.1484465699223
 21
1430.210839218203
 31
0.0
  0
LINE
  5
405
330
2
100
AcDbEntity
  8
03-01
100
AcDbLine
 10
333.3484465699221
 20
1438.217092709824
 30
0.0
 11
333.3484465699221
 21
1430.210839218202
 31
0.0
  0
ARC
  5
406
330
2
100
AcDbEntity
  8
03-01
100
AcDbCircle
 10
339.7484465699217
 20
1438.217092709824
 30
0.0
 40
6.399999999999977
100
AcDbArc
 50
0.0
 51
180.0
  0
LINE
  5
407
330
2
100
AcDbEntity
  8
03-01
100
AcDbLine
 10
333.3484465699221
 20
1435.217092709824
 30
0.0
 11
346.1484465699218
 21
1435.217092709824
 31
0.0
  0
LINE
  5
408
330
2
100
AcDbEntity
  8
03-01
100
AcDbLine
 10
333.3484465699221
 20
1438.217092709824
 30
0.0
 11
346.1484465699218
 21
1438.217092709824
 31
0.0
  0
LINE
  5
409
330
2
100
AcDbEntity
  8
0
100
AcDbLine
 10
340.748446569922
 20
1428.617092709824
 30
0.0
 11
340.748446569922
 21
1420.617092709824
 31
0.0
  0
LINE
  5
40A
330
2
100
AcDbEntity
  8
03-01
100
AcDbLine
 10
345.998446569922
 20
1429.69055306741
 30
0.0
 11
345.998446569922
 21
1418.856233398923
 31
0.0
  0
LINE
  5
40B
330
2
100
AcDbEntity
  8
03-01
100
AcDbLine
 10
333.498446569922
 20
1429.69055306741
 30
0.0
 11
333.498446569922
 21
1419.543632352237
 31
0.0
  0
LINE
  5
40C
330
2
100
AcDbEntity
  8
0
100
AcDbLine
 10
338.748446569922
 20
1420.617092709824
 30
0.0
 11
338.748446569922
 21
1428.617092709824
 31
0.0
  0
ARC
  5
40D
330
2
100
AcDbEntity
  8
03-01
100
AcDbCircle
 10
339.748446569922
 20
1424.617092709824
 30
0.0
 40
8.049999999999998
100
AcDbArc
 50
219.0680914837459
 51
320.9319085162541
  0
LINE
  5
40E
330
2
100
AcDbEntity
  8
0
100
AcDbLine
 10
338.748446569922
 20
1428.617092709824
 30
0.0
 11
340.748446569922
 21
1428.617092709824
 31
0.0
  0
LINE
  5
40F
330
2
100
AcDbEntity
  8
0
100
AcDbLine
 10
340.748446569922
 20
1420.617092709824
 30
0.0
 11
338.748446569922
 21
1420.617092709824
 31
0.0
  0
LINE
  5
410
330
2
100
AcDbEntity
  8
05-01
100
AcDbLine
 10
328.2484465699217
 20
1424.617092709824
 30
0.0
 11
351.2484465699217
 21
1424.617092709824
 31
0.0
  0
CIRCLE
  5
411
330
2
100
AcDbEntity
  8
0
100
AcDbCircle
 10
339.7484465699217
 20
1424.617092709824
 30
0.0
 40
8.5
  0
ARC
  5
412
330
2
100
AcDbEntity
  8
03-01
100
AcDbCircle
 10
339.748446569922
 20
1424.617092709824
 30
0.0
 40
8.049999999999998
100
AcDbArc
 50
39.0680914837459
 51
140.9319085162541
  0
CIRCLE
  5
413
330
2
100
AcDbEntity
  8
0
100
AcDbCircle
 10
339.7484465699217
 20
1424.617092709824
 30
0.0
 40
8.0
  0
LINE
  5
414
330
2
100
AcDbEntity
  8
05-01
100
AcDbLine
 10
339.7484465699217
 20
1436.117092709824
 30
0.0
 11
339.7484465699217
 21
1415.617092709824
 31
0.0
  0
LINE
  5
415
330
2
100
AcDbEntity
  8
03-01
100
AcDbLine
 10
251.2484465699217
 20
1408.64501063224
 30
0.0
 11
251.2484465699217
 21
1413.258184122927
 31
0.0
  0
LINE
  5
416
330
2
100
AcDbEntity
  8
03-01
100
AcDbLine
 10
251.2484465699217
 20
1229.191123999317
 30
0.0
 11
251.2484465699217
 21
1408.64501063224
 31
0.0
  0
LINE
  5
417
330
2
100
AcDbEntity
  8
03-01
100
AcDbLine
 10
472.1484465699222
 20
1154.315041099811
 30
0.0
 11
472.1484465699222
 21
1168.815041099811
 31
0.0
  0
LINE
  5
418
330
2
100
AcDbEntity
  8
0
100
AcDbLine
 10
462.2347540398241
 20
1135.999501723045
 30
0.0
 11
462.2347540398241
 21
1134.593480320852
 31
0.0
  0
ARC
  5
419
330
2
100
AcDbEntity
  8
0
100
AcDbCircle
 10
459.1988263815274
 20
1134.160252193663
 30
0.0
 40
3.0
100
AcDbArc
 50
271.210110292537
 51
0.0
  0
ARC
  5
41A
330
2
100
AcDbEntity
  8
0
100
AcDbCircle
 10
459.1988263815274
 20
1135.131307921669
 30
0.0
 40
3.0
100
AcDbArc
 50
0.0
 51
88.6754278980546
  0
ARC
  5
41B
330
2
100
AcDbEntity
  8
0
100
AcDbCircle
 10
459.2347540398241
 20
1135.999501723045
 30
0.0
 40
3.0
100
AcDbArc
 50
0.0
 51
85.86426537075654
  0
LINE
  5
41C
330
2
100
AcDbEntity
  8
03-01
100
AcDbLine
 10
427.7484465699217
 20
1130.200484198246
 30
0.0
 11
427.7484465699217
 21
1119.612722416697
 31
0.0
  0
LINE
  5
41D
330
2
100
AcDbEntity
  8
0
100
AcDbLine
 10
427.7484465699217
 20
1138.763133987057
 30
0.0
 11
427.7484465699217
 21
1130.651265913437
 31
0.0
  0
LINE
  5
41E
330
2
100
AcDbEntity
  8
03-01
100
AcDbLine
 10
427.7484465699217
 20
1119.612722416697
 30
0.0
 11
472.1484465699222
 21
1119.612722416697
 31
0.0
  0
LINE
  5
41F
330
2
100
AcDbEntity
  8
03-01
100
AcDbLine
 10
427.7484465699217
 20
1169.915041099812
 30
0.0
 11
427.7484465699217
 21
1138.382341456637
 31
0.0
  0
LINE
  5
420
330
2
100
AcDbEntity
  8
03-01
100
AcDbLine
 10
486.7484465699217
 20
1153.075120724354
 30
0.0
 11
473.7484465699221
 21
1153.075120724354
 31
0.0
  0
LINE
  5
421
330
2
100
AcDbEntity
  8
05-01
100
AcDbLine
 10
337.2484465699217
 20
1239.617092709826
 30
0.0
 11
342.2484465699217
 21
1239.617092709826
 31
0.0
  0
ARC
  5
422
330
2
100
AcDbEntity
  8
0
100
AcDbCircle
 10
339.7484465699217
 20
1239.617092709826
 30
0.0
 40
2.5
100
AcDbArc
 50
0.0
 51
180.0
  0
LINE
  5
423
330
2
100
AcDbEntity
  8
05-01
100
AcDbLine
 10
337.2484465699217
 20
1188.617092709826
 30
0.0
 11
342.2484465699217
 21
1188.617092709826
 31
0.0
  0
ARC
  5
424
330
2
100
AcDbEntity
  8
0
100
AcDbCircle
 10
339.7484465699217
 20
1188.617092709826
 30
0.0
 40
2.5
100
AcDbArc
 50
180.0
 51
0.0
  0
LINE
  5
425
330
2
100
AcDbEntity
  8
03-01
100
AcDbLine
 10
251.2484465699217
 20
1130.126100243869
 30
0.0
 11
251.2484465699217
 21
1119.612722416697
 31
0.0
  0
LINE
  5
426
330
2
100
AcDbEntity
  8
0
100
AcDbLine
 10
251.2484465699217
 20
1138.761418095003
 30
0.0
 11
251.2484465699217
 21
1130.506892774289
 31
0.0
  0
LINE
  5
427
330
2
100
AcDbEntity
  8
03-01
100
AcDbLine
 10
251.2484465699217
 20
1169.915041099812
 30
0.0
 11
251.2484465699217
 21
1138.380625564583
 31
0.0
  0
LINE
  5
428
330
2
100
AcDbEntity
  8
0
100
AcDbLine
 10
337.2484465699217
 20
1239.617092709826
 30
0.0
 11
337.2484465699217
 21
1188.617092709826
 31
0.0
  0
LINE
  5
429
330
2
100
AcDbEntity
  8
0
100
AcDbLine
 10
342.2484465699217
 20
1239.617092709826
 30
0.0
 11
342.2484465699217
 21
1188.617092709826
 31
0.0
  0
LINE
  5
42A
330
2
100
AcDbEntity
  8
03-01
100
AcDbLine
 10
485.9484465699219
 20
1051.075120724354
 30
0.0
 11
485.9484465699219
 21
1019.094813021039
 31
0.0
  0
LINE
  5
42B
330
2
100
AcDbEntity
  8
05-01
100
AcDbLine
 10
452.7484465699217
 20
1008.314615177944
 30
0.0
 11
452.7484465699217
 21
999.2984323784606
 31
0.0
  0
LINE
  5
42C
330
2
100
AcDbEntity
  8
03-01
100
AcDbLine
 10
486.7484465699221
 20
1019.476705381968
 30
0.0
 11
472.9484465699219
 21
1019.476705381968
 31
0.0
  0
LINE
  5
42D
330
2
100
AcDbEntity
  8
0
100
AcDbLine
 10
475.7484465699217
 20
1004.119716091307
 30
0.0
 11
475.7484465699217
 21
994.9197160913081
 31
0.0
  0
LINE
  5
42E
330
2
100
AcDbEntity
  8
01-01
100
AcDbLine
 10
475.7484465699217
 20
1003.117092709826
 30
0.0
 11
475.7484465699217
 21
994.100909910343
 31
0.0
  0
LINE
  5
42F
330
2
100
AcDbEntity
  8
05-01
100
AcDbLine
 10
339.7484465699217
 20
1007.968110094477
 30
0.0
 11
339.7484465699217
 21
998.9848429766938
 31
0.0
  0
LINE
  5
430
330
2
100
AcDbEntity
  8
03-01
100
AcDbLine
 10
485.9484465699224
 20
1153.075120724354
 30
0.0
 11
485.9484465699219
 21
1019.476705381968
 31
0.0
  0
LINE
  5
431
330
2
100
AcDbEntity
  8
03-01
100
AcDbLine
 10
473.7484465699221
 20
1020.094813021039
 30
0.0
 11
473.7484465699221
 21
1153.075120724354
 31
0.0
  0
LINE
  5
432
330
2
100
AcDbEntity
  8
0
100
AcDbLine
 10
472.9484465699219
 20
1020.476705381968
 30
0.0
 11
472.9484465699224
 21
1153.800023794622
 31
0.0
  0
LINE
  5
433
330
2
100
AcDbEntity
  8
0
100
AcDbLine
 10
473.7484465699217
 20
1019.619716091307
 30
0.0
 11
473.7484465699217
 21
1154.600023794622
 31
0.0
  0
DIMENSION
  5
434
330
2
100
AcDbEntity
  8
09-01
100
AcDbDimension
280
     0
  2
*D7
 10
556.6071607657391
 20
994.119716091307
 30
0.0
 11
541.6876341508005
 21
970.3334307322284
 31
0.0
 70
   128
  1
9
 71
     5
 42
9.0
 73
     0
 74
     0
 75
     0
  3
Wagner$0
100
AcDbAlignedDimension
 13
487.7484465699217
 23
1003.119716091307
 33
0.0
 14
487.7484465699217
 24
994.119716091307
 34
0.0
 50
270.0
100
AcDbRotatedDimension
1001
ACAD
1000
DSTYLE
1002
{
1070
    40
1040
5.0
1070
   271
1070
     2
1070
   272
1070
     2
1002
}
  0
LINE
  5
443
330
2
100
AcDbEntity
  8
0
100
AcDbLine
 10
488.7484465699217
 20
1451.617092709824
 30
0.0
 11
488.7484465699215
 21
403.6170927098239
 31
0.0
  0
LINE
  5
444
330
2
100
AcDbEntity
  8
0
100
AcDbLine
 10
487.7484465699217
 20
1451.117092709824
 30
0.0
 11
487.7484465699217
 21
1003.119716091307
 31
0.0
  0
LINE
  5
445
330
2
100
AcDbEntity
  8
03-01
100
AcDbLine
 10
486.7484465699217
 20
1450.117092709824
 30
0.0
 11
486.7484465699217
 21
1004.296045194366
 31
0.0
  0
LINE
  5
446
330
2
100
AcDbEntity
  8
03-01
100
AcDbLine
 10
251.2484465699217
 20
1168.815041099811
 30
0.0
 11
251.2484465699217
 21
1229.191123999317
 31
0.0
  0
LINE
  5
447
330
2
100
AcDbEntity
  8
03-01
100
AcDbLine
 10
427.7484465699217
 20
1229.191123999317
 30
0.0
 11
427.7484465699221
 21
1168.815041099811
 31
0.0
  0
LINE
  5
448
330
2
100
AcDbEntity
  8
03-01
100
AcDbLine
 10
473.7484465699217
 20
1153.457013085284
 30
0.0
 11
473.7484465699217
 21
1413.258184122927
 31
0.0
  0
LINE
  5
449
330
2
100
AcDbEntity
  8
03-01
100
AcDbLine
 10
475.7484465699217
 20
1438.617092709824
 30
0.0
 11
475.7484465699217
 21
1004.296045194366
 31
0.0
  0
DIMENSION
  5
44A
330
2
100
AcDbEntity
  8
09-01
100
AcDbDimension
280
     0
  2
*D5
 10
556.6071607657391
 20
1451.617092709823
 30
0.0
 11
545.3571607657389
 21
1227.368404400565
 31
0.0
 71
     5
 42
448.4973766185167
 73
     0
 74
     0
 75
     0
  3
Wagner$0
100
AcDbAlignedDimension
 13
502.7484465699217
 23
1003.119716091307
 33
0.0
 14
488.7484465699217
 24
1451.617092709824
 34
0.0
 50
270.0
100
AcDbRotatedDimension
1001
ACAD
1000
DSTYLE
1002
{
1070
    40
1040
5.0
1070
   271
1070
     2
1070
   272
1070
     2
1002
}
  0
LINE
  5
457
330
2
100
AcDbEntity
  8
03-01
100
AcDbLine
 10
205.7484465699217
 20
1413.258184122927
 30
0.0
 11
206.5484465699219
 21
1413.258184122927
 31
0.0
  0
LINE
  5
458
330
2
100
AcDbEntity
  8
03-01
100
AcDbLine
 10
190.7484465699217
 20
1451.617092709824
 30
0.0
 11
203.7484465699217
 21
1438.617092709824
 31
0.0
  0
LINE
  5
459
330
2
100
AcDbEntity
  8
03-01
100
AcDbLine
 10
205.7484465699217
 20
1246.503892785429
 30
0.0
 11
205.7484465699217
 21
1413.258184122927
 31
0.0
  0
LINE
  5
45A
330
2
100
AcDbEntity
  8
03-01
100
AcDbLine
 10
206.5484465699219
 20
1246.446068435062
 30
0.0
 11
206.5484465699219
 21
1413.258184122927
 31
0.0
  0
LINE
  5
45B
330
2
100
AcDbEntity
  8
03-01
100
AcDbLine
 10
206.5484465699219
 20
1154.177087756579
 30
0.0
 11
207.3484465699221
 21
1154.177087756579
 31
0.0
  0
LINE
  5
45C
330
2
100
AcDbEntity
  8
03-01
100
AcDbLine
 10
207.3484465699221
 20
1154.315041099811
 30
0.0
 11
207.3484465699221
 21
1168.815041099811
 31
0.0
  0
LINE
  5
45D
330
2
100
AcDbEntity
  8
0
100
AcDbLine
 10
217.3988263815277
 20
1135.131307921669
 30
0.0
 11
217.3988263815277
 21
1134.057179454751
 31
0.0
  0
ARC
  5
45E
330
2
100
AcDbEntity
  8
0
100
AcDbCircle
 10
220.3988263815277
 20
1134.057179454751
 30
0.0
 40
3.0
100
AcDbArc
 50
180.0
 51
268.8393506165795
  0
LINE
  5
45F
330
2
100
AcDbEntity
  8
0
100
AcDbLine
 10
217.3988263815272
 20
1136.541213468802
 30
0.0
 11
217.3988263815272
 21
1135.043656112319
 31
0.0
  0
ARC
  5
460
330
2
100
AcDbEntity
  8
0
100
AcDbCircle
 10
220.3988263815277
 20
1135.131307921669
 30
0.0
 40
3.0
100
AcDbArc
 50
91.32457210194537
 51
180.0
  0
LINE
  5
461
330
2
100
AcDbEntity
  8
03-01
100
AcDbLine
 10
206.5484465699219
 20
1119.4926243985
 30
0.0
 11
207.3484465699221
 21
1119.4926243985
 31
0.0
  0
LINE
  5
462
330
2
100
AcDbEntity
  8
03-01
100
AcDbLine
 10
206.5484465699219
 20
1120.5926243985
 30
0.0
 11
206.5484465699219
 21
1154.075120724354
 31
0.0
  0
ARC
  5
463
330
2
100
AcDbEntity
  8
0
100
AcDbCircle
 10
220.3988263815272
 20
1136.541213468802
 30
0.0
 40
3.0
100
AcDbArc
 50
93.87582613199892
 51
179.9999999999902
  0
LINE
  5
464
330
2
100
AcDbEntity
  8
03-01
100
AcDbLine
 10
193.5484465699219
 20
1154.075120724354
 30
0.0
 11
206.5484465699219
 21
1154.075120724354
 31
0.0
  0
LINE
  5
465
330
2
100
AcDbEntity
  8
05-01
100
AcDbLine
 10
226.7484465699217
 20
1007.968110094477
 30
0.0
 11
226.7484465699217
 21
998.9848429766938
 31
0.0
  0
LINE
  5
466
330
2
100
AcDbEntity
  8
03-01
100
AcDbLine
 10
192.7484465699217
 20
1020.094813021039
 30
0.0
 11
206.5484465699219
 21
1020.094813021039
 31
0.0
  0
LINE
  5
467
330
2
100
AcDbEntity
  8
0
100
AcDbLine
 10
203.7668869316203
 20
1004.119716091307
 30
0.0
 11
203.7668869316203
 21
994.9197160913081
 31
0.0
  0
LINE
  5
468
330
2
100
AcDbEntity
  8
01-01
100
AcDbLine
 10
203.7484465699217
 20
1003.117092709826
 30
0.0
 11
203.7484465699217
 21
994.1338255920427
 31
0.0
  0
DIMENSION
  5
469
330
2
100
AcDbEntity
  8
09-01
100
AcDbDimension
280
     0
  2
*D3
 10
158.3406050804302
 20
994.119716091307
 30
0.0
 11
147.09060508043
 21
983.6197160913073
 31
0.0
 71
     5
 42
20.99999999999932
 73
     0
 74
     0
 75
     0
  3
Wagner$0
100
AcDbAlignedDimension
 13
200.7484465699216
 23
973.1197160913078
 33
0.0
 14
191.7668869316202
 24
994.119716091307
 34
0.0
 50
270.0
100
AcDbRotatedDimension
1001
ACAD
1000
DSTYLE
1002
{
1070
    40
1040
5.0
1070
   271
1070
     2
1070
   272
1070
     2
1002
}
  0
LINE
  5
478
330
2
100
AcDbEntity
  8
03-01
100
AcDbLine
 10
193.5484465699219
 20
1154.075120724354
 30
0.0
 11
193.5484465699219
 21
1020.094813021039
 31
0.0
  0
LINE
  5
479
330
2
100
AcDbEntity
  8
03-01
100
AcDbLine
 10
205.7484465699217
 20
1020.094813021039
 30
0.0
 11
205.7484465699217
 21
1153.075120724354
 31
0.0
  0
LINE
  5
47A
330
2
100
AcDbEntity
  8
0
100
AcDbLine
 10
205.7484465699217
 20
1019.619716091307
 30
0.0
 11
205.7484465699217
 21
1154.600023794623
 31
0.0
  0
LINE
  5
47B
330
2
100
AcDbEntity
  8
0
100
AcDbLine
 10
206.5484465699224
 20
1020.457554380784
 30
0.0
 11
206.5484465699219
 21
1153.800023794622
 31
0.0
  0
LINE
  5
47C
330
2
100
AcDbEntity
  8
0
100
AcDbLine
 10
190.7484465699217
 20
1451.617092709824
 30
0.0
 11
190.7484465699216
 21
403.6170927098239
 31
0.0
  0
LINE
  5
47D
330
2
100
AcDbEntity
  8
0
100
AcDbLine
 10
191.7484465699219
 20
1451.117092709824
 30
0.0
 11
191.7484465699217
 21
1003.119716091307
 31
0.0
  0
LINE
  5
47E
330
2
100
AcDbEntity
  8
03-01
100
AcDbLine
 10
192.7484465699217
 20
1450.117092709824
 30
0.0
 11
192.7484465699217
 21
1004.296045194366
 31
0.0
  0
LINE
  5
47F
330
2
100
AcDbEntity
  8
03-01
100
AcDbLine
 10
205.7484465699217
 20
1153.457013085284
 30
0.0
 11
205.7484465699217
 21
1246.503892785429
 31
0.0
  0
LINE
  5
480
330
2
100
AcDbEntity
  8
03-01
100
AcDbLine
 10
206.5484465699219
 20
1246.446068435062
 30
0.0
 11
206.5484465699219
 21
1154.457013085284
 31
0.0
  0
LINE
  5
481
330
2
100
AcDbEntity
  8
03-01
100
AcDbLine
 10
203.7484465699222
 20
1438.617092709824
 30
0.0
 11
203.7484465699217
 21
1004.981941713032
 31
0.0
  0
LINE
  5
482
330
2
100
AcDbEntity
  8
03-01
100
AcDbLine
 10
203.7668869316203
 20
982.1197160913072
 30
0.0
 11
475.7484465699217
 21
982.1197160913081
 31
0.0
  0
LINE
  5
483
330
2
100
AcDbEntity
  8
03-01
100
AcDbLine
 10
192.7484465699217
 20
992.9197160913082
 30
0.0
 11
486.7484465699217
 21
993.1296462776934
 31
0.0
  0
LINE
  5
484
330
2
100
AcDbEntity
  8
0
100
AcDbLine
 10
205.7484465699217
 20
973.1197160913078
 30
0.0
 11
473.7484465699217
 21
973.1197160913081
 31
0.0
  0
LINE
  5
485
330
2
100
AcDbEntity
  8
03-01
100
AcDbLine
 10
192.7484465699222
 20
992.9197160913078
 30
0.0
 11
486.7484465699215
 21
993.1296462776934
 31
0.0
  0
LINE
  5
486
330
2
100
AcDbEntity
  8
0
100
AcDbLine
 10
190.7484465699217
 20
1451.617092709824
 30
0.0
 11
488.7484465699217
 21
1451.617092709824
 31
0.0
  0
LINE
  5
487
330
2
100
AcDbEntity
  8
05-01
100
AcDbLine
 10
217.3988263815277
 20
1134.21235132728
 30
0.0
 11
463.0136037428701
 21
1134.21235132728
 31
0.0
  0
ARC
  5
488
330
2
100
AcDbEntity
  8
0
100
AcDbCircle
 10
335.9489783673293
 20
-569.0137475566043
 30
0.0
 40
1712.464700630674
100
AcDbArc
 50
85.86426537076306
 51
93.87582613200867
  0
LINE
  5
489
330
2
100
AcDbEntity
  8
03-01
100
AcDbLine
 10
207.3484465699221
 20
1119.230830055768
 30
0.0
 11
251.2484465699217
 21
1119.230830055768
 31
0.0
  0
LINE
  5
48A
330
2
100
AcDbEntity
  8
0
100
AcDbLine
 10
205.7484465699217
 20
1019.619716091307
 30
0.0
 11
473.7484465699217
 21
1019.619716091307
 31
0.0
  0
LINE
  5
48B
330
2
100
AcDbEntity
  8
0
100
AcDbLine
 10
205.7484465699217
 20
1056.09805100765
 30
0.0
 11
472.9484465699219
 21
1056.09805100765
 31
0.0
  0
LINE
  5
48C
330
2
100
AcDbEntity
  8
0
100
AcDbLine
 10
206.5484465699219
 20
1118.815975162917
 30
0.0
 11
472.9484465699222
 21
1118.815975162917
 31
0.0
  0
ARC
  5
48D
330
2
100
AcDbEntity
  8
0
100
AcDbCircle
 10
337.3081520332566
 20
6904.529106781644
 30
0.0
 40
5774.656092881144
100
AcDbArc
 50
268.8393506165828
 51
271.2101102925956
  0
ARC
  5
48E
330
2
100
AcDbEntity
  8
0
100
AcDbCircle
 10
339.7988263815266
 20
-4028.72295017605
 30
0.0
 40
5168.234472787655
100
AcDbArc
 50
88.67542789805133
 51
91.32457210194864
  0
LINE
  5
48F
330
2
100
AcDbEntity
  8
03-01
100
AcDbLine
 10
207.3484465699221
 20
1168.815041099811
 30
0.0
 11
472.1484465699222
 21
1168.815041099811
 31
0.0
  0
LINE
  5
490
330
2
100
AcDbEntity
  8
0
100
AcDbLine
 10
191.7484465699217
 20
1003.119716091307
 30
0.0
 11
487.7484465699217
 21
1003.119716091307
 31
0.0
  0
LINE
  5
491
330
2
100
AcDbEntity
  8
0
100
AcDbLine
 10
206.5484465699224
 20
1020.457554380784
 30
0.0
 11
473.7484465699221
 21
1020.476705381968
 31
0.0
  0
LINE
  5
492
330
2
100
AcDbEntity
  8
0
100
AcDbLine
 10
487.7484465699217
 20
994.119716091307
 30
0.0
 11
191.7668869316203
 21
994.119716091307
 31
0.0
  0
LINE
  5
493
330
2
100
AcDbEntity
  8
03-01
100
AcDbLine
 10
486.7484465699217
 20
1004.296045194366
 30
0.0
 11
215.3704956532183
 21
1004.296045194366
 31
0.0
  0
LINE
  5
494
330
2
100
AcDbEntity
  8
03-01
100
AcDbLine
 10
487.7484465699217
 20
1004.296045194366
 30
0.0
 11
192.7484465699217
 21
1004.296045194366
 31
0.0
  0
LINE
  5
495
330
2
100
AcDbEntity
  8
03-01
100
AcDbLine
 10
203.7484465699222
 20
1438.617092709824
 30
0.0
 11
475.7484465699217
 21
1438.617092709824
 31
0.0
  0
LINE
  5
496
330
2
100
AcDbEntity
  8
0
100
AcDbLine
 10
205.7484465699217
 20
1154.600023794623
 30
0.0
 11
473.7484465699217
 21
1154.600023794622
 31
0.0
  0
LINE
  5
497
330
2
100
AcDbEntity
  8
0
100
AcDbLine
 10
206.5484465699219
 20
1153.800023794622
 30
0.0
 11
472.9484465699224
 21
1153.800023794622
 31
0.0
  0
LINE
  5
498
330
2
100
AcDbEntity
  8
03-01
100
AcDbLine
 10
206.5484465699219
 20
1413.258184122927
 30
0.0
 11
251.2484465699217
 21
1413.258184122927
 31
0.0
  0
LINE
  5
499
330
2
100
AcDbEntity
  8
0
100
AcDbLine
 10
191.7484465699219
 20
1451.117092709824
 30
0.0
 11
487.7484465699217
 21
1451.117092709824
 31
0.0
  0
LINE
  5
49A
330
2
100
AcDbEntity
  8
03-01
100
AcDbLine
 10
192.7484465699217
 20
1450.117092709824
 30
0.0
 11
486.7484465699217
 21
1450.117092709824
 31
0.0
  0
LINE
  5
49B
330
2
100
AcDbEntity
  8
03-01
100
AcDbLine
 10
473.7484465699217
 20
846.5024987146055
 30
0.0
 11
473.7484465699217
 21
816.630128020199
 31
0.0
  0
LINE
  5
49C
330
2
100
AcDbEntity
  8
03-01
100
AcDbLine
 10
475.3517397708629
 20
713.017092709826
 30
0.0
 11
467.3454862792413
 21
713.017092709826
 31
0.0
  0
LINE
  5
49D
330
2
100
AcDbEntity
  8
0
100
AcDbLine
 10
465.7517397708629
 20
707.6170927098265
 30
0.0
 11
465.7517397708629
 21
705.6170927098264
 31
0.0
  0
LINE
  5
49E
330
2
100
AcDbEntity
  8
03-01
100
AcDbLine
 10
475.3517397708629
 20
713.017092709826
 30
0.0
 11
467.3454862792413
 21
713.017092709826
 31
0.0
  0
LINE
  5
49F
330
2
100
AcDbEntity
  8
0
100
AcDbLine
 10
457.7517397708629
 20
705.6170927098264
 30
0.0
 11
457.7517397708629
 21
707.6170927098265
 31
0.0
  0
LINE
  5
4A0
330
2
100
AcDbEntity
  8
05-01
100
AcDbLine
 10
455.5017397708629
 20
706.6170927098264
 30
0.0
 11
468.0017397708625
 21
706.6170927098264
 31
0.0
  0
LINE
  5
4A1
330
2
100
AcDbEntity
  8
0
100
AcDbLine
 10
457.7517397708629
 20
707.6170927098265
 30
0.0
 11
465.7517397708629
 21
707.6170927098265
 31
0.0
  0
LINE
  5
4A2
330
2
100
AcDbEntity
  8
0
100
AcDbLine
 10
465.7517397708629
 20
705.6170927098264
 30
0.0
 11
457.7517397708629
 21
705.6170927098264
 31
0.0
  0
LINE
  5
4A3
330
2
100
AcDbEntity
  8
03-01
100
AcDbLine
 10
456.6782794132763
 20
712.8670927098269
 30
0.0
 11
466.8252001284495
 21
712.8670927098269
 31
0.0
  0
LINE
  5
4A4
330
2
100
AcDbEntity
  8
03-01
100
AcDbLine
 10
475.3517397708629
 20
700.2170927098268
 30
0.0
 11
467.3454862792418
 21
700.2170927098268
 31
0.0
  0
LINE
  5
4A5
330
2
100
AcDbEntity
  8
03-01
100
AcDbLine
 10
456.6782794132763
 20
700.3670927098269
 30
0.0
 11
466.8252001284495
 21
700.3670927098269
 31
0.0
  0
ARC
  5
4A6
330
2
100
AcDbEntity
  8
03-01
100
AcDbCircle
 10
461.7517397708629
 20
706.6170927098269
 30
0.0
 40
8.049999999999998
100
AcDbArc
 50
309.0680914837467
 51
50.93190851625329
  0
ARC
  5
4A7
330
2
100
AcDbEntity
  8
03-01
100
AcDbCircle
 10
461.7517397708629
 20
706.6170927098269
 30
0.0
 40
8.049999999999998
100
AcDbArc
 50
129.0680914837466
 51
230.9319085162529
  0
CIRCLE
  5
4A8
330
2
100
AcDbEntity
  8
0
100
AcDbCircle
 10
461.7517397708629
 20
706.6170927098264
 30
0.0
 40
8.5
  0
ARC
  5
4A9
330
2
100
AcDbEntity
  8
03-01
100
AcDbCircle
 10
475.3517397708629
 20
706.6170927098264
 30
0.0
 40
6.399999999999977
100
AcDbArc
 50
270.0
 51
90.0
  0
CIRCLE
  5
4AA
330
2
100
AcDbEntity
  8
0
100
AcDbCircle
 10
461.7517397708629
 20
706.6170927098264
 30
0.0
 40
8.0
  0
DIMENSION
  5
4AB
330
2
100
AcDbEntity
  8
09-01
100
AcDbDimension
280
     0
  2
*D0
 10
488.7484465699217
 20
736.7822361127132
 30
0.0
 11
514.7484465699217
 21
749.3334307322284
 31
0.0
 70
   128
 71
     5
 42
26.99670679905876
 73
     0
 74
     0
 75
     0
  3
Wagner$0
100
AcDbAlignedDimension
 13
461.7517397708629
 23
727.6492690065229
 33
0.0
 14
488.7484465699217
 24
727.6492690065229
 34
0.0
100
AcDbRotatedDimension
1001
ACAD
1000
DSTYLE
1002
{
1070
    40
1040
5.0
1070
   271
1070
     2
1070
   272
1070
     2
1002
}
  0
LINE
  5
4BA
330
2
100
AcDbEntity
  8
0
100
AcDbLine
 10
487.7484465699217
 20
270.7766619451522
 30
0.0
 11
487.7484465699217
 21
280.7766619451522
 31
0.0
  0
LINE
  5
4BB
330
2
100
AcDbEntity
  8
03-01
100
AcDbLine
 10
486.7484465699217
 20
271.7766619451522
 30
0.0
 11
486.7484465699217
 21
280.7766619451522
 31
0.0
  0
LINE
  5
4BC
330
2
100
AcDbEntity
  8
03-01
100
AcDbLine
 10
475.514843306777
 20
283.7866443617043
 30
0.0
 11
474.8940656699792
 21
283.3396555058619
 31
0.0
  0
LINE
  5
4BD
330
2
100
AcDbEntity
  8
03-01
100
AcDbLine
 10
475.514843306777
 20
283.7866443617043
 30
0.0
 11
480.014843306777
 21
283.7866443617043
 31
0.0
  0
LINE
  5
4BE
330
2
100
AcDbEntity
  8
03-01
100
AcDbLine
 10
455.348446569922
 20
283.7866443617043
 30
0.0
 11
468.1484465699218
 21
283.7866443617043
 31
0.0
  0
LINE
  5
4BF
330
2
100
AcDbEntity
  8
03-01
100
AcDbLine
 10
480.014843306777
 20
281.7866443617043
 30
0.0
 11
475.514843306777
 21
281.7866443617043
 31
0.0
  0
LINE
  5
4C0
330
2
100
AcDbEntity
  8
01-01
100
AcDbLine
 10
475.514843306777
 20
281.7866443617043
 30
0.0
 11
474.8940656699796
 21
281.3396555058618
 31
0.0
  0
LINE
  5
4C1
330
2
100
AcDbEntity
  8
03-01
100
AcDbLine
 10
467.4077088010435
 20
271.8028450711579
 30
0.0
 11
467.4077088010435
 21
274.8028450711579
 31
0.0
  0
LINE
  5
4C2
330
2
100
AcDbEntity
  8
03-01
100
AcDbLine
 10
467.4077088010435
 20
278.8028450711579
 30
0.0
 11
467.4077088010435
 21
280.8028450711579
 31
0.0
  0
LINE
  5
4C3
330
2
100
AcDbEntity
  8
03-01
100
AcDbLine
 10
464.3077088010436
 20
275.8028450711579
 30
0.0
 11
464.3077088010436
 21
272.5724901642516
 31
0.0
  0
LINE
  5
4C4
330
2
100
AcDbEntity
  8
03-01
100
AcDbLine
 10
467.4077088010435
 20
274.8028450711579
 30
0.0
 11
467.4077088010435
 21
278.8028450711579
 31
0.0
  0
LINE
  5
4C5
330
2
100
AcDbEntity
  8
0
100
AcDbLine
 10
469.8988576945748
 20
265.7866443617042
 30
0.0
 11
470.3988576945748
 21
266.2866443617042
 31
0.0
  0
LINE
  5
4C6
330
2
100
AcDbEntity
  8
03-01
100
AcDbLine
 10
468.1484465699213
 20
274.7866443617042
 30
0.0
 11
468.1484465699218
 21
271.7866443617042
 31
0.0
  0
LINE
  5
4C7
330
2
100
AcDbEntity
  8
03-01
100
AcDbLine
 10
471.2484465699217
 20
275.7866443617043
 30
0.0
 11
471.2484465699217
 21
272.557210410537
 31
0.0
  0
LINE
  5
4C8
330
2
100
AcDbEntity
  8
0
100
AcDbLine
 10
470.3988576945748
 20
266.2866443617042
 30
0.0
 11
470.3988576945748
 21
270.7866443617042
 31
0.0
  0
LINE
  5
4C9
330
2
100
AcDbEntity
  8
03-01
100
AcDbLine
 10
466.348446569922
 20
278.7866443617042
 30
0.0
 11
466.348446569922
 21
280.7866443617042
 31
0.0
  0
LINE
  5
4CA
330
2
100
AcDbEntity
  8
03-01
100
AcDbLine
 10
474.8940656699796
 20
281.3396555058618
 30
0.0
 11
471.348446569922
 21
278.7866443617042
 31
0.0
  0
LINE
  5
4CB
330
2
100
AcDbEntity
  8
03-01
100
AcDbLine
 10
475.7484465699217
 20
280.7766619451522
 30
0.0
 11
475.7484465699217
 21
281.5766619451522
 31
0.0
  0
LINE
  5
4CC
330
2
100
AcDbEntity
  8
0
100
AcDbLine
 10
453.3988576945748
 20
266.2866443617047
 30
0.0
 11
453.8988576945748
 21
265.7866443617047
 31
0.0
  0
LINE
  5
4CD
330
2
100
AcDbEntity
  8
03-01
100
AcDbLine
 10
455.348446569922
 20
271.7866443617042
 30
0.0
 11
455.348446569922
 21
274.7866443617042
 31
0.0
  0
LINE
  5
4CE
330
2
100
AcDbEntity
  8
03-01
100
AcDbLine
 10
452.2484465699217
 20
275.7866443617043
 30
0.0
 11
452.2484465699217
 21
272.5562894547981
 31
0.0
  0
LINE
  5
4CF
330
2
100
AcDbEntity
  8
0
100
AcDbLine
 10
453.3988576945748
 20
266.2866443617047
 30
0.0
 11
453.3988576945748
 21
270.7866443617042
 31
0.0
  0
LINE
  5
4D0
330
2
100
AcDbEntity
  8
03-01
100
AcDbLine
 10
455.348446569922
 20
278.7866443617042
 30
0.0
 11
455.348446569922
 21
280.7866443617042
 31
0.0
  0
LINE
  5
4D1
330
2
100
AcDbEntity
  8
03-01
100
AcDbLine
 10
455.348446569922
 20
274.7866443617042
 30
0.0
 11
455.348446569922
 21
278.7866443617042
 31
0.0
  0
LINE
  5
4D2
330
2
100
AcDbEntity
  8
0
100
AcDbLine
 10
453.8988576945748
 20
265.7866443617047
 30
0.0
 11
469.8988576945748
 21
265.7866443617042
 31
0.0
  0
LINE
  5
4D3
330
2
100
AcDbEntity
  8
0
100
AcDbLine
 10
453.3988576945748
 20
266.2866443617047
 30
0.0
 11
470.3988576945748
 21
266.2866443617042
 31
0.0
  0
LINE
  5
4D4
330
2
100
AcDbEntity
  8
03-01
100
AcDbLine
 10
452.2484465699217
 20
275.7866443617043
 30
0.0
 11
471.2484465699217
 21
275.7866443617043
 31
0.0
  0
LINE
  5
4D5
330
2
100
AcDbEntity
  8
03-01
100
AcDbLine
 10
474.8940656699796
 20
272.5562894547981
 30
0.0
 11
448.8940656699797
 21
272.5562894547981
 31
0.0
  0
LINE
  5
4D6
330
2
100
AcDbEntity
  8
03-01
100
AcDbLine
 10
455.348446569922
 20
281.7866443617043
 30
0.0
 11
468.1484465699218
 21
281.7866443617043
 31
0.0
  0
LINE
  5
4D7
330
2
100
AcDbEntity
  8
03-01
100
AcDbLine
 10
455.348446569922
 20
280.7866443617042
 30
0.0
 11
471.348446569922
 21
280.7866443617042
 31
0.0
  0
LINE
  5
4D8
330
2
100
AcDbEntity
  8
03-01
100
AcDbLine
 10
455.348446569922
 20
278.7866443617042
 30
0.0
 11
471.348446569922
 21
278.7866443617042
 31
0.0
  0
LINE
  5
4D9
330
2
100
AcDbEntity
  8
03-01
100
AcDbLine
 10
480.014843306777
 20
283.7866443617043
 30
0.0
 11
480.014843306777
 21
281.7866443617043
 31
0.0
  0
LINE
  5
4DA
330
2
100
AcDbEntity
  8
03-01
100
AcDbLine
 10
467.4077088010435
 20
280.8028450711579
 30
0.0
 11
467.4077088010435
 21
283.8028450711579
 31
0.0
  0
LINE
  5
4DB
330
2
100
AcDbEntity
  8
03-01
100
AcDbLine
 10
455.348446569922
 20
280.7866443617042
 30
0.0
 11
455.348446569922
 21
283.7866443617043
 31
0.0
  0
LINE
  5
4DC
330
2
100
AcDbEntity
  8
03-01
100
AcDbLine
 10
474.8940656699792
 20
283.3396555058619
 30
0.0
 11
471.348446569922
 21
280.7866443617042
 31
0.0
  0
LINE
  5
4DD
330
2
100
AcDbEntity
  8
05-01
100
AcDbLine
 10
461.7484465699217
 20
283.7866443617043
 30
0.0
 11
461.7484465699217
 21
263.8106103972875
 31
0.0
  0
LINE
  5
4DE
330
2
100
AcDbEntity
  8
03-01
100
AcDbLine
 10
468.1484465699218
 20
283.7866443617043
 30
0.0
 11
468.1484465699218
 21
274.7866443617042
 31
0.0
  0
LINE
  5
4DF
330
2
100
AcDbEntity
  8
03-01
100
AcDbLine
 10
487.948446569922
 20
281.5766619451522
 30
0.0
 11
487.948446569922
 21
389.9766619451523
 31
0.0
  0
LINE
  5
4E0
330
2
100
AcDbEntity
  8
0
100
AcDbLine
 10
488.7484465699217
 20
280.7766619451522
 30
0.0
 11
488.7484465699217
 21
390.7766619451522
 31
0.0
  0
LINE
  5
4E1
330
2
100
AcDbEntity
  8
03-01
100
AcDbLine
 10
333.3886578044921
 20
283.7766619451524
 30
0.0
 11
346.1886578044923
 21
283.7766619451524
 31
0.0
  0
LINE
  5
4E2
330
2
100
AcDbEntity
  8
01-01
100
AcDbLine
 10
346.1886578044923
 20
271.7766619451524
 30
0.0
 11
346.1886578044923
 21
270.7766619451525
 31
0.0
  0
LINE
  5
4E3
330
2
100
AcDbEntity
  8
0
100
AcDbLine
 10
347.7484465699217
 20
265.7766619451525
 30
0.0
 11
348.2484465699217
 21
266.2766619451525
 31
0.0
  0
LINE
  5
4E4
330
2
100
AcDbEntity
  8
0
100
AcDbLine
 10
348.2484465699217
 20
266.2766619451525
 30
0.0
 11
348.2484465699217
 21
270.7766619451525
 31
0.0
  0
LINE
  5
4E5
330
2
100
AcDbEntity
  8
03-01
100
AcDbLine
 10
346.1886578044919
 20
274.7766619451525
 30
0.0
 11
346.1886578044923
 21
271.7766619451524
 31
0.0
  0
LINE
  5
4E6
330
2
100
AcDbEntity
  8
03-01
100
AcDbLine
 10
349.2886578044922
 20
274.7766619451525
 30
0.0
 11
349.2886578044922
 21
271.7766619451524
 31
0.0
  0
LINE
  5
4E7
330
2
100
AcDbEntity
  8
01-01
100
AcDbLine
 10
333.3886578044921
 20
270.7766619451525
 30
0.0
 11
333.3886578044921
 21
271.7766619451524
 31
0.0
  0
LINE
  5
4E8
330
2
100
AcDbEntity
  8
0
100
AcDbLine
 10
331.2484465699217
 20
266.2766619451525
 30
0.0
 11
331.7484465699217
 21
265.7766619451525
 31
0.0
  0
LINE
  5
4E9
330
2
100
AcDbEntity
  8
0
100
AcDbLine
 10
331.2484465699217
 20
266.2766619451525
 30
0.0
 11
331.2484465699217
 21
270.7766619451525
 31
0.0
  0
LINE
  5
4EA
330
2
100
AcDbEntity
  8
03-01
100
AcDbLine
 10
333.3886578044921
 20
271.7766619451524
 30
0.0
 11
333.3886578044921
 21
274.7766619451525
 31
0.0
  0
LINE
  5
4EB
330
2
100
AcDbEntity
  8
03-01
100
AcDbLine
 10
330.2886578044923
 20
274.7766619451525
 30
0.0
 11
330.2886578044923
 21
271.7766619451524
 31
0.0
  0
LINE
  5
4EC
330
2
100
AcDbEntity
  8
0
100
AcDbLine
 10
348.2484465699217
 20
270.7766619451525
 30
0.0
 11
331.2484465699217
 21
270.7766619451525
 31
0.0
  0
LINE
  5
4ED
330
2
100
AcDbEntity
  8
0
100
AcDbLine
 10
331.7484465699217
 20
265.7766619451525
 30
0.0
 11
347.7484465699217
 21
265.7766619451525
 31
0.0
  0
LINE
  5
4EE
330
2
100
AcDbEntity
  8
0
100
AcDbLine
 10
331.2484465699217
 20
266.2766619451525
 30
0.0
 11
348.2484465699217
 21
266.2766619451525
 31
0.0
  0
LINE
  5
4EF
330
2
100
AcDbEntity
  8
03-01
100
AcDbLine
 10
330.2886578044923
 20
274.7766619451525
 30
0.0
 11
349.2886578044922
 21
274.7766619451525
 31
0.0
  0
LINE
  5
4F0
330
2
100
AcDbEntity
  8
03-01
100
AcDbLine
 10
333.3886578044921
 20
278.7766619451525
 30
0.0
 11
346.1886578044923
 21
278.7766619451525
 31
0.0
  0
LINE
  5
4F1
330
2
100
AcDbEntity
  8
03-01
100
AcDbLine
 10
333.3886578044921
 20
281.7766619451525
 30
0.0
 11
346.1886578044923
 21
281.7766619451525
 31
0.0
  0
LINE
  5
4F2
330
2
100
AcDbEntity
  8
05-01
100
AcDbLine
 10
339.7484465699217
 20
259.8043838237881
 30
0.0
 11
339.7484465699217
 21
295.2423884154548
 31
0.0
  0
LINE
  5
4F3
330
2
100
AcDbEntity
  8
03-01
100
AcDbLine
 10
346.1886578044923
 20
283.7766619451524
 30
0.0
 11
346.1886578044923
 21
274.7766619451525
 31
0.0
  0
LINE
  5
4F4
330
2
100
AcDbEntity
  8
03-01
100
AcDbLine
 10
333.3886578044921
 20
274.7766619451525
 30
0.0
 11
333.3886578044921
 21
283.7766619451524
 31
0.0
  0
LINE
  5
4F5
330
2
100
AcDbEntity
  8
03-01
100
AcDbLine
 10
486.7484465699217
 20
665.8863366786549
 30
0.0
 11
486.7484465699217
 21
405.6170927098239
 31
0.0
  0
LINE
  5
4F6
330
2
100
AcDbEntity
  8
03-01
100
AcDbLine
 10
205.7484465699217
 20
850.1201280201989
 30
0.0
 11
205.7484465699217
 21
836.6301280201989
 31
0.0
  0
LINE
  5
4F7
330
2
100
AcDbEntity
  8
0
100
AcDbLine
 10
203.7484465699217
 20
281.5766619451522
 30
0.0
 11
203.7484465699217
 21
280.7766619451522
 31
0.0
  0
LINE
  5
4F8
330
2
100
AcDbEntity
  8
0
100
AcDbLine
 10
191.7484465699217
 20
280.7766619451522
 30
0.0
 11
191.7484465699217
 21
270.7766619451522
 31
0.0
  0
LINE
  5
4F9
330
2
100
AcDbEntity
  8
03-01
100
AcDbLine
 10
192.7484465699217
 20
280.7766619451522
 30
0.0
 11
192.7484465699217
 21
271.7766619451522
 31
0.0
  0
LINE
  5
4FA
330
2
100
AcDbEntity
  8
03-01
100
AcDbLine
 10
191.5484465699219
 20
389.9766619451523
 30
0.0
 11
191.5484465699219
 21
281.5766619451522
 31
0.0
  0
LINE
  5
4FB
330
2
100
AcDbEntity
  8
0
100
AcDbLine
 10
190.7484465699217
 20
390.7766619451522
 30
0.0
 11
190.7484465699217
 21
280.7766619451522
 31
0.0
  0
LINE
  5
4FC
330
2
100
AcDbEntity
  8
03-01
100
AcDbLine
 10
205.7484465699217
 20
836.6301280201989
 30
0.0
 11
473.7484465699217
 21
836.6301280201989
 31
0.0
  0
LINE
  5
4FD
330
2
100
AcDbEntity
  8
03-01
100
AcDbLine
 10
205.7484465699217
 20
816.630128020199
 30
0.0
 11
473.7484465699217
 21
816.630128020199
 31
0.0
  0
LINE
  5
4FE
330
2
100
AcDbEntity
  8
03-01
100
AcDbLine
 10
205.7484465699217
 20
854.0521692141613
 30
0.0
 11
473.7484465699217
 21
854.0521692141613
 31
0.0
  0
LINE
  5
4FF
330
2
100
AcDbEntity
  8
03-01
100
AcDbLine
 10
205.7484465699217
 20
839.5089477480663
 30
0.0
 11
473.7484465699217
 21
839.5089477480663
 31
0.0
  0
LINE
  5
500
330
2
100
AcDbEntity
  8
03-01
100
AcDbLine
 10
205.7484465699217
 20
846.6301280201989
 30
0.0
 11
473.7484465699217
 21
846.6301280201989
 31
0.0
  0
LINE
  5
501
330
2
100
AcDbEntity
  8
0
100
AcDbLine
 10
190.7484465699217
 20
403.6170927098239
 30
0.0
 11
488.7484465699217
 21
403.6170927098239
 31
0.0
  0
LINE
  5
502
330
2
100
AcDbEntity
  8
01-01
100
AcDbLine
 10
190.7484465699217
 20
403.6170927098239
 30
0.0
 11
488.7484465699217
 21
403.6170927098239
 31
0.0
  0
LINE
  5
503
330
2
100
AcDbEntity
  8
01-01
100
AcDbLine
 10
190.7484465699217
 20
403.6170927098239
 30
0.0
 11
488.7484465699217
 21
403.6170927098239
 31
0.0
  0
LINE
  5
504
330
2
100
AcDbEntity
  8
0
100
AcDbLine
 10
205.7484465699217
 20
850.1201280201989
 30
0.0
 11
473.7484465699217
 21
850.1201280201982
 31
0.0
  0
LINE
  5
505
330
2
100
AcDbEntity
  8
0
100
AcDbLine
 10
487.7484465699217
 20
280.7766619451522
 30
0.0
 11
191.7484465699217
 21
280.7766619451522
 31
0.0
  0
LINE
  5
506
330
2
100
AcDbEntity
  8
0
100
AcDbLine
 10
191.7484465699217
 20
270.7766619451522
 30
0.0
 11
487.7484465699217
 21
270.7766619451522
 31
0.0
  0
LINE
  5
507
330
2
100
AcDbEntity
  8
03-01
100
AcDbLine
 10
192.7484465699217
 20
271.7766619451522
 30
0.0
 11
486.7484465699217
 21
271.7766619451522
 31
0.0
  0
LINE
  5
508
330
2
100
AcDbEntity
  8
03-01
100
AcDbLine
 10
487.948446569922
 20
389.9766619451523
 30
0.0
 11
191.5484465699219
 21
389.9766619451523
 31
0.0
  0
LINE
  5
509
330
2
100
AcDbEntity
  8
03-01
100
AcDbLine
 10
191.5484465699219
 20
281.5766619451522
 30
0.0
 11
487.948446569922
 21
281.5766619451522
 31
0.0
  0
LINE
  5
50A
330
2
100
AcDbEntity
  8
0
100
AcDbLine
 10
488.7484465699217
 20
390.7766619451522
 30
0.0
 11
190.7484465699217
 21
390.7766619451522
 31
0.0
  0
LINE
  5
50B
330
2
100
AcDbEntity
  8
01-01
100
AcDbLine
 10
190.7484465699217
 20
280.7766619451522
 30
0.0
 11
488.7484465699217
 21
280.7766619451522
 31
0.0
  0
LINE
  5
50C
330
2
100
AcDbEntity
  8
03-01
100
AcDbLine
 10
192.7484465699217
 20
405.6170927098239
 30
0.0
 11
486.7484465699217
 21
405.6170927098239
 31
0.0
  0
LINE
  5
50D
330
2
100
AcDbEntity
  8
0
100
AcDbLine
 10
191.7668869316204
 20
404.6170927098239
 30
0.0
 11
487.7484465699216
 21
404.6170927098239
 31
0.0
  0
LINE
  5
50E
330
2
100
AcDbEntity
  8
0
100
AcDbLine
 10
473.7484465699217
 20
973.1197160913081
 30
0.0
 11
473.7484465699217
 21
850.1201280201982
 31
0.0
  0
LINE
  5
50F
330
2
100
AcDbEntity
  8
0
100
AcDbLine
 10
205.7484465699217
 20
973.1197160913078
 30
0.0
 11
205.7484465699217
 21
850.1201280201989
 31
0.0
  0
LINE
  5
510
330
2
100
AcDbEntity
  8
0
100
AcDbLine
 10
191.7668869316203
 20
994.119716091307
 30
0.0
 11
191.7668869316204
 21
404.6170927098239
 31
0.0
  0
LINE
  5
511
330
2
100
AcDbEntity
  8
0
100
AcDbLine
 10
487.7484465699217
 20
994.119716091307
 30
0.0
 11
487.7484465699216
 21
404.6170927098239
 31
0.0
  0
LINE
  5
512
330
2
100
AcDbEntity
  8
03-01
100
AcDbLine
 10
192.7484465699222
 20
992.9197160913078
 30
0.0
 11
192.7484465699217
 21
405.6170927098239
 31
0.0
  0
LINE
  5
513
330
2
100
AcDbEntity
  8
03-01
100
AcDbLine
 10
486.7484465699215
 20
993.1296462776934
 30
0.0
 11
486.7484465699217
 21
665.8863366786549
 31
0.0
  0
LINE
  5
514
330
2
100
AcDbEntity
  8
03-01
100
AcDbLine
 10
475.7484465699217
 20
993.9197160913082
 30
0.0
 11
475.7484465699217
 21
403.6170927098239
 31
0.0
  0
LINE
  5
515
330
2
100
AcDbEntity
  8
03-01
100
AcDbLine
 10
203.7668869316203
 20
993.9197160913082
 30
0.0
 11
203.7668869316203
 21
403.6170927098239
 31
0.0
  0
DIMENSION
  5
516
330
2
100
AcDbEntity
  8
09-01
100
AcDbDimension
280
     0
  2
*D6
 10
205.7484465699216
 20
906.8323747604361
 30
0.0
 11
339.7484465699217
 21
918.082374760436
 31
0.0
 71
     5
 42
268.0000000000001
 73
     0
 74
     0
 75
     0
  3
Wagner$0
100
AcDbAlignedDimension
 13
473.7484465699217
 23
887.1201280201983
 33
0.0
 14
205.7484465699216
 24
887.120128020199
 34
0.0
100
AcDbRotatedDimension
1001
ACAD
1000
DSTYLE
1002
{
1070
    40
1040
5.0
1070
   271
1070
     2
1070
   272
1070
     2
1002
}
  0
DIMENSION
  5
523
330
2
100
AcDbEntity
  8
09-01
100
AcDbDimension
280
     0
  2
*D4
 10
158.3406050804302
 20
850.1201280201989
 30
0.0
 11
147.0906050804301
 21
911.6199220557533
 31
0.0
 71
     5
 42
122.9995880711087
 73
     0
 74
     0
 75
     0
  3
Wagner$0
100
AcDbAlignedDimension
 13
205.7484465699216
 23
973.1197160913078
 33
0.0
 14
205.7484465699216
 24
850.1201280201989
 34
0.0
 50
270.0
100
AcDbRotatedDimension
1001
ACAD
1000
DSTYLE
1002
{
1070
    40
1040
5.0
1070
   271
1070
     2
1070
   272
1070
     2
1002
}
  0
DIMENSION
  5
530
330
2
100
AcDbEntity
  8
09-01
100
AcDbDimension
280
     0
  2
*D8
 10
488.7484465699217
 20
906.8323747604361
 30
0.0
 11
514.808817844163
 21
917.5625572551535
 31
0.0
 70
   128
 71
     5
 42
15.0
 73
     0
 74
     0
 75
     0
  3
Wagner$0
100
AcDbAlignedDimension
 13
473.7484465699217
 23
887.1201280201983
 33
0.0
 14
488.7484465699217
 24
887.1201280201987
 34
0.0
100
AcDbRotatedDimension
1001
ACAD
1000
DSTYLE
1002
{
1070
    40
1040
5.0
1070
   271
1070
     2
1070
   272
1070
     2
1002
}
  0
DIMENSION
  5
53F
330
2
100
AcDbEntity
  8
09-01
100
AcDbDimension
280
     0
  2
*D1
 10
556.6071607657391
 20
403.6170927098239
 30
0.0
 11
545.3571607657391
 21
698.8754591509336
 31
0.0
  1
590.5
 71
     5
 42
590.5167328822192
 73
     0
 74
     0
 75
     0
  3
Wagner$0
100
AcDbAlignedDimension
 13
502.7484465699218
 23
994.1338255920431
 33
0.0
 14
488.7484465699217
 24
403.6170927098239
 34
0.0
 50
270.0
100
AcDbRotatedDimension
1001
ACAD
1000
DSTYLE
1002
{
1070
    40
1040
5.0
1070
   271
1070
     2
1070
   272
1070
     2
1002
}
  0
DIMENSION
  5
54C
330
2
100
AcDbEntity
  8
01-01
100
AcDbDimension
280
     0
  2
*D2
 10
586.3880362022094
 20
403.6170927098239
 30
0.0
 11
575.1380362022092
 21
927.617092709824
 31
0.0
 71
     5
 42
1048.0
 73
     0
 74
     0
 75
     0
  3
Wagner$0
100
AcDbAlignedDimension
 13
493.7484465699217
 23
1451.617092709824
 33
0.0
 14
493.7484465699217
 24
403.6170927098239
 34
0.0
 50
270.0
100
AcDbRotatedDimension
1001
ACAD
1000
DSTYLE
1002
{
1070
    40
1040
5.0
1070
   271
1070
     2
1070
   272
1070
     2
1002
}
  0
ENDSEC
  0
SECTION
  2
OBJECTS
  0
DICTIONARY
  5
B
330
0
100
AcDbDictionary
281
     1
  3
ACAD_COLOR
350
4C
  3
ACAD_GROUP
350
39
  3
ACAD_LAYOUT
350
18
  3
ACAD_MATERIAL
350
D
  3
ACAD_MLEADERSTYLE
350
4F
  3
ACAD_MLINESTYLE
350
3A
  3
ACAD_PLOTSETTINGS
350
3B
  3
ACAD_PLOTSTYLENAME
350
A
  3
ACAD_SCALELIST
350
4D
  3
ACAD_TABLESTYLE
350
4E
  3
ACAD_VISUALSTYLE
350
2D
  3
ACDB_RECOMPOSE_DATA
350
566
  3
AcDbVariableDictionary
350
55C
  0
DICTIONARY
  5
2E
330
2A
100
AcDbDictionary
280
     1
281
     1
  0
DICTIONARY
  5
20
330
1F
100
AcDbDictionary
280
     1
281
     1
  3
ACAD_LAYERSTATES
360
21
  0
DICTIONARY
  5
7
330
6
100
AcDbDictionary
280
     1
281
     1
  3
ADSK_XREC_LAYER_RECONCILED
360
8
  0
DICTIONARY
  5
8F
330
8E
100
AcDbDictionary
280
     1
281
     1
  3
ADSK_XREC_LAYER_RECONCILED
360
90
  0
DICTIONARY
  5
89
330
88
100
AcDbDictionary
280
     1
281
     1
  3
ADSK_XREC_LAYER_RECONCILED
360
8A
  0
DICTIONARY
  5
80
330
7F
100
AcDbDictionary
280
     1
281
     1
  3
ADSK_XREC_LAYER_RECONCILED
360
81
  0
DICTIONARY
  5
51
330
50
100
AcDbDictionary
280
     1
281
     1
  3
ADSK_XREC_LAYER_RECONCILED
360
52
  0
DICTIONARY
  5
B0
330
AF
100
AcDbDictionary
280
     1
281
     1
  3
ADSK_XREC_LAYER_RECONCILED
360
B1
  0
DICTIONARY
  5
C4
330
C3
100
AcDbDictionary
280
     1
281
     1
  3
ADSK_XREC_LAYER_RECONCILED
360
C5
  0
DICTIONARY
  5
F1
330
F0
100
AcDbDictionary
280
     1
281
     1
  3
ADSK_XREC_LAYER_RECONCILED
360
F2
  0
DICTIONARY
  5
F8
330
F7
100
AcDbDictionary
280
     1
281
     1
  3
ADSK_XREC_LAYER_RECONCILED
360
F9
  0
DICTIONARY
  5
B7
330
B6
100
AcDbDictionary
280
     1
281
     1
  3
ADSK_XREC_LAYER_RECONCILED
360
B8
  0
DICTIONARY
  5
DB
330
DA
100
AcDbDictionary
280
     1
281
     1
  3
ADSK_XREC_LAYER_RECONCILED
360
DC
  0
DICTIONARY
  5
3
330
2
100
AcDbDictionary
280
     1
281
     1
  3
ACAD_SORTENTS
360
55B
  0
DICTIONARY
  5
AB
330
AA
100
AcDbDictionary
280
     1
281
     1
  3
ACAD_SORTENTS
360
559
  0
DICTIONARY
  5
7B
330
7A
100
AcDbDictionary
280
     1
281
     1
  3
ACAD_SORTENTS
360
55A
  0
DICTIONARY
  5
4C
102
{ACAD_REACTORS
330
B
102
}
330
B
100
AcDbDictionary
281
     1
  0
DICTIONARY
  5
39
102
{ACAD_REACTORS
330
B
102
}
330
B
100
AcDbDictionary
281
     1
  0
DICTIONARY
  5
18
102
{ACAD_REACTORS
330
B
102
}
330
B
100
AcDbDictionary
281
     1
  3
Layout1
350
1E
  3
Model
350
17
  0
DICTIONARY
  5
D
102
{ACAD_REACTORS
330
B
102
}
330
B
100
AcDbDictionary
281
     1
  3
ByBlock
350
44
  3
ByLayer
350
3C
  3
Global
350
C
  0
DICTIONARY
  5
4F
102
{ACAD_REACTORS
330
B
102
}
330
B
100
AcDbDictionary
281
     1
  0
DICTIONARY
  5
3A
102
{ACAD_REACTORS
330
B
102
}
330
B
100
AcDbDictionary
281
     1
  3
Standard
350
53
  0
DICTIONARY
  5
3B
102
{ACAD_REACTORS
330
B
102
}
330
B
100
AcDbDictionary
281
     1
  0
ACDBDICTIONARYWDFLT
  5
A
102
{ACAD_REACTORS
330
B
102
}
330
B
100
AcDbDictionary
281
     1
  3
Normal
350
9
100
AcDbDictionaryWithDefault
340
9
  0
DICTIONARY
  5
4D
102
{ACAD_REACTORS
330
B
102
}
330
B
100
AcDbDictionary
281
     1
  3
A0
350
58
  3
A1
350
59
  3
A2
350
5A
  3
A3
350
5B
  3
A4
350
5C
  3
A5
350
5D
  3
A6
350
5E
  3
A7
350
5F
  3
A8
350
60
  3
A9
350
61
  3
B0
350
62
  3
B1
350
63
  3
B2
350
64
  3
B3
350
65
  3
B4
350
66
  3
B5
350
67
  3
B6
350
68
  3
B7
350
69
  3
B8
350
6A
  3
B9
350
6B
  3
C0
350
6C
  3
C1
350
6D
  3
C2
350
6E
  3
C3
350
6F
  3
C4
350
70
  3
C5
350
71
  3
C6
350
72
  3
C7
350
73
  3
C8
350
74
  3
C9
350
75
  3
D0
350
76
  3
D1
350
77
  3
D2
350
78
  0
DICTIONARY
  5
4E
102
{ACAD_REACTORS
330
B
102
}
330
B
100
AcDbDictionary
281
     1
  3
Standard
350
54
  0
DICTIONARY
  5
2D
102
{ACAD_REACTORS
330
B
102
}
330
B
100
AcDbDictionary
281
     1
  3
2dWireframe
350
2C
  3
3dWireframe
350
57
  3
Realistic
350
56
  0
XRECORD
  5
566
102
{ACAD_REACTORS
330
B
102
}
330
B
100
AcDbXrecord
280
     1
 90
        1
330
54
  0
DICTIONARY
  5
55C
102
{ACAD_REACTORS
330
B
102
}
330
B
100
AcDbDictionary
281
     1
  3
CANNOSCALE
350
560
  3
CMLEADERSTYLE
350
55E
  3
CTABLESTYLE
350
55D
  3
LAYEREVAL
350
562
  3
LAYERNOTIFY
350
563
  3
LIGHTINGUNITS
350
561
  3
MSLTSCALE
350
55F
  0
DICTIONARY
  5
21
102
{ACAD_REACTORS
330
20
102
}
330
20
100
AcDbDictionary
281
     1
  0
XRECORD
  5
8
102
{ACAD_REACTORS
330
7
102
}
330
7
100
AcDbXrecord
280
     1
290
     1
  0
XRECORD
  5
90
102
{ACAD_REACTORS
330
8F
102
}
330
8F
100
AcDbXrecord
280
     1
290
     1
  0
XRECORD
  5
8A
102
{ACAD_REACTORS
330
89
102
}
330
89
100
AcDbXrecord
280
     1
290
     1
  0
XRECORD
  5
81
102
{ACAD_REACTORS
330
80
102
}
330
80
100
AcDbXrecord
280
     1
290
     1
  0
XRECORD
  5
52
102
{ACAD_REACTORS
330
51
102
}
330
51
100
AcDbXrecord
280
     1
290
     1
  0
XRECORD
  5
B1
102
{ACAD_REACTORS
330
B0
102
}
330
B0
100
AcDbXrecord
280
     1
290
     1
  0
XRECORD
  5
C5
102
{ACAD_REACTORS
330
C4
102
}
330
C4
100
AcDbXrecord
280
     1
290
     1
  0
XRECORD
  5
F2
102
{ACAD_REACTORS
330
F1
102
}
330
F1
100
AcDbXrecord
280
     1
290
     1
  0
XRECORD
  5
F9
102
{ACAD_REACTORS
330
F8
102
}
330
F8
100
AcDbXrecord
280
     1
290
     1
  0
XRECORD
  5
B8
102
{ACAD_REACTORS
330
B7
102
}
330
B7
100
AcDbXrecord
280
     1
290
     1
  0
XRECORD
  5
DC
102
{ACAD_REACTORS
330
DB
102
}
330
DB
100
AcDbXrecord
280
     1
290
     1
  0
SORTENTSTABLE
  5
55B
102
{ACAD_REACTORS
330
3
102
}
330
3
100
AcDbSortentsTable
330
2
331
A9
  5
515
331
381
  5
481
331
30F
  5
501
331
3BC
  5
446
331
37D
  5
485
331
4EF
  5
321
331
30B
  5
505
331
3B8
  5
44A
331
346
  5
4CA
331
432
  5
3C2
331
4EB
  5
325
331
379
  5
489
331
342
  5
4CE
331
4E7
  5
329
331
4A8
  5
35A
331
4E3
  5
32D
331
469
  5
3A5
331
200
  5
50B
331
15A
  5
50D
331
99
  5
516
331
375
  5
48D
331
3B4
  5
45A
331
42E
  5
3C6
331
42A
  5
3D6
331
371
  5
491
331
3B0
  5
45E
331
33E
  5
4D2
331
3E7
  5
425
331
33A
  5
4D6
331
465
  5
3A9
331
4A4
  5
35E
331
426
  5
3DA
331
4DF
  5
331
331
36D
  5
495
331
3AC
  5
462
331
3A8
  5
466
331
336
  5
4DA
331
461
  5
3AD
331
4A0
  5
362
331
422
  5
402
331
4DB
  5
335
331
369
  5
499
331
332
  5
4DE
331
516
  5
99
331
45D
  5
3B1
331
49C
  5
366
331
4D7
  5
339
331
498
  5
36A
331
4D3
  5
33D
331
512
  5
125
331
459
  5
3B5
331
53F
  5
96
331
10B
  5
514
331
365
  5
49D
331
3A4
  5
478
331
41E
  5
406
331
41A
  5
40A
331
361
  5
4A1
331
3A0
  5
47C
331
32E
  5
4E2
331
3D7
  5
429
331
32A
  5
4E6
331
494
  5
36E
331
416
  5
40E
331
35D
  5
4A5
331
4CF
  5
341
331
50E
  5
159
331
326
  5
4EA
331
490
  5
372
331
359
  5
4A9
331
4CB
  5
345
331
50A
  5
245
331
322
  5
4EE
331
506
  5
30A
331
48C
  5
376
331
4C7
  5
349
331
4C3
  5
34D
331
502
  5
30E
331
449
  5
3B9
331
488
  5
37A
331
132
  5
511
331
79
  5
54C
331
355
  5
4BB
331
40E
  5
416
331
40A
  5
41A
331
351
  5
4BF
331
31E
  5
4F2
331
406
  5
41E
331
34D
  5
4C3
331
31A
  5
4F6
331
484
  5
37E
331
4BF
  5
351
331
4FE
  5
312
331
445
  5
3BD
331
3C7
  5
42D
331
3C3
  5
431
331
316
  5
4FA
331
480
  5
382
331
402
  5
422
331
349
  5
4C7
331
4BB
  5
355
331
4FA
  5
316
331
312
  5
4FE
331
4F6
  5
31A
331
47C
  5
3A0
331
4F2
  5
31E
331
478
  5
3A4
331
380
  5
482
331
30E
  5
502
331
3BF
  5
443
331
3BB
  5
447
331
30A
  5
506
331
4EE
  5
322
331
37C
  5
486
331
378
  5
48A
331
345
  5
4CB
331
431
  5
3C3
331
4EA
  5
326
331
341
  5
4CF
331
4E6
  5
32A
331
4AB
  5
357
331
4E2
  5
32E
331
468
  5
3A6
331
159
  5
50E
331
3B7
  5
457
331
98
  5
523
331
374
  5
48E
331
3B3
  5
45B
331
42D
  5
3C7
331
33D
  5
4D3
331
4A7
  5
35B
331
429
  5
3D7
331
370
  5
492
331
3AF
  5
45F
331
3AB
  5
463
331
339
  5
4D7
331
464
  5
3AA
331
4A3
  5
35F
331
425
  5
3E7
331
4DE
  5
332
331
36C
  5
496
331
335
  5
4DB
331
460
  5
3AE
331
49F
  5
363
331
421
  5
403
331
4DA
  5
336
331
368
  5
49A
331
331
  5
4DF
331
515
  5
A9
331
45C
  5
3B2
331
49B
  5
367
331
4D6
  5
33A
331
4D2
  5
33E
331
511
  5
132
331
458
  5
3B6
331
1FF
  5
50C
331
3A7
  5
467
331
364
  5
49E
331
3A3
  5
479
331
41D
  5
407
331
419
  5
40B
331
360
  5
4A2
331
39F
  5
47D
331
3DA
  5
426
331
497
  5
36B
331
32D
  5
4E3
331
3D6
  5
42A
331
329
  5
4E7
331
493
  5
36F
331
415
  5
40F
331
35C
  5
4A6
331
4CE
  5
342
331
50D
  5
15A
331
2E6
  5
509
331
325
  5
4EB
331
48F
  5
373
331
411
  5
413
331
358
  5
4AA
331
4CA
  5
346
331
509
  5
2E6
331
321
  5
4EF
331
505
  5
30B
331
48B
  5
377
331
4C6
  5
34A
331
4C2
  5
34E
331
501
  5
30F
331
448
  5
3BA
331
354
  5
4BC
331
40D
  5
417
331
409
  5
41B
331
350
  5
4C0
331
487
  5
37B
331
31D
  5
4F3
331
3C6
  5
42E
331
319
  5
4F7
331
483
  5
37F
331
405
  5
41F
331
34C
  5
4C4
331
4BE
  5
352
331
4FD
  5
313
331
444
  5
3BE
331
3C2
  5
432
331
315
  5
4FB
331
47F
  5
391
331
401
  5
423
331
348
  5
4C8
331
4BA
  5
356
331
4F9
  5
317
331
311
  5
4FF
331
4F5
  5
31B
331
47B
  5
3A1
331
4F1
  5
31F
331
125
  5
512
331
37F
  5
483
331
30D
  5
503
331
3BE
  5
444
331
3BA
  5
448
331
434
  5
3C0
331
4ED
  5
323
331
37B
  5
487
331
344
  5
4CC
331
430
  5
3C4
331
4E9
  5
327
331
340
  5
4D0
331
4E5
  5
32B
331
4AA
  5
358
331
4E1
  5
32F
331
245
  5
50A
331
377
  5
48B
331
3B6
  5
458
331
42C
  5
3C8
331
373
  5
48F
331
3B2
  5
45C
331
33C
  5
4D4
331
428
  5
3D8
331
36F
  5
493
331
4A6
  5
35C
331
2FD
  5
507
331
3AE
  5
460
331
467
  5
3A7
331
3AA
  5
464
331
338
  5
4D8
331
463
  5
3AB
331
4A2
  5
360
331
424
  5
3F4
331
4DD
  5
333
331
36B
  5
497
331
334
  5
4DC
331
45F
  5
3AF
331
49E
  5
364
331
420
  5
404
331
4D9
  5
337
331
2F1
  5
508
331
330
  5
4E0
331
4D5
  5
33B
331
514
  5
10B
331
45B
  5
3B3
331
49A
  5
368
331
4D1
  5
33F
331
510
  5
13F
331
97
  5
530
331
14C
  5
50F
331
367
  5
49B
331
3A6
  5
468
331
363
  5
49F
331
3A2
  5
47A
331
41C
  5
408
331
418
  5
40C
331
35F
  5
4A3
331
39E
  5
47E
331
32C
  5
4E4
331
496
  5
36C
331
457
  5
3B7
331
3D9
  5
427
331
3D5
  5
42B
331
328
  5
4E8
331
492
  5
370
331
414
  5
410
331
35B
  5
4A7
331
4CD
  5
343
331
50C
  5
1FF
331
324
  5
4EC
331
508
  5
2F1
331
48E
  5
374
331
410
  5
414
331
4C9
  5
347
331
320
  5
4F0
331
504
  5
30C
331
48A
  5
378
331
4C5
  5
34B
331
4C1
  5
34F
331
500
  5
310
331
357
  5
4AB
331
353
  5
4BD
331
40C
  5
418
331
408
  5
41C
331
34F
  5
4C1
331
486
  5
37C
331
447
  5
3BB
331
31C
  5
4F4
331
3C5
  5
42F
331
318
  5
4F8
331
443
  5
3BF
331
482
  5
380
331
404
  5
420
331
34B
  5
4C5
331
4BD
  5
353
331
4FC
  5
314
331
3C1
  5
433
331
314
  5
4FC
331
47E
  5
39E
331
4F8
  5
318
331
310
  5
500
331
4F4
  5
31C
331
47A
  5
3A2
331
4F0
  5
320
331
382
  5
480
331
37E
  5
484
331
30C
  5
504
331
3BD
  5
445
331
3B9
  5
449
331
3F4
  5
424
331
347
  5
4C9
331
433
  5
3C1
331
4EC
  5
324
331
37A
  5
488
331
343
  5
4CD
331
4E8
  5
328
331
4A9
  5
359
331
4E4
  5
32C
331
523
  5
98
331
4E0
  5
330
331
54C
  5
79
331
118
  5
513
331
376
  5
48C
331
3B5
  5
459
331
42F
  5
3C5
331
42B
  5
3D5
331
372
  5
490
331
3B1
  5
45D
331
33F
  5
4D1
331
33B
  5
4D5
331
4A5
  5
35D
331
427
  5
3D9
331
36E
  5
494
331
3AD
  5
461
331
466
  5
3A8
331
3A9
  5
465
331
337
  5
4D9
331
462
  5
3AC
331
4A1
  5
361
331
423
  5
401
331
4DC
  5
334
331
36A
  5
498
331
333
  5
4DD
331
45E
  5
3B0
331
49D
  5
365
331
4D8
  5
338
331
4D4
  5
33C
331
513
  5
118
331
45A
  5
3B4
331
499
  5
369
331
4D0
  5
340
331
96
  5
53F
331
366
  5
49C
331
3A5
  5
469
331
41F
  5
405
331
41B
  5
409
331
362
  5
4A0
331
3A1
  5
47B
331
32F
  5
4E1
331
417
  5
40D
331
35E
  5
4A4
331
32B
  5
4E5
331
495
  5
36D
331
50F
  5
14C
331
3D8
  5
428
331
327
  5
4E9
331
491
  5
371
331
413
  5
411
331
35A
  5
4A8
331
4CC
  5
344
331
50B
  5
200
331
323
  5
4ED
331
507
  5
2FD
331
48D
  5
375
331
4C8
  5
348
331
4C4
  5
34C
331
503
  5
30D
331
44A
  5
3B8
331
489
  5
379
331
4C0
  5
350
331
530
  5
97
331
13F
  5
510
331
356
  5
4BA
331
40F
  5
415
331
352
  5
4BE
331
391
  5
47F
331
31F
  5
4F1
331
40B
  5
419
331
407
  5
41D
331
34E
  5
4C2
331
31B
  5
4F5
331
485
  5
37D
331
4FF
  5
311
331
446
  5
3BC
331
3C8
  5
42C
331
3C4
  5
430
331
317
  5
4F9
331
481
  5
381
331
403
  5
421
331
34A
  5
4C6
331
4BC
  5
354
331
4FB
  5
315
331
3C0
  5
434
331
313
  5
4FD
331
4F7
  5
319
331
47D
  5
39F
331
4F3
  5
31D
331
479
  5
3A3
  0
SORTENTSTABLE
  5
559
102
{ACAD_REACTORS
330
AB
102
}
330
AB
100
AcDbSortentsTable
330
AA
331
DE
  5
E9
331
ED
  5
E6
331
E5
  5
F3
331
FD
  5
D9
331
F6
  5
E0
331
EB
  5
FC
331
E3
  5
EE
331
FB
  5
DE
331
F4
  5
E2
331
E1
  5
EC
331
E9
  5
FA
331
E6
  5
F4
331
DF
  5
EA
331
EE
  5
E5
331
DD
  5
E8
331
EC
  5
FD
331
E4
  5
EF
331
FC
  5
DD
331
F5
  5
E1
331
EA
  5
FB
331
E2
  5
ED
331
FA
  5
DF
331
F3
  5
E3
331
E8
  5
F6
331
E7
  5
F5
331
E0
  5
EB
331
EF
  5
E4
331
D9
  5
E7
  0
SORTENTSTABLE
  5
55A
102
{ACAD_REACTORS
330
7B
102
}
330
7B
100
AcDbSortentsTable
330
7A
  0
LAYOUT
  5
1E
102
{ACAD_REACTORS
330
18
102
}
330
18
100
AcDbPlotSettings
  1

  2
HP LaserJet 4 Plus
  4

  6

 40
0.0
 41
0.0
 42
0.0
 43
0.0
 44
0.0
 45
0.0
 46
0.0
 47
0.0
 48
0.0
 49
0.0
140
0.0
141
0.0
142
1.0
143
1.0
 70
   688
 72
     0
 73
     0
 74
     5
  7
CNC-Soft.ctb
 75
    16
147
1.0
 76
     0
 77
     2
 78
   300
148
0.0
149
0.0
100
AcDbLayout
  1
Layout1
 70
     0
 71
     1
 10
0.0
 20
0.0
 11
12.0
 21
9.0
 12
0.0
 22
0.0
 32
0.0
 14
1.000000000000000E+20
 24
1.000000000000000E+20
 34
1.000000000000000E+20
 15
-1.000000000000000E+20
 25
-1.000000000000000E+20
 35
-1.000000000000000E+20
146
0.0
 13
0.0
 23
0.0
 33
0.0
 16
1.0
 26
0.0
 36
0.0
 17
0.0
 27
1.0
 37
0.0
 76
     0
330
1B
  0
LAYOUT
  5
17
102
{ACAD_XDICTIONARY
360
19
102
}
102
{ACAD_REACTORS
330
18
102
}
330
18
100
AcDbPlotSettings
  1

  2
HP LaserJet 4 Plus.pc3
  4
A4
  6

 40
6.043083190917968
 41
6.720414161682128
 42
7.821090698242187
 43
5.027069091796875
 44
210.0579986572266
 45
296.9259948730469
 46
0.0
 47
0.0
 48
0.0
 49
0.0
140
0.0
141
0.0
142
1.0
143
7.569969552823901
 70
 11952
 72
     1
 73
     1
 74
     1
  7
CNC-Soft.ctb
 75
     0
147
0.1321009276222201
 76
     0
 77
     2
 78
   300
148
0.1281679606436228
149
0.0906330578836787
100
AcDbLayout
  1
Model
 70
     1
 71
     0
 10
0.0
 20
0.0
 11
12.0
 21
9.0
 12
0.0
 22
0.0
 32
0.0
 14
0.0
 24
0.0
 34
0.0
 15
0.0
 25
0.0
 35
0.0
146
0.0
 13
0.0
 23
0.0
 33
0.0
 16
1.0
 26
0.0
 36
0.0
 17
0.0
 27
1.0
 37
0.0
 76
     0
330
2
331
2B
  0
MATERIAL
  5
44
102
{ACAD_XDICTIONARY
360
45
102
}
102
{ACAD_REACTORS
330
D
102
}
330
D
100
AcDbMaterial
  1
ByBlock
 72
     0
 43
0.0208333333333333
 43
0.0
 43
0.0
 43
0.0
 43
0.0
 43
0.0208333333333333
 43
0.0
 43
0.0
 43
0.0
 43
0.0
 43
1.0
 43
0.0
 43
0.0
 43
0.0
 43
0.0
 43
1.0
 77
     0
 47
0.0208333333333333
 47
0.0
 47
0.0
 47
0.0
 47
0.0
 47
0.0208333333333333
 47
0.0
 47
0.0
 47
0.0
 47
0.0
 47
1.0
 47
0.0
 47
0.0
 47
0.0
 47
0.0
 47
1.0
171
     0
 49
0.0208333333333333
 49
0.0
 49
0.0
 49
0.0
 49
0.0
 49
0.0208333333333333
 49
0.0
 49
0.0
 49
0.0
 49
0.0
 49
1.0
 49
0.0
 49
0.0
 49
0.0
 49
0.0
 49
1.0
175
     0
142
0.0208333333333333
142
0.0
142
0.0
142
0.0
142
0.0
142
0.0208333333333333
142
0.0
142
0.0
142
0.0
142
0.0
142
1.0
142
0.0
142
0.0
142
0.0
142
0.0
142
1.0
179
     0
144
0.0208333333333333
144
0.0
144
0.0
144
0.0
144
0.0
144
0.0208333333333333
144
0.0
144
0.0
144
0.0
144
0.0
144
1.0
144
0.0
144
0.0
144
0.0
144
0.0
144
1.0
147
0.0208333333333333
147
0.0
147
0.0
147
0.0
147
0.0
147
0.0208333333333333
147
0.0
147
0.0
147
0.0
147
0.0
147
1.0
147
0.0
147
0.0
147
0.0
147
0.0
147
1.0
  0
MATERIAL
  5
3C
102
{ACAD_XDICTIONARY
360
3D
102
}
102
{ACAD_REACTORS
330
D
102
}
330
D
100
AcDbMaterial
  1
ByLayer
 72
     0
 43
0.0208333333333333
 43
0.0
 43
0.0
 43
0.0
 43
0.0
 43
0.0208333333333333
 43
0.0
 43
0.0
 43
0.0
 43
0.0
 43
1.0
 43
0.0
 43
0.0
 43
0.0
 43
0.0
 43
1.0
 77
     0
 47
0.0208333333333333
 47
0.0
 47
0.0
 47
0.0
 47
0.0
 47
0.0208333333333333
 47
0.0
 47
0.0
 47
0.0
 47
0.0
 47
1.0
 47
0.0
 47
0.0
 47
0.0
 47
0.0
 47
1.0
171
     0
 49
0.0208333333333333
 49
0.0
 49
0.0
 49
0.0
 49
0.0
 49
0.0208333333333333
 49
0.0
 49
0.0
 49
0.0
 49
0.0
 49
1.0
 49
0.0
 49
0.0
 49
0.0
 49
0.0
 49
1.0
175
     0
142
0.0208333333333333
142
0.0
142
0.0
142
0.0
142
0.0
142
0.0208333333333333
142
0.0
142
0.0
142
0.0
142
0.0
142
1.0
142
0.0
142
0.0
142
0.0
142
0.0
142
1.0
179
     0
144
0.0208333333333333
144
0.0
144
0.0
144
0.0
144
0.0
144
0.0208333333333333
144
0.0
144
0.0
144
0.0
144
0.0
144
1.0
144
0.0
144
0.0
144
0.0
144
0.0
144
1.0
147
0.0208333333333333
147
0.0
147
0.0
147
0.0
147
0.0
147
0.0208333333333333
147
0.0
147
0.0
147
0.0
147
0.0
147
1.0
147
0.0
147
0.0
147
0.0
147
0.0
147
1.0
  0
MATERIAL
  5
C
102
{ACAD_XDICTIONARY
360
E
102
}
102
{ACAD_REACTORS
330
D
102
}
330
D
100
AcDbMaterial
  1
Global
 72
     0
 43
0.0208333333333333
 43
0.0
 43
0.0
 43
0.0
 43
0.0
 43
0.0208333333333333
 43
0.0
 43
0.0
 43
0.0
 43
0.0
 43
1.0
 43
0.0
 43
0.0
 43
0.0
 43
0.0
 43
1.0
 77
     0
 47
0.0208333333333333
 47
0.0
 47
0.0
 47
0.0
 47
0.0
 47
0.0208333333333333
 47
0.0
 47
0.0
 47
0.0
 47
0.0
 47
1.0
 47
0.0
 47
0.0
 47
0.0
 47
0.0
 47
1.0
171
     0
 49
0.0208333333333333
 49
0.0
 49
0.0
 49
0.0
 49
0.0
 49
0.0208333333333333
 49
0.0
 49
0.0
 49
0.0
 49
0.0
 49
1.0
 49
0.0
 49
0.0
 49
0.0
 49
0.0
 49
1.0
175
     0
142
0.0208333333333333
142
0.0
142
0.0
142
0.0
142
0.0
142
0.0208333333333333
142
0.0
142
0.0
142
0.0
142
0.0
142
1.0
142
0.0
142
0.0
142
0.0
142
0.0
142
1.0
179
     0
144
0.0208333333333333
144
0.0
144
0.0
144
0.0
144
0.0
144
0.0208333333333333
144
0.0
144
0.0
144
0.0
144
0.0
144
1.0
144
0.0
144
0.0
144
0.0
144
0.0
144
1.0
147
0.0208333333333333
147
0.0
147
0.0
147
0.0
147
0.0
147
0.0208333333333333
147
0.0
147
0.0
147
0.0
147
0.0
147
1.0
147
0.0
147
0.0
147
0.0
147
0.0
147
1.0
  0
MLINESTYLE
  5
53
102
{ACAD_REACTORS
330
3A
102
}
330
3A
100
AcDbMlineStyle
  2
STANDARD
 70
     0
  3

 62
   256
 51
90.0
 52
90.0
 71
     2
 49
0.5
 62
   256
  6
BYLAYER
 49
-0.5
 62
   256
  6
BYLAYER
  0
ACDBPLACEHOLDER
  5
9
102
{ACAD_REACTORS
330
A
102
}
330
A
  0
SCALE
  5
58
102
{ACAD_REACTORS
330
4D
102
}
330
4D
100
AcDbScale
 70
     0
300
1:1
140
1.0
141
1.0
290
     1
  0
SCALE
  5
59
102
{ACAD_REACTORS
330
4D
102
}
330
4D
100
AcDbScale
 70
     0
300
1:2
140
1.0
141
2.0
290
     0
  0
SCALE
  5
5A
102
{ACAD_REACTORS
330
4D
102
}
330
4D
100
AcDbScale
 70
     0
300
1:4
140
1.0
141
4.0
290
     0
  0
SCALE
  5
5B
102
{ACAD_REACTORS
330
4D
102
}
330
4D
100
AcDbScale
 70
     0
300
1:5
140
1.0
141
5.0
290
     0
  0
SCALE
  5
5C
102
{ACAD_REACTORS
330
4D
102
}
330
4D
100
AcDbScale
 70
     0
300
1:8
140
1.0
141
8.0
290
     0
  0
SCALE
  5
5D
102
{ACAD_REACTORS
330
4D
102
}
330
4D
100
AcDbScale
 70
     0
300
1:10
140
1.0
141
10.0
290
     0
  0
SCALE
  5
5E
102
{ACAD_REACTORS
330
4D
102
}
330
4D
100
AcDbScale
 70
     0
300
1:16
140
1.0
141
16.0
290
     0
  0
SCALE
  5
5F
102
{ACAD_REACTORS
330
4D
102
}
330
4D
100
AcDbScale
 70
     0
300
1:20
140
1.0
141
20.0
290
     0
  0
SCALE
  5
60
102
{ACAD_REACTORS
330
4D
102
}
330
4D
100
AcDbScale
 70
     0
300
1:30
140
1.0
141
30.0
290
     0
  0
SCALE
  5
61
102
{ACAD_REACTORS
330
4D
102
}
330
4D
100
AcDbScale
 70
     0
300
1:40
140
1.0
141
40.0
290
     0
  0
SCALE
  5
62
102
{ACAD_REACTORS
330
4D
102
}
330
4D
100
AcDbScale
 70
     0
300
1:50
140
1.0
141
50.0
290
     0
  0
SCALE
  5
63
102
{ACAD_REACTORS
330
4D
102
}
330
4D
100
AcDbScale
 70
     0
300
1:100
140
1.0
141
100.0
290
     0
  0
SCALE
  5
64
102
{ACAD_REACTORS
330
4D
102
}
330
4D
100
AcDbScale
 70
     0
300
2:1
140
2.0
141
1.0
290
     0
  0
SCALE
  5
65
102
{ACAD_REACTORS
330
4D
102
}
330
4D
100
AcDbScale
 70
     0
300
4:1
140
4.0
141
1.0
290
     0
  0
SCALE
  5
66
102
{ACAD_REACTORS
330
4D
102
}
330
4D
100
AcDbScale
 70
     0
300
8:1
140
8.0
141
1.0
290
     0
  0
SCALE
  5
67
102
{ACAD_REACTORS
330
4D
102
}
330
4D
100
AcDbScale
 70
     0
300
10:1
140
10.0
141
1.0
290
     0
  0
SCALE
  5
68
102
{ACAD_REACTORS
330
4D
102
}
330
4D
100
AcDbScale
 70
     0
300
100:1
140
100.0
141
1.0
290
     0
  0
SCALE
  5
69
102
{ACAD_REACTORS
330
4D
102
}
330
4D
100
AcDbScale
 70
     0
300
1/128" = 1'-0"
140
0.0078125
141
12.0
290
     0
  0
SCALE
  5
6A
102
{ACAD_REACTORS
330
4D
102
}
330
4D
100
AcDbScale
 70
     0
300
1/64" = 1'-0"
140
0.015625
141
12.0
290
     0
  0
SCALE
  5
6B
102
{ACAD_REACTORS
330
4D
102
}
330
4D
100
AcDbScale
 70
     0
300
1/32" = 1'-0"
140
0.03125
141
12.0
290
     0
  0
SCALE
  5
6C
102
{ACAD_REACTORS
330
4D
102
}
330
4D
100
AcDbScale
 70
     0
300
1/16" = 1'-0"
140
0.0625
141
12.0
290
     0
  0
SCALE
  5
6D
102
{ACAD_REACTORS
330
4D
102
}
330
4D
100
AcDbScale
 70
     0
300
3/32" = 1'-0"
140
0.09375
141
12.0
290
     0
  0
SCALE
  5
6E
102
{ACAD_REACTORS
330
4D
102
}
330
4D
100
AcDbScale
 70
     0
300
1/8" = 1'-0"
140
0.125
141
12.0
290
     0
  0
SCALE
  5
6F
102
{ACAD_REACTORS
330
4D
102
}
330
4D
100
AcDbScale
 70
     0
300
3/16" = 1'-0"
140
0.1875
141
12.0
290
     0
  0
SCALE
  5
70
102
{ACAD_REACTORS
330
4D
102
}
330
4D
100
AcDbScale
 70
     0
300
1/4" = 1'-0"
140
0.25
141
12.0
290
     0
  0
SCALE
  5
71
102
{ACAD_REACTORS
330
4D
102
}
330
4D
100
AcDbScale
 70
     0
300
3/8" = 1'-0"
140
0.375
141
12.0
290
     0
  0
SCALE
  5
72
102
{ACAD_REACTORS
330
4D
102
}
330
4D
100
AcDbScale
 70
     0
300
1/2" = 1'-0"
140
0.5
141
12.0
290
     0
  0
SCALE
  5
73
102
{ACAD_REACTORS
330
4D
102
}
330
4D
100
AcDbScale
 70
     0
300
3/4" = 1'-0"
140
0.75
141
12.0
290
     0
  0
SCALE
  5
74
102
{ACAD_REACTORS
330
4D
102
}
330
4D
100
AcDbScale
 70
     0
300
1" = 1'-0"
140
1.0
141
12.0
290
     0
  0
SCALE
  5
75
102
{ACAD_REACTORS
330
4D
102
}
330
4D
100
AcDbScale
 70
     0
300
1-1/2" = 1'-0"
140
1.5
141
12.0
290
     0
  0
SCALE
  5
76
102
{ACAD_REACTORS
330
4D
102
}
330
4D
100
AcDbScale
 70
     0
300
3" = 1'-0"
140
3.0
141
12.0
290
     0
  0
SCALE
  5
77
102
{ACAD_REACTORS
330
4D
102
}
330
4D
100
AcDbScale
 70
     0
300
6" = 1'-0"
140
6.0
141
12.0
290
     0
  0
SCALE
  5
78
102
{ACAD_REACTORS
330
4D
102
}
330
4D
100
AcDbScale
 70
     0
300
1'-0" = 1'-0"
140
12.0
141
12.0
290
     0
  0
TABLESTYLE
  5
54
102
{ACAD_XDICTIONARY
360
55
102
}
102
{ACAD_REACTORS
330
4E
102
}
330
4E
100
AcDbTableStyle
280
     0
  3
Standard
 70
     0
 71
     0
 40
0.06
 41
0.06
280
     0
281
     0
  7
STANDARD
140
0.18
170
     2
 62
     0
 63
     7
283
     0
 90
      512
 91
        0
  1

274
    -2
284
     1
 64
     0
275
    -2
285
     1
 65
     0
276
    -2
286
     1
 66
     0
277
    -2
287
     1
 67
     0
278
    -2
288
     1
 68
     0
279
    -2
289
     1
 69
     0
  7
STANDARD
140
0.25
170
     5
 62
     0
 63
     7
283
     0
 90
      512
 91
        0
  1

274
    -2
284
     1
 64
     0
275
    -2
285
     1
 65
     0
276
    -2
286
     1
 66
     0
277
    -2
287
     1
 67
     0
278
    -2
288
     1
 68
     0
279
    -2
289
     1
 69
     0
  7
STANDARD
140
0.18
170
     5
 62
     0
 63
     7
283
     0
 90
      512
 91
        0
  1

274
    -2
284
     1
 64
     0
275
    -2
285
     1
 65
     0
276
    -2
286
     1
 66
     0
277
    -2
287
     1
 67
     0
278
    -2
288
     1
 68
     0
279
    -2
289
     1
 69
     0
  0
VISUALSTYLE
  5
2C
102
{ACAD_REACTORS
330
2D
102
}
330
2D
100
AcDbVisualStyle
  2
2dWireframe
 70
     4
177
     2
291
     0
 71
     0
176
     1
 72
     2
176
     1
 73
     0
176
     1
 90
        0
176
     1
 40
0.6
176
     1
 41
30.0
176
     1
 63
     7
176
     1
 74
     1
176
     1
 91
        4
176
     1
 64
     7
176
     1
 65
   257
176
     1
 75
     1
176
     1
175
     1
176
     1
 42
1.0
176
     1
 92
        0
176
     1
 66
   257
176
     1
 43
1.0
176
     1
 76
     1
176
     1
 77
     6
176
     1
 78
     2
176
     1
 67
     7
176
     1
 79
     5
176
     1
170
     0
176
     1
171
     0
176
     1
290
     0
176
     1
 93
        1
176
     1
 44
0.0
176
     1
173
     0
176
     1
  0
VISUALSTYLE
  5
57
102
{ACAD_REACTORS
330
2D
102
}
330
2D
100
AcDbVisualStyle
  2
3dWireframe
 70
     5
177
     2
291
     0
 71
     0
176
     1
 72
     2
176
     1
 73
     0
176
     1
 90
        0
176
     1
 40
0.6
176
     1
 41
30.0
176
     1
 63
     7
176
     1
 74
     1
176
     1
 91
        4
176
     1
 64
     7
176
     1
 65
   257
176
     1
 75
     1
176
     1
175
     1
176
     1
 42
1.0
176
     1
 92
        0
176
     1
 66
   257
176
     1
 43
1.0
176
     1
 76
     1
176
     1
 77
     6
176
     1
 78
     2
176
     1
 67
     7
176
     1
 79
     5
176
     1
170
     0
176
     1
171
     0
176
     1
290
     0
176
     1
 93
        1
176
     1
 44
0.0
176
     1
173
     0
176
     1
  0
VISUALSTYLE
  5
56
102
{ACAD_REACTORS
330
2D
102
}
330
2D
100
AcDbVisualStyle
  2
Realistic
 70
     8
177
     2
291
     0
 71
     2
176
     1
 72
     2
176
     1
 73
     0
176
     1
 90
        0
176
     1
 40
0.6
176
     1
 41
30.0
176
     1
 63
     7
176
     1
 74
     1
176
     1
 91
        0
176
     1
 64
     7
176
     1
 65
   257
176
     1
 75
     1
176
     1
175
     1
176
     1
 42
1.0
176
     1
 92
        8
176
     1
 66
     8
176
     1
 43
1.0
176
     1
 76
     1
176
     1
 77
     6
176
     1
 78
     2
176
     1
 67
     7
176
     1
 79
     5
176
     1
170
     0
176
     1
171
     0
176
     1
290
     0
176
     1
 93
       13
176
     1
 44
0.0
176
     1
173
     0
176
     1
  0
DICTIONARYVAR
  5
560
102
{ACAD_REACTORS
330
55C
102
}
330
55C
100
DictionaryVariables
280
     0
  1
1:1
  0
DICTIONARYVAR
  5
55E
102
{ACAD_REACTORS
330
55C
102
}
330
55C
100
DictionaryVariables
280
     0
  1
STANDARD
  0
DICTIONARYVAR
  5
55D
102
{ACAD_REACTORS
330
55C
102
}
330
55C
100
DictionaryVariables
280
     0
  1
STANDARD
  0
DICTIONARYVAR
  5
562
102
{ACAD_REACTORS
330
55C
102
}
330
55C
100
DictionaryVariables
280
     0
  1
1
  0
DICTIONARYVAR
  5
563
102
{ACAD_REACTORS
330
55C
102
}
330
55C
100
DictionaryVariables
280
     0
  1
15
  0
DICTIONARYVAR
  5
561
102
{ACAD_REACTORS
330
55C
102
}
330
55C
100
DictionaryVariables
280
     0
  1
0
  0
DICTIONARYVAR
  5
55F
102
{ACAD_REACTORS
330
55C
102
}
330
55C
100
DictionaryVariables
280
     0
  1
0
  0
DICTIONARY
  5
19
330
17
100
AcDbDictionary
280
     1
281
     1
  3
ADSK_XREC_LAYOUTTHUMBNAIL
360
1A
  0
DICTIONARY
  5
45
330
44
100
AcDbDictionary
280
     1
281
     1
  3
BUMPTILE
360
46
  3
DIFFUSETILE
360
47
  3
OPACITYTILE
360
48
  3
REFLECTIONTILE
360
49
  3
REFRACTIONTILE
360
4A
  3
SPECULARTILE
360
4B
  0
DICTIONARY
  5
3D
330
3C
100
AcDbDictionary
280
     1
281
     1
  3
BUMPTILE
360
3E
  3
DIFFUSETILE
360
3F
  3
OPACITYTILE
360
40
  3
REFLECTIONTILE
360
41
  3
REFRACTIONTILE
360
42
  3
SPECULARTILE
360
43
  0
DICTIONARY
  5
E
330
C
100
AcDbDictionary
280
     1
281
     1
  3
BUMPTILE
360
F
  3
DIFFUSETILE
360
10
  3
OPACITYTILE
360
11
  3
REFLECTIONTILE
360
12
  3
REFRACTIONTILE
360
13
  3
SPECULARTILE
360
14
  0
DICTIONARY
  5
55
330
54
100
AcDbDictionary
280
     1
281
     1
  3
ACAD_ROUNDTRIP_2008_TABLESTYLE_CELLSTYLEMAP
360
564
  0
XRECORD
  5
1A
102
{ACAD_REACTORS
330
19
102
}
330
19
100
AcDbXrecord
280
     1
310
280000000001000084000000010008000000000000840000000000000000000000010000000000000000000000000000FFFFFF000000000000000000000000000000000000000000000000000000000000000000330000006600000099000000CC000000FF00000000330000333300006633000099330000CC330000FF3300
310
0000660000336600006666000099660000CC660000FF66000000990000339900006699000099990000CC990000FF99000000CC000033CC000066CC000099CC0000CCCC0000FFCC000000FF000033FF000066FF000099FF0000CCFF0000FFFF000000003300330033006600330099003300CC003300FF003300003333003333
310
33006633330099333300CC333300FF33330000663300336633006666330099663300CC663300FF66330000993300339933006699330099993300CC993300FF99330000CC330033CC330066CC330099CC3300CCCC3300FFCC330000FF330033FF330066FF330099FF3300CCFF3300FFFF330000006600330066006600660099
310
006600CC006600FF00660000336600333366006633660099336600CC336600FF33660000666600336666006666660099666600CC666600FF66660000996600339966006699660099996600CC996600FF99660000CC660033CC660066CC660099CC6600CCCC6600FFCC660000FF660033FF660066FF660099FF6600CCFF6600
310
FFFF660000009900330099006600990099009900CC009900FF00990000339900333399006633990099339900CC339900FF33990000669900336699006666990099669900CC669900FF66990000999900339999006699990099999900CC999900FF99990000CC990033CC990066CC990099CC9900CCCC9900FFCC990000FF99
310
0033FF990066FF990099FF9900CCFF9900FFFF99000000CC003300CC006600CC009900CC00CC00CC00FF00CC000033CC003333CC006633CC009933CC00CC33CC00FF33CC000066CC003366CC006666CC009966CC00CC66CC00FF66CC000099CC003399CC006699CC009999CC00CC99CC00FF99CC0000CCCC0033CCCC0066CC
310
CC0099CCCC00CCCCCC00FFCCCC0000FFCC0033FFCC0066FFCC0099FFCC00CCFFCC00FFFFCC000000FF003300FF006600FF009900FF00CC00FF00FF00FF000033FF003333FF006633FF009933FF00CC33FF00FF33FF000066FF003366FF006666FF009966FF00CC66FF00FF66FF000099FF003399FF006699FF009999FF00CC
310
99FF00FF99FF0000CCFF0033CCFF0066CCFF0099CCFF00CCCCFF00FFCCFF0000FFFF0033FFFF0066FFFF0099FFFF00CCFFFF00FFFFFF00000000000D0D0D001A1A1A00282828003535350043434300505050005D5D5D006B6B6B00787878008686860093939300A1A1A100AEAEAE00BBBBBB00C9C9C900D6D6D600E4E4E400
310
F1F1F100FFFFFF0000000000000000000000000000000000000000000000000000000000000000000000000000000000E2E2E2E2E2E2E2E2E2E2E2E2E2E2E2E2E2E2E2E2E2E2E2E2E2E2E2E2E2E2E2E2E2E2E2E2E2E2E2E2E2E2E2E2E2E2E2E2E2E2E2E2E2E2E2E2E2E2E2E2E2E2E2E2E2E2E2E2E2E2E2E2E2E2E2E2E2E2E2
310
E2E2E2E2E2E2E2E2E2E2E2E2E2E2E2E2E2E2E2E2E2E2E2E2E2E2E2E2E2E2E2E2E2E2E2E2E2E2E2E2E2E2E2E2E2E2E2E2E2E2E2E2E2E2E2E2E2E2E2E2E2E2E2E2E2E2E2E2E2E2E2E2E2E2E2E2E2E2E2E2E2E2E2E2E2E2E2E2E2E2E2E2E2E2E2E2E2E2E2E2E2E2E2E2E2E2E2E2E2E2E2E2E2E2E2E2E2E2E2E2E2E2E2E2E2E2E2
310
E2E2E2E2E2E2E2E2E2E2E2E2E2E2E2E2E2E2E2E2E2E2E2E2E2E2E2E2E2E2E2E2E2E2E2E2E2E2E2E2E2E2E2E2E2E2E2E2E2E2E2E2E2E2E2E2E2E2E2E2E2E2E2E2E2E2E2E2E2E2E2E2E2E2E2E2E2E2E2E2E2E2E2E2E2E2E2E2E2E2E2E2E2E2E2E2E2E2E2E2E2E2E2E2E2E2E2E2E2E2E2E2E2E2E2E2E2E2E2E2E2E2E2E2E2E2E2
310
E2E2E2E2E2E2E2E2E2E2E2E2E2E2E2E2E2E2E2E2E2E2E2E2E2E2E2E2E2E2E2E2E2E2E2E2E2E2E2E2E2E2E2E2E2E2E2E2E2E2E2E2E2E2E2E2E2E2E2E2E2E2E2E2E2E2E2E2E2E2E2E2E2E2E2E2E2E2E2E2E2E2E2E2E2E2E2E2E2E2E2E2E2E2E2E2E2E2E2E2E2E2E2E2E2E2E2E2E2E2E2E2E2E2E2E2E2E2E2E2E2E2E2E2E2E2E2
310
E2E2E2E2E2E2E2E2E2E2E2E2E2E2E2E2E2E2E2E2E2E2E2E2E2E2E2E2E2E2E2E2E2E2E2E2E2E2E2E2E2E2E2E2E2E2E2E2E2E2E2E2E2E2E2E2E2E2E2E2E2E2E2E2E2E2E2E2E2E2E2E2E2E2E2E2E2E2E2E2E2E2E2E2E2E2E2E2E2E2E2E2E2E2E2E2E2E2E2E2E2E2E2E2E2E2E2E2E2E2E2E2E2E2E2E2E2E2E2E2E2E2E2E2E2E2E2
310
E2E2E2E2E2E2E2E2E2E2E2E2E2E2E2E2E2E2E2E2E2E2E2E2E2E2E2E2E2E2E2E2E2E2E2E2E2E2E2E2E2E2E2E2E2E2E2E2E2E2E2E2E2E2E2E2E2E2E2E2E2E2E2E2E2E2E2E2E2E2E2E2E2E2E2E2E2E2E2E2E2E2E2E2E2E2E2E2E2E2E2E2E2E2E2E2E2E2E2E2E2E2E2E2E2E2E2E2E2E2E2E2E2E2E2E2E2E2E2E2E2E2E2E2E2E2E2
310
E2E2E2E2E2E2E2E2E2E2E2E2E2E2E2E2E2E2E2E2E2E2E2E2E2E2E2E2E2E2E2E2E2E2E2E2E2E2E2E2E2E2E2E2E2E2E2E2E2E2E2E2E2E2E2E2E2E2E2E2E2E2E2E2E2E2E2E2E2E2E2E2E2E2E2E2E2E2E2E2E2E2E2E2E2E2E2E2E2E2E2E2E2E2E2E2E2E2E2E2E2E2E2E2E2E2E2E2E2E2E2E2E2E2E2E2E2E2E2E2E2E2E2E2E2E2E2
310
E2E2E2E2E2E2E2E2E2E2E2E2E2E2E2E2E2E2E2E2E2E2E2E2E2E2E2E2E2E2E2E2E2E2E2E2E2E2E2E2E2E2E2E2E2E2E2E2E2E2E2E2E2E2E2E2E2E2E2E2E2E2E2E2E2E2E2E2E2E2E2E2E2E2E2E2E2E2E2E2E2E2E2E2E2E2E2E2E2E2E2E2E2E2E2E2E2E2E2E2E2E2E2E2E2E2E2E2E2E2E2E2E2E2E2E2E2E2E2E2E2E2E2E2E2E2E2
310
E2E2E2E2E2E2E2E2E2E2E2E2E2E2E2E2E2E2E2E2E2E2E2E2E2E2E2E2E2E2E2E2E2E2E2E2E2E2E2E2E2E2E2E2E2E2E2E2E2E2E2E2E2E2E2E2E2E2E2E2E2E2E2E2E2E2E2E2E2E2E2E2E2E2E2E2E2E2E2E2E2E2E2E2E2E2E2E2E2E2E2E2E2E2E2E2E2E2E2E2E2E2E2E2E2E2E2E2E2E2E2E2E2E2E2E2E2E2E2E2E2E2E2E2E2E2E2
310
E2E2E2E2E2E2E2E2E2E2E2E2E2E2E2E2E2E2E2E2E2E2E2E2E2E2E2E2E2E2E2E2E2E2E2E2E2E2E2E2E2E2E2E2E2E2E2E2E2E2E2E2E2E2E2E2E2E2E2E2E2E2E2E2E2E2E2E2E2E2E2E2E2E2E2E2E2E2E2E2E2E2E2E2E2E2E2E2E2E2E2E2E2E2E2E2E2E2E2E2E2E2E2E2E2E2E2E2E2E2E2E2E2E2E2E2E2E2E2E2E2E2E2E2E2E2E2
310
E2E2E2E2E2E2E2E2E2E2E2E2E2E2E2E2E2E2E2E2E2E2E2E2E2E2E2E2E2E2E2E2E2E2E2E2E2E2E2E2E2E2E2E2E2E2E2E2E2E2E2E2E2E2E2E2E2E2E2E2E2E2E2E2E2E2E2E2E2E2E2E2E2E2E2E2E2E2E2E2E2E2E2E2E2E2E2E2E2E2E2E2E2E2E2E2E2E2E2E2E2E2E2E2E2E2E2E2E2E2E2E2E2E2E2E2E2E2E2E2E2E2E2E2E2E2E2
310
E2E2E2E2E2E2E2E2E2E2E2E2E2E2E2E2E2E2E2E2E2E2E2E2E2E2E2E2E2E2E2E2E2E2E2E2E2E2E2E2E2E2E2E2E2E2E2E2E2E2E2E2E2E2E2E2E2E2E2E2E2E2E2E2E2E2E2E2E2E2E2E2E2E2E2E2E2E2E2E2E2E2E2E2E2E2E2E2E2E2E2E2E2E2E2E2E2E2E2E2E2E2E2E2E2E2E2E2E2E2E2E2E2E2E2E2E2E2E2E2E2E2E2E2E2E2E2
310
E2E2E2E2E2E2E2E2E2E2E2E2E2E2E2E2E2E2E2E2E2E2E2E2E2E2E2E2E2E2E2E2E2E2E2E2E2E2E2E2E2E2E2E2E2E2E2E2E2E2E2E2E2E2E2E2E2E2E2E2E2E2E2E2E2E2E2E2E2E2E2E2E2E2E2E2E2E2E2E2E2E2E2E2E2E2E2E2E2E2E2E2E2E2E2E2E2E2E2E2E2E2E2E2E2E2E2E2E2E2E2E2E2E2E2E2E2E2E2E2E2E2E2E2E2E2E2
310
E2E2E2E2E2E2E2E2E2E2E2E2E2E2E2E2E2E2E2E2E2E2E2E2E2E2E2E2E2E2E2E2E2E2E2E2E2E2E2E2E2E2E2E2E2E2E2E2E2E2E2E2E2E2E2E2E2E2E2E2E2E2E2E2E2E2E2E2E2E2E2E2E2E2E2E2E2E2E2E2E2E2E2E2E2E2E2E2E2E2E2E2E2E2E2E2E2E2E2E2E2E2E2E2E2E2E2E2E2E2E2E2E2E2E2E2E2E2E2E2E2E2E2E2E2E2E2
310
E2E2E2E2E2E2E2E2E2E2E2E2E2E2E2E2E2E2E2E2E2E2E2E2E2E2E2E2E2E2E2E2E2E2E2E2E2E2E2E2E2E2E2E2E2E2E2E2E2E2E2E2E2E2E2E2E2E2E2E2E2E2E2E2E2E2E2E2E2E2E2E2E2E2E2E2E2E2E2E2E2E2E2E2E2E2E2E2E2E2E2E2E2E2E2E2E2E2E2E2E2E2E2E2E2E2E2E2E2E2E2E2E2E2E2E2E2E2E2E2E2E2E2E2E2E2E2
310
E2E2E2E2E2E2E2E2E2E2E2E2E2E2E2E2E2E2E2E2E2E2E2E2E2E2E2E2E2E2E2E2E2E2E2E2E2E2E2E2E2E2E2E2E2E2E2E2E2E2E2E2E2E2E2E2E2E2E2E2E2E2E2E2E2E2E2E2E2E2E2E2E2E2E2E2E2E2E2E2E2E2E2E2E2E2E2E2E2E2E2E2E2E2E2E2E2E2E2E2E2E2E2E2E2E2E2E2E2E2E2E2E2E2E2E2E2E2E2E2E2E2E2E2E2E2E2
310
E2E2E2E2E2E2E2E2E2E2E2E2E2E2E2E2E2E2E2E2E2E2E2E2E2E2E2E2E2E2E2E2E2E2E2E2E2E2E2E2E2E2E2E2E2E2E2E2E2E2E2E2E2E2E2E2E2E2E2E2E2E2E2E2E2E2E2E2E2E2E2E2E2E2E2E2E2E2E2E2E2E2E2E2E2E2E2E2E2E2E2E2E2E2E2E2E2E2E2E2E2E2E2E2E2E2E2E2E2E2E2E2E2E2E2E2E2E2E2E2E2E2E2E2E2E2E2
310
E2E2E2E2E2E2E2E2E2E2E2E2E2E2E2E2E2E2E2E2E2E2E2E2E2E2E2E2E2E2E2E2E2E2E2E2E2E2E2E2E2E2E2E2E2E2E2E2E2E2E2E2E2E2E2E2E2E2E2E2E2E2E2E2E2E2E2E2E2E2E2E2E2E2E2E2E2E2E2E2E2E2E2E2E2E2E2E2E2E2E2E2E2E2E2E2E2E2E2E2E2E2E2E2E2E2E2E2E2E2E2E2E2E2E2E2E2E2E2E2E2E2E2E2E2E2E2
310
E2E2E2E2E2E2E2E2E2E2E2E2E2E2E2E2E2E2E2E2E2E2E2E2E2E2E2E2E2E2E2E2E2E2E2E2E2E2E2E2E2E2E2E2E2E2E2E2E2E2E2E2E2E2E2E2E2E2E2E2E2E2E2E2E2E2E2E2E2E2E2E2E2E2E2E2E2E2E2E2E2E2E2E2E2E2E2E2E2E2E2E2E2E2E2E2E2E2E2E2E2E2E2E2E2E2E2E2E2E2E2E2E2E2E2E2E2E2E2E2E2E2E2E2E2E2E2
310
E2E2E2E2E2E2E2E2E2E2E2E2E2E2E2E2E2E2E2E2E2E2E2E2E2E2E2E2E2E2E2E2E2E2E2E2E2E2E2E2E2E2E2E2E2E2E2E2E2E2E2E2E2E2E2E2E2E2E2E2E2E2E2E2E2E2E2E2E2E2E2E2E2E2E2E2E2E2E2E2E2E2E2E2E2E2E2E2E2E2E2E2E2E2E2E2E2E2E2E2E2E2E2E2E2E2E2E2E2E2E2E2E2E2E2E2E2E2E2E2E2E2E2E2E2E2E2
310
E2E2E2E2E2E2E2E2E2E2E2E2E2E2E2E2E2E2E2E2E2E2E2E2E2E2E2E2E2E2E2E2E2E2E2E2E2E2E2E2E2E2E2E2E2E2E2E2E2E2E2E2E2E2E2E2E2E2E2E2E2E2E2E2E2E2E2E2E2E2E2E2E2E2E2E2E2E2E2E2E2E2E2E2E2E2E2E2E2E2E2E2E2E2E2E2E2E2E2E2E2E2E2E2E2E2E2E2E2E2E2E2E2E2E2E2E2E2E2E2E2E2E2E2E2E2E2
310
E2E2E2E2E2E2E2E2E2E2E2E2E2E2E2E2E2E2E2E2E2E2E2E2E2E2E2E2E2E2E2E2E2E2E2E2E2E2E2E2E2E2E2E2E2E2E2E2E2E2E2E2E2E2E2E2E2E2E2E2E2E2E2E2E2E2E2E2E2E2E2E2E2E2E2E2E2E2E2E2E2E2E2E2E2E2E2E2E2E2E2E2E2E2E2E2E2E2E2E2E2E2E2E2E2E2E2E2E2E2E2E2E2E2E2E2E2E2E2E2E2E2E2E2E2E2E2
310
E2E2E2E2E2E2E2E2E2E2E2E2E2E2E2E2E2E2E2E2E2E2E2E2E2E2E2E2E2E2E2E2E2E2E2E2E2E2E2E2E2E2E2E2E2E2E2E2E2E2E2E2E2E2E2E2E2E2E2E2E2E2E2E2E2E2E2E2E2E2E2E2E2E2E2E2E2E2E2E2E2E2E2E2E2E2E2E2E2E2E2E2E2E2E2E2E2E2E2E2E2E2E2E2E2E2E2E2E2E2E2E2E2E2E2E2E2E2E2E2E2E2E2E2E2E2E2
310
E2E2E2E2E2E2E2E2E2E2E2E2E2E2E2E2E2E2E2E2E2E2E2E2E2E2E2E2E2E2E2E2E2E2E2E2E2E2E2E2E2E2E2E2E2E2E2E2E2E2E2E2E2E2E2E2E2E2E2E2E2E2E2E2E2E2E2E2E2E2E2E2E2E2E2E2E2E2E2E2E2E2E2E2E2E2E2E2E2E2E2E2E2E2E2E2E2E2E2E2E2E2E2E2E2E2E2E2E2E2E2E2E2E2E2E2E2E2E2E2E2E2E2E2E2E2E2
310
E2E2E2E2E2E2E2E2E2E2E2E2E2E2E2E2E2E2E2E2E2E2E2E2E2E2E2E2E2E2E2E2E2E2E2E2E2E2E2E2E2E2E2E2E2E2E2E2E2E2E2E2E2E2E2E2E2E2E2E2E2E2E2E2E2E2E2E2E2E2E2E2E2E2E2E2E2E2E2E2E2E2E2E2E2E2E2E2E2E2E2E2E2E2E2E2E2E2E2E2E2E2E2E2E2E2E2E2E2E2E2E2E2E2E2E2E2E2E2E2E2E2E2E2E2E2E2
310
E2E2E2E2E2E2E2E2E2E2E2E2E2E2E2E2E2E2E2E2E2E2E2E2E2E2E2E2E2E2E2E2E2E2E2E2E2E2E2E2E2E2E2E2E2E2E2E2E2E2E2E2E2E2E2E2E2E2E2E2E2E2E2E2E2E2E2E2E2E2E2E2E2E2E2E2E2E2E2E2E2E2E2E2E2E2E2E2E2E2E2E2E2E2E2E2E2E2E2E2E2E2E2E2E2E2E2E2E2E2E2E2E2E2E2E2E2E2E2E2E2E2E2E2E2E2E2
310
E2E2E2E2E2E2E2E2E2E2E2E2E2E2E2E2E2E2E2E2E2E2E2E2E2E2E2E2E2E2E2E2E2E2E2E2E2E2E2E2E2E2E2E2E2E2E2E2E2E2E2E2E2E2E2E2E2E2E2E2E2E2E2E2E2E2E2E2E2E2E2E2E2E2E2E2E2E2E2E2E2E2E2E2E2E2E2E2E2E2E2E2E2E2E2E2E2E2E2E2E2E2E2E2E2E2E2E2E2E2E2E2E2E2E2E2E2E2E2E2E2E2E2E2E2E2E2
310
E2E2E2E2E2E2E2E2E2E2E2E2E2E2E2E2E2E2E2E2E2E2E2E2E2E2E2E2E2E2E2E2E2E2E2E2E2E2E2E2E2E2E2E2E2E2E2E2E2E2E2E2E2E2E2E2E2E2E2E2E2E2E2E2E2E2E2E2E2E2E2E2E2E2E2E2E2E2E2E2E2E2E2E2E2E2E2E2E2E2E2E2E2E2E2E2E2E2E2E2E2E2E2E2E2E2E2E2E2E2E2E2E2E2E2E2E2E2E2E2E2E2E2E2E2E2E2
310
E2E2E2E2E2E2E2E2E2E2E2E2E2E2E2E2E2E2E2E2E2E2E2E2E2E2E2E2E2E2E2E2E2E2E2E2E2E2E2E2E2E2E2E2E2E2E2E2E2E2E2E2E2E2E2E2E2E2E2E2E2E2E2E2E2E2E2E2E2E2E2E2E2E2E2E2E2E2E2E2E2E2E2E2E2E2E2E2E2E2E2E2E2E2E2E2E2E2E2E2E2E2E2E2E2E2E2E2E2E2E2E2E2E2E2E2E2E2E2E2E2E2E2E2E2E2E2
310
E2E2E2E2E2E2E2E2E2E2E2E2E2E2E2E2E2E2E2E2E2E2E2E2E2E2E2E2E2E2E2E2E2E2E2E2E2E2E2E2E2E2E2E2E2E2E2E2E2E2E2E2E2E2E2E2E2E2E2E2E2E2E2E2E2E2E2E2E2E2E2E2E2E2E2E2E2E2E2E2E2E2E2E2E2E2E2E2E2E2E2E2E2E2E2E2E2E2E2E2E2E2E2E2E2E2E2E2E2E2E2E2E2E2E2E2E2E2E2E2E2E2E2E2E2E2E2
310
E2E2E2E2E2E2E2E2E2E2E2E2E2E2E2E2E2E2E2E2E2E2E2E2E2E2E2E2E2E2E2E2E2E2E2E2E2E2E2E2E2E2E2E2E2E2E2E2E2E2E2E2E2E2E2E2E2E2E2E2E2E2E2E2E2E2E2E2E2E2E2E2E2E2E2E2E2E2E2E2E2E2E2E2E2E2E2E2E2E2E2E2E2E2E2E2E2E2E2E2E2E2E2E2E2E2E2E2E2E2E2E2E2E2E2E2E2E2E2E2E2E2E2E2E2E2E2
310
E2E2E2E2E2E2E2E2E2E2E2E2E2E2E2E2E2E2E2E2E2E2E2E2E2E2E2E2E2E2E2E2E2E2E2E2E2E2E2E2E2E2E2E2E2E2E2E2E2E2E2E2E2E2E2E2E2E2E2E2E2E2E2E2E2E2E2E2E2E2E2E2E2E2E2E2E2E2E2E2E2E2E2E2E2E2E2E2E2E2E2E2E2E2E2E2E2E2E2E2E2E2E2E2E2E2E2E2E2E2E2E2E2E2E2E2E2E2E2E2E2E2E2E2E2E2E2
310
E2E2E2E2E2E2E2E2E2E2E2E2E2E2E2E2E2E2E2E2E2E2E2E2E2E2E2E2E2E2E2E2E2E2E2E2E2E2E2E2E2E2E2E2E2E2E2E2E2E2E2E2E2E2E2E2E2E2E2E2E2E2E2E2E2E2E2E2E2E2E2E2E2E2E2E2E2E2E2E2E2E2E2E2E2E2E2E2E2E2E2E2E2E2E2E2E2E2E2E2E2E2E2E2E2E2E2E2E2E2E2E2E2E2E2E2E2E2E2E2E2E2E2E2E2E2E2
310
E2E2E2E2E2E2E2E2E2E2E2E2E2E2E2E2E2E2E2E2E2E2E2E2E2E2E2E2E2E2E2E2E2E2E2E2E2E2E2E2E2E2E2E2E2E2E2E2E2E2E2E2E2E2E2E2E2E2E2E2E2E2E2E2E2E2E2E2E2E2E2E2E2E2E2E2E2E2E2E2E2E2E2E2E2E2E2E2E2E2E2E2E2E2E2E2E2E2E2E2E2E2E2E2E2E2E2E2E2E2E2E2E2E2E2E2E2E2E2E2E2E2E2E2E2E2E2
310
E2E2E2E2E2E2E2E2E2E2E2E2E2E2E2E2E2E2E2E2E2E2E2E2E2E2E2E2E2E2E2E2E2E2E2E2E2E2E2E2E2E2E2E2E2E2E2E2E2E2E2E2E2E2E2E2E2E2E2E2E2E2E2E2E2E2E2E2E2E2E2E2E2E2E2E2E2E2E2E2E2E2E2E2E2E2E2E2E2E2E2E2E2E2E2E2E2E2E2E2E2E2E2E2E2E2E2E2E2E2E2E2E2E2E2E2E2E2E2E2E2E2E2E2E2E2E2
310
E2E2E2E2E2E2E2E2E2E2E2E2E2E2E2E2E2E2E2E2E2E2E2E2E2E2E2E2E2E2E2E2E2E2E2E2E2E2E2E2E2E2E2E2E2E2E2E2E2E2E2E2E2E2E2E2E2E2E2E2E2E2E2E2E2E2E2E2E2E2E2E2E2E2E2E2E2E2E2E2E2E2E2E2E2E2E2E2E2E2E2E2E2E2E2E2E2E2E2E2E2E2E2E2E2E2E2E2E2E2E2E2E2E2E2E2E2E2E2E2E2E2E2E2E2E2E2
310
E2E2E2E2E2E2E2E2E2E2E2E2E2E2E2E2E2E2E2E2E2E2E2E2E2E2E2E2E2E2E2E2E2E2E2E2E2E2E2E2E2E2E2E2E2E2E2E2E2E2E2E2E2E2E2E2E2E2E2E2E2E2E2E2E2E2E2E2E2E2E2E2E2E2E2E2E2E2E2E2E2E2E2E2E2E2E2E2E2E2E2E2E2E2E2E2E2E2E2E2E2E2E2E2E2E2E2E2E2E2E2E2E2E2E2E2E2E2E2E2E2E2E2E2E2E2E2
310
E2E2E2E2E2E2E2E2E2E2E2E2E2E2E2E2E2E2E2E2E2E2E2E2E2E2E2E2E2E2E2E2E2E2E2E2E2E2E2E2E2E2E2E2E2E2E2E2E2E2E2E2E2E2E2E2E2E2E2E2E2E2E2E2E2E2E2E2E2E2E2E2E2E2E2E2E2E2E2E2E2E2E2E2E2E2E2E2E2E2E2E2E2E2E2E2E2E2E2E2E2E2E2E2E2E2E2E2E2E2E2E2E2E2E2E2E2E2E2E2E2E2E2E2E2E2E2
310
E2E2E2E2E2E2E2E2E2E2E2E2E2E2E2E2E2E2E2E2E2E2E2E2E2E2E2E2E2E2E2E2E2E2E2E2E2E2E2E2E2E2E2E2E2E2E2E2E2E2E2E2E2E2E2E2E2E2E2E2E2E2E2E2E2E2E2E2E2E2E2E2E2E2E2E2E2E2E2E2E2E2E2E2E2E2E2E2E2E2E2E2E2E2E2E2E2E2E2E2E2E2E2E2E2E2E2E2E2E2E2E2E2E2E2E2E2E2E2E2E2E2E2E2E2E2E2
310
E2E2E2E2E2E2E2E2E2E2E2E2E2E2E2E2E2E2E2E2E2E2E2E2E2E2E2E2E2E2E2E2E2E2E2E2E2E2E2E2E2E2E2E2E2E2E2E2E2E2E2E2E2E2E2E2E2E2E2E2E2E2E2E2E2E2E2E2E2E2E2E2E2E2E2E2E2E2E2E2E2E2E2E2E2E2E2E2E2E2E2E2E2E2E2E2E2E2E2E2E2E2E2E2E2E2E2E2E2E2E2E2E2E2E2E2E2E2E2E2E2E2E2E2E2E2E2
310
E2E2E2E2E2E2E2E2E2E2E2E2E2E2E2E2E2E2E2E2E2E2E2E2E2E2E2E2E2E2E2E2E2E2E2E2E2E2E2E2E2E2E2E2E2E2E2E2E2E2E2E2E2E2E2E2E2E2E2E2E2E2E2E2E2E2E2E2E2E2E2E2E2E2E2E2E2E2E2E2E2E2E2E2E2E2E2E2E2E2E2E2E2E2E2E2E2E2E2E2E2E2E2E2E2E2E2E2E2E2E2E2E2E2E2E2E2E2E2E2E2E2E2E2E2E2E2
310
E2E2E2E2E2E2E2E2E2E2E2E2E2E2E2E2E2E2E2E2E2E2E2E2E2E2E2E2E2E2E2E2E2E2E2E2E2E2E2E2E2E2E2E2E2E2E2E2E2E2E2E2E2E2E2E2E2E2E2E2E2E2E2E2E2E2E2E2E2E2E2E2E2E2E2E2E2E2E2E2E2E2E2E2E2E2E2E2E2E2E2E2E2E2E2E2E2E2E2E2E2E2E2E2E2E2E2E2E2E2E2E2E2E2E2E2E2E2E2E2E2E2E2E2E2E2E2
310
E2E2E2E2E2E2E2E2E2E2E2E2E2E2E2E2E2E2E2E2E2E2E2E2E2E2E2E2E2E2E2E2E2E2E2E2E2E2E2E2E2E2E2E2E2E2E2E2E2E2E2E2E2E2E2E2E2E2E2E2E2E2E2E2E2E2E2E2E2E2E2E2E2E2E2E2E2E2E2E2E2E2E2E2E2E2E2E2E2E2E2E2E2E2E2E2E2E2E2E2E2E2E2E2E2E2E2E2E2E2E2E2E2E2E2E2E2E2E2E2E2E2E2E2E2E2E2
310
E2E2E2E2E2E2E2E2E2E2E2E2E2E2E2E2E2E2E2E2E2E2E2E2E2E2E2E2E2E2E2E2E2E2E2E2E2E2E2E2E2E2E2E2E2E2E2E2E2E2E2E2E2E2E2E2E2E2E2E2E2E2E2E2E2E2E2E2E2E2E2E2E2E2E2E2E2E2E2E2E2E2E2E2E2E2E2E2E2E2E2E2E2E2E2E2E2E2E2E2E2E2E2E2E2E2E2E2E2E2E2E2E2E2E2E2E2E2E2E2E2E2E2E2E2E2E2
310
E2E2E2E2E2E2E2E2E2E2E2E2E2E2E2E2E2E2E2E2E2E2E2E2E2E2E2E2E2E2E2E2E2E2E2E2E2E2E2E2E2E2E2E2E2E2E2E2E2E2E2E2E2E2E2E2E2E2E2E2E2E2E2E2E2E2E2E2E2E2E2E2E2E2E2E2E2E2E2E2E2E2E2E2E2E2E2E2E2E2E2E2E2E2E2E2E2E2E2E2E2E2E2E2E2E2E2E2E2E2E2E2E2E2E2E2E2E2E2E2E2E2E2E2E2E2E2
310
E2E2E2E2E2E2E2E2E2E2E2E2E2E2E2E2E2E2E2E2E2E2E2E2E2E2E2E2E2E2E2E2E2E2E2E2E2E2E2E2E2E2E2E2E2E2E2E2E2E2E2E2E2E2E2E2E2E2E2E2E2E2E2E2E2E2E2E2E2E2E2E2E2E2E2E2E2E2E2E2E2E2E2E2E2E2E2E2E2E2E2E2E2E2E2E2E2E2E2E2E2E2E2E2E2E2E2E2E2E2E2E2E2E2E2E2E2E2E2E2E2E2E2E2E2E2E2
310
E2E2E2E2E2E2E2E2E2E2E2E2E2E2E2E2E2E2E2E2E2E2E2E2E2E2E2E2E2E2E2E2E2E2E2E2E2E2E2E2E2E2E2E2E2E2E2E2E2E2E2E2E2E2E2E2E2E2E2E2E2E2E2E2E2E2E2E2E2E2E2E2E2E2E2E2E2E2E2E2E2E2E2E2E2E2E2E2E2E2E2E2E2E2E2E2E2E2E2E2E2E2E2E2E2E2E2E2E2E2E2E2E2E2E2E2E2E2E2E2E2E2E2E2E2E2E2
310
E2E2E2E2E2E2E2E2E2E2E2E2E2E2E2E2E2E2E2E2E2E2E2E2E2E2E2E2E2E2E2E2E2E2E2E2E2E2E2E2E2E2E2E2E2E2E2E2E2E2E2E2E2E2E2E2E2E2E2E2E2E2E2E2E2E2E2E2E2E2E2E2E2E2E2E2E2E2E2E2E2E2E2E2E2E2E2E2E2E2E2E2E2E2E2E2E2E2E2E2E2E2E2E2E2E2E2E2E2E2E2E2E2E2E2E2E2E2E2E2E2E2E2E2E2E2E2
310
E2E2E2E2E2E2E2E2E2E2E2E2E2E2E2E2E2E2E2E2E2E2E2E2E2E2E2E2E2E2E2E2E2E2E2E2E2E2E2E2E2E2E2E2E2E2E2E2E2E2E2E2E2E2E2E2E2E2E2E2E2E2E2E2E2E2E2E2E2E2E2E2E2E2E2E2E2E2E2E2E2E2E2E2E2E2E2E2E2E2E2E2E2E2E2E2E2E2E2E2E2E2E2E2E2E2E2E2E2E2E2E2E2E2E2E2E2E2E2E2E2E2E2E2E2E2E2
310
E2E2E2E2E2E2E2E2E2E2E2E2E2E2E2E2E2E2E2E2E2E2E2E2E2E2E2E2E2E2E2E2E2E2E2E2E2E2E2E2E2E2E2E2E2E2E2E2E2E2E2E2E2E2E2E2E2E2E2E2E2E2E2E2E2E2E2E2E2E2E2E2E2E2E2E2E2E2E2E2E2E2E2E2E2E2E2E2E2E2E2E2E2E2E2E2E2E2E2E2E2E2E2E2E2E2E2E2E2E2E2E2E2E2E2E2E2E2E2E2E2E2E2E2E2E2E2
310
E2E2E2E2E2E2E2E2E2E2E2E2E2E2E2E2E2E2E2E2E2E2E2E2E2E2E2E2E2E2E2E2E2E2E2E2E2E2E2E2E2E2E2E2E2E2E2E2E2E2E2E2E2E2E2E2E2E2E2E2E2E2E2E2E2E2E2E2E2E2E2E2E2E2E2E2E2E2E2E2E2E2E2E2E2E2E2E2E2E2E2E2E2E2E2E2E2E2E2E2E2E2E2E2E2E2E2E2E2E2E2E2E2E2E2E2E2E2E2E2E2E2E2E2E2E2E2
310
E2E2E2E2E2E2E2E2E2E2E2E2E2E2E2E2E2E2E2E2E2E2E2E2E2E2E2E2E2E2E2E2E2E2E2E2E2E2E2E2E2E2E2E2E2E2E2E2E2E2E2E2E2E2E2E2E2E2E2E2E2E2E2E2E2E2E2E2E2E2E2E2E2E2E2E2E2E2E2E2E2E2E2E2E2E2E2E2E2E2E2E2E2E2E2E2E2E2E2E2E2E2E2E2E2E2E2E2E2E2E2E2E2E2E2E2E2E2E2E2E2E2E2E2E2E2E2
310
E2E2E2E2E2E2E2E2E2E2E2E2E2E2E2E2E2E2E2E2E2E2E2E2E2E2E2E2E2E2E2E2E2E2E2E2E2E2E2E2E2E2E2E2E2E2E2E2E2E2E2E2E2E2E2E2E2E2E2E2E2E2E2E2E2E2E2E2E2E2E2E2E2E2E2E2E2E2E2E2E2E2E2E2E2E2E2E2E2E2E2E2E2E2E2E2E2E2E2E2E2E2E2E2E2E2E2E2E2E2E2E2E2E2E2E2E2E2E2E2E2E2E2E2E2E2E2
310
E2E2E2E2E2E2E2E2E2E2E2E2E2E2E2E2E2E2E2E2E2E2E2E2E2E2E2E2E2E2E2E2E2E2E2E2E2E2E2E2E2E2E2E2E2E2E2E2E2E2E2E2E2E2E2E2E2E2E2E2E2E2E2E2E2E2E2E2E2E2E2E2E2E2E2E2E2E2E2E2E2E2E2E2E2E2E2E2E2E2E2E2E2E2E2E2E2E2E2E2E2E2E2E2E2E2E2E2E2E2E2E2E2E2E2E2E2E2E2E2E2E2E2E2E2E2E2
310
E2E2E2E2E2E2E2E2E2E2E2E2E2E2E2E2E2E2E2E2E2E2E2E2E2E2E2E2E2E2E2E2E2E2E2E2E2E2E2E2E2E2E2E2E2E2E2E2E2E2E2E2E2E2E2E2E2E2E2E2E2E2E2E2E2E2E2E2E2E2E2E2E2E2E2E2E2E2E2E2E2E2E2E2E2E2E2E2E2E2E2E2E2E2E2E2E2E2E2E2E2E2E2E2E2E2E2E2E2E2E2E2E2E2E2E2E2E2E2E2E2E2E2E2E2E2E2
310
E2E2E2E2E2E2E2E2E2E2E2E2E2E2E2E2E2E2E2E2E2E2E2E2E2E2E2E2E2E2E2E2E2E2E2E2E2E2E2E2E2E2E2E2E2E2E2E2E2E2E2E2E2E2E2E2E2E2E2E2E2E2E2E2E2E2E2E2E2E2E2E2E2E2E2E2E2E2E2E2E2E2E2E2E2E2E2E2E2E2E2E2E2E2E2E2E2E2E2E2E2E2E2E2E2E2E2E2E2E2E2E2E2E2E2E2E2E2E2E2E2E2E2E2E2E2E2
310
E2E2E2E2E2E2E2E2E2E2E2E2E2E2E2E2E2E2E2E2E2E2E2E2E2E2E2E2E2E2E2E2E2E2E2E2E2E2E2E2E2E2E2E2E2E2E2E2E2E2E2E2E2E2E2E2E2E2E2E2E2E2E2E2E2E2E2E2E2E2E2E2E2E2E2E2E2E2E2E2E2E2E2E2E2E2E2E2E2E2E2E2E2E2E2E2E2E2E2E2E2E2E2E2E2E2E2E2E2E2E2E2E2E2E2E2E2E2E2E2E2E2E2E2E2E2E2
310
E2E2E2E2E2E2E2E2E2E2E2E2E2E2E2E2E2E2E2E2E2E2E2E2E2E2E2E2E2E2E2E2E2E2E2E2E2E2E2E2E2E2E2E2E2E2E2E2E2E2E2E2E2E2E2E2E2E2E2E2E2E2E2E2E2E2E2E2E2E2E2E2E2E2E2E2E2E2E2E2E2E2E2E2E2E2E2E2E2E2E2E2E2E2E2E2E2E2E2E2E2E2E2E2E2E2E2E2E2E2E2E2E2E2E2E2E2E2E2E2E2E2E2E2E2E2E2
310
E2E2E2E2E2E2E2E2E2E2E2E2E2E2E2E2E2E2E2E2E2E2E2E2E2E2E2E2E2E2E2E2E2E2E2E2E2E2E2E2E2E2E2E2E2E2E2E2E2E2E2E2E2E2E2E2E2E2E2E2E2E2E2E2E2E2E2E2E2E2E2E2E2E2E2E2E2E2E2E2E2E2E2E2E2E2E2E2E2E2E2E2E2E2E2E2E2E2E2E2E2E2E2E2E2E2E2E2E2E2E2E2E2E2E2E2E2E2E2E2E2E2E2E2E2E2E2
310
E2E2E2E2E2E2E2E2E2E2E2E2E2E2E2E2E2E2E2E2E2E2E2E2E2E2E2E2E2E2E2E2E2E2E2E2E2E2E2E2E2E2E2E2E2E2E2E2E2E2E2E2E2E2E2E2E2E2E2E2E2E2E2E2E2E2E2E2E2E2E2E2E2E2E2E2E2E2E2E2E2E2E2E2E2E2E2E2E2E2E2E2E2E2E2E2E2E2E2E2E2E2E2E2E2E2E2E2E2E2E2E2E2E2E2E2E2E2E2E2E2E2E2E2E2E2E2
310
E2E2E2E2E2E2E2E2E2E2E2E2E2E2E2E2E2E2E2E2E2E2E2E2E2E2E2E2E2E2E2E2E2E2E2E2E2E2E2E2E2E2E2E2E2E2E2E2E2E2E2E2E2E2E2E2E2E2E2E2E2E2E2E2E2E2E2E2E2E2E2E2E2E2E2E2E2E2E2E2E2E2E2E2E2E2E2E2E2E2E2E2E2E2E2E2E2E2E2E2E2E2E2E2E2E2E2E2E2E2E2E2E2E2E2E2E2E2E2E2E2E2E2E2E2E2E2
310
E2E2E2E2E2E2E2E2E2E2E2E2E2E2E2E2E2E2E2E2E2E2E2E2E2E2E2E2E2E2E2E2E2E2E2E2E2E2E2E2E2E2E2E2E2E2E2E2E2E2E2E2E2E2E2E2E2E2E2E2E2E2E2E2E2E2E2E2E2E2E2E2E2E2E2E2E2E2E2E2E2E2E2E2E2E2E2E2E2E2E2E2E2E2E2E2E2E2E2E2E2E2E2E2E2E2E2E2E2E2E2E2E2E2E2E2E2E2E2E2E2E2E2E2E2E2E2
310
E2E2E2E2E2E2E2E2E2E2E2E2E2E2E2E2E2E2E2E2E2E2E2E2E2E2E2E2E2E2E2E2E2E2E2E2E2E2E2E2E2E2E2E2E2E2E2E2E2E2E2E2E2E2E2E2E2E2E2E2E2E2E2E2E2E2E2E2E2E2E2E2E2E2E2E2E2E2E2E2E2E2E2E2E2E2E2E2E2E2E2E2E2E2E2E2E2E2E2E2E2E2E2E2E2E2E2E2E2E2E2E2E2E2E2E2E2E2E2E2E2E2E2E2E2E2E2
310
E2E2E2E2E2E2E2E2E2E2E2E2E2E2E2E2E2E2E2E2E2E2E2E2E2E2E2E2E2E2E2E2E2E2E2E2E2E2E2E2E2E2E2E2E2E2E2E2E2E2E2E2E2E2E2E2E2E2E2E2E2E2E2E2E2E2E2E2E2E2E2E2E2E2E2E2E2E2E2E2E2E2E2E2E2E2E2E2E2E2E2E2E2E2E2E2E2E2E2E2E2E2E2E2E2E2E2E2E2E2E2E2E2E2E2E2E2E2E2E2E2E2E2E2E2E2E2
310
E2E2E2E2E2E2E2E2E2E2E2E2E2E2E2E2E2E2E2E2E2E2E2E2E2E2E2E2E2E2E2E2E2E2E2E2E2E2E2E2E2E2E2E2E2E2E2E2E2E2E2E2E2E2E2E2E2E2E2E2E2E2E2E2E2E2E2E2E2E2E2E2E2E2E2E2E2E2E2E2E2E2E2E2E2E2E2E2E2E2E2E2E2E2E2E2E2E2E2E2E2E2E2E2E2E2E2E2E2E2E2E2E2E2E2E2E2E2E2E2E2E2E2E2E2E2E2
310
E2E2E2E2E2E2E2E2E2E2E2E2E2E2E2E2E2E2E2E2E2E2E2E2E2E2E2E2E2E2E2E2E2E2E2E2E2E2E2E2E2E2E2E2E2E2E2E2E2E2E2E2E2E2E2E2E2E2E2E2E2E2E2E2E2E2E2E2E2E2E2E2E2E2E2E2E2E2E2E2E2E2E2E2E2E2E2E2E2E2E2E2E2E2E2E2E2E2E2E2E2E2E2E2E2E2E2E2E2E2E2E2E2E2E2E2E2E2E2E2E2E2E2E2E2E2E2
310
E2E2E2E2E2E2E2E2E2E2E2E2E2E2E2E2E2E2E2E2E2E2E2E2E2E2E2E2E2E2E2E2E2E2E2E2E2E2E2E2E2E2E2E2E2E2E2E2E2E2E2E2E2E2E2E2E2E2E2E2E2E2E2E2E2E2E2E2E2E2E2E2E2E2E2E2E2E2E2E2E2E2E2E2E2E2E2E2E2E2E2E2E2E2E2E2E2E2E2E2E2E2E2E2E2E2E2E2E2E2E2E2E2E2E2E2E2E2E2E2E2E2E2E2E2E2E2
310
E2E2E2E2E2E2E2E2E2E2E2E2E2E2E2E2E2E2E2E2E2E2E2E2E2E2E2E2E2E2E2E2E2E2E2E2E2E2E2E2E2E2E2E2E2E2E2E2E2E2E2E2E2E2E2E2E2E2E2E2E2E2E2E2E2E2E2E2E2E2E2E2E2E2E2E2E2E2E2E2E2E2E2E2E2E2E2E2E2E2E2E2E2E2E2E2E2E2E2E2E2E2E2E2E2E2E2E2E2E2E2E2E2E2E2E2E2E2E2E2E2E2E2E2E2E2E2
310
E2E2E2E2E2E2E2E2E2E2E2E2E2E2E2E2E2E2E2E2E2E2E2E2E2E2E2E2E2E2E2E2E2E2E2E2E2E2E2E2E2E2E2E2E2E2E2E2E2E2E2E2E2E2E2E2E2E2E2E2E2E2E2E2E2E2E2E2E2E2E2E2E2E2E2E2E2E2E2E2E2E2E2E2E2E2E2E2E2E2E2E2E2E2E2E2E2E2E2E2E2E2E2E2E2E2E2E2E2E2E2E2E2E2E2E2E2E2E2E2E2E2E2E2E2E2E2
310
E2E2E2E2E2E2E2E2E2E2E2E2E2E2E2E2E2E2E2E2E2E2E2E2E2E2E2E2E2E2E2E2E2E2E2E2E2E2E2E2E2E2E2E2E2E2E2E2E2E2E2E2E2E2E2E2E2E2E2E2E2E2E2E2E2E2E2E2E2E2E2E2E2E2E2E2E2E2E2E2E2E2E2E2E2E2E2E2E2E2E2E2E2E2E2E2E2E2E2E2E2E2E2E2E2E2E2E2E2E2E2E2E2E2E2E2E2E2E2E2E2E2E2E2E2E2E2
310
E2E2E2E2E2E2E2E2E2E2E2E2E2E2E2E2E2E2E2E2E2E2E2E2E2E2E2E2E2E2E2E2E2E2E2E2E2E2E2E2E2E2E2E2E2E2E2E2E2E2E2E2E2E2E2E2E2E2E2E2E2E2E2E2E2E2E2E2E2E2E2E2E2E2E2E2E2E2E2E2E2E2E2E2E2E2E2E2E2E2E2E2E2E2E2E2E2E2E2E2E2E2E2E2E2E2E2E2E2E2E2E2E2E2E2E2E2E2E2E2E2E2E2E2E2E2E2
310
E2E2E2E2E2E2E2E2E2E2E2E2E2E2E2E2E2E2E2E2E2E2E2E2E2E2E2E2E2E2E2E2E2E2E2E2E2E2E2E2E2E2E2E2E2E2E2E2E2E2E2E2E2E2E2E2E2E2E2E2E2E2E2E2E2E2E2E2E2E2E2E2E2E2E2E2E2E2E2E2E2E2E2E2E2E2E2E2E2E2E2E2E2E2E2E2E2E2E2E2E2E2E2E2E2E2E2E2E2E2E2E2E2E2E2E2E2E2E2E2E2E2E2E2E2E2E2
310
E2E2E2E2E2E2E2E2E2E2E2E2E2E2E2E2E2E2E2E2E2E2E2E2E2E2E2E2E2E2E2E2E2E2E2E2E2E2E2E2E2E2E2E2E2E2E2E2E2E2E2E2E2E2E2E2E2E2E2E2E2E2E2E2E2E2E2E2E2E2E2E2E2E2E2E2E2E2E2E2E2E2E2E2E2E2E2E2E2E2E2E2E2E2E2E2E2E2E2E2E2E2E2E2E2E2E2E2E2E2E2E2E2E2E2E2E2E2E2E2E2E2E2E2E2E2E2
310
E2E2E2E2E2E2E2E2E2E2E2E2E2E2E2E2E2E2E2E2E2E2E2E2E2E2E2E2E2E2E2E2E2E2E2E2E2E2E2E2E2E2E2E2E2E2E2E2E2E2E2E2E2E2E2E2E2E2E2E2E2E2E2E2E2E2E2E2E2E2E2E2E2E2E2E2E2E2E2E2E2E2E2E2E2E2E2E2E2E2E2E2E2E2E2E2E2E2E2E2E2E2E2E2E2E2E2E2E2E2E2E2E2E2E2E2E2E2E2E2E2E2E2E2E2E2E2
310
E2E2E2E2E2E2E2E2E2E2E2E2E2E2E2E2E2E2E2E2E2E2E2E2E2E2E2E2E2E2E2E2E2E2E2E2E2E2E2E2E2E2E2E2E2E2E2E2E2E2E2E2E2E2E2E2E2E2E2E2E2E2E2E2E2E2E2E2E2E2E2E2E2E2E2E2E2E2E2E2E2E2E2E2E2E2E2E2E2E2E2E2E2E2E2E2E2E2E2E2E2E2E2E2E2E2E2E2E2E2E2E2E2E2E2E2E2E2E2E2E2E2E2E2E2E2E2
310
E2E2E2E2E2E2E2E2E2E2E2E2E2E2E2E2E2E2E2E2E2E2E2E2E2E2E2E2E2E2E2E2E2E2E2E2E2E2E2E2E2E2E2E2E2E2E2E2E2E2E2E2E2E2E2E2E2E2E2E2E2E2E2E2E2E2E2E2E2E2E2E2E2E2E2E2E2E2E2E2E2E2E2E2E2E2E2E2E2E2E2E2E2E2E2E2E2E2E2E2E2E2E2E2E2E2E2E2E2E2E2E2E2E2E2E2E2E2E2E2E2E2E2E2E2E2E2
310
E2E2E2E2E2E2E2E2E2E2E2E2E2E2E2E2E2E2E2E2E2E2E2E2E2E2E2E2E2E2E2E2E2E2E2E2E2E2E2E2E2E2E2E2E2E2E2E2E2E2E2E2E2E2E2E2E2E2E2E2E2E2E2E2E2E2E2E2E2E2E2E2E2E2E2E2E2E2E2E2E2E2E2E2E2E2E2E2E2E2E2E2E2E2E2E2E2E2E2E2E2E2E2E2E2E2E2E2E2E2E2E2E2E2E2E2E2E2E2E2E2E2E2E2E2E2E2
310
E2E2E2E2E2E2E2E2E2E2E2E2E2E2E2E2E2E2E2E2E2E2E2E2E2E2E2E2E2E2E2E2E2E2E2E2E2E2E2E2E2E2E2E2E2E2E2E2E2E2E2E2E2E2E2E2E2E2E2E2E2E2E2E2E2E2E2E2E2E2E2E2E2E2E2E2E2E2E2E2E2E2E2E2E2E2E2E2E2E2E2E2E2E2E2E2E2E2E2E2E2E2E2E2E2E2E2E2E2E2E2E2E2E2E2E2E2E2E2E2E2E2E2E2E2E2E2
310
E2E2E2E2E2E2E2E2E2E2E2E2E2E2E2E2E2E2E2E2E2E2E2E2E2E2E2E2E2E2E2E2E2E2E2E2E2E2E2E2E2E2E2E2E2E2E2E2E2E2E2E2E2E2E2E2E2E2E2E2E2E2E2E2E2E2E2E2E2E2E2E2E2E2E2E2E2E2E2E2E2E2E2E2E2E2E2E2E2E2E2E2E2E2E2E2E2E2E2E2E2E2E2E2E2E2E2E2E2E2E2E2E2E2E2E2E2E2E2E2E2E2E2E2E2E2E2
310
E2E2E2E2E2E2E2E2E2E2E2E2E2E2E2E2E2E2E2E2E2E2E2E2E2E2E2E2E2E2E2E2E2E2E2E2E2E2E2E2E2E2E2E2E2E2E2E2E2E2E2E2E2E2E2E2E2E2E2E2E2E2E2E2E2E2E2E2E2E2E2E2E2E2E2E2E2E2E2E2E2E2E2E2E2E2E2E2E2E2E2E2E2E2E2E2E2E2E2E2E2E2E2E2E2E2E2E2E2E2E2E2E2E2E2E2E2E2E2E2E2E2E2E2E2E2E2
310
E2E2E2E2E2E2E2E2E2E2E2E2E2E2E2E2E2E2E2E2E2E2E2E2E2E2E2E2E2E2E2E2E2E2E2E2E2E2E2E2E2E2E2E2E2E2E2E2E2E2E2E2E2E2E2E2E2E2E2E2E2E2E2E2E2E2E2E2E2E2E2E2E2E2E2E2E2E2E2E2E2E2E2E2E2E2E2E2E2E2E2E2E2E2E2E2E2E2E2E2E2E2E2E2E2E2E2E2E2E2E2E2E2E2E2E2E2E2E2E2E2E2E2E2E2E2E2
310
E2E2E2E2E2E2E2E2E2E2E2E2E2E2E2E2E2E2E2E2E2E2E2E2E2E2E2E2E2E2E2E2E2E2E2E2E2E2E2E2E2E2E2E2E2E2E2E2E2E2E2E2E2E2E2E2E2E2E2E2E2E2E2E2E2E2E2E2E2E2E2E2E2E2E2E2E2E2E2E2E2E2E2E2E2E2E2E2E2E2E2E2E2E2E2E2E2E2E2E2E2E2E2E2E2E2E2E2E2E2E2E2E2E2E2E2E2E2E2E2E2E2E2E2E2E2E2
310
E2E2E2E2E2E2E2E2E2E2E2E2E2E2E2E2E2E2E2E2E2E2E2E2E2E2E2E2E2E2E2E2E2E2E2E2E2E2E2E2E2E2E2E2E2E2E2E2E2E2E2E2E2E2E2E2E2E2E2E2E2E2E2E2E2E2E2E2E2E2E2E2E2E2E2E2E2E2E2E2E2E2E2E2E2E2E2E2E2E2E2E2E2E2E2E2E2E2E2E2E2E2E2E2E2E2E2E2E2E2E2E2E2E2E2E2E2E2E2E2E2E2E2E2E2E2E2
310
E2E2E2E2E2E2E2E2E2E2E2E2E2E2E2E2E2E2E2E2E2E2E2E2E2E2E2E2E2E2E2E2E2E2E2E2E2E2E2E2E2E2E2E2E2E2E2E2E2E2E2E2E2E2E2E2E2E2E2E2E2E2E2E2E2E2E2E2E2E2E2E2E2E2E2E2E2E2E2E2E2E2E2E2E2E2E2E2E2E2E2E2E2E2E2E2E2E2E2E2E2E2E2E2E2E2E2E2E2E2E2E2E2E2E2E2E2E2E2E2E2E2E2E2E2E2E2
310
E2E2E2E2E2E2E2E2E2E2E2E2E2E2E2E2E2E2E2E2E2E2E2E2E2E2E2E2E2E2E2E2E2E2E2E2E2E2E2E2E2E2E2E2E2E2E2E2E2E2E2E2E2E2E2E2E2E2E2E2E2E2E2E2E2E2E2E2E2E2E2E2E2E2E2E2E2E2E2E2E2E2E2E2E2E2E2E2E2E2E2E2E2E2E2E2E2E2E2E2E2E2E2E2E2E2E2E2E2E2E2E2E2E2E2E2E2E2E2E2E2E2E2E2E2E2E2
310
E2E2E2E2E2E2E2E2E2E2E2E2E2E2E2E2E2E2E2E2E2E2E2E2E2E2E2E2E2E2E2E2E2E2E2E2E2E2E2E2E2E2E2E2E2E2E2E2E2E2E2E2E2E2E2E2E2E2E2E2E2E2E2E2E2E2E2E2E2E2E2E2E2E2E2E2E2E2E2E2E2E2E2E2E2E2E2E2E2E2E2E2E2E2E2E2E2E2E2E2E2E2E2E2E2E2E2E2E2E2E2E2E2E2E2E2E2E2E2E2E2E2E2E2E2E2E2
310
E2E2E2E2E2E2E2E2E2E2E2E2E2E2E2E2E2E2E2E2E2E2E2E2E2E2E2E2E2E2E2E2E2E2E2E2E2E2E2E2E2E2E2E2E2E2E2E2E2E2E2E2E2E2E2E2E2E2E2E2E2E2E2E2E2E2E2E2E2E2E2E2E2E2E2E2E2E2E2E2E2E2E2E2E2E2E2E2E2E2E2E2E2E2E2E2E2E2E2E2E2E2E2E2E2E2E2E2E2E2E2E2E2E2E2E2E2E2E2E2E2E2E2E2E2E2E2
310
E2E2E2E2E2E2E2E2E2E2E2E2E2E2E2E2E2E2E2E2E2E2E2E2E2E2E2E2E2E2E2E2E2E2E2E2E2E2E2E2E2E2E2E2E2E2E2E2E2E2E2E2E2E2E2E2E2E2E2E2E2E2E2E2E2E2E2E2E2E2E2E2E2E2E2E2E2E2E2E2E2E2E2E2E2E2E2E2E2E2E2E2E2E2E2E2E2E2E2E2E2E2E2E2E2E2E2E2E2E2E2E2E2E2E2E2E2E2E2E2E2E2E2E2E2E2E2
310
E2E2E2E2E2E2E2E2E2E2E2E2E2E2E2E2E2E2E2E2E2E2E2E2E2E2E2E2E2E2E2E2E2E2E2E2E2E2E2E2E2E2E2E2E2E2E2E2E2E2E2E2E2E2E2E2E2E2E2E2E2E2E2E2E2E2E2E2E2E2E2E2E2E2E2E2E2E2E2E2E2E2E2E2E2E2E2E2E2E2E2E2E2E2E2E2E2E2E2E2E2E2E2E2E2E2E2E2E2E2E2E2E2E2E2E2E2E2E2E2E2E2E2E2E2E2E2
310
E2E2E2E2E2E2E2E2E2E2E2E2E2E2E2E2E2E2E2E2E2E2E2E2E2E2E2E2E2E2E2E2E2E2E2E2E2E2E2E2E2E2E2E2E2E2E2E2E2E2E2E2E2E2E2E2E2E2E2E2E2E2E2E2E2E2E2E2E2E2E2E2E2E2E2E2E2E2E2E2E2E2E2E2E2E2E2E2E2E2E2E2E2E2E2E2E2E2E2E2E2E2E2E2E2E2E2E2E2E2E2E2E2E2E2E2E2E2E2E2E2E2E2E2E2E2E2
310
E2E2E2E2E2E2E2E2E2E2E2E2E2E2E2E2E2E2E2E2E2E2E2E2E2E2E2E2E2E2E2E2E2E2E2E2E2E2E2E2E2E2E2E2E2E2E2E2E2E2E2E2E2E2E2E2E2E2E2E2E2E2E2E2E2E2E2E2E2E2E2E2E2E2E2E2E2E2E2E2E2E2E2E2E2E2E2E2E2E2E2E2E2E2E2E2E2E2E2E2E2E2E2E2E2E2E2E2E2E2E2E2E2E2E2E2E2E2E2E2E2E2E2E2E2E2E2
310
E2E2E2E2E2E2E2E2E2E2E2E2E2E2E2E2E2E2E2E2E2E2E2E2E2E2E2E2E2E2E2E2E2E2E2E2E2E2E2E2E2E2E2E2E2E2E2E2E2E2E2E2E2E2E2E2E2E2E2E2E2E2E2E2E2E2E2E2E2E2E2E2E2E2E2E2E2E2E2E2E2E2E2E2E2E2E2E2E2E2E2E2E2E2E2E2E2E2E2E2E2E2E2E2E2E2E2E2E2E2E2E2E2E2E2E2E2E2E2E2E2E2E2E2E2E2E2
310
E2E2E2E2E2E2E2E2E2E2E2E2E2E2E2E2E2E2E2E2E2E2E2E2E2E2E2E2E2E2E2E2E2E2E2E2E2E2E2E2E2E2E2E2E2E2E2E2E2E2E2E2E2E2E2E2E2E2E2E2E2E2E2E2E2E2E2E2E2E2E2E2E2E2E2E2E2E2E2E2E2E2E2E2E2E2E2E2E2E2E2E2E2E2E2E2E2E2E2E2E2E2E2E2E2E2E2E2E2E2E2E2E2E2E2E2E2E2E2E2E2E2E2E2E2E2E2
310
E2E2E2E2E2E2E2E2E2E2E2E2E2E2E2E2E2E2E2E2E2E2E2E2E2E2E2E2E2E2E2E2E2E2E2E2E2E2E2E2E2E2E2E2E2E2E2E2E2E2E2E2E2E2E2E2E2E2E2E2E2E2E2E2E2E2E2E2E2E2E2E2E2E2E2E2E2E2E2E2E2E2E2E2E2E2E2E2E2E2E2E2E2E2E2E2E2E2E2E2E2E2E2E2E2E2E2E2E2E2E2E2E2E2E2E2E2E2E2E2E2E2E2E2E2E2E2
310
E2E2E2E2E2E2E2E2E2E2E2E2E2E2E2E2E2E2E2E2E2E2E2E2E2E2E2E2E2E2E2E2E2E2E2E2E2E2E2E2E2E2E2E2E2E2E2E2E2E2E2E2E2E2E2E2E2E2E2E2E2E2E2E2E2E2E2E2E2E2E2E2E2E2E2E2E2E2E2E2E2E2E2E2E2E2E2E2E2E2E2E2E2E2E2E2E2E2E2E2E2E2E2E2E2E2E2E2E2E2E2E2E2E2E2E2E2E2E2E2E2E2E2E2E2E2E2
310
E2E2E2E2E2E2E2E2E2E2E2E2E2E2E2E2E2E2E2E2E2E2E2E2E2E2E2E2E2E2E2E2E2E2E2E2E2E2E2E2E2E2E2E2E2E2E2E2E2E2E2E2E2E2E2E2E2E2E2E2E2E2E2E2E2E2E2E2E2E2E2E2E2E2E2E2E2E2E2E2E2E2E2E2E2E2E2E2E2E2E2E2E2E2E2E2E2E2E2E2E2E2E2E2E2E2E2E2E2E2E2E2E2E2E2E2E2E2E2E2E2E2E2E2E2E2E2
310
E2E2E2E2E2E2E2E2E2E2E2E2E2E2E2E2E2E2E2E2E2E2E2E2E2E2E2E2E2E2E2E2E2E2E2E2E2E2E2E2E2E2E2E2E2E2E2E2E2E2E2E2E2E2E2E2E2E2E2E2E2E2E2E2E2E2E2E2E2E2E2E2E2E2E2E2E2E2E2E2E2E2E2E2E2E2E2E2E2E2E2E2E2E2E2E2E2E2E2E2E2E2E2E2E2E2E2E2E2E2E2E2E2E2E2E2E2E2E2E2E2E2E2E2E2E2E2
310
E2E2E2E2E2E2E2E2E2E2E2E2E2E2E2E2E2E2E2E2E2E2E2E2E2E2E2E2E2E2E2E2E2E2E2E2E2E2E2E2E2E2E2E2E2E2E2E2E2E2E2E2E2E2E2E2E2E2E2E2E2E2E2E2E2E2E2E2E2E2E2E2E2E2E2E2E2E2E2E2E2E2E2E2E2E2E2E2E2E2E2E2E2E2E2E2E2E2E2E2E2E2E2E2E2E2E2E2E2E2E2E2E2E2E2E2E2E2E2E2E2E2E2E2E2E2E2
310
E2E2E2E2E2E2E2E2E2E2E2E2E2E2E2E2E2E2E2E2E2E2E2E2E2E2E2E2E2E2E2E2E2E2E2E2E2E2E2E2E2E2E2E2E2E2E2E2E2E2E2E2E2E2E2E2E2E2E2E2E2E2E2E2E2E2E2E2E2E2E2E2E2E2E2E2E2E2E2E2E2E2E2E2E2E2E2E2E2E2E2E2E2E2E2E2E2E2E2E2E2E2E2E2E2E2E2E2E2E2E2E2E2E2E2E2E2E2E2E2E2E2E2E2E2E2E2
310
E2E2E2E2E2E2E2E2E2E2E2E2E2E2E2E2E2E2E2E2E2E2E2E2E2E2E2E2E2E2E2E2E2E2E2E2E2E2E2E2E2E2E2E2E2E2E2E2E2E2E2E2E2E2E2E2E2E2E2E2E2E2E2E2E2E2E2E2E2E2E2E2E2E2E2E2E2E2E2E2E2E2E2E2E2E2E2E2E2E2E2E2E2E2E2E2E2E2E2E2E2E2E2E2E2E2E2E2E2E2E2E2E2E2E2E2E2E2E2E2E2E2E2E2E2E2E2
310
E2E2E2E2E2E2E2E2E2E2E2E2E2E2E2E2E2E2E2E2E2E2E2E2E2E2E2E2E2E2E2E2E2E2E2E2E2E2E2E2E2E2E2E2E2E2E2E2E2E2E2E2E2E2E2E2E2E2E2E2E2E2E2E2E2E2E2E2E2E2E2E2E2E2E2E2E2E2E2E2E2E2E2E2E2E2E2E2E2E2E2E2E2E2E2E2E2E2E2E2E2E2E2E2E2E2E2E2E2E2E2E2E2E2E2E2E2E2E2E2E2E2E2E2E2E2E2
310
E2E2E2E2E2E2E2E2E2E2E2E2E2E2E2E2E2E2E2E2E2E2E2E2E2E2E2E2E2E2E2E2E2E2E2E2E2E2E2E2E2E2E2E2E2E2E2E2E2E2E2E2E2E2E2E2E2E2E2E2E2E2E2E2E2E2E2E2E2E2E2E2E2E2E2E2E2E2E2E2E2E2E2E2E2E2E2E2E2E2E2E2E2E2E2E2E2E2E2E2E2E2E2E2E2E2E2E2E2E2E2E2E2E2E2E2E2E2E2E2E2E2E2E2E2E2E2
310
E2E2E2E2BEBEBEBEBEBEBEBEBEBEBEBEBEBEBEBEBEBEBEBEBEBEBEBEBEBEBEBEBEBEBEBEBEBEBEBEBEBEBEBEBEBEBEBEBEBEBEBEBEBEBEBEBEE2E2E2E2E2E2E2E2E2E2E2E2E2E2E2E2E2E2E2E2E2E2E2E2E2E2E2E2E2E2E2E2E2E2E2E2E2E2E2E2E2E2E2E2E2E2E2E2E2E2E2E2E2E2E2E2E2E2E2E2E2E2E2E2E2E2E2E2E2E2
310
E2E2E2E2E2E2E2E2E2E2E2E2E2E2E2E2E2E2E2E2E2E2E2E2E2E2E2E2E2E2E2E2E2E2E2E2E2E2E2E2E2E2E2E2E2E2E2E2E2E2E2E2E2E2E2E2E2E2E2E2E2E2E2E2E2E2E2E2E2E2E2E2E2E2E2E2E2E2E2E2E2E2E2E2E2E2E2E2E2E2E2E2E2E2E2E2E2E2E2E2E2E2E2E2E2E2E2E2E2E2E2E2E2E2E2E2E2E2E2E2E2E2E2E2E2E2E2
310
E2E2E2E2E2E2BEE2E2E2E2DCDCDCDCDCDCDCDCDCDCDCDCDCDCDCDCDCDCDCDCDCDCDCDCDCDCDCDCDCDCDCDCDCDCDCDCDCDCDCDCDCDCDCDCDCC3E2BEE2E2E2E2E2E2E2E2E2E2E2E2E2E2E2E2E2E2E2E2E2E2E2E2E2E2E2E2E2E2E2E2E2E2E2E2E2E2E2E2E2E2E2E2E2E2E2E2E2E2E2E2E2E2E2E2E2E2E2E2E2E2E2E2E2E2E2E2
310
E2E2E2E2E2E2E2E2E2E2E2E2E2E2E2E2E2E2E2E2E2E2E2E2E2E2E2E2E2E2E2E2E2E2E2E2E2E2E2E2E2E2E2E2E2E2E2E2E2E2E2E2E2E2E2E2E2E2E2E2E2E2E2E2E2E2E2E2E2E2E2E2E2E2E2E2E2E2E2E2E2E2E2E2E2E2E2E2E2E2E2E2E2E2E2E2E2E2E2E2E2E2E2E2E2E2E2E2E2E2E2E2E2E2E2E2E2E2E2E2E2E2E2E2E2E2E2
310
E2E2E2E2E2E2E2E2BEE2E2E2E2DCDCDCDCDCDCDCDCDCDCDCDCE2E2E2E2E2E2E2E2E2E2E2DCE2DCDCDCE2DCDCDCDCDCDCE2BEE2E2E2E2DCDCDCE2DCE2BEE2E2E2E2E2E2E2E2E2E2E2E2E2E2E2E2E2E2E2E2E2E2E2E2E2E2E2E2E2E2E2E2E2E2E2E2E2E2E2E2E2E2E2E2E2E2E2E2E2E2E2E2E2E2E2E2E2E2E2E2E2E2E2E2E2E2
310
E2E2E2E2E2E2E2E2E2E2E2E2E2E2E2E2E2E2E2E2E2E2E2E2E2E2E2E2E2E2E2E2E2E2E2E2E2E2E2E2E2E2E2E2E2E2E2E2E2E2E2E2E2E2E2E2E2E2E2E2E2E2E2E2E2E2E2E2E2E2E2E2E2E2E2E2E2E2E2E2E2E2E2E2E2E2E2E2E2E2E2E2E2E2E2E2E2E2E2E2E2E2E2E2E2E2E2E2E2E2E2E2E2E2E2E2E2E2E2E2E2E2E2E2E2E2E2
310
E2E2E2E2E2E2E2E2E2E2BEE2E2E2E2DCDCDCDCF5DCF5DCDCDCDCDCE2E2E2E2E2E2E2E2E2E2E2DCF5DCDCDCE2DCDCDCDCDCDCE2F5F5F5F5F5F5DCDCF5F5E2BEE2E2E2E2E2E2E2E2E2E2E2E2E2E2E2E2E2E2E2E2E2E2E2E2E2E2E2E2E2E2E2E2E2E2E2E2E2E2E2E2E2E2E2E2E2E2E2E2E2E2E2E2E2E2E2E2E2E2E2E2E2E2E2E2
310
E2E2E2E2E2E2E2E2E2E2E2E2E2E2E2E2E2E2E2E2E2E2E2E2E2E2E2E2E2E2E2E2E2E2E2E2E2E2E2E2E2E2E2E2E2E2E2E2E2E2E2E2E2E2E2E2E2E2E2E2E2E2E2E2E2E2E2E2E2E2E2E2E2E2E2E2E2E2E2E2E2E2E2E2E2E2E2E2E2E2E2E2E2E2E2E2E2E2E2E2E2E2E2E2E2E2E2E2E2E2E2E2E2E2E2E2E2E2E2E2E2E2E2E2E2E2E2
310
E2E2E2E2E2E2E2E2E2E2E2E2BEE2E2E2E2F5F5F5F5F5F5F5F5BEBEBEBEBEBEF5F5BEBEBEBEBEDCDCDCDCDCDCDCDCDCDCDCDCDCDCDCF5F5F5F5F5F5DCDCDCDCE2BEE2E2E2E2E2E2E2E2E2E2E2E2E2E2E2E2E2E2E2E2E2E2E2E2E2E2E2E2E2E2E2E2E2E2E2E2E2E2E2E2E2E2E2E2E2E2E2E2E2E2E2E2E2E2E2E2E2E2E2E2E2E2
310
E2E2E2E2E2E2E2E2E2E2E2E2E2E2E2E2E2E2E2E2E2E2E2E2E2E2E2E2E2E2E2E2E2E2E2E2E2E2E2E2E2E2E2E2E2E2E2E2E2E2E2E2E2E2E2E2E2E2E2E2E2E2E2E2E2E2E2E2E2E2E2E2E2E2E2E2E2E2E2E2E2E2E2E2E2E2E2E2E2E2E2E2E2E2E2E2E2E2E2E2E2E2E2E2E2E2E2E2E2E2E2E2E2E2E2E2E2E2E2E2E2E2E2E2E2E2E2
310
E2E2E2E2E2E2E2E2E2E2E2E2E2E2BEE2E2E2E2DCDCDCDCDCDCDCDCBEBEBEBEBEBEDCDCBEBEBEBEBEDCDCDCDCDCDCDCDCDCDCDCDCDCDC2D2D2D2D2D2D2D2D2D2DDCE2BEE2E2E2E2E2E2E2E2E2E2E2E2E2E2E2E2E2E2E2E2E2E2E2E2E2E2E2E2E2E2E2E2E2E2E2E2E2E2E2E2E2E2E2E2E2E2E2E2E2E2E2E2E2E2E2E2E2E2E2E2
310
E2E2E2E2E2E2E2E2E2E2E2E2E2E2E2E2E2E2E2E2E2E2E2E2E2E2E2E2E2E2E2E2E2E2E2E2E2E2E2E2E2E2E2E2E2E2E2E2E2E2E2E2E2E2E2E2E2E2E2E2E2E2E2E2E2E2E2E2E2E2E2E2E2E2E2E2E2E2E2E2E2E2E2E2E2E2E2E2E2E2E2E2E2E2E2E2E2E2E2E2E2E2E2E2E2E2E2E2E2E2E2E2E2E2E2E2E2E2E2E2E2E2E2E2E2E2E2
310
E2E2E2E2E2E2E2E2E2E2E2E2E2E2E2E2BEE2E2E2E2DCE2E2E2E2E2E2E2E2E2E2E2E2E2E2E2E2E2E2E2E2E2E2E2E2E2E2E2E2E2E2E2E2E2DCE22D2D2D2D2D2D2D2D2DDCE2BEE2E2E2E2E2E2E2E2E2E2E2E2E2E2E2E2E2E2E2E2E2E2E2E2E2E2E2E2E2E2E2E2E2E2E2E2E2E2E2E2E2E2E2E2E2E2E2E2E2E2E2E2E2E2E2E2E2E2
310
E2E2E2E2E2E2E2E2E2E2E2E2E2E2E2E2E2E2E2E2E2E2E2E2E2E2E2E2E2E2E2E2E2E2E2E2E2E2E2E2E2E2E2E2E2E2E2E2E2E2E2E2E2E2E2E2E2E2E2E2E2E2E2E2E2E2E2E2E2E2E2E2E2E2E2E2E2E2E2E2E2E2E2E2E2E2E2E2E2E2E2E2E2E2E2E2E2E2E2E2E2E2E2E2E2E2E2E2E2E2E2E2E2E2E2E2E2E2E2E2E2E2E2E2E2E2E2
310
E2E2E2E2E2E2E2E2E2E2E2E2E2E2E2E2E2E2BEE2E2E2E2F5F5F5F5F5F5BEBEBEBEBEBEBEBEBEBEBEBEBEBEBEBEBEBEBEBEBEBEBEBEBEBEBEBEBEE22D2D2D2D2D2D2D2D2DDCE2BEE2E2E2E2E2E2E2E2E2E2E2E2E2E2E2E2E2E2E2E2E2E2E2E2E2E2E2E2E2E2E2E2E2E2E2E2E2E2E2E2E2E2E2E2E2E2E2E2E2E2E2E2E2E2E2E2
310
E2E2E2E2E2E2E2E2E2E2E2E2E2E2E2E2E2E2E2E2E2E2E2E2E2E2E2E2E2E2E2E2E2E2E2E2E2E2E2E2E2E2E2E2E2E2E2E2E2E2E2E2E2E2E2E2E2E2E2E2E2E2E2E2E2E2E2E2E2E2E2E2E2E2E2E2E2E2E2E2E2E2E2E2E2E2E2E2E2E2E2E2E2E2E2E2E2E2E2E2E2E2E2E2E2E2E2E2E2E2E2E2E2E2E2E2E2E2E2E2E2E2E2E2E2E2E2
310
E2E2E2E2E2E2E2E2E2E2E2E2E2E2E2E2E2E2E2E2BEE2E2E2E2DCF5DCDCDCDCDCDCDCDCDCDCDCDCDCDCDCDCDCDCDCDCDCDCDCDCDCDCDCDCDCDCDCDCDCDCDCDCDCDCDCDCDCDCDCDCE2BEE2E2E2E2E2E2E2E2E2E2E2E2E2E2E2E2E2E2E2E2E2E2E2E2E2E2E2E2E2E2E2E2E2E2E2E2E2E2E2E2E2E2E2E2E2E2E2E2E2E2E2E2E2E2
310
E2E2E2E2E2E2E2E2E2E2E2E2E2E2E2E2E2E2E2E2E2E2E2E2E2E2E2E2E2E2E2E2E2E2E2E2E2E2E2E2E2E2E2E2E2E2E2E2E2E2E2E2E2E2E2E2E2E2E2E2E2E2E2E2E2E2E2E2E2E2E2E2E2E2E2E2E2E2E2E2E2E2E2E2E2E2E2E2E2E2E2E2E2E2E2E2E2E2E2E2E2E2E2E2E2E2E2E2E2E2E2E2E2E2E2E2E2E2E2E2E2E2E2E2E2E2E2
310
E2E2E2E2E2E2E2E2E2E2E2E2E2E2E2E2E2E2E2E2E2E2BEE2E2E2E2F5F5F5E2E2E2E2E2E2E2E2E2E2E2E2E2E2E2E2E2E2E2F5F5F5E2E2E2E2E2E2E2E2E2E2E2E2E2E2E2E2E2E2E2E2DCE2BEE2E2E2E2E2E2E2E2E2E2E2E2E2E2E2E2E2E2E2E2E2E2E2E2E2E2E2E2E2E2E2E2E2E2E2E2E2E2E2E2E2E2E2E2E2E2E2E2E2E2E2E2
310
E2E2E2E2E2E2E2E2E2E2E2E2E2E2E2E2E2E2E2E2E2E2E2E2E2E2E2E2E2E2E2E2E2E2E2E2E2E2E2E2E2E2E2E2E2E2E2E2E2E2E2E2E2E2E2E2E2E2E2E2E2E2E2E2E2E2E2E2E2E2E2E2E2E2E2E2E2E2E2E2E2E2E2E2E2E2E2E2E2E2E2E2E2E2E2E2E2E2E2E2E2E2E2E2E2E2E2E2E2E2E2E2E2E2E2E2E2E2E2E2E2E2E2E2E2E2E2
310
E2E2E2E2E2E2E2E2E2E2E2E2E2E2E2E2E2E2E2E2E2E2E2E2BEE2E2E2E2F5F5F5BEBEBEBEBEBEBEBEBEBEBEBEBEBEBEBEBEBEBEBEF5F5BEBEBEBEBEBEBEBEBEBEBEBEBEBEBEBEBEBEBEBEBEE2BEE2E2E2E2E2E2E2E2E2E2E2E2E2E2E2E2E2E2E2E2E2E2E2E2E2E2E2E2E2E2E2E2E2E2E2E2E2E2E2E2E2E2E2E2E2E2E2E2E2E2
310
E2E2E2E2E2E2E2E2E2E2E2E2E2E2E2E2E2E2E2E2E2E2E2E2E2E2E2E2E2E2E2E2E2E2E2E2E2E2E2E2E2E2E2E2E2E2E2E2E2E2E2E2E2E2E2E2E2E2E2E2E2E2E2E2E2E2E2E2E2E2E2E2E2E2E2E2E2E2E2E2E2E2E2E2E2E2E2E2E2E2E2E2E2E2E2E2E2E2E2E2E2E2E2E2E2E2E2E2E2E2E2E2E2E2E2E2E2E2E2E2E2E2E2E2E2E2E2
310
E2E2E2E2E2E2E2E2E2E2E2E2E2E2E2E2E2E2E2E2E2E2E2E2E2E2BEE2E2E2E2DCE2E2E2E2E2E2E2E2E2E2E2E2E2E2E2E2E2E2E2E2E2DCDCE2E2E2E2E2E2E2E2E2E2E2E2E2E2E2E2E2E2E2E2E2DCE2BEE2E2E2E2E2E2E2E2E2E2E2E2E2E2E2E2E2E2E2E2E2E2E2E2E2E2E2E2E2E2E2E2E2E2E2E2E2E2E2E2E2E2E2E2E2E2E2E2
310
E2E2E2E2E2E2E2E2E2E2E2E2E2E2E2E2E2E2E2E2E2E2E2E2E2E2E2E2E2E2E2E2E2E2E2E2E2E2E2E2E2E2E2E2E2E2E2E2E2E2E2E2E2E2E2E2E2E2E2E2E2E2E2E2E2E2E2E2E2E2E2E2E2E2E2E2E2E2E2E2E2E2E2E2E2E2E2E2E2E2E2E2E2E2E2E2E2E2E2E2E2E2E2E2E2E2E2E2E2E2E2E2E2E2E2E2E2E2E2E2E2E2E2E2E2E2E2
310
E2E2E2E2E2E2E2E2E2E2E2E2E2E2E2E2E2E2E2E2E2E2E2E2E2E2E2E2BEE2E2E2E2F5F5F5F5E2E2E2E2E2E2E2E2E2E2E2E2E2E2E2E2E2E2F5F5F5F5F5E2E2E2E2E2E2E2E2E2E2E2E2E2E2E2E2E2E2DCE2BEE2E2E2E2E2E2E2E2E2E2E2E2E2E2E2E2E2E2E2E2E2E2E2E2E2E2E2E2E2E2E2E2E2E2E2E2E2E2E2E2E2E2E2E2E2E2
310
E2E2E2E2E2E2E2E2E2E2E2E2E2E2E2E2E2E2E2E2E2E2E2E2E2E2E2E2E2E2E2E2E2E2E2E2E2E2E2E2E2E2E2E2E2E2E2E2E2E2E2E2E2E2E2E2E2E2E2E2E2E2E2E2E2E2E2E2E2E2E2E2E2E2E2E2E2E2E2E2E2E2E2E2E2E2E2E2E2E2E2E2E2E2E2E2E2E2E2E2E2E2E2E2E2E2E2E2E2E2E2E2E2E2E2E2E2E2E2E2E2E2E2E2E2E2E2
310
E2E2E2E2E2E2E2E2E2E2E2E2E2E2E2E2E2E2E2E2E2E2E2E2E2E2E2E2E2E2BEE2E2E2E2DCDCDCDCDCDCDCDCDCDCDCDCDCDCDCDCDCDCDCDCDCDCDCDCDCDCDCDCDCDCDCDCDCDCDCDCDCDCDCDCDCDCDCDCDCDCE2BEE2E2E2E2E2E2E2E2E2E2E2E2E2E2E2E2E2E2E2E2E2E2E2E2E2E2E2E2E2E2E2E2E2E2E2E2E2E2E2E2E2E2E2E2
310
E2E2E2E2E2E2E2E2E2E2E2E2E2E2E2E2E2E2E2E2E2E2E2E2E2E2E2E2E2E2E2E2E2E2E2E2E2E2E2E2E2E2E2E2E2E2E2E2E2E2E2E2E2E2E2E2E2E2E2E2E2E2E2E2E2E2E2E2E2E2E2E2E2E2E2E2E2E2E2E2E2E2E2E2E2E2E2E2E2E2E2E2E2E2E2E2E2E2E2E2E2E2E2E2E2E2E2E2E2E2E2E2E2E2E2E2E2E2E2E2E2E2E2E2E2E2E2
310
E2E2E2E2E2E2E2E2E2E2E2E2E2E2E2E2E2E2E2E2E2E2E2E2E2E2E2E2E2E2E2E2BEE2E2E2E2DCE2E2E2F52828282828282828282828282828F5F52D2DE2E2E2E2E2E2E2E2E2E2E2E2E2E2E2E2E2E2E2E2E2E2DCE2BEE2E2E2E2E2E2E2E2E2E2E2E2E2E2E2E2E2E2E2E2E2E2E2E2E2E2E2E2E2E2E2E2E2E2E2E2E2E2E2E2E2E2
310
E2E2E2E2E2E2E2E2E2E2E2E2E2E2E2E2E2E2E2E2E2E2E2E2E2E2E2E2E2E2E2E2E2E2E2E2E2E2E2E2E2E2E2E2E2E2E2E2E2E2E2E2E2E2E2E2E2E2E2E2E2E2E2E2E2E2E2E2E2E2E2E2E2E2E2E2E2E2E2E2E2E2E2E2E2E2E2E2E2E2E2E2E2E2E2E2E2E2E2E2E2E2E2E2E2E2E2E2E2E2E2E2E2E2E2E2E2E2E2E2E2E2E2E2E2E2E2
310
E2E2E2E2E2E2E2E2E2E2E2E2E2E2E2E2E2E2E2E2E2E2E2E2E2E2E2E2E2E2E2E2E2E2BEE2E2E2E2DCE2E2E2282828282828282828282828282828282DE22DE2E2E2E2E2E2E2E2E2E2E2E2E2E2E2E2E2E2E2E2E2E2DCE2BEE2E2E2E2E2E2E2E2E2E2E2E2E2E2E2E2E2E2E2E2E2E2E2E2E2E2E2E2E2E2E2E2E2E2E2E2E2E2E2E2
310
E2E2E2E2E2E2E2E2E2E2E2E2E2E2E2E2E2E2E2E2E2E2E2E2E2E2E2E2E2E2E2E2E2E2E2E2E2E2E2E2E2E2E2E2E2E2E2E2E2E2E2E2E2E2E2E2E2E2E2E2E2E2E2E2E2E2E2E2E2E2E2E2E2E2E2E2E2E2E2E2E2E2E2E2E2E2E2E2E2E2E2E2E2E2E2E2E2E2E2E2E2E2E2E2E2E2E2E2E2E2E2E2E2E2E2E2E2E2E2E2E2E2E2E2E2E2E2
310
E2E2E2E2E2E2E2E2E2E2E2E2E2E2E2E2E2E2E2E2E2E2E2E2E2E2E2E2E2E2E2E2E2E2E2E2BEE2E2E2E2DCE2E2E22828E228E228E2E228E228E2E2282828BEBE2DE2E2E2E2E2E2E2E2E2E2E2E2E2E2E2E2E2E2E2E2E2E2DCE2BEE2E2E2E2E2E2E2E2E2E2E2E2E2E2E2E2E2E2E2E2E2E2E2E2E2E2E2E2E2E2E2E2E2E2E2E2E2E2
310
E2E2E2E2E2E2E2E2E2E2E2E2E2E2E2E2E2E2E2E2E2E2E2E2E2E2E2E2E2E2E2E2E2E2E2E2E2E2E2E2E2E2E2E2E2E2E2E2E2E2E2E2E2E2E2E2E2E2E2E2E2E2E2E2E2E2E2E2E2E2E2E2E2E2E2E2E2E2E2E2E2E2E2E2E2E2E2E2E2E2E2E2E2E2E2E2E2E2E2E2E2E2E2E2E2E2E2E2E2E2E2E2E2E2E2E2E2E2E2E2E2E2E2E2E2E2E2
310
E2E2E2E2E2E2E2E2E2E2E2E2E2E2E2E2E2E2E2E2E2E2E2E2E2E2E2E2E2E2E2E2E2E2E2E2E2E2BEE2E2E2E2DCE2E2E22D2D2D2D2D2D2D2D2D2D2D2D2D2D2DF5BEBE2DE2E2E2E2E2E2E2E2E2E2E2E2E2E2E2E2E2E2E2E2E2E2DCE2BEE2E2E2E2E2E2E2E2E2E2E2E2E2E2E2E2E2E2E2E2E2E2E2E2E2E2E2E2E2E2E2E2E2E2E2E2
310
E2E2E2E2E2E2E2E2E2E2E2E2E2E2E2E2E2E2E2E2E2E2E2E2E2E2E2E2E2E2E2E2E2E2E2E2E2E2E2E2E2E2E2E2E2E2E2E2E2E2E2E2E2E2E2E2E2E2E2E2E2E2E2E2E2E2E2E2E2E2E2E2E2E2E2E2E2E2E2E2E2E2E2E2E2E2E2E2E2E2E2E2E2E2E2E2E2E2E2E2E2E2E2E2E2E2E2E2E2E2E2E2E2E2E2E2E2E2E2E2E2E2E2E2E2E2E2
310
E2E2E2E2E2E2E2E2E2E2E2E2E2E2E2E2E2E2E2E2E2E2E2E2E2E2E2E2E2E2E2E2E2E2E2E2E2E2E2E2BEE2E2E2E2DCE2E2E22D28282828282828BEBEBE282828282D2DE22DE2E2E2E2E2E2E2E2E2E2E2E2E2E2E2E2E2E2E2E2E2E2DCE2BEE2E2E2E2E2E2E2E2E2E2E2E2E2E2E2E2E2E2E2E2E2E2E2E2E2E2E2E2E2E2E2E2E2E2
310
E2E2E2E2E2E2E2E2E2E2E2E2E2E2E2E2E2E2E2E2E2E2E2E2E2E2E2E2E2E2E2E2E2E2E2E2E2E2E2E2E2E2E2E2E2E2E2E2E2E2E2E2E2E2E2E2E2E2E2E2E2E2E2E2E2E2E2E2E2E2E2E2E2E2E2E2E2E2E2E2E2E2E2E2E2E2E2E2E2E2E2E2E2E2E2E2E2E2E2E2E2E2E2E2E2E2E2E2E2E2E2E2E2E2E2E2E2E2E2E2E2E2E2E2E2E2E2
310
E2E2E2E2E2E2E2E2E2E2E2E2E2E2E2E2E2E2E2E2E2E2E2E2E2E2E2E2E2E2E2E2E2E2E2E2E2E2E2E2E2E2BEE2E2E2E2DCE2E2E2F52828282828282828282828282828F52D2D2DE2E2E2E2E2E2E2E2E2E2E2E2E2E2E2E2E2E2E2E2E2E2DCE2BEE2E2E2E2E2E2E2E2E2E2E2E2E2E2E2E2E2E2E2E2E2E2E2E2E2E2E2E2E2E2E2E2
310
E2E2E2E2E2E2E2E2E2E2E2E2E2E2E2E2E2E2E2E2E2E2E2E2E2E2E2E2E2E2E2E2E2E2E2E2E2E2E2E2E2E2E2E2E2E2E2E2E2E2E2E2E2E2E2E2E2E2E2E2E2E2E2E2E2E2E2E2E2E2E2E2E2E2E2E2E2E2E2E2E2E2E2E2E2E2E2E2E2E2E2E2E2E2E2E2E2E2E2E2E2E2E2E2E2E2E2E2E2E2E2E2E2E2E2E2E2E2E2E2E2E2E2E2E2E2E2
310
E2E2E2E2E2E2E2E2E2E2E2E2E2E2E2E2E2E2E2E2E2E2E2E2E2E2E2E2E2E2E2E2E2E2E2E2E2E2E2E2E2E2E2E2BEE2E2E2E2DCF52D2DF5F5F5F5F5F5F5F5F5F5F5F5F5F5F5F52D2DF52DDCE2E2E2DC2DF52DF5F5F5F5F5F5F52DF52DF5DC2DDCE2BEE2E2E2E2E2E2E2E2E2E2E2E2E2E2E2E2E2E2E2E2E2E2E2E2E2E2E2E2E2E2
310
E2E2E2E2E2E2E2E2E2E2E2E2E2E2E2E2E2E2E2E2E2E2E2E2E2E2E2E2E2E2E2E2E2E2E2E2E2E2E2E2E2E2E2E2E2E2E2E2E2E2E2E2E2E2E2E2E2E2E2E2E2E2E2E2E2E2E2E2E2E2E2E2E2E2E2E2E2E2E2E2E2E2E2E2E2E2E2E2E2E2E2E2E2E2E2E2E2E2E2E2E2E2E2E2E2E2E2E2E2E2E2E2E2E2E2E2E2E2E2E2E2E2E2E2E2E2E2
310
E2E2E2E2E2E2E2E2E2E2E2E2E2E2E2E2E2E2E2E2E2E2E2E2E2E2E2E2E2E2E2E2E2E2E2E2E2E2E2E2E2E2E2E2E2E2BEE2E2E2E2DC2DE22D28282828282828282828282828282828E2E22DE22DE2E2E22DBE2DE2282828282828F5E22DE22D2DE2DCE2BEE2E2E2E2E2E2E2E2E2E2E2E2E2E2E2E2E2E2E2E2E2E2E2E2E2E2E2E2
310
E2E2E2E2E2E2E2E2E2E2E2E2E2E2E2E2E2E2E2E2E2E2E2E2E2E2E2E2E2E2E2E2E2E2E2E2E2E2E2E2E2E2E2E2E2E2E2E2E2E2E2E2E2E2E2E2E2E2E2E2E2E2E2E2E2E2E2E2E2E2E2E2E2E2E2E2E2E2E2E2E2E2E2E2E2E2E2E2E2E2E2E2E2E2E2E2E2E2E2E2E2E2E2E2E2E2E2E2E2E2E2E2E2E2E2E2E2E2E2E2E2E2E2E2E2E2E2
310
E2E2E2E2E2E2E2E2E2E2E2E2E2E2E2E2E2E2E2E2E2E2E2E2E2E2E2E2E2E2E2E2E2E2E2E2E2E2E2E2E2E2E2E2E2E2E2E2BEE2E2E2E2DC2DE22DF52828282828282828282828282828F5E2E22DE22DE2E2E22DBE2DE2282828282828F5E22DE22D2DE2DCE2BEE2E2E2E2E2E2E2E2E2E2E2E2E2E2E2E2E2E2E2E2E2E2E2E2E2E2
310
E2E2E2E2E2E2E2E2E2E2E2E2E2E2E2E2E2E2E2E2E2E2E2E2E2E2E2E2E2E2E2E2E2E2E2E2E2E2E2E2E2E2E2E2E2E2E2E2E2E2E2E2E2E2E2E2E2E2E2E2E2E2E2E2E2E2E2E2E2E2E2E2E2E2E2E2E2E2E2E2E2E2E2E2E2E2E2E2E2E2E2E2E2E2E2E2E2E2E2E2E2E2E2E2E2E2E2E2E2E2E2E2E2E2E2E2E2E2E2E2E2E2E2E2E2E2E2
310
E2E2E2E2E2E2E2E2E2E2E2E2E2E2E2E2E2E2E2E2E2E2E2E2E2E2E2E2E2E2E2E2E2E2E2E2E2E2E2E2E2E2E2E2E2E2E2E2E2E2BEE2E2E2E2DC2DE22DF5282828E228E2E228E228E2E22828F5E2E22DE22DE2E2E22DBE2DE2282828E22828F5E22DE22D2DE2DCE2BEE2E2E2E2E2E2E2E2E2E2E2E2E2E2E2E2E2E2E2E2E2E2E2E2
310
E2E2E2E2E2E2E2E2E2E2E2E2E2E2E2E2E2E2E2E2E2E2E2E2E2E2E2E2E2E2E2E2E2E2E2E2E2E2E2E2E2E2E2E2E2E2E2E2E2E2E2E2E2E2E2E2E2E2E2E2E2E2E2E2E2E2E2E2E2E2E2E2E2E2E2E2E2E2E2E2E2E2E2E2E2E2E2E2E2E2E2E2E2E2E2E2E2E2E2E2E2E2E2E2E2E2E2E2E2E2E2E2E2E2E2E2E2E2E2E2E2E2E2E2E2E2E2
310
E2E2E2E2E2E2E2E2E2E2E2E2E2E2E2E2E2E2E2E2E2E2E2E2E2E2E2E2E2E2E2E2E2E2E2E2E2E2E2E2E2E2E2E2E2E2E2E2E2E2E2E2BEE2E2E2E2DC2DE22DF528BE282828282828282828282828F5E2E22DE22DE2E2E22DE22DE2282828282828F5E22DE22D2DE2DCE2BEE2E2E2E2E2E2E2E2E2E2E2E2E2E2E2E2E2E2E2E2E2E2
310
E2E2E2E2E2E2E2E2E2E2E2E2E2E2E2E2E2E2E2E2E2E2E2E2E2E2E2E2E2E2E2E2E2E2E2E2E2E2E2E2E2E2E2E2E2E2E2E2E2E2E2E2E2E2E2E2E2E2E2E2E2E2E2E2E2E2E2E2E2E2E2E2E2E2E2E2E2E2E2E2E2E2E2E2E2E2E2E2E2E2E2E2E2E2E2E2E2E2E2E2E2E2E2E2E2E2E2E2E2E2E2E2E2E2E2E2E2E2E2E2E2E2E2E2E2E2E2
310
E2E2E2E2E2E2E2E2E2E2E2E2E2E2E2E2E2E2E2E2E2E2E2E2E2E2E2E2E2E2E2E2E2E2E2E2E2E2E2E2E2E2E2E2E2E2E2E2E2E2E2E2E2E2BEE2E2E2E2DC2DE22DF52828BEE228E2E228E228E2BEBE28F5E2E22DE22DE2E2E22D2DF5BEBE2828E22828F5E22DE22D2DE2DCE2BEE2E2E2E2E2E2E2E2E2E2E2E2E2E2E2E2E2E2E2E2
310
E2E2E2E2E2E2E2E2E2E2E2E2E2E2E2E2E2E2E2E2E2E2E2E2E2E2E2E2E2E2E2E2E2E2E2E2E2E2E2E2E2E2E2E2E2E2E2E2E2E2E2E2E2E2E2E2E2E2E2E2E2E2E2E2E2E2E2E2E2E2E2E2E2E2E2E2E2E2E2E2E2E2E2E2E2E2E2E2E2E2E2E2E2E2E2E2E2E2E2E2E2E2E2E2E2E2E2E2E2E2E2E2E2E2E2E2E2E2E2E2E2E2E2E2E2E2E2
310
E2E2E2E2E2E2E2E2E2E2E2E2E2E2E2E2E2E2E2E2E2E2E2E2E2E2E2E2E2E2E2E2E2E2E2E2E2E2E2E2E2E2E2E2E2E2E2E2E2E2E2E2E2E2E2E2BEE2E2E2E2DC2DE22DF5282828E228E2E228E228E2E22828F5E2E22DE22DE2E2E22DE22DE2282828282828F5E22DE22D2DE2DCE2BEE2E2E2E2E2E2E2E2E2E2E2E2E2E2E2E2E2E2
310
E2E2E2E2E2E2E2E2E2E2E2E2E2E2E2E2E2E2E2E2E2E2E2E2E2E2E2E2E2E2E2E2E2E2E2E2E2E2E2E2E2E2E2E2E2E2E2E2E2E2E2E2E2E2E2E2E2E2E2E2E2E2E2E2E2E2E2E2E2E2E2E2E2E2E2E2E2E2E2E2E2E2E2E2E2E2E2E2E2E2E2E2E2E2E2E2E2E2E2E2E2E2E2E2E2E2E2E2E2E2E2E2E2E2E2E2E2E2E2E2E2E2E2E2E2E2E2
310
E2E2E2E2E2E2E2E2E2E2E2E2E2E2E2E2E2E2E2E2E2E2E2E2E2E2E2E2E2E2E2E2E2E2E2E2E2E2E2E2E2E2E2E2E2E2E2E2E2E2E2E2E2E2E2E2E2E2BEE2E2E2E2DC2DE22DF52828282828282828282828282828F5E2E22DE22DE2E2E22DE22DE2282828282828F5BEBEE22D2DE2DCE2BEE2E2E2E2E2E2E2E2E2E2E2E2E2E2E2E2
310
E2E2E2E2E2E2E2E2E2E2E2E2E2E2E2E2E2E2E2E2E2E2E2E2E2E2E2E2E2E2E2E2E2E2E2E2E2E2E2E2E2E2E2E2E2E2E2E2E2E2E2E2E2E2E2E2E2E2E2E2E2E2E2E2E2E2E2E2E2E2E2E2E2E2E2E2E2E2E2E2E2E2E2E2E2E2E2E2E2E2E2E2E2E2E2E2E2E2E2E2E2E2E2E2E2E2E2E2E2E2E2E2E2E2E2E2E2E2E2E2E2E2E2E2E2E2E2
310
E2E2E2E2E2E2E2E2E2E2E2E2E2E2E2E2E2E2E2E2E2E2E2E2E2E2E2E2E2E2E2E2E2E2E2E2E2E2E2E2E2E2E2E2E2E2E2E2E2E2E2E2E2E2E2E2E2E2E2E2BEE2E2E2E2DC2DE22DF5282828E228E2E228E228E2E22828F5E2E22DE22DE2E2E22DE22DE2282828E22828F5BEBEE22D2DE2DCE2BEE2E2E2E2E2E2E2E2E2E2E2E2E2E2
310
E2E2E2E2E2E2E2E2E2E2E2E2E2E2E2E2E2E2E2E2E2E2E2E2E2E2E2E2E2E2E2E2E2E2E2E2E2E2E2E2E2E2E2E2E2E2E2E2E2E2E2E2E2E2E2E2E2E2E2E2E2E2E2E2E2E2E2E2E2E2E2E2E2E2E2E2E2E2E2E2E2E2E2E2E2E2E2E2E2E2E2E2E2E2E2E2E2E2E2E2E2E2E2E2E2E2E2E2E2E2E2E2E2E2E2E2E2E2E2E2E2E2E2E2E2E2E2
310
E2E2E2E2E2E2E2E2E2E2E2E2E2E2E2E2E2E2E2E2E2E2E2E2E2E2E2E2E2E2E2E2E2E2E2E2E2E2E2E2E2E2E2E2E2E2E2E2E2E2E2E2E2E2E2E2E2E2E2E2E2E2BEE2E2E2E2DC2DE22DF52828282828282828282828282828F5E2E22DE22DE2E2E22DE22DE2282828282828F5E22DE22D2DE2DCE2BEE2E2E2E2E2E2E2E2E2E2E2E2
310
E2E2E2E2E2E2E2E2E2E2E2E2E2E2E2E2E2E2E2E2E2E2E2E2E2E2E2E2E2E2E2E2E2E2E2E2E2E2E2E2E2E2E2E2E2E2E2E2E2E2E2E2E2E2E2E2E2E2E2E2E2E2E2E2E2E2E2E2E2E2E2E2E2E2E2E2E2E2E2E2E2E2E2E2E2E2E2E2E2E2E2E2E2E2E2E2E2E2E2E2E2E2E2E2E2E2E2E2E2E2E2E2E2E2E2E2E2E2E2E2E2E2E2E2E2E2E2
310
E2E2E2E2E2E2E2E2E2E2E2E2E2E2E2E2E2E2E2E2E2E2E2E2E2E2E2E2E2E2E2E2E2E2E2E2E2E2E2E2E2E2E2E2E2E2E2E2E2E2E2E2E2E2E2E2E2E2E2E2E2E2E2E2BEE2E2E2E2DC2DBE2DF5282828E228E2E228E228E2E22828F5E2E22DE22DE2E2E22DE22DE2282828E22828F5E22DE22D2DE2DCE2BEE2E2E2E2E2E2E2E2E2E2
310
E2E2E2E2E2E2E2E2E2E2E2E2E2E2E2E2E2E2E2E2E2E2E2E2E2E2E2E2E2E2E2E2E2E2E2E2E2E2E2E2E2E2E2E2E2E2E2E2E2E2E2E2E2E2E2E2E2E2E2E2E2E2E2E2E2E2E2E2E2E2E2E2E2E2E2E2E2E2E2E2E2E2E2E2E2E2E2E2E2E2E2E2E2E2E2E2E2E2E2E2E2E2E2E2E2E2E2E2E2E2E2E2E2E2E2E2E2E2E2E2E2E2E2E2E2E2E2
310
E2E2E2E2E2E2E2E2E2E2E2E2E2E2E2E2E2E2E2E2E2E2E2E2E2E2E2E2E2E2E2E2E2E2E2E2E2E2E2E2E2E2E2E2E2E2E2E2E2E2E2E2E2E2E2E2E2E2E2E2E2E2E2E2E2E2BEE2E2E2E2DC2DBE2DF5282828E228E2E228E228E2E22828F5E2E22DE22DE2E2E22DE22DE2282828282828F5E22DE22D2DE2DCE2BEE2E2E2E2E2E2E2E2
310
E2E2E2E2E2E2E2E2E2E2E2E2E2E2E2E2E2E2E2E2E2E2E2E2E2E2E2E2E2E2E2E2E2E2E2E2E2E2E2E2E2E2E2E2E2E2E2E2E2E2E2E2E2E2E2E2E2E2E2E2E2E2E2E2E2E2E2E2E2E2E2E2E2E2E2E2E2E2E2E2E2E2E2E2E2E2E2E2E2E2E2E2E2E2E2E2E2E2E2E2E2E2E2E2E2E2E2E2E2E2E2E2E2E2E2E2E2E2E2E2E2E2E2E2E2E2E2
310
E2E2E2E2E2E2E2E2E2E2E2E2E2E2E2E2E2E2E2E2E2E2E2E2E2E2E2E2E2E2E2E2E2E2E2E2E2E2E2E2E2E2E2E2E2E2E2E2E2E2E2E2E2E2E2E2E2E2E2E2E2E2E2E2E2E2E2E2BEE2E2E2E2DC2DBE2DF52828282828282828282828282828F5E2E22DE22DE2E2E22DE22DE2282828282828F5E22DBEBE2DE2DCE2BEE2E2E2E2E2E2
310
E2E2E2E2E2E2E2E2E2E2E2E2E2E2E2E2E2E2E2E2E2E2E2E2E2E2E2E2E2E2E2E2E2E2E2E2E2E2E2E2E2E2E2E2E2E2E2E2E2E2E2E2E2E2E2E2E2E2E2E2E2E2E2E2E2E2E2E2E2E2E2E2E2E2E2E2E2E2E2E2E2E2E2E2E2E2E2E2E2E2E2E2E2E2E2E2E2E2E2E2E2E2E2E2E2E2E2E2E2E2E2E2E2E2E2E2E2E2E2E2E2E2E2E2E2E2E2
310
E2E2E2E2E2E2E2E2E2E2E2E2E2E2E2E2E2E2E2E2E2E2E2E2E2E2E2E2E2E2E2E2E2E2E2E2E2E2E2E2E2E2E2E2E2E2E2E2E2E2E2E2E2E2E2E2E2E2E2E2E2E2E2E2E2E2E2E2E2E2BEE2E2E2E2DC2DE22DF5282828E228E2E228E228E2E22828F5E2E2BEE22DE2E2E22DE22DE2282828E22828F5E22DBEBE2DE2DCE2BEE2E2E2E2
310
E2E2E2E2E2E2E2E2E2E2E2E2E2E2E2E2E2E2E2E2E2E2E2E2E2E2E2E2E2E2E2E2E2E2E2E2E2E2E2E2E2E2E2E2E2E2E2E2E2E2E2E2E2E2E2E2E2E2E2E2E2E2E2E2E2E2E2E2E2E2E2E2E2E2E2E2E2E2E2E2E2E2E2E2E2E2E2E2E2E2E2E2E2E2E2E2E2E2E2E2E2E2E2E2E2E2E2E2E2E2E2E2E2E2E2E2E2E2E2E2E2E2E2E2E2E2E2
310
E2E2E2E2E2E2E2E2E2E2E2E2E2E2E2E2E2E2E2E2E2E2E2E2E2E2E2E2E2E2E2E2E2E2E2E2E2E2E2E2E2E2E2E2E2E2E2E2E2E2E2E2E2E2E2E2E2E2E2E2E2E2E2E2E2E2E2E2E2E2E2E2BEE2E2E2E2DCBEE22DF52828282828282828282828282828F5E2E2BEE22DE2E2E22DE22DE228282828282828E22DBEBE2DE2DCE2BEE2E2
310
E2E2E2E2E2E2E2E2E2E2E2E2E2E2E2E2E2E2E2E2E2E2E2E2E2E2E2E2E2E2E2E2E2E2E2E2E2E2E2E2E2E2E2E2E2E2E2E2E2E2E2E2E2E2E2E2E2E2E2E2E2E2E2E2E2E2E2E2E2E2E2E2E2E2E2E2E2E2E2E2E2E2E2E2E2E2E2E2E2E2E2E2E2E2E2E2E2E2E2E2E2E2E2E2E2E2E2E2E2E2E2E2E2E2E2E2E2E2E2E2E2E2E2E2E2E2E2
310
E2E2E2E2E2E2E2E2E2E2E2E2E2E2E2E2E2E2E2E2E2E2E2E2E2E2E2E2E2E2E2E2E2E2E2E2E2E2E2E2E2E2E2E2E2E2E2E2E2E2E2E2E2E2E2E2E2E2E2E2E2E2E2E2E2E2E2E2E2E2E2E2E2E2BEE2E2E2E2DCBEE22DF5282828E228E2E228E228E2E22828F5E2E2BEE22DE2E2E22DE22DE2282828E2282828BE2DBEBE2DE2DCE2BE
310
E2E2E2E2E2E2E2E2E2E2E2E2E2E2E2E2E2E2E2E2E2E2E2E2E2E2E2E2E2E2E2E2E2E2E2E2E2E2E2E2E2E2E2E2E2E2E2E2E2E2E2E2E2E2E2E2E2E2E2E2E2E2E2E2E2E2E2E2E2E2E2E2E2E2E2E2E2E2E2E2E2E2E2E2E2E2E2E2E2E2E2E2E2E2E2E2E2E2E2E2E2E2E2E2E2E2E2E2E2E2E2E2E2E2E2E2E2E2E2E2E2E2E2E2E2E2E2
310
E2E2E2E2E2E2E2E2E2E2E2E2E2E2E2E2E2E2E2E2E2E2E2E2E2E2E2E2E2E2E2E2E2E2E2E2E2E2E2E2E2E2E2E2E2E2E2E2E2E2E2E2E2E2E2E2E2E2E2E2E2E2E2E2E2E2E2E2E2E2E2E2E2E2E2E2BEE2E2E2E2DCBEE22DF52828282828282828282828282828F52DE2BEE22DE2E2E22DE22DE2282828282828F5E2E2BEBE2DE2DC
310
E2BEE2E2E2E2E2E2E2E2E2E2E2E2E2E2E2E2E2E2E2E2E2E2E2E2E2E2E2E2E2E2E2E2E2E2E2E2E2E2E2E2E2E2E2E2E2E2E2E2E2E2E2E2E2E2E2E2E2E2E2E2E2E2E2E2E2E2E2E2E2E2E2E2E2E2E2E2E2E2E2E2E2E2E2E2E2E2E2E2E2E2E2E2E2E2E2E2E2E2E2E2E2E2E2E2E2E2E2E2E2E2E2E2E2E2E2E2E2E2E2E2E2E2E2E2E2
310
E2E2E2E2E2E2E2E2E2E2E2E2E2E2E2E2E2E2E2E2E2E2E2E2E2E2E2E2E2E2E2E2E2E2E2E2E2E2E2E2E2E2E2E2E2E2E2E2E2E2E2E2E2E2E2E2E2E2E2E2E2E2E2E2E2E2E2E2E2E2E2E2E2E2E2E2E2E2BEE2E2E2E2DC2DE22DF52828282828282828282828282828F5BEBE2DE22DE2E2E22DE22DE2282828E22828F5E2E2BE2D2D
310
E2DCE2BEE2E2E2E2E2E2E2E2E2E2E2E2E2E2E2E2E2E2E2E2E2E2E2E2E2E2E2E2E2E2E2E2E2E2E2E2E2E2E2E2E2E2E2E2E2E2E2E2E2E2E2E2E2E2E2E2E2E2E2E2E2E2E2E2E2E2E2E2E2E2E2E2E2E2E2E2E2E2E2E2E2E2E2E2E2E2E2E2E2E2E2E2E2E2E2E2E2E2E2E2E2E2E2E2E2E2E2E2E2E2E2E2E2E2E2E2E2E2E2E2E2E2E2
310
E2E2E2E2E2E2E2E2E2E2E2E2E2E2E2E2E2E2E2E2E2E2E2E2E2E2E2E2E2E2E2E2E2E2E2E2E2E2E2E2E2E2E2E2E2E2E2E2E2E2E2E2E2E2E2E2E2E2E2E2E2E2E2E2E2E2E2E2E2E2E2E2E2E2E2E2E2E2E2E2BEE2E2E2E2DC2DE22DF5282828E228E2E228E228E2E22828F5E2E22DE22DE2E2E22DE22DE2282828E22828F5E2E2E2
310
2D2DE2DCE2BEE2E2E2E2E2E2E2E2E2E2E2E2E2E2E2E2E2E2E2E2E2E2E2E2E2E2E2E2E2E2E2E2E2E2E2E2E2E2E2E2E2E2E2E2E2E2E2E2E2E2E2E2E2E2E2E2E2E2E2E2E2E2E2E2E2E2E2E2E2E2E2E2E2E2E2E2E2E2E2E2E2E2E2E2E2E2E2E2E2E2E2E2E2E2E2E2E2E2E2E2E2E2E2E2E2E2E2E2E2E2E2E2E2E2E2E2E2E2E2E2E2
310
E2E2E2E2E2E2E2E2E2E2E2E2E2E2E2E2E2E2E2E2E2E2E2E2E2E2E2E2E2E2E2E2E2E2E2E2E2E2E2E2E2E2E2E2E2E2E2E2E2E2E2E2E2E2E2E2E2E2E2E2E2E2E2E2E2E2E2E2E2E2E2E2E2E2E2E2E2E2E2E2E2E2BEE2E2E2E2DC2DE22DF52828282828282828282828282828F5E2E22DE22DE2E2E22DE22DE2282828282828F5E2
310
E2E22D2DE2DCE2BEE2E2E2E2E2E2E2E2E2E2E2E2E2E2E2E2E2E2E2E2E2E2E2E2E2E2E2E2E2E2E2E2E2E2E2E2E2E2E2E2E2E2E2E2E2E2E2E2E2E2E2E2E2E2E2E2E2E2E2E2E2E2E2E2E2E2E2E2E2E2E2E2E2E2E2E2E2E2E2E2E2E2E2E2E2E2E2E2E2E2E2E2E2E2E2E2E2E2E2E2E2E2E2E2E2E2E2E2E2E2E2E2E2E2E2E2E2E2E2
310
E2E2E2E2E2E2E2E2E2E2E2E2E2E2E2E2E2E2E2E2E2E2E2E2E2E2E2E2E2E2E2E2E2E2E2E2E2E2E2E2E2E2E2E2E2E2E2E2E2E2E2E2E2E2E2E2E2E2E2E2E2E2E2E2E2E2E2E2E2E2E2E2E2E2E2E2E2E2E2E2E2E2E2E2BEE2E2E2E2DC2DE22DF52828282828282828282828282828F5E2E22DE22DE2E2E22DE22DE2F5E2E2E2F5F5
310
F5E2E2E22D2DE2DCE2BEE2E2E2E2E2E2E2E2E2E2E2E2E2E2E2E2E2E2E2E2E2E2E2E2E2E2E2E2E2E2E2E2E2E2E2E2E2E2E2E2E2E2E2E2E2E2E2E2E2E2E2E2E2E2E2E2E2E2E2E2E2E2E2E2E2E2E2E2E2E2E2E2E2E2E2E2E2E2E2E2E2E2E2E2E2E2E2E2E2E2E2E2E2E2E2E2E2E2E2E2E2E2E2E2E2E2E2E2E2E2E2E2E2E2E2E2E2
310
E2E2E2E2E2E2E2E2E2E2E2E2E2E2E2E2E2E2E2E2E2E2E2E2E2E2E2E2E2E2E2E2E2E2E2E2E2E2E2E2E2E2E2E2E2E2E2E2E2E2E2E2E2E2E2E2E2E2E2E2E2E2E2E2E2E2E2E2E2E2E2E2E2E2E2E2E2E2E2E2E2E2E2E2E2E2BEE2E2E2E2DC2DE22DF52828282828282828282828282828F5E2E22DE22DE2E2E22DE22DE2F5E2E2E2
310
E2F5F5E2E2E22D2DE2DCE2BEE2E2E2E2E2E2E2E2E2E2E2E2E2E2E2E2E2E2E2E2E2E2E2E2E2E2E2E2E2E2E2E2E2E2E2E2E2E2E2E2E2E2E2E2E2E2E2E2E2E2E2E2E2E2E2E2E2E2E2E2E2E2E2E2E2E2E2E2E2E2E2E2E2E2E2E2E2E2E2E2E2E2E2E2E2E2E2E2E2E2E2E2E2E2E2E2E2E2E2E2E2E2E2E2E2E2E2E2E2E2E2E2E2E2E2
310
E2E2E2E2E2E2E2E2E2E2E2E2E2E2E2E2E2E2E2E2E2E2E2E2E2E2E2E2E2E2E2E2E2E2E2E2E2E2E2E2E2E2E2E2E2E2E2E2E2E2E2E2E2E2E2E2E2E2E2E2E2E2E2E2E2E2E2E2E2E2E2E2E2E2E2E2E2E2E2E2E2E2E2E2E2E2E2E2BEE2E2E2E2DC2D2DF52DF528282828282828282828282828F5E2E22DE22DE2E2E22DE22DE2F5E2
310
E2E2F5F5F5E2E2E22D2DE2DCE2BEE2E2E2E2E2E2E2E2E2E2E2E2E2E2E2E2E2E2E2E2E2E2E2E2E2E2E2E2E2E2E2E2E2E2E2E2E2E2E2E2E2E2E2E2E2E2E2E2E2E2E2E2E2E2E2E2E2E2E2E2E2E2E2E2E2E2E2E2E2E2E2E2E2E2E2E2E2E2E2E2E2E2E2E2E2E2E2E2E2E2E2E2E2E2E2E2E2E2E2E2E2E2E2E2E2E2E2E2E2E2E2E2E2
310
E2E2E2E2E2E2E2E2E2E2E2E2E2E2E2E2E2E2E2E2E2E2E2E2E2E2E2E2E2E2E2E2E2E2E2E2E2E2E2E2E2E2E2E2E2E2E2E2E2E2E2E2E2E2E2E2E2E2E2E2E2E2E2E2E2E2E2E2E2E2E2E2E2E2E2E2E2E2E2E2E2E2E2E2E2E2E2E2E2E2BEE2E2E2E2DC2DE22DF5F5E2E2E2E2E2E2E2E2E2E2E2E2F5F5E2E22DE22DE2E2E22DE22DE2
310
F5E2E2E2E2F5F5E2E2E22D2DE2DCE2BEE2E2E2E2E2E2E2E2E2E2E2E2E2E2E2E2E2E2E2E2E2E2E2E2E2E2E2E2E2E2E2E2E2E2E2E2E2E2E2E2E2E2E2E2E2E2E2E2E2E2E2E2E2E2E2E2E2E2E2E2E2E2E2E2E2E2E2E2E2E2E2E2E2E2E2E2E2E2E2E2E2E2E2E2E2E2E2E2E2E2E2E2E2E2E2E2E2E2E2E2E2E2E2E2E2E2E2E2E2E2E2
310
E2E2E2E2E2E2E2E2E2E2E2E2E2E2E2E2E2E2E2E2E2E2E2E2E2E2E2E2E2E2E2E2E2E2E2E2E2E2E2E2E2E2E2E2E2E2E2E2E2E2E2E2E2E2E2E2E2E2E2E2E2E2E2E2E2E2E2E2E2E2E2E2E2E2E2E2E2E2E2E2E2E2E2E2E2E2E2E2E2E2E2E2BEE2E2E2E2DC2DBE2DF5F5E2E2E2E2E2E2E2E2E2E2E2E2F5F5E2E22DE22DE2E2E22DBE
310
2DE2F5E2E2E2E2F5F5E2E2E22D2DE2DCE2BEE2E2E2E2E2E2E2E2E2E2E2E2E2E2E2E2E2E2E2E2E2E2E2E2E2E2E2E2E2E2E2E2E2E2E2E2E2E2E2E2E2E2E2E2E2E2E2E2E2E2E2E2E2E2E2E2E2E2E2E2E2E2E2E2E2E2E2E2E2E2E2E2E2E2E2E2E2E2E2E2E2E2E2E2E2E2E2E2E2E2E2E2E2E2E2E2E2E2E2E2E2E2E2E2E2E2E2E2E2
310
E2E2E2E2E2E2E2E2E2E2E2E2E2E2E2E2E2E2E2E2E2E2E2E2E2E2E2E2E2E2E2E2E2E2E2E2E2E2E2E2E2E2E2E2E2E2E2E2E2E2E2E2E2E2E2E2E2E2E2E2E2E2E2E2E2E2E2E2E2E2E2E2E2E2E2E2E2E2E2E2E2E2E2E2E2E2E2E2E2E2E2E2E2E2BEE2E2E2E2DC2DBE2DF5F52D2D2D2D2DBEBE2D2D2D2D2DF5F52DBE2DBEBEE2E2BE
310
BEBE2DE2F5E2E2E2E2F5F5E2E2E22DBEE2DCE2BEE2E2E2E2E2E2E2E2E2E2E2E2E2E2E2E2E2E2E2E2E2E2E2E2E2E2E2E2E2E2E2E2E2E2E2E2E2E2E2E2E2E2E2E2E2E2E2E2E2E2E2E2E2E2E2E2E2E2E2E2E2E2E2E2E2E2E2E2E2E2E2E2E2E2E2E2E2E2E2E2E2E2E2E2E2E2E2E2E2E2E2E2E2E2E2E2E2E2E2E2E2E2E2E2E2E2E2
310
E2E2E2E2E2E2E2E2E2E2E2E2E2E2E2E2E2E2E2E2E2E2E2E2E2E2E2E2E2E2E2E2E2E2E2E2E2E2E2E2E2E2E2E2E2E2E2E2E2E2E2E2E2E2E2E2E2E2E2E2E2E2E2E2E2E2E2E2E2E2E2E2E2E2E2E2E2E2E2E2E2E2E2E2E2E2E2E2E2E2E2E2E2E2E2E2BEE2E2E2E2DC2DBE2DF5F5E2E2E2E2E2E2E2E2E2E2E2E2F5F5E2E22DBEBEE2
310
E2BEBEBE2DE2F5E2E2E2E2F5F5E2E2E22DBEE2DCE2BEE2E2E2E2E2E2E2E2E2E2E2E2E2E2E2E2E2E2E2E2E2E2E2E2E2E2E2E2E2E2E2E2E2E2E2E2E2E2E2E2E2E2E2E2E2E2E2E2E2E2E2E2E2E2E2E2E2E2E2E2E2E2E2E2E2E2E2E2E2E2E2E2E2E2E2E2E2E2E2E2E2E2E2E2E2E2E2E2E2E2E2E2E2E2E2E2E2E2E2E2E2E2E2E2E2
310
E2E2E2E2E2E2E2E2E2E2E2E2E2E2E2E2E2E2E2E2E2E2E2E2E2E2E2E2E2E2E2E2E2E2E2E2E2E2E2E2E2E2E2E2E2E2E2E2E2E2E2E2E2E2E2E2E2E2E2E2E2E2E2E2E2E2E2E2E2E2E2E2E2E2E2E2E2E2E2E2E2E2E2E2E2E2E2E2E2E2E2E2E2E2E2E2E2E2BEE2E2E2E2DC2DE22DF5F5E2E2E2E2E2E2E2E2E2E2E2E2F5F5E2E22DBE
310
BEE2E2BEBEBE2DE2F5E2E2E2E2F5F5E2E2E22DBEE2DCE2BEE2E2E2E2E2E2E2E2E2E2E2E2E2E2E2E2E2E2E2E2E2E2E2E2E2E2E2E2E2E2E2E2E2E2E2E2E2E2E2E2E2E2E2E2E2E2E2E2E2E2E2E2E2E2E2E2E2E2E2E2E2E2E2E2E2E2E2E2E2E2E2E2E2E2E2E2E2E2E2E2E2E2E2E2E2E2E2E2E2E2E2E2E2E2E2E2E2E2E2E2E2E2E2
310
E2E2E2E2E2E2E2E2E2E2E2E2E2E2E2E2E2E2E2E2E2E2E2E2E2E2E2E2E2E2E2E2E2E2E2E2E2E2E2E2E2E2E2E2E2E2E2E2E2E2E2E2E2E2E2E2E2E2E2E2E2E2E2E2E2E2E2E2E2E2E2E2E2E2E2E2E2E2E2E2E2E2E2E2E2E2E2E2E2E2E2E2E2E2E2E2E2E2E2E2BEE2E2E2E2DC2DBE2D2DF528282828282828282828282828F5E2BE
310
2D2D2DE2E2E22DE22DE2F5E2E2E2E2F5F5E2E2E22D2DE2DCE2BEE2E2E2E2E2E2E2E2E2E2E2E2E2E2E2E2E2E2E2E2E2E2E2E2E2E2E2E2E2E2E2E2E2E2E2E2E2E2E2E2E2E2E2E2E2E2E2E2E2E2E2E2E2E2E2E2E2E2E2E2E2E2E2E2E2E2E2E2E2E2E2E2E2E2E2E2E2E2E2E2E2E2E2E2E2E2E2E2E2E2E2E2E2E2E2E2E2E2E2E2E2
310
E2E2E2E2E2E2E2E2E2E2E2E2E2E2E2E2E2E2E2E2E2E2E2E2E2E2E2E2E2E2E2E2E2E2E2E2E2E2E2E2E2E2E2E2E2E2E2E2E2E2E2E2E2E2E2E2E2E2E2E2E2E2E2E2E2E2E2E2E2E2E2E2E2E2E2E2E2E2E2E2E2E2E2E2E2E2E2E2E2E2E2E2E2E2E2E2E2E2E2E2E2E2BEE2E2E2E2DC2DBEF5F5F5BE2828282828BE28282828BEF5F5
310
2D2DF52D2DE2E2E22DE22DE2F5E2E2E2E2F5F52D2D2DF52DE2DCE2BEE2E2E2E2E2E2E2E2E2E2E2E2E2E2E2E2E2E2E2E2E2E2E2E2E2E2E2E2E2E2E2E2E2E2E2E2E2E2E2E2E2E2E2E2E2E2E2E2E2E2E2E2E2E2E2E2E2E2E2E2E2E2E2E2E2E2E2E2E2E2E2E2E2E2E2E2E2E2E2E2E2E2E2E2E2E2E2E2E2E2E2E2E2E2E2E2E2E2E2
310
E2E2E2E2E2E2E2E2E2E2E2E2E2E2E2E2E2E2E2E2E2E2E2E2E2E2E2E2E2E2E2E2E2E2E2E2E2E2E2E2E2E2E2E2E2E2E2E2E2E2E2E2E2E2E2E2E2E2E2E2E2E2E2E2E2E2E2E2E2E2E2E2E2E2E2E2E2E2E2E2E2E2E2E2E2E2E2E2E2E2E2E2E2E2E2E2E2E2E2E2E2E2E2E2BEE2E2E2E2DC2D2D2D2DF5BEF5F5F5F5F5BEF5F5F5F5BE
310
2828E2E22D2D2DE2E2E22DE22DE2F5E2E2F5F5F5F5E2E2BE2D2DE2DCE2BEE2E2E2E2E2E2E2E2E2E2E2E2E2E2E2E2E2E2E2E2E2E2E2E2E2E2E2E2E2E2E2E2E2E2E2E2E2E2E2E2E2E2E2E2E2E2E2E2E2E2E2E2E2E2E2E2E2E2E2E2E2E2E2E2E2E2E2E2E2E2E2E2E2E2E2E2E2E2E2E2E2E2E2E2E2E2E2E2E2E2E2E2E2E2E2E2E2
310
E2E2E2E2E2E2E2E2E2E2E2E2E2E2E2E2E2E2E2E2E2E2E2E2E2E2E2E2E2E2E2E2E2E2E2E2E2E2E2E2E2E2E2E2E2E2E2E2E2E2E2E2E2E2E2E2E2E2E2E2E2E2E2E2E2E2E2E2E2E2E2E2E2E2E2E2E2E2E2E2E2E2E2E2E2E2E2E2E2E2E2E2E2E2E2E2E2E2E2E2E2E2E2E2E2E2BEE2E2E2E2DC2DE2E22828E2E2E2E2E2E2E2E2E2E2
310
E2E22828E2E22DE22DE2E2E22DE22DE2F5F5F5F5F528F5E2E2E22D2DE2DCE2BEE2E2E2E2E2E2E2E2E2E2E2E2E2E2E2E2E2E2E2E2E2E2E2E2E2E2E2E2E2E2E2E2E2E2E2E2E2E2E2E2E2E2E2E2E2E2E2E2E2E2E2E2E2E2E2E2E2E2E2E2E2E2E2E2E2E2E2E2E2E2E2E2E2E2E2E2E2E2E2E2E2E2E2E2E2E2E2E2E2E2E2E2E2E2E2
310
E2E2E2E2E2E2E2E2E2E2E2E2E2E2E2E2E2E2E2E2E2E2E2E2E2E2E2E2E2E2E2E2E2E2E2E2E2E2E2E2E2E2E2E2E2E2E2E2E2E2E2E2E2E2E2E2E2E2E2E2E2E2E2E2E2E2E2E2E2E2E2E2E2E2E2E2E2E2E2E2E2E2E2E2E2E2E2E2E2E2E2E2E2E2E2E2E2E2E2E2E2E2E2E2E2E2E2E2BEE2E2E2E2DC2DE2E22828F5F5F5F5F5F5F5F5
310
F5F5F5F52828E2E22DE22DE2E2E22DE22DE2F5F5E2E2E228F5E2E2E22D2DE2DCE2BEE2E2E2E2E2E2E2E2E2E2E2E2E2E2E2E2E2E2E2E2E2E2E2E2E2E2E2E2E2E2E2E2E2E2E2E2E2E2E2E2E2E2E2E2E2E2E2E2E2E2E2E2E2E2E2E2E2E2E2E2E2E2E2E2E2E2E2E2E2E2E2E2E2E2E2E2E2E2E2E2E2E2E2E2E2E2E2E2E2E2E2E2E2
310
E2E2E2E2E2E2E2E2E2E2E2E2E2E2E2E2E2E2E2E2E2E2E2E2E2E2E2E2E2E2E2E2E2E2E2E2E2E2E2E2E2E2E2E2E2E2E2E2E2E2E2E2E2E2E2E2E2E2E2E2E2E2E2E2E2E2E2E2E2E2E2E2E2E2E2E2E2E2E2E2E2E2E2E2E2E2E2E2E2E2E2E2E2E2E2E2E2E2E2E2E2E2E2E2E2E2E2E2E2E2BEE2E2E2E2DCBEE2E22828E2E2E2E2E2E2
310
E2E2E2E2E2E22828E2E22DE22DE2E2E22DE22DE2F5E2E2E2E228F5E2E2E22D2DE2DCE2BEE2E2E2E2E2E2E2E2E2E2E2E2E2E2E2E2E2E2E2E2E2E2E2E2E2E2E2E2E2E2E2E2E2E2E2E2E2E2E2E2E2E2E2E2E2E2E2E2E2E2E2E2E2E2E2E2E2E2E2E2E2E2E2E2E2E2E2E2E2E2E2E2E2E2E2E2E2E2E2E2E2E2E2E2E2E2E2E2E2E2E2
310
E2E2E2E2E2E2E2E2E2E2E2E2E2E2E2E2E2E2E2E2E2E2E2E2E2E2E2E2E2E2E2E2E2E2E2E2E2E2E2E2E2E2E2E2E2E2E2E2E2E2E2E2E2E2E2E2E2E2E2E2E2E2E2E2E2E2E2E2E2E2E2E2E2E2E2E2E2E2E2E2E2E2E2E2E2E2E2E2E2E2E2E2E2E2E2E2E2E2E2E2E2E2E2E2E2E2E2E2E2E2E2E2BEE2E2E2E2DCBEE2E22828E2E2E2E2
310
E2E2E2E2E2E2E2E22828E2E22DE22DE2E2E22DE22DE2F5E2E2E2E228F5E2E2E22D2DE2DCE2BEE2E2E2E2E2E2E2E2E2E2E2E2E2E2E2E2E2E2E2E2E2E2E2E2E2E2E2E2E2E2E2E2E2E2E2E2E2E2E2E2E2E2E2E2E2E2E2E2E2E2E2E2E2E2E2E2E2E2E2E2E2E2E2E2E2E2E2E2E2E2E2E2E2E2E2E2E2E2E2E2E2E2E2E2E2E2E2E2E2
310
E2E2E2E2E2E2E2E2E2E2E2E2E2E2E2E2E2E2E2E2E2E2E2E2E2E2E2E2E2E2E2E2E2E2E2E2E2E2E2E2E2E2E2E2E2E2E2E2E2E2E2E2E2E2E2E2E2E2E2E2E2E2E2E2E2E2E2E2E2E2E2E2E2E2E2E2E2E2E2E2E2E2E2E2E2E2E2E2E2E2E2E2E2E2E2E2E2E2E2E2E2E2E2E2E2E2E2E2E2E2E2E2E2E2BEE2E2E2E2DC2DE2E228282828
310
F5F5F5F5F5F5F5F528282828E2E22DE22DE2E2E22DE22DE2F5F5F5E2E228F5E2E2E22D2DE2DCE2BEE2E2E2E2E2E2E2E2E2E2E2E2E2E2E2E2E2E2E2E2E2E2E2E2E2E2E2E2E2E2E2E2E2E2E2E2E2E2E2E2E2E2E2E2E2E2E2E2E2E2E2E2E2E2E2E2E2E2E2E2E2E2E2E2E2E2E2E2E2E2E2E2E2E2E2E2E2E2E2E2E2E2E2E2E2E2E2
310
E2E2E2E2E2E2E2E2E2E2E2E2E2E2E2E2E2E2E2E2E2E2E2E2E2E2E2E2E2E2E2E2E2E2E2E2E2E2E2E2E2E2E2E2E2E2E2E2E2E2E2E2E2E2E2E2E2E2E2E2E2E2E2E2E2E2E2E2E2E2E2E2E2E2E2E2E2E2E2E2E2E2E2E2E2E2E2E2E2E2E2E2E2E2E2E2E2E2E2E2E2E2E2E2E2E2E2E2E2E2E2E2E2E2E2E2BEE2E2E2E2DC2DE2E22828
310
F528BEBEBEBEBEBEBEBE28BEF528E2E22DE22DE2E2E22DE22DE2F5F5F5BEF528F5E2E2E22D2DE2DCE2BEE2E2E2E2E2E2E2E2E2E2E2E2E2E2E2E2E2E2E2E2E2E2E2E2E2E2E2E2E2E2E2E2E2E2E2E2E2E2E2E2E2E2E2E2E2E2E2E2E2E2E2E2E2E2E2E2E2E2E2E2E2E2E2E2E2E2E2E2E2E2E2E2E2E2E2E2E2E2E2E2E2E2E2E2E2
310
E2E2E2E2E2E2E2E2E2E2E2E2E2E2E2E2E2E2E2E2E2E2E2E2E2E2E2E2E2E2E2E2E2E2E2E2E2E2E2E2E2E2E2E2E2E2E2E2E2E2E2E2E2E2E2E2E2E2E2E2E2E2E2E2E2E2E2E2E2E2E2E2E2E2E2E2E2E2E2E2E2E2E2E2E2E2E2E2E2E2E2E2E2E2E2E2E2E2E2E2E2E2E2E2E2E2E2E2E2E2E2E2E2E2E2E2E2E2BEE2E2E2E2DCF52D2D
310
2DF5F528F5F5F5F5F5F5F5F528F52828E2E22DE22DE2E2E22DE22DE2F5E2F5BEF5F5F5E2E2E22D2DE2DCE2BEE2E2E2E2E2E2E2E2E2E2E2E2E2E2E2E2E2E2E2E2E2E2E2E2E2E2E2E2E2E2E2E2E2E2E2E2E2E2E2E2E2E2E2E2E2E2E2E2E2E2E2E2E2E2E2E2E2E2E2E2E2E2E2E2E2E2E2E2E2E2E2E2E2E2E2E2E2E2E2E2E2E2E2
310
E2E2E2E2E2E2E2E2E2E2E2E2E2E2E2E2E2E2E2E2E2E2E2E2E2E2E2E2E2E2E2E2E2E2E2E2E2E2E2E2E2E2E2E2E2E2E2E2E2E2E2E2E2E2E2E2E2E2E2E2E2E2E2E2E2E2E2E2E2E2E2E2E2E2E2E2E2E2E2E2E2E2E2E2E2E2E2E2E2E2E2E2E2E2E2E2E2E2E2E2E2E2E2E2E2E2E2E2E2E2E2E2E2E2E2E2E2E2E2E2BEE2E2E2E2DCE2
310
E2E2F528282828282828BE282828282828F5E2E22DE22DE2E2E22DE22DE2F5E2F5E2E2F5F5E2E2BE2D2DE2DCE2BEE2E2E2E2E2E2E2E2E2E2E2E2E2E2E2E2E2E2E2E2E2E2E2E2E2E2E2E2E2E2E2E2E2E2E2E2E2E2E2E2E2E2E2E2E2E2E2E2E2E2E2E2E2E2E2E2E2E2E2E2E2E2E2E2E2E2E2E2E2E2E2E2E2E2E2E2E2E2E2E2E2
310
E2E2E2E2E2E2E2E2E2E2E2E2E2E2E2E2E2E2E2E2E2E2E2E2E2E2E2E2E2E2E2E2E2E2E2E2E2E2E2E2E2E2E2E2E2E2E2E2E2E2E2E2E2E2E2E2E2E2E2E2E2E2E2E2E2E2E2E2E2E2E2E2E2E2E2E2E2E2E2E2E2E2E2E2E2E2E2E2E2E2E2E2E2E2E2E2E2E2E2E2E2E2E2E2E2E2E2E2E2E2E2E2E2E2E2E2E2E2E2E2E2E2BEE2E2E2E2
310
DCE2E2E2F528E228E2E2E2E2F5E2E2E228E228F5E2E2BEE22DE2E2E22DE22DE2F5E2F5E2E2F5F5E2E2BEBE2DE2DCE2BEE2E2E2E2E2E2E2E2E2E2E2E2E2E2E2E2E2E2E2E2E2E2E2E2E2E2E2E2E2E2E2E2E2E2E2E2E2E2E2E2E2E2E2E2E2E2E2E2E2E2E2E2E2E2E2E2E2E2E2E2E2E2E2E2E2E2E2E2E2E2E2E2E2E2E2E2E2E2E2
310
E2E2E2E2E2E2E2E2E2E2E2E2E2E2E2E2E2E2E2E2E2E2E2E2E2E2E2E2E2E2E2E2E2E2E2E2E2E2E2E2E2E2E2E2E2E2E2E2E2E2E2E2E2E2E2E2E2E2E2E2E2E2E2E2E2E2E2E2E2E2E2E2E2E2E2E2E2E2E2E2E2E2E2E2E2E2E2E2E2E2E2E2E2E2E2E2E2E2E2E2E2E2E2E2E2E2E2E2E2E2E2E2E2E2E2E2E2E2E2E2E2E2E2E2BEE2E2
310
E2E2DCE2E2E2F528E228E2E2E2E2F5E2E2E228E228F5E2E2BEE22DE2E2E22DE22DE2F5E2F5E2E2F5F5E2E2BEBE2DE2DCE2BEE2E2E2E2E2E2E2E2E2E2E2E2E2E2E2E2E2E2E2E2E2E2E2E2E2E2E2E2E2E2E2E2E2E2E2E2E2E2E2E2E2E2E2E2E2E2E2E2E2E2E2E2E2E2E2E2E2E2E2E2E2E2E2E2E2E2E2E2E2E2E2E2E2E2E2E2E2
310
E2E2E2E2E2E2E2E2E2E2E2E2E2E2E2E2E2E2E2E2E2E2E2E2E2E2E2E2E2E2E2E2E2E2E2E2E2E2E2E2E2E2E2E2E2E2E2E2E2E2E2E2E2E2E2E2E2E2E2E2E2E2E2E2E2E2E2E2E2E2E2E2E2E2E2E2E2E2E2E2E2E2E2E2E2E2E2E2E2E2E2E2E2E2E2E2E2E2E2E2E2E2E2E2E2E2E2E2E2E2E2E2E2E2E2E2E2E2E2E2E2E2E2E2E2E2BE
310
E2E2E2E2DCE2E2E2F528E228E2E2E2E2BEE2E2E228E228F5E2E2BEE22DE2E2E22DE22DE2F5E2F5E2E2F5F5E2E2BEBE2DE2DCE2BEE2E2E2E2E2E2E2E2E2E2E2E2E2E2E2E2E2E2E2E2E2E2E2E2E2E2E2E2E2E2E2E2E2E2E2E2E2E2E2E2E2E2E2E2E2E2E2E2E2E2E2E2E2E2E2E2E2E2E2E2E2E2E2E2E2E2E2E2E2E2E2E2E2E2E2
310
E2E2E2E2E2E2E2E2E2E2E2E2E2E2E2E2E2E2E2E2E2E2E2E2E2E2E2E2E2E2E2E2E2E2E2E2E2E2E2E2E2E2E2E2E2E2E2E2E2E2E2E2E2E2E2E2E2E2E2E2E2E2E2E2E2E2E2E2E2E2E2E2E2E2E2E2E2E2E2E2E2E2E2E2E2E2E2E2E2E2E2E2E2E2E2E2E2E2E2E2E2E2E2E2E2E2E2E2E2E2E2E2E2E2E2E2E2E2E2E2E2E2E2E2E2E2E2
310
E2BEE2E2E2E2DCE2E2E2F528E228E2E2E2E2E2E2E2E228E228F5E2E2BEE22DE2E2E22DE22DE2F5E2F5E2E2F5F5E2E2BEBE2DE2DCE2BEE2E2E2E2E2E2E2E2E2E2E2E2E2E2E2E2E2E2E2E2E2E2E2E2E2E2E2E2E2E2E2E2E2E2E2E2E2E2E2E2E2E2E2E2E2E2E2E2E2E2E2E2E2E2E2E2E2E2E2E2E2E2E2E2E2E2E2E2E2E2E2E2E2
310
E2E2E2E2E2E2E2E2E2E2E2E2E2E2E2E2E2E2E2E2E2E2E2E2E2E2E2E2E2E2E2E2E2E2E2E2E2E2E2E2E2E2E2E2E2E2E2E2E2E2E2E2E2E2E2E2E2E2E2E2E2E2E2E2E2E2E2E2E2E2E2E2E2E2E2E2E2E2E2E2E2E2E2E2E2E2E2E2E2E2E2E2E2E2E2E2E2E2E2E2E2E2E2E2E2E2E2E2E2E2E2E2E2E2E2E2E2E2E2E2E2E2E2E2E2E2E2
310
E2E2E2BEE2E2E2E2DCE2E2E2F528E228E2E2E2E2E2E2E2E228E228F5E2E22DE22DE2E2E22DE22DE2F5E2F5E2E2F5F5E2E2E22D2DE2DCE2BEE2E2E2E2E2E2E2E2E2E2E2E2E2E2E2E2E2E2E2E2E2E2E2E2E2E2E2E2E2E2E2E2E2E2E2E2E2E2E2E2E2E2E2E2E2E2E2E2E2E2E2E2E2E2E2E2E2E2E2E2E2E2E2E2E2E2E2E2E2E2E2
310
E2E2E2E2E2E2E2E2E2E2E2E2E2E2E2E2E2E2E2E2E2E2E2E2E2E2E2E2E2E2E2E2E2E2E2E2E2E2E2E2E2E2E2E2E2E2E2E2E2E2E2E2E2E2E2E2E2E2E2E2E2E2E2E2E2E2E2E2E2E2E2E2E2E2E2E2E2E2E2E2E2E2E2E2E2E2E2E2E2E2E2E2E2E2E2E2E2E2E2E2E2E2E2E2E2E2E2E2E2E2E2E2E2E2E2E2E2E2E2E2E2E2E2E2E2E2E2
310
E2E2E2E2E2BEE2E2E2E2DCE2E2E2F528E228E2E2E2E2E2E2E2E228E228F5E2E22DE22DE2E2E22DE22DE2F5E2F5E2E2F5F5E2E2E22D2DE2DCE2BEE2E2E2E2E2E2E2E2E2E2E2E2E2E2E2E2E2E2E2E2E2E2E2E2E2E2E2E2E2E2E2E2E2E2E2E2E2E2E2E2E2E2E2E2E2E2E2E2E2E2E2E2E2E2E2E2E2E2E2E2E2E2E2E2E2E2E2E2E2
310
E2E2E2E2E2E2E2E2E2E2E2E2E2E2E2E2E2E2E2E2E2E2E2E2E2E2E2E2E2E2E2E2E2E2E2E2E2E2E2E2E2E2E2E2E2E2E2E2E2E2E2E2E2E2E2E2E2E2E2E2E2E2E2E2E2E2E2E2E2E2E2E2E2E2E2E2E2E2E2E2E2E2E2E2E2E2E2E2E2E2E2E2E2E2E2E2E2E2E2E2E2E2E2E2E2E2E2E2E2E2E2E2E2E2E2E2E2E2E2E2E2E2E2E2E2E2E2
310
E2E2E2E2E2E2E2BEE2E2E2E2DCE2E2E2F528E228E2E2E2E2E2E2E2E228E228F5E2E22DE22DE2E2E22DE22DE2F5E2F5E2E2F5F5E2E2E22D2DE2DCE2BEE2E2E2E2E2E2E2E2E2E2E2E2E2E2E2E2E2E2E2E2E2E2E2E2E2E2E2E2E2E2E2E2E2E2E2E2E2E2E2E2E2E2E2E2E2E2E2E2E2E2E2E2E2E2E2E2E2E2E2E2E2E2E2E2E2E2E2
310
E2E2E2E2E2E2E2E2E2E2E2E2E2E2E2E2E2E2E2E2E2E2E2E2E2E2E2E2E2E2E2E2E2E2E2E2E2E2E2E2E2E2E2E2E2E2E2E2E2E2E2E2E2E2E2E2E2E2E2E2E2E2E2E2E2E2E2E2E2E2E2E2E2E2E2E2E2E2E2E2E2E2E2E2E2E2E2E2E2E2E2E2E2E2E2E2E2E2E2E2E2E2E2E2E2E2E2E2E2E2E2E2E2E2E2E2E2E2E2E2E2E2E2E2E2E2E2
310
E2E2E2E2E2E2E2E2E2BEE2E2E2E2DCE2E2E2F528BE28E2E2E2E2E2E2E2E2282828F5E2E22DE22DE2E2E22DE22DE2F5E2F5E2E2F5F5E2E2E22D2DE2DCE2BEE2E2E2E2E2E2E2E2E2E2E2E2E2E2E2E2E2E2E2E2E2E2E2E2E2E2E2E2E2E2E2E2E2E2E2E2E2E2E2E2E2E2E2E2E2E2E2E2E2E2E2E2E2E2E2E2E2E2E2E2E2E2E2E2E2
310
E2E2E2E2E2E2E2E2E2E2E2E2E2E2E2E2E2E2E2E2E2E2E2E2E2E2E2E2E2E2E2E2E2E2E2E2E2E2E2E2E2E2E2E2E2E2E2E2E2E2E2E2E2E2E2E2E2E2E2E2E2E2E2E2E2E2E2E2E2E2E2E2E2E2E2E2E2E2E2E2E2E2E2E2E2E2E2E2E2E2E2E2E2E2E2E2E2E2E2E2E2E2E2E2E2E2E2E2E2E2E2E2E2E2E2E2E2E2E2E2E2E2E2E2E2E2E2
310
E2E2E2E2E2E2E2E2E2E2E2BEE2E2E2E2DCE2E2E2F528E2BE2D2D2D2D2D2D2D2DBEBE28F5E2E22DE22DE2E2E22D2DF5F5BEE2F5E2E2F5F5E2E2E22D2DE2DCE2BEE2E2E2E2E2E2E2E2E2E2E2E2E2E2E2E2E2E2E2E2E2E2E2E2E2E2E2E2E2E2E2E2E2E2E2E2E2E2E2E2E2E2E2E2E2E2E2E2E2E2E2E2E2E2E2E2E2E2E2E2E2E2E2
310
E2E2E2E2E2E2E2E2E2E2E2E2E2E2E2E2E2E2E2E2E2E2E2E2E2E2E2E2E2E2E2E2E2E2E2E2E2E2E2E2E2E2E2E2E2E2E2E2E2E2E2E2E2E2E2E2E2E2E2E2E2E2E2E2E2E2E2E2E2E2E2E2E2E2E2E2E2E2E2E2E2E2E2E2E2E2E2E2E2E2E2E2E2E2E2E2E2E2E2E2E2E2E2E2E2E2E2E2E2E2E2E2E2E2E2E2E2E2E2E2E2E2E2E2E2E2E2
310
E2E2E2E2E2E2E2E2E2E2E2E2E2BEE2E2E2E2DCE2E2E2F528E228E2E2E2E2E2BEBEE228E228F5E2E22DE22DE2E2E22DBE2DE2F5E2F5E2E2F5F5E2E2E22D2DE2DCE2BEE2E2E2E2E2E2E2E2E2E2E2E2E2E2E2E2E2E2E2E2E2E2E2E2E2E2E2E2E2E2E2E2E2E2E2E2E2E2E2E2E2E2E2E2E2E2E2E2E2E2E2E2E2E2E2E2E2E2E2E2E2
310
E2E2E2E2E2E2E2E2E2E2E2E2E2E2E2E2E2E2E2E2E2E2E2E2E2E2E2E2E2E2E2E2E2E2E2E2E2E2E2E2E2E2E2E2E2E2E2E2E2E2E2E2E2E2E2E2E2E2E2E2E2E2E2E2E2E2E2E2E2E2E2E2E2E2E2E2E2E2E2E2E2E2E2E2E2E2E2E2E2E2E2E2E2E2E2E2E2E2E2E2E2E2E2E2E2E2E2E2E2E2E2E2E2E2E2E2E2E2E2E2E2E2E2E2E2E2E2
310
E2E2E2E2E2E2E2E2E2E2E2E2E2E2E2BEE2E2E2E2DCE2E2E2F528E228E2E2E2E2E2E2E2E228E228F5E2E22DE22DE2E2E22DBE2DE2F5E2F5E2E2F5F5E2E2E22D2DE2DCE2BEE2E2E2E2E2E2E2E2E2E2E2E2E2E2E2E2E2E2E2E2E2E2E2E2E2E2E2E2E2E2E2E2E2E2E2E2E2E2E2E2E2E2E2E2E2E2E2E2E2E2E2E2E2E2E2E2E2E2E2
310
E2E2E2E2E2E2E2E2E2E2E2E2E2E2E2E2E2E2E2E2E2E2E2E2E2E2E2E2E2E2E2E2E2E2E2E2E2E2E2E2E2E2E2E2E2E2E2E2E2E2E2E2E2E2E2E2E2E2E2E2E2E2E2E2E2E2E2E2E2E2E2E2E2E2E2E2E2E2E2E2E2E2E2E2E2E2E2E2E2E2E2E2E2E2E2E2E2E2E2E2E2E2E2E2E2E2E2E2E2E2E2E2E2E2E2E2E2E2E2E2E2E2E2E2E2E2E2
310
E2E2E2E2E2E2E2E2E2E2E2E2E2E2E2E2E2BEE2E2E2E2DCE2E2E2F5282828E2E2E22828E2E2E2282828F5E2E22DE22DE2E2E22DBE2DE2F5F5F5E2BEF5F5E2E2E22D2DE2DCE2BEE2E2E2E2E2E2E2E2E2E2E2E2E2E2E2E2E2E2E2E2E2E2E2E2E2E2E2E2E2E2E2E2E2E2E2E2E2E2E2E2E2E2E2E2E2E2E2E2E2E2E2E2E2E2E2E2E2
310
E2E2E2E2E2E2E2E2E2E2E2E2E2E2E2E2E2E2E2E2E2E2E2E2E2E2E2E2E2E2E2E2E2E2E2E2E2E2E2E2E2E2E2E2E2E2E2E2E2E2E2E2E2E2E2E2E2E2E2E2E2E2E2E2E2E2E2E2E2E2E2E2E2E2E2E2E2E2E2E2E2E2E2E2E2E2E2E2E2E2E2E2E2E2E2E2E2E2E2E2E2E2E2E2E2E2E2E2E2E2E2E2E2E2E2E2E2E2E2E2E2E2E2E2E2E2E2
310
E2E2E2E2E2E2E2E2E2E2E2E2E2E2E2E2E2E2E2BEE2E2E2E2DCE2E2E22828F5F5F5F5F52828F5F5F5F5F528282D2DF52D2DE2E2E22D2D2D2DF5F5F5F5F5F5F52D2D2DF52D2DDCE2BEE2E2E2E2E2E2E2E2E2E2E2E2E2E2E2E2E2E2E2E2E2E2E2E2E2E2E2E2E2E2E2E2E2E2E2E2E2E2E2E2E2E2E2E2E2E2E2E2E2E2E2E2E2E2E2
310
E2E2E2E2E2E2E2E2E2E2E2E2E2E2E2E2E2E2E2E2E2E2E2E2E2E2E2E2E2E2E2E2E2E2E2E2E2E2E2E2E2E2E2E2E2E2E2E2E2E2E2E2E2E2E2E2E2E2E2E2E2E2E2E2E2E2E2E2E2E2E2E2E2E2E2E2E2E2E2E2E2E2E2E2E2E2E2E2E2E2E2E2E2E2E2E2E2E2E2E2E2E2E2E2E2E2E2E2E2E2E2E2E2E2E2E2E2E2E2E2E2E2E2E2E2E2E2
310
E2E2E2E2E2E2E2E2E2E2E2E2E2E2E2E2E2E2E2E2E2BEE2E2E2E2DCDCDCDCDCDCDCDCDCDCDCDCDCDCDCDCDCDCDCDCDCDCDCDCDCDCDCDCDCDCDCDCDCDCDCDCDCDCDCDCDCDCDCDCDCDCE2BEE2E2E2E2E2E2E2E2E2E2E2E2E2E2E2E2E2E2E2E2E2E2E2E2E2E2E2E2E2E2E2E2E2E2E2E2E2E2E2E2E2E2E2E2E2E2E2E2E2E2E2E2E2
310
E2E2E2E2E2E2E2E2E2E2E2E2E2E2E2E2E2E2E2E2E2E2E2E2E2E2E2E2E2E2E2E2E2E2E2E2E2E2E2E2E2E2E2E2E2E2E2E2E2E2E2E2E2E2E2E2E2E2E2E2E2E2E2E2E2E2E2E2E2E2E2E2E2E2E2E2E2E2E2E2E2E2E2E2E2E2E2E2E2E2E2E2E2E2E2E2E2E2E2E2E2E2E2E2E2E2E2E2E2E2E2E2E2E2E2E2E2E2E2E2E2E2E2E2E2E2E2
310
E2E2E2E2E2E2E2E2E2E2E2E2E2E2E2E2E2E2E2E2E2E2E2BEBEBEBEBEBEBEBEBEBEBEBEBEBEBEBEBEBEBEBEBEBEBEBEBEBEBEBEBEBEBEBEBEBEBEBEBEBEBEBEBEBEBEBEBEBEBEBEBEBEBEBEBEE2E2E2E2E2E2E2E2E2E2E2E2E2E2E2E2E2E2E2E2E2E2E2E2E2E2E2E2E2E2E2E2E2E2E2E2E2E2E2E2E2E2E2E2E2E2E2E2E2E2E2
310
E2E2E2E2E2E2E2E2E2E2E2E2E2E2E2E2E2E2E2E2E2E2E2E2E2E2E2E2E2E2E2E2E2E2E2E2E2E2E2E2E2E2E2E2E2E2E2E2E2E2E2E2E2E2E2E2E2E2E2E2E2E2E2E2E2E2E2E2E2E2E2E2E2E2E2E2E2E2E2E2E2E2E2E2E2E2E2E2E2E2E2E2E2E2E2E2E2E2E2E2E2E2E2E2E2E2E2E2E2E2E2E2E2E2E2E2E2E2E2E2E2E2E2E2E2E2E2
310
E2E2E2E2E2E2E2E2E2E2E2E2E2E2E2E2E2E2E2E2E2E2E2E2E2E2E2E2E2E2E2E2E2E2E2E2E2E2E2E2E2E2E2E2E2E2E2E2E2E2E2E2E2E2E2E2E2E2E2E2E2E2E2E2E2E2E2E2E2E2E2E2E2E2E2E2E2E2E2E2E2E2E2E2E2E2E2E2E2E2E2E2E2E2E2E2E2E2E2E2E2E2E2E2E2E2E2E2E2E2E2E2E2E2E2E2E2E2E2E2E2E2E2E2E2E2E2
310
E2E2E2E2E2E2E2E2E2E2E2E2E2E2E2E2E2E2E2E2E2E2E2E2E2E2E2E2E2E2E2E2E2E2E2E2E2E2E2E2E2E2E2E2E2E2E2E2E2E2E2E2E2E2E2E2E2E2E2E2E2E2E2E2E2E2E2E2E2E2E2E2E2E2E2E2E2E2E2E2E2E2E2E2E2E2E2E2E2E2E2E2E2E2E2E2E2E2E2E2E2E2E2E2E2E2E2E2E2E2E2E2E2E2E2E2E2E2E2E2E2E2E2E2E2E2E2
310
E2E2E2E2E2E2E2E2E2E2E2E2E2E2E2E2E2E2E2E2E2E2E2E2E2E2E2E2E2E2E2E2E2E2E2E2E2E2E2E2E2E2E2E2E2E2E2E2E2E2E2E2E2E2E2E2E2E2E2E2E2E2E2E2E2E2E2E2E2E2E2E2E2E2E2E2E2E2E2E2E2E2E2E2E2E2E2E2E2E2E2E2E2E2E2E2E2E2E2E2E2E2E2E2E2E2E2E2E2E2E2E2E2E2E2E2E2E2E2E2E2E2E2E2E2E2E2
310
E2E2E2E2E2E2E2E2E2E2E2E2E2E2E2E2E2E2E2E2E2E2E2E2E2E2E2E2E2E2E2E2E2E2E2E2E2E2E2E2E2E2E2E2E2E2E2E2E2E2E2E2E2E2E2E2E2E2E2E2E2E2E2E2E2E2E2E2E2E2E2E2E2E2E2E2E2E2E2E2E2E2E2E2E2E2E2E2E2E2E2E2E2E2E2E2E2E2E2E2E2E2E2E2E2E2E2E2E2E2E2E2E2E2E2E2E2E2E2E2E2E2E2E2E2E2E2
310
E2E2E2E2E2E2E2E2E2E2E2E2E2E2E2E2E2E2E2E2E2E2E2E2E2E2E2E2E2E2E2E2E2E2E2E2E2E2E2E2E2E2E2E2E2E2E2E2E2E2E2E2E2E2E2E2E2E2E2E2E2E2E2E2E2E2E2E2E2E2E2E2E2E2E2E2E2E2E2E2E2E2E2E2E2E2E2E2E2E2E2E2E2E2E2E2E2E2E2E2E2E2E2E2E2E2E2E2E2E2E2E2E2E2E2E2E2E2E2E2E2E2E2E2E2E2E2
310
E2E2E2E2E2E2E2E2E2E2E2E2E2E2E2E2E2E2E2E2E2E2E2E2E2E2E2E2E2E2E2E2E2E2E2E2E2E2E2E2E2E2E2E2E2E2E2E2E2E2E2E2E2E2E2E2E2E2E2E2E2E2E2E2E2E2E2E2E2E2E2E2E2E2E2E2E2E2E2E2E2E2E2E2E2E2E2E2E2E2E2E2E2E2E2E2E2E2E2E2E2E2E2E2E2E2E2E2E2E2E2E2E2E2E2E2E2E2E2E2E2E2E2E2E2E2E2
310
E2E2E2E2E2E2E2E2E2E2E2E2E2E2E2E2E2E2E2E2E2E2E2E2E2E2E2E2E2E2E2E2E2E2E2E2E2E2E2E2E2E2E2E2E2E2E2E2E2E2E2E2E2E2E2E2E2E2E2E2E2E2E2E2E2E2E2E2E2E2E2E2E2E2E2E2E2E2E2E2E2E2E2E2E2E2E2E2E2E2E2E2E2E2E2E2E2E2E2E2E2E2E2E2E2E2E2E2E2E2E2E2E2E2E2E2E2E2E2E2E2E2E2E2E2E2E2
310
E2E2E2E2E2E2E2E2E2E2E2E2E2E2E2E2E2E2E2E2E2E2E2E2E2E2E2E2E2E2E2E2E2E2E2E2E2E2E2E2E2E2E2E2E2E2E2E2E2E2E2E2E2E2E2E2E2E2E2E2E2E2E2E2E2E2E2E2E2E2E2E2E2E2E2E2E2E2E2E2E2E2E2E2E2E2E2E2E2E2E2E2E2E2E2E2E2E2E2E2E2E2E2E2E2E2E2E2E2E2E2E2E2E2E2E2E2E2E2E2E2E2E2E2E2E2E2
310
E2E2E2E2E2E2E2E2E2E2E2E2E2E2E2E2E2E2E2E2E2E2E2E2E2E2E2E2E2E2E2E2E2E2E2E2E2E2E2E2E2E2E2E2E2E2E2E2E2E2E2E2E2E2E2E2E2E2E2E2E2E2E2E2E2E2E2E2E2E2E2E2E2E2E2E2E2E2E2E2E2E2E2E2E2E2E2E2E2E2E2E2E2E2E2E2E2E2E2E2E2E2E2E2E2E2E2E2E2E2E2E2E2E2E2E2E2E2E2E2E2E2E2E2E2E2E2
310
E2E2E2E2E2E2E2E2E2E2E2E2E2E2E2E2E2E2E2E2E2E2E2E2E2E2E2E2E2E2E2E2E2E2E2E2E2E2E2E2E2E2E2E2E2E2E2E2E2E2E2E2E2E2E2E2E2E2E2E2E2E2E2E2E2E2E2E2E2E2E2E2E2E2E2E2E2E2E2E2E2E2E2E2E2E2E2E2E2E2E2E2E2E2E2E2E2E2E2E2E2E2E2E2E2E2E2E2E2E2E2E2E2E2E2E2E2E2E2E2E2E2E2E2E2E2E2
310
E2E2E2E2E2E2E2E2E2E2E2E2E2E2E2E2E2E2E2E2E2E2E2E2E2E2E2E2E2E2E2E2E2E2E2E2E2E2E2E2E2E2E2E2E2E2E2E2E2E2E2E2E2E2E2E2E2E2E2E2E2E2E2E2E2E2E2E2E2E2E2E2E2E2E2E2E2E2E2E2E2E2E2E2E2E2E2E2E2E2E2E2E2E2E2E2E2E2E2E2E2E2E2E2E2E2E2E2E2E2E2E2E2E2E2E2E2E2E2E2E2E2E2E2E2E2E2
310
E2E2E2E2E2E2E2E2E2E2E2E2E2E2E2E2E2E2E2E2E2E2E2E2E2E2E2E2E2E2E2E2E2E2E2E2E2E2E2E2E2E2E2E2E2E2E2E2E2E2E2E2E2E2E2E2E2E2E2E2E2E2E2E2E2E2E2E2E2E2E2E2E2E2E2E2E2E2E2E2E2E2E2E2E2E2E2E2E2E2E2E2E2E2E2E2E2E2E2E2E2E2E2E2E2E2E2E2E2E2E2E2E2E2E2E2E2E2E2E2E2E2E2E2E2E2E2
310
E2E2E2E2E2E2E2E2E2E2E2E2E2E2E2E2E2E2E2E2E2E2E2E2E2E2E2E2E2E2E2E2E2E2E2E2E2E2E2E2E2E2E2E2E2E2E2E2E2E2E2E2E2E2E2E2E2E2E2E2E2E2E2E2E2E2E2E2E2E2E2E2E2E2E2E2E2E2E2E2E2E2E2E2E2E2E2E2E2E2E2E2E2E2E2E2E2E2E2E2E2E2E2E2E2E2E2E2E2E2E2E2E2E2E2E2E2E2E2E2E2E2E2E2E2E2E2
310
E2E2E2E2E2E2E2E2E2E2E2E2E2E2E2E2E2E2E2E2E2E2E2E2E2E2E2E2E2E2E2E2E2E2E2E2E2E2E2E2E2E2E2E2E2E2E2E2E2E2E2E2E2E2E2E2E2E2E2E2E2E2E2E2E2E2E2E2E2E2E2E2E2E2E2E2E2E2E2E2E2E2E2E2E2E2E2E2E2E2E2E2E2E2E2E2E2E2E2E2E2E2E2E2E2E2E2E2E2E2E2E2E2E2E2E2E2E2E2E2E2E2E2E2E2E2E2
310
E2E2E2E2E2E2E2E2E2E2E2E2E2E2E2E2E2E2E2E2E2E2E2E2E2E2E2E2E2E2E2E2E2E2E2E2E2E2E2E2E2E2E2E2E2E2E2E2E2E2E2E2E2E2E2E2E2E2E2E2E2E2E2E2E2E2E2E2E2E2E2E2E2E2E2E2E2E2E2E2E2E2E2E2E2E2E2E2E2E2E2E2E2E2E2E2E2E2E2E2E2E2E2E2E2E2E2E2E2E2E2E2E2E2E2E2E2E2E2E2E2E2E2E2E2E2E2
310
E2E2E2E2E2E2E2E2E2E2E2E2E2E2E2E2E2E2E2E2E2E2E2E2E2E2E2E2E2E2E2E2E2E2E2E2E2E2E2E2E2E2E2E2E2E2E2E2E2E2E2E2E2E2E2E2E2E2
  0
XRECORD
  5
46
102
{ACAD_REACTORS
330
45
102
}
330
45
100
AcDbXrecord
280
     1
270
     1
271
     1
  0
XRECORD
  5
47
102
{ACAD_REACTORS
330
45
102
}
330
45
100
AcDbXrecord
280
     1
270
     1
271
     1
  0
XRECORD
  5
48
102
{ACAD_REACTORS
330
45
102
}
330
45
100
AcDbXrecord
280
     1
270
     1
271
     1
  0
XRECORD
  5
49
102
{ACAD_REACTORS
330
45
102
}
330
45
100
AcDbXrecord
280
     1
270
     1
271
     1
  0
XRECORD
  5
4A
102
{ACAD_REACTORS
330
45
102
}
330
45
100
AcDbXrecord
280
     1
270
     1
271
     1
  0
XRECORD
  5
4B
102
{ACAD_REACTORS
330
45
102
}
330
45
100
AcDbXrecord
280
     1
270
     1
271
     1
  0
XRECORD
  5
3E
102
{ACAD_REACTORS
330
3D
102
}
330
3D
100
AcDbXrecord
280
     1
270
     1
271
     1
  0
XRECORD
  5
3F
102
{ACAD_REACTORS
330
3D
102
}
330
3D
100
AcDbXrecord
280
     1
270
     1
271
     1
  0
XRECORD
  5
40
102
{ACAD_REACTORS
330
3D
102
}
330
3D
100
AcDbXrecord
280
     1
270
     1
271
     1
  0
XRECORD
  5
41
102
{ACAD_REACTORS
330
3D
102
}
330
3D
100
AcDbXrecord
280
     1
270
     1
271
     1
  0
XRECORD
  5
42
102
{ACAD_REACTORS
330
3D
102
}
330
3D
100
AcDbXrecord
280
     1
270
     1
271
     1
  0
XRECORD
  5
43
102
{ACAD_REACTORS
330
3D
102
}
330
3D
100
AcDbXrecord
280
     1
270
     1
271
     1
  0
XRECORD
  5
F
102
{ACAD_REACTORS
330
E
102
}
330
E
100
AcDbXrecord
280
     1
270
     1
271
     1
  0
XRECORD
  5
10
102
{ACAD_REACTORS
330
E
102
}
330
E
100
AcDbXrecord
280
     1
270
     1
271
     1
  0
XRECORD
  5
11
102
{ACAD_REACTORS
330
E
102
}
330
E
100
AcDbXrecord
280
     1
270
     1
271
     1
  0
XRECORD
  5
12
102
{ACAD_REACTORS
330
E
102
}
330
E
100
AcDbXrecord
280
     1
270
     1
271
     1
  0
XRECORD
  5
13
102
{ACAD_REACTORS
330
E
102
}
330
E
100
AcDbXrecord
280
     1
270
     1
271
     1
  0
XRECORD
  5
14
102
{ACAD_REACTORS
330
E
102
}
330
E
100
AcDbXrecord
280
     1
270
     1
271
     1
  0
CELLSTYLEMAP
  5
564
102
{ACAD_REACTORS
330
55
102
}
330
55
100
AcDbCellStyleMap
 90
        3
300
CELLSTYLE
  1
TABLEFORMAT_BEGIN
 90
        5
170
     1
 91
        0
 92
    32768
 62
   257
 93
        1
300
CONTENTFORMAT
  1
CONTENTFORMAT_BEGIN
 90
        0
 91
        0
 92
      512
 93
        0
300

 40
0.0
140
1.0
 94
        5
 62
     0
340
23
144
0.25
309
CONTENTFORMAT_END
171
     0
 94
        0
309
TABLEFORMAT_END
  1
CELLSTYLE_BEGIN
 90
        1
 91
        1
300
_TITLE
309
CELLSTYLE_END
300
CELLSTYLE
  1
TABLEFORMAT_BEGIN
 90
        5
170
     1
 91
        0
 92
        0
 62
   257
 93
        1
300
CONTENTFORMAT
  1
CONTENTFORMAT_BEGIN
 90
        0
 91
        0
 92
      512
 93
        0
300

 40
0.0
140
1.0
 94
        5
 62
     0
340
23
144
0.18
309
CONTENTFORMAT_END
171
     0
 94
        0
309
TABLEFORMAT_END
  1
CELLSTYLE_BEGIN
 90
        2
 91
        1
300
_HEADER
309
CELLSTYLE_END
300
CELLSTYLE
  1
TABLEFORMAT_BEGIN
 90
        5
170
     1
 91
        0
 92
        0
 62
   257
 93
        1
300
CONTENTFORMAT
  1
CONTENTFORMAT_BEGIN
 90
        0
 91
        0
 92
      512
 93
        0
300

 40
0.0
140
1.0
 94
        2
 62
     0
340
23
144
0.18
309
CONTENTFORMAT_END
171
     0
 94
        0
309
TABLEFORMAT_END
  1
CELLSTYLE_BEGIN
 90
        3
 91
        2
300
_DATA
309
CELLSTYLE_END
  0
ENDSEC
  0
EOF
