  0
SECTION
  2
HEADER
  9
$ACADVER
  1
AC1024
  9
$ACADMAINTVER
 70
     6
  9
$DWGCODEPAGE
  3
ANSI_1252
  9
$INSBASE
 10
0.0
 20
0.0
 30
0.0
  9
$EXTMIN
 10
0.0
 20
0.0
 30
0.0
  9
$EXTMAX
 10
1049.999999999895
 20
742.499999999926
 30
0.0
  9
$LIMMIN
 10
0.0
 20
0.0
  9
$LIMMAX
 10
1050.0
 20
742.4999999999999
  9
$ORTHOMODE
 70
     1
  9
$REGENMODE
 70
     1
  9
$FILLMODE
 70
     1
  9
$QTEXTMODE
 70
     0
  9
$MIRRTEXT
 70
     0
  9
$LTSCALE
 40
15.0
  9
$ATTMODE
 70
     1
  9
$TEXTSIZE
 40
10.8483456105514
  9
$TRACEWID
 40
1.0
  9
$TEXTSTYLE
  7
ROMANS
  9
$CLAYER
  8
09-01
  9
$CELTYPE
  6
ByLayer
  9
$CECOLOR
 62
   256
  9
$CELTSCALE
 40
1.0
  9
$DISPSILH
 70
     0
  9
$DIMSCALE
 40
2.5
  9
$DIMASZ
 40
2.5
  9
$DIMEXO
 40
1.0
  9
$DIMDLI
 40
10.0
  9
$DIMRND
 40
0.0
  9
$DIMDLE
 40
0.0
  9
$DIMEXE
 40
1.0
  9
$DIMTP
 40
0.0
  9
$DIMTM
 40
0.0
  9
$DIMTXT
 40
2.5
  9
$DIMCEN
 40
0.0
  9
$DIMTSZ
 40
0.0
  9
$DIMTOL
 70
     0
  9
$DIMLIM
 70
     0
  9
$DIMTIH
 70
     0
  9
$DIMTOH
 70
     0
  9
$DIMSE1
 70
     0
  9
$DIMSE2
 70
     0
  9
$DIMTAD
 70
     1
  9
$DIMZIN
 70
     8
  9
$DIMBLK
  1

  9
$DIMASO
 70
     1
  9
$DIMSHO
 70
     0
  9
$DIMPOST
  1

  9
$DIMAPOST
  1

  9
$DIMALT
 70
     0
  9
$DIMALTD
 70
     3
  9
$DIMALTF
 40
0.03937007874016
  9
$DIMLFAC
 40
1.0
  9
$DIMTOFL
 70
     1
  9
$DIMTVP
 40
0.0
  9
$DIMTIX
 70
     0
  9
$DIMSOXD
 70
     0
  9
$DIMSAH
 70
     0
  9
$DIMBLK1
  1

  9
$DIMBLK2
  1

  9
$DIMSTYLE
  2
Wagner
  9
$DIMCLRD
 70
     4
  9
$DIMCLRE
 70
     4
  9
$DIMCLRT
 70
     1
  9
$DIMTFAC
 40
1.0
  9
$DIMGAP
 40
1.0
  9
$DIMJUST
 70
     0
  9
$DIMSD1
 70
     0
  9
$DIMSD2
 70
     0
  9
$DIMTOLJ
 70
     0
  9
$DIMTZIN
 70
     8
  9
$DIMALTZ
 70
     0
  9
$DIMALTTZ
 70
     0
  9
$DIMUPT
 70
     0
  9
$DIMDEC
 70
     1
  9
$DIMTDEC
 70
     1
  9
$DIMALTU
 70
     2
  9
$DIMALTTD
 70
     3
  9
$DIMTXSTY
  7
STANDARD
  9
$DIMAUNIT
 70
     0
  9
$DIMADEC
 70
     2
  9
$DIMALTRND
 40
0.0
  9
$DIMAZIN
 70
     2
  9
$DIMDSEP
 70
    46
  9
$DIMATFIT
 70
     3
  9
$DIMFRAC
 70
     0
  9
$DIMLDRBLK
  1

  9
$DIMLUNIT
 70
     2
  9
$DIMLWD
 70
    -2
  9
$DIMLWE
 70
    -2
  9
$DIMTMOVE
 70
     0
  9
$DIMFXL
 40
1.0
  9
$DIMFXLON
 70
     0
  9
$DIMJOGANG
 40
0.7853981633974483
  9
$DIMTFILL
 70
     0
  9
$DIMTFILLCLR
 70
     0
  9
$DIMARCSYM
 70
     0
  9
$DIMLTYPE
  6

  9
$DIMLTEX1
  6

  9
$DIMLTEX2
  6

  9
$DIMTXTDIRECTION
 70
     0
  9
$LUNITS
 70
     2
  9
$LUPREC
 70
     2
  9
$SKETCHINC
 40
1.0
  9
$FILLETRAD
 40
0.0
  9
$AUNITS
 70
     0
  9
$AUPREC
 70
     2
  9
$MENU
  1
cncmenue
  9
$ELEVATION
 40
0.0
  9
$PELEVATION
 40
0.0
  9
$THICKNESS
 40
0.0
  9
$LIMCHECK
 70
     0
  9
$CHAMFERA
 40
0.0
  9
$CHAMFERB
 40
0.0
  9
$CHAMFERC
 40
0.0
  9
$CHAMFERD
 40
0.0
  9
$SKPOLY
 70
     0
  9
$TDCREATE
 40
2451452.416949537
  9
$TDUCREATE
 40
2451452.333616204
  9
$TDUPDATE
 40
2456826.614890104
  9
$TDUUPDATE
 40
2456826.531556771
  9
$TDINDWG
 40
0.4664763542
  9
$TDUSRTIMER
 40
0.4664763542
  9
$USRTIMER
 70
     1
  9
$ANGBASE
 50
0.0
  9
$ANGDIR
 70
     0
  9
$PDMODE
 70
     0
  9
$PDSIZE
 40
0.0
  9
$PLINEWID
 40
0.0
  9
$SPLFRAME
 70
     0
  9
$SPLINETYPE
 70
     6
  9
$SPLINESEGS
 70
     8
  9
$HANDSEED
  5
4CC
  9
$SURFTAB1
 70
    24
  9
$SURFTAB2
 70
    24
  9
$SURFTYPE
 70
     6
  9
$SURFU
 70
     6
  9
$SURFV
 70
     6
  9
$UCSBASE
  2

  9
$UCSNAME
  2

  9
$UCSORG
 10
0.0
 20
0.0
 30
0.0
  9
$UCSXDIR
 10
1.0
 20
0.0
 30
0.0
  9
$UCSYDIR
 10
0.0
 20
1.0
 30
0.0
  9
$UCSORTHOREF
  2

  9
$UCSORTHOVIEW
 70
     0
  9
$UCSORGTOP
 10
0.0
 20
0.0
 30
0.0
  9
$UCSORGBOTTOM
 10
0.0
 20
0.0
 30
0.0
  9
$UCSORGLEFT
 10
0.0
 20
0.0
 30
0.0
  9
$UCSORGRIGHT
 10
0.0
 20
0.0
 30
0.0
  9
$UCSORGFRONT
 10
0.0
 20
0.0
 30
0.0
  9
$UCSORGBACK
 10
0.0
 20
0.0
 30
0.0
  9
$PUCSBASE
  2

  9
$PUCSNAME
  2

  9
$PUCSORG
 10
0.0
 20
0.0
 30
0.0
  9
$PUCSXDIR
 10
1.0
 20
0.0
 30
0.0
  9
$PUCSYDIR
 10
0.0
 20
1.0
 30
0.0
  9
$PUCSORTHOREF
  2

  9
$PUCSORTHOVIEW
 70
     0
  9
$PUCSORGTOP
 10
0.0
 20
0.0
 30
0.0
  9
$PUCSORGBOTTOM
 10
0.0
 20
0.0
 30
0.0
  9
$PUCSORGLEFT
 10
0.0
 20
0.0
 30
0.0
  9
$PUCSORGRIGHT
 10
0.0
 20
0.0
 30
0.0
  9
$PUCSORGFRONT
 10
0.0
 20
0.0
 30
0.0
  9
$PUCSORGBACK
 10
0.0
 20
0.0
 30
0.0
  9
$USERI1
 70
     0
  9
$USERI2
 70
     0
  9
$USERI3
 70
     0
  9
$USERI4
 70
     0
  9
$USERI5
 70
     0
  9
$USERR1
 40
0.0
  9
$USERR2
 40
0.0
  9
$USERR3
 40
0.0
  9
$USERR4
 40
0.0
  9
$USERR5
 40
0.0
  9
$WORLDVIEW
 70
     1
  9
$SHADEDGE
 70
     3
  9
$SHADEDIF
 70
    70
  9
$TILEMODE
 70
     1
  9
$MAXACTVP
 70
    16
  9
$PINSBASE
 10
0.0
 20
0.0
 30
0.0
  9
$PLIMCHECK
 70
     0
  9
$PEXTMIN
 10
1.000000000000000E+20
 20
1.000000000000000E+20
 30
1.000000000000000E+20
  9
$PEXTMAX
 10
-1.000000000000000E+20
 20
-1.000000000000000E+20
 30
-1.000000000000000E+20
  9
$PLIMMIN
 10
0.0
 20
0.0
  9
$PLIMMAX
 10
12.0
 20
9.0
  9
$UNITMODE
 70
     0
  9
$VISRETAIN
 70
     0
  9
$PLINEGEN
 70
     0
  9
$PSLTSCALE
 70
     0
  9
$TREEDEPTH
 70
  3020
  9
$CMLSTYLE
  2
Standard
  9
$CMLJUST
 70
     0
  9
$CMLSCALE
 40
1.0
  9
$PROXYGRAPHICS
 70
     1
  9
$MEASUREMENT
 70
     0
  9
$CELWEIGHT
370
    -1
  9
$ENDCAPS
280
     0
  9
$JOINSTYLE
280
     0
  9
$LWDISPLAY
290
     0
  9
$INSUNITS
 70
     0
  9
$HYPERLINKBASE
  1

  9
$STYLESHEET
  1

  9
$XEDIT
290
     1
  9
$CEPSNTYPE
380
     0
  9
$PSTYLEMODE
290
     1
  9
$FINGERPRINTGUID
  2
{4CEEB92A-9784-49CE-9D68-55333FC6A431}
  9
$VERSIONGUID
  2
{66B6DB58-A98A-48C8-B94D-CA78C68DF266}
  9
$EXTNAMES
290
     1
  9
$PSVPSCALE
 40
0.0
  9
$OLESTARTUP
290
     0
  9
$SORTENTS
280
   127
  9
$INDEXCTL
280
     0
  9
$HIDETEXT
280
     1
  9
$XCLIPFRAME
280
     0
  9
$HALOGAP
280
     0
  9
$OBSCOLOR
 70
   257
  9
$OBSLTYPE
280
     0
  9
$INTERSECTIONDISPLAY
280
     0
  9
$INTERSECTIONCOLOR
 70
   257
  9
$DIMASSOC
280
     1
  9
$PROJECTNAME
  1

  9
$CAMERADISPLAY
290
     0
  9
$LENSLENGTH
 40
50.0
  9
$CAMERAHEIGHT
 40
0.0
  9
$STEPSPERSEC
 40
2.0
  9
$STEPSIZE
 40
6.0
  9
$3DDWFPREC
 40
2.0
  9
$PSOLWIDTH
 40
0.25
  9
$PSOLHEIGHT
 40
4.0
  9
$LOFTANG1
 40
1.570796326794896
  9
$LOFTANG2
 40
1.570796326794896
  9
$LOFTMAG1
 40
0.0
  9
$LOFTMAG2
 40
0.0
  9
$LOFTPARAM
 70
     7
  9
$LOFTNORMALS
280
     1
  9
$LATITUDE
 40
37.795
  9
$LONGITUDE
 40
-122.394
  9
$NORTHDIRECTION
 40
0.0
  9
$TIMEZONE
 70
 -8000
  9
$LIGHTGLYPHDISPLAY
280
     1
  9
$TILEMODELIGHTSYNCH
280
     1
  9
$CMATERIAL
347
3D
  9
$SOLIDHIST
280
     1
  9
$SHOWHIST
280
     1
  9
$DWFFRAME
280
     2
  9
$DGNFRAME
280
     0
  9
$REALWORLDSCALE
290
     1
  9
$INTERFERECOLOR
 62
     1
  9
$INTERFEREOBJVS
345
58
  9
$INTERFEREVPVS
346
59
  9
$CSHADOW
280
     0
  9
$SHADOWPLANELOCATION
 40
0.0
  0
ENDSEC
  0
SECTION
  2
CLASSES
  0
CLASS
  1
ACDBDICTIONARYWDFLT
  2
AcDbDictionaryWithDefault
  3
ObjectDBX Classes
 90
        0
 91
        1
280
     0
281
     0
  0
CLASS
  1
MATERIAL
  2
AcDbMaterial
  3
ObjectDBX Classes
 90
     1153
 91
        3
280
     0
281
     0
  0
CLASS
  1
VISUALSTYLE
  2
AcDbVisualStyle
  3
ObjectDBX Classes
 90
     4095
 91
        3
280
     0
281
     0
  0
CLASS
  1
TABLESTYLE
  2
AcDbTableStyle
  3
ObjectDBX Classes
 90
     4095
 91
        1
280
     0
281
     0
  0
CLASS
  1
SCALE
  2
AcDbScale
  3
ObjectDBX Classes
 90
     1153
 91
       33
280
     0
281
     0
  0
CLASS
  1
MLEADERSTYLE
  2
AcDbMLeaderStyle
  3
ACDB_MLEADERSTYLE_CLASS
 90
     4095
 91
        0
280
     0
281
     0
  0
CLASS
  1
SORTENTSTABLE
  2
AcDbSortentsTable
  3
ObjectDBX Classes
 90
        0
 91
        6
280
     0
281
     0
  0
CLASS
  1
CELLSTYLEMAP
  2
AcDbCellStyleMap
  3
ObjectDBX Classes
 90
     1152
 91
        1
280
     0
281
     0
  0
CLASS
  1
DICTIONARYVAR
  2
AcDbDictionaryVar
  3
ObjectDBX Classes
 90
        0
 91
        7
280
     0
281
     0
  0
CLASS
  1
ACDB_DYNAMICBLOCKPURGEPREVENTER_VERSION
  2
AcDbDynamicBlockPurgePreventer
  3
ObjectDBX Classes
 90
     1153
 91
        0
280
     0
281
     0
  0
CLASS
  1
ACAD_TABLE
  2
AcDbTable
  3
ObjectDBX Classes
 90
     1025
 91
        0
280
     0
281
     1
  0
CLASS
  1
TABLECONTENT
  2
AcDbTableContent
  3
ObjectDBX Classes
 90
     1152
 91
        0
280
     0
281
     0
  0
CLASS
  1
TABLEGEOMETRY
  2
AcDbTableGeometry
  3
ObjectDBX Classes
 90
     1152
 91
        0
280
     0
281
     0
  0
CLASS
  1
SOLID_BACKGROUND
  2
AcDbSolidBackground
  3
SCENEOE
 90
     4095
 91
        0
280
     0
281
     0
  0
CLASS
  1
NPOCOLLECTION
  2
AcDbImpNonPersistentObjectsCollection
  3
ObjectDBX Classes
 90
     1153
 91
        0
280
     0
281
     0
  0
CLASS
  1
DIMASSOC
  2
AcDbDimAssoc
  3
"AcDbDimAssoc|Product Desc:     AcDim ARX App For Dimension|Company:          Autodesk, Inc.|WEB Address:      www.autodesk.com"
 90
        0
 91
        0
280
     0
281
     0
  0
CLASS
  1
EXACXREFPANELOBJECT
  2
ExAcXREFPanelObject
  3
EXAC_ESW
 90
     1025
 91
        0
280
     1
281
     0
  0
CLASS
  1
AEC_REFEDIT_STATUS_TRACKER
  2
AecDbRefEditStatusTracker
  3
AecArchBase60|Product Desc: Autodesk Architectural Desktop 2007 |Company: Autodesk,Inc. |WEB Address: www.autodesk.com
 90
      129
 91
        0
280
     0
281
     0
  0
ENDSEC
  0
SECTION
  2
TABLES
  0
TABLE
  2
VPORT
  5
2D
102
{ACAD_XDICTIONARY
360
31
102
}
330
0
100
AcDbSymbolTable
 70
     1
  0
VPORT
  5
2E
330
2D
100
AcDbSymbolTableRecord
100
AcDbViewportTableRecord
  2
*Active
 70
     0
 10
0.0
 20
0.0
 11
1.0
 21
1.0
 12
688.7238143257234
 22
311.7194688789569
 13
0.0
 23
0.0
 14
1.0
 24
1.0
 15
100.0
 25
100.0
 16
0.0
 26
0.0
 36
1.0
 17
0.0
 27
0.0
 37
0.0
 40
1611.85306030949
 41
1.937738246505718
 42
50.0
 43
0.0
 44
0.0
 50
0.0
 51
0.0
 71
     0
 72
  1000
 73
     1
 74
     0
 75
     0
 76
     0
 77
     0
 78
     0
281
     0
 65
     1
110
0.0
120
0.0
130
0.0
111
1.0
121
0.0
131
0.0
112
0.0
122
1.0
132
0.0
 79
     0
146
0.0
348
2F
 60
     3
 61
     5
292
     1
282
     1
141
0.0
142
0.0
 63
   250
421
  3355443
  0
ENDTAB
  0
TABLE
  2
LTYPE
  5
28
330
0
100
AcDbSymbolTable
 70
     4
  0
LTYPE
  5
29
330
28
100
AcDbSymbolTableRecord
100
AcDbLinetypeTableRecord
  2
ByBlock
 70
     0
  3

 72
    65
 73
     0
 40
0.0
  0
LTYPE
  5
2A
330
28
100
AcDbSymbolTableRecord
100
AcDbLinetypeTableRecord
  2
ByLayer
 70
     0
  3

 72
    65
 73
     0
 40
0.0
  0
LTYPE
  5
15
330
28
100
AcDbSymbolTableRecord
100
AcDbLinetypeTableRecord
  2
CONTINUOUS
 70
     0
  3
Ausgezogene Linie
 72
    65
 73
     0
 40
0.0
  0
LTYPE
  5
7F
330
28
100
AcDbSymbolTableRecord
100
AcDbLinetypeTableRecord
  2
VERDECKT
 70
     0
  3
__ __ __ __ __ __ __ __ __ __ __ __ __ __ __ __
 72
    65
 73
     2
 40
0.375
 49
0.25
 74
     0
 49
-0.125
 74
     0
  0
LTYPE
  5
84
330
28
100
AcDbSymbolTableRecord
100
AcDbLinetypeTableRecord
  2
STRICHPUNKT
 70
     0
  3
__ . __ . __ . __ . __ . __ . __ . __ . __ . __
 72
    65
 73
     4
 40
1.0
 49
0.5
 74
     0
 49
-0.25
 74
     0
 49
0.0
 74
     0
 49
-0.25
 74
     0
  0
LTYPE
  5
266
330
28
100
AcDbSymbolTableRecord
100
AcDbLinetypeTableRecord
  2
AUSGEZOGEN
 70
     0
  3
Ausgezogene Linie
 72
    65
 73
     0
 40
0.0
  0
ENDTAB
  0
TABLE
  2
LAYER
  5
1F
102
{ACAD_XDICTIONARY
360
20
102
}
330
0
100
AcDbSymbolTable
 70
    11
  0
LAYER
  5
6
102
{ACAD_XDICTIONARY
360
7
102
}
330
1F
100
AcDbSymbolTableRecord
100
AcDbLayerTableRecord
  2
0
 70
     0
 62
     7
  6
CONTINUOUS
370
    -3
390
9
347
C
  0
LAYER
  5
BD
102
{ACAD_XDICTIONARY
360
BE
102
}
330
1F
100
AcDbSymbolTableRecord
100
AcDbLayerTableRecord
  2
01-01
 70
     0
 62
     2
  6
CONTINUOUS
370
    -3
390
9
347
C
  0
LAYER
  5
228
102
{ACAD_XDICTIONARY
360
229
102
}
330
1F
100
AcDbSymbolTableRecord
100
AcDbLayerTableRecord
  2
02-01
 70
     0
 62
     1
  6
CONTINUOUS
370
    -3
390
9
347
C
  0
LAYER
  5
7C
102
{ACAD_XDICTIONARY
360
7D
102
}
330
1F
100
AcDbSymbolTableRecord
100
AcDbLayerTableRecord
  2
03-01
 70
     0
 62
     3
  6
VERDECKT
370
    -3
390
9
347
C
  0
LAYER
  5
81
102
{ACAD_XDICTIONARY
360
82
102
}
330
1F
100
AcDbSymbolTableRecord
100
AcDbLayerTableRecord
  2
05-01
 70
     0
 62
     1
  6
STRICHPUNKT
370
    -3
390
9
347
C
  0
LAYER
  5
44D
102
{ACAD_XDICTIONARY
360
44E
102
}
330
1F
100
AcDbSymbolTableRecord
100
AcDbLayerTableRecord
  2
06-01
 70
     0
 62
     1
  6
CONTINUOUS
370
    -3
390
9
347
C
  0
LAYER
  5
51
102
{ACAD_XDICTIONARY
360
52
102
}
330
1F
100
AcDbSymbolTableRecord
100
AcDbLayerTableRecord
  2
09-01
 70
     0
 62
     7
  6
CONTINUOUS
370
    -3
390
9
347
C
  0
LAYER
  5
223
102
{ACAD_XDICTIONARY
360
224
102
}
330
1F
100
AcDbSymbolTableRecord
100
AcDbLayerTableRecord
  2
01-99
 70
     0
 62
     2
  6
CONTINUOUS
370
    -3
390
9
347
C
  0
LAYER
  5
263
102
{ACAD_XDICTIONARY
360
264
102
}
330
1F
100
AcDbSymbolTableRecord
100
AcDbLayerTableRecord
  2
06-99
 70
     0
 62
     1
  6
AUSGEZOGEN
370
    -3
390
9
347
C
  0
LAYER
  5
24D
102
{ACAD_XDICTIONARY
360
24E
102
}
330
1F
100
AcDbSymbolTableRecord
100
AcDbLayerTableRecord
  2
08-99
 70
     0
 62
     7
  6
CONTINUOUS
370
    -3
390
9
347
C
  0
LAYER
  5
92
330
1F
100
AcDbSymbolTableRecord
100
AcDbLayerTableRecord
  2
DEFPOINTS
 70
     0
 62
     7
  6
CONTINUOUS
290
     0
370
    -3
390
9
347
C
  0
ENDTAB
  0
TABLE
  2
STYLE
  5
25
330
0
100
AcDbSymbolTable
 70
     4
  0
STYLE
  5
26
330
25
100
AcDbSymbolTableRecord
100
AcDbTextStyleTableRecord
  2
STANDARD
 70
     0
 40
0.0
 41
1.0
 50
0.0
 71
     0
 42
3.5
  3
txt.shx
  4

  0
STYLE
  5
54
330
25
100
AcDbSymbolTableRecord
100
AcDbTextStyleTableRecord
  2
ROMANS
 70
     0
 40
0.0
 41
1.0
 50
0.0
 71
     0
 42
10.8483456105514
  3
arial.ttf
  4

1001
ACAD
1000
Arial
1071
       34
  0
STYLE
  5
250
330
25
100
AcDbSymbolTableRecord
100
AcDbTextStyleTableRecord
  2
ROMANS8
 70
     0
 40
0.0
 41
1.0
 50
0.0
 71
     0
 42
2.5
  3
ROMANS8
  4

  0
STYLE
  5
3A8
330
25
100
AcDbSymbolTableRecord
100
AcDbTextStyleTableRecord
  2
ROMAND8
 70
     0
 40
0.0
 41
1.0
 50
0.0
 71
     0
 42
3.5
  3
ROMAND8
  4

  0
ENDTAB
  0
TABLE
  2
VIEW
  5
2B
330
0
100
AcDbSymbolTable
 70
     0
  0
ENDTAB
  0
TABLE
  2
UCS
  5
2C
330
0
100
AcDbSymbolTable
 70
     0
  0
ENDTAB
  0
TABLE
  2
APPID
  5
32
330
0
100
AcDbSymbolTable
 70
     5
  0
APPID
  5
24
330
32
100
AcDbSymbolTableRecord
100
AcDbRegAppTableRecord
  2
ACAD
 70
     0
  0
APPID
  5
35
330
32
100
AcDbSymbolTableRecord
100
AcDbRegAppTableRecord
  2
ACAD_DSTYLE_DIMJOGGED_JOGANGLE_SYMBOL
 70
     0
  0
APPID
  5
36
330
32
100
AcDbSymbolTableRecord
100
AcDbRegAppTableRecord
  2
ACAD_DSTYLE_DIMJAG
 70
     0
  0
APPID
  5
37
330
32
100
AcDbSymbolTableRecord
100
AcDbRegAppTableRecord
  2
ACAD_DSTYLE_DIMTALN
 70
     0
  0
APPID
  5
419
330
32
100
AcDbSymbolTableRecord
100
AcDbRegAppTableRecord
  2
AcDbDynamicBlockGUID
 70
     0
  0
ENDTAB
  0
TABLE
  2
DIMSTYLE
  5
33
330
0
100
AcDbSymbolTable
 70
     3
100
AcDbDimStyleTable
 71
     2
340
34
340
38
  0
DIMSTYLE
105
38
330
33
100
AcDbSymbolTableRecord
100
AcDbDimStyleTableRecord
  2
Standard
 70
     0
340
26
  0
DIMSTYLE
105
34
330
33
100
AcDbSymbolTableRecord
100
AcDbDimStyleTableRecord
  2
Wagner
 70
     0
 41
2.5
 42
1.0
 43
10.0
 44
1.0
 73
     0
 74
     0
 77
     1
 78
     8
 79
     2
140
2.5
141
0.0
143
0.03937007874016
147
1.0
171
     3
172
     1
176
     4
177
     4
178
     1
179
     2
271
     1
272
     1
274
     3
283
     0
284
     8
340
26
1001
ACAD_DSTYLE_DIMJOGGED_JOGANGLE_SYMBOL
1070
   384
1040
0.7853981633974483
1001
ACAD_DSTYLE_DIMJAG
1070
   388
1040
1.5
1001
ACAD_DSTYLE_DIMTALN
1070
   392
1070
     0
  0
DIMSTYLE
105
96
102
{ACAD_REACTORS
330
432
330
43F
330
450
330
474
330
48B
330
49D
330
4AA
330
126
330
118
330
10B
330
FE
330
F1
330
E4
330
D7
330
A6
330
97
330
86
102
}
330
33
100
AcDbSymbolTableRecord
100
AcDbDimStyleTableRecord
  2
Wagner$0
 70
     0
 41
2.5
 42
1.0
 43
10.0
 44
1.0
 73
     0
 74
     0
 77
     1
 78
     8
 79
     2
140
2.5
141
0.0
143
0.03937007874016
147
1.0
171
     3
172
     1
174
     1
176
     4
177
     4
178
     1
179
     2
271
     1
272
     1
274
     3
279
     2
283
     0
284
     8
340
26
1001
ACAD_DSTYLE_DIMJOGGED_JOGANGLE_SYMBOL
1070
   384
1040
0.7853981633974483
1001
ACAD_DSTYLE_DIMJAG
1070
   388
1040
1.5
1001
ACAD_DSTYLE_DIMTALN
1070
   392
1070
     0
  0
ENDTAB
  0
TABLE
  2
BLOCK_RECORD
  5
1
330
0
100
AcDbSymbolTable
 70
    21
  0
BLOCK_RECORD
  5
2
102
{ACAD_XDICTIONARY
360
3
102
}
330
1
100
AcDbSymbolTableRecord
100
AcDbBlockTableRecord
  2
*Model_Space
340
17
 70
     0
280
     1
281
     0
  0
BLOCK_RECORD
  5
1B
330
1
100
AcDbSymbolTableRecord
100
AcDbBlockTableRecord
  2
*Paper_Space
340
1E
 70
     0
280
     1
281
     0
  0
BLOCK_RECORD
  5
4AB
330
1
100
AcDbSymbolTableRecord
100
AcDbBlockTableRecord
  2
*D0
340
0
 70
     0
280
     1
281
     0
  0
BLOCK_RECORD
  5
49E
330
1
100
AcDbSymbolTableRecord
100
AcDbBlockTableRecord
  2
*D1
340
0
 70
     0
280
     1
281
     0
  0
BLOCK_RECORD
  5
48C
330
1
100
AcDbSymbolTableRecord
100
AcDbBlockTableRecord
  2
*D2
340
0
 70
     0
280
     1
281
     0
  0
BLOCK_RECORD
  5
475
330
1
100
AcDbSymbolTableRecord
100
AcDbBlockTableRecord
  2
*D3
340
0
 70
     0
280
     1
281
     0
  0
BLOCK_RECORD
  5
451
330
1
100
AcDbSymbolTableRecord
100
AcDbBlockTableRecord
  2
*D4
340
0
 70
     0
280
     1
281
     0
  0
BLOCK_RECORD
  5
440
330
1
100
AcDbSymbolTableRecord
100
AcDbBlockTableRecord
  2
*D5
340
0
 70
     0
280
     1
281
     0
  0
BLOCK_RECORD
  5
433
330
1
100
AcDbSymbolTableRecord
100
AcDbBlockTableRecord
  2
*D6
340
0
 70
     0
280
     1
281
     0
  0
BLOCK_RECORD
  5
152
330
1
100
AcDbSymbolTableRecord
100
AcDbBlockTableRecord
  2
Pumpe 037020-V
340
0
310
2800000020000000200000000100080000000000000400000000000000000000000000000000000000000000000080000080000000808000800000008000800080800000C0C0C000C0DCC000F0CAA6000020400000206000002080000020A0000020C0000020E00000400000004020000040400000406000004080000040A0
310
000040C0000040E00000600000006020000060400000606000006080000060A0000060C0000060E00000800000008020000080400000806000008080000080A0000080C0000080E00000A0000000A0200000A0400000A0600000A0800000A0A00000A0C00000A0E00000C0000000C0200000C0400000C0600000C0800000C0
310
A00000C0C00000C0E00000E0000000E0200000E0400000E0600000E0800000E0A00000E0C00000E0E00040000000400020004000400040006000400080004000A0004000C0004000E00040200000402020004020400040206000402080004020A0004020C0004020E000404000004040200040404000404060004040800040
310
40A0004040C0004040E00040600000406020004060400040606000406080004060A0004060C0004060E00040800000408020004080400040806000408080004080A0004080C0004080E00040A0000040A0200040A0400040A0600040A0800040A0A00040A0C00040A0E00040C0000040C0200040C0400040C0600040C08000
310
40C0A00040C0C00040C0E00040E0000040E0200040E0400040E0600040E0800040E0A00040E0C00040E0E00080000000800020008000400080006000800080008000A0008000C0008000E00080200000802020008020400080206000802080008020A0008020C0008020E00080400000804020008040400080406000804080
310
008040A0008040C0008040E00080600000806020008060400080606000806080008060A0008060C0008060E00080800000808020008080400080806000808080008080A0008080C0008080E00080A0000080A0200080A0400080A0600080A0800080A0A00080A0C00080A0E00080C0000080C0200080C0400080C0600080C0
310
800080C0A00080C0C00080C0E00080E0000080E0200080E0400080E0600080E0800080E0A00080E0C00080E0E000C0000000C0002000C0004000C0006000C0008000C000A000C000C000C000E000C0200000C0202000C0204000C0206000C0208000C020A000C020C000C020E000C0400000C0402000C0404000C0406000C0
310
408000C040A000C040C000C040E000C0600000C0602000C0604000C0606000C0608000C060A000C060C000C060E000C0800000C0802000C0804000C0806000C0808000C080A000C080C000C080E000C0A00000C0A02000C0A04000C0A06000C0A08000C0A0A000C0A0C000C0A0E000C0C00000C0C02000C0C04000C0C06000
310
C0C08000C0C0A000F0FBFF00A4A0A000808080000000FF0000FF000000FFFF00FF000000FF00FF00FFFF0000FFFFFF000000000000000000000000000000000000000000000000000000000000000000000000000000000000000000FFFFFFFFFFFFFFFF000000000000000000000000000000000000000000000000FF0000
310
00000000FF000000000000000000000000000000000000000000000000FF000000000000FF000000000000000000000000000000000000000000000000FF000000000000FF000000000000000000000000000000000000000000000000FF000000000000FF000000000000000000000000000000000000000000000000FFFF
310
00000000FFFF000000000000000000000000000000000000000000000000FFFFFFFFFFFFFFFF000000000000000000000000000000000000000000000000FF000000000000FF000000000000000000000000000000000000000000000000FFFFFFFFFFFFFFFF000000000000000000000000000000000000000000000000FF
310
000000000000FF000000000000000000000000000000000000000000000000FFFF00FFFF00FFFF000000000000000000000000000000000000000000000000FFFF00FFFF00FFFF0000000000000000000000000000000000000000FFFFFFFFFAFAFFFFFFFFFAFAFFFFFFFF00000000000000000000000000000000FF0000FA
310
FAFA00000000FAFAFA0000FF00000000000000000000000000000000FF00FAFAFAFA00000000FAFAFAFA00FF00000000000000000000000000000000FF0000FAFAFAFAFAFAFAFAFAFA0000FF00000000000000000000000000000000FF000000FAFA00000000FAFA000000FF00000000000000000000000000000000FF0000
310
00FAFA00000000FAFA000000FF00000000000000000000000000000000FF000000FAFA00000000FAFA000000FF00000000000000000000000000000000FF000000FAFA00000000FAFA000000FF00000000000000000000000000000000FF000000FAFA00000000FAFA000000FF00000000000000000000000000000000FF00
310
00FAFAFA00000000FAFAFA0000FF00000000000000000000000000000000FF0000FAFAFA00000000FAFAFA0000FF00000000000000000000000000000000FF000000FAFA00000000FAFA000000FF00000000000000000000000000000000FAFAFAFAFAFAFAFAFAFAFAFAFAFAFAFA00000000000000000000000000000000FF
310
FFFFFFFFFFFFFFFFFFFFFFFFFFFFFF0000000000000000000000000000000000000000FFFFFFFFFFFFFFFF0000000000000000000000000000000000000000000000000000FFFAFAFA00000000000000000000000000000000000000000000000000000000FF0000FF00000000000000000000000000000000000000000000
310
000000000000FFFFFFFF00000000000000000000000000000000000000000000000000000000000000000000000000000000000000000000
102
{BLKREFS
331
151
102
}
 70
     4
280
     1
281
     1
  0
BLOCK_RECORD
  5
3D9
102
{ACAD_XDICTIONARY
360
3DA
102
}
330
1
100
AcDbSymbolTableRecord
100
AcDbBlockTableRecord
  2
Pumpe 037020-S
340
0
310
2800000020000000200000000100080000000000000400000000000000000000000000000000000000000000000080000080000000808000800000008000800080800000C0C0C000C0DCC000F0CAA6000020400000206000002080000020A0000020C0000020E00000400000004020000040400000406000004080000040A0
310
000040C0000040E00000600000006020000060400000606000006080000060A0000060C0000060E00000800000008020000080400000806000008080000080A0000080C0000080E00000A0000000A0200000A0400000A0600000A0800000A0A00000A0C00000A0E00000C0000000C0200000C0400000C0600000C0800000C0
310
A00000C0C00000C0E00000E0000000E0200000E0400000E0600000E0800000E0A00000E0C00000E0E00040000000400020004000400040006000400080004000A0004000C0004000E00040200000402020004020400040206000402080004020A0004020C0004020E000404000004040200040404000404060004040800040
310
40A0004040C0004040E00040600000406020004060400040606000406080004060A0004060C0004060E00040800000408020004080400040806000408080004080A0004080C0004080E00040A0000040A0200040A0400040A0600040A0800040A0A00040A0C00040A0E00040C0000040C0200040C0400040C0600040C08000
310
40C0A00040C0C00040C0E00040E0000040E0200040E0400040E0600040E0800040E0A00040E0C00040E0E00080000000800020008000400080006000800080008000A0008000C0008000E00080200000802020008020400080206000802080008020A0008020C0008020E00080400000804020008040400080406000804080
310
008040A0008040C0008040E00080600000806020008060400080606000806080008060A0008060C0008060E00080800000808020008080400080806000808080008080A0008080C0008080E00080A0000080A0200080A0400080A0600080A0800080A0A00080A0C00080A0E00080C0000080C0200080C0400080C0600080C0
310
800080C0A00080C0C00080C0E00080E0000080E0200080E0400080E0600080E0800080E0A00080E0C00080E0E000C0000000C0002000C0004000C0006000C0008000C000A000C000C000C000E000C0200000C0202000C0204000C0206000C0208000C020A000C020C000C020E000C0400000C0402000C0404000C0406000C0
310
408000C040A000C040C000C040E000C0600000C0602000C0604000C0606000C0608000C060A000C060C000C060E000C0800000C0802000C0804000C0806000C0808000C080A000C080C000C080E000C0A00000C0A02000C0A04000C0A06000C0A08000C0A0A000C0A0C000C0A0E000C0C00000C0C02000C0C04000C0C06000
310
C0C08000C0C0A000F0FBFF00A4A0A000808080000000FF0000FF000000FFFF00FF000000FF00FF00FFFF0000FFFFFF00000000000000000000000000000000000000000000000000000000000000000000000000000000000000000000000000000000FF000000000000000000000000000000000000000000000000000000
310
00000000FFFFFF0000000000000000000000000000000000000000000000000000000000FFFFFF00000000000000000000000000000000000000000000000000000000FF00FFFF00000000000000000000000000000000000000000000000000000000FFFFFF00000000000000000000000000000000000000000000000000
310
00000000FFFAFF0000000000000000000000000000000000000000000000000000000000FFFAFF0000000000000000000000000000000000000000000000000000000000FFFAFFFF000000000000000000000000000000000000000000000000000000000000FAFFFF00000000000000000000000000000000000000000000
310
0000000000000000FFFFFF0000000000000000000000000000000000FFFF0000000000000000000000FA00FF00000000000000000000000000FFFFFFFFFFFFFFFFFFFFFFFFFFFFFFFFFFFAFAFF000000000000000000000000FF000000000000000000000000000000FAFAFFFA000000000000000000000000FF0000000000
310
00000000000000000000FAF9FFFF000000000000000000000000FF000000000000000000000000000000FAF9F9FA000000000000000000000000FF000000000000000000000000000000FAF9FAFA000000000000000000000000FF000000000000000000000000000000FAFFFFFA000000000000000000000000FF00000000
310
0000000000000000000000FAFFFFFA000000000000000000000000FF000000000000000000000000000000FAFFFAFF000000000000000000000000FF000000000000000000000000000000FAFFFAFF000000000000000000000000FF000000000000000000000000000000FAFFFAFF000000000000000000000000FF000000
310
000000000000000000000000FAF9FAFF000000000000000000000000FF000000000000000000000000000000FAF9FAFF000000000000000000000000FF000000000000000000000000000000FAFAFAFF000000000000000000000000FAFAFAFAFAFAFAFAFAFAFAFAFAFAFAFAFFFFFFFF000000000000000000000000FFFFFF
310
FFFFFFFFFFFFFFFFFFFFFFFFFFFF000000000000000000000000000000000000000000FFFFFFFFFFFFFFFF00000000000000000000000000000000000000000000000000FF000000FF000000000000000000000000000000000000000000000000000000FF00FFFF0000000000000000000000000000000000000000000000
310
0000000000FFFF00000000000000000000000000000000000000000000000000000000000000000000000000000000000000000000000000
102
{BLKREFS
331
3D8
102
}
 70
     4
280
     1
281
     1
1001
AcDbDynamicBlockGUID
1000
{1B3DA854-ECC2-4DBC-B2D4-0F81EE4E0216}
  0
BLOCK_RECORD
  5
1F3
330
1
100
AcDbSymbolTableRecord
100
AcDbBlockTableRecord
  2
Pumpe 037020-D
340
0
310
2800000020000000200000000100080000000000000400000000000000000000000000000000000000000000000080000080000000808000800000008000800080800000C0C0C000C0DCC000F0CAA6000020400000206000002080000020A0000020C0000020E00000400000004020000040400000406000004080000040A0
310
000040C0000040E00000600000006020000060400000606000006080000060A0000060C0000060E00000800000008020000080400000806000008080000080A0000080C0000080E00000A0000000A0200000A0400000A0600000A0800000A0A00000A0C00000A0E00000C0000000C0200000C0400000C0600000C0800000C0
310
A00000C0C00000C0E00000E0000000E0200000E0400000E0600000E0800000E0A00000E0C00000E0E00040000000400020004000400040006000400080004000A0004000C0004000E00040200000402020004020400040206000402080004020A0004020C0004020E000404000004040200040404000404060004040800040
310
40A0004040C0004040E00040600000406020004060400040606000406080004060A0004060C0004060E00040800000408020004080400040806000408080004080A0004080C0004080E00040A0000040A0200040A0400040A0600040A0800040A0A00040A0C00040A0E00040C0000040C0200040C0400040C0600040C08000
310
40C0A00040C0C00040C0E00040E0000040E0200040E0400040E0600040E0800040E0A00040E0C00040E0E00080000000800020008000400080006000800080008000A0008000C0008000E00080200000802020008020400080206000802080008020A0008020C0008020E00080400000804020008040400080406000804080
310
008040A0008040C0008040E00080600000806020008060400080606000806080008060A0008060C0008060E00080800000808020008080400080806000808080008080A0008080C0008080E00080A0000080A0200080A0400080A0600080A0800080A0A00080A0C00080A0E00080C0000080C0200080C0400080C0600080C0
310
800080C0A00080C0C00080C0E00080E0000080E0200080E0400080E0600080E0800080E0A00080E0C00080E0E000C0000000C0002000C0004000C0006000C0008000C000A000C000C000C000E000C0200000C0202000C0204000C0206000C0208000C020A000C020C000C020E000C0400000C0402000C0404000C0406000C0
310
408000C040A000C040C000C040E000C0600000C0602000C0604000C0606000C0608000C060A000C060C000C060E000C0800000C0802000C0804000C0806000C0808000C080A000C080C000C080E000C0A00000C0A02000C0A04000C0A06000C0A08000C0A0A000C0A0C000C0A0E000C0C00000C0C02000C0C04000C0C06000
310
C0C08000C0C0A000F0FBFF00A4A0A000808080000000FF0000FF000000FFFF00FF000000FF00FF00FFFF0000FFFFFF0000000000000000000000000000000000000000000000000000000000000000000000000000000000000000FFFFFFFFFFFFFFFFFFFF000000000000000000000000000000000000FFFFFFFF00000000
310
000000000000FFFFFFFF00000000000000000000000000FF000000000000000000000000000000000000FF0000000000000000000000FF0000000000000000000000000000000000000000FF00000000000000000000FF0000000000000000000000000000000000000000FF00000000000000000000FF0000000000000000
310
00000000000000000000000000FF0000000000000000FF00000000000000000000000000000000000000000000FF0000000000000000FF00000000000000000000000000000000000000000000FF00000000000000FF000000000000000000000000000000000000000000000000FF000000000000FF000000000000000000
310
00FFFFFFFFFF000000000000000000FF000000000000FF0000000000000000FFFF0000000000FF0000000000000000FF000000000000FF00000000000000FF000000FFFF000000FF00000000000000FF000000000000FF00000000000000FF0000FFFFFFFFFF0000FF000000000000FF000000000000FF000000000000FF00
310
00FF00000000FF0000FF000000000000FF000000000000FF000000000000FF00FFFF00000000FFFF00FF000000000000FF000000000000FF000000000000FF00FFFF00000000FF0000FF000000000000FF000000000000FF000000000000FF0000FF00000000FF0000FF000000000000FF000000000000FF00000000000000
310
FF0000FFFFFFFFFF00FFFF000000000000FF000000000000FF00000000000000FF0000000000000000FF00000000000000FF000000000000FF0000000000000000FFFF0000000000FF0000000000000000FF000000000000FF00000000000000000000FFFFFFFFFF000000000000000000FF000000000000FF000000000000
310
000000000000000000000000000000000000FF000000000000FF000000000000000000000000000000000000000000000000FF000000000000FF000000000000000000000000000000000000000000000000FF000000000000FF000000000000000000000000000000000000000000000000FF000000000000FFFFFFFFFFFF
310
FFFFFFFFFFFFFFFFFFFFFFFFFFFFFFFFFFFFFFFF000000000000FF00000000FF0000FF0000000000000000FF0000FF00000000FF000000000000FF00000000FFFFFFFF0000000000000000FFFFFFFF00000000FF000000000000FFFFFF0000000000000000000000000000000000000000FFFFFF000000000000FFFFFFFFFF
310
FFFFFFFFFFFFFFFFFFFFFFFFFFFFFFFFFFFFFFFFFF0000000000000000000000000000000000000000000000000000000000000000000000
102
{BLKREFS
331
1F2
102
}
 70
     4
280
     1
281
     1
  0
BLOCK_RECORD
  5
21E
102
{ACAD_XDICTIONARY
360
21F
102
}
330
1
100
AcDbSymbolTableRecord
100
AcDbBlockTableRecord
  2
DIN A3
340
0
102
{BLKREFS
331
21D
102
}
 70
     4
280
     1
281
     0
  0
BLOCK_RECORD
  5
127
330
1
100
AcDbSymbolTableRecord
100
AcDbBlockTableRecord
  2
*D11
340
0
 70
     0
280
     1
281
     0
  0
BLOCK_RECORD
  5
119
330
1
100
AcDbSymbolTableRecord
100
AcDbBlockTableRecord
  2
*D12
340
0
 70
     0
280
     1
281
     0
  0
BLOCK_RECORD
  5
10C
330
1
100
AcDbSymbolTableRecord
100
AcDbBlockTableRecord
  2
*D13
340
0
 70
     0
280
     1
281
     0
  0
BLOCK_RECORD
  5
FF
330
1
100
AcDbSymbolTableRecord
100
AcDbBlockTableRecord
  2
*D14
340
0
 70
     0
280
     1
281
     0
  0
BLOCK_RECORD
  5
F2
330
1
100
AcDbSymbolTableRecord
100
AcDbBlockTableRecord
  2
*D15
340
0
 70
     0
280
     1
281
     0
  0
BLOCK_RECORD
  5
E5
330
1
100
AcDbSymbolTableRecord
100
AcDbBlockTableRecord
  2
*D16
340
0
 70
     0
280
     1
281
     0
  0
BLOCK_RECORD
  5
D8
330
1
100
AcDbSymbolTableRecord
100
AcDbBlockTableRecord
  2
*D17
340
0
 70
     0
280
     1
281
     0
  0
BLOCK_RECORD
  5
A7
330
1
100
AcDbSymbolTableRecord
100
AcDbBlockTableRecord
  2
*D18
340
0
 70
     0
280
     1
281
     0
  0
BLOCK_RECORD
  5
98
330
1
100
AcDbSymbolTableRecord
100
AcDbBlockTableRecord
  2
*D19
340
0
 70
     0
280
     1
281
     0
  0
BLOCK_RECORD
  5
87
330
1
100
AcDbSymbolTableRecord
100
AcDbBlockTableRecord
  2
*D20
340
0
 70
     0
280
     1
281
     0
  0
ENDTAB
  0
ENDSEC
  0
SECTION
  2
BLOCKS
  0
BLOCK
  5
5
330
2
100
AcDbEntity
  8
0
100
AcDbBlockBegin
  2
*Model_Space
 70
     0
 10
0.0
 20
0.0
 30
0.0
  3
*Model_Space
  1

  0
ENDBLK
  5
16
330
2
100
AcDbEntity
  8
0
100
AcDbBlockEnd
  0
BLOCK
  5
1C
330
1B
100
AcDbEntity
 67
     1
  8
0
100
AcDbBlockBegin
  2
*Paper_Space
 70
     0
 10
0.0
 20
0.0
 30
0.0
  3
*Paper_Space
  1

  0
ENDBLK
  5
1D
330
1B
100
AcDbEntity
 67
     1
  8
0
100
AcDbBlockEnd
  0
BLOCK
  5
4AC
330
4AB
100
AcDbEntity
  8
0
100
AcDbBlockBegin
  2
*D0
 70
     1
 10
0.0
 20
0.0
 30
0.0
  3
*D0
  1

  0
LINE
  5
4AD
330
4AB
100
AcDbEntity
  8
09-01
 62
     4
370
    -2
100
AcDbLine
 10
650.9059092437048
 20
613.8836082567254
 30
0.0
 11
632.1891643975289
 21
613.8836082567254
 31
0.0
  0
LINE
  5
4AE
330
4AB
100
AcDbEntity
  8
09-01
 62
     4
370
    -2
100
AcDbLine
 10
650.9059092437048
 20
315.8836082567256
 30
0.0
 11
632.1891643975289
 21
315.8836082567256
 31
0.0
  0
LINE
  5
4AF
330
4AB
100
AcDbEntity
  8
09-01
 62
     4
370
    -2
100
AcDbLine
 10
634.6891643975289
 20
607.6336082567254
 30
0.0
 11
634.6891643975289
 21
322.1336082567256
 31
0.0
  0
SOLID
  5
4B0
330
4AB
100
AcDbEntity
  8
09-01
 62
     4
100
AcDbTrace
 10
633.6474977308622
 20
607.6336082567254
 30
0.0
 11
635.7308310641955
 21
607.6336082567254
 31
0.0
 12
634.6891643975289
 22
613.8836082567254
 32
0.0
 13
634.6891643975289
 23
613.8836082567254
 33
0.0
  0
SOLID
  5
4B1
330
4AB
100
AcDbEntity
  8
09-01
 62
     4
100
AcDbTrace
 10
633.6474977308622
 20
322.1336082567256
 30
0.0
 11
635.7308310641955
 21
322.1336082567256
 31
0.0
 12
634.6891643975289
 22
315.8836082567256
 32
0.0
 13
634.6891643975289
 23
315.8836082567256
 33
0.0
  0
MTEXT
  5
4B2
330
4AB
100
AcDbEntity
  8
09-01
 62
     1
100
AcDbMText
 10
629.0641643975288
 20
464.8836082567256
 30
0.0
 40
6.25
 41
0.0
 46
0.0
 71
     5
 72
     1
  1
298
 11
0.0000000000000001
 21
1.0
 31
0.0
 73
     1
 44
1.0
  0
POINT
  5
4B3
330
4AB
100
AcDbEntity
  8
DEFPOINTS
 62
     0
100
AcDbPoint
 10
653.4059092437048
 20
613.8836082567254
 30
0.0
  0
POINT
  5
4B4
330
4AB
100
AcDbEntity
  8
DEFPOINTS
 62
     0
100
AcDbPoint
 10
653.4059092437048
 20
315.8836082567256
 30
0.0
  0
POINT
  5
4B5
330
4AB
100
AcDbEntity
  8
DEFPOINTS
 62
     0
100
AcDbPoint
 10
634.6891643975289
 20
315.8836082567256
 30
0.0
  0
ENDBLK
  5
4B6
330
4AB
100
AcDbEntity
  8
0
100
AcDbBlockEnd
  0
BLOCK
  5
49F
330
49E
100
AcDbEntity
  8
0
100
AcDbBlockBegin
  2
*D1
 70
     1
 10
0.0
 20
0.0
 30
0.0
  3
*D1
  1

  0
LINE
  5
4A0
330
49E
100
AcDbEntity
  8
09-01
 62
     4
370
    -2
100
AcDbLine
 10
653.4059092437048
 20
616.3836082567254
 30
0.0
 11
653.4059092437048
 21
632.1576966013553
 31
0.0
  0
LINE
  5
4A1
330
49E
100
AcDbEntity
  8
09-01
 62
     4
370
    -2
100
AcDbLine
 10
763.4059092437048
 20
616.3836082567254
 30
0.0
 11
763.4059092437048
 21
632.1576966013553
 31
0.0
  0
LINE
  5
4A2
330
49E
100
AcDbEntity
  8
09-01
 62
     4
370
    -2
100
AcDbLine
 10
659.6559092437048
 20
629.6576966013553
 30
0.0
 11
757.1559092437048
 21
629.6576966013553
 31
0.0
  0
SOLID
  5
4A3
330
49E
100
AcDbEntity
  8
09-01
 62
     4
100
AcDbTrace
 10
659.6559092437048
 20
630.699363268022
 30
0.0
 11
659.6559092437048
 21
628.6160299346887
 31
0.0
 12
653.4059092437048
 22
629.6576966013553
 32
0.0
 13
653.4059092437048
 23
629.6576966013553
 33
0.0
  0
SOLID
  5
4A4
330
49E
100
AcDbEntity
  8
09-01
 62
     4
100
AcDbTrace
 10
757.1559092437048
 20
630.699363268022
 30
0.0
 11
757.1559092437048
 21
628.6160299346887
 31
0.0
 12
763.4059092437048
 22
629.6576966013553
 32
0.0
 13
763.4059092437048
 23
629.6576966013553
 33
0.0
  0
MTEXT
  5
4A5
330
49E
100
AcDbEntity
  8
09-01
 62
     1
100
AcDbMText
 10
708.4059092437049
 20
635.2826966013553
 30
0.0
 40
6.25
 41
0.0
 46
0.0
 71
     5
 72
     1
  1
110
 73
     1
 44
1.0
  0
POINT
  5
4A6
330
49E
100
AcDbEntity
  8
DEFPOINTS
 62
     0
100
AcDbPoint
 10
653.4059092437048
 20
613.8836082567254
 30
0.0
  0
POINT
  5
4A7
330
49E
100
AcDbEntity
  8
DEFPOINTS
 62
     0
100
AcDbPoint
 10
763.4059092437048
 20
613.8836082567254
 30
0.0
  0
POINT
  5
4A8
330
49E
100
AcDbEntity
  8
DEFPOINTS
 62
     0
100
AcDbPoint
 10
763.4059092437048
 20
629.6576966013553
 30
0.0
  0
ENDBLK
  5
4A9
330
49E
100
AcDbEntity
  8
0
100
AcDbBlockEnd
  0
BLOCK
  5
48D
330
48C
100
AcDbEntity
  8
0
100
AcDbBlockBegin
  2
*D2
 70
     1
 10
0.0
 20
0.0
 30
0.0
  3
*D2
  1

  0
LINE
  5
48E
330
48C
100
AcDbEntity
  8
09-01
 62
     4
370
    -2
100
AcDbLine
 10
653.4059092437048
 20
623.6467493104846
 30
0.0
 11
653.4059092437048
 21
644.1972914953275
 31
0.0
  0
LINE
  5
48F
330
48C
100
AcDbEntity
  8
09-01
 62
     4
370
    -2
100
AcDbLine
 10
773.4059120085321
 20
615.4273574339201
 30
0.0
 11
773.4059120085321
 21
644.1972914953275
 31
0.0
  0
LINE
  5
490
330
48C
100
AcDbEntity
  8
09-01
 62
     4
370
    -2
100
AcDbLine
 10
659.6559092437048
 20
641.6972914953276
 30
0.0
 11
767.1559120085321
 21
641.6972914953276
 31
0.0
  0
SOLID
  5
491
330
48C
100
AcDbEntity
  8
09-01
 62
     4
100
AcDbTrace
 10
659.6559092437048
 20
642.7389581619942
 30
0.0
 11
659.6559092437048
 21
640.655624828661
 31
0.0
 12
653.4059092437048
 22
641.6972914953276
 32
0.0
 13
653.4059092437048
 23
641.6972914953276
 33
0.0
  0
SOLID
  5
492
330
48C
100
AcDbEntity
  8
09-01
 62
     4
100
AcDbTrace
 10
767.1559120085321
 20
642.7389581619942
 30
0.0
 11
767.1559120085321
 21
640.655624828661
 31
0.0
 12
773.4059120085321
 22
641.6972914953276
 32
0.0
 13
773.4059120085321
 23
641.6972914953276
 33
0.0
  0
MTEXT
  5
493
330
48C
100
AcDbEntity
  8
09-01
 62
     1
100
AcDbMText
 10
713.4059106261185
 20
647.3222914953275
 30
0.0
 40
6.25
 41
0.0
 46
0.0
 71
     5
 72
     1
  1
120
 73
     1
 44
1.0
  0
POINT
  5
494
330
48C
100
AcDbEntity
  8
DEFPOINTS
 62
     0
100
AcDbPoint
 10
653.4059092437048
 20
621.1467493104846
 30
0.0
  0
POINT
  5
495
330
48C
100
AcDbEntity
  8
DEFPOINTS
 62
     0
100
AcDbPoint
 10
773.4059120085321
 20
612.9273574339201
 30
0.0
  0
POINT
  5
496
330
48C
100
AcDbEntity
  8
DEFPOINTS
 62
     0
100
AcDbPoint
 10
773.4059120085321
 20
641.6972914953276
 30
0.0
  0
ENDBLK
  5
497
330
48C
100
AcDbEntity
  8
0
100
AcDbBlockEnd
  0
BLOCK
  5
476
330
475
100
AcDbEntity
  8
0
100
AcDbBlockBegin
  2
*D3
 70
     1
 10
0.0
 20
0.0
 30
0.0
  3
*D3
  1

  0
LINE
  5
477
330
475
100
AcDbEntity
  8
09-01
 62
     4
370
    -2
100
AcDbLine
 10
775.9059120085323
 20
334.9273574339202
 30
0.0
 11
795.7771891145557
 21
334.9273574339202
 31
0.0
  0
LINE
  5
478
330
475
100
AcDbEntity
  8
09-01
 62
     4
370
    -2
100
AcDbLine
 10
775.9059120085321
 20
612.9273574339201
 30
0.0
 11
795.7771891145557
 21
612.9273574339201
 31
0.0
  0
LINE
  5
479
330
475
100
AcDbEntity
  8
09-01
 62
     4
370
    -2
100
AcDbLine
 10
793.2771891145558
 20
341.1773574339202
 30
0.0
 11
793.2771891145558
 21
606.6773574339201
 31
0.0
  0
SOLID
  5
47A
330
475
100
AcDbEntity
  8
09-01
 62
     4
100
AcDbTrace
 10
792.2355224478891
 20
341.1773574339202
 30
0.0
 11
794.3188557812224
 21
341.1773574339202
 31
0.0
 12
793.2771891145558
 22
334.9273574339202
 32
0.0
 13
793.2771891145558
 23
334.9273574339202
 33
0.0
  0
SOLID
  5
47B
330
475
100
AcDbEntity
  8
09-01
 62
     4
100
AcDbTrace
 10
792.2355224478891
 20
606.6773574339201
 30
0.0
 11
794.3188557812224
 21
606.6773574339201
 31
0.0
 12
793.2771891145558
 22
612.9273574339201
 32
0.0
 13
793.2771891145558
 23
612.9273574339201
 33
0.0
  0
MTEXT
  5
47C
330
475
100
AcDbEntity
  8
09-01
 62
     1
100
AcDbMText
 10
787.6521891145556
 20
473.9273574339203
 30
0.0
 40
6.25
 41
0.0
 46
0.0
 71
     5
 72
     1
  1
278
 11
0.0000000000000001
 21
1.0
 31
0.0
 73
     1
 44
1.0
  0
POINT
  5
47D
330
475
100
AcDbEntity
  8
DEFPOINTS
 62
     0
100
AcDbPoint
 10
773.4059120085324
 20
334.9273574339202
 30
0.0
  0
POINT
  5
47E
330
475
100
AcDbEntity
  8
DEFPOINTS
 62
     0
100
AcDbPoint
 10
773.4059120085321
 20
612.9273574339201
 30
0.0
  0
POINT
  5
47F
330
475
100
AcDbEntity
  8
DEFPOINTS
 62
     0
100
AcDbPoint
 10
793.2771891145558
 20
612.9273574339201
 30
0.0
  0
ENDBLK
  5
480
330
475
100
AcDbEntity
  8
0
100
AcDbBlockEnd
  0
BLOCK
  5
452
330
451
100
AcDbEntity
  8
0
100
AcDbBlockBegin
  2
*D4
 70
     1
 10
0.0
 20
0.0
 30
0.0
  3
*D4
  1

  0
LINE
  5
453
330
451
100
AcDbEntity
  8
09-01
 62
     4
370
    -2
100
AcDbLine
 10
527.9436399503624
 20
613.8836082567254
 30
0.0
 11
546.2130698231008
 21
613.8836082567254
 31
0.0
  0
LINE
  5
454
330
451
100
AcDbEntity
  8
09-01
 62
     4
370
    -2
100
AcDbLine
 10
527.9436399503622
 20
315.8836082567254
 30
0.0
 11
546.2130698231008
 21
315.8836082567254
 31
0.0
  0
LINE
  5
455
330
451
100
AcDbEntity
  8
09-01
 62
     4
370
    -2
100
AcDbLine
 10
543.7130698231007
 20
607.6336082567254
 30
0.0
 11
543.7130698231007
 21
322.1336082567254
 31
0.0
  0
SOLID
  5
456
330
451
100
AcDbEntity
  8
09-01
 62
     4
100
AcDbTrace
 10
542.6714031564341
 20
607.6336082567254
 30
0.0
 11
544.7547364897673
 21
607.6336082567254
 31
0.0
 12
543.7130698231007
 22
613.8836082567254
 32
0.0
 13
543.7130698231007
 23
613.8836082567254
 33
0.0
  0
SOLID
  5
457
330
451
100
AcDbEntity
  8
09-01
 62
     4
100
AcDbTrace
 10
542.6714031564341
 20
322.1336082567254
 30
0.0
 11
544.7547364897673
 21
322.1336082567254
 31
0.0
 12
543.7130698231007
 22
315.8836082567254
 32
0.0
 13
543.7130698231007
 23
315.8836082567254
 33
0.0
  0
MTEXT
  5
458
330
451
100
AcDbEntity
  8
09-01
 62
     1
100
AcDbMText
 10
538.0880698231006
 20
464.8836082567255
 30
0.0
 40
6.25
 41
0.0
 46
0.0
 71
     5
 72
     1
  1
298
 11
0.0000000000000001
 21
1.0
 31
0.0
 73
     1
 44
1.0
  0
POINT
  5
459
330
451
100
AcDbEntity
  8
DEFPOINTS
 62
     0
100
AcDbPoint
 10
525.4436399503624
 20
613.8836082567254
 30
0.0
  0
POINT
  5
45A
330
451
100
AcDbEntity
  8
DEFPOINTS
 62
     0
100
AcDbPoint
 10
525.4436399503622
 20
315.8836082567254
 30
0.0
  0
POINT
  5
45B
330
451
100
AcDbEntity
  8
DEFPOINTS
 62
     0
100
AcDbPoint
 10
543.7130698231007
 20
315.8836082567254
 30
0.0
  0
ENDBLK
  5
45C
330
451
100
AcDbEntity
  8
0
100
AcDbBlockEnd
  0
BLOCK
  5
441
330
440
100
AcDbEntity
  8
0
100
AcDbBlockBegin
  2
*D5
 70
     1
 10
0.0
 20
0.0
 30
0.0
  3
*D5
  1

  0
LINE
  5
442
330
440
100
AcDbEntity
  8
09-01
 62
     4
370
    -2
100
AcDbLine
 10
525.8432797382901
 20
215.4807090720857
 30
0.0
 11
525.8432797382901
 21
227.9304937218929
 31
0.0
  0
LINE
  5
443
330
440
100
AcDbEntity
  8
09-01
 62
     4
370
    -2
100
AcDbLine
 10
125.8432797382903
 20
215.4807090720856
 30
0.0
 11
125.8432797382903
 21
227.9304937218929
 31
0.0
  0
LINE
  5
444
330
440
100
AcDbEntity
  8
09-01
 62
     4
370
    -2
100
AcDbLine
 10
519.5932797382901
 20
225.4304937218929
 30
0.0
 11
132.0932797382903
 21
225.4304937218929
 31
0.0
  0
SOLID
  5
445
330
440
100
AcDbEntity
  8
09-01
 62
     4
100
AcDbTrace
 10
519.5932797382901
 20
226.4721603885596
 30
0.0
 11
519.5932797382901
 21
224.3888270552263
 31
0.0
 12
525.8432797382901
 22
225.4304937218929
 32
0.0
 13
525.8432797382901
 23
225.4304937218929
 33
0.0
  0
SOLID
  5
446
330
440
100
AcDbEntity
  8
09-01
 62
     4
100
AcDbTrace
 10
132.0932797382903
 20
226.4721603885596
 30
0.0
 11
132.0932797382903
 21
224.3888270552263
 31
0.0
 12
125.8432797382903
 22
225.4304937218929
 32
0.0
 13
125.8432797382903
 23
225.4304937218929
 33
0.0
  0
MTEXT
  5
447
330
440
100
AcDbEntity
  8
09-01
 62
     1
100
AcDbMText
 10
325.8432797382902
 20
231.0554937218929
 30
0.0
 40
6.25
 41
0.0
 46
0.0
 71
     5
 72
     1
  1
400
 73
     1
 44
1.0
  0
POINT
  5
448
330
440
100
AcDbEntity
  8
DEFPOINTS
 62
     0
100
AcDbPoint
 10
525.8432797382901
 20
212.9807090720857
 30
0.0
  0
POINT
  5
449
330
440
100
AcDbEntity
  8
DEFPOINTS
 62
     0
100
AcDbPoint
 10
125.8432797382903
 20
212.9807090720856
 30
0.0
  0
POINT
  5
44A
330
440
100
AcDbEntity
  8
DEFPOINTS
 62
     0
100
AcDbPoint
 10
125.8432797382903
 20
225.4304937218929
 30
0.0
  0
ENDBLK
  5
44B
330
440
100
AcDbEntity
  8
0
100
AcDbBlockEnd
  0
BLOCK
  5
434
330
433
100
AcDbEntity
  8
0
100
AcDbBlockBegin
  2
*D6
 70
     1
 10
0.0
 20
0.0
 30
0.0
  3
*D6
  1

  0
LINE
  5
435
330
433
100
AcDbEntity
  8
09-01
 62
     4
370
    -2
100
AcDbLine
 10
123.3432797382903
 20
212.9807090720856
 30
0.0
 11
104.0400828284411
 21
212.9807090720856
 31
0.0
  0
LINE
  5
436
330
433
100
AcDbEntity
  8
09-01
 62
     4
370
    -2
100
AcDbLine
 10
124.3432797382903
 20
92.98070907208558
 30
0.0
 11
104.040082828441
 21
92.98070907208558
 31
0.0
  0
LINE
  5
437
330
433
100
AcDbEntity
  8
09-01
 62
     4
370
    -2
100
AcDbLine
 10
106.540082828441
 20
206.7307090720856
 30
0.0
 11
106.540082828441
 21
99.23070907208558
 31
0.0
  0
SOLID
  5
438
330
433
100
AcDbEntity
  8
09-01
 62
     4
100
AcDbTrace
 10
105.4984161617744
 20
206.7307090720856
 30
0.0
 11
107.5817494951077
 21
206.7307090720856
 31
0.0
 12
106.540082828441
 22
212.9807090720856
 32
0.0
 13
106.540082828441
 23
212.9807090720856
 33
0.0
  0
SOLID
  5
439
330
433
100
AcDbEntity
  8
09-01
 62
     4
100
AcDbTrace
 10
105.4984161617743
 20
99.23070907208558
 30
0.0
 11
107.5817494951077
 21
99.23070907208558
 31
0.0
 12
106.540082828441
 22
92.98070907208558
 32
0.0
 13
106.540082828441
 23
92.98070907208558
 33
0.0
  0
MTEXT
  5
43A
330
433
100
AcDbEntity
  8
09-01
 62
     1
100
AcDbMText
 10
100.915082828441
 20
152.9807090720856
 30
0.0
 40
6.25
 41
0.0
 46
0.0
 71
     5
 72
     1
  1
120
 11
0.0000000000000001
 21
1.0
 31
0.0
 73
     1
 44
1.0
  0
POINT
  5
43B
330
433
100
AcDbEntity
  8
DEFPOINTS
 62
     0
100
AcDbPoint
 10
125.8432797382903
 20
212.9807090720856
 30
0.0
  0
POINT
  5
43C
330
433
100
AcDbEntity
  8
DEFPOINTS
 62
     0
100
AcDbPoint
 10
126.8432797382903
 20
92.98070907208558
 30
0.0
  0
POINT
  5
43D
330
433
100
AcDbEntity
  8
DEFPOINTS
 62
     0
100
AcDbPoint
 10
106.540082828441
 20
92.98070907208558
 30
0.0
  0
ENDBLK
  5
43E
330
433
100
AcDbEntity
  8
0
100
AcDbBlockEnd
  0
BLOCK
  5
153
330
152
100
AcDbEntity
  8
0
100
AcDbBlockBegin
  2
Pumpe 037020-V
 70
     0
 10
0.0
 20
0.0
 30
0.0
  3
Pumpe 037020-V
  1

  0
LINE
  5
154
330
152
100
AcDbEntity
  8
0
100
AcDbLine
 10
-3.000082349783497
 20
-13.83301907429853
 30
0.0
 11
-2.150322809892259
 21
-16.33297184582869
 31
0.0
  0
LINE
  5
155
330
152
100
AcDbEntity
  8
0
100
AcDbLine
 10
-2.150322809892259
 20
-16.33297184582869
 30
0.0
 11
-1.513236057261792
 21
-18.78199564736422
 31
0.0
  0
LINE
  5
156
330
152
100
AcDbEntity
  8
0
100
AcDbLine
 10
-1.513236057261792
 20
-18.78199564736422
 30
0.0
 11
1.51323605726202
 21
-18.78199564736422
 31
0.0
  0
LINE
  5
157
330
152
100
AcDbEntity
  8
0
100
AcDbLine
 10
1.51323605726202
 20
-18.78199564736422
 30
0.0
 11
2.150150143953396
 21
-16.33278273440004
 31
0.0
  0
LINE
  5
158
330
152
100
AcDbEntity
  8
0
100
AcDbLine
 10
2.150150143953396
 20
-16.33278273440004
 30
0.0
 11
2.99969753357027
 21
-13.83275015553357
 31
0.0
  0
LINE
  5
159
330
152
100
AcDbEntity
  8
0
100
AcDbLine
 10
-30.0
 20
-13.79050007343807
 30
0.0
 11
-30.0
 21
38.20949992656193
 31
0.0
  0
LINE
  5
15A
330
152
100
AcDbEntity
  8
0
100
AcDbLine
 10
-10.0
 20
-13.79050007343807
 30
0.0
 11
-30.0
 21
-13.79050007343807
 31
0.0
  0
LINE
  5
15B
330
152
100
AcDbEntity
  8
0
100
AcDbLine
 10
-10.0
 20
-13.79050007343807
 30
0.0
 11
10.0
 21
-13.79050007343807
 31
0.0
  0
LINE
  5
15C
330
152
100
AcDbEntity
  8
0
100
AcDbLine
 10
30.0
 20
38.20949992656188
 30
0.0
 11
30.0
 21
-13.79050007343807
 31
0.0
  0
LINE
  5
15D
330
152
100
AcDbEntity
  8
0
100
AcDbLine
 10
30.0
 20
-13.79050007343807
 30
0.0
 11
10.0
 21
-13.79050007343807
 31
0.0
  0
LINE
  5
15E
330
152
100
AcDbEntity
  8
03-01
100
AcDbLine
 10
30.0
 20
36.20949992656188
 30
0.0
 11
-30.0
 21
36.20949992656165
 31
0.0
  0
LINE
  5
15F
330
152
100
AcDbEntity
  8
03-01
100
AcDbLine
 10
12.5
 20
29.69999999999999
 30
0.0
 11
10.0
 21
29.69999999999999
 31
0.0
  0
ARC
  5
160
330
152
100
AcDbEntity
  8
03-01
100
AcDbCircle
 10
12.5
 20
29.19999999999999
 30
0.0
 40
0.5
100
AcDbArc
 50
0.0
 51
90.0
  0
LINE
  5
161
330
152
100
AcDbEntity
  8
03-01
100
AcDbLine
 10
13.0
 20
-6.199999999999988
 30
0.0
 11
17.0
 21
-6.199999999999988
 31
0.0
  0
LINE
  5
162
330
152
100
AcDbEntity
  8
03-01
100
AcDbLine
 10
17.0
 20
-1.400000000000034
 30
0.0
 11
13.0
 21
-1.400000000000034
 31
0.0
  0
ARC
  5
163
330
152
100
AcDbEntity
  8
03-01
100
AcDbCircle
 10
17.0
 20
-3.800000000000011
 30
0.0
 40
2.400000000000028
100
AcDbArc
 50
270.0
 51
90.0
  0
LINE
  5
164
330
152
100
AcDbEntity
  8
03-01
100
AcDbLine
 10
13.0
 20
23.80000000000001
 30
0.0
 11
17.0
 21
23.80000000000001
 31
0.0
  0
LINE
  5
165
330
152
100
AcDbEntity
  8
03-01
100
AcDbLine
 10
17.0
 20
27.59999999999997
 30
0.0
 11
13.0
 21
27.59999999999997
 31
0.0
  0
ARC
  5
166
330
152
100
AcDbEntity
  8
03-01
100
AcDbCircle
 10
17.0
 20
25.69999999999999
 30
0.0
 40
1.900000000000028
100
AcDbArc
 50
270.0
 51
90.0
  0
LINE
  5
167
330
152
100
AcDbEntity
  8
0
100
AcDbLine
 10
14.31564555134264
 20
-41.52498078636739
 30
0.0
 11
14.3603198390947
 21
-41.60443662103472
 31
0.0
  0
LINE
  5
168
330
152
100
AcDbEntity
  8
0
100
AcDbLine
 10
14.3603198390947
 20
-41.60443662103472
 30
0.0
 11
14.42364547943316
 21
-41.67937252143753
 31
0.0
  0
LINE
  5
169
330
152
100
AcDbEntity
  8
0
100
AcDbLine
 10
14.42364547943316
 20
-41.67937252143753
 30
0.0
 11
14.45764755558548
 21
-41.70147959571323
 31
0.0
  0
LINE
  5
16A
330
152
100
AcDbEntity
  8
0
100
AcDbLine
 10
14.45764755558548
 20
-41.70147959571323
 30
0.0
 11
14.4897278474441
 21
-41.71072794426044
 31
0.0
  0
LINE
  5
16B
330
152
100
AcDbEntity
  8
0
100
AcDbLine
 10
14.4897278474441
 20
-41.71072794426044
 30
0.0
 11
14.5
 21
-41.71130603590421
 31
0.0
  0
LINE
  5
16C
330
152
100
AcDbEntity
  8
0
100
AcDbLine
 10
14.31564555134264
 20
-41.52498078636739
 30
0.0
 11
14.05828095087963
 21
-41.04955662777314
 31
0.0
  0
LINE
  5
16D
330
152
100
AcDbEntity
  8
0
100
AcDbLine
 10
14.05828095087963
 20
-41.04955662777314
 30
0.0
 11
13.76596847853534
 21
-40.59355182324629
 31
0.0
  0
LINE
  5
16E
330
152
100
AcDbEntity
  8
0
100
AcDbLine
 10
13.76596847853534
 20
-40.59355182324629
 30
0.0
 11
13.32076023233048
 21
-40.01097246391185
 31
0.0
  0
LINE
  5
16F
330
152
100
AcDbEntity
  8
0
100
AcDbLine
 10
13.32076023233048
 20
-40.01097246391185
 30
0.0
 11
12.82745306753122
 21
-39.47166537159006
 31
0.0
  0
LINE
  5
170
330
152
100
AcDbEntity
  8
0
100
AcDbLine
 10
12.82745306753122
 20
-39.47166537159006
 30
0.0
 11
11.69095873235255
 21
-38.49642331690592
 31
0.0
  0
LINE
  5
171
330
152
100
AcDbEntity
  8
0
100
AcDbLine
 10
11.69095873235255
 20
-38.49642331690592
 30
0.0
 11
10.78018354071446
 21
-37.89124635292836
 31
0.0
  0
LINE
  5
172
330
152
100
AcDbEntity
  8
0
100
AcDbLine
 10
10.78018354071446
 20
-37.89124635292836
 30
0.0
 11
9.816809948288209
 21
-37.36784176248506
 31
0.0
  0
LINE
  5
173
330
152
100
AcDbEntity
  8
0
100
AcDbLine
 10
9.816809948288209
 20
-37.36784176248506
 30
0.0
 11
8.785010451355901
 21
-36.90812714843224
 31
0.0
  0
LINE
  5
174
330
152
100
AcDbEntity
  8
0
100
AcDbLine
 10
8.785010451355901
 20
-36.90812714843224
 30
0.0
 11
7.718873527689538
 21
-36.51987251399936
 31
0.0
  0
LINE
  5
175
330
152
100
AcDbEntity
  8
0
100
AcDbLine
 10
7.718873527689538
 20
-36.51987251399936
 30
0.0
 11
6.110405410338444
 21
-36.06688580632653
 31
0.0
  0
LINE
  5
176
330
152
100
AcDbEntity
  8
0
100
AcDbLine
 10
6.110405410338444
 20
-36.06688580632653
 30
0.0
 11
4.461599402452975
 21
-35.73766733140968
 31
0.0
  0
LINE
  5
177
330
152
100
AcDbEntity
  8
0
100
AcDbLine
 10
4.461599402452975
 20
-35.73766733140968
 30
0.0
 11
2.739901413947336
 21
-35.51530039169376
 31
0.0
  0
LINE
  5
178
330
152
100
AcDbEntity
  8
0
100
AcDbLine
 10
2.739901413947336
 20
-35.51530039169376
 30
0.0
 11
1.0020592160256
 21
-35.40255263165653
 31
0.0
  0
LINE
  5
179
330
152
100
AcDbEntity
  8
0
100
AcDbLine
 10
1.0020592160256
 20
-35.40255263165653
 30
0.0
 11
-0.7500945235503878
 21
-35.3948588045709
 31
0.0
  0
LINE
  5
17A
330
152
100
AcDbEntity
  8
0
100
AcDbLine
 10
-0.7500945235503878
 20
-35.3948588045709
 30
0.0
 11
-2.497947581974585
 21
-35.49323515544955
 31
0.0
  0
LINE
  5
17B
330
152
100
AcDbEntity
  8
0
100
AcDbLine
 10
-2.497947581974585
 20
-35.49323515544955
 30
0.0
 11
-4.274252983220549
 21
-35.70762767560342
 31
0.0
  0
LINE
  5
17C
330
152
100
AcDbEntity
  8
0
100
AcDbLine
 10
-4.274252983220549
 20
-35.70762767560342
 30
0.0
 11
-6.022172908256379
 21
-36.04619296463415
 31
0.0
  0
LINE
  5
17D
330
152
100
AcDbEntity
  8
0
100
AcDbLine
 10
-6.022172908256379
 20
-36.04619296463415
 30
0.0
 11
-7.17164795795179
 21
-36.34936329074361
 31
0.0
  0
LINE
  5
17E
330
152
100
AcDbEntity
  8
0
100
AcDbLine
 10
-7.17164795795179
 20
-36.34936329074361
 30
0.0
 11
-8.295335222482663
 21
-36.71997512071579
 31
0.0
  0
LINE
  5
17F
330
152
100
AcDbEntity
  8
0
100
AcDbLine
 10
-8.295335222482663
 20
-36.71997512071579
 30
0.0
 11
-9.407667077729001
 21
-37.17442353255075
 31
0.0
  0
LINE
  5
180
330
152
100
AcDbEntity
  8
0
100
AcDbLine
 10
-9.407667077729001
 20
-37.17442353255075
 30
0.0
 11
-10.47521564145267
 21
-37.71418843374403
 31
0.0
  0
LINE
  5
181
330
152
100
AcDbEntity
  8
0
100
AcDbLine
 10
-10.47521564145267
 20
-37.71418843374403
 30
0.0
 11
-11.82581584519084
 21
-38.59744376280588
 31
0.0
  0
LINE
  5
182
330
152
100
AcDbEntity
  8
0
100
AcDbLine
 10
-11.82581584519084
 20
-38.59744376280588
 30
0.0
 11
-12.46107732504401
 21
-39.12324672102221
 31
0.0
  0
LINE
  5
183
330
152
100
AcDbEntity
  8
0
100
AcDbLine
 10
-12.46107732504401
 20
-39.12324672102221
 30
0.0
 11
-13.04915158883159
 21
-39.70270602747035
 31
0.0
  0
LINE
  5
184
330
152
100
AcDbEntity
  8
0
100
AcDbLine
 10
-13.04915158883159
 20
-39.70270602747035
 30
0.0
 11
-13.73966007153649
 21
-40.55581873266129
 31
0.0
  0
LINE
  5
185
330
152
100
AcDbEntity
  8
0
100
AcDbLine
 10
-13.73966007153649
 20
-40.55581873266129
 30
0.0
 11
-14.31564555134264
 21
-41.52498078636739
 31
0.0
  0
LINE
  5
186
330
152
100
AcDbEntity
  8
0
100
AcDbLine
 10
-14.5
 20
-41.71130603590421
 30
0.0
 11
-14.46725481293401
 21
-41.70543184117827
 31
0.0
  0
LINE
  5
187
330
152
100
AcDbEntity
  8
0
100
AcDbLine
 10
-14.46725481293401
 20
-41.70543184117827
 30
0.0
 11
-14.4293741345607
 21
-41.68398385721258
 31
0.0
  0
LINE
  5
188
330
152
100
AcDbEntity
  8
0
100
AcDbLine
 10
-14.4293741345607
 20
-41.68398385721258
 30
0.0
 11
-14.37464513549844
 21
-41.62524023919746
 31
0.0
  0
LINE
  5
189
330
152
100
AcDbEntity
  8
0
100
AcDbLine
 10
-14.37464513549844
 20
-41.62524023919746
 30
0.0
 11
-14.31564555134264
 21
-41.5249807863675
 31
0.0
  0
LINE
  5
18A
330
152
100
AcDbEntity
  8
0
100
AcDbLine
 10
-14.9635911157643
 20
-56.80000000000001
 30
0.0
 11
-15.0
 21
-56.80000000000001
 31
0.0
  0
LINE
  5
18B
330
152
100
AcDbEntity
  8
0
100
AcDbLine
 10
-15.0
 20
-56.80000000000001
 30
0.0
 11
-15.0
 21
-29.30000000000001
 31
0.0
  0
ARC
  5
18C
330
152
100
AcDbEntity
  8
0
100
AcDbCircle
 10
-14.63307361771103
 20
-43.01497088686477
 30
0.0
 40
1.310439098684448
100
AcDbArc
 50
84.171631366974
 51
106.2603611376258
  0
LINE
  5
18D
330
152
100
AcDbEntity
  8
0
100
AcDbLine
 10
14.9635911157643
 20
-56.80000000000001
 30
0.0
 11
-14.9635911157643
 21
-56.80000000000001
 31
0.0
  0
ARC
  5
18E
330
152
100
AcDbEntity
  8
0
100
AcDbCircle
 10
14.63335216118366
 20
-43.01191964757862
 30
0.0
 40
1.307432050152177
100
AcDbArc
 50
73.71391671635311
 51
95.85409077905239
  0
LINE
  5
18F
330
152
100
AcDbEntity
  8
0
100
AcDbLine
 10
15.0
 20
-29.30000000000001
 30
0.0
 11
15.0
 21
-56.80000000000001
 31
0.0
  0
LINE
  5
190
330
152
100
AcDbEntity
  8
0
100
AcDbLine
 10
12.67224582217568
 20
-26.08247033838615
 30
0.0
 11
-12.67224582217568
 21
-26.08247033838615
 31
0.0
  0
ARC
  5
191
330
152
100
AcDbEntity
  8
0
100
AcDbCircle
 10
-18.0
 20
-25.05735931288081
 30
0.0
 40
5.00000000000002
100
AcDbArc
 50
309.5211963586474
 51
345.622922509621
  0
ARC
  5
192
330
152
100
AcDbEntity
  8
0
100
AcDbCircle
 10
-14.5
 20
-29.30000000000001
 30
0.0
 40
0.5
100
AcDbArc
 50
129.5211963586473
 51
180.0
  0
ARC
  5
193
330
152
100
AcDbEntity
  8
0
100
AcDbCircle
 10
18.0
 20
-25.05735931288081
 30
0.0
 40
5.000000000000001
100
AcDbArc
 50
194.377077490379
 51
230.4788036413521
  0
ARC
  5
194
330
152
100
AcDbEntity
  8
0
100
AcDbCircle
 10
14.5
 20
-29.30000000000001
 30
0.0
 40
0.5
100
AcDbArc
 50
0.0
 51
50.47880364135262
  0
LINE
  5
195
330
152
100
AcDbEntity
  8
0
100
AcDbLine
 10
-13.1565871110688
 20
-26.29887112810258
 30
0.0
 11
-13.04152866534241
 21
-25.70044719441552
 31
0.0
  0
LINE
  5
196
330
152
100
AcDbEntity
  8
0
100
AcDbLine
 10
-13.04152866534241
 20
-25.70044719441552
 30
0.0
 11
-13.0
 21
-25.05735931288081
 31
0.0
  0
LINE
  5
197
330
152
100
AcDbEntity
  8
0
100
AcDbLine
 10
13.0
 20
-25.05735931288081
 30
0.0
 11
13.04063029909207
 21
-25.69348207596744
 31
0.0
  0
LINE
  5
198
330
152
100
AcDbEntity
  8
0
100
AcDbLine
 10
13.04063029909207
 20
-25.69348207596744
 30
0.0
 11
13.1565871110688
 21
-26.29887112810258
 31
0.0
  0
LINE
  5
199
330
152
100
AcDbEntity
  8
03-01
100
AcDbLine
 10
10.0
 20
29.69999999999999
 30
0.0
 11
10.0
 21
1.0
 31
0.0
  0
LINE
  5
19A
330
152
100
AcDbEntity
  8
0
100
AcDbLine
 10
10.0
 20
-13.79050007343801
 30
0.0
 11
10.0
 21
-19.30053571689103
 31
0.0
  0
LINE
  5
19B
330
152
100
AcDbEntity
  8
03-01
100
AcDbLine
 10
13.0
 20
29.19999999999999
 30
0.0
 11
13.0
 21
-6.199999999999988
 31
0.0
  0
LINE
  5
19C
330
152
100
AcDbEntity
  8
0
100
AcDbLine
 10
13.0
 20
-13.79050007343801
 30
0.0
 11
12.99999999999977
 21
-25.05735931287956
 31
0.0
  0
ARC
  5
19D
330
152
100
AcDbEntity
  8
03-01
100
AcDbCircle
 10
-9.0
 20
1.0
 30
0.0
 40
1.0
100
AcDbArc
 50
180.0
 51
270.0
  0
LINE
  5
19E
330
152
100
AcDbEntity
  8
03-01
100
AcDbLine
 10
9.0
 20
0.0
 30
0.0
 11
-9.0
 21
0.0
 31
0.0
  0
ARC
  5
19F
330
152
100
AcDbEntity
  8
03-01
100
AcDbCircle
 10
9.0
 20
1.0
 30
0.0
 40
1.0
100
AcDbArc
 50
270.0
 51
0.0
  0
LINE
  5
1A0
330
152
100
AcDbEntity
  8
03-01
100
AcDbLine
 10
-12.5
 20
29.69999999999999
 30
0.0
 11
-10.00000000000023
 21
29.69999999999999
 31
0.0
  0
ARC
  5
1A1
330
152
100
AcDbEntity
  8
03-01
100
AcDbCircle
 10
-12.5
 20
29.19999999999999
 30
0.0
 40
0.5
100
AcDbArc
 50
90.0
 51
180.0
  0
LINE
  5
1A2
330
152
100
AcDbEntity
  8
03-01
100
AcDbLine
 10
-13.0
 20
-6.199999999999988
 30
0.0
 11
-17.0
 21
-6.199999999999988
 31
0.0
  0
LINE
  5
1A3
330
152
100
AcDbEntity
  8
03-01
100
AcDbLine
 10
-17.0
 20
-1.400000000000034
 30
0.0
 11
-13.0
 21
-1.400000000000034
 31
0.0
  0
ARC
  5
1A4
330
152
100
AcDbEntity
  8
03-01
100
AcDbCircle
 10
-17.0
 20
-3.800000000000011
 30
0.0
 40
2.400000000000028
100
AcDbArc
 50
90.0
 51
270.0
  0
LINE
  5
1A5
330
152
100
AcDbEntity
  8
03-01
100
AcDbLine
 10
-13.0
 20
23.80000000000001
 30
0.0
 11
-17.0
 21
23.80000000000001
 31
0.0
  0
LINE
  5
1A6
330
152
100
AcDbEntity
  8
03-01
100
AcDbLine
 10
-17.0
 20
27.59999999999997
 30
0.0
 11
-13.0
 21
27.59999999999997
 31
0.0
  0
ARC
  5
1A7
330
152
100
AcDbEntity
  8
03-01
100
AcDbCircle
 10
-17.0
 20
25.69999999999999
 30
0.0
 40
1.900000000000028
100
AcDbArc
 50
90.0
 51
270.0
  0
LINE
  5
1A8
330
152
100
AcDbEntity
  8
03-01
100
AcDbLine
 10
-10.00000000000023
 20
29.69999999999999
 30
0.0
 11
-10.00000000000023
 21
1.0
 31
0.0
  0
LINE
  5
1A9
330
152
100
AcDbEntity
  8
0
100
AcDbLine
 10
-10.00000000000023
 20
-13.79050007343801
 30
0.0
 11
-10.0
 21
-19.30053571689103
 31
0.0
  0
LINE
  5
1AA
330
152
100
AcDbEntity
  8
03-01
100
AcDbLine
 10
-13.00000000000045
 20
29.19999999999999
 30
0.0
 11
-13.0
 21
-6.199999999999988
 31
0.0
  0
LINE
  5
1AB
330
152
100
AcDbEntity
  8
0
100
AcDbLine
 10
-13.0
 20
-13.79050007343801
 30
0.0
 11
-13.0
 21
-25.05735931287956
 31
0.0
  0
LINE
  5
1AC
330
152
100
AcDbEntity
  8
0
100
AcDbLine
 10
-13.00000000000023
 20
-19.30053571689103
 30
0.0
 11
-10.00000000000023
 21
-19.30053571689103
 31
0.0
  0
LINE
  5
1AD
330
152
100
AcDbEntity
  8
0
100
AcDbLine
 10
10.0
 20
-19.30053571689098
 30
0.0
 11
13.0
 21
-19.30053571689098
 31
0.0
  0
LINE
  5
1AE
330
152
100
AcDbEntity
  8
03-01
100
AcDbLine
 10
-13.0
 20
-6.199999999999988
 30
0.0
 11
-13.0
 21
-13.79050007343807
 31
0.0
  0
LINE
  5
1AF
330
152
100
AcDbEntity
  8
03-01
100
AcDbLine
 10
-10.00000000000023
 20
1.0
 30
0.0
 11
-10.0
 21
-13.79050007343807
 31
0.0
  0
LINE
  5
1B0
330
152
100
AcDbEntity
  8
03-01
100
AcDbLine
 10
10.0
 20
1.0
 30
0.0
 11
10.0
 21
-13.79050007343801
 31
0.0
  0
LINE
  5
1B1
330
152
100
AcDbEntity
  8
03-01
100
AcDbLine
 10
13.0
 20
-6.199999999999988
 30
0.0
 11
13.0
 21
-13.79050007343801
 31
0.0
  0
LINE
  5
1B2
330
152
100
AcDbEntity
  8
0
100
AcDbLine
 10
30.0
 20
38.20949992656188
 30
0.0
 11
-30.0
 21
38.20949992656193
 31
0.0
  0
LINE
  5
1B3
330
152
100
AcDbEntity
  8
0
100
AcDbLine
 10
13.90000000000009
 20
38.20949992656188
 30
0.0
 11
13.90000000000009
 21
42.70949992656187
 31
0.0
  0
LINE
  5
1B4
330
152
100
AcDbEntity
  8
0
100
AcDbLine
 10
-13.90000000000009
 20
38.20949992656188
 30
0.0
 11
-13.90000000000009
 21
42.70949992656187
 31
0.0
  0
LINE
  5
1B5
330
152
100
AcDbEntity
  8
0
100
AcDbLine
 10
-7.5
 20
42.70949992656187
 30
0.0
 11
-7.5
 21
46.70949992656187
 31
0.0
  0
LINE
  5
1B6
330
152
100
AcDbEntity
  8
0
100
AcDbLine
 10
7.5
 20
52.20949992656186
 30
0.0
 11
7.5
 21
42.70949992656187
 31
0.0
  0
LINE
  5
1B7
330
152
100
AcDbEntity
  8
0
100
AcDbLine
 10
-13.90000000000009
 20
42.70949992656187
 30
0.0
 11
13.90000000000009
 21
42.70949992656187
 31
0.0
  0
LINE
  5
1B8
330
152
100
AcDbEntity
  8
03-01
100
AcDbLine
 10
-7.5
 20
46.70949992656187
 30
0.0
 11
7.5
 21
46.70949992656187
 31
0.0
  0
LINE
  5
1B9
330
152
100
AcDbEntity
  8
0
100
AcDbLine
 10
7.5
 20
52.20949992656186
 30
0.0
 11
-7.5
 21
52.20949992656243
 31
0.0
  0
LINE
  5
1BA
330
152
100
AcDbEntity
  8
0
100
AcDbLine
 10
-7.5
 20
52.20949992656243
 30
0.0
 11
-7.5
 21
46.70949992656187
 31
0.0
  0
ENDBLK
  5
1BB
330
152
100
AcDbEntity
  8
0
100
AcDbBlockEnd
  0
BLOCK
  5
3DC
330
3D9
100
AcDbEntity
  8
0
100
AcDbBlockBegin
  2
Pumpe 037020-S
 70
     0
 10
0.0
 20
0.0
 30
0.0
  3
Pumpe 037020-S
  1

  0
LINE
  5
3DD
330
3D9
100
AcDbEntity
  8
0
100
AcDbLine
 10
0.0000000000001137
 20
-24.0
 30
0.0
 11
-69.99999999999989
 21
-24.0
 31
0.0
  0
LINE
  5
3DE
330
3D9
100
AcDbEntity
  8
0
100
AcDbLine
 10
-69.99999999999989
 20
-24.0
 30
0.0
 11
-69.99999999999989
 21
28.0
 31
0.0
  0
LINE
  5
3DF
330
3D9
100
AcDbEntity
  8
0
100
AcDbLine
 10
-69.99999999999989
 20
28.0
 30
0.0
 11
-10.00000000000011
 21
28.0
 31
0.0
  0
LINE
  5
3E0
330
3D9
100
AcDbEntity
  8
03-01
100
AcDbLine
 10
-69.99999999999989
 20
26.0
 30
0.0
 11
-10.00000000000011
 21
26.0
 31
0.0
  0
LINE
  5
3E1
330
3D9
100
AcDbEntity
  8
0
100
AcDbLine
 10
-10.00000000000011
 20
24.0
 30
0.0
 11
0.0000000000001137
 21
24.0
 31
0.0
  0
LINE
  5
3E2
330
3D9
100
AcDbEntity
  8
0
100
AcDbLine
 10
-0.0000000000001137
 20
24.0
 30
0.0
 11
0.0000000000001137
 21
-24.0
 31
0.0
  0
LINE
  5
3E3
330
3D9
100
AcDbEntity
  8
0
100
AcDbLine
 10
-9.999999999999886
 20
28.0
 30
0.0
 11
-10.00000000000011
 21
24.0
 31
0.0
  0
LINE
  5
3E4
330
3D9
100
AcDbEntity
  8
0
100
AcDbLine
 10
-59.39999999999997
 20
-24.0
 30
0.0
 11
-57.99999999999989
 21
-29.0
 31
0.0
  0
LINE
  5
3E5
330
3D9
100
AcDbEntity
  8
0
100
AcDbLine
 10
-57.99999999999989
 20
-29.0
 30
0.0
 11
-54.49999999999988
 21
-29.0
 31
0.0
  0
LINE
  5
3E6
330
3D9
100
AcDbEntity
  8
0
100
AcDbLine
 10
-54.49999999999988
 20
-29.0
 30
0.0
 11
-53.30000000000007
 21
-24.0
 31
0.0
  0
LINE
  5
3E7
330
3D9
100
AcDbEntity
  8
0
100
AcDbLine
 10
-48.99999999999988
 20
28.0
 30
0.0
 11
-48.99999999999988
 21
32.5
 31
0.0
  0
LINE
  5
3E8
330
3D9
100
AcDbEntity
  8
0
100
AcDbLine
 10
-21.19999999999993
 20
28.0
 30
0.0
 11
-21.19999999999993
 21
32.5
 31
0.0
  0
LINE
  5
3E9
330
3D9
100
AcDbEntity
  8
0
100
AcDbLine
 10
-27.60000000000002
 20
32.5
 30
0.0
 11
-27.60000000000002
 21
36.5
 31
0.0
  0
LINE
  5
3EA
330
3D9
100
AcDbEntity
  8
0
100
AcDbLine
 10
-27.60000000000002
 20
36.5
 30
0.0
 11
-42.60000000000002
 21
42.0
 31
0.0
  0
LINE
  5
3EB
330
3D9
100
AcDbEntity
  8
0
100
AcDbLine
 10
-42.60000000000002
 20
42.0
 30
0.0
 11
-42.60000000000002
 21
32.5
 31
0.0
  0
LINE
  5
3EC
330
3D9
100
AcDbEntity
  8
0
100
AcDbLine
 10
-21.19999999999993
 20
32.5
 30
0.0
 11
-48.99999999999988
 21
32.5
 31
0.0
  0
LINE
  5
3ED
330
3D9
100
AcDbEntity
  8
0
100
AcDbLine
 10
-4.575000000000026
 20
22.0
 30
0.0
 11
-4.000000000000113
 21
-24.0
 31
0.0
  0
LINE
  5
3EE
330
3D9
100
AcDbEntity
  8
0
100
AcDbLine
 10
-7.003936904878893
 20
22.0
 30
0.0
 11
-7.100242178040275
 21
-24.0
 31
0.0
  0
CIRCLE
  5
3EF
330
3D9
100
AcDbEntity
  8
03-01
100
AcDbCircle
 10
-5.260349823813726
 20
-12.58096792536401
 30
0.0
 40
2.399999999999999
  0
CIRCLE
  5
3F0
330
3D9
100
AcDbEntity
  8
03-01
100
AcDbCircle
 10
-6.29573185160109
 20
16.91781144017136
 30
0.0
 40
1.900000000000028
  0
LINE
  5
3F1
330
3D9
100
AcDbEntity
  8
03-01
100
AcDbLine
 10
-2.305241823455276
 20
17.19347307201184
 30
0.0
 11
0.0000000000001137
 21
-16.17730996929856
 31
0.0
  0
LINE
  5
3F2
330
3D9
100
AcDbEntity
  8
03-01
100
AcDbLine
 10
-14.68706729195139
 20
-31.95912022433828
 30
0.0
 11
-15.70569377562367
 21
-35.500222511385
 31
0.0
  0
ARC
  5
3F3
330
3D9
100
AcDbEntity
  8
0
100
AcDbCircle
 10
-9.728339633511154
 20
-20.45486464451721
 30
0.0
 40
10.0
100
AcDbArc
 50
313.1588977295671
 51
339.2363669496963
  0
LINE
  5
3F4
330
3D9
100
AcDbEntity
  8
03-01
100
AcDbLine
 10
-9.48344294405831
 20
-24.0
 30
0.0
 11
-10.24846235899611
 21
-12.92554496516459
 31
0.0
  0
ARC
  5
3F5
330
3D9
100
AcDbEntity
  8
0
100
AcDbCircle
 10
-14.43534984675068
 20
-24.86869138407178
 30
0.0
 40
5.0
100
AcDbArc
 50
313.1588977295671
 51
3.951694224596971
  0
LINE
  5
3F6
330
3D9
100
AcDbEntity
  8
03-01
100
AcDbLine
 10
-5.681629140976951
 20
-20.99305295262758
 30
0.0
 11
-6.519850881098705
 21
-8.858917806585623
 31
0.0
  0
LINE
  5
3F7
330
3D9
100
AcDbEntity
  8
03-01
100
AcDbLine
 10
-0.5341158388799841
 20
-8.445425358824877
 30
0.0
 11
-6.519850881098705
 21
-8.858917806585623
 31
0.0
  0
LINE
  5
3F8
330
3D9
100
AcDbEntity
  8
03-01
100
AcDbLine
 10
-0.5341158388799841
 20
-8.445425358824877
 30
0.0
 11
-6.519850881098705
 21
-8.858917806585623
 31
0.0
  0
LINE
  5
3F9
330
3D9
100
AcDbEntity
  8
05-01
100
AcDbLine
 10
-1.397584399654192
 20
-12.31412946373888
 30
0.0
 11
-9.123115247973487
 21
-12.84780638698913
 31
0.0
  0
LINE
  5
3FA
330
3D9
100
AcDbEntity
  8
05-01
100
AcDbLine
 10
-5.52718828543891
 20
-8.718202501204359
 30
0.0
 11
-4.993511362188542
 21
-16.44373334952376
 31
0.0
  0
LINE
  5
3FB
330
3D9
100
AcDbEntity
  8
05-01
100
AcDbLine
 10
-2.432966427441328
 20
17.18464990179649
 30
0.0
 11
-10.15849727576085
 21
16.65097297854623
 31
0.0
  0
LINE
  5
3FC
330
3D9
100
AcDbEntity
  8
05-01
100
AcDbLine
 10
-6.562570313226274
 20
20.78057686433101
 30
0.0
 11
-6.028893389975905
 21
13.0550460160116
 31
0.0
  0
ARC
  5
3FD
330
3D9
100
AcDbEntity
  8
03-01
100
AcDbCircle
 10
-6.29573185160109
 20
16.91781144017136
 30
0.0
 40
4.0
100
AcDbArc
 50
3.951694224596971
 51
180.0907614972026
  0
LINE
  5
3FE
330
3D9
100
AcDbEntity
  8
03-01
100
AcDbLine
 10
-10.24846235899611
 20
-12.92554496516465
 30
0.0
 11
-10.29572683293906
 21
16.91147509498051
 31
0.0
  0
LINE
  5
3FF
330
3D9
100
AcDbEntity
  8
0
100
AcDbLine
 10
-14.66337783172082
 20
-38.79129630789123
 30
0.0
 11
-22.55437866810723
 21
-39.33640383906419
 31
0.0
  0
LINE
  5
400
330
3D9
100
AcDbEntity
  8
0
100
AcDbLine
 10
-22.79911172657546
 20
-39.56589331722194
 30
0.0
 11
-11.01522989852253
 21
-28.51598895072709
 31
0.0
  0
LINE
  5
401
330
3D9
100
AcDbEntity
  8
03-01
100
AcDbLine
 10
-11.01522989852253
 20
-28.51598895072709
 30
0.0
 11
-7.249621727930957
 21
-24.98492755908353
 31
0.0
  0
ARC
  5
402
330
3D9
100
AcDbEntity
  8
03-01
100
AcDbCircle
 10
-10.66974167615933
 20
-21.33762999242816
 30
0.0
 40
5.0
100
AcDbArc
 50
313.1588977295671
 51
3.951694224596971
  0
LINE
  5
403
330
3D9
100
AcDbEntity
  8
0
100
AcDbLine
 10
-18.06763965896027
 20
-41.98351837684924
 30
0.0
 11
-2.888099737054403
 21
-27.74945977782795
 31
0.0
  0
LINE
  5
404
330
3D9
100
AcDbEntity
  8
0
100
AcDbLine
 10
-25.61714025553317
 20
-49.45237020374566
 30
0.0
 11
-21.09592979311799
 21
-66.30000000000001
 31
0.0
  0
LINE
  5
405
330
3D9
100
AcDbEntity
  8
03-01
100
AcDbLine
 10
-21.75383288536739
 20
-48.41561750246047
 30
0.0
 11
-17.2326224229522
 21
-65.26324729871482
 31
0.0
  0
LINE
  5
406
330
3D9
100
AcDbEntity
  8
0
100
AcDbLine
 10
-20.3220624821264
 20
-49.89269988606816
 30
0.0
 11
-17.82192463233866
 21
-59.20909806814461
 31
0.0
  0
ARC
  5
407
330
3D9
100
AcDbEntity
  8
0
100
AcDbCircle
 10
-12.59544774179483
 20
-47.81919448349782
 30
0.0
 40
8.0
100
AcDbArc
 50
133.1588977295671
 51
195.0218968025367
  0
ARC
  5
408
330
3D9
100
AcDbEntity
  8
0
100
AcDbCircle
 10
-15.95887183011871
 20
-46.86048845053266
 30
0.0
 40
10.0
100
AcDbArc
 50
133.1588977295671
 51
195.0218968025367
  0
LINE
  5
409
330
3D9
100
AcDbEntity
  8
0
100
AcDbLine
 10
-21.09592979311799
 20
-66.30000000000001
 30
0.0
 11
-15.10780336936079
 21
-64.6930333130079
 31
0.0
  0
LINE
  5
40A
330
3D9
100
AcDbEntity
  8
0
100
AcDbLine
 10
-18.19844926549365
 20
-65.52243547403612
 30
0.0
 11
-16.78517193105324
 21
-63.07240543831056
 31
0.0
  0
ARC
  5
40B
330
3D9
100
AcDbEntity
  8
0
100
AcDbCircle
 10
-19.33178465103322
 20
-61.68504692140237
 30
0.0
 40
2.900000000000142
100
AcDbArc
 50
331.4190778298297
 51
58.62471577523518
  0
LINE
  5
40C
330
3D9
100
AcDbEntity
  8
0
100
AcDbLine
 10
-17.23141658599377
 20
-49.06329772504
 30
0.0
 11
-14.73127873620581
 21
-58.37969590711646
 31
0.0
  0
LINE
  5
40D
330
3D9
100
AcDbEntity
  8
0
100
AcDbLine
 10
-15.10780336936079
 20
-64.6930333130079
 30
0.0
 11
-13.69452603492061
 21
-62.24300327728236
 31
0.0
  0
ARC
  5
40E
330
3D9
100
AcDbEntity
  8
0
100
AcDbCircle
 10
-16.24113875490036
 20
-60.85564476037422
 30
0.0
 40
2.900000000000142
100
AcDbArc
 50
331.4190778298297
 51
58.62471577523518
  0
ARC
  5
40F
330
3D9
100
AcDbEntity
  8
0
100
AcDbCircle
 10
-9.504801845661972
 20
-46.98979232246967
 30
0.0
 40
8.0
100
AcDbArc
 50
137.8687577787712
 51
195.0218968025367
  0
LINE
  5
410
330
3D9
100
AcDbEntity
  8
0
100
AcDbLine
 10
-2.888099737054403
 20
-27.74945977782795
 30
0.0
 11
-15.43768313135717
 21
-41.62314349383843
 31
0.0
  0
ARC
  5
411
330
3D9
100
AcDbEntity
  8
03-01
100
AcDbCircle
 10
-12.0955644599527
 20
-45.82373574924747
 30
0.0
 40
10.0
100
AcDbArc
 50
133.1588977295671
 51
195.0218968025367
  0
LINE
  5
412
330
3D9
100
AcDbEntity
  8
03-01
100
AcDbLine
 10
-18.93580435640967
 20
-38.52914061593674
 30
0.0
 11
-15.70569377562344
 21
-35.50022251138484
 31
0.0
  0
LINE
  5
413
330
3D9
100
AcDbEntity
  8
0
100
AcDbLine
 10
0.0000000000001137
 20
-16.17730996929856
 30
0.0
 11
0.2478854368533803
 21
-19.76571056491616
 31
0.0
  0
ARC
  5
414
330
3D9
100
AcDbEntity
  8
0
100
AcDbCircle
 10
-9.045780962845242
 20
-20.51118470136322
 30
0.0
 40
9.3235168706339
100
AcDbArc
 50
345.9800071156151
 51
4.586055247681399
  0
ARC
  5
415
330
3D9
100
AcDbEntity
  8
03-01
100
AcDbCircle
 10
-9.728339633505015
 20
-20.45486464451903
 30
0.0
 40
9.99999999999342
100
AcDbArc
 50
339.2363669496883
 51
346.614368138701
  0
LINE
  5
416
330
3D9
100
AcDbEntity
  8
0
100
AcDbLine
 10
-9.447237311568528
 20
-24.52411434427125
 30
0.0
 11
-9.48344294405831
 21
-24.0
 31
0.0
  0
LINE
  5
417
330
3D9
100
AcDbEntity
  8
0
100
AcDbLine
 10
-7.003936904878893
 20
22.0
 30
0.0
 11
-4.575000000000025
 21
22.0
 31
0.0
  0
ENDBLK
  5
418
330
3D9
100
AcDbEntity
  8
0
100
AcDbBlockEnd
  0
BLOCK
  5
1F4
330
1F3
100
AcDbEntity
  8
0
100
AcDbBlockBegin
  2
Pumpe 037020-D
 70
     0
 10
0.0
 20
0.0
 30
0.0
  3
Pumpe 037020-D
  1

  0
LINE
  5
1F5
330
1F3
100
AcDbEntity
  8
0
100
AcDbLine
 10
-10.0
 20
-70.0
 30
0.0
 11
10.0
 21
-70.0
 31
0.0
  0
LINE
  5
1F6
330
1F3
100
AcDbEntity
  8
0
100
AcDbLine
 10
30.0
 20
-50.0
 30
0.0
 11
30.0
 21
0.0
 31
0.0
  0
LINE
  5
1F7
330
1F3
100
AcDbEntity
  8
0
100
AcDbLine
 10
30.0
 20
0.0
 30
0.0
 11
27.49999999999977
 21
0.0
 31
0.0
  0
LINE
  5
1F8
330
1F3
100
AcDbEntity
  8
0
100
AcDbLine
 10
25.0
 20
0.0
 30
0.0
 11
-25.0
 21
0.0
 31
0.0
  0
LINE
  5
1F9
330
1F3
100
AcDbEntity
  8
0
100
AcDbLine
 10
-27.5
 20
0.0
 30
0.0
 11
-30.0
 21
0.0
 31
0.0
  0
LINE
  5
1FA
330
1F3
100
AcDbEntity
  8
0
100
AcDbLine
 10
30.0
 20
-10.0
 30
0.0
 11
-30.0
 21
-10.0
 31
0.0
  0
LINE
  5
1FB
330
1F3
100
AcDbEntity
  8
0
100
AcDbLine
 10
-30.0
 20
0.0
 30
0.0
 11
-30.0
 21
-50.0
 31
0.0
  0
ARC
  5
1FC
330
1F3
100
AcDbEntity
  8
0
100
AcDbCircle
 10
-10.0
 20
-50.0
 30
0.0
 40
20.0
100
AcDbArc
 50
180.0
 51
270.0
  0
ARC
  5
1FD
330
1F3
100
AcDbEntity
  8
0
100
AcDbCircle
 10
10.0
 20
-50.0
 30
0.0
 40
20.0
100
AcDbArc
 50
270.0
 51
0.0
  0
CIRCLE
  5
1FE
330
1F3
100
AcDbEntity
  8
0
100
AcDbCircle
 10
0.0
 20
-35.10000000000008
 30
0.0
 40
13.90000000000003
  0
CIRCLE
  5
1FF
330
1F3
100
AcDbEntity
  8
0
100
AcDbCircle
 10
0.0
 20
-35.10000000000008
 30
0.0
 40
7.5
  0
LINE
  5
200
330
1F3
100
AcDbEntity
  8
0
100
AcDbLine
 10
-27.5
 20
0.0
 30
0.0
 11
-27.5
 21
-2.399999999999977
 31
0.0
  0
LINE
  5
201
330
1F3
100
AcDbEntity
  8
0
100
AcDbLine
 10
-27.5
 20
-2.399999999999977
 30
0.0
 11
-25.0
 21
-2.399999999999977
 31
0.0
  0
LINE
  5
202
330
1F3
100
AcDbEntity
  8
0
100
AcDbLine
 10
-25.0
 20
-2.399999999999977
 30
0.0
 11
-25.0
 21
0.0
 31
0.0
  0
LINE
  5
203
330
1F3
100
AcDbEntity
  8
0
100
AcDbLine
 10
25.0
 20
0.0
 30
0.0
 11
25.0
 21
-2.399999999999977
 31
0.0
  0
LINE
  5
204
330
1F3
100
AcDbEntity
  8
0
100
AcDbLine
 10
25.0
 20
-2.399999999999977
 30
0.0
 11
27.5
 21
-2.399999999999977
 31
0.0
  0
LINE
  5
205
330
1F3
100
AcDbEntity
  8
0
100
AcDbLine
 10
27.5
 20
-2.399999999999977
 30
0.0
 11
27.5
 21
0.0
 31
0.0
  0
LINE
  5
206
330
1F3
100
AcDbEntity
  8
0
100
AcDbLine
 10
-19.0
 20
-9.399999999999977
 30
0.0
 11
-19.0
 21
-4.399999999999977
 31
0.0
  0
LINE
  5
207
330
1F3
100
AcDbEntity
  8
0
100
AcDbLine
 10
-19.0
 20
-4.399999999999977
 30
0.0
 11
-11.0
 21
-4.399999999999977
 31
0.0
  0
LINE
  5
208
330
1F3
100
AcDbEntity
  8
0
100
AcDbLine
 10
-19.0
 20
-9.399999999999977
 30
0.0
 11
-11.0
 21
-9.399999999999977
 31
0.0
  0
LINE
  5
209
330
1F3
100
AcDbEntity
  8
0
100
AcDbLine
 10
-11.0
 20
-4.399999999999977
 30
0.0
 11
-11.0
 21
-9.399999999999977
 31
0.0
  0
LINE
  5
20A
330
1F3
100
AcDbEntity
  8
0
100
AcDbLine
 10
11.0
 20
-9.399999999999977
 30
0.0
 11
11.0
 21
-4.399999999999977
 31
0.0
  0
LINE
  5
20B
330
1F3
100
AcDbEntity
  8
0
100
AcDbLine
 10
11.0
 20
-4.399999999999977
 30
0.0
 11
19.0
 21
-4.399999999999977
 31
0.0
  0
LINE
  5
20C
330
1F3
100
AcDbEntity
  8
0
100
AcDbLine
 10
11.0
 20
-9.399999999999977
 30
0.0
 11
19.0
 21
-9.399999999999977
 31
0.0
  0
LINE
  5
20D
330
1F3
100
AcDbEntity
  8
0
100
AcDbLine
 10
19.0
 20
-4.399999999999977
 30
0.0
 11
19.0
 21
-9.399999999999977
 31
0.0
  0
ENDBLK
  5
20E
330
1F3
100
AcDbEntity
  8
0
100
AcDbBlockEnd
  0
BLOCK
  5
221
330
21E
100
AcDbEntity
  8
0
100
AcDbBlockBegin
  2
DIN A3
 70
     2
 10
0.0
 20
0.0
 30
0.0
  3
DIN A3
  1

  0
LINE
  5
222
330
21E
100
AcDbEntity
  8
01-99
100
AcDbLine
 10
412.9999997697348
 20
290.0000007613509
 30
0.0
 11
6.999999769775513
 21
290.0000007613508
 31
0.0
  0
LINE
  5
226
330
21E
100
AcDbEntity
  8
01-99
100
AcDbLine
 10
6.999999769775286
 20
7.000000761378942
 30
0.0
 11
6.999999769775513
 21
290.0000007613508
 31
0.0
  0
LINE
  5
227
330
21E
100
AcDbEntity
  8
02-01
100
AcDbLine
 10
419.9999997697341
 20
297.0000007613501
 30
0.0
 11
-0.0000002302240318
 21
297.0000007613501
 31
0.0
  0
LINE
  5
22B
330
21E
100
AcDbEntity
  8
02-01
100
AcDbLine
 10
-0.0000002302240318
 20
297.0000007613501
 30
0.0
 11
-0.0000002302240318
 21
0.0000007613796242
 31
0.0
  0
LINE
  5
22C
330
21E
100
AcDbEntity
  8
02-01
100
AcDbLine
 10
-0.0000002302240318
 20
0.0000007613796242
 30
0.0
 11
419.9999997697341
 21
0.0000007613796242
 31
0.0
  0
LINE
  5
22D
330
21E
100
AcDbEntity
  8
02-01
100
AcDbLine
 10
419.9999997697341
 20
0.0000007613796242
 30
0.0
 11
419.9999997697341
 21
297.0000007613501
 31
0.0
  0
LINE
  5
22E
330
21E
100
AcDbEntity
  8
01-99
100
AcDbLine
 10
412.9999997697348
 20
290.0000007613509
 30
0.0
 11
412.9999997697348
 21
7.000000761379055
 31
0.0
  0
LINE
  5
22F
330
21E
100
AcDbEntity
  8
01-99
100
AcDbLine
 10
412.9999997697348
 20
7.000000761379055
 30
0.0
 11
6.999999769775286
 21
7.000000761378942
 31
0.0
  0
LINE
  5
230
330
21E
100
AcDbEntity
  8
01-99
100
AcDbLine
 10
412.9999997697348
 20
53.00000076137905
 30
0.0
 11
228.999999769733
 21
53.00000076137894
 31
0.0
  0
LINE
  5
231
330
21E
100
AcDbEntity
  8
01-99
100
AcDbLine
 10
228.999999769733
 20
53.00000076137894
 30
0.0
 11
228.999999769733
 21
7.000000761378942
 31
0.0
  0
LINE
  5
232
330
21E
100
AcDbEntity
  8
01-99
100
AcDbLine
 10
278.9999997697348
 20
12.11111187237895
 30
0.0
 11
228.9999997697348
 21
12.11111187237895
 31
0.0
  0
LINE
  5
233
330
21E
100
AcDbEntity
  8
01-99
100
AcDbLine
 10
278.9999997697348
 20
17.22222298337897
 30
0.0
 11
228.9999997697348
 21
17.22222298337897
 31
0.0
  0
LINE
  5
234
330
21E
100
AcDbEntity
  8
01-99
100
AcDbLine
 10
278.9999997697348
 20
22.33333409437898
 30
0.0
 11
228.9999997697348
 21
22.33333409437893
 31
0.0
  0
LINE
  5
235
330
21E
100
AcDbEntity
  8
01-99
100
AcDbLine
 10
323.9999997697348
 20
27.444445205379
 30
0.0
 11
228.9999997697348
 21
27.44444520537894
 31
0.0
  0
LINE
  5
236
330
21E
100
AcDbEntity
  8
01-99
100
AcDbLine
 10
323.9999997697348
 20
32.55555631637901
 30
0.0
 11
228.9999997697348
 21
32.55555631637895
 31
0.0
  0
LINE
  5
237
330
21E
100
AcDbEntity
  8
01-99
100
AcDbLine
 10
253.9999997697348
 20
7.000000761378942
 30
0.0
 11
253.9999997697348
 21
12.11111187237895
 31
0.0
  0
LINE
  5
238
330
21E
100
AcDbEntity
  8
01-99
100
AcDbLine
 10
236.9999997697348
 20
12.11111187237895
 30
0.0
 11
236.9999997697348
 21
37.66666742804563
 31
0.0
  0
LINE
  5
239
330
21E
100
AcDbEntity
  8
01-99
100
AcDbLine
 10
278.9999997697348
 20
7.000000761378942
 30
0.0
 11
278.9999997697348
 21
53.00000076137894
 31
0.0
  0
LINE
  5
23A
330
21E
100
AcDbEntity
  8
01-99
100
AcDbLine
 10
323.9999997697348
 20
7.000000761378942
 30
0.0
 11
323.9999997697348
 21
53.00000076137894
 31
0.0
  0
LINE
  5
23B
330
21E
100
AcDbEntity
  8
01-99
100
AcDbLine
 10
353.4999997697348
 20
7.000000761378942
 30
0.0
 11
353.4999997697348
 21
17.22222298337903
 31
0.0
  0
LINE
  5
23C
330
21E
100
AcDbEntity
  8
01-99
100
AcDbLine
 10
385.9999997697348
 20
7.000000761378942
 30
0.0
 11
385.9999997697348
 21
17.22222298337908
 31
0.0
  0
LINE
  5
23D
330
21E
100
AcDbEntity
  8
01-99
100
AcDbLine
 10
357.4999997697348
 20
37.66666742804569
 30
0.0
 11
357.4999997697348
 21
53.00000076137905
 31
0.0
  0
LINE
  5
23E
330
21E
100
AcDbEntity
  8
01-99
100
AcDbLine
 10
390.9999997697348
 20
37.66666742804569
 30
0.0
 11
390.9999997697348
 21
53.00000076137905
 31
0.0
  0
LINE
  5
23F
330
21E
100
AcDbEntity
  8
01-99
100
AcDbLine
 10
286.9999997697348
 20
22.33333409471232
 30
0.0
 11
286.9999997697348
 21
37.66666742804569
 31
0.0
  0
LINE
  5
240
330
21E
100
AcDbEntity
  8
01-99
100
AcDbLine
 10
269.0031881091643
 20
12.11111187237895
 30
0.0
 11
269.0031881091643
 21
37.66666742804563
 31
0.0
  0
LINE
  5
241
330
21E
100
AcDbEntity
  8
01-99
100
AcDbLine
 10
257.0031881091643
 20
12.11111187237895
 30
0.0
 11
257.0031881091643
 21
37.66666742804563
 31
0.0
  0
LINE
  5
242
330
21E
100
AcDbEntity
  8
01-99
100
AcDbLine
 10
323.9999997697348
 20
22.33333409471232
 30
0.0
 11
278.9999997697348
 21
22.33333409471232
 31
0.0
  0
LINE
  5
243
330
21E
100
AcDbEntity
  8
01-99
100
AcDbLine
 10
323.9999997697348
 20
37.66666742804569
 30
0.0
 11
228.9999997697348
 21
37.66666742804557
 31
0.0
  0
LINE
  5
244
330
21E
100
AcDbEntity
  8
01-99
100
AcDbLine
 10
300.9999997697348
 20
22.33333409471232
 30
0.0
 11
300.9999997697348
 21
53.000000761379
 31
0.0
  0
LINE
  5
245
330
21E
100
AcDbEntity
  8
01-99
100
AcDbLine
 10
278.9999997697348
 20
37.66666742804563
 30
0.0
 11
286.9999997697348
 21
32.55555632804567
 31
0.0
  0
LINE
  5
246
330
21E
100
AcDbEntity
  8
01-99
100
AcDbLine
 10
278.9999997697348
 20
32.55555632804567
 30
0.0
 11
286.9999997697348
 21
37.66666742804569
 31
0.0
  0
LINE
  5
247
330
21E
100
AcDbEntity
  8
01-99
100
AcDbLine
 10
412.9999997697348
 20
45.33333409471231
 30
0.0
 11
323.9999997697349
 21
45.33333409471225
 31
0.0
  0
LINE
  5
248
330
21E
100
AcDbEntity
  8
01-99
100
AcDbLine
 10
323.9999997697348
 20
17.22222298337897
 30
0.0
 11
412.9999997697348
 21
17.22222298337908
 31
0.0
  0
LINE
  5
249
330
21E
100
AcDbEntity
  8
01-99
100
AcDbLine
 10
323.9999997697348
 20
37.66666742804569
 30
0.0
 11
412.9999997697348
 21
37.66666742804574
 31
0.0
  0
LINE
  5
24A
330
21E
100
AcDbEntity
  8
01-99
100
AcDbLine
 10
300.9999997697348
 20
42.77777853937897
 30
0.0
 11
278.9999997697348
 21
42.77777853937897
 31
0.0
  0
LINE
  5
24B
330
21E
100
AcDbEntity
  8
01-99
100
AcDbLine
 10
300.9999997697348
 20
47.88888965037898
 30
0.0
 11
278.9999997697348
 21
47.88888965037893
 31
0.0
  0
TEXT
  5
24C
330
21E
100
AcDbEntity
  8
08-99
100
AcDbText
 10
325.4997009380411
 20
33.6698744692369
 30
0.0
 40
2.5
  1
Benennung/Teil:
 51
15.0
  7
ROMANS8
100
AcDbText
  0
TEXT
  5
251
330
21E
100
AcDbEntity
  8
08-99
100
AcDbText
 10
387.5028272173022
 20
13.01760345560962
 30
0.0
 40
2.7
  1
Ident-Nr.
 51
15.0
  7
ROMANS8
100
AcDbText
  0
TEXT
  5
252
330
21E
100
AcDbEntity
  8
08-99
100
AcDbText
 10
302.5000215029029
 20
34.05557772316138
 30
0.0
 40
2.5
  1
Name:
 51
15.0
  7
ROMANS8
100
AcDbText
  0
TEXT
  5
253
330
21E
100
AcDbEntity
  8
08-99
100
AcDbText
 10
288.5077689122797
 20
34.04841872238342
 30
0.0
 40
2.5
  1
Datum:
 50
0.102528160689452
 41
0.8933771909280748
 51
15.0
  7
ROMANS8
 72
     5
 11
299.6749659193617
 21
34.0684019288434
 31
0.0
100
AcDbText
  0
TEXT
  5
254
330
21E
100
AcDbEntity
  8
08-99
100
AcDbText
 10
238.5000078514702
 20
34.05597786035884
 30
0.0
 40
1.6
  1
Änderung:
 51
15.0
  7
ROMANS8
100
AcDbText
  0
TEXT
  5
255
330
21E
100
AcDbEntity
  8
08-99
100
AcDbText
 10
255.4999378454877
 20
10.11112006054139
 30
0.0
 40
1.0
  1
ERSETZT.DURCH:
 51
15.0
  7
ROMANS8
100
AcDbText
  0
TEXT
  5
256
330
21E
100
AcDbEntity
  8
08-99
100
AcDbText
 10
230.4993605854065
 20
10.11085496431519
 30
0.0
 40
1.0
  1
ERSETZT.FÜR:
 51
15.0
  7
ROMANS8
100
AcDbText
  0
TEXT
  5
257
330
21E
100
AcDbEntity
  8
08-99
100
AcDbText
 10
354.990906611889
 20
13.61295762544273
 30
0.0
 40
2.112
  1
AUFTRAGS.NR.:
 51
15.0
  7
ROMANS8
100
AcDbText
  0
TEXT
  5
258
330
21E
100
AcDbEntity
  8
08-99
100
AcDbText
 10
325.5034639747472
 20
13.61092941740929
 30
0.0
 40
2.112
  1
Sonder-Nr:
 51
15.0
  7
ROMANS8
100
AcDbText
  0
TEXT
  5
259
330
21E
100
AcDbEntity
  8
08-99
100
AcDbText
 10
308.6963072648131
 20
50.92370926842125
 30
0.0
 40
1.349999999999999
  1
Format
 51
15.0
  7
ROMANS8
100
AcDbText
  0
TEXT
  5
25A
330
21E
100
AcDbEntity
  8
08-99
100
AcDbText
 10
307.3043795165026
 20
45.64161955447966
 30
0.0
 40
1.822499999999999
  1
Normen
 51
15.0
  7
ROMANS8
100
AcDbText
  0
TEXT
  5
25B
330
21E
100
AcDbEntity
  8
08-99
100
AcDbText
 10
230.5000293736364
 20
34.05556859693707
 30
0.0
 40
1.6
  1
Zust.
 51
15.0
  7
ROMANS8
100
AcDbText
  0
TEXT
  5
25C
330
21E
100
AcDbEntity
  8
08-99
100
AcDbText
 10
258.503180470904
 20
34.0555600128755
 30
0.0
 40
1.6
  1
Datum:
 51
15.0
  7
ROMANS8
100
AcDbText
  0
TEXT
  5
25D
330
21E
100
AcDbEntity
  8
08-99
100
AcDbText
 10
270.5032133866668
 20
34.05556481932439
 30
0.0
 40
1.6
  1
Name:
 51
15.0
  7
ROMANS8
100
AcDbText
  0
TEXT
  5
25E
330
21E
100
AcDbEntity
  8
08-99
100
AcDbText
 10
280.154554215326
 20
29.0381403293278
 30
0.0
 40
1.6
  1
Erst.
 51
15.0
  7
ROMANS8
100
AcDbText
  0
TEXT
  5
25F
330
21E
100
AcDbEntity
  8
08-99
100
AcDbText
 10
279.5171801320455
 20
24.19745182079998
 30
0.0
 40
1.6
  1
Bearb.
 51
15.0
  7
ROMANS8
100
AcDbText
  0
TEXT
  5
260
330
21E
100
AcDbEntity
  8
08-99
100
AcDbText
 10
358.4308046815029
 20
42.61949825408587
 30
0.0
 40
2.0
  1
Zuschnittsbreite:
 51
15.0
  7
ROMANS8
100
AcDbText
  0
TEXT
  5
261
330
21E
100
AcDbEntity
  8
08-99
100
AcDbText
 10
324.984994543767
 20
42.73762438949257
 30
0.0
 40
2.0
  1
Zuschnittslänge:
 51
15.0
  7
ROMANS8
100
AcDbText
  0
LINE
  5
262
330
21E
100
AcDbEntity
  8
06-99
100
AcDbLine
 10
302.7675395817348
 20
19.87656561071236
 30
0.0
 11
303.0090469137349
 21
20.08724790671238
 31
0.0
  0
LINE
  5
267
330
21E
100
AcDbEntity
  8
06-99
100
AcDbLine
 10
303.0090469137349
 20
20.08724790671238
 30
0.0
 11
302.9228515737349
 21
20.22625816271227
 31
0.0
  0
LINE
  5
268
330
21E
100
AcDbEntity
  8
06-99
100
AcDbLine
 10
302.9228515737349
 20
20.22625816271227
 30
0.0
 11
302.8242642057348
 21
20.35180719071241
 31
0.0
  0
LINE
  5
269
330
21E
100
AcDbEntity
  8
06-99
100
AcDbLine
 10
302.8242642057348
 20
20.35180719071241
 30
0.0
 11
302.713626953735
 21
20.4639413227124
 31
0.0
  0
LINE
  5
26A
330
21E
100
AcDbEntity
  8
06-99
100
AcDbLine
 10
302.713626953735
 20
20.4639413227124
 30
0.0
 11
302.5912962177348
 21
20.56271401871226
 31
0.0
  0
LINE
  5
26B
330
21E
100
AcDbEntity
  8
06-99
100
AcDbLine
 10
302.5912962177348
 20
20.56271401871226
 30
0.0
 11
302.4576141417349
 21
20.64816448271233
 31
0.0
  0
LINE
  5
26C
330
21E
100
AcDbEntity
  8
06-99
100
AcDbLine
 10
302.4576141417349
 20
20.64816448271233
 30
0.0
 11
302.3129264337349
 21
20.7203390467123
 31
0.0
  0
LINE
  5
26D
330
21E
100
AcDbEntity
  8
06-99
100
AcDbLine
 10
302.3129264337349
 20
20.7203390467123
 30
0.0
 11
302.1575859297349
 21
20.77929117071233
 31
0.0
  0
LINE
  5
26E
330
21E
100
AcDbEntity
  8
06-99
100
AcDbLine
 10
302.1575859297349
 20
20.77929117071233
 30
0.0
 11
301.991934773735
 21
20.82506005871232
 31
0.0
  0
LINE
  5
26F
330
21E
100
AcDbEntity
  8
06-99
100
AcDbLine
 10
301.991934773735
 20
20.82506005871232
 30
0.0
 11
301.8163222377349
 21
20.85769204271242
 31
0.0
  0
LINE
  5
270
330
21E
100
AcDbEntity
  8
06-99
100
AcDbLine
 10
301.8163222377349
 20
20.85769204271242
 30
0.0
 11
301.631097593735
 21
20.87724058271238
 31
0.0
  0
LINE
  5
271
330
21E
100
AcDbEntity
  8
06-99
100
AcDbLine
 10
301.631097593735
 20
20.87724058271238
 30
0.0
 11
301.436606549735
 21
20.88374488271234
 31
0.0
  0
LINE
  5
272
330
21E
100
AcDbEntity
  8
06-99
100
AcDbLine
 10
301.436606549735
 20
20.88374488271234
 30
0.0
 11
301.2756812577348
 21
20.87768251871233
 31
0.0
  0
LINE
  5
273
330
21E
100
AcDbEntity
  8
06-99
100
AcDbLine
 10
301.2756812577348
 20
20.87768251871233
 30
0.0
 11
301.1199415857348
 21
20.85975916271229
 31
0.0
  0
LINE
  5
274
330
21E
100
AcDbEntity
  8
06-99
100
AcDbLine
 10
301.1199415857348
 20
20.85975916271229
 30
0.0
 11
300.969718985735
 21
20.83036329071246
 31
0.0
  0
LINE
  5
275
330
21E
100
AcDbEntity
  8
06-99
100
AcDbLine
 10
300.969718985735
 20
20.83036329071246
 30
0.0
 11
300.825348473735
 21
20.78989050671231
 31
0.0
  0
LINE
  5
276
330
21E
100
AcDbEntity
  8
06-99
100
AcDbLine
 10
300.825348473735
 20
20.78989050671231
 30
0.0
 11
300.6871615017349
 21
20.73873641471243
 31
0.0
  0
LINE
  5
277
330
21E
100
AcDbEntity
  8
06-99
100
AcDbLine
 10
300.6871615017349
 20
20.73873641471243
 30
0.0
 11
300.5554823937349
 21
20.67729305471232
 31
0.0
  0
LINE
  5
278
330
21E
100
AcDbEntity
  8
06-99
100
AcDbLine
 10
300.5554823937349
 20
20.67729305471232
 30
0.0
 11
300.4306532937349
 21
20.60595246671232
 31
0.0
  0
LINE
  5
279
330
21E
100
AcDbEntity
  8
06-99
100
AcDbLine
 10
300.4306532937349
 20
20.60595246671232
 30
0.0
 11
300.3129985257349
 21
20.52510669071228
 31
0.0
  0
LINE
  5
27A
330
21E
100
AcDbEntity
  8
06-99
100
AcDbLine
 10
300.3129985257349
 20
20.52510669071228
 30
0.0
 11
300.2028495417349
 21
20.43514776671236
 31
0.0
  0
LINE
  5
27B
330
21E
100
AcDbEntity
  8
06-99
100
AcDbLine
 10
300.2028495417349
 20
20.43514776671236
 30
0.0
 11
300.1005449217349
 21
20.33647486271235
 31
0.0
  0
LINE
  5
27C
330
21E
100
AcDbEntity
  8
06-99
100
AcDbLine
 10
300.1005449217349
 20
20.33647486271235
 30
0.0
 11
300.006405425735
 21
20.22947289071237
 31
0.0
  0
LINE
  5
27D
330
21E
100
AcDbEntity
  8
06-99
100
AcDbLine
 10
300.006405425735
 20
20.22947289071237
 30
0.0
 11
299.920769633735
 21
20.11454458271237
 31
0.0
  0
LINE
  5
27E
330
21E
100
AcDbEntity
  8
06-99
100
AcDbLine
 10
299.920769633735
 20
20.11454458271237
 30
0.0
 11
299.8439689977349
 21
19.99207485071235
 31
0.0
  0
LINE
  5
27F
330
21E
100
AcDbEntity
  8
06-99
100
AcDbLine
 10
299.8439689977349
 20
19.99207485071235
 30
0.0
 11
299.7763314057349
 21
19.86245929871239
 31
0.0
  0
LINE
  5
280
330
21E
100
AcDbEntity
  8
06-99
100
AcDbLine
 10
299.7763314057349
 20
19.86245929871239
 30
0.0
 11
299.7181918737349
 21
19.72608996671232
 31
0.0
  0
LINE
  5
281
330
21E
100
AcDbEntity
  8
06-99
100
AcDbLine
 10
299.7181918737349
 20
19.72608996671232
 30
0.0
 11
299.6698782897349
 21
19.58336602271231
 31
0.0
  0
LINE
  5
282
330
21E
100
AcDbEntity
  8
06-99
100
AcDbLine
 10
299.6698782897349
 20
19.58336602271231
 30
0.0
 11
299.631722105735
 21
19.43467237871232
 31
0.0
  0
LINE
  5
283
330
21E
100
AcDbEntity
  8
06-99
100
AcDbLine
 10
299.631722105735
 20
19.43467237871232
 30
0.0
 11
299.6040619017348
 21
19.28040820271229
 31
0.0
  0
LINE
  5
284
330
21E
100
AcDbEntity
  8
06-99
100
AcDbLine
 10
299.6040619017348
 20
19.28040820271229
 30
0.0
 11
299.5872184377349
 21
19.12096197071235
 31
0.0
  0
LINE
  5
285
330
21E
100
AcDbEntity
  8
06-99
100
AcDbLine
 10
299.5872184377349
 20
19.12096197071235
 30
0.0
 11
299.5815338577349
 21
18.95672928671234
 31
0.0
  0
LINE
  5
286
330
21E
100
AcDbEntity
  8
06-99
100
AcDbLine
 10
299.5815338577349
 20
18.95672928671234
 30
0.0
 11
299.5871471577349
 21
18.7876246147124
 31
0.0
  0
LINE
  5
287
330
21E
100
AcDbEntity
  8
06-99
100
AcDbLine
 10
299.5871471577349
 20
18.7876246147124
 30
0.0
 11
299.603798165735
 21
18.62429005871234
 31
0.0
  0
LINE
  5
288
330
21E
100
AcDbEntity
  8
06-99
100
AcDbLine
 10
299.603798165735
 20
18.62429005871234
 30
0.0
 11
299.6311875057347
 21
18.46704281471233
 31
0.0
  0
LINE
  5
289
330
21E
100
AcDbEntity
  8
06-99
100
AcDbLine
 10
299.6311875057347
 20
18.46704281471233
 30
0.0
 11
299.6690158017348
 21
18.31619651471226
 31
0.0
  0
LINE
  5
28A
330
21E
100
AcDbEntity
  8
06-99
100
AcDbLine
 10
299.6690158017348
 20
18.31619651471226
 30
0.0
 11
299.7169872417348
 21
18.17206479071234
 31
0.0
  0
LINE
  5
28B
330
21E
100
AcDbEntity
  8
06-99
100
AcDbLine
 10
299.7169872417348
 20
18.17206479071234
 30
0.0
 11
299.774806013735
 21
18.03496127471237
 31
0.0
  0
LINE
  5
28C
330
21E
100
AcDbEntity
  8
06-99
100
AcDbLine
 10
299.774806013735
 20
18.03496127471237
 30
0.0
 11
299.8421763057349
 21
17.90519603471233
 31
0.0
  0
LINE
  5
28D
330
21E
100
AcDbEntity
  8
06-99
100
AcDbLine
 10
299.8421763057349
 20
17.90519603471233
 30
0.0
 11
299.9187987417349
 21
17.7830862667123
 31
0.0
  0
LINE
  5
28E
330
21E
100
AcDbEntity
  8
06-99
100
AcDbLine
 10
299.9187987417349
 20
17.7830862667123
 30
0.0
 11
300.0043775097349
 21
17.66894203871231
 31
0.0
  0
LINE
  5
28F
330
21E
100
AcDbEntity
  8
06-99
100
AcDbLine
 10
300.0043775097349
 20
17.66894203871231
 30
0.0
 11
300.0986203617349
 21
17.56308054671234
 31
0.0
  0
LINE
  5
290
330
21E
100
AcDbEntity
  8
06-99
100
AcDbLine
 10
300.0986203617349
 20
17.56308054671234
 30
0.0
 11
300.2012207937348
 21
17.46581185871235
 31
0.0
  0
LINE
  5
291
330
21E
100
AcDbEntity
  8
06-99
100
AcDbLine
 10
300.2012207937348
 20
17.46581185871235
 30
0.0
 11
300.3118936857348
 21
17.37745317071227
 31
0.0
  0
LINE
  5
292
330
21E
100
AcDbEntity
  8
06-99
100
AcDbLine
 10
300.3118936857348
 20
17.37745317071227
 30
0.0
 11
300.430332533735
 21
17.2983145507124
 31
0.0
  0
LINE
  5
293
330
21E
100
AcDbEntity
  8
06-99
100
AcDbLine
 10
300.430332533735
 20
17.2983145507124
 30
0.0
 11
300.5562450897348
 21
17.22870963071239
 31
0.0
  0
LINE
  5
294
330
21E
100
AcDbEntity
  8
06-99
100
AcDbLine
 10
300.5562450897348
 20
17.22870963071239
 30
0.0
 11
300.6893319777348
 21
17.1689556067123
 31
0.0
  0
LINE
  5
295
330
21E
100
AcDbEntity
  8
06-99
100
AcDbLine
 10
300.6893319777348
 20
17.1689556067123
 30
0.0
 11
300.8293009497348
 21
17.11936254671235
 31
0.0
  0
LINE
  5
296
330
21E
100
AcDbEntity
  8
06-99
100
AcDbLine
 10
300.8293009497348
 20
17.11936254671235
 30
0.0
 11
300.975849065735
 21
17.0802440827124
 31
0.0
  0
LINE
  5
297
330
21E
100
AcDbEntity
  8
06-99
100
AcDbLine
 10
300.975849065735
 20
17.0802440827124
 30
0.0
 11
301.1286876417348
 21
17.05191384671241
 31
0.0
  0
LINE
  5
298
330
21E
100
AcDbEntity
  8
06-99
100
AcDbLine
 10
301.1286876417348
 20
17.05191384671241
 30
0.0
 11
301.2875101737348
 21
17.03468547071236
 31
0.0
  0
LINE
  5
299
330
21E
100
AcDbEntity
  8
06-99
100
AcDbLine
 10
301.2875101737348
 20
17.03468547071236
 30
0.0
 11
301.4520279777349
 21
17.02887258671239
 31
0.0
  0
LINE
  5
29A
330
21E
100
AcDbEntity
  8
06-99
100
AcDbLine
 10
301.4520279777349
 20
17.02887258671239
 30
0.0
 11
301.616025437735
 21
17.03412592271235
 31
0.0
  0
LINE
  5
29B
330
21E
100
AcDbEntity
  8
06-99
100
AcDbLine
 10
301.616025437735
 20
17.03412592271235
 30
0.0
 11
301.7733582177349
 21
17.04976475471238
 31
0.0
  0
LINE
  5
29C
330
21E
100
AcDbEntity
  8
06-99
100
AcDbLine
 10
301.7733582177349
 20
17.04976475471238
 30
0.0
 11
301.9238374257349
 21
17.07559662671235
 31
0.0
  0
LINE
  5
29D
330
21E
100
AcDbEntity
  8
06-99
100
AcDbLine
 10
301.9238374257349
 20
17.07559662671235
 30
0.0
 11
302.0672741697348
 21
17.11142908271239
 31
0.0
  0
LINE
  5
29E
330
21E
100
AcDbEntity
  8
06-99
100
AcDbLine
 10
302.0672741697348
 20
17.11142908271239
 30
0.0
 11
302.203483121735
 21
17.15707323071234
 31
0.0
  0
LINE
  5
29F
330
21E
100
AcDbEntity
  8
06-99
100
AcDbLine
 10
302.203483121735
 20
17.15707323071234
 30
0.0
 11
302.3322718257348
 21
17.21234017871234
 31
0.0
  0
LINE
  5
2A0
330
21E
100
AcDbEntity
  8
06-99
100
AcDbLine
 10
302.3322718257348
 20
17.21234017871234
 30
0.0
 11
302.4534549537349
 21
17.27703747071234
 31
0.0
  0
LINE
  5
2A1
330
21E
100
AcDbEntity
  8
06-99
100
AcDbLine
 10
302.4534549537349
 20
17.27703747071234
 30
0.0
 11
302.5668364857349
 21
17.35097977871237
 31
0.0
  0
LINE
  5
2A2
330
21E
100
AcDbEntity
  8
06-99
100
AcDbLine
 10
302.5668364857349
 20
17.35097977871237
 30
0.0
 11
302.6722382217349
 21
17.43397464671233
 31
0.0
  0
LINE
  5
2A3
330
21E
100
AcDbEntity
  8
06-99
100
AcDbLine
 10
302.6722382217349
 20
17.43397464671233
 30
0.0
 11
302.7694605777349
 21
17.52582605471235
 31
0.0
  0
LINE
  5
2A4
330
21E
100
AcDbEntity
  8
06-99
100
AcDbLine
 10
302.7694605777349
 20
17.52582605471235
 30
0.0
 11
302.8583217897349
 21
17.62635580271234
 31
0.0
  0
LINE
  5
2A5
330
21E
100
AcDbEntity
  8
06-99
100
AcDbLine
 10
302.8583217897349
 20
17.62635580271234
 30
0.0
 11
302.938632965735
 21
17.73536074271232
 31
0.0
  0
LINE
  5
2A6
330
21E
100
AcDbEntity
  8
06-99
100
AcDbLine
 10
302.938632965735
 20
17.73536074271232
 30
0.0
 11
303.0102016497349
 21
17.85266267471235
 31
0.0
  0
LINE
  5
2A7
330
21E
100
AcDbEntity
  8
06-99
100
AcDbLine
 10
303.0102016497349
 20
17.85266267471235
 30
0.0
 11
303.0728389497349
 21
17.97806201471235
 31
0.0
  0
LINE
  5
2A8
330
21E
100
AcDbEntity
  8
06-99
100
AcDbLine
 10
303.0728389497349
 20
17.97806201471235
 30
0.0
 11
303.126359537735
 21
18.11137343471228
 31
0.0
  0
LINE
  5
2A9
330
21E
100
AcDbEntity
  8
06-99
100
AcDbLine
 10
303.126359537735
 20
18.11137343471228
 30
0.0
 11
303.1705745217348
 21
18.25240447871232
 31
0.0
  0
LINE
  5
2AA
330
21E
100
AcDbEntity
  8
06-99
100
AcDbLine
 10
303.1705745217348
 20
18.25240447871232
 30
0.0
 11
303.2052878817349
 21
18.40096625471233
 31
0.0
  0
LINE
  5
2AB
330
21E
100
AcDbEntity
  8
06-99
100
AcDbLine
 10
303.2052878817349
 20
18.40096625471233
 30
0.0
 11
303.2303214177349
 21
18.55686987071237
 31
0.0
  0
LINE
  5
2AC
330
21E
100
AcDbEntity
  8
06-99
100
AcDbLine
 10
303.2303214177349
 20
18.55686987071237
 30
0.0
 11
303.245479109735
 21
18.7199264347123
 31
0.0
  0
LINE
  5
2AD
330
21E
100
AcDbEntity
  8
06-99
100
AcDbLine
 10
303.245479109735
 20
18.7199264347123
 30
0.0
 11
303.2505720657348
 21
18.88993992671231
 31
0.0
  0
LINE
  5
2AE
330
21E
100
AcDbEntity
  8
06-99
100
AcDbLine
 10
303.2505720657348
 20
18.88993992671231
 30
0.0
 11
303.2505720657348
 21
18.88993992671231
 31
0.0
  0
LINE
  5
2AF
330
21E
100
AcDbEntity
  8
06-99
100
AcDbLine
 10
303.2505720657348
 20
18.88993992671231
 30
0.0
 11
303.2505720657348
 21
18.94132211471236
 31
0.0
  0
LINE
  5
2B0
330
21E
100
AcDbEntity
  8
06-99
100
AcDbLine
 10
303.2505720657348
 20
18.94132211471236
 30
0.0
 11
301.6164638097349
 21
18.94132211471236
 31
0.0
  0
LINE
  5
2B1
330
21E
100
AcDbEntity
  8
06-99
100
AcDbLine
 10
301.6164638097349
 20
18.94132211471236
 30
0.0
 11
301.6164638097349
 21
18.65355049871232
 31
0.0
  0
LINE
  5
2B2
330
21E
100
AcDbEntity
  8
06-99
100
AcDbLine
 10
301.6164638097349
 20
18.65355049871232
 30
0.0
 11
302.8857253857347
 21
18.65355049871232
 31
0.0
  0
LINE
  5
2B3
330
21E
100
AcDbEntity
  8
06-99
100
AcDbLine
 10
302.8857253857347
 20
18.65355049871232
 30
0.0
 11
302.8749870537348
 21
18.49100715071233
 31
0.0
  0
LINE
  5
2B4
330
21E
100
AcDbEntity
  8
06-99
100
AcDbLine
 10
302.8749870537348
 20
18.49100715071233
 30
0.0
 11
302.8476547377348
 21
18.33636162671234
 31
0.0
  0
LINE
  5
2B5
330
21E
100
AcDbEntity
  8
06-99
100
AcDbLine
 10
302.8476547377348
 20
18.33636162671234
 30
0.0
 11
302.804434109735
 21
18.19027683071238
 31
0.0
  0
LINE
  5
2B6
330
21E
100
AcDbEntity
  8
06-99
100
AcDbLine
 10
302.804434109735
 20
18.19027683071238
 30
0.0
 11
302.7460308417349
 21
18.05341923071233
 31
0.0
  0
LINE
  5
2B7
330
21E
100
AcDbEntity
  8
06-99
100
AcDbLine
 10
302.7460308417349
 20
18.05341923071233
 30
0.0
 11
302.673157733735
 21
17.92644460271236
 31
0.0
  0
LINE
  5
2B8
330
21E
100
AcDbEntity
  8
06-99
100
AcDbLine
 10
302.673157733735
 20
17.92644460271236
 30
0.0
 11
302.586524021735
 21
17.81002654271236
 31
0.0
  0
LINE
  5
2B9
330
21E
100
AcDbEntity
  8
06-99
100
AcDbLine
 10
302.586524021735
 20
17.81002654271236
 30
0.0
 11
302.4868282497349
 21
17.70481726271237
 31
0.0
  0
LINE
  5
2BA
330
21E
100
AcDbEntity
  8
06-99
100
AcDbLine
 10
302.4868282497349
 20
17.70481726271237
 30
0.0
 11
302.3747867817349
 21
17.61149035871233
 31
0.0
  0
LINE
  5
2BB
330
21E
100
AcDbEntity
  8
06-99
100
AcDbLine
 10
302.3747867817349
 20
17.61149035871233
 30
0.0
 11
302.2511052897348
 21
17.53069804271234
 31
0.0
  0
LINE
  5
2BC
330
21E
100
AcDbEntity
  8
06-99
100
AcDbLine
 10
302.2511052897348
 20
17.53069804271234
 30
0.0
 11
302.116489445735
 21
17.46311034671237
 31
0.0
  0
LINE
  5
2BD
330
21E
100
AcDbEntity
  8
06-99
100
AcDbLine
 10
302.116489445735
 20
17.46311034671237
 30
0.0
 11
301.9716484857348
 21
17.40938661071232
 31
0.0
  0
LINE
  5
2BE
330
21E
100
AcDbEntity
  8
06-99
100
AcDbLine
 10
301.9716484857348
 20
17.40938661071232
 30
0.0
 11
301.8172916457349
 21
17.37019330271244
 31
0.0
  0
LINE
  5
2BF
330
21E
100
AcDbEntity
  8
06-99
100
AcDbLine
 10
301.8172916457349
 20
17.37019330271244
 30
0.0
 11
301.654124597735
 21
17.3461897627123
 31
0.0
  0
LINE
  5
2C0
330
21E
100
AcDbEntity
  8
06-99
100
AcDbLine
 10
301.654124597735
 20
17.3461897627123
 30
0.0
 11
301.482856577735
 21
17.33804245871238
 31
0.0
  0
LINE
  5
2C1
330
21E
100
AcDbEntity
  8
06-99
100
AcDbLine
 10
301.482856577735
 20
17.33804245871238
 30
0.0
 11
301.318196213735
 21
17.34599374271232
 31
0.0
  0
LINE
  5
2C2
330
21E
100
AcDbEntity
  8
06-99
100
AcDbLine
 10
301.318196213735
 20
17.34599374271232
 30
0.0
 11
301.1599011537348
 21
17.36937714671228
 31
0.0
  0
LINE
  5
2C3
330
21E
100
AcDbEntity
  8
06-99
100
AcDbLine
 10
301.1599011537348
 20
17.36937714671228
 30
0.0
 11
301.0085630217349
 21
17.40748343471233
 31
0.0
  0
LINE
  5
2C4
330
21E
100
AcDbEntity
  8
06-99
100
AcDbLine
 10
301.0085630217349
 20
17.40748343471233
 30
0.0
 11
300.8647698777347
 21
17.45960693471232
 31
0.0
  0
LINE
  5
2C5
330
21E
100
AcDbEntity
  8
06-99
100
AcDbLine
 10
300.8647698777347
 20
17.45960693471232
 30
0.0
 11
300.7291026537349
 21
17.52503841071234
 31
0.0
  0
LINE
  5
2C6
330
21E
100
AcDbEntity
  8
06-99
100
AcDbLine
 10
300.7291026537349
 20
17.52503841071234
 30
0.0
 11
300.6021529737349
 21
17.6030686267124
 31
0.0
  0
LINE
  5
2C7
330
21E
100
AcDbEntity
  8
06-99
100
AcDbLine
 10
300.6021529737349
 20
17.6030686267124
 30
0.0
 11
300.4845053337349
 21
17.69299547471234
 31
0.0
  0
LINE
  5
2C8
330
21E
100
AcDbEntity
  8
06-99
100
AcDbLine
 10
300.4845053337349
 20
17.69299547471234
 30
0.0
 11
300.3767513577348
 21
17.79410615471244
 31
0.0
  0
LINE
  5
2C9
330
21E
100
AcDbEntity
  8
06-99
100
AcDbLine
 10
300.3767513577348
 20
17.79410615471244
 30
0.0
 11
300.279475541735
 21
17.90569499471235
 31
0.0
  0
LINE
  5
2CA
330
21E
100
AcDbEntity
  8
06-99
100
AcDbLine
 10
300.279475541735
 20
17.90569499471235
 30
0.0
 11
300.1932623817348
 21
18.02705632271232
 31
0.0
  0
LINE
  5
2CB
330
21E
100
AcDbEntity
  8
06-99
100
AcDbLine
 10
300.1932623817348
 20
18.02705632271232
 30
0.0
 11
300.1187035017349
 21
18.15747733871234
 31
0.0
  0
LINE
  5
2CC
330
21E
100
AcDbEntity
  8
06-99
100
AcDbLine
 10
300.1187035017349
 20
18.15747733871234
 30
0.0
 11
300.0563833977349
 21
18.29625593471235
 31
0.0
  0
LINE
  5
2CD
330
21E
100
AcDbEntity
  8
06-99
100
AcDbLine
 10
300.0563833977349
 20
18.29625593471235
 30
0.0
 11
300.0068901297349
 21
18.44268287471232
 31
0.0
  0
LINE
  5
2CE
330
21E
100
AcDbEntity
  8
06-99
100
AcDbLine
 10
300.0068901297349
 20
18.44268287471232
 30
0.0
 11
299.9708117577347
 21
18.59604535871239
 31
0.0
  0
LINE
  5
2CF
330
21E
100
AcDbEntity
  8
06-99
100
AcDbLine
 10
299.9708117577347
 20
18.59604535871239
 30
0.0
 11
299.9487327777348
 21
18.75564484271246
 31
0.0
  0
LINE
  5
2D0
330
21E
100
AcDbEntity
  8
06-99
100
AcDbLine
 10
299.9487327777348
 20
18.75564484271246
 30
0.0
 11
299.9412448137349
 21
18.92076852671226
 31
0.0
  0
LINE
  5
2D1
330
21E
100
AcDbEntity
  8
06-99
100
AcDbLine
 10
299.9412448137349
 20
18.92076852671226
 30
0.0
 11
299.947631501735
 21
19.08914257871237
 31
0.0
  0
LINE
  5
2D2
330
21E
100
AcDbEntity
  8
06-99
100
AcDbLine
 10
299.947631501735
 20
19.08914257871237
 30
0.0
 11
299.9665349577349
 21
19.25115489071231
 31
0.0
  0
LINE
  5
2D3
330
21E
100
AcDbEntity
  8
06-99
100
AcDbLine
 10
299.9665349577349
 20
19.25115489071231
 30
0.0
 11
299.997556013735
 21
19.40630650271231
 31
0.0
  0
LINE
  5
2D4
330
21E
100
AcDbEntity
  8
06-99
100
AcDbLine
 10
299.997556013735
 20
19.40630650271231
 30
0.0
 11
300.0402990657349
 21
19.55410201871234
 31
0.0
  0
LINE
  5
2D5
330
21E
100
AcDbEntity
  8
06-99
100
AcDbLine
 10
300.0402990657349
 20
19.55410201871234
 30
0.0
 11
300.0943720737348
 21
19.69404604271233
 31
0.0
  0
LINE
  5
2D6
330
21E
100
AcDbEntity
  8
06-99
100
AcDbLine
 10
300.0943720737348
 20
19.69404604271233
 30
0.0
 11
300.1593758697349
 21
19.82564674271236
 31
0.0
  0
LINE
  5
2D7
330
21E
100
AcDbEntity
  8
06-99
100
AcDbLine
 10
300.1593758697349
 20
19.82564674271236
 30
0.0
 11
300.2349148497349
 21
19.94840159471238
 31
0.0
  0
LINE
  5
2D8
330
21E
100
AcDbEntity
  8
06-99
100
AcDbLine
 10
300.2349148497349
 20
19.94840159471238
 30
0.0
 11
300.3205969737349
 21
20.06182233071235
 31
0.0
  0
LINE
  5
2D9
330
21E
100
AcDbEntity
  8
06-99
100
AcDbLine
 10
300.3205969737349
 20
20.06182233071235
 30
0.0
 11
300.4160230737348
 21
20.16540642671242
 31
0.0
  0
LINE
  5
2DA
330
21E
100
AcDbEntity
  8
06-99
100
AcDbLine
 10
300.4160230737348
 20
20.16540642671242
 30
0.0
 11
300.5208046737348
 21
20.2586620507123
 31
0.0
  0
LINE
  5
2DB
330
21E
100
AcDbEntity
  8
06-99
100
AcDbLine
 10
300.5208046737348
 20
20.2586620507123
 30
0.0
 11
300.634535477735
 21
20.34109024271237
 31
0.0
  0
LINE
  5
2DC
330
21E
100
AcDbEntity
  8
06-99
100
AcDbLine
 10
300.634535477735
 20
20.34109024271237
 30
0.0
 11
300.756830573735
 21
20.41219917071237
 31
0.0
  0
LINE
  5
2DD
330
21E
100
AcDbEntity
  8
06-99
100
AcDbLine
 10
300.756830573735
 20
20.41219917071237
 30
0.0
 11
300.8872872297347
 21
20.47148987471235
 31
0.0
  0
LINE
  5
2DE
330
21E
100
AcDbEntity
  8
06-99
100
AcDbLine
 10
300.8872872297347
 20
20.47148987471235
 30
0.0
 11
301.025513405735
 21
20.51846695871234
 31
0.0
  0
LINE
  5
2DF
330
21E
100
AcDbEntity
  8
06-99
100
AcDbLine
 10
301.025513405735
 20
20.51846695871234
 30
0.0
 11
301.171117061735
 21
20.55263502671232
 31
0.0
  0
LINE
  5
2E0
330
21E
100
AcDbEntity
  8
06-99
100
AcDbLine
 10
301.171117061735
 20
20.55263502671232
 30
0.0
 11
301.323695465735
 21
20.57350224671234
 31
0.0
  0
LINE
  5
2E1
330
21E
100
AcDbEntity
  8
06-99
100
AcDbLine
 10
301.323695465735
 20
20.57350224671234
 30
0.0
 11
301.482856577735
 21
20.58056609471237
 31
0.0
  0
LINE
  5
2E2
330
21E
100
AcDbEntity
  8
06-99
100
AcDbLine
 10
301.482856577735
 20
20.58056609471237
 30
0.0
 11
301.6605611817349
 21
20.57164896671236
 31
0.0
  0
LINE
  5
2E3
330
21E
100
AcDbEntity
  8
06-99
100
AcDbLine
 10
301.6605611817349
 20
20.57164896671236
 30
0.0
 11
301.830314501735
 21
20.54501163071234
 31
0.0
  0
LINE
  5
2E4
330
21E
100
AcDbEntity
  8
06-99
100
AcDbLine
 10
301.830314501735
 20
20.54501163071234
 30
0.0
 11
301.9917779577349
 21
20.50082159471236
 31
0.0
  0
LINE
  5
2E5
330
21E
100
AcDbEntity
  8
06-99
100
AcDbLine
 10
301.9917779577349
 20
20.50082159471236
 30
0.0
 11
302.1446129697349
 21
20.43924636671233
 31
0.0
  0
LINE
  5
2E6
330
21E
100
AcDbEntity
  8
06-99
100
AcDbLine
 10
302.1446129697349
 20
20.43924636671233
 30
0.0
 11
302.2884809577349
 21
20.36046058271233
 31
0.0
  0
LINE
  5
2E7
330
21E
100
AcDbEntity
  8
06-99
100
AcDbLine
 10
302.2884809577349
 20
20.36046058271233
 30
0.0
 11
302.423046905735
 21
20.2646281867124
 31
0.0
  0
LINE
  5
2E8
330
21E
100
AcDbEntity
  8
06-99
100
AcDbLine
 10
302.423046905735
 20
20.2646281867124
 30
0.0
 11
302.5479722337349
 21
20.15192381471235
 31
0.0
  0
LINE
  5
2E9
330
21E
100
AcDbEntity
  8
06-99
100
AcDbLine
 10
302.5479722337349
 20
20.15192381471235
 30
0.0
 11
302.662914797735
 21
20.02251141071241
 31
0.0
  0
LINE
  5
2EA
330
21E
100
AcDbEntity
  8
06-99
100
AcDbLine
 10
302.662914797735
 20
20.02251141071241
 30
0.0
 11
302.7675395817348
 21
19.87656561071236
 31
0.0
  0
LINE
  5
2EB
330
21E
100
AcDbEntity
  8
06-99
100
AcDbLine
 10
299.4389952417348
 20
13.25281458671242
 30
0.0
 11
301.3222627377349
 21
13.25281458671242
 31
0.0
  0
LINE
  5
2EC
330
21E
100
AcDbEntity
  8
06-99
100
AcDbLine
 10
301.3222627377349
 20
13.25281458671242
 30
0.0
 11
301.4675990937349
 21
14.00768047871236
 31
0.0
  0
LINE
  5
2ED
330
21E
100
AcDbEntity
  8
06-99
100
AcDbLine
 10
301.4675990937349
 20
14.00768047871236
 30
0.0
 11
300.5648699697349
 21
14.00768047871236
 31
0.0
  0
LINE
  5
2EE
330
21E
100
AcDbEntity
  8
06-99
100
AcDbLine
 10
300.5648699697349
 20
14.00768047871236
 30
0.0
 11
300.6210528657348
 21
14.29950792671229
 31
0.0
  0
LINE
  5
2EF
330
21E
100
AcDbEntity
  8
06-99
100
AcDbLine
 10
300.6210528657348
 20
14.29950792671229
 30
0.0
 11
301.4187152697349
 21
14.29950792671229
 31
0.0
  0
LINE
  5
2F0
330
21E
100
AcDbEntity
  8
06-99
100
AcDbLine
 10
301.4187152697349
 20
14.29950792671229
 30
0.0
 11
301.5558009657348
 21
15.01156305071231
 31
0.0
  0
LINE
  5
2F1
330
21E
100
AcDbEntity
  8
06-99
100
AcDbLine
 10
301.5558009657348
 20
15.01156305071231
 30
0.0
 11
300.7581385617348
 21
15.01156305071231
 31
0.0
  0
LINE
  5
2F2
330
21E
100
AcDbEntity
  8
06-99
100
AcDbLine
 10
300.7581385617348
 20
15.01156305071231
 30
0.0
 11
300.8098450737348
 21
15.28005699071229
 31
0.0
  0
LINE
  5
2F3
330
21E
100
AcDbEntity
  8
06-99
100
AcDbLine
 10
300.8098450737348
 20
15.28005699071229
 30
0.0
 11
301.6892264337348
 21
15.28005699071229
 31
0.0
  0
LINE
  5
2F4
330
21E
100
AcDbEntity
  8
06-99
100
AcDbLine
 10
301.6892264337348
 20
15.28005699071229
 30
0.0
 11
301.8345520977349
 21
16.03490862671236
 31
0.0
  0
LINE
  5
2F5
330
21E
100
AcDbEntity
  8
06-99
100
AcDbLine
 10
301.8345520977349
 20
16.03490862671236
 30
0.0
 11
299.9746323657349
 21
16.03490862671236
 31
0.0
  0
LINE
  5
2F6
330
21E
100
AcDbEntity
  8
06-99
100
AcDbLine
 10
299.9746323657349
 20
16.03490862671236
 30
0.0
 11
299.4389952417348
 21
13.25281458671242
 31
0.0
  0
LINE
  5
2F7
330
21E
100
AcDbEntity
  8
06-99
100
AcDbLine
 10
285.6086116857349
 20
13.88042785871232
 30
0.0
 11
298.0658608857348
 21
13.88042785871232
 31
0.0
  0
LINE
  5
2F8
330
21E
100
AcDbEntity
  8
06-99
100
AcDbLine
 10
298.0658608857348
 20
13.88042785871232
 30
0.0
 11
297.9422827497349
 21
13.25209822271233
 31
0.0
  0
LINE
  5
2F9
330
21E
100
AcDbEntity
  8
06-99
100
AcDbLine
 10
297.9422827497349
 20
13.25209822271233
 30
0.0
 11
285.4850371137349
 21
13.25209822271233
 31
0.0
  0
LINE
  5
2FA
330
21E
100
AcDbEntity
  8
06-99
100
AcDbLine
 10
285.4850371137349
 20
13.25209822271233
 30
0.0
 11
285.6086116857349
 21
13.88042785871232
 31
0.0
  0
LINE
  5
2FB
330
21E
100
AcDbEntity
  8
06-99
100
AcDbLine
 10
291.3458426577349
 20
17.02887258671239
 30
0.0
 11
292.3221826377348
 21
20.10266933471235
 31
0.0
  0
LINE
  5
2FC
330
21E
100
AcDbEntity
  8
06-99
100
AcDbLine
 10
292.3221826377348
 20
20.10266933471235
 30
0.0
 11
293.3396476137348
 21
17.02887258671239
 31
0.0
  0
LINE
  5
2FD
330
21E
100
AcDbEntity
  8
06-99
100
AcDbLine
 10
293.3396476137348
 20
17.02887258671239
 30
0.0
 11
294.5677984497349
 21
20.80153409471234
 31
0.0
  0
LINE
  5
2FE
330
21E
100
AcDbEntity
  8
06-99
100
AcDbLine
 10
294.5677984497349
 20
20.80153409471234
 30
0.0
 11
294.2235089217348
 21
20.80153409471234
 31
0.0
  0
LINE
  5
2FF
330
21E
100
AcDbEntity
  8
06-99
100
AcDbLine
 10
294.2235089217348
 20
20.80153409471234
 30
0.0
 11
293.3396476137348
 21
17.89303210271231
 31
0.0
  0
LINE
  5
300
330
21E
100
AcDbEntity
  8
06-99
100
AcDbLine
 10
293.3396476137348
 20
17.89303210271231
 30
0.0
 11
292.3221826377348
 21
20.94541277471228
 31
0.0
  0
LINE
  5
301
330
21E
100
AcDbEntity
  8
06-99
100
AcDbLine
 10
292.3221826377348
 20
20.94541277471228
 30
0.0
 11
291.3458426577349
 21
17.86733922671237
 31
0.0
  0
LINE
  5
302
330
21E
100
AcDbEntity
  8
06-99
100
AcDbLine
 10
291.3458426577349
 20
17.86733922671237
 30
0.0
 11
290.426009897735
 21
20.80153409471234
 31
0.0
  0
LINE
  5
303
330
21E
100
AcDbEntity
  8
06-99
100
AcDbLine
 10
290.426009897735
 20
20.80153409471234
 30
0.0
 11
290.0765810817349
 21
20.80153409471234
 31
0.0
  0
LINE
  5
304
330
21E
100
AcDbEntity
  8
06-99
100
AcDbLine
 10
290.0765810817349
 20
20.80153409471234
 30
0.0
 11
291.3458426577349
 21
17.02887258671239
 31
0.0
  0
LINE
  5
305
330
21E
100
AcDbEntity
  8
06-99
100
AcDbLine
 10
296.324415641735
 20
18.65868622271239
 30
0.0
 11
296.9770339377348
 21
20.2568337187123
 31
0.0
  0
LINE
  5
306
330
21E
100
AcDbEntity
  8
06-99
100
AcDbLine
 10
296.9770339377348
 20
20.2568337187123
 30
0.0
 11
297.6039629217348
 21
18.65868622271239
 31
0.0
  0
LINE
  5
307
330
21E
100
AcDbEntity
  8
06-99
100
AcDbLine
 10
297.6039629217348
 20
18.65868622271239
 30
0.0
 11
296.324415641735
 21
18.65868622271239
 31
0.0
  0
LINE
  5
308
330
21E
100
AcDbEntity
  8
06-99
100
AcDbLine
 10
295.3831810617349
 20
17.12736016271231
 30
0.0
 11
295.7231937897349
 21
17.12736016271231
 31
0.0
  0
LINE
  5
309
330
21E
100
AcDbEntity
  8
06-99
100
AcDbLine
 10
295.7231937897349
 20
17.12736016271231
 30
0.0
 11
296.2113619977348
 21
18.37092886271233
 31
0.0
  0
LINE
  5
30A
330
21E
100
AcDbEntity
  8
06-99
100
AcDbLine
 10
296.2113619977348
 20
18.37092886271233
 30
0.0
 11
297.711863021735
 21
18.37092886271233
 31
0.0
  0
LINE
  5
30B
330
21E
100
AcDbEntity
  8
06-99
100
AcDbLine
 10
297.711863021735
 20
18.37092886271233
 30
0.0
 11
298.1794918977348
 21
17.12736016271231
 31
0.0
  0
LINE
  5
30C
330
21E
100
AcDbEntity
  8
06-99
100
AcDbLine
 10
298.1794918977348
 20
17.12736016271231
 30
0.0
 11
298.5443385777348
 21
17.12736016271231
 31
0.0
  0
LINE
  5
30D
330
21E
100
AcDbEntity
  8
06-99
100
AcDbLine
 10
298.5443385777348
 20
17.12736016271231
 30
0.0
 11
296.9975910897349
 21
20.94541277471228
 31
0.0
  0
LINE
  5
30E
330
21E
100
AcDbEntity
  8
06-99
100
AcDbLine
 10
296.9975910897349
 20
20.94541277471228
 30
0.0
 11
295.3831810617349
 21
17.12736016271231
 31
0.0
  0
LINE
  5
30F
330
21E
100
AcDbEntity
  8
06-99
100
AcDbLine
 10
307.9298046897347
 20
13.25281458671242
 30
0.0
 11
309.0043792017348
 21
13.25281458671242
 31
0.0
  0
LINE
  5
310
330
21E
100
AcDbEntity
  8
06-99
100
AcDbLine
 10
309.0043792017348
 20
13.25281458671242
 30
0.0
 11
309.1574066697349
 21
13.60301322671233
 31
0.0
  0
LINE
  5
311
330
21E
100
AcDbEntity
  8
06-99
100
AcDbLine
 10
309.1574066697349
 20
13.60301322671233
 30
0.0
 11
309.9122725617349
 21
13.60301322671233
 31
0.0
  0
LINE
  5
312
330
21E
100
AcDbEntity
  8
06-99
100
AcDbLine
 10
309.9122725617349
 20
13.60301322671233
 30
0.0
 11
309.9343444137348
 21
13.25281458671242
 31
0.0
  0
LINE
  5
313
330
21E
100
AcDbEntity
  8
06-99
100
AcDbLine
 10
309.9343444137348
 20
13.25281458671242
 30
0.0
 11
311.0082738417347
 21
13.25281458671242
 31
0.0
  0
LINE
  5
314
330
21E
100
AcDbEntity
  8
06-99
100
AcDbLine
 10
311.0082738417347
 20
13.25281458671242
 30
0.0
 11
310.5711492417348
 21
16.03490862671236
 31
0.0
  0
LINE
  5
315
330
21E
100
AcDbEntity
  8
06-99
100
AcDbLine
 10
310.5711492417348
 20
16.03490862671236
 30
0.0
 11
309.4583116257348
 21
16.03490862671236
 31
0.0
  0
LINE
  5
316
330
21E
100
AcDbEntity
  8
06-99
100
AcDbLine
 10
309.4583116257348
 20
16.03490862671236
 30
0.0
 11
307.9298046897347
 21
13.25281458671242
 31
0.0
  0
LINE
  5
317
330
21E
100
AcDbEntity
  8
06-99
100
AcDbLine
 10
305.0434565217349
 20
14.66137866671232
 30
0.0
 11
305.0784799497348
 21
14.66137866671232
 31
0.0
  0
LINE
  5
318
330
21E
100
AcDbEntity
  8
06-99
100
AcDbLine
 10
305.0784799497348
 20
14.66137866671232
 30
0.0
 11
305.0642239497349
 21
14.48699927471239
 31
0.0
  0
LINE
  5
319
330
21E
100
AcDbEntity
  8
06-99
100
AcDbLine
 10
305.0642239497349
 20
14.48699927471239
 30
0.0
 11
305.0637998337348
 21
14.33510159471234
 31
0.0
  0
LINE
  5
31A
330
21E
100
AcDbEntity
  8
06-99
100
AcDbLine
 10
305.0637998337348
 20
14.33510159471234
 30
0.0
 11
305.0678984337348
 21
14.20222854671237
 31
0.0
  0
LINE
  5
31B
330
21E
100
AcDbEntity
  8
06-99
100
AcDbLine
 10
305.0678984337348
 20
14.20222854671237
 30
0.0
 11
305.0952307497349
 21
13.25281458671242
 31
0.0
  0
LINE
  5
31C
330
21E
100
AcDbEntity
  8
06-99
100
AcDbLine
 10
305.0952307497349
 20
13.25281458671242
 30
0.0
 11
305.9668283337347
 21
13.25281458671242
 31
0.0
  0
LINE
  5
31D
330
21E
100
AcDbEntity
  8
06-99
100
AcDbLine
 10
305.9668283337347
 20
13.25281458671242
 30
0.0
 11
307.3156882857347
 21
16.03490862671236
 31
0.0
  0
LINE
  5
31E
330
21E
100
AcDbEntity
  8
06-99
100
AcDbLine
 10
307.3156882857347
 20
16.03490862671236
 30
0.0
 11
306.3118057137349
 21
16.03490862671236
 31
0.0
  0
LINE
  5
31F
330
21E
100
AcDbEntity
  8
06-99
100
AcDbLine
 10
306.3118057137349
 20
16.03490862671236
 30
0.0
 11
305.8579124937348
 21
14.8092312067123
 31
0.0
  0
LINE
  5
320
330
21E
100
AcDbEntity
  8
06-99
100
AcDbLine
 10
305.8579124937348
 20
14.8092312067123
 30
0.0
 11
305.8078097817349
 21
14.66872763471229
 31
0.0
  0
LINE
  5
321
330
21E
100
AcDbEntity
  8
06-99
100
AcDbLine
 10
305.8078097817349
 20
14.66872763471229
 30
0.0
 11
305.7488398377348
 21
14.48671415471227
 31
0.0
  0
LINE
  5
322
330
21E
100
AcDbEntity
  8
06-99
100
AcDbLine
 10
305.7488398377348
 20
14.48671415471227
 30
0.0
 11
305.6900267097347
 21
14.26059973871241
 31
0.0
  0
LINE
  5
323
330
21E
100
AcDbEntity
  8
06-99
100
AcDbLine
 10
305.6900267097347
 20
14.26059973871241
 30
0.0
 11
305.6666932017348
 21
14.26059973871241
 31
0.0
  0
LINE
  5
324
330
21E
100
AcDbEntity
  8
06-99
100
AcDbLine
 10
305.6666932017348
 20
14.26059973871241
 30
0.0
 11
305.6884193457348
 21
14.45803464671235
 31
0.0
  0
LINE
  5
325
330
21E
100
AcDbEntity
  8
06-99
100
AcDbLine
 10
305.6884193457348
 20
14.45803464671235
 30
0.0
 11
305.6929777017349
 21
14.6156953147123
 31
0.0
  0
LINE
  5
326
330
21E
100
AcDbEntity
  8
06-99
100
AcDbLine
 10
305.6929777017349
 20
14.6156953147123
 30
0.0
 11
305.6919370137348
 21
14.73531384671236
 31
0.0
  0
LINE
  5
327
330
21E
100
AcDbEntity
  8
06-99
100
AcDbLine
 10
305.6919370137348
 20
14.73531384671236
 30
0.0
 11
305.6775527097348
 21
16.03490862671236
 31
0.0
  0
LINE
  5
328
330
21E
100
AcDbEntity
  8
06-99
100
AcDbLine
 10
305.6775527097348
 20
16.03490862671236
 30
0.0
 11
304.9732849257348
 21
16.03490862671236
 31
0.0
  0
LINE
  5
329
330
21E
100
AcDbEntity
  8
06-99
100
AcDbLine
 10
304.9732849257348
 20
16.03490862671236
 30
0.0
 11
304.4584829457349
 21
14.73531384671236
 31
0.0
  0
LINE
  5
32A
330
21E
100
AcDbEntity
  8
06-99
100
AcDbLine
 10
304.4584829457349
 20
14.73531384671236
 30
0.0
 11
304.4113811217347
 21
14.6156953147123
 31
0.0
  0
LINE
  5
32B
330
21E
100
AcDbEntity
  8
06-99
100
AcDbLine
 10
304.4113811217347
 20
14.6156953147123
 30
0.0
 11
304.355226737735
 21
14.45803464671235
 31
0.0
  0
LINE
  5
32C
330
21E
100
AcDbEntity
  8
06-99
100
AcDbLine
 10
304.355226737735
 20
14.45803464671235
 30
0.0
 11
304.3009220697348
 21
14.26059973871241
 31
0.0
  0
LINE
  5
32D
330
21E
100
AcDbEntity
  8
06-99
100
AcDbLine
 10
304.3009220697348
 20
14.26059973871241
 30
0.0
 11
304.2775885617348
 21
14.26059973871241
 31
0.0
  0
LINE
  5
32E
330
21E
100
AcDbEntity
  8
06-99
100
AcDbLine
 10
304.2775885617348
 20
14.26059973871241
 30
0.0
 11
304.3058439537349
 21
14.48671415471227
 31
0.0
  0
LINE
  5
32F
330
21E
100
AcDbEntity
  8
06-99
100
AcDbLine
 10
304.3058439537349
 20
14.48671415471227
 30
0.0
 11
304.3169636337349
 21
14.66872763471229
 31
0.0
  0
LINE
  5
330
330
21E
100
AcDbEntity
  8
06-99
100
AcDbLine
 10
304.3169636337349
 20
14.66872763471229
 30
0.0
 11
304.3209588777348
 21
14.8092312067123
 31
0.0
  0
LINE
  5
331
330
21E
100
AcDbEntity
  8
06-99
100
AcDbLine
 10
304.3209588777348
 20
14.8092312067123
 30
0.0
 11
304.3390319217348
 21
16.03490862671236
 31
0.0
  0
LINE
  5
332
330
21E
100
AcDbEntity
  8
06-99
100
AcDbLine
 10
304.3390319217348
 20
16.03490862671236
 30
0.0
 11
303.3345042657348
 21
16.03490862671236
 31
0.0
  0
LINE
  5
333
330
21E
100
AcDbEntity
  8
06-99
100
AcDbLine
 10
303.3345042657348
 20
16.03490862671236
 30
0.0
 11
303.6127350537349
 21
13.25281458671242
 31
0.0
  0
LINE
  5
334
330
21E
100
AcDbEntity
  8
06-99
100
AcDbLine
 10
303.6127350537349
 20
13.25281458671242
 30
0.0
 11
304.4843290737348
 21
13.25281458671242
 31
0.0
  0
LINE
  5
335
330
21E
100
AcDbEntity
  8
06-99
100
AcDbLine
 10
304.4843290737348
 20
13.25281458671242
 30
0.0
 11
304.8772386897349
 21
14.20222854671237
 31
0.0
  0
LINE
  5
336
330
21E
100
AcDbEntity
  8
06-99
100
AcDbLine
 10
304.8772386897349
 20
14.20222854671237
 30
0.0
 11
304.9325127657348
 21
14.33510159471234
 31
0.0
  0
LINE
  5
337
330
21E
100
AcDbEntity
  8
06-99
100
AcDbLine
 10
304.9325127657348
 20
14.33510159471234
 30
0.0
 11
304.9905774537349
 21
14.48699927471239
 31
0.0
  0
LINE
  5
338
330
21E
100
AcDbEntity
  8
06-99
100
AcDbLine
 10
304.9905774537349
 20
14.48699927471239
 30
0.0
 11
305.0434565217349
 21
14.66137866671232
 31
0.0
  0
LINE
  5
339
330
21E
100
AcDbEntity
  8
06-99
100
AcDbLine
 10
309.4520674977348
 20
14.26448449871236
 30
0.0
 11
309.5983590057348
 21
14.57965971071235
 31
0.0
  0
LINE
  5
33A
330
21E
100
AcDbEntity
  8
06-99
100
AcDbLine
 10
309.5983590057348
 20
14.57965971071235
 30
0.0
 11
309.6731103417349
 21
14.74409554271244
 31
0.0
  0
LINE
  5
33B
330
21E
100
AcDbEntity
  8
06-99
100
AcDbLine
 10
309.6731103417349
 20
14.74409554271244
 30
0.0
 11
309.7541521377349
 21
14.94571102271237
 31
0.0
  0
LINE
  5
33C
330
21E
100
AcDbEntity
  8
06-99
100
AcDbLine
 10
309.7541521377349
 20
14.94571102271237
 30
0.0
 11
309.8288286297349
 21
15.19056495071243
 31
0.0
  0
LINE
  5
33D
330
21E
100
AcDbEntity
  8
06-99
100
AcDbLine
 10
309.8288286297349
 20
15.19056495071243
 30
0.0
 11
309.8482880697349
 21
15.19056495071243
 31
0.0
  0
LINE
  5
33E
330
21E
100
AcDbEntity
  8
06-99
100
AcDbLine
 10
309.8482880697349
 20
15.19056495071243
 30
0.0
 11
309.8286646857348
 21
14.94571102271237
 31
0.0
  0
LINE
  5
33F
330
21E
100
AcDbEntity
  8
06-99
100
AcDbLine
 10
309.8286646857348
 20
14.94571102271237
 30
0.0
 11
309.8320718697348
 21
14.74409554271244
 31
0.0
  0
LINE
  5
340
330
21E
100
AcDbEntity
  8
06-99
100
AcDbLine
 10
309.8320718697348
 20
14.74409554271244
 30
0.0
 11
309.8435051817348
 21
14.57965971071235
 31
0.0
  0
LINE
  5
341
330
21E
100
AcDbEntity
  8
06-99
100
AcDbLine
 10
309.8435051817348
 20
14.57965971071235
 30
0.0
 11
309.868410413735
 21
14.26448449871236
 31
0.0
  0
LINE
  5
342
330
21E
100
AcDbEntity
  8
06-99
100
AcDbLine
 10
309.868410413735
 20
14.26448449871236
 30
0.0
 11
309.4520674977348
 21
14.26448449871236
 31
0.0
  0
LINE
  5
343
330
21E
100
AcDbEntity
  8
06-99
100
AcDbLine
 10
312.586705289735
 20
13.25281458671242
 30
0.0
 11
313.5672400977347
 21
13.25281458671242
 31
0.0
  0
LINE
  5
344
330
21E
100
AcDbEntity
  8
06-99
100
AcDbLine
 10
313.5672400977347
 20
13.25281458671242
 30
0.0
 11
313.7440358817348
 21
14.17110413471232
 31
0.0
  0
LINE
  5
345
330
21E
100
AcDbEntity
  8
06-99
100
AcDbLine
 10
313.7440358817348
 20
14.17110413471232
 30
0.0
 11
314.053626305735
 21
13.25281458671242
 31
0.0
  0
LINE
  5
346
330
21E
100
AcDbEntity
  8
06-99
100
AcDbLine
 10
314.053626305735
 20
13.25281458671242
 30
0.0
 11
315.1742370057348
 21
13.25281458671242
 31
0.0
  0
LINE
  5
347
330
21E
100
AcDbEntity
  8
06-99
100
AcDbLine
 10
315.1742370057348
 20
13.25281458671242
 30
0.0
 11
314.6490673497349
 21
14.38511520671233
 31
0.0
  0
LINE
  5
348
330
21E
100
AcDbEntity
  8
06-99
100
AcDbLine
 10
314.6490673497349
 20
14.38511520671233
 30
0.0
 11
314.8084280457349
 21
14.42380955471236
 31
0.0
  0
LINE
  5
349
330
21E
100
AcDbEntity
  8
06-99
100
AcDbLine
 10
314.8084280457349
 20
14.42380955471236
 30
0.0
 11
314.9537002497348
 21
14.49881749871235
 31
0.0
  0
LINE
  5
34A
330
21E
100
AcDbEntity
  8
06-99
100
AcDbLine
 10
314.9537002497348
 20
14.49881749871235
 30
0.0
 11
315.0813484737348
 21
14.60690292671233
 31
0.0
  0
LINE
  5
34B
330
21E
100
AcDbEntity
  8
06-99
100
AcDbLine
 10
315.0813484737348
 20
14.60690292671233
 30
0.0
 11
315.1878301017348
 21
14.74481903471235
 31
0.0
  0
LINE
  5
34C
330
21E
100
AcDbEntity
  8
06-99
100
AcDbLine
 10
315.1878301017348
 20
14.74481903471235
 30
0.0
 11
315.2695989537348
 21
14.90932258271232
 31
0.0
  0
LINE
  5
34D
330
21E
100
AcDbEntity
  8
06-99
100
AcDbLine
 10
315.2695989537348
 20
14.90932258271232
 30
0.0
 11
315.3231124137347
 21
15.09717033071234
 31
0.0
  0
LINE
  5
34E
330
21E
100
AcDbEntity
  8
06-99
100
AcDbLine
 10
315.3231124137347
 20
15.09717033071234
 30
0.0
 11
315.3445997697348
 21
15.26809264271236
 31
0.0
  0
LINE
  5
34F
330
21E
100
AcDbEntity
  8
06-99
100
AcDbLine
 10
315.3445997697348
 20
15.26809264271236
 30
0.0
 11
315.3403015857348
 21
15.42330127871241
 31
0.0
  0
LINE
  5
350
330
21E
100
AcDbEntity
  8
06-99
100
AcDbLine
 10
315.3403015857348
 20
15.42330127871241
 30
0.0
 11
315.3102285537349
 21
15.56226163871236
 31
0.0
  0
LINE
  5
351
330
21E
100
AcDbEntity
  8
06-99
100
AcDbLine
 10
315.3102285537349
 20
15.56226163871236
 30
0.0
 11
315.2543913657347
 21
15.68443555871226
 31
0.0
  0
LINE
  5
352
330
21E
100
AcDbEntity
  8
06-99
100
AcDbLine
 10
315.2543913657347
 20
15.68443555871226
 30
0.0
 11
315.1728078417348
 21
15.78928843871239
 31
0.0
  0
LINE
  5
353
330
21E
100
AcDbEntity
  8
06-99
100
AcDbLine
 10
315.1728078417348
 20
15.78928843871239
 30
0.0
 11
315.0654922377348
 21
15.87627855071235
 31
0.0
  0
LINE
  5
354
330
21E
100
AcDbEntity
  8
06-99
100
AcDbLine
 10
315.0654922377348
 20
15.87627855071235
 30
0.0
 11
314.9324516817348
 21
15.94487485871235
 31
0.0
  0
LINE
  5
355
330
21E
100
AcDbEntity
  8
06-99
100
AcDbLine
 10
314.9324516817348
 20
15.94487485871235
 30
0.0
 11
314.7737075577347
 21
15.9945356347124
 31
0.0
  0
LINE
  5
356
330
21E
100
AcDbEntity
  8
06-99
100
AcDbLine
 10
314.7737075577347
 20
15.9945356347124
 30
0.0
 11
314.5892634297348
 21
16.02472627871236
 31
0.0
  0
LINE
  5
357
330
21E
100
AcDbEntity
  8
06-99
100
AcDbLine
 10
314.5892634297348
 20
16.02472627871236
 30
0.0
 11
314.3791442457348
 21
16.03490862671236
 31
0.0
  0
LINE
  5
358
330
21E
100
AcDbEntity
  8
06-99
100
AcDbLine
 10
314.3791442457348
 20
16.03490862671236
 30
0.0
 11
313.1223424137348
 21
16.03490862671236
 31
0.0
  0
LINE
  5
359
330
21E
100
AcDbEntity
  8
06-99
100
AcDbLine
 10
313.1223424137348
 20
16.03490862671236
 30
0.0
 11
312.586705289735
 21
13.25281458671242
 31
0.0
  0
LINE
  5
35A
330
21E
100
AcDbEntity
  8
06-99
100
AcDbLine
 10
313.9650323937349
 20
15.31896517871234
 30
0.0
 11
314.1206829657349
 21
15.31896517871234
 31
0.0
  0
LINE
  5
35B
330
21E
100
AcDbEntity
  8
06-99
100
AcDbLine
 10
314.1206829657349
 20
15.31896517871234
 30
0.0
 11
314.2773528417349
 21
15.28538517071229
 31
0.0
  0
LINE
  5
35C
330
21E
100
AcDbEntity
  8
06-99
100
AcDbLine
 10
314.2773528417349
 20
15.28538517071229
 30
0.0
 11
314.3582200017347
 21
15.19041169871241
 31
0.0
  0
LINE
  5
35D
330
21E
100
AcDbEntity
  8
06-99
100
AcDbLine
 10
314.3582200017347
 20
15.19041169871241
 30
0.0
 11
314.3632167297349
 21
15.04270171871235
 31
0.0
  0
LINE
  5
35E
330
21E
100
AcDbEntity
  8
06-99
100
AcDbLine
 10
314.3632167297349
 20
15.04270171871235
 30
0.0
 11
314.3008645497348
 21
14.8970018347124
 31
0.0
  0
LINE
  5
35F
330
21E
100
AcDbEntity
  8
06-99
100
AcDbLine
 10
314.3008645497348
 20
14.8970018347124
 30
0.0
 11
314.1832917537348
 21
14.80578125471237
 31
0.0
  0
LINE
  5
360
330
21E
100
AcDbEntity
  8
06-99
100
AcDbLine
 10
314.1832917537348
 20
14.80578125471237
 30
0.0
 11
314.0158122657348
 21
14.77422203471229
 31
0.0
  0
LINE
  5
361
330
21E
100
AcDbEntity
  8
06-99
100
AcDbLine
 10
314.0158122657348
 20
14.77422203471229
 30
0.0
 11
313.8601616937349
 21
14.77422203471229
 31
0.0
  0
LINE
  5
362
330
21E
100
AcDbEntity
  8
06-99
100
AcDbLine
 10
313.8601616937349
 20
14.77422203471229
 30
0.0
 11
313.9650323937349
 21
15.31896517871234
 31
0.0
  0
LINE
  5
363
330
21E
100
AcDbEntity
  8
06-99
100
AcDbLine
 10
309.579801257735
 20
17.12736016271231
 30
0.0
 11
311.3988989337349
 21
17.12736016271231
 31
0.0
  0
LINE
  5
364
330
21E
100
AcDbEntity
  8
06-99
100
AcDbLine
 10
311.3988989337349
 20
17.12736016271231
 30
0.0
 11
311.3988989337349
 21
17.44082465471229
 31
0.0
  0
LINE
  5
365
330
21E
100
AcDbEntity
  8
06-99
100
AcDbLine
 10
311.3988989337349
 20
17.44082465471229
 30
0.0
 11
309.913819337735
 21
17.44082465471229
 31
0.0
  0
LINE
  5
366
330
21E
100
AcDbEntity
  8
06-99
100
AcDbLine
 10
309.913819337735
 20
17.44082465471229
 30
0.0
 11
309.913819337735
 21
19.02353290271242
 31
0.0
  0
LINE
  5
367
330
21E
100
AcDbEntity
  8
06-99
100
AcDbLine
 10
309.913819337735
 20
19.02353290271242
 30
0.0
 11
311.3988989337349
 21
19.02353290271242
 31
0.0
  0
LINE
  5
368
330
21E
100
AcDbEntity
  8
06-99
100
AcDbLine
 10
311.3988989337349
 20
19.02353290271242
 30
0.0
 11
311.3988989337349
 21
19.3369973947124
 31
0.0
  0
LINE
  5
369
330
21E
100
AcDbEntity
  8
06-99
100
AcDbLine
 10
311.3988989337349
 20
19.3369973947124
 30
0.0
 11
309.913819337735
 21
19.3369973947124
 31
0.0
  0
LINE
  5
36A
330
21E
100
AcDbEntity
  8
06-99
100
AcDbLine
 10
309.913819337735
 20
19.3369973947124
 30
0.0
 11
309.913819337735
 21
20.48806960271236
 31
0.0
  0
LINE
  5
36B
330
21E
100
AcDbEntity
  8
06-99
100
AcDbLine
 10
309.913819337735
 20
20.48806960271236
 30
0.0
 11
311.3988989337349
 21
20.48806960271236
 31
0.0
  0
LINE
  5
36C
330
21E
100
AcDbEntity
  8
06-99
100
AcDbLine
 10
311.3988989337349
 20
20.48806960271236
 30
0.0
 11
311.3988989337349
 21
20.80153409471234
 31
0.0
  0
LINE
  5
36D
330
21E
100
AcDbEntity
  8
06-99
100
AcDbLine
 10
311.3988989337349
 20
20.80153409471234
 30
0.0
 11
309.579801257735
 21
20.80153409471234
 31
0.0
  0
LINE
  5
36E
330
21E
100
AcDbEntity
  8
06-99
100
AcDbLine
 10
309.579801257735
 20
20.80153409471234
 30
0.0
 11
309.579801257735
 21
17.12736016271231
 31
0.0
  0
LINE
  5
36F
330
21E
100
AcDbEntity
  8
06-99
100
AcDbLine
 10
304.853024873735
 20
17.12736016271231
 30
0.0
 11
305.1870465177349
 21
17.12736016271231
 31
0.0
  0
LINE
  5
370
330
21E
100
AcDbEntity
  8
06-99
100
AcDbLine
 10
305.1870465177349
 20
17.12736016271231
 30
0.0
 11
305.1870465177349
 21
20.09753361071233
 31
0.0
  0
LINE
  5
371
330
21E
100
AcDbEntity
  8
06-99
100
AcDbLine
 10
305.1870465177349
 20
20.09753361071233
 30
0.0
 11
307.7666661537348
 21
17.01858688271232
 31
0.0
  0
LINE
  5
372
330
21E
100
AcDbEntity
  8
06-99
100
AcDbLine
 10
307.7666661537348
 20
17.01858688271232
 30
0.0
 11
307.7666661537348
 21
20.80153409471234
 31
0.0
  0
LINE
  5
373
330
21E
100
AcDbEntity
  8
06-99
100
AcDbLine
 10
307.7666661537348
 20
20.80153409471234
 30
0.0
 11
307.4326587657349
 21
20.80153409471234
 31
0.0
  0
LINE
  5
374
330
21E
100
AcDbEntity
  8
06-99
100
AcDbLine
 10
307.4326587657349
 20
20.80153409471234
 30
0.0
 11
307.4326587657349
 21
17.88274639871235
 31
0.0
  0
LINE
  5
375
330
21E
100
AcDbEntity
  8
06-99
100
AcDbLine
 10
307.4326587657349
 20
17.88274639871235
 30
0.0
 11
304.853024873735
 21
20.95568422271231
 31
0.0
  0
LINE
  5
376
330
21E
100
AcDbEntity
  8
06-99
100
AcDbLine
 10
304.853024873735
 20
20.95568422271231
 30
0.0
 11
304.853024873735
 21
17.12736016271231
 31
0.0
  0
LINE
  5
377
330
21E
100
AcDbEntity
  8
06-99
100
AcDbLine
 10
313.448423465735
 20
20.50862675471228
 30
0.0
 11
313.7824308537349
 21
20.50862675471228
 31
0.0
  0
LINE
  5
378
330
21E
100
AcDbEntity
  8
06-99
100
AcDbLine
 10
313.7824308537349
 20
20.50862675471228
 30
0.0
 11
313.9866159777348
 21
20.50030837871236
 31
0.0
  0
LINE
  5
379
330
21E
100
AcDbEntity
  8
06-99
100
AcDbLine
 10
313.9866159777348
 20
20.50030837871236
 30
0.0
 11
314.1604465137349
 21
20.47385993471232
 31
0.0
  0
LINE
  5
37A
330
21E
100
AcDbEntity
  8
06-99
100
AcDbLine
 10
314.1604465137349
 20
20.47385993471232
 30
0.0
 11
314.3048954337349
 21
20.42705748671227
 31
0.0
  0
LINE
  5
37B
330
21E
100
AcDbEntity
  8
06-99
100
AcDbLine
 10
314.3048954337349
 20
20.42705748671227
 30
0.0
 11
314.4209178897349
 21
20.35767353471232
 31
0.0
  0
LINE
  5
37C
330
21E
100
AcDbEntity
  8
06-99
100
AcDbLine
 10
314.4209178897349
 20
20.35767353471232
 30
0.0
 11
314.509479725735
 21
20.26348057871229
 31
0.0
  0
LINE
  5
37D
330
21E
100
AcDbEntity
  8
06-99
100
AcDbLine
 10
314.509479725735
 20
20.26348057871229
 30
0.0
 11
314.5715432217348
 21
20.14225111871241
 31
0.0
  0
LINE
  5
37E
330
21E
100
AcDbEntity
  8
06-99
100
AcDbLine
 10
314.5715432217348
 20
20.14225111871241
 30
0.0
 11
314.6080777857349
 21
19.99175052671228
 31
0.0
  0
LINE
  5
37F
330
21E
100
AcDbEntity
  8
06-99
100
AcDbLine
 10
314.6080777857349
 20
19.99175052671228
 30
0.0
 11
314.6200421337348
 21
19.80976199471234
 31
0.0
  0
LINE
  5
380
330
21E
100
AcDbEntity
  8
06-99
100
AcDbLine
 10
314.6200421337348
 20
19.80976199471234
 30
0.0
 11
314.6074469577349
 21
19.63100957471232
 31
0.0
  0
LINE
  5
381
330
21E
100
AcDbEntity
  8
06-99
100
AcDbLine
 10
314.6074469577349
 20
19.63100957471232
 30
0.0
 11
314.5693763097349
 21
19.48586211071233
 31
0.0
  0
LINE
  5
382
330
21E
100
AcDbEntity
  8
06-99
100
AcDbLine
 10
314.5693763097349
 20
19.48586211071233
 30
0.0
 11
314.5054167657349
 21
19.37130445871241
 31
0.0
  0
LINE
  5
383
330
21E
100
AcDbEntity
  8
06-99
100
AcDbLine
 10
314.5054167657349
 20
19.37130445871241
 30
0.0
 11
314.4151370817349
 21
19.28432860271238
 31
0.0
  0
LINE
  5
384
330
21E
100
AcDbEntity
  8
06-99
100
AcDbLine
 10
314.4151370817349
 20
19.28432860271238
 30
0.0
 11
314.298123833735
 21
19.22192296271237
 31
0.0
  0
LINE
  5
385
330
21E
100
AcDbEntity
  8
06-99
100
AcDbLine
 10
314.298123833735
 20
19.22192296271237
 30
0.0
 11
314.1539493417349
 21
19.18107239471232
 31
0.0
  0
LINE
  5
386
330
21E
100
AcDbEntity
  8
06-99
100
AcDbLine
 10
314.1539493417349
 20
19.18107239471232
 30
0.0
 11
313.9821894897348
 21
19.15877244671242
 31
0.0
  0
LINE
  5
387
330
21E
100
AcDbEntity
  8
06-99
100
AcDbLine
 10
313.9821894897348
 20
19.15877244671242
 30
0.0
 11
313.7824308537349
 21
19.15200797471237
 31
0.0
  0
LINE
  5
388
330
21E
100
AcDbEntity
  8
06-99
100
AcDbLine
 10
313.7824308537349
 20
19.15200797471237
 30
0.0
 11
313.448423465735
 21
19.15200797471237
 31
0.0
  0
LINE
  5
389
330
21E
100
AcDbEntity
  8
06-99
100
AcDbLine
 10
313.448423465735
 20
19.15200797471237
 30
0.0
 11
313.448423465735
 21
20.50862675471228
 31
0.0
  0
LINE
  5
38A
330
21E
100
AcDbEntity
  8
06-99
100
AcDbLine
 10
315.3445997697348
 20
17.12736016271231
 30
0.0
 11
314.0239560057348
 21
18.87965422271236
 31
0.0
  0
LINE
  5
38B
330
21E
100
AcDbEntity
  8
06-99
100
AcDbLine
 10
314.0239560057348
 20
18.87965422271236
 30
0.0
 11
314.212373993735
 21
18.8922529627124
 31
0.0
  0
LINE
  5
38C
330
21E
100
AcDbEntity
  8
06-99
100
AcDbLine
 10
314.212373993735
 20
18.8922529627124
 30
0.0
 11
314.3829007017349
 21
18.92942191871231
 31
0.0
  0
LINE
  5
38D
330
21E
100
AcDbEntity
  8
06-99
100
AcDbLine
 10
314.3829007017349
 20
18.92942191871231
 30
0.0
 11
314.5343992137349
 21
18.99023088671242
 31
0.0
  0
LINE
  5
38E
330
21E
100
AcDbEntity
  8
06-99
100
AcDbLine
 10
314.5343992137349
 20
18.99023088671242
 30
0.0
 11
314.6657219217349
 21
19.07375679071236
 31
0.0
  0
LINE
  5
38F
330
21E
100
AcDbEntity
  8
06-99
100
AcDbLine
 10
314.6657219217349
 20
19.07375679071236
 30
0.0
 11
314.7757283457349
 21
19.17905873471233
 31
0.0
  0
LINE
  5
390
330
21E
100
AcDbEntity
  8
06-99
100
AcDbLine
 10
314.7757283457349
 20
19.17905873471233
 30
0.0
 11
314.8632744417348
 21
19.30521720671237
 31
0.0
  0
LINE
  5
391
330
21E
100
AcDbEntity
  8
06-99
100
AcDbLine
 10
314.8632744417348
 20
19.30521720671237
 30
0.0
 11
314.9272232937349
 21
19.4512948747124
 31
0.0
  0
LINE
  5
392
330
21E
100
AcDbEntity
  8
06-99
100
AcDbLine
 10
314.9272232937349
 20
19.4512948747124
 30
0.0
 11
314.9664308577349
 21
19.61636153471238
 31
0.0
  0
LINE
  5
393
330
21E
100
AcDbEntity
  8
06-99
100
AcDbLine
 10
314.9664308577349
 20
19.61636153471238
 30
0.0
 11
314.9797530897347
 21
19.79949054671237
 31
0.0
  0
LINE
  5
394
330
21E
100
AcDbEntity
  8
06-99
100
AcDbLine
 10
314.9797530897347
 20
19.79949054671237
 30
0.0
 11
314.969937833735
 21
19.97455422671237
 31
0.0
  0
LINE
  5
395
330
21E
100
AcDbEntity
  8
06-99
100
AcDbLine
 10
314.969937833735
 20
19.97455422671237
 30
0.0
 11
314.940481373735
 21
20.13261762671238
 31
0.0
  0
LINE
  5
396
330
21E
100
AcDbEntity
  8
06-99
100
AcDbLine
 10
314.940481373735
 20
20.13261762671238
 30
0.0
 11
314.8913551977349
 21
20.27374846271237
 31
0.0
  0
LINE
  5
397
330
21E
100
AcDbEntity
  8
06-99
100
AcDbLine
 10
314.8913551977349
 20
20.27374846271237
 30
0.0
 11
314.822541485735
 21
20.39801445071225
 31
0.0
  0
LINE
  5
398
330
21E
100
AcDbEntity
  8
06-99
100
AcDbLine
 10
314.822541485735
 20
20.39801445071225
 30
0.0
 11
314.7340152897349
 21
20.50548687071239
 31
0.0
  0
LINE
  5
399
330
21E
100
AcDbEntity
  8
06-99
100
AcDbLine
 10
314.7340152897349
 20
20.50548687071239
 30
0.0
 11
314.625751661735
 21
20.59623700271237
 31
0.0
  0
LINE
  5
39A
330
21E
100
AcDbEntity
  8
06-99
100
AcDbLine
 10
314.625751661735
 20
20.59623700271237
 30
0.0
 11
314.4977292177349
 21
20.67032899871231
 31
0.0
  0
LINE
  5
39B
330
21E
100
AcDbEntity
  8
06-99
100
AcDbLine
 10
314.4977292177349
 20
20.67032899871231
 30
0.0
 11
314.3499230097348
 21
20.72783413871235
 31
0.0
  0
LINE
  5
39C
330
21E
100
AcDbEntity
  8
06-99
100
AcDbLine
 10
314.3499230097348
 20
20.72783413871235
 30
0.0
 11
314.1823116537348
 21
20.76882726671238
 31
0.0
  0
LINE
  5
39D
330
21E
100
AcDbEntity
  8
06-99
100
AcDbLine
 10
314.1823116537348
 20
20.76882726671238
 30
0.0
 11
313.9948737657348
 21
20.79336897071238
 31
0.0
  0
LINE
  5
39E
330
21E
100
AcDbEntity
  8
06-99
100
AcDbLine
 10
313.9948737657348
 20
20.79336897071238
 30
0.0
 11
313.7875808337349
 21
20.80153409471234
 31
0.0
  0
LINE
  5
39F
330
21E
100
AcDbEntity
  8
06-99
100
AcDbLine
 10
313.7875808337349
 20
20.80153409471234
 30
0.0
 11
313.7875808337349
 21
20.80153409471234
 31
0.0
  0
LINE
  5
3A0
330
21E
100
AcDbEntity
  8
06-99
100
AcDbLine
 10
313.7875808337349
 20
20.80153409471234
 30
0.0
 11
313.1144053857349
 21
20.80153409471234
 31
0.0
  0
LINE
  5
3A1
330
21E
100
AcDbEntity
  8
06-99
100
AcDbLine
 10
313.1144053857349
 20
20.80153409471234
 30
0.0
 11
313.1144053857349
 21
17.12736016271231
 31
0.0
  0
LINE
  5
3A2
330
21E
100
AcDbEntity
  8
06-99
100
AcDbLine
 10
313.1144053857349
 20
17.12736016271231
 30
0.0
 11
313.448423465735
 21
17.12736016271231
 31
0.0
  0
LINE
  5
3A3
330
21E
100
AcDbEntity
  8
06-99
100
AcDbLine
 10
313.448423465735
 20
17.12736016271231
 30
0.0
 11
313.448423465735
 21
18.87965422271236
 31
0.0
  0
LINE
  5
3A4
330
21E
100
AcDbEntity
  8
06-99
100
AcDbLine
 10
313.448423465735
 20
18.87965422271236
 30
0.0
 11
313.6488378777349
 21
18.87965422271236
 31
0.0
  0
LINE
  5
3A5
330
21E
100
AcDbEntity
  8
06-99
100
AcDbLine
 10
313.6488378777349
 20
18.87965422271236
 30
0.0
 11
314.9386387857348
 21
17.12736016271231
 31
0.0
  0
LINE
  5
3A6
330
21E
100
AcDbEntity
  8
06-99
100
AcDbLine
 10
314.9386387857348
 20
17.12736016271231
 30
0.0
 11
315.3445997697348
 21
17.12736016271231
 31
0.0
  0
TEXT
  5
3A7
330
21E
100
AcDbEntity
  8
06-99
100
AcDbText
 10
294.6083578687944
 20
10.63320974709819
 30
0.0
 40
1.4256
  1
GmbH & Co KG
 41
1.199203187251
 51
15.0
  7
ROMAND8
 72
     5
 11
315.0419578687945
 21
10.63320974709819
 31
0.0
100
AcDbText
  0
TEXT
  5
3A9
330
21E
100
AcDbEntity
  8
06-99
100
AcDbText
 10
294.7098146233783
 20
8.391016474674643
 30
0.0
 40
1.4256
  1
72774 Reutlingen
 50
0.5663244663116128
 41
1.087840993687879
 51
15.0
  7
ROMAND8
 72
     5
 11
314.9434146233783
 21
8.591016474674631
 31
0.0
100
AcDbText
  0
TEXT
  5
3AA
330
21E
100
AcDbEntity
  8
08-99
100
AcDbText
 10
282.4141179695723
 20
49.4500923918223
 30
0.0
 40
2.25
  1
Zul. Abw.
 51
15.0
  7
ROMANS8
100
AcDbText
  0
TEXT
  5
3AB
330
21E
100
AcDbEntity
  8
08-99
100
AcDbText
 10
332.2099260900184
 20
50.28616492075241
 30
0.0
 40
2.0
  1
Mat. Art.
 51
15.0
  7
ROMANS8
100
AcDbText
  0
TEXT
  5
3AC
330
21E
100
AcDbEntity
  8
08-99
100
AcDbText
 10
364.4865307401076
 20
50.40431414472369
 30
0.0
 40
2.0
  1
Oberfläche:
 51
15.0
  7
ROMANS8
100
AcDbText
  0
TEXT
  5
3AD
330
21E
100
AcDbEntity
  8
08-99
100
AcDbText
 10
393.7625376083154
 20
42.73764747805694
 30
0.0
 40
2.0
  1
Blech Dicke:
 51
15.0
  7
ROMANS8
100
AcDbText
  0
TEXT
  5
3AE
330
21E
100
AcDbEntity
  8
08-99
100
AcDbText
 10
396.4380277982925
 20
50.28616492075252
 30
0.0
 40
2.0
  1
Maßstab:
 51
15.0
  7
ROMANS8
100
AcDbText
  0
LINE
  5
3AF
330
21E
100
AcDbEntity
  8
01-99
100
AcDbLine
 10
323.9999997697348
 20
47.88888965037898
 30
0.0
 11
300.9999997697348
 21
47.88888965037898
 31
0.0
  0
LINE
  5
3B0
330
21E
100
AcDbEntity
  8
01-99
100
AcDbLine
 10
323.9999997697348
 20
45.33333409471225
 30
0.0
 11
300.9999997697348
 21
45.33333409471225
 31
0.0
  0
LINE
  5
3B1
330
21E
100
AcDbEntity
  8
01-99
100
AcDbLine
 10
323.9999997697349
 20
41.50000076137894
 30
0.0
 11
300.9999997697347
 21
41.50000076137897
 31
0.0
  0
ATTDEF
  5
3B2
330
21E
100
AcDbEntity
  8
06-99
100
AcDbText
 10
325.495446508912
 20
27.18783945866119
 30
0.0
 40
4.5
  1

 41
0.9
  7
ROMANS8
100
AcDbAttributeDefinition
280
     0
  3
Benennung/Teil
  2
TEILE
 70
     0
280
     0
  0
ATTDEF
  5
3B3
330
21E
100
AcDbEntity
  8
06-99
100
AcDbText
 10
325.495446508912
 20
19.89177436492207
 30
0.0
 40
4.5
  1

 41
0.9
  7
ROMANS8
100
AcDbAttributeDefinition
280
     0
  3
Benennung/Teil2
  2
TEILE2
 70
     0
280
     0
  0
ATTDEF
  5
3B4
330
21E
100
AcDbEntity
  8
06-99
100
AcDbText
 10
400.3473859814493
 20
46.33333409471231
 30
0.0
 40
3.375
  1

  7
ROMANS8
100
AcDbAttributeDefinition
280
     0
  3
Maßstab
  2
:
 70
     0
280
     0
  0
ATTDEF
  5
3B5
330
21E
100
AcDbEntity
  8
06-99
100
AcDbText
 10
301.9970675691022
 20
28.44168622941026
 30
0.0
 40
2.5
  1

 41
0.9
  7
ROMANS8
100
AcDbAttributeDefinition
280
     0
  3
Name
  2
NAME
 70
     0
280
     0
  0
ATTDEF
  5
3B6
330
21E
100
AcDbEntity
  8
06-99
100
AcDbText
 10
288.4931462216289
 20
28.46123593549021
 30
0.0
 40
2.5
  1

 50
359.9144597696142
 41
0.9542572414211148
  7
ROMANS8
 72
     5
 11
299.7397368901736
 21
28.44444522804565
 31
0.0
100
AcDbAttributeDefinition
280
     0
  3
Datum
  2
DATUM
 70
     0
280
     0
  0
ATTDEF
  5
3B7
330
21E
100
AcDbEntity
  8
06-99
100
AcDbText
 10
387.5063437368931
 20
8.492900561667681
 30
0.0
 40
2.99376
  1

  7
ROMANS8
100
AcDbAttributeDefinition
280
     0
  3
Ident-Nummer
  2
ID.NR
 70
     0
280
     0
  0
ATTDEF
  5
3B8
330
21E
100
AcDbEntity
  8
06-99
100
AcDbText
 10
325.7312660254454
 20
38.66666740582343
 30
0.0
 40
3.0
  1

 41
0.9
  7
ROMANS8
100
AcDbAttributeDefinition
280
     0
  3
Zuschnitts.Länge
  2
LÄNGE
 70
     0
280
     0
  0
ATTDEF
  5
3B9
330
21E
100
AcDbEntity
  8
06-99
100
AcDbText
 10
359.1808046815046
 20
38.6781046318238
 30
0.0
 40
3.0
  1

 41
0.9
  7
ROMANS8
100
AcDbAttributeDefinition
280
     0
  3
Zuschnitts Breite
  2
BREITE
 70
     0
280
     0
  0
ATTDEF
  5
3BA
330
21E
100
AcDbEntity
  8
06-99
100
AcDbText
 10
399.6090918964667
 20
38.66666742804574
 30
0.0
 40
3.09375
  1

  7
ROMANS8
100
AcDbAttributeDefinition
280
     0
  3
Blech.Dicke
  2
1.0
 70
     0
280
     0
  0
ATTDEF
  5
3BB
330
21E
100
AcDbEntity
  8
06-99
100
AcDbText
 10
373.1277853711375
 20
46.33333409471243
 30
0.0
 40
3.0
  1

  7
ROMANS8
 72
     1
 11
373.1277853711375
 21
46.33333409471243
 31
0.0
100
AcDbAttributeDefinition
280
     0
  3
Oberfläche
  2
IV
 70
     0
280
     0
  0
ATTDEF
  5
3BC
330
21E
100
AcDbEntity
  8
06-99
100
AcDbText
 10
332.2747403058506
 20
46.33333409471219
 30
0.0
 40
3.375
  1
1.4301
  7
ROMANS8
100
AcDbAttributeDefinition
280
     0
  3
Mat.Art
  2
1.4301
 70
     0
280
     0
  0
ATTDEF
  5
3BD
330
21E
100
AcDbEntity
  8
06-99
100
AcDbText
 10
355.0006336566149
 20
8.504397365733609
 30
0.0
 40
3.168
  1

 41
0.9
  7
ROMANS8
100
AcDbAttributeDefinition
280
     0
  3
Auftrags Nr.
  2
AUFTRAGS.NR.
 70
     0
280
     0
  0
ATTDEF
  5
3BE
330
21E
100
AcDbEntity
  8
06-99
100
AcDbText
 10
325.4999997697348
 20
8.500000761378998
 30
0.0
 40
3.168
  1

 41
0.9
  7
ROMANS8
100
AcDbAttributeDefinition
280
     0
  3
Sonder-NR,WPS
  2
SONDER-NR
 70
     0
280
     0
  0
ATTDEF
  5
3BF
330
21E
100
AcDbEntity
  8
06-99
100
AcDbText
 10
255.4997507647431
 20
7.601810830638839
 30
0.0
 40
1.5
  1

 41
0.9
  7
ROMANS8
100
AcDbAttributeDefinition
280
     0
  3
ERSETZT.Durch
  2
ERSETZT.DURCH
 70
     0
280
     0
  0
ATTDEF
  5
3C0
330
21E
100
AcDbEntity
  8
06-99
100
AcDbText
 10
230.4994675499334
 20
7.597457159251405
 30
0.0
 40
1.5
  1

 41
0.9
  7
ROMANS8
100
AcDbAttributeDefinition
280
     0
  3
ERSETZT.Für
  2
ERSETZT.FÜR
 70
     0
280
     0
  0
ATTDEF
  5
3C1
330
21E
100
AcDbEntity
  8
06-99
100
AcDbText
 10
309.0037152733153
 20
48.66851190138698
 30
0.0
 40
1.287
  1
DIN A3
  7
ROMANS8
 72
     1
 11
312.2518581304581
 21
48.66851190138698
 31
0.0
100
AcDbAttributeDefinition
280
     0
  3
Format
  2
FORMAT
 70
     0
280
     0
  0
ATTDEF
  5
3C2
330
21E
100
AcDbEntity
  8
06-99
100
AcDbText
 10
304.9914283411633
 20
38.39666742804565
 30
0.0
 40
2.34
  1
DIN 2768
  7
ROMANS8
 72
     1
 11
313.0142854840205
 21
38.39666742804565
 31
0.0
100
AcDbAttributeDefinition
280
     0
  3
Norm / Kanten
  2
NORM2
 70
     0
280
     0
  0
ATTDEF
  5
3C3
330
21E
100
AcDbEntity
  8
06-99
100
AcDbText
 10
301.8157140554491
 20
42.23000076137895
 30
0.0
 40
2.34
  1
DIN 6930-M
  7
ROMANS8
 72
     1
 11
312.5128569125919
 21
42.23000076137895
 31
0.0
100
AcDbAttributeDefinition
280
     0
  3
Norm / Fräsen
  2
NORM1
 70
     0
280
     0
  0
ENDBLK
  5
3C4
330
21E
100
AcDbEntity
  8
0
100
AcDbBlockEnd
  0
BLOCK
  5
128
330
127
100
AcDbEntity
  8
0
100
AcDbBlockBegin
  2
*D11
 70
     1
 10
0.0
 20
0.0
 30
0.0
  3
*D11
  1

  0
LINE
  5
129
330
127
100
AcDbEntity
  8
09-01
 62
     4
370
    -2
100
AcDbLine
 10
125.4436399503624
 20
616.3836082567254
 30
0.0
 11
125.4436399503624
 21
629.6652601089733
 31
0.0
  0
LINE
  5
12A
330
127
100
AcDbEntity
  8
09-01
 62
     4
370
    -2
100
AcDbLine
 10
525.4436399503622
 20
616.3836082567254
 30
0.0
 11
525.4436399503622
 21
629.6652601089733
 31
0.0
  0
LINE
  5
12B
330
127
100
AcDbEntity
  8
09-01
 62
     4
370
    -2
100
AcDbLine
 10
131.6936399503624
 20
627.1652601089733
 30
0.0
 11
519.1936399503622
 21
627.1652601089733
 31
0.0
  0
SOLID
  5
12C
330
127
100
AcDbEntity
  8
09-01
 62
     4
100
AcDbTrace
 10
131.6936399503624
 20
628.20692677564
 30
0.0
 11
131.6936399503624
 21
626.1235934423067
 31
0.0
 12
125.4436399503624
 22
627.1652601089733
 32
0.0
 13
125.4436399503624
 23
627.1652601089733
 33
0.0
  0
SOLID
  5
12D
330
127
100
AcDbEntity
  8
09-01
 62
     4
100
AcDbTrace
 10
519.1936399503622
 20
628.20692677564
 30
0.0
 11
519.1936399503622
 21
626.1235934423067
 31
0.0
 12
525.4436399503622
 22
627.1652601089733
 32
0.0
 13
525.4436399503622
 23
627.1652601089733
 33
0.0
  0
MTEXT
  5
12E
330
127
100
AcDbEntity
  8
09-01
 62
     1
100
AcDbMText
 10
325.4436399503624
 20
632.7902601089733
 30
0.0
 40
6.25
 41
0.0
 46
0.0
 71
     5
 72
     1
  1
400
 73
     1
 44
1.0
  0
POINT
  5
12F
330
127
100
AcDbEntity
  8
DEFPOINTS
 62
     0
100
AcDbPoint
 10
125.4436399503624
 20
613.8836082567254
 30
0.0
  0
POINT
  5
130
330
127
100
AcDbEntity
  8
DEFPOINTS
 62
     0
100
AcDbPoint
 10
525.4436399503622
 20
613.8836082567254
 30
0.0
  0
POINT
  5
131
330
127
100
AcDbEntity
  8
DEFPOINTS
 62
     0
100
AcDbPoint
 10
525.4436399503622
 20
627.1652601089733
 30
0.0
  0
ENDBLK
  5
132
330
127
100
AcDbEntity
  8
0
100
AcDbBlockEnd
  0
BLOCK
  5
11A
330
119
100
AcDbEntity
  8
0
100
AcDbBlockBegin
  2
*D12
 70
     1
 10
0.0
 20
0.0
 30
0.0
  3
*D12
  1

  0
LINE
  5
11B
330
119
100
AcDbEntity
  8
09-01
 62
     4
370
    -2
100
AcDbLine
 10
151.4436399503624
 20
566.1336082567256
 30
0.0
 11
151.4436399503624
 21
552.5660495416683
 31
0.0
  0
LINE
  5
11C
330
119
100
AcDbEntity
  8
09-01
 62
     4
370
    -2
100
AcDbLine
 10
472.4436399503624
 20
566.1336082567256
 30
0.0
 11
472.4436399503624
 21
552.5660495416683
 31
0.0
  0
LINE
  5
11D
330
119
100
AcDbEntity
  8
09-01
 62
     4
370
    -2
100
AcDbLine
 10
157.6936399503624
 20
555.0660495416683
 30
0.0
 11
466.1936399503624
 21
555.0660495416683
 31
0.0
  0
SOLID
  5
11E
330
119
100
AcDbEntity
  8
09-01
 62
     4
100
AcDbTrace
 10
157.6936399503624
 20
556.1077162083349
 30
0.0
 11
157.6936399503624
 21
554.0243828750017
 31
0.0
 12
151.4436399503624
 22
555.0660495416683
 32
0.0
 13
151.4436399503624
 23
555.0660495416683
 33
0.0
  0
SOLID
  5
11F
330
119
100
AcDbEntity
  8
09-01
 62
     4
100
AcDbTrace
 10
466.1936399503624
 20
556.1077162083349
 30
0.0
 11
466.1936399503624
 21
554.0243828750017
 31
0.0
 12
472.4436399503624
 22
555.0660495416683
 32
0.0
 13
472.4436399503624
 23
555.0660495416683
 33
0.0
  0
MTEXT
  5
120
330
119
100
AcDbEntity
  8
09-01
 62
     1
100
AcDbMText
 10
311.9436399503625
 20
560.6910495416683
 30
0.0
 40
6.25
 41
0.0
 46
0.0
 71
     5
 72
     1
  1
321
 73
     1
 44
1.0
  0
POINT
  5
121
330
119
100
AcDbEntity
  8
DEFPOINTS
 62
     0
100
AcDbPoint
 10
151.4436399503624
 20
568.6336082567256
 30
0.0
  0
POINT
  5
122
330
119
100
AcDbEntity
  8
DEFPOINTS
 62
     0
100
AcDbPoint
 10
472.4436399503624
 20
568.6336082567256
 30
0.0
  0
POINT
  5
123
330
119
100
AcDbEntity
  8
DEFPOINTS
 62
     0
100
AcDbPoint
 10
472.4436399503624
 20
555.0660495416683
 30
0.0
  0
ENDBLK
  5
124
330
119
100
AcDbEntity
  8
0
100
AcDbBlockEnd
  0
BLOCK
  5
10D
330
10C
100
AcDbEntity
  8
0
100
AcDbBlockBegin
  2
*D13
 70
     1
 10
0.0
 20
0.0
 30
0.0
  3
*D13
  1

  0
LINE
  5
10E
330
10C
100
AcDbEntity
  8
09-01
 62
     4
370
    -2
100
AcDbLine
 10
144.9436399503625
 20
587.8836082567256
 30
0.0
 11
105.7867829991296
 21
587.8836082567256
 31
0.0
  0
LINE
  5
10F
330
10C
100
AcDbEntity
  8
09-01
 62
     4
370
    -2
100
AcDbLine
 10
144.9436399503625
 20
375.8836082567257
 30
0.0
 11
105.7867829991296
 21
375.8836082567258
 31
0.0
  0
LINE
  5
110
330
10C
100
AcDbEntity
  8
09-01
 62
     4
370
    -2
100
AcDbLine
 10
108.2867829991297
 20
581.6336082567256
 30
0.0
 11
108.2867829991296
 21
382.1336082567258
 31
0.0
  0
SOLID
  5
111
330
10C
100
AcDbEntity
  8
09-01
 62
     4
100
AcDbTrace
 10
107.245116332463
 20
581.6336082567256
 30
0.0
 11
109.3284496657963
 21
581.6336082567256
 31
0.0
 12
108.2867829991297
 22
587.8836082567256
 32
0.0
 13
108.2867829991297
 23
587.8836082567256
 33
0.0
  0
SOLID
  5
112
330
10C
100
AcDbEntity
  8
09-01
 62
     4
100
AcDbTrace
 10
107.2451163324629
 20
382.1336082567258
 30
0.0
 11
109.3284496657963
 21
382.1336082567258
 31
0.0
 12
108.2867829991296
 22
375.8836082567258
 32
0.0
 13
108.2867829991296
 23
375.8836082567258
 33
0.0
  0
MTEXT
  5
113
330
10C
100
AcDbEntity
  8
09-01
 62
     1
100
AcDbMText
 10
102.6617829991296
 20
481.8836082567257
 30
0.0
 40
6.25
 41
0.0
 46
0.0
 71
     5
 72
     1
  1
212
 11
0.0000000000000001
 21
1.0
 31
0.0
 73
     1
 44
1.0
  0
POINT
  5
114
330
10C
100
AcDbEntity
  8
DEFPOINTS
 62
     0
100
AcDbPoint
 10
147.4436399503624
 20
587.8836082567256
 30
0.0
  0
POINT
  5
115
330
10C
100
AcDbEntity
  8
DEFPOINTS
 62
     0
100
AcDbPoint
 10
147.4436399503624
 20
375.8836082567257
 30
0.0
  0
POINT
  5
116
330
10C
100
AcDbEntity
  8
DEFPOINTS
 62
     0
100
AcDbPoint
 10
108.2867829991296
 20
375.8836082567258
 30
0.0
  0
ENDBLK
  5
117
330
10C
100
AcDbEntity
  8
0
100
AcDbBlockEnd
  0
BLOCK
  5
100
330
FF
100
AcDbEntity
  8
0
100
AcDbBlockBegin
  2
*D14
 70
     1
 10
0.0
 20
0.0
 30
0.0
  3
*D14
  1

  0
LINE
  5
101
330
FF
100
AcDbEntity
  8
09-01
 62
     4
370
    -2
100
AcDbLine
 10
144.9436399503625
 20
587.8836082567256
 30
0.0
 11
105.7867829991296
 21
587.8836082567256
 31
0.0
  0
LINE
  5
102
330
FF
100
AcDbEntity
  8
09-01
 62
     4
370
    -2
100
AcDbLine
 10
122.9436399503624
 20
613.8836082567254
 30
0.0
 11
105.7867829991296
 21
613.8836082567254
 31
0.0
  0
LINE
  5
103
330
FF
100
AcDbEntity
  8
09-01
 62
     4
370
    -2
100
AcDbLine
 10
108.2867829991296
 20
594.1336082567256
 30
0.0
 11
108.2867829991296
 21
607.6336082567254
 31
0.0
  0
SOLID
  5
104
330
FF
100
AcDbEntity
  8
09-01
 62
     4
100
AcDbTrace
 10
107.2451163324629
 20
594.1336082567256
 30
0.0
 11
109.3284496657963
 21
594.1336082567256
 31
0.0
 12
108.2867829991296
 22
587.8836082567256
 32
0.0
 13
108.2867829991296
 23
587.8836082567256
 33
0.0
  0
SOLID
  5
105
330
FF
100
AcDbEntity
  8
09-01
 62
     4
100
AcDbTrace
 10
107.2451163324629
 20
607.6336082567254
 30
0.0
 11
109.3284496657963
 21
607.6336082567254
 31
0.0
 12
108.2867829991296
 22
613.8836082567254
 32
0.0
 13
108.2867829991296
 23
613.8836082567254
 33
0.0
  0
MTEXT
  5
106
330
FF
100
AcDbEntity
  8
09-01
 62
     1
100
AcDbMText
 10
102.6617829991295
 20
600.8836082567255
 30
0.0
 40
6.25
 41
0.0
 46
0.0
 71
     5
 72
     1
  1
26
 11
0.0000000000000001
 21
1.0
 31
0.0
 73
     1
 44
1.0
  0
POINT
  5
107
330
FF
100
AcDbEntity
  8
DEFPOINTS
 62
     0
100
AcDbPoint
 10
147.4436399503624
 20
587.8836082567256
 30
0.0
  0
POINT
  5
108
330
FF
100
AcDbEntity
  8
DEFPOINTS
 62
     0
100
AcDbPoint
 10
125.4436399503624
 20
613.8836082567254
 30
0.0
  0
POINT
  5
109
330
FF
100
AcDbEntity
  8
DEFPOINTS
 62
     0
100
AcDbPoint
 10
108.2867829991296
 20
613.8836082567254
 30
0.0
  0
ENDBLK
  5
10A
330
FF
100
AcDbEntity
  8
0
100
AcDbBlockEnd
  0
BLOCK
  5
F3
330
F2
100
AcDbEntity
  8
0
100
AcDbBlockBegin
  2
*D15
 70
     1
 10
0.0
 20
0.0
 30
0.0
  3
*D15
  1

  0
LINE
  5
F4
330
F2
100
AcDbEntity
  8
09-01
 62
     4
370
    -2
100
AcDbLine
 10
144.9436399503625
 20
375.8836082567257
 30
0.0
 11
105.7867829991296
 21
375.8836082567258
 31
0.0
  0
LINE
  5
F5
330
F2
100
AcDbEntity
  8
09-01
 62
     4
370
    -2
100
AcDbLine
 10
122.9436399503624
 20
315.8836082567256
 30
0.0
 11
105.7867829991296
 21
315.8836082567256
 31
0.0
  0
LINE
  5
F6
330
F2
100
AcDbEntity
  8
09-01
 62
     4
370
    -2
100
AcDbLine
 10
108.2867829991296
 20
369.6336082567258
 30
0.0
 11
108.2867829991296
 21
322.1336082567256
 31
0.0
  0
SOLID
  5
F7
330
F2
100
AcDbEntity
  8
09-01
 62
     4
100
AcDbTrace
 10
107.2451163324629
 20
369.6336082567258
 30
0.0
 11
109.3284496657963
 21
369.6336082567258
 31
0.0
 12
108.2867829991296
 22
375.8836082567258
 32
0.0
 13
108.2867829991296
 23
375.8836082567258
 33
0.0
  0
SOLID
  5
F8
330
F2
100
AcDbEntity
  8
09-01
 62
     4
100
AcDbTrace
 10
107.2451163324629
 20
322.1336082567256
 30
0.0
 11
109.3284496657963
 21
322.1336082567256
 31
0.0
 12
108.2867829991296
 22
315.8836082567256
 32
0.0
 13
108.2867829991296
 23
315.8836082567256
 33
0.0
  0
MTEXT
  5
F9
330
F2
100
AcDbEntity
  8
09-01
 62
     1
100
AcDbMText
 10
102.6617829991296
 20
345.8836082567257
 30
0.0
 40
6.25
 41
0.0
 46
0.0
 71
     5
 72
     1
  1
60
 11
0.0000000000000001
 21
1.0
 31
0.0
 73
     1
 44
1.0
  0
POINT
  5
FA
330
F2
100
AcDbEntity
  8
DEFPOINTS
 62
     0
100
AcDbPoint
 10
147.4436399503624
 20
375.8836082567257
 30
0.0
  0
POINT
  5
FB
330
F2
100
AcDbEntity
  8
DEFPOINTS
 62
     0
100
AcDbPoint
 10
125.4436399503624
 20
315.8836082567256
 30
0.0
  0
POINT
  5
FC
330
F2
100
AcDbEntity
  8
DEFPOINTS
 62
     0
100
AcDbPoint
 10
108.2867829991296
 20
315.8836082567256
 30
0.0
  0
ENDBLK
  5
FD
330
F2
100
AcDbEntity
  8
0
100
AcDbBlockEnd
  0
BLOCK
  5
E6
330
E5
100
AcDbEntity
  8
0
100
AcDbBlockBegin
  2
*D16
 70
     1
 10
0.0
 20
0.0
 30
0.0
  3
*D16
  1

  0
LINE
  5
E7
330
E5
100
AcDbEntity
  8
09-01
 62
     4
370
    -2
100
AcDbLine
 10
151.4436399503624
 20
566.1336082567256
 30
0.0
 11
151.4436399503624
 21
552.5660495416683
 31
0.0
  0
LINE
  5
E8
330
E5
100
AcDbEntity
  8
09-01
 62
     4
370
    -2
100
AcDbLine
 10
125.4436399503625
 20
534.2964100795033
 30
0.0
 11
125.4436399503625
 21
557.5660495416683
 31
0.0
  0
LINE
  5
E9
330
E5
100
AcDbEntity
  8
09-01
 62
     4
370
    -2
100
AcDbLine
 10
145.1936399503624
 20
555.0660495416683
 30
0.0
 11
131.6936399503625
 21
555.0660495416683
 31
0.0
  0
MTEXT
  5
EA
330
E5
100
AcDbEntity
  8
09-01
 62
     1
100
AcDbMText
 10
118.6332037000994
 20
559.9794423895786
 30
0.0
 40
6.25
 41
0.0
 46
0.0
 71
     5
 72
     1
  1
26
 73
     1
 44
1.0
  0
SOLID
  5
EB
330
E5
100
AcDbEntity
  8
09-01
 62
     4
100
AcDbTrace
 10
145.1936399503624
 20
556.1077162083349
 30
0.0
 11
145.1936399503624
 21
554.0243828750017
 31
0.0
 12
151.4436399503624
 22
555.0660495416683
 32
0.0
 13
151.4436399503624
 23
555.0660495416683
 33
0.0
  0
SOLID
  5
EC
330
E5
100
AcDbEntity
  8
09-01
 62
     4
100
AcDbTrace
 10
131.6936399503625
 20
556.1077162083349
 30
0.0
 11
131.6936399503625
 21
554.0243828750017
 31
0.0
 12
125.4436399503625
 22
555.0660495416683
 32
0.0
 13
125.4436399503625
 23
555.0660495416683
 33
0.0
  0
POINT
  5
ED
330
E5
100
AcDbEntity
  8
DEFPOINTS
 62
     0
100
AcDbPoint
 10
151.4436399503624
 20
568.6336082567256
 30
0.0
  0
POINT
  5
EE
330
E5
100
AcDbEntity
  8
DEFPOINTS
 62
     0
100
AcDbPoint
 10
125.4436399503625
 20
531.7964100795032
 30
0.0
  0
POINT
  5
EF
330
E5
100
AcDbEntity
  8
DEFPOINTS
 62
     0
100
AcDbPoint
 10
125.4436399503625
 20
555.0660495416683
 30
0.0
  0
ENDBLK
  5
F0
330
E5
100
AcDbEntity
  8
0
100
AcDbBlockEnd
  0
BLOCK
  5
D9
330
D8
100
AcDbEntity
  8
0
100
AcDbBlockBegin
  2
*D17
 70
     1
 10
0.0
 20
0.0
 30
0.0
  3
*D17
  1

  0
LINE
  5
DA
330
D8
100
AcDbEntity
  8
09-01
 62
     4
370
    -2
100
AcDbLine
 10
472.4436399503624
 20
566.1336082567256
 30
0.0
 11
472.4436399503624
 21
552.5660495416683
 31
0.0
  0
LINE
  5
DB
330
D8
100
AcDbEntity
  8
09-01
 62
     4
370
    -2
100
AcDbLine
 10
525.4436399503622
 20
534.5158818155022
 30
0.0
 11
525.4436399503622
 21
557.5660495416683
 31
0.0
  0
LINE
  5
DC
330
D8
100
AcDbEntity
  8
09-01
 62
     4
370
    -2
100
AcDbLine
 10
478.6936399503624
 20
555.0660495416683
 30
0.0
 11
519.1936399503622
 21
555.0660495416683
 31
0.0
  0
SOLID
  5
DD
330
D8
100
AcDbEntity
  8
09-01
 62
     4
100
AcDbTrace
 10
478.6936399503624
 20
556.1077162083349
 30
0.0
 11
478.6936399503624
 21
554.0243828750017
 31
0.0
 12
472.4436399503624
 22
555.0660495416683
 32
0.0
 13
472.4436399503624
 23
555.0660495416683
 33
0.0
  0
SOLID
  5
DE
330
D8
100
AcDbEntity
  8
09-01
 62
     4
100
AcDbTrace
 10
519.1936399503622
 20
556.1077162083349
 30
0.0
 11
519.1936399503622
 21
554.0243828750017
 31
0.0
 12
525.4436399503622
 22
555.0660495416683
 32
0.0
 13
525.4436399503622
 23
555.0660495416683
 33
0.0
  0
MTEXT
  5
DF
330
D8
100
AcDbEntity
  8
09-01
 62
     1
100
AcDbMText
 10
498.9436399503623
 20
560.6910495416683
 30
0.0
 40
6.25
 41
0.0
 46
0.0
 71
     5
 72
     1
  1
53
 73
     1
 44
1.0
  0
POINT
  5
E0
330
D8
100
AcDbEntity
  8
DEFPOINTS
 62
     0
100
AcDbPoint
 10
472.4436399503624
 20
568.6336082567256
 30
0.0
  0
POINT
  5
E1
330
D8
100
AcDbEntity
  8
DEFPOINTS
 62
     0
100
AcDbPoint
 10
525.4436399503622
 20
532.0158818155022
 30
0.0
  0
POINT
  5
E2
330
D8
100
AcDbEntity
  8
DEFPOINTS
 62
     0
100
AcDbPoint
 10
525.4436399503622
 20
555.0660495416683
 30
0.0
  0
ENDBLK
  5
E3
330
D8
100
AcDbEntity
  8
0
100
AcDbBlockEnd
  0
BLOCK
  5
A8
330
A7
100
AcDbEntity
  8
0
100
AcDbBlockBegin
  2
*D18
 70
     1
 10
0.0
 20
0.0
 30
0.0
  3
*D18
  1

  0
LINE
  5
A9
330
A7
100
AcDbEntity
  8
09-01
 62
     4
370
    -2
100
AcDbLine
 10
157.4436399503625
 20
587.8836082567256
 30
0.0
 11
177.4061916437849
 21
587.8836082567256
 31
0.0
  0
LINE
  5
AA
330
A7
100
AcDbEntity
  8
09-01
 62
     4
370
    -2
100
AcDbLine
 10
160.6936399503624
 20
575.8836082567256
 30
0.0
 11
177.4061916437849
 21
575.8836082567256
 31
0.0
  0
LINE
  5
AB
330
A7
100
AcDbEntity
  8
09-01
 62
     4
370
    -2
100
AcDbLine
 10
175.406191643785
 20
592.8836082567256
 30
0.0
 11
175.406191643785
 21
597.8836082567256
 31
0.0
  0
LINE
  5
AC
330
A7
100
AcDbEntity
  8
09-01
 62
     4
370
    -2
100
AcDbLine
 10
175.4061916437849
 20
570.8836082567256
 30
0.0
 11
175.4061916437849
 21
565.8836082567257
 31
0.0
  0
LINE
  5
AD
330
A7
100
AcDbEntity
  8
09-01
 62
     4
370
    -2
100
AcDbLine
 10
175.406191643785
 20
587.8836082567256
 30
0.0
 11
175.4061916437849
 21
575.8836082567256
 31
0.0
  0
SOLID
  5
AE
330
A7
100
AcDbEntity
  8
09-01
 62
     4
100
AcDbTrace
 10
174.5728583104516
 20
592.8836082567256
 30
0.0
 11
176.2395249771183
 21
592.8836082567256
 31
0.0
 12
175.406191643785
 22
587.8836082567256
 32
0.0
 13
175.406191643785
 23
587.8836082567256
 33
0.0
  0
SOLID
  5
AF
330
A7
100
AcDbEntity
  8
09-01
 62
     4
100
AcDbTrace
 10
174.5728583104516
 20
570.8836082567256
 30
0.0
 11
176.2395249771183
 21
570.8836082567256
 31
0.0
 12
175.4061916437849
 22
575.8836082567256
 32
0.0
 13
175.4061916437849
 23
575.8836082567256
 33
0.0
  0
MTEXT
  5
B0
330
A7
100
AcDbEntity
  8
09-01
 62
     1
100
AcDbMText
 10
170.9061916437848
 20
581.8836082567257
 30
0.0
 40
5.0
 41
0.0
 46
0.0
 71
     5
 72
     1
  1
12
 11
0.0000000000000001
 21
1.0
 31
0.0
 73
     1
 44
1.0
  0
POINT
  5
B1
330
A7
100
AcDbEntity
  8
DEFPOINTS
 62
     0
100
AcDbPoint
 10
155.4436399503624
 20
587.8836082567256
 30
0.0
  0
POINT
  5
B2
330
A7
100
AcDbEntity
  8
DEFPOINTS
 62
     0
100
AcDbPoint
 10
158.6936399503624
 20
575.8836082567256
 30
0.0
  0
POINT
  5
B3
330
A7
100
AcDbEntity
  8
DEFPOINTS
 62
     0
100
AcDbPoint
 10
175.4061916437849
 20
575.8836082567256
 30
0.0
  0
ENDBLK
  5
B4
330
A7
100
AcDbEntity
  8
0
100
AcDbBlockEnd
  0
BLOCK
  5
99
330
98
100
AcDbEntity
  8
0
100
AcDbBlockBegin
  2
*D19
 70
     1
 10
0.0
 20
0.0
 30
0.0
  3
*D19
  1

  0
LINE
  5
9A
330
98
100
AcDbEntity
  8
09-01
 62
     4
370
    -2
100
AcDbLine
 10
148.6936399503624
 20
589.8836082567256
 30
0.0
 11
148.6936399503624
 21
602.8624809769046
 31
0.0
  0
LINE
  5
9B
330
98
100
AcDbEntity
  8
09-01
 62
     4
370
    -2
100
AcDbLine
 10
154.1936399503624
 20
589.8836082567256
 30
0.0
 11
154.1936399503624
 21
602.8624809769046
 31
0.0
  0
LINE
  5
9C
330
98
100
AcDbEntity
  8
09-01
 62
     4
370
    -2
100
AcDbLine
 10
143.6936399503624
 20
600.8624809769046
 30
0.0
 11
138.6936399503625
 21
600.8624809769046
 31
0.0
  0
LINE
  5
9D
330
98
100
AcDbEntity
  8
09-01
 62
     4
370
    -2
100
AcDbLine
 10
159.1936399503624
 20
600.8624809769046
 30
0.0
 11
164.1936399503624
 21
600.8624809769046
 31
0.0
  0
MTEXT
  5
9E
330
98
100
AcDbEntity
  8
09-01
 62
     1
100
AcDbMText
 10
164.3972350796084
 20
605.2357427261043
 30
0.0
 40
5.0
 41
0.0
 46
0.0
 71
     5
 72
     1
  1
5.5
 73
     1
 44
1.0
  0
LINE
  5
9F
330
98
100
AcDbEntity
  8
09-01
 62
     4
370
    -2
100
AcDbLine
 10
148.6936399503624
 20
600.8624809769046
 30
0.0
 11
154.1936399503624
 21
600.8624809769046
 31
0.0
  0
SOLID
  5
A0
330
98
100
AcDbEntity
  8
09-01
 62
     4
100
AcDbTrace
 10
143.6936399503624
 20
601.695814310238
 30
0.0
 11
143.6936399503624
 21
600.0291476435712
 31
0.0
 12
148.6936399503624
 22
600.8624809769046
 32
0.0
 13
148.6936399503624
 23
600.8624809769046
 33
0.0
  0
SOLID
  5
A1
330
98
100
AcDbEntity
  8
09-01
 62
     4
100
AcDbTrace
 10
159.1936399503624
 20
601.695814310238
 30
0.0
 11
159.1936399503624
 21
600.0291476435712
 31
0.0
 12
154.1936399503624
 22
600.8624809769046
 32
0.0
 13
154.1936399503624
 23
600.8624809769046
 33
0.0
  0
POINT
  5
A2
330
98
100
AcDbEntity
  8
DEFPOINTS
 62
     0
100
AcDbPoint
 10
148.6936399503624
 20
587.8836082567256
 30
0.0
  0
POINT
  5
A3
330
98
100
AcDbEntity
  8
DEFPOINTS
 62
     0
100
AcDbPoint
 10
154.1936399503624
 20
587.8836082567256
 30
0.0
  0
POINT
  5
A4
330
98
100
AcDbEntity
  8
DEFPOINTS
 62
     0
100
AcDbPoint
 10
154.1936399503624
 20
600.8624809769046
 30
0.0
  0
ENDBLK
  5
A5
330
98
100
AcDbEntity
  8
0
100
AcDbBlockEnd
  0
BLOCK
  5
88
330
87
100
AcDbEntity
  8
0
100
AcDbBlockBegin
  2
*D20
 70
     1
 10
0.0
 20
0.0
 30
0.0
  3
*D20
  1

  0
LINE
  5
89
330
87
100
AcDbEntity
  8
09-01
 62
     4
370
    -2
100
AcDbLine
 10
145.1936399503624
 20
573.8836082567257
 30
0.0
 11
145.1936399503624
 21
558.15119198167
 31
0.0
  0
LINE
  5
8A
330
87
100
AcDbEntity
  8
09-01
 62
     4
370
    -2
100
AcDbLine
 10
157.6936399503624
 20
573.8836082567257
 30
0.0
 11
157.6936399503624
 21
558.15119198167
 31
0.0
  0
LINE
  5
8B
330
87
100
AcDbEntity
  8
09-01
 62
     4
370
    -2
100
AcDbLine
 10
140.1936399503624
 20
560.15119198167
 30
0.0
 11
135.1936399503624
 21
560.15119198167
 31
0.0
  0
LINE
  5
8C
330
87
100
AcDbEntity
  8
09-01
 62
     4
370
    -2
100
AcDbLine
 10
162.6936399503625
 20
560.15119198167
 30
0.0
 11
167.6936399503624
 21
560.15119198167
 31
0.0
  0
MTEXT
  5
8D
330
87
100
AcDbEntity
  8
09-01
 62
     1
100
AcDbMText
 10
168.1631499180575
 20
564.8639229687471
 30
0.0
 40
5.0
 41
0.0
 46
0.0
 71
     5
 72
     1
  1
12.5
 73
     1
 44
1.0
  0
LINE
  5
8E
330
87
100
AcDbEntity
  8
09-01
 62
     4
370
    -2
100
AcDbLine
 10
145.1936399503624
 20
560.15119198167
 30
0.0
 11
157.6936399503624
 21
560.15119198167
 31
0.0
  0
SOLID
  5
8F
330
87
100
AcDbEntity
  8
09-01
 62
     4
100
AcDbTrace
 10
140.1936399503624
 20
560.9845253150034
 30
0.0
 11
140.1936399503624
 21
559.3178586483367
 31
0.0
 12
145.1936399503624
 22
560.15119198167
 32
0.0
 13
145.1936399503624
 23
560.15119198167
 33
0.0
  0
SOLID
  5
90
330
87
100
AcDbEntity
  8
09-01
 62
     4
100
AcDbTrace
 10
162.6936399503625
 20
560.9845253150034
 30
0.0
 11
162.6936399503625
 21
559.3178586483367
 31
0.0
 12
157.6936399503624
 22
560.15119198167
 32
0.0
 13
157.6936399503624
 23
560.15119198167
 33
0.0
  0
POINT
  5
91
330
87
100
AcDbEntity
  8
DEFPOINTS
 62
     0
100
AcDbPoint
 10
145.1936399503624
 20
575.8836082567256
 30
0.0
  0
POINT
  5
93
330
87
100
AcDbEntity
  8
DEFPOINTS
 62
     0
100
AcDbPoint
 10
157.6936399503624
 20
575.8836082567256
 30
0.0
  0
POINT
  5
94
330
87
100
AcDbEntity
  8
DEFPOINTS
 62
     0
100
AcDbPoint
 10
157.6936399503624
 20
560.15119198167
 30
0.0
  0
ENDBLK
  5
95
330
87
100
AcDbEntity
  8
0
100
AcDbBlockEnd
  0
ENDSEC
  0
SECTION
  2
ENTITIES
  0
CIRCLE
  5
7B
330
2
100
AcDbEntity
  8
03-01
100
AcDbCircle
 10
325.4436399503625
 20
571.8836082567257
 30
0.0
 40
3.25
  0
LINE
  5
80
330
2
100
AcDbEntity
  8
05-01
100
AcDbLine
 10
321.1936399503624
 20
571.8836082567257
 30
0.0
 11
329.6936399503625
 21
571.8836082567257
 31
0.0
  0
LINE
  5
85
330
2
100
AcDbEntity
  8
05-01
100
AcDbLine
 10
325.4436399503625
 20
576.1336082567257
 30
0.0
 11
325.4436399503625
 21
567.6336082567257
 31
0.0
  0
DIMENSION
  5
86
330
2
100
AcDbEntity
  8
09-01
100
AcDbDimension
280
     0
  2
*D20
 10
157.6936399503624
 20
560.15119198167
 30
0.0
 11
168.1631499180575
 21
564.8639229687471
 31
0.0
 70
   128
 71
     5
 42
12.5
 73
     0
 74
     0
 75
     0
  3
Wagner$0
100
AcDbAlignedDimension
 13
145.1936399503624
 23
575.8836082567256
 33
0.0
 14
157.6936399503624
 24
575.8836082567256
 34
0.0
100
AcDbRotatedDimension
1001
ACAD
1000
DSTYLE
1002
{
1070
    40
1040
2.0
1002
}
  0
DIMENSION
  5
97
330
2
100
AcDbEntity
  8
09-01
100
AcDbDimension
280
     0
  2
*D19
 10
154.1936399503624
 20
600.8624809769046
 30
0.0
 11
164.3972350796084
 21
605.2357427261043
 31
0.0
 70
   128
 71
     5
 42
5.5
 73
     0
 74
     0
 75
     0
  3
Wagner$0
100
AcDbAlignedDimension
 13
148.6936399503624
 23
587.8836082567256
 33
0.0
 14
154.1936399503624
 24
587.8836082567256
 34
0.0
100
AcDbRotatedDimension
1001
ACAD
1000
DSTYLE
1002
{
1070
    40
1040
2.0
1002
}
  0
DIMENSION
  5
A6
330
2
100
AcDbEntity
  8
09-01
100
AcDbDimension
280
     0
  2
*D18
 10
175.4061916437849
 20
575.8836082567256
 30
0.0
 11
170.9061916437848
 21
581.8836082567257
 31
0.0
 71
     5
 42
12.0
 73
     0
 74
     0
 75
     0
  3
Wagner$0
100
AcDbAlignedDimension
 13
155.4436399503624
 23
587.8836082567256
 33
0.0
 14
158.6936399503624
 24
575.8836082567256
 34
0.0
 50
90.0
100
AcDbRotatedDimension
1001
ACAD
1000
DSTYLE
1002
{
1070
    40
1040
2.0
1002
}
  0
ARC
  5
B5
330
2
100
AcDbEntity
  8
03-01
100
AcDbCircle
 10
472.4436399503624
 20
363.8836082567257
 30
0.0
 40
6.25
100
AcDbArc
 50
116.1038811373434
 51
63.89611886265655
  0
LINE
  5
B6
330
2
100
AcDbEntity
  8
05-01
100
AcDbLine
 10
465.1936399503624
 20
363.8836082567257
 30
0.0
 11
479.6936399503624
 21
363.8836082567257
 31
0.0
  0
LINE
  5
B7
330
2
100
AcDbEntity
  8
03-01
100
AcDbLine
 10
469.6936399503624
 20
375.8836082567257
 30
0.0
 11
469.6936399503624
 21
369.4960943368865
 31
0.0
  0
ARC
  5
B8
330
2
100
AcDbEntity
  8
03-01
100
AcDbCircle
 10
472.4436399503624
 20
375.8836082567257
 30
0.0
 40
2.75
100
AcDbArc
 50
0.0
 51
180.0
  0
LINE
  5
B9
330
2
100
AcDbEntity
  8
03-01
100
AcDbLine
 10
475.1936399503624
 20
369.4960943368865
 30
0.0
 11
475.1936399503624
 21
375.8836082567257
 31
0.0
  0
LINE
  5
BA
330
2
100
AcDbEntity
  8
05-01
100
AcDbLine
 10
472.4436399503624
 20
379.3836082567257
 30
0.0
 11
472.4436399503624
 21
356.6336082567257
 31
0.0
  0
LINE
  5
BB
330
2
100
AcDbEntity
  8
05-01
100
AcDbLine
 10
468.4436399503624
 20
375.8836082567257
 30
0.0
 11
476.4436399503624
 21
375.8836082567257
 31
0.0
  0
LINE
  5
BC
330
2
100
AcDbEntity
  8
01-01
100
AcDbLine
 10
472.4436399503624
 20
378.8836082567257
 30
0.0
 11
472.4436399503624
 21
378.8836082567258
 31
0.0
  0
LINE
  5
C0
330
2
100
AcDbEntity
  8
01-01
100
AcDbLine
 10
472.4436399503624
 20
363.8836082567257
 30
0.0
 11
472.4436399503624
 21
363.8836082567257
 31
0.0
  0
ARC
  5
C1
330
2
100
AcDbEntity
  8
03-01
100
AcDbCircle
 10
472.4436399503624
 20
575.8836082567256
 30
0.0
 40
6.25
100
AcDbArc
 50
116.1038811373434
 51
63.89611886265655
  0
LINE
  5
C2
330
2
100
AcDbEntity
  8
05-01
100
AcDbLine
 10
465.1936399503624
 20
575.8836082567256
 30
0.0
 11
479.6936399503624
 21
575.8836082567256
 31
0.0
  0
LINE
  5
C3
330
2
100
AcDbEntity
  8
03-01
100
AcDbLine
 10
469.6936399503624
 20
587.8836082567256
 30
0.0
 11
469.6936399503624
 21
581.4960943368864
 31
0.0
  0
ARC
  5
C4
330
2
100
AcDbEntity
  8
03-01
100
AcDbCircle
 10
472.4436399503624
 20
587.8836082567256
 30
0.0
 40
2.75
100
AcDbArc
 50
0.0
 51
180.0
  0
LINE
  5
C5
330
2
100
AcDbEntity
  8
03-01
100
AcDbLine
 10
475.1936399503624
 20
581.4960943368864
 30
0.0
 11
475.1936399503624
 21
587.8836082567256
 31
0.0
  0
LINE
  5
C6
330
2
100
AcDbEntity
  8
05-01
100
AcDbLine
 10
472.4436399503624
 20
591.3836082567256
 30
0.0
 11
472.4436399503624
 21
568.6336082567256
 31
0.0
  0
LINE
  5
C7
330
2
100
AcDbEntity
  8
05-01
100
AcDbLine
 10
468.4436399503624
 20
587.8836082567256
 30
0.0
 11
476.4436399503624
 21
587.8836082567256
 31
0.0
  0
LINE
  5
C8
330
2
100
AcDbEntity
  8
01-01
100
AcDbLine
 10
472.4436399503624
 20
590.8836082567257
 30
0.0
 11
472.4436399503624
 21
590.8836082567257
 31
0.0
  0
ARC
  5
C9
330
2
100
AcDbEntity
  8
03-01
100
AcDbCircle
 10
151.4436399503624
 20
363.8836082567257
 30
0.0
 40
6.25
100
AcDbArc
 50
116.1038811373434
 51
63.89611886265655
  0
LINE
  5
CA
330
2
100
AcDbEntity
  8
05-01
100
AcDbLine
 10
144.1936399503624
 20
363.8836082567257
 30
0.0
 11
158.6936399503624
 21
363.8836082567257
 31
0.0
  0
LINE
  5
CB
330
2
100
AcDbEntity
  8
03-01
100
AcDbLine
 10
148.6936399503624
 20
375.8836082567257
 30
0.0
 11
148.6936399503624
 21
369.4960943368865
 31
0.0
  0
ARC
  5
CC
330
2
100
AcDbEntity
  8
03-01
100
AcDbCircle
 10
151.4436399503624
 20
375.8836082567257
 30
0.0
 40
2.75
100
AcDbArc
 50
0.0
 51
180.0
  0
LINE
  5
CD
330
2
100
AcDbEntity
  8
03-01
100
AcDbLine
 10
154.1936399503624
 20
369.4960943368865
 30
0.0
 11
154.1936399503624
 21
375.8836082567257
 31
0.0
  0
LINE
  5
CE
330
2
100
AcDbEntity
  8
05-01
100
AcDbLine
 10
151.4436399503624
 20
379.3836082567257
 30
0.0
 11
151.4436399503624
 21
356.6336082567257
 31
0.0
  0
LINE
  5
CF
330
2
100
AcDbEntity
  8
05-01
100
AcDbLine
 10
147.4436399503624
 20
375.8836082567257
 30
0.0
 11
155.4436399503624
 21
375.8836082567257
 31
0.0
  0
ARC
  5
D0
330
2
100
AcDbEntity
  8
03-01
100
AcDbCircle
 10
151.4436399503624
 20
575.8836082567256
 30
0.0
 40
6.25
100
AcDbArc
 50
116.1038811373434
 51
63.89611886265655
  0
LINE
  5
D1
330
2
100
AcDbEntity
  8
05-01
100
AcDbLine
 10
144.1936399503624
 20
575.8836082567256
 30
0.0
 11
158.6936399503624
 21
575.8836082567256
 31
0.0
  0
LINE
  5
D2
330
2
100
AcDbEntity
  8
03-01
100
AcDbLine
 10
148.6936399503624
 20
587.8836082567256
 30
0.0
 11
148.6936399503624
 21
581.4960943368864
 31
0.0
  0
ARC
  5
D3
330
2
100
AcDbEntity
  8
03-01
100
AcDbCircle
 10
151.4436399503624
 20
587.8836082567256
 30
0.0
 40
2.75
100
AcDbArc
 50
0.0
 51
180.0
  0
LINE
  5
D4
330
2
100
AcDbEntity
  8
03-01
100
AcDbLine
 10
154.1936399503624
 20
581.4960943368864
 30
0.0
 11
154.1936399503624
 21
587.8836082567256
 31
0.0
  0
LINE
  5
D5
330
2
100
AcDbEntity
  8
05-01
100
AcDbLine
 10
151.4436399503624
 20
591.3836082567256
 30
0.0
 11
151.4436399503624
 21
568.6336082567256
 31
0.0
  0
LINE
  5
D6
330
2
100
AcDbEntity
  8
05-01
100
AcDbLine
 10
147.4436399503624
 20
587.8836082567256
 30
0.0
 11
155.4436399503624
 21
587.8836082567256
 31
0.0
  0
DIMENSION
  5
D7
330
2
100
AcDbEntity
  8
09-01
100
AcDbDimension
280
     0
  2
*D17
 10
525.4436399503622
 20
555.0660495416683
 30
0.0
 11
498.9436399503623
 21
560.6910495416683
 31
0.0
 71
     5
 42
52.99999999999977
 73
     0
 74
     0
 75
     0
  3
Wagner$0
100
AcDbAlignedDimension
 13
472.4436399503624
 23
568.6336082567256
 33
0.0
 14
525.4436399503622
 24
532.0158818155022
 34
0.0
100
AcDbRotatedDimension
1001
ACAD
1000
DSTYLE
1002
{
1070
    40
1040
2.5
1002
}
  0
DIMENSION
  5
E4
330
2
100
AcDbEntity
  8
09-01
100
AcDbDimension
280
     0
  2
*D16
 10
125.4436399503625
 20
555.0660495416683
 30
0.0
 11
118.6332037000994
 21
559.9794423895786
 31
0.0
 70
   128
 71
     5
 42
25.99999999999994
 73
     0
 74
     0
 75
     0
  3
Wagner$0
100
AcDbAlignedDimension
 13
151.4436399503624
 23
568.6336082567256
 33
0.0
 14
125.4436399503625
 24
531.7964100795032
 34
0.0
100
AcDbRotatedDimension
1001
ACAD
1000
DSTYLE
1002
{
1070
    40
1040
2.5
1002
}
  0
DIMENSION
  5
F1
330
2
100
AcDbEntity
  8
09-01
100
AcDbDimension
280
     0
  2
*D15
 10
108.2867829991296
 20
315.8836082567256
 30
0.0
 11
102.6617829991296
 21
345.8836082567257
 31
0.0
 71
     5
 42
60.00000000000023
 73
     0
 74
     0
 75
     0
  3
Wagner$0
100
AcDbAlignedDimension
 13
147.4436399503624
 23
375.8836082567257
 33
0.0
 14
125.4436399503624
 24
315.8836082567256
 34
0.0
 50
90.0
100
AcDbRotatedDimension
1001
ACAD
1000
DSTYLE
1002
{
1070
    40
1040
2.5
1002
}
  0
DIMENSION
  5
FE
330
2
100
AcDbEntity
  8
09-01
100
AcDbDimension
280
     0
  2
*D14
 10
108.2867829991296
 20
613.8836082567254
 30
0.0
 11
102.6617829991295
 21
600.8836082567255
 31
0.0
 71
     5
 42
25.99999999999977
 73
     0
 74
     0
 75
     0
  3
Wagner$0
100
AcDbAlignedDimension
 13
147.4436399503624
 23
587.8836082567256
 33
0.0
 14
125.4436399503624
 24
613.8836082567254
 34
0.0
 50
90.0
100
AcDbRotatedDimension
1001
ACAD
1000
DSTYLE
1002
{
1070
    40
1040
2.5
1002
}
  0
DIMENSION
  5
10B
330
2
100
AcDbEntity
  8
09-01
100
AcDbDimension
280
     0
  2
*D13
 10
108.2867829991296
 20
375.8836082567258
 30
0.0
 11
102.6617829991296
 21
481.8836082567257
 31
0.0
 71
     5
 42
211.9999999999999
 73
     0
 74
     0
 75
     0
  3
Wagner$0
100
AcDbAlignedDimension
 13
147.4436399503624
 23
587.8836082567256
 33
0.0
 14
147.4436399503624
 24
375.8836082567257
 34
0.0
 50
90.0
100
AcDbRotatedDimension
1001
ACAD
1000
DSTYLE
1002
{
1070
    40
1040
2.5
1002
}
  0
DIMENSION
  5
118
330
2
100
AcDbEntity
  8
09-01
100
AcDbDimension
280
     0
  2
*D12
 10
472.4436399503624
 20
555.0660495416683
 30
0.0
 11
311.9436399503625
 21
560.6910495416683
 31
0.0
 71
     5
 42
321.0
 73
     0
 74
     0
 75
     0
  3
Wagner$0
100
AcDbAlignedDimension
 13
151.4436399503624
 23
568.6336082567256
 33
0.0
 14
472.4436399503624
 24
568.6336082567256
 34
0.0
100
AcDbRotatedDimension
1001
ACAD
1000
DSTYLE
1002
{
1070
    40
1040
2.5
1002
}
  0
LINE
  5
125
330
2
100
AcDbEntity
  8
05-01
100
AcDbLine
 10
472.4436399503624
 20
579.8836082567254
 30
0.0
 11
472.4436399503624
 21
589.8836082567255
 31
0.0
  0
DIMENSION
  5
126
330
2
100
AcDbEntity
  8
09-01
100
AcDbDimension
280
     0
  2
*D11
 10
525.4436399503622
 20
627.1652601089733
 30
0.0
 11
325.4436399503624
 21
632.7902601089733
 31
0.0
 71
     5
 42
399.9999999999998
 73
     0
 74
     0
 75
     0
  3
Wagner$0
100
AcDbAlignedDimension
 13
125.4436399503624
 23
613.8836082567254
 33
0.0
 14
525.4436399503622
 24
613.8836082567254
 34
0.0
100
AcDbRotatedDimension
1001
ACAD
1000
DSTYLE
1002
{
1070
    40
1040
2.5
1002
}
  0
LINE
  5
133
330
2
100
AcDbEntity
  8
05-01
100
AcDbLine
 10
325.4436399503624
 20
576.3891358756628
 30
0.0
 11
325.4436399503624
 21
597.3891358756628
 31
0.0
  0
LINE
  5
134
330
2
100
AcDbEntity
  8
05-01
100
AcDbLine
 10
314.9436399503624
 20
586.8891358756627
 30
0.0
 11
335.9436399503624
 21
586.8891358756627
 31
0.0
  0
CIRCLE
  5
135
330
2
100
AcDbEntity
  8
0
100
AcDbCircle
 10
325.4436399503624
 20
586.8891358756627
 30
0.0
 40
8.5
  0
CIRCLE
  5
136
330
2
100
AcDbEntity
  8
0
100
AcDbCircle
 10
325.4436399503624
 20
586.8891358756627
 30
0.0
 40
5.799999999999999
  0
LINE
  5
137
330
2
100
AcDbEntity
  8
0
100
AcDbLine
 10
324.1936399503623
 20
583.6937077136187
 30
0.0
 11
326.6936399503624
 21
583.6937077136187
 31
0.0
  0
LINE
  5
138
330
2
100
AcDbEntity
  8
0
100
AcDbLine
 10
324.1936399503623
 20
591.6891358756627
 30
0.0
 11
326.6936399503624
 21
591.6891358756627
 31
0.0
  0
LWPOLYLINE
  5
139
330
2
100
AcDbEntity
  8
0
100
AcDbPolyline
 90
        2
 70
     0
 43
0.0
 10
324.1936399503623
 20
589.8877443495486
 10
324.1936399503623
 20
591.6891358756627
  0
LWPOLYLINE
  5
13A
330
2
100
AcDbEntity
  8
0
100
AcDbPolyline
 90
        2
 70
     0
 43
0.0
 10
324.1936399503623
 20
583.6937077136187
 10
324.1936399503623
 20
585.5576173306265
  0
LWPOLYLINE
  5
13B
330
2
100
AcDbEntity
  8
0
100
AcDbPolyline
 90
        2
 70
     0
 43
0.0
 10
326.6936399503624
 20
589.8877443495486
 10
326.6936399503624
 20
591.6891358756627
  0
LWPOLYLINE
  5
13C
330
2
100
AcDbEntity
  8
0
100
AcDbPolyline
 90
        2
 70
     0
 43
0.0
 10
326.6936399503624
 20
583.6937077136187
 10
326.6936399503624
 20
585.5576173306265
  0
ARC
  5
13D
330
2
100
AcDbEntity
  8
0
100
AcDbCircle
 10
325.4436399503624
 20
587.7226808400875
 30
0.0
 40
2.5
100
AcDbArc
 50
300.0000000000005
 51
59.99999999999946
  0
ARC
  5
13E
330
2
100
AcDbEntity
  8
0
100
AcDbCircle
 10
325.4436399503624
 20
587.7226808400875
 30
0.0
 40
2.5
100
AcDbArc
 50
120.0000000000005
 51
239.9999999999995
  0
CIRCLE
  5
13F
330
2
100
AcDbEntity
  8
0
100
AcDbCircle
 10
325.4436399503624
 20
586.8891358756627
 30
0.0
 40
6.75
  0
CIRCLE
  5
140
330
2
100
AcDbEntity
  8
0
100
AcDbCircle
 10
325.4436399503624
 20
586.8891358756627
 30
0.0
 40
7.25
  0
LINE
  5
141
330
2
100
AcDbEntity
  8
09-01
100
AcDbLine
 10
525.4436399503622
 20
334.9273574339202
 30
0.0
 11
125.4436399503624
 21
334.9273574339203
 31
0.0
  0
LINE
  5
142
330
2
100
AcDbEntity
  8
03-01
100
AcDbLine
 10
655.0060029678028
 20
593.8921709167771
 30
0.0
 11
655.0060029678023
 21
325.8891138279571
 31
0.0
  0
LINE
  5
143
330
2
100
AcDbEntity
  8
03-01
100
AcDbLine
 10
701.0060029678028
 20
325.8891138279571
 30
0.0
 11
655.0060029678028
 21
325.8891138279571
 31
0.0
  0
LINE
  5
144
330
2
100
AcDbEntity
  8
03-01
100
AcDbLine
 10
701.0060029678028
 20
593.8921709167771
 30
0.0
 11
655.0060029678028
 21
593.8921709167771
 31
0.0
  0
LINE
  5
145
330
2
100
AcDbEntity
  8
03-01
100
AcDbLine
 10
701.0060029678028
 20
593.8921709167771
 30
0.0
 11
701.0060029678028
 21
325.8891138279571
 31
0.0
  0
LINE
  5
146
330
2
100
AcDbEntity
  8
0
100
AcDbLine
 10
680.8312921593629
 20
320.5783816364505
 30
0.0
 11
681.3522366923637
 21
317.6239583774137
 31
0.0
  0
LINE
  5
147
330
2
100
AcDbEntity
  8
0
100
AcDbLine
 10
735.9805263280467
 20
330.3026795857978
 30
0.0
 11
736.5014708610473
 21
327.3482563267618
 31
0.0
  0
LINE
  5
148
330
2
100
AcDbEntity
  8
0
100
AcDbLine
 10
681.3522366923637
 20
317.6239583774137
 30
0.0
 11
736.5014708610473
 21
327.3482563267618
 31
0.0
  0
LINE
  5
149
330
2
100
AcDbEntity
  8
0
100
AcDbLine
 10
654.2059092437048
 20
315.8836082567256
 30
0.0
 11
762.6059092437051
 21
334.9974529655226
 31
0.0
  0
LINE
  5
14A
330
2
100
AcDbEntity
  8
05-01
100
AcDbLine
 10
325.8881500198037
 20
110.9807090720855
 30
0.0
 11
325.8881500198037
 21
87.68070907208556
 31
0.0
  0
LINE
  5
14B
330
2
100
AcDbEntity
  8
0
100
AcDbLine
 10
317.3881500198037
 20
92.98070907208558
 30
0.0
 11
317.3881500198037
 21
91.18070907208556
 31
0.0
  0
LINE
  5
14C
330
2
100
AcDbEntity
  8
0
100
AcDbLine
 10
334.3881500198037
 20
91.18070907208556
 30
0.0
 11
334.3881500198037
 21
92.98070907208558
 31
0.0
  0
LINE
  5
14D
330
2
100
AcDbEntity
  8
0
100
AcDbLine
 10
317.3881500198037
 20
91.18070907208556
 30
0.0
 11
334.3881500198037
 21
91.18070907208556
 31
0.0
  0
LINE
  5
14E
330
2
100
AcDbEntity
  8
0
100
AcDbLine
 10
318.6381500198037
 20
89.68070907208556
 30
0.0
 11
317.3881500198037
 21
91.18070907208556
 31
0.0
  0
LINE
  5
14F
330
2
100
AcDbEntity
  8
0
100
AcDbLine
 10
333.1381500198037
 20
89.68070907208556
 30
0.0
 11
334.3881500198037
 21
91.18070907208556
 31
0.0
  0
LINE
  5
150
330
2
100
AcDbEntity
  8
0
100
AcDbLine
 10
333.1381500198037
 20
89.68070907208556
 30
0.0
 11
318.6381500198037
 21
89.68070907208556
 31
0.0
  0
INSERT
  5
151
330
2
100
AcDbEntity
  8
05-01
100
AcDbBlockReference
  2
Pumpe 037020-V
 10
190.4436399503624
 20
346.4502889633305
 30
0.0
  0
LINE
  5
1BC
330
2
100
AcDbEntity
  8
05-01
100
AcDbLine
 10
719.6020660629237
 20
404.1597888898925
 30
0.0
 11
719.6020660629237
 21
405.1597888898923
 31
0.0
  0
LINE
  5
1BD
330
2
100
AcDbEntity
  8
05-01
100
AcDbLine
 10
696.6020660629237
 20
404.1597888898925
 30
0.0
 11
696.6020660629237
 21
405.1597888898923
 31
0.0
  0
LINE
  5
1BE
330
2
100
AcDbEntity
  8
05-01
100
AcDbLine
 10
675.4888909752881
 20
414.5409942290751
 30
0.0
 11
694.852066062922
 21
411.1597888898927
 31
0.0
  0
ARC
  5
1BF
330
2
100
AcDbEntity
  8
05-01
100
AcDbCircle
 10
740.1020660629237
 20
419.503253423424
 30
0.0
 40
5.0
100
AcDbArc
 50
277.0442014487683
 51
0.0
  0
LINE
  5
1C0
330
2
100
AcDbEntity
  8
05-01
100
AcDbLine
 10
740.7152411505585
 20
414.5409942290748
 30
0.0
 11
721.3520660629233
 21
411.1597888898927
 31
0.0
  0
LINE
  5
1C1
330
2
100
AcDbEntity
  8
05-01
100
AcDbLine
 10
721.3520660629237
 20
407.1597888898925
 30
0.0
 11
694.8520660629237
 21
407.1597888898925
 31
0.0
  0
LINE
  5
1C2
330
2
100
AcDbEntity
  8
05-01
100
AcDbLine
 10
718.6020660629233
 20
377.6597888898928
 30
0.0
 11
697.6020660629233
 21
377.6597888898925
 31
0.0
  0
LINE
  5
1C3
330
2
100
AcDbEntity
  8
05-01
100
AcDbLine
 10
722.6020660629237
 20
389.1597888898928
 30
0.0
 11
693.6020660629233
 21
389.1597888898925
 31
0.0
  0
LINE
  5
1C4
330
2
100
AcDbEntity
  8
05-01
100
AcDbLine
 10
722.6020660629237
 20
404.1597888898925
 30
0.0
 11
693.6020660629233
 21
404.1597888898925
 31
0.0
  0
LINE
  5
1C5
330
2
100
AcDbEntity
  8
05-01
100
AcDbLine
 10
721.3520660629237
 20
405.1597888898925
 30
0.0
 11
694.8520660629237
 21
405.1597888898925
 31
0.0
  0
LINE
  5
1C6
330
2
100
AcDbEntity
  8
05-01
100
AcDbLine
 10
721.3520660629237
 20
411.1597888898927
 30
0.0
 11
694.852066062922
 21
411.1597888898927
 31
0.0
  0
ARC
  5
1C7
330
2
100
AcDbEntity
  8
05-01
100
AcDbCircle
 10
740.1020660629233
 20
548.1597888898927
 30
0.0
 40
5.0
100
AcDbArc
 50
0.0
 51
90.0
  0
LINE
  5
1C8
330
2
100
AcDbEntity
  8
05-01
100
AcDbLine
 10
740.1020660629233
 20
553.1597888898927
 30
0.0
 11
676.1020660629233
 21
553.1597888898927
 31
0.0
  0
ARC
  5
1C9
330
2
100
AcDbEntity
  8
05-01
100
AcDbCircle
 10
676.1020660629233
 20
548.1597888898927
 30
0.0
 40
5.0
100
AcDbArc
 50
90.0
 51
180.0
  0
ARC
  5
1CA
330
2
100
AcDbEntity
  8
05-01
100
AcDbCircle
 10
676.1020660629233
 20
419.5032534234242
 30
0.0
 40
5.0
100
AcDbArc
 50
180.0
 51
262.9557985512317
  0
LINE
  5
1CB
330
2
100
AcDbEntity
  8
05-01
100
AcDbLine
 10
671.1020660629233
 20
548.1597888898927
 30
0.0
 11
671.1020660629233
 21
419.5032534234242
 31
0.0
  0
LINE
  5
1CC
330
2
100
AcDbEntity
  8
05-01
100
AcDbLine
 10
721.3520660629237
 20
407.1597888898925
 30
0.0
 11
721.3520660629237
 21
405.1597888898925
 31
0.0
  0
LINE
  5
1CD
330
2
100
AcDbEntity
  8
05-01
100
AcDbLine
 10
694.8520660629237
 20
407.1597888898925
 30
0.0
 11
694.8520660629237
 21
405.1597888898925
 31
0.0
  0
LINE
  5
1CE
330
2
100
AcDbEntity
  8
05-01
100
AcDbLine
 10
719.6020660629237
 20
411.1597888898927
 30
0.0
 11
719.6020660629237
 21
407.1597888898927
 31
0.0
  0
LINE
  5
1CF
330
2
100
AcDbEntity
  8
05-01
100
AcDbLine
 10
696.6020660629233
 20
411.1597888898927
 30
0.0
 11
696.6020660629237
 21
407.1597888898927
 31
0.0
  0
LINE
  5
1D0
330
2
100
AcDbEntity
  8
05-01
100
AcDbLine
 10
722.6020660629237
 20
404.1597888898925
 30
0.0
 11
722.6020660629237
 21
389.1597888898928
 31
0.0
  0
LINE
  5
1D1
330
2
100
AcDbEntity
  8
05-01
100
AcDbLine
 10
693.6020660629233
 20
404.1597888898925
 30
0.0
 11
693.6020660629233
 21
389.1597888898925
 31
0.0
  0
LINE
  5
1D2
330
2
100
AcDbEntity
  8
05-01
100
AcDbLine
 10
718.6020660629233
 20
389.159788889893
 30
0.0
 11
718.6020660629233
 21
377.6597888898928
 31
0.0
  0
LINE
  5
1D3
330
2
100
AcDbEntity
  8
05-01
100
AcDbLine
 10
697.6020660629233
 20
389.1597888898928
 30
0.0
 11
697.6020660629233
 21
377.6597888898925
 31
0.0
  0
LINE
  5
1D4
330
2
100
AcDbEntity
  8
05-01
100
AcDbLine
 10
745.1020660629232
 20
548.1597888898927
 30
0.0
 11
745.1020660629238
 21
419.503253423424
 31
0.0
  0
LINE
  5
1D5
330
2
100
AcDbEntity
  8
05-01
100
AcDbLine
 10
178.9436399503624
 20
404.1597888898922
 30
0.0
 11
178.9436399503624
 21
405.159788889892
 31
0.0
  0
LINE
  5
1D6
330
2
100
AcDbEntity
  8
05-01
100
AcDbLine
 10
201.9436399503625
 20
404.1597888898922
 30
0.0
 11
201.9436399503625
 21
405.159788889892
 31
0.0
  0
LINE
  5
1D7
330
2
100
AcDbEntity
  8
05-01
100
AcDbLine
 10
215.3118808386967
 20
414.3545236014813
 30
0.0
 11
203.6936399503634
 21
411.1597888898925
 31
0.0
  0
ARC
  5
1D8
330
2
100
AcDbEntity
  8
05-01
100
AcDbCircle
 10
166.4436399503624
 20
419.278562366542
 30
0.0
 40
5.0
100
AcDbArc
 50
180.0
 51
260.0000000000209
  0
LINE
  5
1D9
330
2
100
AcDbEntity
  8
05-01
100
AcDbLine
 10
165.5753990620274
 20
414.3545236014809
 30
0.0
 11
177.1936399503625
 21
411.1597888898925
 31
0.0
  0
LINE
  5
1DA
330
2
100
AcDbEntity
  8
05-01
100
AcDbLine
 10
177.1936399503625
 20
407.1597888898923
 30
0.0
 11
203.6936399503625
 21
407.1597888898923
 31
0.0
  0
LINE
  5
1DB
330
2
100
AcDbEntity
  8
05-01
100
AcDbLine
 10
179.9436399503624
 20
377.6597888898925
 30
0.0
 11
200.9436399503625
 21
377.6597888898923
 31
0.0
  0
LINE
  5
1DC
330
2
100
AcDbEntity
  8
05-01
100
AcDbLine
 10
175.9436399503624
 20
389.1597888898925
 30
0.0
 11
204.9436399503625
 21
389.1597888898923
 31
0.0
  0
LINE
  5
1DD
330
2
100
AcDbEntity
  8
05-01
100
AcDbLine
 10
175.9436399503624
 20
404.1597888898922
 30
0.0
 11
204.9436399503625
 21
404.1597888898922
 31
0.0
  0
LINE
  5
1DE
330
2
100
AcDbEntity
  8
05-01
100
AcDbLine
 10
177.1936399503625
 20
405.1597888898923
 30
0.0
 11
203.6936399503625
 21
405.1597888898923
 31
0.0
  0
LINE
  5
1DF
330
2
100
AcDbEntity
  8
05-01
100
AcDbLine
 10
177.1936399503625
 20
411.1597888898925
 30
0.0
 11
203.6936399503634
 21
411.1597888898925
 31
0.0
  0
ARC
  5
1E0
330
2
100
AcDbEntity
  8
05-01
100
AcDbCircle
 10
166.4436399503624
 20
548.1597888898924
 30
0.0
 40
5.0
100
AcDbArc
 50
90.0
 51
180.0
  0
LINE
  5
1E1
330
2
100
AcDbEntity
  8
05-01
100
AcDbLine
 10
212.4436399503625
 20
525.159788889892
 30
0.0
 11
214.4436399503625
 21
525.159788889892
 31
0.0
  0
LINE
  5
1E2
330
2
100
AcDbEntity
  8
05-01
100
AcDbLine
 10
166.4436399503624
 20
553.1597888898925
 30
0.0
 11
202.4436399503624
 21
553.1597888898925
 31
0.0
  0
ARC
  5
1E3
330
2
100
AcDbEntity
  8
05-01
100
AcDbCircle
 10
214.4436399503625
 20
520.1597888898921
 30
0.0
 40
5.0
100
AcDbArc
 50
0.0
 51
90.0
  0
ARC
  5
1E4
330
2
100
AcDbEntity
  8
05-01
100
AcDbCircle
 10
214.4436399503625
 20
419.2785623665424
 30
0.0
 40
5.0
100
AcDbArc
 50
279.9999999999791
 51
0.0
  0
LINE
  5
1E5
330
2
100
AcDbEntity
  8
05-01
100
AcDbLine
 10
219.4436399503625
 20
520.1597888898921
 30
0.0
 11
219.4436399503625
 21
419.2785623665424
 31
0.0
  0
LINE
  5
1E6
330
2
100
AcDbEntity
  8
05-01
100
AcDbLine
 10
177.1936399503625
 20
407.1597888898923
 30
0.0
 11
177.1936399503625
 21
405.1597888898923
 31
0.0
  0
LINE
  5
1E7
330
2
100
AcDbEntity
  8
05-01
100
AcDbLine
 10
203.6936399503625
 20
407.1597888898923
 30
0.0
 11
203.6936399503625
 21
405.1597888898923
 31
0.0
  0
LINE
  5
1E8
330
2
100
AcDbEntity
  8
05-01
100
AcDbLine
 10
178.9436399503624
 20
411.1597888898925
 30
0.0
 11
178.9436399503624
 21
407.1597888898925
 31
0.0
  0
LINE
  5
1E9
330
2
100
AcDbEntity
  8
05-01
100
AcDbLine
 10
201.9436399503625
 20
411.1597888898925
 30
0.0
 11
201.9436399503625
 21
407.1597888898925
 31
0.0
  0
LINE
  5
1EA
330
2
100
AcDbEntity
  8
05-01
100
AcDbLine
 10
175.9436399503624
 20
404.1597888898922
 30
0.0
 11
175.9436399503624
 21
389.1597888898925
 31
0.0
  0
LINE
  5
1EB
330
2
100
AcDbEntity
  8
05-01
100
AcDbLine
 10
204.9436399503625
 20
404.1597888898922
 30
0.0
 11
204.9436399503625
 21
389.1597888898923
 31
0.0
  0
LINE
  5
1EC
330
2
100
AcDbEntity
  8
05-01
100
AcDbLine
 10
179.9436399503624
 20
389.1597888898928
 30
0.0
 11
179.9436399503624
 21
377.6597888898925
 31
0.0
  0
LINE
  5
1ED
330
2
100
AcDbEntity
  8
05-01
100
AcDbLine
 10
200.9436399503625
 20
389.1597888898925
 30
0.0
 11
200.9436399503625
 21
377.6597888898923
 31
0.0
  0
ARC
  5
1EE
330
2
100
AcDbEntity
  8
05-01
100
AcDbCircle
 10
202.4436399503624
 20
548.1597888898924
 30
0.0
 40
5.0
100
AcDbArc
 50
0.0
 51
90.0
  0
ARC
  5
1EF
330
2
100
AcDbEntity
  8
05-01
100
AcDbCircle
 10
212.4436399503625
 20
530.159788889892
 30
0.0
 40
5.0
100
AcDbArc
 50
180.0
 51
270.0
  0
LINE
  5
1F0
330
2
100
AcDbEntity
  8
05-01
100
AcDbLine
 10
207.4436399503625
 20
548.1597888898924
 30
0.0
 11
207.4436399503625
 21
530.159788889892
 31
0.0
  0
LINE
  5
1F1
330
2
100
AcDbEntity
  8
05-01
100
AcDbLine
 10
161.4436399503624
 20
548.1597888898924
 30
0.0
 11
161.4436399503624
 21
419.278562366542
 31
0.0
  0
INSERT
  5
1F2
330
2
100
AcDbEntity
  8
03-01
100
AcDbBlockReference
  2
Pumpe 037020-D
 10
190.8412622218689
 20
193.3807090720856
 30
0.0
  0
LINE
  5
20F
330
2
100
AcDbEntity
  8
0
100
AcDbLine
 10
175.4800488345981
 20
289.850207692348
 30
0.0
 11
175.4436399503624
 21
289.850207692348
 31
0.0
  0
LINE
  5
210
330
2
100
AcDbEntity
  8
0
100
AcDbLine
 10
205.4436399503625
 20
317.2847462615904
 30
0.0
 11
208.4436399503625
 21
317.2847462615904
 31
0.0
  0
LINE
  5
211
330
2
100
AcDbEntity
  8
0
100
AcDbLine
 10
172.4436399503624
 20
317.2847462615904
 30
0.0
 11
175.4436399503624
 21
317.2847462615904
 31
0.0
  0
ELLIPSE
  5
212
330
2
100
AcDbEntity
  8
0
100
AcDbEllipse
 10
190.4436399503624
 20
325.4229527133593
 30
0.0
 11
18.0
 21
0.0000000000000131
 31
0.0
210
0.0
220
0.0
230
1.0
 40
0.3099999999999991
 41
-0.0000000000000022
 42
1.570796326794896
  0
LINE
  5
213
330
2
100
AcDbEntity
  8
0
100
AcDbLine
 10
172.4436399503624
 20
317.2847462615904
 30
0.0
 11
172.4436399503624
 21
325.4229527133593
 31
0.0
  0
ELLIPSE
  5
214
330
2
100
AcDbEntity
  8
0
100
AcDbEllipse
 10
190.4436399503624
 20
325.4229527133593
 30
0.0
 11
-18.0
 21
0.0000000000000171
 31
0.0
210
0.0
220
0.0
230
1.0
 40
0.3099999999999991
 41
-1.570796326794896
 42
0.0000000000000027
  0
LINE
  5
215
330
2
100
AcDbEntity
  8
0
100
AcDbLine
 10
208.4436399503625
 20
317.2847462615904
 30
0.0
 11
208.4436399503625
 21
325.4229527133593
 31
0.0
  0
LINE
  5
216
330
2
100
AcDbEntity
  8
05-01
100
AcDbLine
 10
778.1640626330503
 20
586.9277385578029
 30
0.0
 11
755.3640626330503
 21
586.9277385578029
 31
0.0
  0
LINE
  5
217
330
2
100
AcDbEntity
  8
0
100
AcDbLine
 10
773.4048114558834
 20
578.4277385578029
 30
0.0
 11
775.2048114558833
 21
578.4277385578029
 31
0.0
  0
LINE
  5
218
330
2
100
AcDbEntity
  8
0
100
AcDbLine
 10
775.2048114558833
 20
595.427738557803
 30
0.0
 11
773.4048114558834
 21
595.427738557803
 31
0.0
  0
LINE
  5
219
330
2
100
AcDbEntity
  8
0
100
AcDbLine
 10
775.2048114558833
 20
578.4277385578029
 30
0.0
 11
775.2048114558833
 21
595.427738557803
 31
0.0
  0
LINE
  5
21A
330
2
100
AcDbEntity
  8
0
100
AcDbLine
 10
776.7048114558833
 20
579.6777385578029
 30
0.0
 11
775.2048114558833
 21
578.4277385578029
 31
0.0
  0
LINE
  5
21B
330
2
100
AcDbEntity
  8
0
100
AcDbLine
 10
776.7048114558833
 20
594.177738557803
 30
0.0
 11
775.2048114558833
 21
595.427738557803
 31
0.0
  0
LINE
  5
21C
330
2
100
AcDbEntity
  8
0
100
AcDbLine
 10
776.7048114558833
 20
594.177738557803
 30
0.0
 11
776.7048114558833
 21
579.6777385578029
 31
0.0
  0
INSERT
  5
21D
330
2
100
AcDbEntity
  8
09-01
100
AcDbBlockReference
 66
     1
  2
DIN A3
 10
0.0000005755600796
 20
-0.0000019034490606
 30
0.0
 41
2.5
 42
2.5
 43
2.5
  0
ATTRIB
  5
3C5
330
21D
100
AcDbEntity
  8
06-99
100
AcDbText
 10
813.73861684784
 20
67.9695967432039
 30
0.0
 40
11.25
  1
Kombination WP 550
 41
0.9
  7
ROMANS8
100
AcDbAttribute
280
     0
  2
TEILE
 70
     0
280
     0
  0
ATTRIB
  5
3C6
330
21D
100
AcDbEntity
  8
06-99
100
AcDbText
 10
813.73861684784
 20
49.72943400885611
 30
0.0
 40
11.25
  1

 41
0.9
  7
ROMANS8
100
AcDbAttribute
280
     0
  2
TEILE2
 70
     0
280
     0
  0
ATTRIB
  5
3C7
330
21D
100
AcDbEntity
  8
06-99
100
AcDbText
 10
1000.868465529183
 20
115.8333333333317
 30
0.0
 40
8.4375
  1
1:2,5
  7
ROMANS8
100
AcDbAttribute
280
     0
  2
:
 70
     0
280
     0
  0
ATTRIB
  5
3C8
330
21D
100
AcDbEntity
  8
06-99
100
AcDbText
 10
754.9926694983156
 20
71.1042136700766
 30
0.0
 40
6.25
  1
Pfrepper
 41
0.9
  7
ROMANS8
100
AcDbAttribute
280
     0
  2
NAME
 70
     0
280
     0
  0
ATTRIB
  5
3C9
330
21D
100
AcDbEntity
  8
06-99
100
AcDbText
 10
721.2328661296322
 20
71.15308793527646
 30
0.0
 40
6.25
  1
23.08.2011
 50
359.9144597696142
 41
0.5867792975198161
  7
ROMANS8
 72
     5
 11
749.3493428009941
 21
71.11111116666506
 31
0.0
100
AcDbAttribute
280
     0
  2
DATUM
 70
     0
280
     0
  0
ATTRIB
  5
3CA
330
21D
100
AcDbEntity
  8
06-99
100
AcDbText
 10
968.7658599177927
 20
21.23224950072014
 30
0.0
 40
7.4844
  1
727755
  7
ROMANS8
100
AcDbAttribute
280
     0
  2
ID.NR
 70
     0
280
     0
  0
ATTRIB
  5
3CB
330
21D
100
AcDbEntity
  8
06-99
100
AcDbText
 10
814.3281656391735
 20
96.66666661110951
 30
0.0
 40
7.5
  1

 41
0.9
  7
ROMANS8
100
AcDbAttribute
280
     0
  2
LÄNGE
 70
     0
280
     0
  0
ATTRIB
  5
3CC
330
21D
100
AcDbEntity
  8
06-99
100
AcDbText
 10
897.9520122793214
 20
96.69525967611043
 30
0.0
 40
7.5
  1

 41
0.9
  7
ROMANS8
100
AcDbAttribute
280
     0
  2
BREITE
 70
     0
280
     0
  0
ATTRIB
  5
3CD
330
21D
100
AcDbEntity
  8
06-99
100
AcDbText
 10
999.0227303167268
 20
96.66666666666529
 30
0.0
 40
7.734375000000001
  1

  7
ROMANS8
100
AcDbAttribute
280
     0
  2
1.0
 70
     0
280
     0
  0
ATTRIB
  5
3CE
330
21D
100
AcDbEntity
  8
06-99
100
AcDbText
 10
932.8194640034039
 20
115.833333333332
 30
0.0
 40
7.5
  1

  7
ROMANS8
 72
     1
 11
932.8194640034039
 21
115.833333333332
 31
0.0
100
AcDbAttribute
280
     0
  2
IV
 70
     0
280
     0
  0
ATTRIB
  5
3CF
330
21D
100
AcDbEntity
  8
06-99
100
AcDbText
 10
830.6868513401866
 20
115.8333333333314
 30
0.0
 40
8.4375
  1
1.4301
  7
ROMANS8
100
AcDbAttribute
280
     0
  2
1.4301
 70
     0
280
     0
  0
ATTRIB
  5
3D0
330
21D
100
AcDbEntity
  8
06-99
100
AcDbText
 10
887.5015847170972
 20
21.26099151088496
 30
0.0
 40
7.919999999999999
  1

 41
0.9000000000000001
  7
ROMANS8
100
AcDbAttribute
280
     0
  2
AUFTRAGS.NR.
 70
     0
280
     0
  0
ATTRIB
  5
3D1
330
21D
100
AcDbEntity
  8
06-99
100
AcDbText
 10
813.749999999897
 20
21.24999999999844
 30
0.0
 40
7.919999999999999
  1

 41
0.9000000000000001
  7
ROMANS8
100
AcDbAttribute
280
     0
  2
SONDER-NR
 70
     0
280
     0
  0
ATTRIB
  5
3D2
330
21D
100
AcDbEntity
  8
06-99
100
AcDbText
 10
638.7493774874179
 20
19.00452517314804
 30
0.0
 40
3.75
  1

 41
0.9
  7
ROMANS8
100
AcDbAttribute
280
     0
  2
ERSETZT.DURCH
 70
     0
280
     0
  0
ATTRIB
  5
3D3
330
21D
100
AcDbEntity
  8
06-99
100
AcDbText
 10
576.2486694503934
 20
18.99364099467945
 30
0.0
 40
3.75
  1

 41
0.9
  7
ROMANS8
100
AcDbAttribute
280
     0
  2
ERSETZT.FÜR
 70
     0
280
     0
  0
ATTRIB
  5
3D4
330
21D
100
AcDbEntity
  8
06-99
100
AcDbText
 10
772.5092887588481
 20
121.6712778500184
 30
0.0
 40
3.2175
  1
DIN A3
  7
ROMANS8
 72
     1
 11
780.6296459017053
 21
121.6712778500184
 31
0.0
100
AcDbAttribute
280
     0
  2
FORMAT
 70
     0
280
     0
  0
ATTRIB
  5
3D5
330
21D
100
AcDbEntity
  8
06-99
100
AcDbText
 10
762.4785714284684
 20
95.99166666666505
 30
0.0
 40
5.85
  1
DIN 2768
  7
ROMANS8
 72
     1
 11
782.5357142856113
 21
95.99166666666505
 31
0.0
100
AcDbAttribute
280
     0
  2
NORM2
 70
     0
280
     0
  0
ATTRIB
  5
3D6
330
21D
100
AcDbEntity
  8
06-99
100
AcDbText
 10
754.5392857141827
 20
105.5749999999983
 30
0.0
 40
5.85
  1
DIN 6930-M
  7
ROMANS8
 72
     1
 11
781.2821428570398
 21
105.5749999999983
 31
0.0
100
AcDbAttribute
280
     0
  2
NORM1
 70
     0
280
     0
  0
SEQEND
  5
3D7
330
21D
100
AcDbEntity
  8
09-01
  0
INSERT
  5
3D8
330
2
100
AcDbEntity
  8
03-01
100
AcDbBlockReference
  2
Pumpe 037020-S
 10
673.0020660629239
 20
356.6597888898926
 30
0.0
 41
-1.0
  0
LINE
  5
41A
330
2
100
AcDbEntity
  8
03-01
100
AcDbLine
 10
251.4411358104558
 20
165.3807090720857
 30
0.0
 11
251.4411358104559
 21
212.9807090720856
 31
0.0
  0
LINE
  5
41B
330
2
100
AcDbEntity
  8
03-01
100
AcDbLine
 10
250.6411358104559
 20
165.3807090720857
 30
0.0
 11
250.6411358104559
 21
212.9807090720857
 31
0.0
  0
LINE
  5
41C
330
2
100
AcDbEntity
  8
03-01
100
AcDbLine
 10
250.4436399503622
 20
593.0836082567254
 30
0.0
 11
250.4436399503624
 21
325.089113827957
 31
0.0
  0
ARC
  5
41D
330
2
100
AcDbEntity
  8
0
100
AcDbCircle
 10
461.4436399503622
 20
377.3063876576015
 30
0.0
 40
2.500086953560511
100
AcDbArc
 50
180.4778647734053
 51
359.5221352265947
  0
LINE
  5
41E
330
2
100
AcDbEntity
  8
0
100
AcDbLine
 10
463.9436399503622
 20
377.285536389934
 30
0.0
 11
463.9436399503622
 21
428.3063007040409
 31
0.0
  0
LINE
  5
41F
330
2
100
AcDbEntity
  8
0
100
AcDbLine
 10
458.9436399503622
 20
377.2855363899357
 30
0.0
 11
458.9436399503622
 21
428.3063007040409
 31
0.0
  0
ARC
  5
420
330
2
100
AcDbEntity
  8
0
100
AcDbCircle
 10
461.4436399503622
 20
428.3063007040409
 30
0.0
 40
2.5
100
AcDbArc
 50
0.000000000000007
 51
180.0
  0
ARC
  5
421
330
2
100
AcDbEntity
  8
03-01
100
AcDbCircle
 10
265.3432797382902
 20
177.7807090720858
 30
0.0
 40
6.5
100
AcDbArc
 50
90.0
 51
180.0
  0
LINE
  5
422
330
2
100
AcDbEntity
  8
03-01
100
AcDbLine
 10
496.3432797382901
 20
184.2807090720857
 30
0.0
 11
265.3432797382902
 21
184.2807090720858
 31
0.0
  0
ARC
  5
423
330
2
100
AcDbEntity
  8
03-01
100
AcDbCircle
 10
496.3432797382901
 20
177.7807090720857
 30
0.0
 40
6.5
100
AcDbArc
 50
360.0
 51
90.0
  0
LINE
  5
424
330
2
100
AcDbEntity
  8
03-01
100
AcDbLine
 10
502.8432797382901
 20
177.7807090720857
 30
0.0
 11
502.8432797382901
 21
138.7807090720857
 31
0.0
  0
ARC
  5
425
330
2
100
AcDbEntity
  8
03-01
100
AcDbCircle
 10
496.3432797382901
 20
138.7807090720857
 30
0.0
 40
6.5
100
AcDbArc
 50
270.0
 51
0.0
  0
LINE
  5
426
330
2
100
AcDbEntity
  8
03-01
100
AcDbLine
 10
496.3432797382901
 20
132.2807090720857
 30
0.0
 11
265.3432797382902
 21
132.2807090720857
 31
0.0
  0
ARC
  5
427
330
2
100
AcDbEntity
  8
03-01
100
AcDbCircle
 10
265.3432797382902
 20
138.7807090720857
 30
0.0
 40
6.5
100
AcDbArc
 50
180.0
 51
270.0
  0
LINE
  5
428
330
2
100
AcDbEntity
  8
03-01
100
AcDbLine
 10
258.8432797382902
 20
177.7807090720858
 30
0.0
 11
258.8432797382902
 21
138.7807090720857
 31
0.0
  0
ARC
  5
429
330
2
100
AcDbEntity
  8
03-01
100
AcDbCircle
 10
265.3432797382902
 20
177.7807090720858
 30
0.0
 40
5.5
100
AcDbArc
 50
90.0
 51
180.0
  0
ARC
  5
42A
330
2
100
AcDbEntity
  8
03-01
100
AcDbCircle
 10
265.3432797382902
 20
138.7807090720857
 30
0.0
 40
5.5
100
AcDbArc
 50
180.0
 51
270.0
  0
ARC
  5
42B
330
2
100
AcDbEntity
  8
03-01
100
AcDbCircle
 10
496.3432797382901
 20
177.7807090720857
 30
0.0
 40
5.5
100
AcDbArc
 50
360.0
 51
90.0
  0
ARC
  5
42C
330
2
100
AcDbEntity
  8
03-01
100
AcDbCircle
 10
496.3432797382901
 20
138.7807090720857
 30
0.0
 40
5.5
100
AcDbArc
 50
270.0
 51
0.0
  0
LINE
  5
42D
330
2
100
AcDbEntity
  8
03-01
100
AcDbLine
 10
501.84327973829
 20
177.7807090720857
 30
0.0
 11
501.8432797382901
 21
138.7807090720857
 31
0.0
  0
LINE
  5
42E
330
2
100
AcDbEntity
  8
03-01
100
AcDbLine
 10
259.8432797382902
 20
177.7807090720858
 30
0.0
 11
259.8432797382902
 21
138.7807090720857
 31
0.0
  0
LINE
  5
42F
330
2
100
AcDbEntity
  8
03-01
100
AcDbLine
 10
496.3432797382901
 20
133.2807090720857
 30
0.0
 11
265.3432797382902
 21
133.2807090720857
 31
0.0
  0
LINE
  5
430
330
2
100
AcDbEntity
  8
03-01
100
AcDbLine
 10
496.3432797382901
 20
183.2807090720857
 30
0.0
 11
265.3432797382902
 21
183.2807090720858
 31
0.0
  0
LINE
  5
431
330
2
100
AcDbEntity
  8
0
100
AcDbLine
 10
524.8432797382902
 20
102.9807090720856
 30
0.0
 11
524.8432797382902
 21
92.98070907208558
 31
0.0
  0
DIMENSION
  5
432
330
2
100
AcDbEntity
  8
09-01
100
AcDbDimension
280
     0
  2
*D6
 10
106.540082828441
 20
92.98070907208558
 30
0.0
 11
100.915082828441
 21
152.9807090720856
 31
0.0
 71
     5
 42
120.0
 73
     0
 74
     0
 75
     0
  3
Wagner$0
100
AcDbAlignedDimension
 13
125.8432797382903
 23
212.9807090720856
 33
0.0
 14
126.8432797382903
 24
92.98070907208558
 34
0.0
 50
90.0
100
AcDbRotatedDimension
1001
ACAD
1000
DSTYLE
1002
{
1070
    40
1040
2.5
1002
}
  0
DIMENSION
  5
43F
330
2
100
AcDbEntity
  8
09-01
100
AcDbDimension
280
     0
  2
*D5
 10
125.8432797382903
 20
225.4304937218929
 30
0.0
 11
325.8432797382902
 21
231.0554937218929
 31
0.0
 71
     5
 42
400.0
 73
     0
 74
     0
 75
     0
  3
Wagner$0
100
AcDbAlignedDimension
 13
525.8432797382901
 23
212.9807090720857
 33
0.0
 14
125.8432797382903
 24
212.9807090720856
 34
0.0
100
AcDbRotatedDimension
1001
ACAD
1000
DSTYLE
1002
{
1070
    40
1040
2.5
1002
}
  0
LINE
  5
44C
330
2
100
AcDbEntity
  8
06-01
100
AcDbLine
 10
1033.224805840538
 20
615.1695094941628
 30
0.0
 11
1033.224805840538
 21
615.1695094941628
 31
0.0
  0
DIMENSION
  5
450
330
2
100
AcDbEntity
  8
09-01
100
AcDbDimension
280
     0
  2
*D4
 10
543.7130698231007
 20
315.8836082567254
 30
0.0
 11
538.0880698231006
 21
464.8836082567255
 31
0.0
 71
     5
 42
298.0
 73
     0
 74
     0
 75
     0
  3
Wagner$0
100
AcDbAlignedDimension
 13
525.4436399503624
 23
613.8836082567254
 33
0.0
 14
525.4436399503622
 24
315.8836082567254
 34
0.0
 50
90.0
100
AcDbRotatedDimension
1001
ACAD
1000
DSTYLE
1002
{
1070
    40
1040
2.5
1002
}
  0
LINE
  5
45D
330
2
100
AcDbEntity
  8
05-01
100
AcDbLine
 10
253.1841708038482
 20
321.6382727068122
 30
0.0
 11
510.4280458536461
 21
321.6382727068122
 31
0.0
  0
ARC
  5
45E
330
2
100
AcDbEntity
  8
0
100
AcDbCircle
 10
260.9545569459992
 20
321.1689102298319
 30
0.0
 40
3.0
100
AcDbArc
 50
180.0
 51
268.839350616578
  0
ARC
  5
45F
330
2
100
AcDbEntity
  8
0
100
AcDbCircle
 10
260.9545569459992
 20
322.2430386967494
 30
0.0
 40
3.0
100
AcDbArc
 50
91.32457210194566
 51
180.0
  0
ARC
  5
460
330
2
100
AcDbEntity
  8
0
100
AcDbCircle
 10
499.7545569459991
 20
321.2719829687435
 30
0.0
 40
3.0
100
AcDbArc
 50
271.2101102925359
 51
0.0
  0
ARC
  5
461
330
2
100
AcDbEntity
  8
0
100
AcDbCircle
 10
499.7545569459991
 20
322.2430386967494
 30
0.0
 40
3.0
100
AcDbArc
 50
0.0
 51
88.67542789805542
  0
LINE
  5
462
330
2
100
AcDbEntity
  8
0
100
AcDbLine
 10
502.7545569459991
 20
322.2430386967494
 30
0.0
 11
502.7545569459991
 21
321.2719829687435
 31
0.0
  0
LINE
  5
463
330
2
100
AcDbEntity
  8
0
100
AcDbLine
 10
257.9545569459992
 20
322.2430386967494
 30
0.0
 11
257.9545569459992
 21
321.1689102298319
 31
0.0
  0
ARC
  5
464
330
2
100
AcDbEntity
  8
0
100
AcDbCircle
 10
380.3545569459991
 20
-4841.611219400922
 30
0.0
 40
5168.234472787606
100
AcDbArc
 50
88.67542789805167
 51
91.32457210194827
  0
ARC
  5
465
330
2
100
AcDbEntity
  8
0
100
AcDbCircle
 10
377.8638825977259
 20
6091.640837556717
 30
0.0
 40
5774.656092881141
100
AcDbArc
 50
268.8393506165818
 51
271.2101102925953
  0
LINE
  5
466
330
2
100
AcDbEntity
  8
03-01
100
AcDbLine
 10
524.4436399503622
 20
349.4882788248337
 30
0.0
 11
523.6436399503625
 21
349.4882788248337
 31
0.0
  0
LINE
  5
467
330
2
100
AcDbEntity
  8
03-01
100
AcDbLine
 10
250.4436399503622
 20
593.0836082567254
 30
0.0
 11
250.4436399503624
 21
325.089113827957
 31
0.0
  0
LINE
  5
468
330
2
100
AcDbEntity
  8
03-01
100
AcDbLine
 10
251.2436399503622
 20
593.0836082567254
 30
0.0
 11
251.2436399503622
 21
325.089113827957
 31
0.0
  0
LINE
  5
469
330
2
100
AcDbEntity
  8
03-01
100
AcDbLine
 10
251.2436399503622
 20
325.089113827957
 30
0.0
 11
250.4436399503624
 21
325.089113827957
 31
0.0
  0
LINE
  5
46A
330
2
100
AcDbEntity
  8
03-01
100
AcDbLine
 10
251.2436399503622
 20
593.0836082567254
 30
0.0
 11
250.4436399503622
 21
593.0836082567254
 31
0.0
  0
LINE
  5
46B
330
2
100
AcDbEntity
  8
03-01
100
AcDbLine
 10
250.6411358104559
 20
165.3807090720857
 30
0.0
 11
251.4411358104558
 21
165.3807090720857
 31
0.0
  0
LINE
  5
46C
330
2
100
AcDbEntity
  8
01-01
100
AcDbLine
 10
524.8432797382902
 20
92.98070907208568
 30
0.0
 11
524.8432797382902
 21
102.9807090720857
 31
0.0
  0
LINE
  5
46D
330
2
100
AcDbEntity
  8
0
100
AcDbLine
 10
524.8432797382902
 20
92.98070907208568
 30
0.0
 11
126.8432797382903
 21
92.98070907208558
 31
0.0
  0
LINE
  5
46E
330
2
100
AcDbEntity
  8
0
100
AcDbLine
 10
125.8432797382903
 20
102.9807090720856
 30
0.0
 11
525.8432797382901
 21
102.9807090720857
 31
0.0
  0
LINE
  5
46F
330
2
100
AcDbEntity
  8
0
100
AcDbLine
 10
525.8432797382901
 20
102.9807090720857
 30
0.0
 11
525.8432797382901
 21
212.9807090720858
 31
0.0
  0
LINE
  5
470
330
2
100
AcDbEntity
  8
0
100
AcDbLine
 10
524.4436399503622
 20
612.8836082567254
 30
0.0
 11
524.4436399503622
 21
334.9273574339202
 31
0.0
  0
LINE
  5
471
330
2
100
AcDbEntity
  8
0
100
AcDbLine
 10
524.6436399503623
 20
334.9273574339202
 30
0.0
 11
524.6436399503623
 21
315.8836082567254
 31
0.0
  0
LINE
  5
472
330
2
100
AcDbEntity
  8
0
100
AcDbLine
 10
525.4436399503622
 20
613.8836082567254
 30
0.0
 11
525.4436399503622
 21
315.8836082567255
 31
0.0
  0
LINE
  5
473
330
2
100
AcDbEntity
  8
0
100
AcDbLine
 10
125.4436399503624
 20
315.8836082567254
 30
0.0
 11
525.4436399503622
 21
315.8836082567255
 31
0.0
  0
DIMENSION
  5
474
330
2
100
AcDbEntity
  8
09-01
100
AcDbDimension
280
     0
  2
*D3
 10
793.2771891145558
 20
612.9273574339201
 30
0.0
 11
787.6521891145556
 21
473.9273574339203
 31
0.0
 71
     5
 42
278.0000000000001
 73
     0
 74
     0
 75
     0
  3
Wagner$0
100
AcDbAlignedDimension
 13
773.4059120085324
 23
334.9273574339202
 33
0.0
 14
773.4059120085321
 24
612.9273574339201
 34
0.0
 50
90.0
100
AcDbRotatedDimension
1001
ACAD
1000
DSTYLE
1002
{
1070
    40
1040
2.5
1002
}
  0
LINE
  5
481
330
2
100
AcDbEntity
  8
01-01
100
AcDbLine
 10
772.4105763117395
 20
465.8270650181447
 30
0.0
 11
773.4059120085324
 21
465.8270650181447
 31
0.0
  0
LINE
  5
482
330
2
100
AcDbEntity
  8
0
100
AcDbLine
 10
187.9436399503624
 20
377.3063007040378
 30
0.0
 11
187.9436399503624
 21
428.3063007040409
 31
0.0
  0
LINE
  5
483
330
2
100
AcDbEntity
  8
0
100
AcDbLine
 10
192.9436399503624
 20
377.3063007040395
 30
0.0
 11
192.9436399503624
 21
428.3063007040409
 31
0.0
  0
ARC
  5
484
330
2
100
AcDbEntity
  8
0
100
AcDbCircle
 10
190.4436399503624
 20
377.3271519717052
 30
0.0
 40
2.500086953560511
100
AcDbArc
 50
180.4778647734053
 51
359.5221352265947
  0
ARC
  5
485
330
2
100
AcDbEntity
  8
0
100
AcDbCircle
 10
190.4436399503624
 20
428.3063007040409
 30
0.0
 40
2.5
100
AcDbArc
 50
0.0
 51
180.0
  0
LINE
  5
486
330
2
100
AcDbEntity
  8
0
100
AcDbLine
 10
773.4059120085324
 20
334.9273574339202
 30
0.0
 11
773.4059120085321
 21
612.9273574339201
 31
0.0
  0
LINE
  5
487
330
2
100
AcDbEntity
  8
0
100
AcDbLine
 10
763.4051392015393
 20
613.8836082567254
 30
0.0
 11
763.4136148568065
 21
334.9269891747154
 31
0.0
  0
LINE
  5
488
330
2
100
AcDbEntity
  8
01-01
100
AcDbLine
 10
763.4059092437048
 20
570.8836082567254
 30
0.0
 11
763.4059092437048
 21
351.9649152630652
 31
0.0
  0
LINE
  5
489
330
2
100
AcDbEntity
  8
0
100
AcDbLine
 10
126.4436399503624
 20
612.8836082567254
 30
0.0
 11
524.4436399503622
 21
612.8836082567254
 31
0.0
  0
LINE
  5
48A
330
2
100
AcDbEntity
  8
0
100
AcDbLine
 10
126.4436399503624
 20
612.8836082567254
 30
0.0
 11
126.4436399503624
 21
334.9273574339202
 31
0.0
  0
DIMENSION
  5
48B
330
2
100
AcDbEntity
  8
09-01
100
AcDbDimension
280
     0
  2
*D2
 10
773.4059120085321
 20
641.6972914953276
 30
0.0
 11
713.4059106261185
 21
647.3222914953275
 31
0.0
 71
     5
 42
120.0000027648273
 73
     0
 74
     0
 75
     0
  3
Wagner$0
100
AcDbAlignedDimension
 13
653.4059092437048
 23
621.1467493104846
 33
0.0
 14
773.4059120085321
 24
612.9273574339201
 34
0.0
100
AcDbRotatedDimension
1001
ACAD
1000
DSTYLE
1002
{
1070
    40
1040
2.5
1002
}
  0
LINE
  5
498
330
2
100
AcDbEntity
  8
0
100
AcDbLine
 10
763.4136148568065
 20
334.9269891747154
 30
0.0
 11
773.4059120085324
 21
334.9273574339202
 31
0.0
  0
LINE
  5
499
330
2
100
AcDbEntity
  8
0
100
AcDbLine
 10
763.404807922244
 20
612.9269888907018
 30
0.0
 11
773.4048114558834
 21
612.9273574339201
 31
0.0
  0
LINE
  5
49A
330
2
100
AcDbEntity
  8
0
100
AcDbLine
 10
126.8432797382903
 20
102.9807090720856
 30
0.0
 11
126.8432797382903
 21
92.98070907208558
 31
0.0
  0
LINE
  5
49B
330
2
100
AcDbEntity
  8
0
100
AcDbLine
 10
125.8432797382903
 20
212.9807090720856
 30
0.0
 11
525.8432797382901
 21
212.9807090720858
 31
0.0
  0
LINE
  5
49C
330
2
100
AcDbEntity
  8
0
100
AcDbLine
 10
125.8432797382903
 20
212.9807090720856
 30
0.0
 11
125.8432797382903
 21
102.9807090720856
 31
0.0
  0
DIMENSION
  5
49D
330
2
100
AcDbEntity
  8
09-01
100
AcDbDimension
280
     0
  2
*D1
 10
763.4059092437048
 20
629.6576966013553
 30
0.0
 11
708.4059092437049
 21
635.2826966013553
 31
0.0
 71
     5
 42
110.0
 73
     0
 74
     0
 75
     0
  3
Wagner$0
100
AcDbAlignedDimension
 13
653.4059092437048
 23
613.8836082567254
 33
0.0
 14
763.4059092437048
 24
613.8836082567254
 34
0.0
100
AcDbRotatedDimension
1001
ACAD
1000
DSTYLE
1002
{
1070
    40
1040
2.5
1002
}
  0
DIMENSION
  5
4AA
330
2
100
AcDbEntity
  8
09-01
100
AcDbDimension
280
     0
  2
*D0
 10
634.6891643975289
 20
315.8836082567256
 30
0.0
 11
629.0641643975288
 21
464.8836082567256
 31
0.0
 71
     5
 42
297.9999999999998
 73
     0
 74
     0
 75
     0
  3
Wagner$0
100
AcDbAlignedDimension
 13
653.4059092437048
 23
613.8836082567254
 33
0.0
 14
653.4059092437048
 24
315.8836082567256
 34
0.0
 50
90.0
100
AcDbRotatedDimension
1001
ACAD
1000
DSTYLE
1002
{
1070
    40
1040
2.5
1002
}
  0
LINE
  5
4B7
330
2
100
AcDbEntity
  8
0
100
AcDbLine
 10
653.4059092437048
 20
315.8836082567256
 30
0.0
 11
654.2059092437048
 21
315.8836082567256
 31
0.0
  0
LINE
  5
4B8
330
2
100
AcDbEntity
  8
0
100
AcDbLine
 10
762.6059092437051
 20
334.9974529655226
 30
0.0
 11
763.4136127158756
 21
334.9974529655225
 31
0.0
  0
LINE
  5
4B9
330
2
100
AcDbEntity
  8
0
100
AcDbLine
 10
125.4436399503624
 20
613.8836082567254
 30
0.0
 11
525.4436399503622
 21
613.8836082567254
 31
0.0
  0
LINE
  5
4BA
330
2
100
AcDbEntity
  8
0
100
AcDbLine
 10
126.2436399503624
 20
334.9273574339203
 30
0.0
 11
126.2436399503624
 21
315.8836082567256
 31
0.0
  0
LINE
  5
4BB
330
2
100
AcDbEntity
  8
0
100
AcDbLine
 10
125.4436399503624
 20
613.8836082567254
 30
0.0
 11
125.4436399503624
 21
315.8836082567256
 31
0.0
  0
LINE
  5
4BC
330
2
100
AcDbEntity
  8
0
100
AcDbLine
 10
653.4059092437048
 20
613.8836082567254
 30
0.0
 11
653.4059092437048
 21
315.8836082567256
 31
0.0
  0
LINE
  5
4BD
330
2
100
AcDbEntity
  8
0
100
AcDbLine
 10
653.4059092437048
 20
613.8836082567254
 30
0.0
 11
763.4059092437048
 21
613.8836082567254
 31
0.0
  0
ENDSEC
  0
SECTION
  2
OBJECTS
  0
DICTIONARY
  5
B
330
0
100
AcDbDictionary
281
     1
  3
ACAD_COLOR
350
4D
  3
ACAD_GROUP
350
3A
  3
ACAD_LAYOUT
350
18
  3
ACAD_MATERIAL
350
D
  3
ACAD_MLEADERSTYLE
350
50
  3
ACAD_MLINESTYLE
350
3B
  3
ACAD_PLOTSETTINGS
350
3C
  3
ACAD_PLOTSTYLENAME
350
A
  3
ACAD_SCALELIST
350
4E
  3
ACAD_TABLESTYLE
350
4F
  3
ACAD_VISUALSTYLE
350
30
  3
ACDB_RECOMPOSE_DATA
350
4CB
  3
AcDbVariableDictionary
350
4C1
  0
DICTIONARY
  5
31
330
2D
100
AcDbDictionary
280
     1
281
     1
  0
DICTIONARY
  5
20
330
1F
100
AcDbDictionary
280
     1
281
     1
  3
ACAD_LAYERFILTERS
360
21
  3
ACAD_LAYERSTATES
360
22
  3
ACLYDICTIONARY
360
23
  0
DICTIONARY
  5
7
330
6
100
AcDbDictionary
280
     1
281
     1
  3
ADSK_XREC_LAYER_RECONCILED
360
8
  0
DICTIONARY
  5
BE
330
BD
100
AcDbDictionary
280
     1
281
     1
  3
ADSK_XREC_LAYER_RECONCILED
360
BF
  0
DICTIONARY
  5
229
330
228
100
AcDbDictionary
280
     1
281
     1
  3
ADSK_XREC_LAYER_RECONCILED
360
22A
  0
DICTIONARY
  5
7D
330
7C
100
AcDbDictionary
280
     1
281
     1
  3
ADSK_XREC_LAYER_RECONCILED
360
7E
  0
DICTIONARY
  5
82
330
81
100
AcDbDictionary
280
     1
281
     1
  3
ADSK_XREC_LAYER_RECONCILED
360
83
  0
DICTIONARY
  5
44E
330
44D
100
AcDbDictionary
280
     1
281
     1
  3
ADSK_XREC_LAYER_RECONCILED
360
44F
  0
DICTIONARY
  5
52
330
51
100
AcDbDictionary
280
     1
281
     1
  3
ADSK_XREC_LAYER_RECONCILED
360
53
  0
DICTIONARY
  5
224
330
223
100
AcDbDictionary
280
     1
281
     1
  3
ADSK_XREC_LAYER_RECONCILED
360
225
  0
DICTIONARY
  5
264
330
263
100
AcDbDictionary
280
     1
281
     1
  3
ADSK_XREC_LAYER_RECONCILED
360
265
  0
DICTIONARY
  5
24E
330
24D
100
AcDbDictionary
280
     1
281
     1
  3
ADSK_XREC_LAYER_RECONCILED
360
24F
  0
DICTIONARY
  5
3
330
2
100
AcDbDictionary
280
     1
281
     1
  3
ACAD_SORTENTS
360
4C0
  0
DICTIONARY
  5
3DA
330
3D9
100
AcDbDictionary
280
     1
281
     1
  3
ACAD_SORTENTS
360
4BF
  0
DICTIONARY
  5
21F
330
21E
100
AcDbDictionary
280
     1
281
     1
  3
ACAD_SORTENTS
360
4BE
  0
DICTIONARY
  5
4D
102
{ACAD_REACTORS
330
B
102
}
330
B
100
AcDbDictionary
281
     1
  0
DICTIONARY
  5
3A
102
{ACAD_REACTORS
330
B
102
}
330
B
100
AcDbDictionary
281
     1
  0
DICTIONARY
  5
18
102
{ACAD_REACTORS
330
B
102
}
330
B
100
AcDbDictionary
281
     1
  3
Layout1
350
1E
  3
Model
350
17
  0
DICTIONARY
  5
D
102
{ACAD_REACTORS
330
B
102
}
330
B
100
AcDbDictionary
281
     1
  3
ByBlock
350
45
  3
ByLayer
350
3D
  3
Global
350
C
  0
DICTIONARY
  5
50
102
{ACAD_REACTORS
330
B
102
}
330
B
100
AcDbDictionary
281
     1
  0
DICTIONARY
  5
3B
102
{ACAD_REACTORS
330
B
102
}
330
B
100
AcDbDictionary
281
     1
  3
Standard
350
55
  0
DICTIONARY
  5
3C
102
{ACAD_REACTORS
330
B
102
}
330
B
100
AcDbDictionary
281
     1
  0
ACDBDICTIONARYWDFLT
  5
A
102
{ACAD_REACTORS
330
B
102
}
330
B
100
AcDbDictionary
281
     1
  3
Normal
350
9
100
AcDbDictionaryWithDefault
340
9
  0
DICTIONARY
  5
4E
102
{ACAD_REACTORS
330
B
102
}
330
B
100
AcDbDictionary
281
     1
  3
A0
350
5A
  3
A1
350
5B
  3
A2
350
5C
  3
A3
350
5D
  3
A4
350
5E
  3
A5
350
5F
  3
A6
350
60
  3
A7
350
61
  3
A8
350
62
  3
A9
350
63
  3
B0
350
64
  3
B1
350
65
  3
B2
350
66
  3
B3
350
67
  3
B4
350
68
  3
B5
350
69
  3
B6
350
6A
  3
B7
350
6B
  3
B8
350
6C
  3
B9
350
6D
  3
C0
350
6E
  3
C1
350
6F
  3
C2
350
70
  3
C3
350
71
  3
C4
350
72
  3
C5
350
73
  3
C6
350
74
  3
C7
350
75
  3
C8
350
76
  3
C9
350
77
  3
D0
350
78
  3
D1
350
79
  3
D2
350
7A
  0
DICTIONARY
  5
4F
102
{ACAD_REACTORS
330
B
102
}
330
B
100
AcDbDictionary
281
     1
  3
Standard
350
56
  0
DICTIONARY
  5
30
102
{ACAD_REACTORS
330
B
102
}
330
B
100
AcDbDictionary
281
     1
  3
2dWireframe
350
2F
  3
3dWireframe
350
59
  3
Realistic
350
58
  0
XRECORD
  5
4CB
102
{ACAD_REACTORS
330
B
102
}
330
B
100
AcDbXrecord
280
     1
 90
        1
330
56
  0
DICTIONARY
  5
4C1
102
{ACAD_REACTORS
330
B
102
}
330
B
100
AcDbDictionary
281
     1
  3
CANNOSCALE
350
4C5
  3
CMLEADERSTYLE
350
4C3
  3
CTABLESTYLE
350
4C2
  3
LAYEREVAL
350
4C7
  3
LAYERNOTIFY
350
4C8
  3
LIGHTINGUNITS
350
4C6
  3
MSLTSCALE
350
4C4
  0
DICTIONARY
  5
21
102
{ACAD_REACTORS
330
20
102
}
330
20
100
AcDbDictionary
281
     1
  0
DICTIONARY
  5
22
102
{ACAD_REACTORS
330
20
102
}
330
20
100
AcDbDictionary
281
     1
  0
DICTIONARY
  5
23
102
{ACAD_REACTORS
330
20
102
}
330
20
100
AcDbDictionary
281
     1
1001
ACAD
1000
<All
  0
XRECORD
  5
8
102
{ACAD_REACTORS
330
7
102
}
330
7
100
AcDbXrecord
280
     1
290
     1
  0
XRECORD
  5
BF
102
{ACAD_REACTORS
330
BE
102
}
330
BE
100
AcDbXrecord
280
     1
290
     1
  0
XRECORD
  5
22A
102
{ACAD_REACTORS
330
229
102
}
330
229
100
AcDbXrecord
280
     1
290
     1
  0
XRECORD
  5
7E
102
{ACAD_REACTORS
330
7D
102
}
330
7D
100
AcDbXrecord
280
     1
290
     1
  0
XRECORD
  5
83
102
{ACAD_REACTORS
330
82
102
}
330
82
100
AcDbXrecord
280
     1
290
     1
  0
XRECORD
  5
44F
102
{ACAD_REACTORS
330
44E
102
}
330
44E
100
AcDbXrecord
280
     1
290
     1
  0
XRECORD
  5
53
102
{ACAD_REACTORS
330
52
102
}
330
52
100
AcDbXrecord
280
     1
290
     1
  0
XRECORD
  5
225
102
{ACAD_REACTORS
330
224
102
}
330
224
100
AcDbXrecord
280
     1
290
     1
  0
XRECORD
  5
265
102
{ACAD_REACTORS
330
264
102
}
330
264
100
AcDbXrecord
280
     1
290
     1
  0
XRECORD
  5
24F
102
{ACAD_REACTORS
330
24E
102
}
330
24E
100
AcDbXrecord
280
     1
290
     1
  0
SORTENTSTABLE
  5
4C0
102
{ACAD_REACTORS
330
3
102
}
330
3
100
AcDbSortentsTable
330
2
331
473
  5
CC
331
46F
  5
D0
331
46B
  5
D4
331
21C
  5
1BF
331
4AA
  5
B6
331
1DD
  5
1E2
331
218
  5
1C3
331
1D9
  5
1E6
331
214
  5
1C7
331
210
  5
1CB
331
B5
  5
4B7
331
467
  5
E4
331
463
  5
118
331
45F
  5
134
331
1D5
  5
1EA
331
1D1
  5
1EE
331
49A
  5
BA
331
1CD
  5
1F2
331
1C9
  5
212
331
E4
  5
467
331
42F
  5
13D
331
42B
  5
141
331
427
  5
145
331
423
  5
149
331
1C5
  5
216
331
1C1
  5
21A
331
48A
  5
C1
331
1BD
  5
3D8
331
1F0
  5
1CF
331
D4
  5
46B
331
14E
  5
41E
331
D0
  5
46F
331
10B
  5
464
331
14A
  5
422
331
146
  5
426
331
41F
  5
14D
331
CC
  5
473
331
142
  5
42A
331
41B
  5
151
331
C8
  5
483
331
3D8
  5
1BD
331
486
  5
C5
331
482
  5
C9
331
4BD
  5
7B
331
4B9
  5
97
331
43F
  5
139
331
1EC
  5
1D3
331
1E8
  5
1D7
331
1E4
  5
1DB
331
1E0
  5
1DF
331
C4
  5
487
331
13E
  5
42E
331
85
  5
4BB
331
C0
  5
48B
331
13A
  5
432
331
136
  5
45D
331
BC
  5
498
331
B8
  5
49C
331
472
  5
CD
331
46E
  5
D1
331
46A
  5
D5
331
21B
  5
1C0
331
1DC
  5
1E3
331
217
  5
1C4
331
1D8
  5
1E7
331
213
  5
1C8
331
126
  5
461
331
432
  5
13A
331
466
  5
F1
331
462
  5
125
331
49D
  5
B7
331
45E
  5
135
331
20F
  5
1CC
331
1D4
  5
1EB
331
1D0
  5
1EF
331
499
  5
BB
331
1CC
  5
20F
331
1C8
  5
213
331
42E
  5
13E
331
42A
  5
142
331
151
  5
41B
331
426
  5
146
331
422
  5
14A
331
1C4
  5
217
331
1C0
  5
21B
331
489
  5
C2
331
1BC
  5
41A
331
D7
  5
468
331
D3
  5
46C
331
14D
  5
41F
331
CF
  5
470
331
149
  5
423
331
145
  5
427
331
41E
  5
14E
331
CB
  5
474
331
141
  5
42B
331
41A
  5
1BC
331
485
  5
C6
331
481
  5
CA
331
4BC
  5
80
331
4B8
  5
A6
331
1EF
  5
1D0
331
1EB
  5
1D4
331
1E7
  5
1D8
331
1E3
  5
1DC
331
C7
  5
484
331
C3
  5
488
331
FE
  5
465
331
13D
  5
42F
331
80
  5
4BC
331
139
  5
43F
331
135
  5
45E
331
BB
  5
499
331
471
  5
CE
331
46D
  5
D2
331
469
  5
D6
331
1DF
  5
1E0
331
21A
  5
1C1
331
1DB
  5
1E4
331
216
  5
1C5
331
212
  5
1C9
331
B7
  5
49D
331
125
  5
462
331
431
  5
13B
331
465
  5
FE
331
461
  5
126
331
1D7
  5
1E8
331
49C
  5
B8
331
1D3
  5
1EC
331
45D
  5
136
331
1CF
  5
1F0
331
498
  5
BC
331
1CB
  5
210
331
42D
  5
13F
331
429
  5
143
331
150
  5
41C
331
425
  5
147
331
421
  5
14B
331
1C7
  5
214
331
1C3
  5
218
331
1BF
  5
21C
331
488
  5
C3
331
1F2
  5
1CD
331
D6
  5
469
331
97
  5
4B9
331
D2
  5
46D
331
14C
  5
420
331
148
  5
424
331
CE
  5
471
331
144
  5
428
331
41D
  5
14F
331
CA
  5
481
331
140
  5
42C
331
484
  5
C7
331
4BB
  5
85
331
1EE
  5
1D1
331
4B7
  5
B5
331
1EA
  5
1D5
331
1E6
  5
1D9
331
1E2
  5
1DD
331
C6
  5
485
331
C2
  5
489
331
13C
  5
430
331
138
  5
44C
331
134
  5
45F
331
7B
  5
4BD
331
BA
  5
49A
331
F1
  5
466
331
474
  5
CB
331
470
  5
CF
331
46C
  5
D3
331
21D
  5
1BE
331
468
  5
D7
331
1DE
  5
1E1
331
219
  5
1C2
331
1DA
  5
1E5
331
215
  5
1C6
331
211
  5
1CA
331
B6
  5
4AA
331
430
  5
13C
331
464
  5
10B
331
460
  5
133
331
1D6
  5
1E9
331
1D2
  5
1ED
331
49B
  5
B9
331
1CE
  5
1F1
331
1CA
  5
211
331
A6
  5
4B8
331
118
  5
463
331
42C
  5
140
331
428
  5
144
331
424
  5
148
331
420
  5
14C
331
450
  5
137
331
1C6
  5
215
331
48B
  5
C0
331
1C2
  5
219
331
44C
  5
138
331
1BE
  5
21D
331
1F1
  5
1CE
331
D5
  5
46A
331
14F
  5
41D
331
D1
  5
46E
331
14B
  5
421
331
147
  5
425
331
CD
  5
472
331
143
  5
429
331
41C
  5
150
331
C9
  5
482
331
487
  5
C4
331
483
  5
C8
331
4BA
  5
86
331
1ED
  5
1D2
331
1E9
  5
1D6
331
1E5
  5
1DA
331
1E1
  5
1DE
331
C5
  5
486
331
13F
  5
42D
331
86
  5
4BA
331
C1
  5
48A
331
13B
  5
431
331
137
  5
450
331
133
  5
460
331
B9
  5
49B
  0
SORTENTSTABLE
  5
4BF
102
{ACAD_REACTORS
330
3DA
102
}
330
3DA
100
AcDbSortentsTable
330
3D9
331
404
  5
405
331
3FE
  5
3FF
331
405
  5
406
331
3FF
  5
400
331
406
  5
407
331
407
  5
408
331
408
  5
409
331
3E2
  5
3E3
331
409
  5
40A
331
3E3
  5
3E4
331
410
  5
411
331
40A
  5
40B
331
3E4
  5
3E5
331
411
  5
412
331
40B
  5
40C
331
3E5
  5
3E6
331
412
  5
413
331
40C
  5
40D
331
3E6
  5
3E7
331
413
  5
414
331
40D
  5
40E
331
414
  5
415
331
40E
  5
40F
331
3E7
  5
3E8
331
415
  5
416
331
40F
  5
410
331
3E8
  5
3E9
331
416
  5
417
331
3E9
  5
3EA
331
417
  5
3E2
331
3F0
  5
3F1
331
3EA
  5
3EB
331
3F1
  5
3F2
331
3EB
  5
3EC
331
3F2
  5
3F3
331
3EC
  5
3ED
331
3F3
  5
3F4
331
3ED
  5
3EE
331
3F4
  5
3F5
331
3EE
  5
3EF
331
3F5
  5
3F6
331
3EF
  5
3F0
331
3F6
  5
3F7
331
3F7
  5
3F8
331
3F8
  5
3F9
331
3F9
  5
3FA
331
400
  5
401
331
3FA
  5
3FB
331
401
  5
402
331
3FB
  5
3FC
331
402
  5
403
331
3FC
  5
3FD
331
403
  5
404
331
3FD
  5
3FE
  0
SORTENTSTABLE
  5
4BE
102
{ACAD_REACTORS
330
21F
102
}
330
21F
100
AcDbSortentsTable
330
21E
  0
LAYOUT
  5
1E
102
{ACAD_REACTORS
330
18
102
}
330
18
100
AcDbPlotSettings
  1

  2
HP LaserJet 4 Plus
  4

  6

 40
0.0
 41
0.0
 42
0.0
 43
0.0
 44
0.0
 45
0.0
 46
0.0
 47
0.0
 48
0.0
 49
0.0
140
0.0
141
0.0
142
1.0
143
1.0
 70
   688
 72
     0
 73
     0
 74
     5
  7
CNC-Soft.ctb
 75
    16
147
1.0
 76
     0
 77
     2
 78
   300
148
0.0
149
0.0
100
AcDbLayout
  1
Layout1
 70
     0
 71
     1
 10
0.0
 20
0.0
 11
12.0
 21
9.0
 12
0.0
 22
0.0
 32
0.0
 14
1.000000000000000E+20
 24
1.000000000000000E+20
 34
1.000000000000000E+20
 15
-1.000000000000000E+20
 25
-1.000000000000000E+20
 35
-1.000000000000000E+20
146
0.0
 13
0.0
 23
0.0
 33
0.0
 16
1.0
 26
0.0
 36
0.0
 17
0.0
 27
1.0
 37
0.0
 76
     0
330
1B
  0
LAYOUT
  5
17
102
{ACAD_XDICTIONARY
360
19
102
}
102
{ACAD_REACTORS
330
18
102
}
330
18
100
AcDbPlotSettings
  1

  2
HP LaserJet 4 Plus.pc3
  4
A4
  6

 40
6.043083190917968
 41
6.720414161682128
 42
7.821090698242187
 43
5.027069091796875
 44
210.0579986572266
 45
296.9259948730469
 46
0.0
 47
0.0
 48
0.0
 49
0.0
140
0.0
141
0.0
142
1.0
143
3.78498477641195
 70
 11952
 72
     1
 73
     1
 74
     1
  7
CNC-Soft.ctb
 75
     0
147
0.2642018552444401
 76
     0
 77
     2
 78
   300
148
0.0640839803218114
149
0.0453165289418394
100
AcDbLayout
  1
Model
 70
     1
 71
     0
 10
0.0
 20
0.0
 11
12.0
 21
9.0
 12
0.0
 22
0.0
 32
0.0
 14
0.0
 24
0.0
 34
0.0
 15
0.0
 25
0.0
 35
0.0
146
0.0
 13
0.0
 23
0.0
 33
0.0
 16
1.0
 26
0.0
 36
0.0
 17
0.0
 27
1.0
 37
0.0
 76
     0
330
2
331
2E
  0
MATERIAL
  5
45
102
{ACAD_XDICTIONARY
360
46
102
}
102
{ACAD_REACTORS
330
D
102
}
330
D
100
AcDbMaterial
  1
ByBlock
 72
     0
 43
0.0208333333333333
 43
0.0
 43
0.0
 43
0.0
 43
0.0
 43
0.0208333333333333
 43
0.0
 43
0.0
 43
0.0
 43
0.0
 43
1.0
 43
0.0
 43
0.0
 43
0.0
 43
0.0
 43
1.0
 77
     0
 47
0.0208333333333333
 47
0.0
 47
0.0
 47
0.0
 47
0.0
 47
0.0208333333333333
 47
0.0
 47
0.0
 47
0.0
 47
0.0
 47
1.0
 47
0.0
 47
0.0
 47
0.0
 47
0.0
 47
1.0
171
     0
 49
0.0208333333333333
 49
0.0
 49
0.0
 49
0.0
 49
0.0
 49
0.0208333333333333
 49
0.0
 49
0.0
 49
0.0
 49
0.0
 49
1.0
 49
0.0
 49
0.0
 49
0.0
 49
0.0
 49
1.0
175
     0
142
0.0208333333333333
142
0.0
142
0.0
142
0.0
142
0.0
142
0.0208333333333333
142
0.0
142
0.0
142
0.0
142
0.0
142
1.0
142
0.0
142
0.0
142
0.0
142
0.0
142
1.0
179
     0
144
0.0208333333333333
144
0.0
144
0.0
144
0.0
144
0.0
144
0.0208333333333333
144
0.0
144
0.0
144
0.0
144
0.0
144
1.0
144
0.0
144
0.0
144
0.0
144
0.0
144
1.0
147
0.0208333333333333
147
0.0
147
0.0
147
0.0
147
0.0
147
0.0208333333333333
147
0.0
147
0.0
147
0.0
147
0.0
147
1.0
147
0.0
147
0.0
147
0.0
147
0.0
147
1.0
  0
MATERIAL
  5
3D
102
{ACAD_XDICTIONARY
360
3E
102
}
102
{ACAD_REACTORS
330
D
102
}
330
D
100
AcDbMaterial
  1
ByLayer
 72
     0
 43
0.0208333333333333
 43
0.0
 43
0.0
 43
0.0
 43
0.0
 43
0.0208333333333333
 43
0.0
 43
0.0
 43
0.0
 43
0.0
 43
1.0
 43
0.0
 43
0.0
 43
0.0
 43
0.0
 43
1.0
 77
     0
 47
0.0208333333333333
 47
0.0
 47
0.0
 47
0.0
 47
0.0
 47
0.0208333333333333
 47
0.0
 47
0.0
 47
0.0
 47
0.0
 47
1.0
 47
0.0
 47
0.0
 47
0.0
 47
0.0
 47
1.0
171
     0
 49
0.0208333333333333
 49
0.0
 49
0.0
 49
0.0
 49
0.0
 49
0.0208333333333333
 49
0.0
 49
0.0
 49
0.0
 49
0.0
 49
1.0
 49
0.0
 49
0.0
 49
0.0
 49
0.0
 49
1.0
175
     0
142
0.0208333333333333
142
0.0
142
0.0
142
0.0
142
0.0
142
0.0208333333333333
142
0.0
142
0.0
142
0.0
142
0.0
142
1.0
142
0.0
142
0.0
142
0.0
142
0.0
142
1.0
179
     0
144
0.0208333333333333
144
0.0
144
0.0
144
0.0
144
0.0
144
0.0208333333333333
144
0.0
144
0.0
144
0.0
144
0.0
144
1.0
144
0.0
144
0.0
144
0.0
144
0.0
144
1.0
147
0.0208333333333333
147
0.0
147
0.0
147
0.0
147
0.0
147
0.0208333333333333
147
0.0
147
0.0
147
0.0
147
0.0
147
1.0
147
0.0
147
0.0
147
0.0
147
0.0
147
1.0
  0
MATERIAL
  5
C
102
{ACAD_XDICTIONARY
360
E
102
}
102
{ACAD_REACTORS
330
D
102
}
330
D
100
AcDbMaterial
  1
Global
 72
     0
 43
0.0208333333333333
 43
0.0
 43
0.0
 43
0.0
 43
0.0
 43
0.0208333333333333
 43
0.0
 43
0.0
 43
0.0
 43
0.0
 43
1.0
 43
0.0
 43
0.0
 43
0.0
 43
0.0
 43
1.0
 77
     0
 47
0.0208333333333333
 47
0.0
 47
0.0
 47
0.0
 47
0.0
 47
0.0208333333333333
 47
0.0
 47
0.0
 47
0.0
 47
0.0
 47
1.0
 47
0.0
 47
0.0
 47
0.0
 47
0.0
 47
1.0
171
     0
 49
0.0208333333333333
 49
0.0
 49
0.0
 49
0.0
 49
0.0
 49
0.0208333333333333
 49
0.0
 49
0.0
 49
0.0
 49
0.0
 49
1.0
 49
0.0
 49
0.0
 49
0.0
 49
0.0
 49
1.0
175
     0
142
0.0208333333333333
142
0.0
142
0.0
142
0.0
142
0.0
142
0.0208333333333333
142
0.0
142
0.0
142
0.0
142
0.0
142
1.0
142
0.0
142
0.0
142
0.0
142
0.0
142
1.0
179
     0
144
0.0208333333333333
144
0.0
144
0.0
144
0.0
144
0.0
144
0.0208333333333333
144
0.0
144
0.0
144
0.0
144
0.0
144
1.0
144
0.0
144
0.0
144
0.0
144
0.0
144
1.0
147
0.0208333333333333
147
0.0
147
0.0
147
0.0
147
0.0
147
0.0208333333333333
147
0.0
147
0.0
147
0.0
147
0.0
147
1.0
147
0.0
147
0.0
147
0.0
147
0.0
147
1.0
  0
MLINESTYLE
  5
55
102
{ACAD_REACTORS
330
3B
102
}
330
3B
100
AcDbMlineStyle
  2
STANDARD
 70
     0
  3

 62
   256
 51
90.0
 52
90.0
 71
     2
 49
0.5
 62
   256
  6
BYLAYER
 49
-0.5
 62
   256
  6
BYLAYER
  0
ACDBPLACEHOLDER
  5
9
102
{ACAD_REACTORS
330
A
102
}
330
A
  0
SCALE
  5
5A
102
{ACAD_REACTORS
330
4E
102
}
330
4E
100
AcDbScale
 70
     0
300
1:1
140
1.0
141
1.0
290
     1
  0
SCALE
  5
5B
102
{ACAD_REACTORS
330
4E
102
}
330
4E
100
AcDbScale
 70
     0
300
1:2
140
1.0
141
2.0
290
     0
  0
SCALE
  5
5C
102
{ACAD_REACTORS
330
4E
102
}
330
4E
100
AcDbScale
 70
     0
300
1:4
140
1.0
141
4.0
290
     0
  0
SCALE
  5
5D
102
{ACAD_REACTORS
330
4E
102
}
330
4E
100
AcDbScale
 70
     0
300
1:5
140
1.0
141
5.0
290
     0
  0
SCALE
  5
5E
102
{ACAD_REACTORS
330
4E
102
}
330
4E
100
AcDbScale
 70
     0
300
1:8
140
1.0
141
8.0
290
     0
  0
SCALE
  5
5F
102
{ACAD_REACTORS
330
4E
102
}
330
4E
100
AcDbScale
 70
     0
300
1:10
140
1.0
141
10.0
290
     0
  0
SCALE
  5
60
102
{ACAD_REACTORS
330
4E
102
}
330
4E
100
AcDbScale
 70
     0
300
1:16
140
1.0
141
16.0
290
     0
  0
SCALE
  5
61
102
{ACAD_REACTORS
330
4E
102
}
330
4E
100
AcDbScale
 70
     0
300
1:20
140
1.0
141
20.0
290
     0
  0
SCALE
  5
62
102
{ACAD_REACTORS
330
4E
102
}
330
4E
100
AcDbScale
 70
     0
300
1:30
140
1.0
141
30.0
290
     0
  0
SCALE
  5
63
102
{ACAD_REACTORS
330
4E
102
}
330
4E
100
AcDbScale
 70
     0
300
1:40
140
1.0
141
40.0
290
     0
  0
SCALE
  5
64
102
{ACAD_REACTORS
330
4E
102
}
330
4E
100
AcDbScale
 70
     0
300
1:50
140
1.0
141
50.0
290
     0
  0
SCALE
  5
65
102
{ACAD_REACTORS
330
4E
102
}
330
4E
100
AcDbScale
 70
     0
300
1:100
140
1.0
141
100.0
290
     0
  0
SCALE
  5
66
102
{ACAD_REACTORS
330
4E
102
}
330
4E
100
AcDbScale
 70
     0
300
2:1
140
2.0
141
1.0
290
     0
  0
SCALE
  5
67
102
{ACAD_REACTORS
330
4E
102
}
330
4E
100
AcDbScale
 70
     0
300
4:1
140
4.0
141
1.0
290
     0
  0
SCALE
  5
68
102
{ACAD_REACTORS
330
4E
102
}
330
4E
100
AcDbScale
 70
     0
300
8:1
140
8.0
141
1.0
290
     0
  0
SCALE
  5
69
102
{ACAD_REACTORS
330
4E
102
}
330
4E
100
AcDbScale
 70
     0
300
10:1
140
10.0
141
1.0
290
     0
  0
SCALE
  5
6A
102
{ACAD_REACTORS
330
4E
102
}
330
4E
100
AcDbScale
 70
     0
300
100:1
140
100.0
141
1.0
290
     0
  0
SCALE
  5
6B
102
{ACAD_REACTORS
330
4E
102
}
330
4E
100
AcDbScale
 70
     0
300
1/128" = 1'-0"
140
0.0078125
141
12.0
290
     0
  0
SCALE
  5
6C
102
{ACAD_REACTORS
330
4E
102
}
330
4E
100
AcDbScale
 70
     0
300
1/64" = 1'-0"
140
0.015625
141
12.0
290
     0
  0
SCALE
  5
6D
102
{ACAD_REACTORS
330
4E
102
}
330
4E
100
AcDbScale
 70
     0
300
1/32" = 1'-0"
140
0.03125
141
12.0
290
     0
  0
SCALE
  5
6E
102
{ACAD_REACTORS
330
4E
102
}
330
4E
100
AcDbScale
 70
     0
300
1/16" = 1'-0"
140
0.0625
141
12.0
290
     0
  0
SCALE
  5
6F
102
{ACAD_REACTORS
330
4E
102
}
330
4E
100
AcDbScale
 70
     0
300
3/32" = 1'-0"
140
0.09375
141
12.0
290
     0
  0
SCALE
  5
70
102
{ACAD_REACTORS
330
4E
102
}
330
4E
100
AcDbScale
 70
     0
300
1/8" = 1'-0"
140
0.125
141
12.0
290
     0
  0
SCALE
  5
71
102
{ACAD_REACTORS
330
4E
102
}
330
4E
100
AcDbScale
 70
     0
300
3/16" = 1'-0"
140
0.1875
141
12.0
290
     0
  0
SCALE
  5
72
102
{ACAD_REACTORS
330
4E
102
}
330
4E
100
AcDbScale
 70
     0
300
1/4" = 1'-0"
140
0.25
141
12.0
290
     0
  0
SCALE
  5
73
102
{ACAD_REACTORS
330
4E
102
}
330
4E
100
AcDbScale
 70
     0
300
3/8" = 1'-0"
140
0.375
141
12.0
290
     0
  0
SCALE
  5
74
102
{ACAD_REACTORS
330
4E
102
}
330
4E
100
AcDbScale
 70
     0
300
1/2" = 1'-0"
140
0.5
141
12.0
290
     0
  0
SCALE
  5
75
102
{ACAD_REACTORS
330
4E
102
}
330
4E
100
AcDbScale
 70
     0
300
3/4" = 1'-0"
140
0.75
141
12.0
290
     0
  0
SCALE
  5
76
102
{ACAD_REACTORS
330
4E
102
}
330
4E
100
AcDbScale
 70
     0
300
1" = 1'-0"
140
1.0
141
12.0
290
     0
  0
SCALE
  5
77
102
{ACAD_REACTORS
330
4E
102
}
330
4E
100
AcDbScale
 70
     0
300
1-1/2" = 1'-0"
140
1.5
141
12.0
290
     0
  0
SCALE
  5
78
102
{ACAD_REACTORS
330
4E
102
}
330
4E
100
AcDbScale
 70
     0
300
3" = 1'-0"
140
3.0
141
12.0
290
     0
  0
SCALE
  5
79
102
{ACAD_REACTORS
330
4E
102
}
330
4E
100
AcDbScale
 70
     0
300
6" = 1'-0"
140
6.0
141
12.0
290
     0
  0
SCALE
  5
7A
102
{ACAD_REACTORS
330
4E
102
}
330
4E
100
AcDbScale
 70
     0
300
1'-0" = 1'-0"
140
12.0
141
12.0
290
     0
  0
TABLESTYLE
  5
56
102
{ACAD_XDICTIONARY
360
57
102
}
102
{ACAD_REACTORS
330
4F
102
}
330
4F
100
AcDbTableStyle
280
     0
  3
Standard
 70
     0
 71
     0
 40
0.06
 41
0.06
280
     0
281
     0
  7
STANDARD
140
0.18
170
     2
 62
     0
 63
     7
283
     0
 90
      512
 91
        0
  1

274
    -2
284
     1
 64
     0
275
    -2
285
     1
 65
     0
276
    -2
286
     1
 66
     0
277
    -2
287
     1
 67
     0
278
    -2
288
     1
 68
     0
279
    -2
289
     1
 69
     0
  7
STANDARD
140
0.25
170
     5
 62
     0
 63
     7
283
     0
 90
      512
 91
        0
  1

274
    -2
284
     1
 64
     0
275
    -2
285
     1
 65
     0
276
    -2
286
     1
 66
     0
277
    -2
287
     1
 67
     0
278
    -2
288
     1
 68
     0
279
    -2
289
     1
 69
     0
  7
STANDARD
140
0.18
170
     5
 62
     0
 63
     7
283
     0
 90
      512
 91
        0
  1

274
    -2
284
     1
 64
     0
275
    -2
285
     1
 65
     0
276
    -2
286
     1
 66
     0
277
    -2
287
     1
 67
     0
278
    -2
288
     1
 68
     0
279
    -2
289
     1
 69
     0
  0
VISUALSTYLE
  5
2F
102
{ACAD_REACTORS
330
30
102
}
330
30
100
AcDbVisualStyle
  2
2dWireframe
 70
     4
177
     2
291
     0
 71
     0
176
     1
 72
     2
176
     1
 73
     0
176
     1
 90
        0
176
     1
 40
0.6
176
     1
 41
30.0
176
     1
 63
     7
176
     1
 74
     1
176
     1
 91
        4
176
     1
 64
     7
176
     1
 65
   257
176
     1
 75
     1
176
     1
175
     1
176
     1
 42
1.0
176
     1
 92
        0
176
     1
 66
   257
176
     1
 43
1.0
176
     1
 76
     1
176
     1
 77
     6
176
     1
 78
     2
176
     1
 67
     7
176
     1
 79
     5
176
     1
170
     0
176
     1
171
     0
176
     1
290
     0
176
     1
 93
        1
176
     1
 44
0.0
176
     1
173
     0
176
     1
  0
VISUALSTYLE
  5
59
102
{ACAD_REACTORS
330
30
102
}
330
30
100
AcDbVisualStyle
  2
3dWireframe
 70
     5
177
     2
291
     0
 71
     0
176
     1
 72
     2
176
     1
 73
     0
176
     1
 90
        0
176
     1
 40
0.6
176
     1
 41
30.0
176
     1
 63
     7
176
     1
 74
     1
176
     1
 91
        4
176
     1
 64
     7
176
     1
 65
   257
176
     1
 75
     1
176
     1
175
     1
176
     1
 42
1.0
176
     1
 92
        0
176
     1
 66
   257
176
     1
 43
1.0
176
     1
 76
     1
176
     1
 77
     6
176
     1
 78
     2
176
     1
 67
     7
176
     1
 79
     5
176
     1
170
     0
176
     1
171
     0
176
     1
290
     0
176
     1
 93
        1
176
     1
 44
0.0
176
     1
173
     0
176
     1
  0
VISUALSTYLE
  5
58
102
{ACAD_REACTORS
330
30
102
}
330
30
100
AcDbVisualStyle
  2
Realistic
 70
     8
177
     2
291
     0
 71
     2
176
     1
 72
     2
176
     1
 73
     0
176
     1
 90
        0
176
     1
 40
0.6
176
     1
 41
30.0
176
     1
 63
     7
176
     1
 74
     1
176
     1
 91
        0
176
     1
 64
     7
176
     1
 65
   257
176
     1
 75
     1
176
     1
175
     1
176
     1
 42
1.0
176
     1
 92
        8
176
     1
 66
     8
176
     1
 43
1.0
176
     1
 76
     1
176
     1
 77
     6
176
     1
 78
     2
176
     1
 67
     7
176
     1
 79
     5
176
     1
170
     0
176
     1
171
     0
176
     1
290
     0
176
     1
 93
       13
176
     1
 44
0.0
176
     1
173
     0
176
     1
  0
DICTIONARYVAR
  5
4C5
102
{ACAD_REACTORS
330
4C1
102
}
330
4C1
100
DictionaryVariables
280
     0
  1
1:1
  0
DICTIONARYVAR
  5
4C3
102
{ACAD_REACTORS
330
4C1
102
}
330
4C1
100
DictionaryVariables
280
     0
  1
STANDARD
  0
DICTIONARYVAR
  5
4C2
102
{ACAD_REACTORS
330
4C1
102
}
330
4C1
100
DictionaryVariables
280
     0
  1
STANDARD
  0
DICTIONARYVAR
  5
4C7
102
{ACAD_REACTORS
330
4C1
102
}
330
4C1
100
DictionaryVariables
280
     0
  1
1
  0
DICTIONARYVAR
  5
4C8
102
{ACAD_REACTORS
330
4C1
102
}
330
4C1
100
DictionaryVariables
280
     0
  1
15
  0
DICTIONARYVAR
  5
4C6
102
{ACAD_REACTORS
330
4C1
102
}
330
4C1
100
DictionaryVariables
280
     0
  1
0
  0
DICTIONARYVAR
  5
4C4
102
{ACAD_REACTORS
330
4C1
102
}
330
4C1
100
DictionaryVariables
280
     0
  1
0
  0
DICTIONARY
  5
19
330
17
100
AcDbDictionary
280
     1
281
     1
  3
ADSK_XREC_LAYOUTTHUMBNAIL
360
1A
  0
DICTIONARY
  5
46
330
45
100
AcDbDictionary
280
     1
281
     1
  3
BUMPTILE
360
47
  3
DIFFUSETILE
360
48
  3
OPACITYTILE
360
49
  3
REFLECTIONTILE
360
4A
  3
REFRACTIONTILE
360
4B
  3
SPECULARTILE
360
4C
  0
DICTIONARY
  5
3E
330
3D
100
AcDbDictionary
280
     1
281
     1
  3
BUMPTILE
360
3F
  3
DIFFUSETILE
360
40
  3
OPACITYTILE
360
41
  3
REFLECTIONTILE
360
42
  3
REFRACTIONTILE
360
43
  3
SPECULARTILE
360
44
  0
DICTIONARY
  5
E
330
C
100
AcDbDictionary
280
     1
281
     1
  3
BUMPTILE
360
F
  3
DIFFUSETILE
360
10
  3
OPACITYTILE
360
11
  3
REFLECTIONTILE
360
12
  3
REFRACTIONTILE
360
13
  3
SPECULARTILE
360
14
  0
DICTIONARY
  5
57
330
56
100
AcDbDictionary
280
     1
281
     1
  3
ACAD_ROUNDTRIP_2008_TABLESTYLE_CELLSTYLEMAP
360
4C9
  0
XRECORD
  5
1A
102
{ACAD_REACTORS
330
19
102
}
330
19
100
AcDbXrecord
280
     1
310
280000000001000084000000010008000000000000840000000000000000000000010000000000000000000000000000FFFFFF000000000000000000000000000000000000000000000000000000000000000000330000006600000099000000CC000000FF00000000330000333300006633000099330000CC330000FF3300
310
0000660000336600006666000099660000CC660000FF66000000990000339900006699000099990000CC990000FF99000000CC000033CC000066CC000099CC0000CCCC0000FFCC000000FF000033FF000066FF000099FF0000CCFF0000FFFF000000003300330033006600330099003300CC003300FF003300003333003333
310
33006633330099333300CC333300FF33330000663300336633006666330099663300CC663300FF66330000993300339933006699330099993300CC993300FF99330000CC330033CC330066CC330099CC3300CCCC3300FFCC330000FF330033FF330066FF330099FF3300CCFF3300FFFF330000006600330066006600660099
310
006600CC006600FF00660000336600333366006633660099336600CC336600FF33660000666600336666006666660099666600CC666600FF66660000996600339966006699660099996600CC996600FF99660000CC660033CC660066CC660099CC6600CCCC6600FFCC660000FF660033FF660066FF660099FF6600CCFF6600
310
FFFF660000009900330099006600990099009900CC009900FF00990000339900333399006633990099339900CC339900FF33990000669900336699006666990099669900CC669900FF66990000999900339999006699990099999900CC999900FF99990000CC990033CC990066CC990099CC9900CCCC9900FFCC990000FF99
310
0033FF990066FF990099FF9900CCFF9900FFFF99000000CC003300CC006600CC009900CC00CC00CC00FF00CC000033CC003333CC006633CC009933CC00CC33CC00FF33CC000066CC003366CC006666CC009966CC00CC66CC00FF66CC000099CC003399CC006699CC009999CC00CC99CC00FF99CC0000CCCC0033CCCC0066CC
310
CC0099CCCC00CCCCCC00FFCCCC0000FFCC0033FFCC0066FFCC0099FFCC00CCFFCC00FFFFCC000000FF003300FF006600FF009900FF00CC00FF00FF00FF000033FF003333FF006633FF009933FF00CC33FF00FF33FF000066FF003366FF006666FF009966FF00CC66FF00FF66FF000099FF003399FF006699FF009999FF00CC
310
99FF00FF99FF0000CCFF0033CCFF0066CCFF0099CCFF00CCCCFF00FFCCFF0000FFFF0033FFFF0066FFFF0099FFFF00CCFFFF00FFFFFF00000000000D0D0D001A1A1A00282828003535350043434300505050005D5D5D006B6B6B00787878008686860093939300A1A1A100AEAEAE00BBBBBB00C9C9C900D6D6D600E4E4E400
310
F1F1F100FFFFFF0000000000000000000000000000000000000000000000000000000000000000000000000000000000E2E2E2E2E2E2E2E2E2E2E2E2E2E2E2E2E2E2E2E2E2E2E2E2E2E2E2E2E2E2E2E2E2E2E2E2E2E2E2E2E2E2E2E2E2E2E2E2E2E2E2E2E2E2E2E2E2E2E2E2E2E2E2E2E2E2E2E2E2E2E2E2E2E2E2E2E2E2E2
310
E2E2E2E2E2E2E2E2E2E2E2E2E2E2E2E2E2E2E2E2E2E2E2E2E2E2E2E2E2E2E2E2E2E2E2E2E2E2E2E2E2E2E2E2E2E2E2E2E2E2E2E2E2E2E2E2E2E2E2E2E2E2E2E2E2E2E2E2E2E2E2E2E2E2E2E2E2E2E2E2E2E2E2E2E2E2E2E2E2E2E2E2E2E2E2E2E2E2E2E2E2E2E2E2E2E2E2E2E2E2E2E2E2E2E2E2E2E2E2E2E2E2E2E2E2E2E2
310
E2E2E2E2E2E2E2E2E2E2E2E2E2E2E2E2E2E2E2E2E2E2E2E2E2E2E2E2E2E2E2E2E2E2E2E2E2E2E2E2E2E2E2E2E2E2E2E2E2E2E2E2E2E2E2E2E2E2E2E2E2E2E2E2E2E2E2E2E2E2E2E2E2E2E2E2E2E2E2E2E2E2E2E2E2E2E2E2E2E2E2E2E2E2E2E2E2E2E2E2E2E2E2E2E2E2E2E2E2E2E2E2E2E2E2E2E2E2E2E2E2E2E2E2E2E2E2
310
E2E2E2E2E2E2E2E2E2E2E2E2E2E2E2E2E2E2E2E2E2E2E2E2E2E2E2E2E2E2E2E2E2E2E2E2E2E2E2E2E2E2E2E2E2E2E2E2E2E2E2E2E2E2E2E2E2E2E2E2E2E2E2E2E2E2E2E2E2E2E2E2E2E2E2E2E2E2E2E2E2E2E2E2E2E2E2E2E2E2E2E2E2E2E2E2E2E2E2E2E2E2E2E2E2E2E2E2E2E2E2E2E2E2E2E2E2E2E2E2E2E2E2E2E2E2E2
310
E2E2E2E2E2E2E2E2E2E2E2E2E2E2E2E2E2E2E2E2E2E2E2E2E2E2E2E2E2E2E2E2E2E2E2E2E2E2E2E2E2E2E2E2E2E2E2E2E2E2E2E2E2E2E2E2E2E2E2E2E2E2E2E2E2E2E2E2E2E2E2E2E2E2E2E2E2E2E2E2E2E2E2E2E2E2E2E2E2E2E2E2E2E2E2E2E2E2E2E2E2E2E2E2E2E2E2E2E2E2E2E2E2E2E2E2E2E2E2E2E2E2E2E2E2E2E2
310
E2E2E2E2E2E2E2E2E2E2E2E2E2E2E2E2E2E2E2E2E2E2E2E2E2E2E2E2E2E2E2E2E2E2E2E2E2E2E2E2E2E2E2E2E2E2E2E2E2E2E2E2E2E2E2E2E2E2E2E2E2E2E2E2E2E2E2E2E2E2E2E2E2E2E2E2E2E2E2E2E2E2E2E2E2E2E2E2E2E2E2E2E2E2E2E2E2E2E2E2E2E2E2E2E2E2E2E2E2E2E2E2E2E2E2E2E2E2E2E2E2E2E2E2E2E2E2
310
E2E2E2E2E2E2E2E2E2E2E2E2E2E2E2E2E2E2E2E2E2E2E2E2E2E2E2E2E2E2E2E2E2E2E2E2E2E2E2E2E2E2E2E2E2E2E2E2E2E2E2E2E2E2E2E2E2E2E2E2E2E2E2E2E2E2E2E2E2E2E2E2E2E2E2E2E2E2E2E2E2E2E2E2E2E2E2E2E2E2E2E2E2E2E2E2E2E2E2E2E2E2E2E2E2E2E2E2E2E2E2E2E2E2E2E2E2E2E2E2E2E2E2E2E2E2E2
310
E2E2E2E2E2E2E2E2E2E2E2E2E2E2E2E2E2E2E2E2E2E2E2E2E2E2E2E2E2E2E2E2E2E2E2E2E2E2E2E2E2E2E2E2E2E2E2E2E2E2E2E2E2E2E2E2E2E2E2E2E2E2E2E2E2E2E2E2E2E2E2E2E2E2E2E2E2E2E2E2E2E2E2E2E2E2E2E2E2E2E2E2E2E2E2E2E2E2E2E2E2E2E2E2E2E2E2E2E2E2E2E2E2E2E2E2E2E2E2E2E2E2E2E2E2E2E2
310
E2E2E2E2E2E2E2E2E2E2E2E2E2E2E2E2E2E2E2E2E2E2E2E2E2E2E2E2E2E2E2E2E2E2E2E2E2E2E2E2E2E2E2E2E2E2E2E2E2E2E2E2E2E2E2E2E2E2E2E2E2E2E2E2E2E2E2E2E2E2E2E2E2E2E2E2E2E2E2E2E2E2E2E2E2E2E2E2E2E2E2E2E2E2E2E2E2E2E2E2E2E2E2E2E2E2E2E2E2E2E2E2E2E2E2E2E2E2E2E2E2E2E2E2E2E2E2
310
E2E2E2E2E2E2E2E2E2E2E2E2E2E2E2E2E2E2E2E2E2E2E2E2E2E2E2E2E2E2E2E2E2E2E2E2E2E2E2E2E2E2E2E2E2E2E2E2E2E2E2E2E2E2E2E2E2E2E2E2E2E2E2E2E2E2E2E2E2E2E2E2E2E2E2E2E2E2E2E2E2E2E2E2E2E2E2E2E2E2E2E2E2E2E2E2E2E2E2E2E2E2E2E2E2E2E2E2E2E2E2E2E2E2E2E2E2E2E2E2E2E2E2E2E2E2E2
310
E2E2E2E2E2E2E2E2E2E2E2E2E2E2E2E2E2E2E2E2E2E2E2E2E2E2E2E2E2E2E2E2E2E2E2E2E2E2E2E2E2E2E2E2E2E2E2E2E2E2E2E2E2E2E2E2E2E2E2E2E2E2E2E2E2E2E2E2E2E2E2E2E2E2E2E2E2E2E2E2E2E2E2E2E2E2E2E2E2E2E2E2E2E2E2E2E2E2E2E2E2E2E2E2E2E2E2E2E2E2E2E2E2E2E2E2E2E2E2E2E2E2E2E2E2E2E2
310
E2E2E2E2E2E2E2E2E2E2E2E2E2E2E2E2E2E2E2E2E2E2E2E2E2E2E2E2E2E2E2E2E2E2E2E2E2E2E2E2E2E2E2E2E2E2E2E2E2E2E2E2E2E2E2E2E2E2E2E2E2E2E2E2E2E2E2E2E2E2E2E2E2E2E2E2E2E2E2E2E2E2E2E2E2E2E2E2E2E2E2E2E2E2E2E2E2E2E2E2E2E2E2E2E2E2E2E2E2E2E2E2E2E2E2E2E2E2E2E2E2E2E2E2E2E2E2
310
E2E2E2E2E2E2E2E2E2E2E2E2E2E2E2E2E2E2E2E2E2E2E2E2E2E2E2E2E2E2E2E2E2E2E2E2E2E2E2E2E2E2E2E2E2E2E2E2E2E2E2E2E2E2E2E2E2E2E2E2E2E2E2E2E2E2E2E2E2E2E2E2E2E2E2E2E2E2E2E2E2E2E2E2E2E2E2E2E2E2E2E2E2E2E2E2E2E2E2E2E2E2E2E2E2E2E2E2E2E2E2E2E2E2E2E2E2E2E2E2E2E2E2E2E2E2E2
310
E2E2E2E2E2E2E2E2E2E2E2E2E2E2E2E2E2E2E2E2E2E2E2E2E2E2E2E2E2E2E2E2E2E2E2E2E2E2E2E2E2E2E2E2E2E2E2E2E2E2E2E2E2E2E2E2E2E2E2E2E2E2E2E2E2E2E2E2E2E2E2E2E2E2E2E2E2E2E2E2E2E2E2E2E2E2E2E2E2E2E2E2E2E2E2E2E2E2E2E2E2E2E2E2E2E2E2E2E2E2E2E2E2E2E2E2E2E2E2E2E2E2E2E2E2E2E2
310
E2E2E2E2E2E2E2E2E2E2E2E2E2E2E2E2E2E2E2E2E2E2E2E2E2E2E2E2E2E2E2E2E2E2E2E2E2E2E2E2E2E2E2E2E2E2E2E2E2E2E2E2E2E2E2E2E2E2E2E2E2E2E2E2E2E2E2E2E2E2E2E2E2E2E2E2E2E2E2E2E2E2E2E2E2E2E2E2E2E2E2E2E2E2E2E2E2E2E2E2E2E2E2E2E2E2E2E2E2E2E2E2E2E2E2E2E2E2E2E2E2E2E2E2E2E2E2
310
E2E2E2E2E2E2E2E2E2E2E2E2E2E2E2E2E2E2E2E2E2E2E2E2E2E2E2E2E2E2E2E2E2E2E2E2E2E2E2E2E2E2E2E2E2E2E2E2E2E2E2E2E2E2E2E2E2E2E2E2E2E2E2E2E2E2E2E2E2E2E2E2E2E2E2E2E2E2E2E2E2E2E2E2E2E2E2E2E2E2E2E2E2E2E2E2E2E2E2E2E2E2E2E2E2E2E2E2E2E2E2E2E2E2E2E2E2E2E2E2E2E2E2E2E2E2E2
310
E2E2E2E2E2E2E2E2E2E2E2E2E2E2E2E2E2E2E2E2E2E2E2E2E2E2E2E2E2E2E2E2E2E2E2E2E2E2E2E2E2E2E2E2E2E2E2E2E2E2E2E2E2E2E2E2E2E2E2E2E2E2E2E2E2E2E2E2E2E2E2E2E2E2E2E2E2E2E2E2E2E2E2E2E2E2E2E2E2E2E2E2E2E2E2E2E2E2E2E2E2E2E2E2E2E2E2E2E2E2E2E2E2E2E2E2E2E2E2E2E2E2E2E2E2E2E2
310
E2E2E2E2E2E2E2E2E2E2E2E2E2E2E2E2E2E2E2E2E2E2E2E2E2E2E2E2E2E2E2E2E2E2E2E2E2E2E2E2E2E2E2E2E2E2E2E2E2E2E2E2E2E2E2E2E2E2E2E2E2E2E2E2E2E2E2E2E2E2E2E2E2E2E2E2E2E2E2E2E2E2E2E2E2E2E2E2E2E2E2E2E2E2E2E2E2E2E2E2E2E2E2E2E2E2E2E2E2E2E2E2E2E2E2E2E2E2E2E2E2E2E2E2E2E2E2
310
E2E2E2E2E2E2E2E2E2E2E2E2E2E2E2E2E2E2E2E2E2E2E2E2E2E2E2E2E2E2E2E2E2E2E2E2E2E2E2E2E2E2E2E2E2E2E2E2E2E2E2E2E2E2E2E2E2E2E2E2E2E2E2E2E2E2E2E2E2E2E2E2E2E2E2E2E2E2E2E2E2E2E2E2E2E2E2E2E2E2E2E2E2E2E2E2E2E2E2E2E2E2E2E2E2E2E2E2E2E2E2E2E2E2E2E2E2E2E2E2E2E2E2E2E2E2E2
310
E2E2E2E2E2E2E2E2E2E2E2E2E2E2E2E2E2E2E2E2E2E2E2E2E2E2E2E2E2E2E2E2E2E2E2E2E2E2E2E2E2E2E2E2E2E2E2E2E2E2E2E2E2E2E2E2E2E2E2E2E2E2E2E2E2E2E2E2E2E2E2E2E2E2E2E2E2E2E2E2E2E2E2E2E2E2E2E2E2E2E2E2E2E2E2E2E2E2E2E2E2E2E2E2E2E2E2E2E2E2E2E2E2E2E2E2E2E2E2E2E2E2E2E2E2E2E2
310
E2E2E2E2E2E2E2E2E2E2E2E2E2E2E2E2E2E2E2E2E2E2E2E2E2E2E2E2E2E2E2E2E2E2E2E2E2E2E2E2E2E2E2E2E2E2E2E2E2E2E2E2E2E2E2E2E2E2E2E2E2E2E2E2E2E2E2E2E2E2E2E2E2E2E2E2E2E2E2E2E2E2E2E2E2E2E2E2E2E2E2E2E2E2E2E2E2E2E2E2E2E2E2E2E2E2E2E2E2E2E2E2E2E2E2E2E2E2E2E2E2E2E2E2E2E2E2
310
E2E2E2E2E2E2E2E2E2E2E2E2E2E2E2E2E2E2E2E2E2E2E2E2E2E2E2E2E2E2E2E2E2E2E2E2E2E2E2E2E2E2E2E2E2E2E2E2E2E2E2E2E2E2E2E2E2E2E2E2E2E2E2E2E2E2E2E2E2E2E2E2E2E2E2E2E2E2E2E2E2E2E2E2E2E2E2E2E2E2E2E2E2E2E2E2E2E2E2E2E2E2E2E2E2E2E2E2E2E2E2E2E2E2E2E2E2E2E2E2E2E2E2E2E2E2E2
310
E2E2E2E2E2E2E2E2E2E2E2E2E2E2E2E2E2E2E2E2E2E2E2E2E2E2E2E2E2E2E2E2E2E2E2E2E2E2E2E2E2E2E2E2E2E2E2E2E2E2E2E2E2E2E2E2E2E2E2E2E2E2E2E2E2E2E2E2E2E2E2E2E2E2E2E2E2E2E2E2E2E2E2E2E2E2E2E2E2E2E2E2E2E2E2E2E2E2E2E2E2E2E2E2E2E2E2E2E2E2E2E2E2E2E2E2E2E2E2E2E2E2E2E2E2E2E2
310
E2E2E2E2E2E2E2E2E2E2E2E2E2E2E2E2E2E2E2E2E2E2E2E2E2E2E2E2E2E2E2E2E2E2E2E2E2E2E2E2E2E2E2E2E2E2E2E2E2E2E2E2E2E2E2E2E2E2E2E2E2E2E2E2E2E2E2E2E2E2E2E2E2E2E2E2E2E2E2E2E2E2E2E2E2E2E2E2E2E2E2E2E2E2E2E2E2E2E2E2E2E2E2E2E2E2E2E2E2E2E2E2E2E2E2E2E2E2E2E2E2E2E2E2E2E2E2
310
E2E2E2E2E2E2E2E2E2E2E2E2E2E2E2E2E2E2E2E2E2E2E2E2E2E2E2E2E2E2E2E2E2E2E2E2E2E2E2E2E2E2E2E2E2E2E2E2E2E2E2E2E2E2E2E2E2E2E2E2E2E2E2E2E2E2E2E2E2E2E2E2E2E2E2E2E2E2E2E2E2E2E2E2E2E2E2E2E2E2E2E2E2E2E2E2E2E2E2E2E2E2E2E2E2E2E2E2E2E2E2E2E2E2E2E2E2E2E2E2E2E2E2E2E2E2E2
310
E2E2E2E2E2E2E2E2E2E2E2E2E2E2E2E2E2E2E2E2E2E2E2E2E2E2E2E2E2E2E2E2E2E2E2E2E2E2E2E2E2E2E2E2E2E2E2E2E2E2E2E2E2E2E2E2E2E2E2E2E2E2E2E2E2E2E2E2E2E2E2E2E2E2E2E2E2E2E2E2E2E2E2E2E2E2E2E2E2E2E2E2E2E2E2E2E2E2E2E2E2E2E2E2E2E2E2E2E2E2E2E2E2E2E2E2E2E2E2E2E2E2E2E2E2E2E2
310
E2E2E2E2E2E2E2E2E2E2E2E2E2E2E2E2E2E2E2E2E2E2E2E2E2E2E2E2E2E2E2E2E2E2E2E2E2E2E2E2E2E2E2E2E2E2E2E2E2E2E2E2E2E2E2E2E2E2E2E2E2E2E2E2E2E2E2E2E2E2E2E2E2E2E2E2E2E2E2E2E2E2E2E2E2E2E2E2E2E2E2E2E2E2E2E2E2E2E2E2E2E2E2E2E2E2E2E2E2E2E2E2E2E2E2E2E2E2E2E2E2E2E2E2E2E2E2
310
E2E2E2E2E2E2E2E2E2E2E2E2E2E2E2E2E2E2E2E2E2E2E2E2E2E2E2E2E2E2E2E2E2E2E2E2E2E2E2E2E2E2E2E2E2E2E2E2E2E2E2E2E2E2E2E2E2E2E2E2E2E2E2E2E2E2E2E2E2E2E2E2E2E2E2E2E2E2E2E2E2E2E2E2E2E2E2E2E2E2E2E2E2E2E2E2E2E2E2E2E2E2E2E2E2E2E2E2E2E2E2E2E2E2E2E2E2E2E2E2E2E2E2E2E2E2E2
310
E2E2E2E2E2E2E2E2E2E2E2E2E2E2E2E2E2E2E2E2E2E2E2E2E2E2E2E2E2E2E2E2E2E2E2E2E2E2E2E2E2E2E2E2E2E2E2E2E2E2E2E2E2E2E2E2E2E2E2E2E2E2E2E2E2E2E2E2E2E2E2E2E2E2E2E2E2E2E2E2E2E2E2E2E2E2E2E2E2E2E2E2E2E2E2E2E2E2E2E2E2E2E2E2E2E2E2E2E2E2E2E2E2E2E2E2E2E2E2E2E2E2E2E2E2E2E2
310
E2E2E2E2E2E2E2E2E2E2E2E2E2E2E2E2E2E2E2E2E2E2E2E2E2E2E2E2E2E2E2E2E2E2E2E2E2E2E2E2E2E2E2E2E2E2E2E2E2E2E2E2E2E2E2E2E2E2E2E2E2E2E2E2E2E2E2E2E2E2E2E2E2E2E2E2E2E2E2E2E2E2E2E2E2E2E2E2E2E2E2E2E2E2E2E2E2E2E2E2E2E2E2E2E2E2E2E2E2E2E2E2E2E2E2E2E2E2E2E2E2E2E2E2E2E2E2
310
E2E2E2E2E2E2E2E2E2E2E2E2E2E2E2E2E2E2E2E2E2E2E2E2E2E2E2E2E2E2E2E2E2E2E2E2E2E2E2E2E2E2E2E2E2E2E2E2E2E2E2E2E2E2E2E2E2E2E2E2E2E2E2E2E2E2E2E2E2E2E2E2E2E2E2E2E2E2E2E2E2E2E2E2E2E2E2E2E2E2E2E2E2E2E2E2E2E2E2E2E2E2E2E2E2E2E2E2E2E2E2E2E2E2E2E2E2E2E2E2E2E2E2E2E2E2E2
310
E2E2E2E2E2E2E2E2E2E2E2E2E2E2E2E2E2E2E2E2E2E2E2E2E2E2E2E2E2E2E2E2E2E2E2E2E2E2E2E2E2E2E2E2E2E2E2E2E2E2E2E2E2E2E2E2E2E2E2E2E2E2E2E2E2E2E2E2E2E2E2E2E2E2E2E2E2E2E2E2E2E2E2E2E2E2E2E2E2E2E2E2E2E2E2E2E2E2E2E2E2E2E2E2E2E2E2E2E2E2E2E2E2E2E2E2E2E2E2E2E2E2E2E2E2E2E2
310
E2E2E2E2E2E2E2E2E2E2E2E2E2E2E2E2E2E2E2E2E2E2E2E2E2E2E2E2E2E2E2E2E2E2E2E2E2E2E2E2E2E2E2E2E2E2E2E2E2E2E2E2E2E2E2E2E2E2E2E2E2E2E2E2E2E2E2E2E2E2E2E2E2E2E2E2E2E2E2E2E2E2E2E2E2E2E2E2E2E2E2E2E2E2E2E2E2E2E2E2E2E2E2E2E2E2E2E2E2E2E2E2E2E2E2E2E2E2E2E2E2E2E2E2E2E2E2
310
E2E2E2E2E2E2E2E2E2E2E2E2E2E2E2E2E2E2E2E2E2E2E2E2E2E2E2E2E2E2E2E2E2E2E2E2E2E2E2E2E2E2E2E2E2E2E2E2E2E2E2E2E2E2E2E2E2E2E2E2E2E2E2E2E2E2E2E2E2E2E2E2E2E2E2E2E2E2E2E2E2E2E2E2E2E2E2E2E2E2E2E2E2E2E2E2E2E2E2E2E2E2E2E2E2E2E2E2E2E2E2E2E2E2E2E2E2E2E2E2E2E2E2E2E2E2E2
310
E2E2E2E2E2E2E2E2E2E2E2E2E2E2E2E2E2E2E2E2E2E2E2E2E2E2E2E2E2E2E2E2E2E2E2E2E2E2E2E2E2E2E2E2E2E2E2E2E2E2E2E2E2E2E2E2E2E2E2E2E2E2E2E2E2E2E2E2E2E2E2E2E2E2E2E2E2E2E2E2E2E2E2E2E2E2E2E2E2E2E2E2E2E2E2E2E2E2E2E2E2E2E2E2E2E2E2E2E2E2E2E2E2E2E2E2E2E2E2E2E2E2E2E2E2E2E2
310
E2E2E2E2E2E2E2E2E2E2E2E2E2E2E2E2E2E2E2E2E2E2E2E2E2E2E2E2E2E2E2E2E2E2E2E2E2E2E2E2E2E2E2E2E2E2E2E2E2E2E2E2E2E2E2E2E2E2E2E2E2E2E2E2E2E2E2E2E2E2E2E2E2E2E2E2E2E2E2E2E2E2E2E2E2E2E2E2E2E2E2E2E2E2E2E2E2E2E2E2E2E2E2E2E2E2E2E2E2E2E2E2E2E2E2E2E2E2E2E2E2E2E2E2E2E2E2
310
E2E2E2E2E2E2E2E2E2E2E2E2E2E2E2E2E2E2E2E2E2E2E2E2E2E2E2E2E2E2E2E2E2E2E2E2E2E2E2E2E2E2E2E2E2E2E2E2E2E2E2E2E2E2E2E2E2E2E2E2E2E2E2E2E2E2E2E2E2E2E2E2E2E2E2E2E2E2E2E2E2E2E2E2E2E2E2E2E2E2E2E2E2E2E2E2E2E2E2E2E2E2E2E2E2E2E2E2E2E2E2E2E2E2E2E2E2E2E2E2E2E2E2E2E2E2E2
310
E2E2E2E2E2E2E2E2E2E2E2E2E2E2E2E2E2E2E2E2E2E2E2E2E2E2E2E2E2E2E2E2E2E2E2E2E2E2E2E2E2E2E2E2E2E2E2E2E2E2E2E2E2E2E2E2E2E2E2E2E2E2E2E2E2E2E2E2E2E2E2E2E2E2E2E2E2E2E2E2E2E2E2E2E2E2E2E2E2E2E2E2E2E2E2E2E2E2E2E2E2E2E2E2E2E2E2E2E2E2E2E2E2E2E2E2E2E2E2E2E2E2E2E2E2E2E2
310
E2E2E2E2E2E2E2E2E2E2E2E2E2E2E2E2E2E2E2E2E2E2E2E2E2E2E2E2E2E2E2E2E2E2E2E2E2E2E2E2E2E2E2E2E2E2E2E2E2E2E2E2E2E2E2E2E2E2E2E2E2E2E2E2E2E2E2E2E2E2E2E2E2E2E2E2E2E2E2E2E2E2E2E2E2E2E2E2E2E2E2E2E2E2E2E2E2E2E2E2E2E2E2E2E2E2E2E2E2E2E2E2E2E2E2E2E2E2E2E2E2E2E2E2E2E2E2
310
E2E2E2E2E2E2E2E2E2E2E2E2E2E2E2E2E2E2E2E2E2E2E2E2E2E2E2E2E2E2E2E2E2E2E2E2E2E2E2E2E2E2E2E2E2E2E2E2E2E2E2E2E2E2E2E2E2E2E2E2E2E2E2E2E2E2E2E2E2E2E2E2E2E2E2E2E2E2E2E2E2E2E2E2E2E2E2E2E2E2E2E2E2E2E2E2E2E2E2E2E2E2E2E2E2E2E2E2E2E2E2E2E2E2E2E2E2E2E2E2E2E2E2E2E2E2E2
310
E2E2E2E2E2E2E2E2E2E2E2E2E2E2E2E2E2E2E2E2E2E2E2E2E2E2E2E2E2E2E2E2E2E2E2E2E2E2E2E2E2E2E2E2E2E2E2E2E2E2E2E2E2E2E2E2E2E2E2E2E2E2E2E2E2E2E2E2E2E2E2E2E2E2E2E2E2E2E2E2E2E2E2E2E2E2E2E2E2E2E2E2E2E2E2E2E2E2E2E2E2E2E2E2E2E2E2E2E2E2E2E2E2E2E2E2E2E2E2E2E2E2E2E2E2E2E2
310
E2E2E2E2E2E2E2E2E2E2E2E2E2E2E2E2E2E2E2E2E2E2E2E2E2E2E2E2E2E2E2E2E2E2E2E2E2E2E2E2E2E2E2E2E2E2E2E2E2E2E2E2E2E2E2E2E2E2E2E2E2E2E2E2E2E2E2E2E2E2E2E2E2E2E2E2E2E2E2E2E2E2E2E2E2E2E2E2E2E2E2E2E2E2E2E2E2E2E2E2E2E2E2E2E2E2E2E2E2E2E2E2E2E2E2E2E2E2E2E2E2E2E2E2E2E2E2
310
E2E2E2E2E2E2E2E2E2E2E2E2E2E2E2E2E2E2E2E2E2E2E2E2E2E2E2E2E2E2E2E2E2E2E2E2E2E2E2E2E2E2E2E2E2E2E2E2E2E2E2E2E2E2E2E2E2E2E2E2E2E2E2E2E2E2E2E2E2E2E2E2E2E2E2E2E2E2E2E2E2E2E2E2E2E2E2E2E2E2E2E2E2E2E2E2E2E2E2E2E2E2E2E2E2E2E2E2E2E2E2E2E2E2E2E2E2E2E2E2E2E2E2E2E2E2E2
310
E2E2E2E2E2E2E2E2E2E2E2E2E2E2E2E2E2E2E2E2E2E2E2E2E2E2E2E2E2E2E2E2E2E2E2E2E2E2E2E2E2E2E2E2E2E2E2E2E2E2E2E2E2E2E2E2E2E2E2E2E2E2E2E2E2E2E2E2E2E2E2E2E2E2E2E2E2E2E2E2E2E2E2E2E2E2E2E2E2E2E2E2E2E2E2E2E2E2E2E2E2E2E2E2E2E2E2E2E2E2E2E2E2E2E2E2E2E2E2E2E2E2E2E2E2E2E2
310
E2E2E2E2E2E2E2E2E2E2E2E2E2E2E2E2E2E2E2E2E2E2E2E2E2E2E2E2E2E2E2E2E2E2E2E2E2E2E2E2E2E2E2E2E2E2E2E2E2E2E2E2E2E2E2E2E2E2E2E2E2E2E2E2E2E2E2E2E2E2E2E2E2E2E2E2E2E2E2E2E2E2E2E2E2E2E2E2E2E2E2E2E2E2E2E2E2E2E2E2E2E2E2E2E2E2E2E2E2E2E2E2E2E2E2E2E2E2E2E2E2E2E2E2E2E2E2
310
E2E2E2E2E2E2E2E2E2E2E2E2E2E2E2E2E2E2E2E2E2E2E2E2E2E2E2E2E2E2E2E2E2E2E2E2E2E2E2E2E2E2E2E2E2E2E2E2E2E2E2E2E2E2E2E2E2E2E2E2E2E2E2E2E2E2E2E2E2E2E2E2E2E2E2E2E2E2E2E2E2E2E2E2E2E2E2E2E2E2E2E2E2E2E2E2E2E2E2E2E2E2E2E2E2E2E2E2E2E2E2E2E2E2E2E2E2E2E2E2E2E2E2E2E2E2E2
310
E2E2E2E2E2E2E2E2E2E2E2E2E2E2E2E2E2E2E2E2E2E2E2E2E2E2E2E2E2E2E2E2E2E2E2E2E2E2E2E2E2E2E2E2E2E2E2E2E2E2E2E2E2E2E2E2E2E2E2E2E2E2E2E2E2E2E2E2E2E2E2E2E2E2E2E2E2E2E2E2E2E2E2E2E2E2E2E2E2E2E2E2E2E2E2E2E2E2E2E2E2E2E2E2E2E2E2E2E2E2E2E2E2E2E2E2E2E2E2E2E2E2E2E2E2E2E2
310
E2E2E2E2E2E2E2E2E2E2E2E2E2E2E2E2E2E2E2E2E2E2E2E2E2E2E2E2E2E2E2E2E2E2E2E2E2E2E2E2E2E2E2E2E2E2E2E2E2E2E2E2E2E2E2E2E2E2E2E2E2E2E2E2E2E2E2E2E2E2E2E2E2E2E2E2E2E2E2E2E2E2E2E2E2E2E2E2E2E2E2E2E2E2E2E2E2E2E2E2E2E2E2E2E2E2E2E2E2E2E2E2E2E2E2E2E2E2E2E2E2E2E2E2E2E2E2
310
E2E2E2E2E2E2E2E2E2E2E2E2E2E2E2E2E2E2E2E2E2E2E2E2E2E2E2E2E2E2E2E2E2E2E2E2E2E2E2E2E2E2E2E2E2E2E2E2E2E2E2E2E2E2E2E2E2E2E2E2E2E2E2E2E2E2E2E2E2E2E2E2E2E2E2E2E2E2E2E2E2E2E2E2E2E2E2E2E2E2E2E2E2E2E2E2E2E2E2E2E2E2E2E2E2E2E2E2E2E2E2E2E2E2E2E2E2E2E2E2E2E2E2E2E2E2E2
310
E2E2E2E2E2E2E2E2E2E2E2E2E2E2E2E2E2E2E2E2E2E2E2E2E2E2E2E2E2E2E2E2E2E2E2E2E2E2E2E2E2E2E2E2E2E2E2E2E2E2E2E2E2E2E2E2E2E2E2E2E2E2E2E2E2E2E2E2E2E2E2E2E2E2E2E2E2E2E2E2E2E2E2E2E2E2E2E2E2E2E2E2E2E2E2E2E2E2E2E2E2E2E2E2E2E2E2E2E2E2E2E2E2E2E2E2E2E2E2E2E2E2E2E2E2E2E2
310
E2E2E2E2E2E2E2E2E2E2E2E2E2E2E2E2E2E2E2E2E2E2E2E2E2E2E2E2E2E2E2E2E2E2E2E2E2E2E2E2E2E2E2E2E2E2E2E2E2E2E2E2E2E2E2E2E2E2E2E2E2E2E2E2E2E2E2E2E2E2E2E2E2E2E2E2E2E2E2E2E2E2E2E2E2E2E2E2E2E2E2E2E2E2E2E2E2E2E2E2E2E2E2E2E2E2E2E2E2E2E2E2E2E2E2E2E2E2E2E2E2E2E2E2E2E2E2
310
E2E2E2E2E2E2E2E2E2E2E2E2E2E2E2E2E2E2E2E2E2E2E2E2E2E2E2E2E2E2E2E2E2E2E2E2E2E2E2E2E2E2E2E2E2E2E2E2E2E2E2E2E2E2E2E2E2E2E2E2E2E2E2E2E2E2E2E2E2E2E2E2E2E2E2E2E2E2E2E2E2E2E2E2E2E2E2E2E2E2E2E2E2E2E2E2E2E2E2E2E2E2E2E2E2E2E2E2E2E2E2E2E2E2E2E2E2E2E2E2E2E2E2E2E2E2E2
310
E2E2E2E2E2E2E2E2E2E2E2E2E2E2E2E2E2E2E2E2E2E2E2E2E2E2E2E2E2E2E2E2E2E2E2E2E2E2E2E2E2E2E2E2E2E2E2E2E2E2E2E2E2E2E2E2E2E2E2E2E2E2E2E2E2E2E2E2E2E2E2E2E2E2E2E2E2E2E2E2E2E2E2E2E2E2E2E2E2E2E2E2E2E2E2E2E2E2E2E2E2E2E2E2E2E2E2E2E2E2E2E2E2E2E2E2E2E2E2E2E2E2E2E2E2E2E2
310
E2E2E2E2E2E2E2E2E2E2E2E2E2E2E2E2E2E2E2E2E2E2E2E2E2E2E2E2E2E2E2E2E2E2E2E2E2E2E2E2E2E2E2E2E2E2E2E2E2E2E2E2E2E2E2E2E2E2E2E2E2E2E2E2E2E2E2E2E2E2E2E2E2E2E2E2E2E2E2E2E2E2E2E2E2E2E2E2E2E2E2E2E2E2E2E2E2E2E2E2E2E2E2E2E2E2E2E2E2E2E2E2E2E2E2E2E2E2E2E2E2E2E2E2E2E2E2
310
E2E2E2E2E2E2E2E2E2E2E2E2E2E2E2E2E2E2E2E2E2E2E2E2E2E2E2E2E2E2E2E2E2E2E2E2E2E2E2E2E2E2E2E2E2E2E2E2E2E2E2E2E2E2E2E2E2E2E2E2E2E2E2E2E2E2E2E2E2E2E2E2E2E2E2E2E2E2E2E2E2E2E2E2E2E2E2E2E2E2E2E2E2E2E2E2E2E2E2E2E2E2E2E2E2E2E2E2E2E2E2E2E2E2E2E2E2E2E2E2E2E2E2E2E2E2E2
310
E2E2E2E2E2E2E2E2E2E2E2E2E2E2E2E2E2E2E2E2E2E2E2E2E2E2E2E2E2E2E2E2E2E2E2E2E2E2E2E2E2E2E2E2E2E2E2E2E2E2E2E2E2E2E2E2E2E2E2E2E2E2E2E2E2E2E2E2E2E2E2E2E2E2E2E2E2E2E2E2E2E2E2E2E2E2E2E2E2E2E2E2E2E2E2E2E2E2E2E2E2E2E2E2E2E2E2E2E2E2E2E2E2E2E2E2E2E2E2E2E2E2E2E2E2E2E2
310
E2E2E2E2E2E2E2E2E2E2E2E2E2E2E2E2E2E2E2E2E2E2E2E2E2E2E2E2E2E2E2E2E2E2E2E2E2E2E2E2E2E2E2E2E2E2E2E2E2E2E2E2E2E2E2E2E2E2E2E2E2E2E2E2E2E2E2E2E2E2E2E2E2E2E2E2E2E2E2E2E2E2E2E2E2E2E2E2E2E2E2E2E2E2E2E2E2E2E2E2E2E2E2E2E2E2E2E2E2E2E2E2E2E2E2E2E2E2E2E2E2E2E2E2E2E2E2
310
E2E2E2E2E2E2E2E2E2E2E2E2E2E2E2E2E2E2E2E2E2E2E2E2E2E2E2E2E2E2E2E2E2E2E2E2E2E2E2E2E2E2E2E2E2E2E2E2E2E2E2E2E2E2E2E2E2E2E2E2E2E2E2E2E2E2E2E2E2E2E2E2E2E2E2E2E2E2E2E2E2E2E2E2E2E2E2E2E2E2E2E2E2E2E2E2E2E2E2E2E2E2E2E2E2E2E2E2E2E2E2E2E2E2E2E2E2E2E2E2E2E2E2E2E2E2E2
310
E2E2E2E2E2E2E2E2E2E2E2E2E2E2E2E2E2E2E2E2E2E2E2E2E2E2E2E2E2E2E2E2E2E2E2E2E2E2E2E2E2E2E2E2E2E2E2E2E2E2E2E2E2E2E2E2E2E2E2E2E2E2E2E2E2E2E2E2E2E2E2E2E2E2E2E2E2E2E2E2E2E2E2E2E2E2E2E2E2E2E2E2E2E2E2E2E2E2E2E2E2E2E2E2E2E2E2E2E2E2E2E2E2E2E2E2E2E2E2E2E2E2E2E2E2E2E2
310
E2E2E2E2E2E2E2E2E2E2E2E2E2E2E2E2E2E2E2E2E2E2E2E2E2E2E2E2E2E2E2E2E2E2E2E2E2E2E2E2E2E2E2E2E2E2E2E2E2E2E2E2E2E2E2E2E2E2E2E2E2E2E2E2E2E2E2E2E2E2E2E2E2E2E2E2E2E2E2E2E2E2E2E2E2E2E2E2E2E2E2E2E2E2E2E2E2E2E2E2E2E2E2E2E2E2E2E2E2E2E2E2E2E2E2E2E2E2E2E2E2E2E2E2E2E2E2
310
E2E2E2E2E2E2E2E2E2E2E2E2E2E2E2E2E2E2E2E2E2E2E2E2E2E2E2E2E2E2E2E2E2E2E2E2E2E2E2E2E2E2E2E2E2E2E2E2E2E2E2E2E2E2E2E2E2E2E2E2E2E2E2E2E2E2E2E2E2E2E2E2E2E2E2E2E2E2E2E2E2E2E2E2E2E2E2E2E2E2E2E2E2E2E2E2E2E2E2E2E2E2E2E2E2E2E2E2E2E2E2E2E2E2E2E2E2E2E2E2E2E2E2E2E2E2E2
310
E2E2E2E2E2E2E2E2E2E2E2E2E2E2E2E2E2E2E2E2E2E2E2E2E2E2E2E2E2E2E2E2E2E2E2E2E2E2E2E2E2E2E2E2E2E2E2E2E2E2E2E2E2E2E2E2E2E2E2E2E2E2E2E2E2E2E2E2E2E2E2E2E2E2E2E2E2E2E2E2E2E2E2E2E2E2E2E2E2E2E2E2E2E2E2E2E2E2E2E2E2E2E2E2E2E2E2E2E2E2E2E2E2E2E2E2E2E2E2E2E2E2E2E2E2E2E2
310
E2E2E2E2E2E2E2E2E2E2E2E2E2E2E2E2E2E2E2E2E2E2E2E2E2E2E2E2E2E2E2E2E2E2E2E2E2E2E2E2E2E2E2E2E2E2E2E2E2E2E2E2E2E2E2E2E2E2E2E2E2E2E2E2E2E2E2E2E2E2E2E2E2E2E2E2E2E2E2E2E2E2E2E2E2E2E2E2E2E2E2E2E2E2E2E2E2E2E2E2E2E2E2E2E2E2E2E2E2E2E2E2E2E2E2E2E2E2E2E2E2E2E2E2E2E2E2
310
E2E2E2E2E2E2E2E2E2E2E2E2E2E2E2E2E2E2E2E2E2E2E2E2E2E2E2E2E2E2E2E2E2E2E2E2E2E2E2E2E2E2E2E2E2E2E2E2E2E2E2E2E2E2E2E2E2E2E2E2E2E2E2E2E2E2E2E2E2E2E2E2E2E2E2E2E2E2E2E2E2E2E2E2E2E2E2E2E2E2E2E2E2E2E2E2E2E2E2E2E2E2E2E2E2E2E2E2E2E2E2E2E2E2E2E2E2E2E2E2E2E2E2E2E2E2E2
310
E2E2E2E2E2E2E2E2E2E2E2E2E2E2E2E2E2E2E2E2E2E2E2E2E2E2E2E2E2E2E2E2E2E2E2E2E2E2E2E2E2E2E2E2E2E2E2E2E2E2E2E2E2E2E2E2E2E2E2E2E2E2E2E2E2E2E2E2E2E2E2E2E2E2E2E2E2E2E2E2E2E2E2E2E2E2E2E2E2E2E2E2E2E2E2E2E2E2E2E2E2E2E2E2E2E2E2E2E2E2E2E2E2E2E2E2E2E2E2E2E2E2E2E2E2E2E2
310
E2E2E2E2E2E2E2E2E2E2E2E2E2E2E2E2E2E2E2E2E2E2E2E2E2E2E2E2E2E2E2E2E2E2E2E2E2E2E2E2E2E2E2E2E2E2E2E2E2E2E2E2E2E2E2E2E2E2E2E2E2E2E2E2E2E2E2E2E2E2E2E2E2E2E2E2E2E2E2E2E2E2E2E2E2E2E2E2E2E2E2E2E2E2E2E2E2E2E2E2E2E2E2E2E2E2E2E2E2E2E2E2E2E2E2E2E2E2E2E2E2E2E2E2E2E2E2
310
E2E2E2E2E2E2E2E2E2E2E2E2E2E2E2E2E2E2E2E2E2E2E2E2E2E2E2E2E2E2E2E2E2E2E2E2E2E2E2E2E2E2E2E2E2E2E2E2E2E2E2E2E2E2E2E2E2E2E2E2E2E2E2E2E2E2E2E2E2E2E2E2E2E2E2E2E2E2E2E2E2E2E2E2E2E2E2E2E2E2E2E2E2E2E2E2E2E2E2E2E2E2E2E2E2E2E2E2E2E2E2E2E2E2E2E2E2E2E2E2E2E2E2E2E2E2E2
310
E2E2E2E2E2E2E2E2E2E2E2E2E2E2E2E2E2E2E2E2E2E2E2E2E2E2E2E2E2E2E2E2E2E2E2E2E2E2E2E2E2E2E2E2E2E2E2E2E2E2E2E2E2E2E2E2E2E2E2E2E2E2E2E2E2E2E2E2E2E2E2E2E2E2E2E2E2E2E2E2E2E2E2E2E2E2E2E2E2E2E2E2E2E2E2E2E2E2E2E2E2E2E2E2E2E2E2E2E2E2E2E2E2E2E2E2E2E2E2E2E2E2E2E2E2E2E2
310
E2E2E2E2E2E2E2E2E2E2E2E2E2E2E2E2E2E2E2E2E2E2E2E2E2E2E2E2E2E2E2E2E2E2E2E2E2E2E2E2E2E2E2E2E2E2E2E2E2E2E2E2E2E2E2E2E2E2E2E2E2E2E2E2E2E2E2E2E2E2E2E2E2E2E2E2E2E2E2E2E2E2E2E2E2E2E2E2E2E2E2E2E2E2E2E2E2E2E2E2E2E2E2E2E2E2E2E2E2E2E2E2E2E2E2E2E2E2E2E2E2E2E2E2E2E2E2
310
E2E2E2E2E2E2E2E2E2E2E2E2E2E2E2E2E2E2E2E2E2E2E2E2E2E2E2E2E2E2E2E2E2E2E2E2E2E2E2E2E2E2E2E2E2E2E2E2E2E2E2E2E2E2E2E2E2E2E2E2E2E2E2E2E2E2E2E2E2E2E2E2E2E2E2E2E2E2E2E2E2E2E2E2E2E2E2E2E2E2E2E2E2E2E2E2E2E2E2E2E2E2E2E2E2E2E2E2E2E2E2E2E2E2E2E2E2E2E2E2E2E2E2E2E2E2E2
310
E2E2E2E2E2E2E2E2E2E2E2E2E2E2E2E2E2E2E2E2E2E2E2E2E2E2E2E2E2E2E2E2E2E2E2E2E2E2E2E2E2E2E2E2E2E2E2E2E2E2E2E2E2E2E2E2E2E2E2E2E2E2E2E2E2E2E2E2E2E2E2E2E2E2E2E2E2E2E2E2E2E2E2E2E2E2E2E2E2E2E2E2E2E2E2E2E2E2E2E2E2E2E2E2E2E2E2E2E2E2E2E2E2E2E2E2E2E2E2E2E2E2E2E2E2E2E2
310
E2E2E2E2E2E2E2E2E2E2E2E2E2E2E2E2E2E2E2E2E2E2E2E2E2E2E2E2E2E2E2E2E2E2E2E2E2E2E2E2E2E2E2E2E2E2E2E2E2E2E2E2E2E2E2E2E2E2E2E2E2E2E2E2E2E2E2E2E2E2E2E2E2E2E2E2E2E2E2E2E2E2E2E2E2E2E2E2E2E2E2E2E2E2E2E2E2E2E2E2E2E2E2E2E2E2E2E2E2E2E2E2E2E2E2E2E2E2E2E2E2E2E2E2E2E2E2
310
E2E2E2E2E2E2E2E2E2E2E2E2E2E2E2E2E2E2E2E2E2E2E2E2E2E2E2E2E2E2E2E2E2E2E2E2E2E2E2E2E2E2E2E2E2E2E2E2E2E2E2E2E2E2E2E2E2E2E2E2E2E2E2E2E2E2E2E2E2E2E2E2E2E2E2E2E2E2E2E2E2E2E2E2E2E2E2E2E2E2E2E2E2E2E2E2E2E2E2E2E2E2E2E2E2E2E2E2E2E2E2E2E2E2E2E2E2E2E2E2E2E2E2E2E2E2E2
310
E2E2E2E2E2E2E2E2E2E2E2E2E2E2E2E2E2E2E2E2E2E2E2E2E2E2E2E2E2E2E2E2E2E2E2E2E2E2E2E2E2E2E2E2E2E2E2E2E2E2E2E2E2E2E2E2E2E2E2E2E2E2E2E2E2E2E2E2E2E2E2E2E2E2E2E2E2E2E2E2E2E2E2E2E2E2E2E2E2E2E2E2E2E2E2E2E2E2E2E2E2E2E2E2E2E2E2E2E2E2E2E2E2E2E2E2E2E2E2E2E2E2E2E2E2E2E2
310
E2E2E2E2E2E2E2E2E2E2E2E2E2E2E2E2E2E2E2E2E2E2E2E2E2E2E2E2E2E2E2E2E2E2E2E2E2E2E2E2E2E2E2E2E2E2E2E2E2E2E2E2E2E2E2E2E2E2E2E2E2E2E2E2E2E2E2E2E2E2E2E2E2E2E2E2E2E2E2E2E2E2E2E2E2E2E2E2E2E2E2E2E2E2E2E2E2E2E2E2E2E2E2E2E2E2E2E2E2E2E2E2E2E2E2E2E2E2E2E2E2E2E2E2E2E2E2
310
E2E2E2E2E2E2E2E2E2E2E2E2E2E2E2E2E2E2E2E2E2E2E2E2E2E2E2E2E2E2E2E2E2E2E2E2E2E2E2E2E2E2E2E2E2E2E2E2E2E2E2E2E2E2E2E2E2E2E2E2E2E2E2E2E2E2E2E2E2E2E2E2E2E2E2E2E2E2E2E2E2E2E2E2E2E2E2E2E2E2E2E2E2E2E2E2E2E2E2E2E2E2E2E2E2E2E2E2E2E2E2E2E2E2E2E2E2E2E2E2E2E2E2E2E2E2E2
310
E2E2E2E2E2E2E2E2E2E2E2E2E2E2E2E2E2E2E2E2E2E2E2E2E2E2E2E2E2E2E2E2E2E2E2E2E2E2E2E2E2E2E2E2E2E2E2E2E2E2E2E2E2E2E2E2E2E2E2E2E2E2E2E2E2E2E2E2E2E2E2E2E2E2E2E2E2E2E2E2E2E2E2E2E2E2E2E2E2E2E2E2E2E2E2E2E2E2E2E2E2E2E2E2E2E2E2E2E2E2E2E2E2E2E2E2E2E2E2E2E2E2E2E2E2E2E2
310
E2E2E2E2E2E2E2E2E2E2E2E2E2E2E2E2E2E2E2E2E2E2E2E2E2E2E2E2E2E2E2E2E2E2E2E2E2E2E2E2E2E2E2E2E2E2E2E2E2E2E2E2E2E2E2E2E2E2E2E2E2E2E2E2E2E2E2E2E2E2E2E2E2E2E2E2E2E2E2E2E2E2E2E2E2E2E2E2E2E2E2E2E2E2E2E2E2E2E2E2E2E2E2E2E2E2E2E2E2E2E2E2E2E2E2E2E2E2E2E2E2E2E2E2E2E2E2
310
E2E2E2E2E2E2E2E2E2E2E2E2E2E2E2E2E2E2E2E2E2E2E2E2E2E2E2E2E2E2E2E2E2E2E2E2E2E2E2E2E2E2E2E2E2E2E2E2E2E2E2E2E2E2E2E2E2E2E2E2E2E2E2E2E2E2E2E2E2E2E2E2E2E2E2E2E2E2E2E2E2E2E2E2E2E2E2E2E2E2E2E2E2E2E2E2E2E2E2E2E2E2E2E2E2E2E2E2E2E2E2E2E2E2E2E2E2E2E2E2E2E2E2E2E2E2E2
310
E2E2E2E2E2E2E2E2E2E2E2E2E2E2E2E2E2E2E2E2E2E2E2E2E2E2E2E2E2E2E2E2E2E2E2E2E2E2E2E2E2E2E2E2E2E2E2E2E2E2E2E2E2E2E2E2E2E2E2E2E2E2E2E2E2E2E2E2E2E2E2E2E2E2E2E2E2E2E2E2E2E2E2E2E2E2E2E2E2E2E2E2E2E2E2E2E2E2E2E2E2E2E2E2E2E2E2E2E2E2E2E2E2E2E2E2E2E2E2E2E2E2E2E2E2E2E2
310
E2E2E2E2E2E2E2E2E2E2E2E2E2E2E2E2E2E2E2E2E2E2E2E2E2E2E2E2E2E2E2E2E2E2E2E2E2E2E2E2E2E2E2E2E2E2E2E2E2E2E2E2E2E2E2E2E2E2E2E2E2E2E2E2E2E2E2E2E2E2E2E2E2E2E2E2E2E2E2E2E2E2E2E2E2E2E2E2E2E2E2E2E2E2E2E2E2E2E2E2E2E2E2E2E2E2E2E2E2E2E2E2E2E2E2E2E2E2E2E2E2E2E2E2E2E2E2
310
E2E2E2E2E2E2E2E2E2E2E2E2E2E2E2E2E2E2E2E2E2E2E2E2E2E2E2E2E2E2E2E2E2E2E2E2E2E2E2E2E2E2E2E2E2E2E2E2E2E2E2E2E2E2E2E2E2E2E2E2E2E2E2E2E2E2E2E2E2E2E2E2BEBEBEBEBEBEBEBEBEBEBEBEBEBEBEBEBEBEBEBEBEBEBEBEBEBEBEBEBEBEBEBEBEBEBEBEBEBEBEBEBEBEBEBEBEBEBEBEBEBEBEBEBEBEBE
310
BEBEBEBEBEBEBEBEBEBEBEBEBEBEBEBEBEBEBEBEBEBEBEBEBEBEBEBEBEBEBEBEE2E2E2E2E2E2E2E2E2E2E2E2E2E2E2E2E2E2E2E2E2E2E2E2E2E2E2E2E2E2E2E2E2E2E2E2E2E2E2E2E2E2E2E2E2E2E2E2E2E2E2E2E2E2E2E2E2E2E2E2E2E2E2E2E2E2E2E2E2E2E2E2E2E2E2E2E2E2E2E2E2E2E2E2E2E2E2E2E2E2E2E2E2E2E2
310
E2E2E2E2E2E2E2E2E2E2E2E2E2E2E2E2E2E2E2E2E2E2E2E2E2E2E2E2E2E2E2E2E2E2E2E2E2E2E2E2E2E2E2E2E2E2E2E2E2E2E2E2E2E2E2E2E2E2E2E2E2E2E2E2E2E2E2E2E2E2E2E2E2E2BEE2E2E2E2E2E2E2E2E2E2E2E2E2E2E2E2E2E2E2E2E2E2E2E2E2E2E2E2E2E2E2E2E2E2E2E2E2E2E2E2E2E2E2E2E2E2E2E2E2E2E2E2
310
E2E2E2E2E2E2E2E2E2E2E2E2E2E2E2E2E2E2E2E2E2E2E2E2E2E2E2E2E2E2E2E2E2BEE2E2E2E2E2E2E2E2E2E2E2E2E2E2E2E2E2E2E2E2E2E2E2E2E2E2E2E2E2E2E2E2E2E2E2E2E2E2E2E2E2E2E2E2E2E2E2E2E2E2E2E2E2E2E2E2E2E2E2E2E2E2E2E2E2E2E2E2E2E2E2E2E2E2E2E2E2E2E2E2E2E2E2E2E2E2E2E2E2E2E2E2E2
310
E2E2E2E2E2E2E2E2E2E2E2E2E2E2E2E2E2E2E2E2E2E2E2E2E2E2E2E2E2E2E2E2E2E2E2E2E2E2E2E2E2E2E2E2E2E2E2E2E2E2E2E2E2E2E2E2E2E2E2E2E2E2E2E2E2E2E2E2E2E2E2E2E2E2E2E2BEE2DCDCDCDCDCDCDCDCDCDCDCDCDCDCDCDCDCDCDCDCDCDCDCDCDCDCDCDCDCDCDCDCDCDCDCDCDCDCDCDCDCDCDCDCDCF5F5F5DC
310
DCF5F5F5F5DCDCDCDCBEBEBEBEBEBEDCDCDCDCDCDCDCDCDCDCDCDCDCBEBEBEBEBEDCDCBEE2E2E2E2E2E2E2E2E2E2E2E2E2E2E2E2E2E2E2E2E2E2E2E2E2E2E2E2E2E2E2E2E2E2E2E2E2E2E2E2E2E2E2E2E2E2E2E2E2E2E2E2E2E2E2E2E2E2E2E2E2E2E2E2E2E2E2E2E2E2E2E2E2E2E2E2E2E2E2E2E2E2E2E2E2E2E2E2E2E2E2
310
E2E2E2E2E2E2E2E2E2E2E2E2E2E2E2E2E2E2E2E2E2E2E2E2E2E2E2E2E2E2E2E2E2E2E2E2E2E2E2E2E2E2E2E2E2E2E2E2E2E2E2E2E2E2E2E2E2E2E2E2E2E2E2E2E2E2E2E2E2E2E2E2E2E2E2E2E2E2BEE2DCE2E2E2E2E2E2E2E2E2E2E2E2E2E2E2E2E2E2E2E2E2E2E2E2E2E2E2E2E2E2E2E2E2E2E2E2E2E2E2E2E2E2E2E2DCDC
310
DCDCDCDCDCDCDCDCDCE2BEBEBEBEBEBEBEDCF5F5F5F5E2DCF5F5F5F5F5E2F5F5F5F5F5E2DCBEE2E2E2E2E2E2E2E2E2E2E2E2E2E2E2E2E2E2E2E2E2E2E2E2E2E2E2E2E2E2E2E2E2E2E2E2E2E2E2E2E2E2E2E2E2E2E2E2E2E2E2E2E2E2E2E2E2E2E2E2E2E2E2E2E2E2E2E2E2E2E2E2E2E2E2E2E2E2E2E2E2E2E2E2E2E2E2E2E2
310
E2E2E2E2E2E2E2E2E2E2E2E2E2E2E2E2E2E2E2E2E2E2E2E2E2E2E2E2E2E2E2E2E2E2E2E2E2E2E2E2E2E2E2E2E2E2E2E2E2E2E2E2E2E2E2E2E2E2E2E2E2E2E2E2E2E2E2E2E2E2E2E2E2E2E2E2E2E2E2E2BEE2DCE2E2E2E2E2E2E2E2E2E2E2E2E2E2E2E2E2E2E2E2E2E2E2E2E2E2E2E2E2E2E2E2E2E2E2E2E2E2E2E2E2E2E2E2
310
DCDCDCDCDCDCDCDCDCDCDCE2BEBEBEBEBEBEBEDCDCDCDCDCDCDCDCDCDCDCDCDCDCDCDCDCDCDCDCBEE2E2E2E2E2E2E2E2E2E2E2E2E2E2E2E2E2E2E2E2E2E2E2E2E2E2E2E2E2E2E2E2E2E2E2E2E2E2E2E2E2E2E2E2E2E2E2E2E2E2E2E2E2E2E2E2E2E2E2E2E2E2E2E2E2E2E2E2E2E2E2E2E2E2E2E2E2E2E2E2E2E2E2E2E2E2E2
310
E2E2E2E2E2E2E2E2E2E2E2E2E2E2E2E2E2E2E2E2E2E2E2E2E2E2E2E2E2E2E2E2E2E2E2E2E2E2E2E2E2E2E2E2E2E2E2E2E2E2E2E2E2E2E2E2E2E2E2E2E2E2E2E2E2E2E2E2E2E2E2E2E2E2E2E2E2E2E2E2E2E2BEE2DCE2E2E2E2E2E2E2E2E2E2E2E2E2E2E2E2E2E2E2E2E2E2E2E2E2E2E2E2E2E2E2E2E2E2E2E2E2E2E2E2E2E2
310
E2E2DCDCDCDCDCDCDCDCDCDCF5F5F5DCDCDCDCDCDCDCE2E2E2E2E2E2E2E2E2E2E2E2E2E2E2E2E2E2DCBEE2E2E2E2E2E2E2E2E2E2E2E2E2E2E2E2E2E2E2E2E2E2E2E2E2E2E2E2E2E2E2E2E2E2E2E2E2E2E2E2E2E2E2E2E2E2E2E2E2E2E2E2E2E2E2E2E2E2E2E2E2E2E2E2E2E2E2E2E2E2E2E2E2E2E2E2E2E2E2E2E2E2E2E2E2
310
E2E2E2E2E2E2E2E2E2E2E2E2E2E2E2E2E2E2E2E2E2E2E2E2E2E2E2E2E2E2E2E2E2E2E2E2E2E2E2E2E2E2E2E2E2E2E2E2E2E2E2E2E2E2E2E2E2E2E2E2E2E2E2E2E2E2E2E2E2E2E2E2E2E2E2E2E2E2E2E2E2E2E2E2BEE2DCE2E2E2E2E2E2E2E2E2E2E2E2E2E2E2E2E2E2E2E2E2E2E2E2E2E2E2E2E2E2E2E2E2E2E2E2E2E2E2E2
310
E2E2E2E2DCDCDCDCDCDCDCDCDCDCF5F5BEBEBEBEBEBEBEDCBEBEBEBEBEBEBEBEBEBEBEBEBEBEE2E2E2E2DCBEE2E2E2E2E2E2E2E2E2E2E2E2E2E2E2E2E2E2E2E2E2E2E2E2E2E2E2E2E2E2E2E2E2E2E2E2E2E2E2E2E2E2E2E2E2E2E2E2E2E2E2E2E2E2E2E2E2E2E2E2E2E2E2E2E2E2E2E2E2E2E2E2E2E2E2E2E2E2E2E2E2E2E2
310
E2E2E2E2E2E2E2E2E2E2E2E2E2E2E2E2E2E2E2E2E2E2E2E2E2E2E2E2E2E2E2E2E2E2E2E2E2E2E2E2E2E2E2E2E2E2E2E2E2E2E2E2E2E2E2E2E2E2E2E2E2E2E2E2E2E2E2E2E2E2E2E2E2E2E2E2E2E2E2E2E2E2E2E2E2E2BEE2DCE2E2E2E2E2E2E2E2E2E2E2E2E2E2E2E2E2E2E2E2E2E2E2F5BEE2E2E2E2E2E2E2E2E2E2E2E2E2
310
E2E2E2E2E2E2F5F5F5F5F5DCF5F5F5F5F5DCF5F5F5F5F5F5DCDCBEF5BEBEF5BEBEE2BEBEBEBEBEBEE2E2E2E2DCBEE2E2E2E2E2E2E2E2E2E2E2E2E2E2E2E2E2E2E2E2E2E2E2E2E2E2E2E2E2E2E2E2E2E2E2E2E2E2E2E2E2E2E2E2E2E2E2E2E2E2E2E2E2E2E2E2E2E2E2E2E2E2E2E2E2E2E2E2E2E2E2E2E2E2E2E2E2E2E2E2E2
310
E2E2E2E2E2E2E2E2E2E2E2E2E2E2E2E2E2E2E2E2E2E2E2E2E2E2E2E2E2E2E2E2E2E2E2E2E2E2E2E2E2E2E2E2E2E2E2E2E2E2E2E2E2E2E2E2E2E2E2E2E2E2E2E2E2E2E2E2E2E2E2E2E2E2E2E2E2E2E2E2E2E2E2E2E2E2E2E2BEE2DCE2E2E2E2E2E2F52DF5F5F5F5F5F5F5F5F5F5F5F5F5F5F5F5BEF5F5F5F5F5F5F5F5F5F5F5
310
F5F5F5F5F5E2E2E2DCDCDCDCDCDCDCDCDCDCDCDCF5F5DCF5BEBEBEBEF5DCDCDCF5F5F5DCDCDCDCDCDCDCDCDCDCDCDCBEE2E2E2E2E2E2E2E2E2E2E2E2E2E2E2E2E2E2E2E2E2E2E2E2E2E2E2E2E2E2E2E2E2E2E2E2E2E2E2E2E2E2E2E2E2E2E2E2E2E2E2E2E2E2E2E2E2E2E2E2E2E2E2E2E2E2E2E2E2E2E2E2E2E2E2E2E2E2E2
310
E2E2E2E2E2E2E2E2E2E2E2E2E2E2E2E2E2E2E2E2E2E2E2E2E2E2E2E2E2E2E2E2E2E2E2E2E2E2E2E2E2E2E2E2E2E2E2E2E2E2E2E2E2E2E2E2E2E2E2E2E2E2E2E2E2E2E2E2E2E2E2E2E2E2E2E2E2E2E2E2E2E2E2E2E2E2E2E2E2E2BEE2DCE2E2E2E2E2E22DE2F5F5F5F5F5F5F5F5F5F5F5F5F5F5F5F5BEF5F5F5F5F5F5F5F5F5
310
F5F5F5F5F5F5F5E2E2E2DCE2E2E2E2E2E2E2E2E2DCDCDCDCDCBEBEBEBEBEF5F5F5F5F5F5F5F5F5F5F5F5DCDCF5F5F5BEDCBEE2E2E2E2E2E2E2E2E2E2E2E2E2E2E2E2E2E2E2E2E2E2E2E2E2E2E2E2E2E2E2E2E2E2E2E2E2E2E2E2E2E2E2E2E2E2E2E2E2E2E2E2E2E2E2E2E2E2E2E2E2E2E2E2E2E2E2E2E2E2E2E2E2E2E2E2E2
310
E2E2E2E2E2E2E2E2E2E2E2E2E2E2E2E2E2E2E2E2E2E2E2E2E2E2E2E2E2E2E2E2E2E2E2E2E2E2E2E2E2E2E2E2E2E2E2E2E2E2E2E2E2E2E2E2E2E2E2E2E2E2E2E2E2E2E2E2E2E2E2E2E2E2E2E2E2E2E2E2E2E2E2E2E2E2E2E2E2E2E2E2BEE2DCE2E2E2E2E2E22DE2F5E2E22828282828E2E2E2E2E2E2E2E2E2E2E2E2E2E2E2E2
310
E2E2E2E2E2E2E2E2F5E2E2E2DCE2E2E2E2E2E2E2E2E2DCF5F5F5F5DCBEBEBEDCE2BEBEBEBEE2DCE2F5F5F5F5E2DCF5BEBEBEDCBEE2E2E2E2E2E2E2E2E2E2E2E2E2E2E2E2E2E2E2E2E2E2E2E2E2E2E2E2E2E2E2E2E2E2E2E2E2E2E2E2E2E2E2E2E2E2E2E2E2E2E2E2E2E2E2E2E2E2E2E2E2E2E2E2E2E2E2E2E2E2E2E2E2E2E2
310
E2E2E2E2E2E2E2E2E2E2E2E2E2E2E2E2E2E2E2E2E2E2E2E2E2E2E2E2E2E2E2E2E2E2E2E2E2E2E2E2E2E2E2E2E2E2E2E2E2E2E2E2E2E2E2E2E2E2E2E2E2E2E2E2E2E2E2E2E2E2E2E2E2E2E2E2E2E2E2E2E2E2E2E2E2E2E2E2E2E2E2E2E2E2BEE2DCE2E2E2E2E2E22DE2F5E22828E2E2E228E2E2282828282828282828282828
310
282828282828282828E2F5E2E2E2DCDCDCDCDCDCDCDCDCDCDCF5F5F5F5DCF5F5F5DCDCF5F5F5F5DCDCDCF5F5F5F5DCDCF5F5F5F5DCBEE2E2E2E2E2E2E2E2E2E2E2E2E2E2E2E2E2E2E2E2E2E2E2E2E2E2E2E2E2E2E2E2E2E2E2E2E2E2E2E2E2E2E2E2E2E2E2E2E2E2E2E2E2E2E2E2E2E2E2E2E2E2E2E2E2E2E2E2E2E2E2E2E2
310
E2E2E2E2E2E2E2E2E2E2E2E2E2E2E2E2E2E2E2E2E2E2E2E2E2E2E2E2E2E2E2E2E2E2E2E2E2E2E2E2E2E2E2E2E2E2E2E2E2E2E2E2E2E2E2E2E2E2E2E2E2E2E2E2E2E2E2E2E2E2E2E2E2E2E2E2E2E2E2E2E2E2E2E2E2E2E2E2E2E2E2E2E2E2E2E2BEE2DCE2E2E2E2E2BEBEE2F5E228E228282828E2E228E2E2E2E2E2E2E2E2E2
310
E2E2E2E2E2E2E2E2E2E228E2F5E2E2E2E2E2E2E2E2E2E2E2E2E2E2E2E2E2E2E2E2E2E2E2E2E2E2E2E2E2E2E2E2E2E2E2E2E2E2E2E2E2DCBEE2E2E2E2E2E2E2E2E2E2E2E2E2E2E2E2E2E2E2E2E2E2E2E2E2E2E2E2E2E2E2E2E2E2E2E2E2E2E2E2E2E2E2E2E2E2E2E2E2E2E2E2E2E2E2E2E2E2E2E2E2E2E2E2E2E2E2E2E2E2E2
310
E2E2E2E2E2E2E2E2E2E2E2E2E2E2E2E2E2E2E2E2E2E2E2E2E2E2E2E2E2E2E2E2E2E2E2E2E2E2E2E2E2E2E2E2E2E2E2E2E2E2E2E2E2E2E2E2E2E2E2E2E2E2E2E2E2E2E2E2E2E2E2E2E2E2E2E2E2E2E2E2E2E2E2E2E2E2E2E2E2E2E2E2E2E2E2E2E2E2BEE2DCE2E2E2E2E2BEBEE2F5E228E228282828E2E228E2E2E2E2E2E2E2
310
E2E2E2E2E2E2E2E2E2E2E2E228E2F5E2E2E2E2E2E2E2E2E2E2E2E2E2E2E2E2E2E2E2E2E2E2E2E2E2E2E2E2E2E2E2E2E2E2E2E2E2E2E2E2E2DCBEE2E2E2E2E2E2E2E2E2E2E2E2E2E2E2E2E2E2E2E2E2E2E2E2E2E2E2E2E2E2E2E2E2E2E2E2E2E2E2E2E2E2E2E2E2E2E2E2E2E2E2E2E2E2E2E2E2E2E2E2E2E2E2E2E2E2E2E2E2
310
E2E2E2E2E2E2E2E2E2E2E2E2E2E2E2E2E2E2E2E2E2E2E2E2E2E2E2E2E2E2E2E2E2E2E2E2E2E2E2E2E2E2E2E2E2E2E2E2E2E2E2E2E2E2E2E2E2E2E2E2E2E2E2E2E2E2E2E2E2E2E2E2E2E2E2E2E2E2E2E2E2E2E2E2E2E2E2E2E2E2E2E2E2E2E2E2E2E2E2E2BEE2DCE2E2E2E2E2E22DE2F5E228E228282828E2E228E2E2E2E2E2
310
E2E2E2E2E2E2E2E2E2E2E2E2E2E228E2F5E2E2E2E2E2E2E2E2E2E2E2E2E2E2E2E2E2E2E2E2E2E2E2E2E2E2E2E2E2E2E2E2E2E2E2E2E2E2E2E2E2DCBEE2E2E2E2E2E2E2E2E2E2E2E2E2E2E2E2E2E2E2E2E2E2E2E2E2E2E2E2E2E2E2E2E2E2E2E2E2E2E2E2E2E2E2E2E2E2E2E2E2E2E2E2E2E2E2E2E2E2E2E2E2E2E2E2E2E2E2
310
E2E2E2E2E2E2E2E2E2E2E2E2E2E2E2E2E2E2E2E2E2E2E2E2E2E2E2E2E2E2E2E2E2E2E2E2E2E2E2E2E2E2E2E2E2E2E2E2E2E2E2E2E2E2E2E2E2E2E2E2E2E2E2E2E2E2E2E2E2E2E2E2E2E2E2E2E2E2E2E2E2E2E2E2E2E2E2E2E2E2E2E2E2E2E2E2E2E2E2E2E2E2BEE2DCE2E2E2E2E2E22DE2F5E2282828282828E2E228282828
310
2828282828282828282828282828282828E2F5E2E2E2E2E2E2E2E2E2E2E2E2E2E2E2E2E2E2E2E2E2E2E2E2E2E2E2E2E2E2E2E2E2E2E2E2E2E2E2E2E2DCBEE2E2E2E2E2E2E2E2E2E2E2E2E2E2E2E2E2E2E2E2E2E2E2E2E2E2E2E2E2E2E2E2E2E2E2E2E2E2E2E2E2E2E2E2E2E2E2E2E2E2E2E2E2E2E2E2E2E2E2E2E2E2E2E2E2
310
E2E2E2E2E2E2E2E2E2E2E2E2E2E2E2E2E2E2E2E2E2E2E2E2E2E2E2E2E2E2E2E2E2E2E2E2E2E2E2E2E2E2E2E2E2E2E2E2E2E2E2E2E2E2E2E2E2E2E2E2E2E2E2E2E2E2E2E2E2E2E2E2E2E2E2E2E2E2E2E2E2E2E2E2E2E2E2E2E2E2E2E2E2E2E2E2E2E2E2E2E2E2E2E2BEE2DCE2E2E2E2E2E22DE2F5E2282828282828E2E228E2
310
E2E2E2E2E2E2E2E2E2E2E2E2E2E2E2E2E2E2E2E2F5E2E2E2E2E2E2E2E2E2E2E2E2E2E2E2E2E2E2E2E2E2E2E2E2E2E2E2E2E2E2E2E2E2E2E2E2E2E2E2E2E2DCBEE2E2E2E2E2E2E2E2E2E2E2E2E2E2E2E2E2E2E2E2E2E2E2E2E2E2E2E2E2E2E2E2E2E2E2E2E2E2E2E2E2E2E2E2E2E2E2E2E2E2E2E2E2E2E2E2E2E2E2E2E2E2E2
310
E2E2E2E2E2E2E2E2E2E2E2E2E2E2E2E2E2E2E2E2E2E2E2E2E2E2E2E2E2E2E2E2E2E2E2E2E2E2E2E2E2E2E2E2E2E2E2E2E2E2E2E2E2E2E2E2E2E2E2E2E2E2E2E2E2E2E2E2E2E2E2E2E2E2E2E2E2E2E2E2E2E2E2E2E2E2E2E2E2E2E2E2E2E2E2E2E2E2E2E2E2E2E2E2E2E2BEE2DCE2E2E2E2E2E22D2DF5F5F5F5F5F5F5F5F5F5
310
28F5F5F5F5F5F5F5F5F5F5F5F5F5F5F5F5F5F5F5F5F5F5E2E2E2E2E2E2E2E2E2E2E2E2E2E2E2E2E2E2E2E2E2E2E2E2E2E2E2E2E2E2E2E2E2E2E2E2E2E2E2E2E2DCBEE2E2E2E2E2E2E2E2E2E2E2E2E2E2E2E2E2E2E2E2E2E2E2E2E2E2E2E2E2E2E2E2E2E2E2E2E2E2E2E2E2E2E2E2E2E2E2E2E2E2E2E2E2E2E2E2E2E2E2E2E2
310
E2E2E2E2E2E2E2E2E2E2E2E2E2E2E2E2E2E2E2E2E2E2E2E2E2E2E2E2E2E2E2E2E2E2E2E2E2E2E2E2E2E2E2E2E2E2E2E2E2E2E2E2E2E2E2E2E2E2E2E2E2E2E2E2E2E2E2E2E2E2E2E2E2E2E2E2E2E2E2E2E2E2E2E2E2E2E2E2E2E2E2E2E2E2E2E2E2E2E2E2E2E2E2E2E2E2E2E2BEE2DCE2E2E2E2E2E2E2E2F52D2D2D2D2D2D2D
310
2D2D2D2D2D2D2D2D2D2D2D2D2D2D2D2D2D2D2D2D2D2D2D2D2DE2E2E2E2E2E2E2E2E2E2E2E2E2E2E2E2E2E2E2E2E2E2E2E2E2E2E2E2E2E2E2E2E2E2E2E2E2E2E2E2E2DCBEE2E2E2E2E2E2E2E2E2E2E2E2E2E2E2E2E2E2E2E2E2E2E2E2E2E2E2E2E2E2E2E2E2E2E2E2E2E2E2E2E2E2E2E2E2E2E2E2E2E2E2E2E2E2E2E2E2E2E2
310
E2E2E2E2E2E2E2E2E2E2E2E2E2E2E2E2E2E2E2E2E2E2E2E2E2E2E2E2E2E2E2E2E2E2E2E2E2E2E2E2E2E2E2E2E2E2E2E2E2E2E2E2E2E2E2E2E2E2E2E2E2E2E2E2E2E2E2E2E2E2E2E2E2E2E2E2E2E2E2E2E2E2E2E2E2E2E2E2E2E2E2E2E2E2E2E2E2E2E2E2E2E2E2E2E2E2E2E2E2E2BEE2DCE2E2E2E2E2E2E2E22DE2E2E2E2E2
310
E2E2E2E2E2E2E2E2E2BEBEE2E2E2E2E2E2E2E2E2E2E2E2E2E2E22DE2E2E2E2E2E2E2E2E2E2E2E2E2E2E2E2E2E2E2E2E2E2E2E2E2E2E2E2E2E2E2E2E2E2E2E2E2E2E2E2E2DCBEE2E2E2E2E2E2E2E2E2E2E2E2E2E2E2E2E2E2E2E2E2E2E2E2E2E2E2E2E2E2E2E2E2E2E2E2E2E2E2E2E2E2E2E2E2E2E2E2E2E2E2E2E2E2E2E2E2
310
E2E2E2E2E2E2E2E2E2E2E2E2E2E2E2E2E2E2E2E2E2E2E2E2E2E2E2E2E2E2E2E2E2E2E2E2E2E2E2E2E2E2E2E2E2E2E2E2E2E2E2E2E2E2E2E2E2E2E2E2E2E2E2E2E2E2E2E2E2E2E2E2E2E2E2E2E2E2E2E2E2E2E2E2E2E2E2E2E2E2E2E2E2E2E2E2E2E2E2E2E2E2E2E2E2E2E2E2E2E2E2E2BEE2DCE2E2E2E2E2E2E2E2E2E2E2E2
310
E2E2E2E2E2E2E2E2E2E2E2E2E2E2E2E2E2E2E2E2E2E2E2E2E2E2E2E2E2E2E2E2E2E2E2E2E2E2E2E2E2E2E2E2E2E2E2E2E2E2E2E2E2E2E2E2E2E2E2E2E2E2E2E2E2E2E2E2E2E2DCBEE2E2E2E2E2E2E2E2E2E2E2E2E2E2E2E2E2E2E2E2E2E2E2E2E2E2E2E2E2E2E2E2E2E2E2E2E2E2E2E2E2E2E2E2E2E2E2E2E2E2E2E2E2E2E2
310
E2E2E2E2E2E2E2E2E2E2E2E2E2E2E2E2E2E2E2E2E2E2E2E2E2E2E2E2E2E2E2E2E2E2E2E2E2E2E2E2E2E2E2E2E2E2E2E2E2E2E2E2E2E2E2E2E2E2E2E2E2E2E2E2E2E2E2E2E2E2E2E2E2E2E2E2E2E2E2E2E2E2E2E2E2E2E2E2E2E2E2E2E2E2E2E2E2E2E2E2E2E2E2E2E2E2E2E2E2E2E2E2E2E2BEE2DCE2E2E2E2E2E2E2E2E2E2
310
E2E2E2E2E2E2E2E2E2E2E2E2E2E2E2E2E2E2E2E2E2E2E2E2E2E2E2E2E2E2E2E2E2E2E2E2E2E2E2E2E2E2E2E2E2E2E2E2E2E2E2E2E2E2E2E2E2E2E2E2E2E2E2E2E2E2E2E2E2E2E2E2DCBEE2E2E2E2E2E2E2E2E2E2E2E2E2E2E2E2E2E2E2E2E2E2E2E2E2E2E2E2E2E2E2E2E2E2E2E2E2E2E2E2E2E2E2E2E2E2E2E2E2E2E2E2E2
310
E2E2E2E2E2E2E2E2E2E2E2E2E2E2E2E2E2E2E2E2E2E2E2E2E2E2E2E2E2E2E2E2E2E2E2E2E2E2E2E2E2E2E2E2E2E2E2E2E2E2E2E2E2E2E2E2E2E2E2E2E2E2E2E2E2E2E2E2E2E2E2E2E2E2E2E2E2E2E2E2E2E2E2E2E2E2E2E2E2E2E2E2E2E2E2E2E2E2E2E2E2E2E2E2E2E2E2E2E2E2E2E2E2E2E2E2BEE2DCE2E2E2E2E2E2E2E2
310
E2E2E2E2E2E2E2E2E2E2E2E2E2E2E2E2E2E2E2E2E2E2E2E2E2E2E2E2E2E2E2E2E2E2E2E2E2E2E2E2E2E2E2E2E2E2E2E2E2E2E2E2E2E2E2E2E2E2E2E2E2E2E2E2E2E2E2E2E2E2E2E2E2E2DCBEE2E2E2E2E2E2E2E2E2E2E2E2E2E2E2E2E2E2E2E2E2E2E2E2E2E2E2E2E2E2E2E2E2E2E2E2E2E2E2E2E2E2E2E2E2E2E2E2E2E2E2
310
E2E2E2E2E2E2E2E2E2E2E2E2E2E2E2E2E2E2E2E2E2E2E2E2E2E2E2E2E2E2E2E2E2E2E2E2E2E2E2E2E2E2E2E2E2E2E2E2E2E2E2E2E2E2E2E2E2E2E2E2E2E2E2E2E2E2E2E2E2E2E2E2E2E2E2E2E2E2E2E2E2E2E2E2E2E2E2E2E2E2E2E2E2E2E2E2E2E2E2E2E2E2E2E2E2E2E2E2E2E2E2E2E2E2E2E2E2E2BEE2DCE2E2E2E2E2E2
310
E2E2E2E2E2E2E2E2E2E2E2E2E2E2E2E2E2E2E2E2E2E2E2E2E2E2E2E2E2E2E2E2E2E2E2E2E2E2E2E2E2E2E2E2E2E2E2E2E2E2E2E2E2E2E2E2E2E2E2E2E2E2E2E2E2E2E2E2E2E2E2E2E2E2E2E2DCBEE2E2E2E2E2E2E2E2E2E2E2E2E2E2E2E2E2E2E2E2E2E2E2E2E2E2E2E2E2E2E2E2E2E2E2E2E2E2E2E2E2E2E2E2E2E2E2E2E2
310
E2E2E2E2E2E2E2E2E2E2E2E2E2E2E2E2E2E2E2E2E2E2E2E2E2E2E2E2E2E2E2E2E2E2E2E2E2E2E2E2E2E2E2E2E2E2E2E2E2E2E2E2E2E2E2E2E2E2E2E2E2E2E2E2E2E2E2E2E2E2E2E2E2E2E2E2E2E2E2E2E2E2E2E2E2E2E2E2E2E2E2E2E2E2E2E2E2E2E2E2E2E2E2E2E2E2E2E2E2E2E2E2E2E2E2E2E2E2E2E2BEE2DCE2E2E2E2
310
E2E2E2E2E2E2E2E2BEBEBEE2E2E2E2E2E2E2E2E2E2E2E2E2E2E2E2E2E2E2E2E2E2E2E2E2E2E2E2E2E2E2E2E2E2E2E2E2E22828E2E2E2E2E2E2E2E2E2E2E2E2E2E2E2E2E2E2E2E2E2E2E2E2E2E2E2DCBEE2E2E2E2E2E2E2E2E2E2E2E2E2E2E2E2E2E2E2E2E2E2E2E2E2E2E2E2E2E2E2E2E2E2E2E2E2E2E2E2E2E2E2E2E2E2E2
310
E2E2E2E2E2E2E2E2E2E2E2E2E2E2E2E2E2E2E2E2E2E2E2E2E2E2E2E2E2E2E2E2E2E2E2E2E2E2E2E2E2E2E2E2E2E2E2E2E2E2E2E2E2E2E2E2E2E2E2E2E2E2E2E2E2E2E2E2E2E2E2E2E2E2E2E2E2E2E2E2E2E2E2E2E2E2E2E2E2E2E2E2E2E2E2E2E2E2E2E2E2E2E2E2E2E2E2E2E2E2E2E2E2E2E2E2E2E2E2E2E2E2BEE2DCE2E2
310
E2E2E2E2E2E2E2E2E2E2BEBEBEE2E2E2E2E2E2E2E2E2E2E2E2E2E2E2E2E2E2E2E2E2E2E2E2E2E2E2E2E2E2E2E2E2E2E2E2E2E2E228E2E2E2E2E2E2E2E2E2E2E2E2E2E2E2E2E2E2E2E2E2E2E2E2E2E2E2DCBEE2E2E2E2E2E2E2E2E2E2E2E2E2E2E2E2E2E2E2E2E2E2E2E2E2E2E2E2E2E2E2E2E2E2E2E2E2E2E2E2E2E2E2E2E2
310
E2E2E2E2E2E2E2E2E2E2E2E2E2E2E2E2E2E2E2E2E2E2E2E2E2E2E2E2E2E2E2E2E2E2E2E2E2E2E2E2E2E2E2E2E2E2E2E2E2E2E2E2E2E2E2E2E2E2E2E2E2E2E2E2E2E2E2E2E2E2E2E2E2E2E2E2E2E2E2E2E2E2E2E2E2E2E2E2E2E2E2E2E2E2E2E2E2E2E2E2E2E2E2E2E2E2E2E2E2E2E2E2E2E2E2E2E2E2E2E2E2E2E2E2BEE2DC
310
E2E2E2E2E2E2F52DF5F5F5F5BEBEBEF5F5F5BEBEBEBEBEBEBEBEBEBEBEBEBEBEBEBEBEBEBEBEBEBEF52DF5E2E2E2E2E2E2F52DF5F5F5F5F5E2E2E2E2E2E2E2E2E2E2E2E2E2E2E2E2E2E2E2E2E2E2E2E2E2E2DCBEE2E2E2E2E2E2E2E2E2E2E2E2E2E2E2E2E2E2E2E2E2E2E2E2E2E2E2E2E2E2E2E2E2E2E2E2E2E2E2E2E2E2E2
310
E2E2E2E2E2E2E2E2E2E2E2E2E2E2E2E2E2E2E2E2E2E2E2E2E2E2E2E2E2E2E2E2E2E2E2E2E2E2E2E2E2E2E2E2E2E2E2E2E2E2E2E2E2E2E2E2E2E2E2E2E2E2E2E2E2E2E2E2E2E2E2E2E2E2E2E2E2E2E2E2E2E2E2E2E2E2E2E2E2E2E2E2E2E2E2E2E2E2E2E2E2E2E2E2E2E2E2E2E2E2E2E2E2E2E2E2E2E2E2E2E2E2E2E2E2E2BE
310
E2DCE2E2E2E2E2E22DE2F5F5F5F5F5F5F5F5F5F5F5F5F5F5F5F5F5F5F5F5F5F5F5F5F5F5F5F5F5F5F5F5F5E22DE2E2E2E2E2E22DE22828282828F5F5F5F5F52D2DE2E2E2E2E2E2E2E2E2E2E2E2E2E2E2E2E2E2E2DCBEE2E2E2E2E2E2E2E2E2E2E2E2E2E2E2E2E2E2E2E2E2E2E2E2E2E2E2E2E2E2E2E2E2E2E2E2E2E2E2E2E2
310
E2E2E2E2E2E2E2E2E2E2E2E2E2E2E2E2E2E2E2E2E2E2E2E2E2E2E2E2E2E2E2E2E2E2E2E2E2E2E2E2E2E2E2E2E2E2E2E2E2E2E2E2E2E2E2E2E2E2E2E2E2E2E2E2E2E2E2E2E2E2E2E2E2E2E2E2E2E2E2E2E2E2E2E2E2E2E2E2E2E2E2E2E2E2E2E2E2E2E2E2E2E2E2E2E2E2E2E2E2E2E2E2E2E2E2E2E2E2E2E2E2E2E2E2E2E2E2
310
E2BEE2DCE2E2E2E2E2BEBEE2F5E2BE28282828BEE2E228E2E2E2E2E2E2E2E2E2E2E2E2E2E2E2E2E2E2E2E2E2F5E22DE2E2E2E2E2E22DE2282828E228E2E228E2F5E22DE2E2E2E2E2E2E2E2E2E2E2E2E2E2E2E2E2E2E2DCBEE2E2E2E2E2E2E2E2E2E2E2E2E2E2E2E2E2E2E2E2E2E2E2E2E2E2E2E2E2E2E2E2E2E2E2E2E2E2E2
310
E2E2E2E2E2E2E2E2E2E2E2E2E2E2E2E2E2E2E2E2E2E2E2E2E2E2E2E2E2E2E2E2E2E2E2E2E2E2E2E2E2E2E2E2E2E2E2E2E2E2E2E2E2E2E2E2E2E2E2E2E2E2E2E2E2E2E2E2E2E2E2E2E2E2E2E2E2E2E2E2E2E2E2E2E2E2E2E2E2E2E2E2E2E2E2E2E2E2E2E2E2E2E2E2E2E2E2E2E2E2E2E2E2E2E2E2E2E2E2E2E2E2E2E2E2E2E2
310
E2E2E2BEE2DCE2E2E2E2E2BEBEE2F52828E228E228BEE2E228E2E2E2E2E2E2E2E2E2E2E2E2E2E2E2E22828E2E2E228E22DE2E2E2E2E2E22DE2282828E228E2E228E2F5E22DE2E2E2E2E2E2E2E2E2E2E2E2E2E2E2E2E2E2E2DCBEE2E2E2E2E2E2E2E2E2E2E2E2E2E2E2E2E2E2E2E2E2E2E2E2E2E2E2E2E2E2E2E2E2E2E2E2E2
310
E2E2E2E2E2E2E2E2E2E2E2E2E2E2E2E2E2E2E2E2E2E2E2E2E2E2E2E2E2E2E2E2E2E2E2E2E2E2E2E2E2E2E2E2E2E2E2E2E2E2E2E2E2E2E2E2E2E2E2E2E2E2E2E2E2E2E2E2E2E2E2E2E2E2E2E2E2E2E2E2E2E2E2E2E2E2E2E2E2E2E2E2E2E2E2E2E2E2E2E2E2E2E2E2E2E2E2E2E2E2E2E2E2E2E2E2E2E2E2E2E2E2E2E2E2E2E2
310
E2E2E2E2E2BEE2DCE2E2E2E2E2E22DE2F528282828E228BEE2E228E2E2E2E2E2E2E2E2E2E2E2E2E2E2E2E22828E2E2E2F5E22DE2E2E2E2E2E22DE2282828E228E2E228E2F5E22DE2E2E2E2E2E2E2E2E2E2E2E2E2E2E2E2E2E2E2DCBEE2E2E2E2E2E2E2E2E2E2E2E2E2E2E2E2E2E2E2E2E2E2E2E2E2E2E2E2E2E2E2E2E2E2E2
310
E2E2E2E2E2E2E2E2E2E2E2E2E2E2E2E2E2E2E2E2E2E2E2E2E2E2E2E2E2E2E2E2E2E2E2E2E2E2E2E2E2E2E2E2E2E2E2E2E2E2E2E2E2E2E2E2E2E2E2E2E2E2E2E2E2E2E2E2E2E2E2E2E2E2E2E2E2E2E2E2E2E2E2E2E2E2E2E2E2E2E2E2E2E2E2E2E2E2E2E2E2E2E2E2E2E2E2E2E2E2E2E2E2E2E2E2E2E2E2E2E2E2E2E2E2E2E2
310
E2E2E2E2E2E2E2BEE2DCE2E2E2E2E2E22D2D2D2828BEBEBEBEBEE2E228E2E2E2E2E2E2E2E2E2E2E2E2E2E2E2E2F528E2E2E2F5E22DE2E2E2E2E2E22DE2282828BE28BE2828E2F5E22DE2E2E2E2E2E2E2E2E2E2E2E2E2E2E2E2E2E2E2DCBEE2E2E2E2E2E2E2E2E2E2E2E2E2E2E2E2E2E2E2E2E2E2E2E2E2E2E2E2E2E2E2E2E2
310
E2E2E2E2E2E2E2E2E2E2E2E2E2E2E2E2E2E2E2E2E2E2E2E2E2E2E2E2E2E2E2E2E2E2E2E2E2E2E2E2E2E2E2E2E2E2E2E2E2E2E2E2E2E2E2E2E2E2E2E2E2E2E2E2E2E2E2E2E2E2E2E2E2E2E2E2E2E2E2E2E2E2E2E2E2E2E2E2E2E2E2E2E2E2E2E2E2E2E2E2E2E2E2E2E2E2E2E2E2E2E2E2E2E2E2E2E2E2E2E2E2E2E2E2E2E2E2
310
E2E2E2E2E2E2E2E2E2BEE2DCE2E2E2E2E2E22DE2F5E2E2E2BE28BEE2E2E228E2E2E2E2E2E2E2E2E2E2E2E2E2E2E2E2F5E2E2E2E2F5E22DE2E2E2E2E2E22DE228E2E2BE28BEE2E2E2F5E22DE2E2E2E2E2E2E2E2E2E2E2E2E2E2E2E2E2E2E2DCBEE2E2E2E2E2E2E2E2E2E2E2E2E2E2E2E2E2E2E2E2E2E2E2E2E2E2E2E2E2E2E2
310
E2E2E2E2E2E2E2E2E2E2E2E2E2E2E2E2E2E2E2E2E2E2E2E2E2E2E2E2E2E2E2E2E2E2E2E2E2E2E2E2E2E2E2E2E2E2E2E2E2E2E2E2E2E2E2E2E2E2E2E2E2E2E2E2E2E2E2E2E2E2E2E2E2E2E2E2E2E2E2E2E2E2E2E2E2E2E2E2E2E2E2E2E2E2E2E2E2E2E2E2E2E2E2E2E2E2E2E2E2E2E2E2E2E2E2E2E2E2E2E2E2E2E2E2E2E2E2
310
E2E2E2E2E2E2E2E2E2E2E2BEE2DCE2E2E2E2E2E22DE2F5E2E2E2BEBEBEE2E2E228E2E2E2E2E2E2E2E2E2E2E2E2E2E2E2E2F5E2E2E2E2F5E22DE2E2E2E2E2E22DE228E2E2BE28BEE2E2E2F5E22DE2E2E2E2E2E2E2E2E2E2E2E2E2E2E2E2E2E2E2DCBEE2E2E2E2E2E2E2E2E2E2E2E2E2E2E2E2E2E2E2E2E2E2E2E2E2E2E2E2E2
310
E2E2E2E2E2E2E2E2E2E2E2E2E2E2E2E2E2E2E2E2E2E2E2E2E2E2E2E2E2E2E2E2E2E2E2E2E2E2E2E2E2E2E2E2E2E2E2E2E2E2E2E2E2E2E2E2E2E2E2E2E2E2E2E2E2E2E2E2E2E2E2E2E2E2E2E2E2E2E2E2E2E2E2E2E2E2E2E2E2E2E2E2E2E2E2E2E2E2E2E2E2E2E2E2E2E2E2E2E2E2E2E2E2E2E2E2E2E2E2E2E2E2E2E2E2E2E2
310
E2E2E2E2E2E2E2E2E2E2E2E2E2BEE2DCE2E2E2E2E2E22DE2F5E2BEBEBEBEBEBEE2E228E2E2E2E2E2E2E2E2E2E2E2E2E2E2E2E2F5E2E2E2E2F5E22DE2E2E2E2E2E22DE228BEBEBE28BEBEBEE2F5E22DE2E2E2E2E2E2E2E2E2E2E2E2E2E2E2E2E2E2E2DCBEE2E2E2E2E2E2E2E2E2E2E2E2E2E2E2E2E2E2E2E2E2E2E2E2E2E2E2
310
E2E2E2E2E2E2E2E2E2E2E2E2E2E2E2E2E2E2E2E2E2E2E2E2E2E2E2E2E2E2E2E2E2E2E2E2E2E2E2E2E2E2E2E2E2E2E2E2E2E2E2E2E2E2E2E2E2E2E2E2E2E2E2E2E2E2E2E2E2E2E2E2E2E2E2E2E2E2E2E2E2E2E2E2E2E2E2E2E2E2E2E2E2E2E2E2E2E2E2E2E2E2E2E2E2E2E2E2E2E2E2E2E2E2E2E2E2E2E2E2E2E2E2E2E2E2E2
310
E2E2E2E2E2E2E2E2E2E2E2E2E2E2E2BEE2DCE2E2E2E2E2E22DE2F5E2BEE2E2F5E2BEE2E228E2E2E2E2E2E2E2E2E2E2E2E2E2E2E2E2F5E2E2E2E2F5E22DE2E2E2E2E2E22DE228BEE2E228E2E2BEE2F5E22DE2E2E2E2E2E2E2E2E2E2E2E2E2E2E2E2E2E2E2DCBEE2E2E2E2E2E2E2E2E2E2E2E2E2E2E2E2E2E2E2E2E2E2E2E2E2
310
E2E2E2E2E2E2E2E2E2E2E2E2E2E2E2E2E2E2E2E2E2E2E2E2E2E2E2E2E2E2E2E2E2E2E2E2E2E2E2E2E2E2E2E2E2E2E2E2E2E2E2E2E2E2E2E2E2E2E2E2E2E2E2E2E2E2E2E2E2E2E2E2E2E2E2E2E2E2E2E2E2E2E2E2E2E2E2E2E2E2E2E2E2E2E2E2E2E2E2E2E2E2E2E2E2E2E2E2E2E2E2E2E2E2E2E2E2E2E2E2E2E2E2E2E2E2E2
310
E2E2E2E2E2E2E2E2E2E2E2E2E2E2E2E2E2BEE2DCE2E2E2E2E2E22DE2F5E2BEE2E2E2E2BEE2E228E2E2E2E2E2E2E2E2E2E2E2E2E2E2E2E2E2E2E2E2E2F5E22DE2E2E2E2E2E22DE228BEE2E228E2E2BEE2F5E22DE2E2E2E2E2E2E2E2E2E2E2E2E2E2E2E2E2E2E2DCBEE2E2E2E2E2E2E2E2E2E2E2E2E2E2E2E2E2E2E2E2E2E2E2
310
E2E2E2E2E2E2E2E2E2E2E2E2E2E2E2E2E2E2E2E2E2E2E2E2E2E2E2E2E2E2E2E2E2E2E2E2E2E2E2E2E2E2E2E2E2E2E2E2E2E2E2E2E2E2E2E2E2E2E2E2E2E2E2E2E2E2E2E2E2E2E2E2E2E2E2E2E2E2E2E2E2E2E2E2E2E2E2E2E2E2E2E2E2E2E2E2E2E2E2E2E2E2E2E2E2E2E2E2E2E2E2E2E2E2E2E2E2E2E2E2E2E2E2E2E2E2E2
310
E2E2E2E2E2E2E2E2E2E2E2E2E2E2E2E2E2E2E2BEE2DCE2E2E2E2E2E22DE2F5E2BEE2E2E2E2BEE2E228E2E2E2E2E2E2E2E2E2E2E2E2E2E2E2E2E2E2E2E2E2F5BE2DE2E2E2E2E2BEBEE228BEE2E228E2E2BEE2F5E22DE2E2E2E2E2E2E2E2E2E2E2E2E2E2E2E2E2E2E2DCBEE2E2E2E2E2E2E2E2E2E2E2E2E2E2E2E2E2E2E2E2E2
310
E2E2E2E2E2E2E2E2E2E2E2E2E2E2E2E2E2E2E2E2E2E2E2E2E2E2E2E2E2E2E2E2E2E2E2E2E2E2E2E2E2E2E2E2E2E2E2E2E2E2E2E2E2E2E2E2E2E2E2E2E2E2E2E2E2E2E2E2E2E2E2E2E2E2E2E2E2E2E2E2E2E2E2E2E2E2E2E2E2E2E2E2E2E2E2E2E2E2E2E2E2E2E2E2E2E2E2E2E2E2E2E2E2E2E2E2E2E2E2E2E2E2E2E2E2E2E2
310
E2E2E2E2E2E2E2E2E2E2E2E2E2E2E2E2E2E2E2E2E2BEE2DCE2E2E2E2E2E22DE2F5E2BEE2E2E2E2BEE2E228E2E2E2E2E2E2E2E2E2E2E2E2E2E2E2E2E2E2E2E2E2F5BE2DE2E2E2E2E2BEBEE228BEE2E228E2E2BEE2DCBEBEE2E2E2E2E2E2E2E2E2E2E2E2E2E2E2E2E2E2E2DCBEE2E2E2E2E2E2E2E2E2E2E2E2E2E2E2E2E2E2E2
310
E2E2E2E2E2E2E2E2E2E2E2E2E2E2E2E2E2E2E2E2E2E2E2E2E2E2E2E2E2E2E2E2E2E2E2E2E2E2E2E2E2E2E2E2E2E2E2E2E2E2E2E2E2E2E2E2E2E2E2E2E2E2E2E2E2E2E2E2E2E2E2E2E2E2E2E2E2E2E2E2E2E2E2E2E2E2E2E2E2E2E2E2E2E2E2E2E2E2E2E2E2E2E2E2E2E2E2E2E2E2E2E2E2E2E2E2E2E2E2E2E2E2E2E2E2E2E2
310
E2E2E2E2E2E2E2E2E2E2E2E2E2E2E2E2E2E2E2E2E2E2E2BEE2DCE2E2E2E2E2BEBEE2F5E2BEE2E2E2E2BEE2E228E2E2E2E2E2E2E2E2E2E2E2E2E2E2E2E2E2E2E2E2E2F5BE2DE2E2E2E2E2BEBEE228BEE2E228E2E2BEE2F5BEBEE2E2E2E2E2E2E2E2E2E2E2E2E2E2E2E2E2E2E2DCBEE2E2E2E2E2E2E2E2E2E2E2E2E2E2E2E2E2
310
E2E2E2E2E2E2E2E2E2E2E2E2E2E2E2E2E2E2E2E2E2E2E2E2E2E2E2E2E2E2E2E2E2E2E2E2E2E2E2E2E2E2E2E2E2E2E2E2E2E2E2E2E2E2E2E2E2E2E2E2E2E2E2E2E2E2E2E2E2E2E2E2E2E2E2E2E2E2E2E2E2E2E2E2E2E2E2E2E2E2E2E2E2E2E2E2E2E2E2E2E2E2E2E2E2E2E2E2E2E2E2E2E2E2E2E2E2E2E2E2E2E2E2E2E2E2E2
310
E2E2E2E2E2E2E2E2E2E2E2E2E2E2E2E2E2E2E2E2E2E2E2E2E2BEE2DCE2E2E2E2E2BEBEE2F5E2BEE2E2E2E2BEE2E228E2E2E2E2E2E2E2E2E2E2E2E2E2E2E2E2E2E2E2E2E2F5E22DE2E2E2E2E2E22DE228BEE2E228E2E2BEE2F5E22DE2E2E2E2E2E2E2E2E2E2E2E2E2E2E2E2E2E2E2DCBEE2E2E2E2E2E2E2E2E2E2E2E2E2E2E2
310
E2E2E2E2E2E2E2E2E2E2E2E2E2E2E2E2E2E2E2E2E2E2E2E2E2E2E2E2E2E2E2E2E2E2E2E2E2E2E2E2E2E2E2E2E2E2E2E2E2E2E2E2E2E2E2E2E2E2E2E2E2E2E2E2E2E2E2E2E2E2E2E2E2E2E2E2E2E2E2E2E2E2E2E2E2E2E2E2E2E2E2E2E2E2E2E2E2E2E2E2E2E2E2E2E2E2E2E2E2E2E2E2E2E2E2E2E2E2E2E2E2E2E2E2E2E2E2
310
E2E2E2E2E2E2E2E2E2E2E2E2E2E2E2E2E2E2E2E2E2E2E2E2E2E2E2BEE2DCE2E2E2E2E2E22DE2F5E2BEE2E2E2E2BEE2E228E2E2E2E2E2E2E2E2E2E2E2E2E2E2E2E2E2E2E2E2E2F5E22DE2E2E2E2E2E22DE228BEE2E228E2E2BEE2F5E22DE2E2E2E2E2E2E2E2E2E2E2E2E2E2E2E2E2E2E2DCBEE2E2E2E2E2E2E2E2E2E2E2E2E2
310
E2E2E2E2E2E2E2E2E2E2E2E2E2E2E2E2E2E2E2E2E2E2E2E2E2E2E2E2E2E2E2E2E2E2E2E2E2E2E2E2E2E2E2E2E2E2E2E2E2E2E2E2E2E2E2E2E2E2E2E2E2E2E2E2E2E2E2E2E2E2E2E2E2E2E2E2E2E2E2E2E2E2E2E2E2E2E2E2E2E2E2E2E2E2E2E2E2E2E2E2E2E2E2E2E2E2E2E2E2E2E2E2E2E2E2E2E2E2E2E2E2E2E2E2E2E2E2
310
E2E2E2E2E2E2E2E2E2E2E2E2E2E2E2E2E2E2E2E2E2E2E2E2E2E2E2E2E2BEE2DCE2E2E2E2E2E22DE2F5E2BEE2E2E2E2BEE2E228E2E2E2E2E2E2E2E2E2E2E2E2E2E2E2E2E2E2E2E2E2F5E22DE2E2E2E2E2E22DE228BEE2E228E2E2BEE2F5E22DE2E2E2E2E2E2E2E2E2E2E2E2E2E2E2E2E2E2E2DCBEE2E2E2E2E2E2E2E2E2E2E2
310
E2E2E2E2E2E2E2E2E2E2E2E2E2E2E2E2E2E2E2E2E2E2E2E2E2E2E2E2E2E2E2E2E2E2E2E2E2E2E2E2E2E2E2E2E2E2E2E2E2E2E2E2E2E2E2E2E2E2E2E2E2E2E2E2E2E2E2E2E2E2E2E2E2E2E2E2E2E2E2E2E2E2E2E2E2E2E2E2E2E2E2E2E2E2E2E2E2E2E2E2E2E2E2E2E2E2E2E2E2E2E2E2E2E2E2E2E2E2E2E2E2E2E2E2E2E2E2
310
E2E2E2E2E2E2E2E2E2E2E2E2E2E2E2E2E2E2E2E2E2E2E2E2E2E2E2E2E2E2E2BEE2DCE2E2E2E2E2E22DE2F5E2BEE2E2E2BEBEE2E228E2E2E2E2E2E2E2E2E2E2E2E2E2E2E2E2E2E2E2E2E2F5E22DE2E2E2E2E2E22DE228BEE2E228E2E2BEE2F5E22DE2E2E2E2E2E2E2E2E2E2E2E2E2E2E2E2E2E2E2DCBEE2E2E2E2E2E2E2E2E2
310
E2E2E2E2E2E2E2E2E2E2E2E2E2E2E2E2E2E2E2E2E2E2E2E2E2E2E2E2E2E2E2E2E2E2E2E2E2E2E2E2E2E2E2E2E2E2E2E2E2E2E2E2E2E2E2E2E2E2E2E2E2E2E2E2E2E2E2E2E2E2E2E2E2E2E2E2E2E2E2E2E2E2E2E2E2E2E2E2E2E2E2E2E2E2E2E2E2E2E2E2E2E2E2E2E2E2E2E2E2E2E2E2E2E2E2E2E2E2E2E2E2E2E2E2E2E2E2
310
E2E2E2E2E2E2E2E2E2E2E2E2E2E2E2E2E2E2E2E2E2E2E2E2E2E2E2E2E2E2E2E2E2BEE2DCE2E2E2E2E2E22DE22DE2BEE2E2E2BEE2E2E228E2E2E2E2E2E2E2E2E2E2E2E2E2E2E2E2E2E2E2E2E22DE22DE2E2E2E2E2E22DE228BEE2E228E2E2BEE2F5E22DE2E2E2E2E2E2E2E2E2E2E2E2E2E2E2E2E2E2E2DCBEE2E2E2E2E2E2E2
310
E2E2E2E2E2E2E2E2E2E2E2E2E2E2E2E2E2E2E2E2E2E2E2E2E2E2E2E2E2E2E2E2E2E2E2E2E2E2E2E2E2E2E2E2E2E2E2E2E2E2E2E2E2E2E2E2E2E2E2E2E2E2E2E2E2E2E2E2E2E2E2E2E2E2E2E2E2E2E2E2E2E2E2E2E2E2E2E2E2E2E2E2E2E2E2E2E2E2E2E2E2E2E2E2E2E2E2E2E2E2E2E2E2E2E2E2E2E2E2E2E2E2E2E2E2E2E2
310
E2E2E2E2E2E2E2E2E2E2E2E2E2E2E2E2E2E2E2E2E2E2E2E2E2E2E2E2E2E2E2E2E2E2E2BEE2DCE2E2E2E2E2E22DBEF52D2D2D2D2D2D2D2D2D2D2D2D2DBEBE2D2D2D2D2D2D2D2D2D2D2D2D2D2DBE2DF5E22DE2E2E2E2E2E22DE228BEBEBE28BEBEBEE2F5E22DE2E2E2E2E2E2E2E2E2E2E2E2E2E2E2E2E2E2E2DCBEE2E2E2E2E2
310
E2E2E2E2E2E2E2E2E2E2E2E2E2E2E2E2E2E2E2E2E2E2E2E2E2E2E2E2E2E2E2E2E2E2E2E2E2E2E2E2E2E2E2E2E2E2E2E2E2E2E2E2E2E2E2E2E2E2E2E2E2E2E2E2E2E2E2E2E2E2E2E2E2E2E2E2E2E2E2E2E2E2E2E2E2E2E2E2E2E2E2E2E2E2E2E2E2E2E2E2E2E2E2E2E2E2E2E2E2E2E2E2E2E2E2E2E2E2E2E2E2E2E2E2E2E2E2
310
E2E2E2E2E2E2E2E2E2E2E2E2E2E2E2E2E2E2E2E2E2E2E2E2E2E2E2E2E2E2E2E2E2E2E2E2E2BEE2DCE2E2E2E2E2E22DBE2D2DF52DBEE2E2E2E2E228E2E2E2BEBE28E2E2E2E2E2E2E2E2E2E2E228E2BEE2F5E22DE2E2E2E2E2E22DE228E2E2E228E2E2E2E2F5E22DE2E2E2E2E2E2E2E2E2E2E2E2E2E2E2E2E2E2E2DCBEE2E2E2
310
E2E2E2E2E2E2E2E2E2E2E2E2E2E2E2E2E2E2E2E2E2E2E2E2E2E2E2E2E2E2E2E2E2E2E2E2E2E2E2E2E2E2E2E2E2E2E2E2E2E2E2E2E2E2E2E2E2E2E2E2E2E2E2E2E2E2E2E2E2E2E2E2E2E2E2E2E2E2E2E2E2E2E2E2E2E2E2E2E2E2E2E2E2E2E2E2E2E2E2E2E2E2E2E2E2E2E2E2E2E2E2E2E2E2E2E2E2E2E2E2E2E2E2E2E2E2E2
310
E2E2E2E2E2E2E2E2E2E2E2E2E2E2E2E2E2E2E2E2E2E2E2E2E2E2E2E2E2E2E2E2E2E2E2E2E2E2E2BEE2DCE2E2E2E2E2E22DE2F5F5F5BEF5E2E2E2E2E228E2E2E2E2BE28E2E2E2E2E2E2E2E2E2E22828E2E2E2F5E22DE2E2E2E2E2E22DE228E2E2E228E2E2E2E2F5F52DE2E2E2E2E2E2E2E2E2E2E2E2E2E2E2E2E2E2E2DCBEE2
310
E2E2E2E2E2E2E2E2E2E2E2E2E2E2E2E2E2E2E2E2E2E2E2E2E2E2E2E2E2E2E2E2E2E2E2E2E2E2E2E2E2E2E2E2E2E2E2E2E2E2E2E2E2E2E2E2E2E2E2E2E2E2E2E2E2E2E2E2E2E2E2E2E2E2E2E2E2E2E2E2E2E2E2E2E2E2E2E2E2E2E2E2E2E2E2E2E2E2E2E2E2E2E2E2E2E2E2E2E2E2E2E2E2E2E2E2E2E2E2E2E2E2E2E2E2E2E2
310
E2E2E2E2E2E2E2E2E2E2E2E2E2E2E2E2E2E2E2E2E2E2E2E2E2E2E2E2E2E2E2E2E2E2E2E2E2E2E2E2E2BEE2DCE2E2E2E2E2E22D2D2DF5F5BE2DE2E2E2E2E228E2E2E2E2BEBEBEE2E2E2E2E2E2E2E2E2E228E2E2E2F5E22DE2E2E2E2E2E22DE22828282828E2E2E2BEBEBE2DE2E2E2E2E2E2E2E2E2E2E2E2E2E2E2E2E2E2E2DC
310
BEE2E2E2E2E2E2E2E2E2E2E2E2E2E2E2E2E2E2E2E2E2E2E2E2E2E2E2E2E2E2E2E2E2E2E2E2E2E2E2E2E2E2E2E2E2E2E2E2E2E2E2E2E2E2E2E2E2E2E2E2E2E2E2E2E2E2E2E2E2E2E2E2E2E2E2E2E2E2E2E2E2E2E2E2E2E2E2E2E2E2E2E2E2E2E2E2E2E2E2E2E2E2E2E2E2E2E2E2E2E2E2E2E2E2E2E2E2E2E2E2E2E2E2E2E2E2
310
E2E2E2E2E2E2E2E2E2E2E2E2E2E2E2E2E2E2E2E2E2E2E2E2E2E2E2E2E2E2E2E2E2E2E2E2E2E2E2E2E2E2E2BEE2DCE2E2E2E2E2BEBEE2F52DF5BE2DE2E2E2E2E2E2E2E2E2E2E2BEE2E2E2E2E2E2E2E2E2E2E2E2E2E2E2F5E22DE2E2E2E2E2E22DE2F5E2E2E2E2E2E2E2E2F5F52DE2E2E2E2E2E2E2E2E2E2E2E2E2E2E2E2E2E2
310
E2DCBEE2E2E2E2E2E2E2E2E2E2E2E2E2E2E2E2E2E2E2E2E2E2E2E2E2E2E2E2E2E2E2E2E2E2E2E2E2E2E2E2E2E2E2E2E2E2E2E2E2E2E2E2E2E2E2E2E2E2E2E2E2E2E2E2E2E2E2E2E2E2E2E2E2E2E2E2E2E2E2E2E2E2E2E2E2E2E2E2E2E2E2E2E2E2E2E2E2E2E2E2E2E2E2E2E2E2E2E2E2E2E2E2E2E2E2E2E2E2E2E2E2E2E2E2
310
E2E2E2E2E2E2E2E2E2E2E2E2E2E2E2E2E2E2E2E2E2E2E2E2E2E2E2E2E2E2E2E2E2E2E2E2E2E2E2E2E2E2E2E2E2BEE2DCE2E2E2E2E2E2F52DF5F5BEBEF5F5F5F5F5F5F5F5F5F5F5F5F5F5F5F5F5F5F5F5F5F5F5F5F5F5F5F5F52D2DE2E2E2E2E2E22D2DF5F5F5F5F5F5F5F5F5F52DF5E2E2E2E2E2E2E2E2E2E2E2E2E2E2E2E2
310
E2E2E2DCBEE2E2E2E2E2E2E2E2E2E2E2E2E2E2E2E2E2E2E2E2E2E2E2E2E2E2E2E2E2E2E2E2E2E2E2E2E2E2E2E2E2E2E2E2E2E2E2E2E2E2E2E2E2E2E2E2E2E2E2E2E2E2E2E2E2E2E2E2E2E2E2E2E2E2E2E2E2E2E2E2E2E2E2E2E2E2E2E2E2E2E2E2E2E2E2E2E2E2E2E2E2E2E2E2E2E2E2E2E2E2E2E2E2E2E2E2E2E2E2E2E2E2
310
E2E2E2E2E2E2E2E2E2E2E2E2E2E2E2E2E2E2E2E2E2E2E2E2E2E2E2E2E2E2E2E2E2E2E2E2E2E2E2E2E2E2E2E2E2E2E2BEE2DCE2E2E2E2E2E2E2E22D2D2D2D2D2D2D2D2D2D2D2D2D2D2D2DBE2D2D2D2D2D2D2D2D2D2D2D2D2D2D2DF5E2E2E2E2E2E2E2E2E2E2F52D2D2D2D2D2D2D2D2DE2E2E2E2E2E2E2E2E2E2E2E2E2E2E2E2
310
E2E2E2E2E2DCBEE2E2E2E2E2E2E2E2E2E2E2E2E2E2E2E2E2E2E2E2E2E2E2E2E2E2E2E2E2E2E2E2E2E2E2E2E2E2E2E2E2E2E2E2E2E2E2E2E2E2E2E2E2E2E2E2E2E2E2E2E2E2E2E2E2E2E2E2E2E2E2E2E2E2E2E2E2E2E2E2E2E2E2E2E2E2E2E2E2E2E2E2E2E2E2E2E2E2E2E2E2E2E2E2E2E2E2E2E2E2E2E2E2E2E2E2E2E2E2E2
310
E2E2E2E2E2E2E2E2E2E2E2E2E2E2E2E2E2E2E2E2E2E2E2E2E2E2E2E2E2E2E2E2E2E2E2E2E2E2E2E2E2E2E2E2E2E2E2E2E2BEE2DCE2E2E2E2E2E2E2E2E2E2E2E2E2E2E2E2E2E2E2E2E2E2E2BEBEE2E2E2E2E2E2E2E2E2E2E2E2E2E2E2E2E2E2E2E2E2E2E2E2E2E22D2D2D2D2D2D2D2D2DF5E2E2E2E2E2E2E2E2E2E2E2E2E2E2
310
E2E2E2E2E2E2E2DCBEE2E2E2E2E2E2E2E2E2E2E2E2E2E2E2E2E2E2E2E2E2E2E2E2E2E2E2E2E2E2E2E2E2E2E2E2E2E2E2E2E2E2E2E2E2E2E2E2E2E2E2E2E2E2E2E2E2E2E2E2E2E2E2E2E2E2E2E2E2E2E2E2E2E2E2E2E2E2E2E2E2E2E2E2E2E2E2E2E2E2E2E2E2E2E2E2E2E2E2E2E2E2E2E2E2E2E2E2E2E2E2E2E2E2E2E2E2E2
310
E2E2E2E2E2E2E2E2E2E2E2E2E2E2E2E2E2E2E2E2E2E2E2E2E2E2E2E2E2E2E2E2E2E2E2E2E2E2E2E2E2E2E2E2E2E2E2E2E2E2E2BEE2DCE2E2E2E2E2E2E2E2E2E2E2E2E2E2E2E2E2E2E2E2E2E2E2E2E2E2E2E2E2E2E2E2E2E2E2E2E2E2E2E2E2E2E2E2E2E2E2E2E2E2E22DE2E2E2BEBEE2E2E22DE2E2E2E2E2E2E2E2E2E2E2E2
310
E2E2E2E2E2E2E2E2E2DCBEE2E2E2E2E2E2E2E2E2E2E2E2E2E2E2E2E2E2E2E2E2E2E2E2E2E2E2E2E2E2E2E2E2E2E2E2E2E2E2E2E2E2E2E2E2E2E2E2E2E2E2E2E2E2E2E2E2E2E2E2E2E2E2E2E2E2E2E2E2E2E2E2E2E2E2E2E2E2E2E2E2E2E2E2E2E2E2E2E2E2E2E2E2E2E2E2E2E2E2E2E2E2E2E2E2E2E2E2E2E2E2E2E2E2E2E2
310
E2E2E2E2E2E2E2E2E2E2E2E2E2E2E2E2E2E2E2E2E2E2E2E2E2E2E2E2E2E2E2E2E2E2E2E2E2E2E2E2E2E2E2E2E2E2E2E2E2E2E2E2E2BEE2DCE2E2E2E2E2E2E2E2E2E2E2E2E2E2E2E2E2E2E2E2E2E2E2E2E2E2E2E2E2E2E2E2E2E2E2E2E2E2E2E2E2E2E2E2E2E2E2E2E2E2E2E2E2E2E2E2E2E2E2E2E2E2E2E2E2E2E2E2E2E2E2
310
E2E2E2E2E2E2E2E2E2E2E2DCBEE2E2E2E2E2E2E2E2E2E2E2E2E2E2E2E2E2E2E2E2E2E2E2E2E2E2E2E2E2E2E2E2E2E2E2E2E2E2E2E2E2E2E2E2E2E2E2E2E2E2E2E2E2E2E2E2E2E2E2E2E2E2E2E2E2E2E2E2E2E2E2E2E2E2E2E2E2E2E2E2E2E2E2E2E2E2E2E2E2E2E2E2E2E2E2E2E2E2E2E2E2E2E2E2E2E2E2E2E2E2E2E2E2E2
310
E2E2E2E2E2E2E2E2E2E2E2E2E2E2E2E2E2E2E2E2E2E2E2E2E2E2E2E2E2E2E2E2E2E2E2E2E2E2E2E2E2E2E2E2E2E2E2E2E2E2E2E2E2E2E2BEE2DCE2E2E2E2E2E2E2E2E2E2E2E2E2E2E2E2E2E2E2E2E2E2E2E2E2E2E2E2E2E2E2E2E2E2E2E2E2E2E2E2E2E2E2E2E2E2E2E2E2E2E2E2E2E2E2E2E2E2E2E2E2E2E2E2E2E2E2E2E2
310
E2E2E2E2E2E2E2E2E2E2E2E2E2DCBEE2E2E2E2E2E2E2E2E2E2E2E2E2E2E2E2E2E2E2E2E2E2E2E2E2E2E2E2E2E2E2E2E2E2E2E2E2E2E2E2E2E2E2E2E2E2E2E2E2E2E2E2E2E2E2E2E2E2E2E2E2E2E2E2E2E2E2E2E2E2E2E2E2E2E2E2E2E2E2E2E2E2E2E2E2E2E2E2E2E2E2E2E2E2E2E2E2E2E2E2E2E2E2E2E2E2E2E2E2E2E2E2
310
E2E2E2E2E2E2E2E2E2E2E2E2E2E2E2E2E2E2E2E2E2E2E2E2E2E2E2E2E2E2E2E2E2E2E2E2E2E2E2E2E2E2E2E2E2E2E2E2E2E2E2E2E2E2E2E2E2BEE2DCE2E2E2E2E2E2E2E2E2E2E2E2E2E2E2E2E2E2E2E2E2E2E2E2E2E2E2E2E2E2E2E2E2E2E2E2E2E2E2E2E2E2E2E2E2E2E2E2E2E2E2E2E2E2E2E2E2E2E2E2E2E2E2E2E2E2E2
310
E2E2E2E2E2E2E2E2E2E2E2E2E2E2E2DCBEE2E2E2E2E2E2E2E2E2E2E2E2E2E2E2E2E2E2E2E2E2E2E2E2E2E2E2E2E2E2E2E2E2E2E2E2E2E2E2E2E2E2E2E2E2E2E2E2E2E2E2E2E2E2E2E2E2E2E2E2E2E2E2E2E2E2E2E2E2E2E2E2E2E2E2E2E2E2E2E2E2E2E2E2E2E2E2E2E2E2E2E2E2E2E2E2E2E2E2E2E2E2E2E2E2E2E2E2E2E2
310
E2E2E2E2E2E2E2E2E2E2E2E2E2E2E2E2E2E2E2E2E2E2E2E2E2E2E2E2E2E2E2E2E2E2E2E2E2E2E2E2E2E2E2E2E2E2E2E2E2E2E2E2E2E2E2E2E2E2E2BEE2DCE2E2E2E2E2E2E2E2E2E2E2E2E2E2E2E2E2E2E2E2E2E2E2E2E2E2E2E2E2E2E2E2E2E2E2E2E2E2E2E2E2E2E2E2E2E2E2E2E2E2E2E2E2E2E2E2E2E2E2E2E2E2E2E2E2
310
E2E2E2E2E2E2E2E2E2E2E2E2E2E2E2E2E2DCBEE2E2E2E2E2E2E2E2E2E2E2E2E2E2E2E2E2E2E2E2E2E2E2E2E2E2E2E2E2E2E2E2E2E2E2E2E2E2E2E2E2E2E2E2E2E2E2E2E2E2E2E2E2E2E2E2E2E2E2E2E2E2E2E2E2E2E2E2E2E2E2E2E2E2E2E2E2E2E2E2E2E2E2E2E2E2E2E2E2E2E2E2E2E2E2E2E2E2E2E2E2E2E2E2E2E2E2E2
310
E2E2E2E2E2E2E2E2E2E2E2E2E2E2E2E2E2E2E2E2E2E2E2E2E2E2E2E2E2E2E2E2E2E2E2E2E2E2E2E2E2E2E2E2E2E2E2E2E2E2E2E2E2E2E2E2E2E2E2E2E2BEE2DCE2E2E2E2E2E2E2E2E2E2E2E2E2E2E2E2E2E2E2E2E2E2E2E2E2E2E2E2E2E2E2E2E2E2E2E2E2E2E2E2E2E2E2E2E2E2E2E2E2E2E2E2E2E2E2E2E2E2E2E2E2E2E2
310
E2E2E2E2E2E2E2E2E2E2E2E2E2E2E2E2E2E2E2DCBEE2E2E2E2E2E2E2E2E2E2E2E2E2E2E2E2E2E2E2E2E2E2E2E2E2E2E2E2E2E2E2E2E2E2E2E2E2E2E2E2E2E2E2E2E2E2E2E2E2E2E2E2E2E2E2E2E2E2E2E2E2E2E2E2E2E2E2E2E2E2E2E2E2E2E2E2E2E2E2E2E2E2E2E2E2E2E2E2E2E2E2E2E2E2E2E2E2E2E2E2E2E2E2E2E2E2
310
E2E2E2E2E2E2E2E2E2E2E2E2E2E2E2E2E2E2E2E2E2E2E2E2E2E2E2E2E2E2E2E2E2E2E2E2E2E2E2E2E2E2E2E2E2E2E2E2E2E2E2E2E2E2E2E2E2E2E2E2E2E2E2BEE2DCDCDCDCDCDCDCDCDCDCDCDCDCDCDCDCDCDCDCDCDCDCDCDCDCDCDCDCDCDCDCDCDCDCDCDCDCDCDCDCDCDCDCDCDCDCDCDCDCDCDCDCDCDCDCDCDCDCDCDCDCDC
310
DCDCDCDCDCDCDCDCDCDCDCDCDCDCDCDCDCDCDCDCDCDCBEE2E2E2E2E2E2E2E2E2E2E2E2E2E2E2E2E2E2E2E2E2E2E2E2E2E2E2E2E2E2E2E2E2E2E2E2E2E2E2E2E2E2E2E2E2E2E2E2E2E2E2E2E2E2E2E2E2E2E2E2E2E2E2E2E2E2E2E2E2E2E2E2E2E2E2E2E2E2E2E2E2E2E2E2E2E2E2E2E2E2E2E2E2E2E2E2E2E2E2E2E2E2E2E2
310
E2E2E2E2E2E2E2E2E2E2E2E2E2E2E2E2E2E2E2E2E2E2E2E2E2E2E2E2E2E2E2E2E2E2E2E2E2E2E2E2E2E2E2E2E2E2E2E2E2E2E2E2E2E2E2E2E2E2E2E2E2E2E2E2E2BEE2E2E2E2E2E2E2E2E2E2E2E2E2E2E2E2E2E2E2E2E2E2E2E2E2E2E2E2E2E2E2E2E2E2E2E2E2E2E2E2E2E2E2E2E2E2E2E2E2E2E2E2E2E2E2E2E2E2E2E2E2
310
E2E2E2E2E2E2E2E2E2E2E2E2E2E2E2E2E2E2E2E2E2E2E2E2BEE2E2E2E2E2E2E2E2E2E2E2E2E2E2E2E2E2E2E2E2E2E2E2E2E2E2E2E2E2E2E2E2E2E2E2E2E2E2E2E2E2E2E2E2E2E2E2E2E2E2E2E2E2E2E2E2E2E2E2E2E2E2E2E2E2E2E2E2E2E2E2E2E2E2E2E2E2E2E2E2E2E2E2E2E2E2E2E2E2E2E2E2E2E2E2E2E2E2E2E2E2E2
310
E2E2E2E2E2E2E2E2E2E2E2E2E2E2E2E2E2E2E2E2E2E2E2E2E2E2E2E2E2E2E2E2E2E2E2E2E2E2E2E2E2E2E2E2E2E2E2E2E2E2E2E2E2E2E2E2E2E2E2E2E2E2E2E2E2E2E2BEBEBEBEBEBEBEBEBEBEBEBEBEBEBEBEBEBEBEBEBEBEBEBEBEBEBEBEBEBEBEBEBEBEBEBEBEBEBEBEBEBEBEBEBEBEBEBEBEBEBEBEBEBEBEBEBEBEBEBE
310
BEBEBEBEBEBEBEBEBEBEBEBEBEBEBEBEBEBEBEBEBEBEBEBEBEBEBEE2E2E2E2E2E2E2E2E2E2E2E2E2E2E2E2E2E2E2E2E2E2E2E2E2E2E2E2E2E2E2E2E2E2E2E2E2E2E2E2E2E2E2E2E2E2E2E2E2E2E2E2E2E2E2E2E2E2E2E2E2E2E2E2E2E2E2E2E2E2E2E2E2E2E2E2E2E2E2E2E2E2E2E2E2E2E2E2E2E2E2E2E2E2E2E2E2E2E2E2
310
E2E2E2E2E2E2E2E2E2E2E2E2E2E2E2E2E2E2E2E2E2E2E2E2E2E2E2E2E2E2E2E2E2E2E2E2E2E2E2E2E2E2E2E2E2E2E2E2E2E2E2E2E2E2E2E2E2E2E2E2E2E2E2E2E2E2E2E2E2E2E2E2E2E2E2E2E2E2E2E2E2E2E2E2E2E2E2E2E2E2E2E2E2E2E2E2E2E2E2E2E2E2E2E2E2E2E2E2E2E2E2E2E2E2E2E2E2E2E2E2E2E2E2E2E2E2E2
310
E2E2E2E2E2E2E2E2E2E2E2E2E2E2E2E2E2E2E2E2E2E2E2E2E2E2E2E2E2E2E2E2E2E2E2E2E2E2E2E2E2E2E2E2E2E2E2E2E2E2E2E2E2E2E2E2E2E2E2E2E2E2E2E2E2E2E2E2E2E2E2E2E2E2E2E2E2E2E2E2E2E2E2E2E2E2E2E2E2E2E2E2E2E2E2E2E2E2E2E2E2E2E2E2E2E2E2E2E2E2E2E2E2E2E2E2E2E2E2E2E2E2E2E2E2E2E2
310
E2E2E2E2E2E2E2E2E2E2E2E2E2E2E2E2E2E2E2E2E2E2E2E2E2E2E2E2E2E2E2E2E2E2E2E2E2E2E2E2E2E2E2E2E2E2E2E2E2E2E2E2E2E2E2E2E2E2E2E2E2E2E2E2E2E2E2E2E2E2E2E2E2E2E2E2E2E2E2E2E2E2E2E2E2E2E2E2E2E2E2E2E2E2E2E2E2E2E2E2E2E2E2E2E2E2E2E2E2E2E2E2E2E2E2E2E2E2E2E2E2E2E2E2E2E2E2
310
E2E2E2E2E2E2E2E2E2E2E2E2E2E2E2E2E2E2E2E2E2E2E2E2E2E2E2E2E2E2E2E2E2E2E2E2E2E2E2E2E2E2E2E2E2E2E2E2E2E2E2E2E2E2E2E2E2E2E2E2E2E2E2E2E2E2E2E2E2E2E2E2E2E2E2E2E2E2E2E2E2E2E2E2E2E2E2E2E2E2E2E2E2E2E2E2E2E2E2E2E2E2E2E2E2E2E2E2E2E2E2E2E2E2E2E2E2E2E2E2E2E2E2E2E2E2E2
310
E2E2E2E2E2E2E2E2E2E2E2E2E2E2E2E2E2E2E2E2E2E2E2E2E2E2E2E2E2E2E2E2E2E2E2E2E2E2E2E2E2E2E2E2E2E2E2E2E2E2E2E2E2E2E2E2E2E2E2E2E2E2E2E2E2E2E2E2E2E2E2E2E2E2E2E2E2E2E2E2E2E2E2E2E2E2E2E2E2E2E2E2E2E2E2E2E2E2E2E2E2E2E2E2E2E2E2E2E2E2E2E2E2E2E2E2E2E2E2E2E2E2E2E2E2E2E2
310
E2E2E2E2E2E2E2E2E2E2E2E2E2E2E2E2E2E2E2E2E2E2E2E2E2E2E2E2E2E2E2E2E2E2E2E2E2E2E2E2E2E2E2E2E2E2E2E2E2E2E2E2E2E2E2E2E2E2E2E2E2E2E2E2E2E2E2E2E2E2E2E2E2E2E2E2E2E2E2E2E2E2E2E2E2E2E2E2E2E2E2E2E2E2E2E2E2E2E2E2E2E2E2E2E2E2E2E2E2E2E2E2E2E2E2E2E2E2E2E2E2E2E2E2E2E2E2
310
E2E2E2E2E2E2E2E2E2E2E2E2E2E2E2E2E2E2E2E2E2E2E2E2E2E2E2E2E2E2E2E2E2E2E2E2E2E2E2E2E2E2E2E2E2E2E2E2E2E2E2E2E2E2E2E2E2E2E2E2E2E2E2E2E2E2E2E2E2E2E2E2E2E2E2E2E2E2E2E2E2E2E2E2E2E2E2E2E2E2E2E2E2E2E2E2E2E2E2E2E2E2E2E2E2E2E2E2E2E2E2E2E2E2E2E2E2E2E2E2E2E2E2E2E2E2E2
310
E2E2E2E2E2E2E2E2E2E2E2E2E2E2E2E2E2E2E2E2E2E2E2E2E2E2E2E2E2E2E2E2E2E2E2E2E2E2E2E2E2E2E2E2E2E2E2E2E2E2E2E2E2E2E2E2E2E2E2E2E2E2E2E2E2E2E2E2E2E2E2E2E2E2E2E2E2E2E2E2E2E2E2E2E2E2E2E2E2E2E2E2E2E2E2E2E2E2E2E2E2E2E2E2E2E2E2E2E2E2E2E2E2E2E2E2E2E2E2E2E2E2E2E2E2E2E2
310
E2E2E2E2E2E2E2E2E2E2E2E2E2E2E2E2E2E2E2E2E2E2E2E2E2E2E2E2E2E2E2E2E2E2E2E2E2E2E2E2E2E2E2E2E2E2E2E2E2E2E2E2E2E2E2E2E2E2E2E2E2E2E2E2E2E2E2E2E2E2E2E2E2E2E2E2E2E2E2E2E2E2E2E2E2E2E2E2E2E2E2E2E2E2E2E2E2E2E2E2E2E2E2E2E2E2E2E2E2E2E2E2E2E2E2E2E2E2E2E2E2E2E2E2E2E2E2
310
E2E2E2E2E2E2E2E2E2E2E2E2E2E2E2E2E2E2E2E2E2E2E2E2E2E2E2E2E2E2E2E2E2E2E2E2E2E2E2E2E2E2E2E2E2E2E2E2E2E2E2E2E2E2E2E2E2E2E2E2E2E2E2E2E2E2E2E2E2E2E2E2E2E2E2E2E2E2E2E2E2E2E2E2E2E2E2E2E2E2E2E2E2E2E2E2E2E2E2E2E2E2E2E2E2E2E2E2E2E2E2E2E2E2E2E2E2E2E2E2E2E2E2E2E2E2E2
310
E2E2E2E2E2E2E2E2E2E2E2E2E2E2E2E2E2E2E2E2E2E2E2E2E2E2E2E2E2E2E2E2E2E2E2E2E2E2E2E2E2E2E2E2E2E2E2E2E2E2E2E2E2E2E2E2E2E2E2E2E2E2E2E2E2E2E2E2E2E2E2E2E2E2E2E2E2E2E2E2E2E2E2E2E2E2E2E2E2E2E2E2E2E2E2E2E2E2E2E2E2E2E2E2E2E2E2E2E2E2E2E2E2E2E2E2E2E2E2E2E2E2E2E2E2E2E2
310
E2E2E2E2E2E2E2E2E2E2E2E2E2E2E2E2E2E2E2E2E2E2E2E2E2E2E2E2E2E2E2E2E2E2E2E2E2E2E2E2E2E2E2E2E2E2E2E2E2E2E2E2E2E2E2E2E2E2E2E2E2E2E2E2E2E2E2E2E2E2E2E2E2E2E2E2E2E2E2E2E2E2E2E2E2E2E2E2E2E2E2E2E2E2E2E2E2E2E2E2E2E2E2E2E2E2E2E2E2E2E2E2E2E2E2E2E2E2E2E2E2E2E2E2E2E2E2
310
E2E2E2E2E2E2E2E2E2E2E2E2E2E2E2E2E2E2E2E2E2E2E2E2E2E2E2E2E2E2E2E2E2E2E2E2E2E2E2E2E2E2E2E2E2E2E2E2E2E2E2E2E2E2E2E2E2E2E2E2E2E2E2E2E2E2E2E2E2E2E2E2E2E2E2E2E2E2E2E2E2E2E2E2E2E2E2E2E2E2E2E2E2E2E2E2E2E2E2E2E2E2E2E2E2E2E2E2E2E2E2E2E2E2E2E2E2E2E2E2E2E2E2E2E2E2E2
310
E2E2E2E2E2E2E2E2E2E2E2E2E2E2E2E2E2E2E2E2E2E2E2E2E2E2E2E2E2E2E2E2E2E2E2E2E2E2E2E2E2E2E2E2E2E2E2E2E2E2E2E2E2E2E2E2E2E2E2E2E2E2E2E2E2E2E2E2E2E2E2E2E2E2E2E2E2E2E2E2E2E2E2E2E2E2E2E2E2E2E2E2E2E2E2E2E2E2E2E2E2E2E2E2E2E2E2E2E2E2E2E2E2E2E2E2E2E2E2E2E2E2E2E2E2E2E2
310
E2E2E2E2E2E2E2E2E2E2E2E2E2E2E2E2E2E2E2E2E2E2E2E2E2E2E2E2E2E2E2E2E2E2E2E2E2E2E2E2E2E2E2E2E2E2E2E2E2E2E2E2E2E2E2E2E2E2E2E2E2E2E2E2E2E2E2E2E2E2E2E2E2E2E2E2E2E2E2E2E2E2E2E2E2E2E2E2E2E2E2E2E2E2E2E2E2E2E2E2E2E2E2E2E2E2E2E2E2E2E2E2E2E2E2E2E2E2E2E2E2E2E2E2E2E2E2
310
E2E2E2E2E2E2E2E2E2E2E2E2E2E2E2E2E2E2E2E2E2E2E2E2E2E2E2E2E2E2E2E2E2E2E2E2E2E2E2E2E2E2E2E2E2E2E2E2E2E2E2E2E2E2E2E2E2E2E2E2E2E2E2E2E2E2E2E2E2E2E2E2E2E2E2E2E2E2E2E2E2E2E2E2E2E2E2E2E2E2E2E2E2E2E2E2E2E2E2E2E2E2E2E2E2E2E2E2E2E2E2E2E2E2E2E2E2E2E2E2E2E2E2E2E2E2E2
310
E2E2E2E2E2E2E2E2E2E2E2E2E2E2E2E2E2E2E2E2E2E2E2E2E2E2E2E2E2E2E2E2E2E2E2E2E2E2E2E2E2E2E2E2E2E2E2E2E2E2E2E2E2E2E2E2E2E2E2E2E2E2E2E2E2E2E2E2E2E2E2E2E2E2E2E2E2E2E2E2E2E2E2E2E2E2E2E2E2E2E2E2E2E2E2E2E2E2E2E2E2E2E2E2E2E2E2E2E2E2E2E2E2E2E2E2E2E2E2E2E2E2E2E2E2E2E2
310
E2E2E2E2E2E2E2E2E2E2E2E2E2E2E2E2E2E2E2E2E2E2E2E2E2E2E2E2E2E2E2E2E2E2E2E2E2E2E2E2E2E2E2E2E2E2E2E2E2E2E2E2E2E2E2E2E2E2E2E2E2E2E2E2E2E2E2E2E2E2E2E2E2E2E2E2E2E2E2E2E2E2E2E2E2E2E2E2E2E2E2E2E2E2E2E2E2E2E2E2E2E2E2E2E2E2E2E2E2E2E2E2E2E2E2E2E2E2E2E2E2E2E2E2E2E2E2
310
E2E2E2E2E2E2E2E2E2E2E2E2E2E2E2E2E2E2E2E2E2E2E2E2E2E2E2E2E2E2E2E2E2E2E2E2E2E2E2E2E2E2E2E2E2E2E2E2E2E2E2E2E2E2E2E2E2E2E2E2E2E2E2E2E2E2E2E2E2E2E2E2E2E2E2E2E2E2E2E2E2E2E2E2E2E2E2E2E2E2E2E2E2E2E2E2E2E2E2E2E2E2E2E2E2E2E2E2E2E2E2E2E2E2E2E2E2E2E2E2E2E2E2E2E2E2E2
310
E2E2E2E2E2E2E2E2E2E2E2E2E2E2E2E2E2E2E2E2E2E2E2E2E2E2E2E2E2E2E2E2E2E2E2E2E2E2E2E2E2E2E2E2E2E2E2E2E2E2E2E2E2E2E2E2E2E2E2E2E2E2E2E2E2E2E2E2E2E2E2E2E2E2E2E2E2E2E2E2E2E2E2E2E2E2E2E2E2E2E2E2E2E2E2E2E2E2E2E2E2E2E2E2E2E2E2E2E2E2E2E2E2E2E2E2E2E2E2E2E2E2E2E2E2E2E2
310
E2E2E2E2E2E2E2E2E2E2E2E2E2E2E2E2E2E2E2E2E2E2E2E2E2E2E2E2E2E2E2E2E2E2E2E2E2E2E2E2E2E2E2E2E2E2E2E2E2E2E2E2E2E2E2E2E2E2E2E2E2E2E2E2E2E2E2E2E2E2E2E2E2E2E2E2E2E2E2E2E2E2E2E2E2E2E2E2E2E2E2E2E2E2E2E2E2E2E2E2E2E2E2E2E2E2E2E2E2E2E2E2E2E2E2E2E2E2E2E2E2E2E2E2E2E2E2
310
E2E2E2E2E2E2E2E2E2E2E2E2E2E2E2E2E2E2E2E2E2E2E2E2E2E2E2E2E2E2E2E2E2E2E2E2E2E2E2E2E2E2E2E2E2E2E2E2E2E2E2E2E2E2E2E2E2E2E2E2E2E2E2E2E2E2E2E2E2E2E2E2E2E2E2E2E2E2E2E2E2E2E2E2E2E2E2E2E2E2E2E2E2E2E2E2E2E2E2E2E2E2E2E2E2E2E2E2E2E2E2E2E2E2E2E2E2E2E2E2E2E2E2E2E2E2E2
310
E2E2E2E2E2E2E2E2E2E2E2E2E2E2E2E2E2E2E2E2E2E2E2E2E2E2E2E2E2E2E2E2E2E2E2E2E2E2E2E2E2E2E2E2E2E2E2E2E2E2E2E2E2E2E2E2E2E2E2E2E2E2E2E2E2E2E2E2E2E2E2E2E2E2E2E2E2E2E2E2E2E2E2E2E2E2E2E2E2E2E2E2E2E2E2E2E2E2E2E2E2E2E2E2E2E2E2E2E2E2E2E2E2E2E2E2E2E2E2E2E2E2E2E2E2E2E2
310
E2E2E2E2E2E2E2E2E2E2E2E2E2E2E2E2E2E2E2E2E2E2E2E2E2E2E2E2E2E2E2E2E2E2E2E2E2E2E2E2E2E2E2E2E2E2E2E2E2E2E2E2E2E2E2E2E2E2E2E2E2E2E2E2E2E2E2E2E2E2E2E2E2E2E2E2E2E2E2E2E2E2E2E2E2E2E2E2E2E2E2E2E2E2E2E2E2E2E2E2E2E2E2E2E2E2E2E2E2E2E2E2E2E2E2E2E2E2E2E2E2E2E2E2E2E2E2
310
E2E2E2E2E2E2E2E2E2E2E2E2E2E2E2E2E2E2E2E2E2E2E2E2E2E2E2E2E2E2E2E2E2E2E2E2E2E2E2E2E2E2E2E2E2E2E2E2E2E2E2E2E2E2E2E2E2E2E2E2E2E2E2E2E2E2E2E2E2E2E2E2E2E2E2E2E2E2E2E2E2E2E2E2E2E2E2E2E2E2E2E2E2E2E2E2E2E2E2E2E2E2E2E2E2E2E2E2E2E2E2E2E2E2E2E2E2E2E2E2E2E2E2E2E2E2E2
310
E2E2E2E2E2E2E2E2E2E2E2E2E2E2E2E2E2E2E2E2E2E2E2E2E2E2E2E2E2E2E2E2E2E2E2E2E2E2E2E2E2E2E2E2E2E2E2E2E2E2E2E2E2E2E2E2E2E2E2E2E2E2E2E2E2E2E2E2E2E2E2E2E2E2E2E2E2E2E2E2E2E2E2E2E2E2E2E2E2E2E2E2E2E2E2E2E2E2E2E2E2E2E2E2E2E2E2E2E2E2E2E2E2E2E2E2E2E2E2E2E2E2E2E2E2E2E2
310
E2E2E2E2E2E2E2E2E2E2E2E2E2E2E2E2E2E2E2E2E2E2E2E2E2E2E2E2E2E2E2E2E2E2E2E2E2E2E2E2E2E2E2E2E2E2E2E2E2E2E2E2E2E2E2E2E2E2E2E2E2E2E2E2E2E2E2E2E2E2E2E2E2E2E2E2E2E2E2E2E2E2E2E2E2E2E2E2E2E2E2E2E2E2E2E2E2E2E2E2E2E2E2E2E2E2E2E2E2E2E2E2E2E2E2E2E2E2E2E2E2E2E2E2E2E2E2
310
E2E2E2E2E2E2E2E2E2E2E2E2E2E2E2E2E2E2E2E2E2E2E2E2E2E2E2E2E2E2E2E2E2E2E2E2E2E2E2E2E2E2E2E2E2E2E2E2E2E2E2E2E2E2E2E2E2E2E2E2E2E2E2E2E2E2E2E2E2E2E2E2E2E2E2E2E2E2E2E2E2E2E2E2E2E2E2E2E2E2E2E2E2E2E2E2E2E2E2E2E2E2E2E2E2E2E2E2E2E2E2E2E2E2E2E2E2E2E2E2E2E2E2E2E2E2E2
310
E2E2E2E2E2E2E2E2E2E2E2E2E2E2E2E2E2E2E2E2E2E2E2E2E2E2E2E2E2E2E2E2E2E2E2E2E2E2E2E2E2E2E2E2E2E2E2E2E2E2E2E2E2E2E2E2E2E2E2E2E2E2E2E2E2E2E2E2E2E2E2E2E2E2E2E2E2E2E2E2E2E2E2E2E2E2E2E2E2E2E2E2E2E2E2E2E2E2E2E2E2E2E2E2E2E2E2E2E2E2E2E2E2E2E2E2E2E2E2E2E2E2E2E2E2E2E2
310
E2E2E2E2E2E2E2E2E2E2E2E2E2E2E2E2E2E2E2E2E2E2E2E2E2E2E2E2E2E2E2E2E2E2E2E2E2E2E2E2E2E2E2E2E2E2E2E2E2E2E2E2E2E2E2E2E2E2E2E2E2E2E2E2E2E2E2E2E2E2E2E2E2E2E2E2E2E2E2E2E2E2E2E2E2E2E2E2E2E2E2E2E2E2E2E2E2E2E2E2E2E2E2E2E2E2E2E2E2E2E2E2E2E2E2E2E2E2E2E2E2E2E2E2E2E2E2
310
E2E2E2E2E2E2E2E2E2E2E2E2E2E2E2E2E2E2E2E2E2E2E2E2E2E2E2E2E2E2E2E2E2E2E2E2E2E2E2E2E2E2E2E2E2E2E2E2E2E2E2E2E2E2E2E2E2E2E2E2E2E2E2E2E2E2E2E2E2E2E2E2E2E2E2E2E2E2E2E2E2E2E2E2E2E2E2E2E2E2E2E2E2E2E2E2E2E2E2E2E2E2E2E2E2E2E2E2E2E2E2E2E2E2E2E2E2E2E2E2E2E2E2E2E2E2E2
310
E2E2E2E2E2E2E2E2E2E2E2E2E2E2E2E2E2E2E2E2E2E2E2E2E2E2E2E2E2E2E2E2E2E2E2E2E2E2E2E2E2E2E2E2E2E2E2E2E2E2E2E2E2E2E2E2E2E2E2E2E2E2E2E2E2E2E2E2E2E2E2E2E2E2E2E2E2E2E2E2E2E2E2E2E2E2E2E2E2E2E2E2E2E2E2E2E2E2E2E2E2E2E2E2E2E2E2E2E2E2E2E2E2E2E2E2E2E2E2E2E2E2E2E2E2E2E2
310
E2E2E2E2E2E2E2E2E2E2E2E2E2E2E2E2E2E2E2E2E2E2E2E2E2E2E2E2E2E2E2E2E2E2E2E2E2E2E2E2E2E2E2E2E2E2E2E2E2E2E2E2E2E2E2E2E2E2E2E2E2E2E2E2E2E2E2E2E2E2E2E2E2E2E2E2E2E2E2E2E2E2E2E2E2E2E2E2E2E2E2E2E2E2E2E2E2E2E2E2E2E2E2E2E2E2E2E2E2E2E2E2E2E2E2E2E2E2E2E2E2E2E2E2E2E2E2
310
E2E2E2E2E2E2E2E2E2E2E2E2E2E2E2E2E2E2E2E2E2E2E2E2E2E2E2E2E2E2E2E2E2E2E2E2E2E2E2E2E2E2E2E2E2E2E2E2E2E2E2E2E2E2E2E2E2E2E2E2E2E2E2E2E2E2E2E2E2E2E2E2E2E2E2E2E2E2E2E2E2E2E2E2E2E2E2E2E2E2E2E2E2E2E2E2E2E2E2E2E2E2E2E2E2E2E2E2E2E2E2E2E2E2E2E2E2E2E2E2E2E2E2E2E2E2E2
310
E2E2E2E2E2E2E2E2E2E2E2E2E2E2E2E2E2E2E2E2E2E2E2E2E2E2E2E2E2E2E2E2E2E2E2E2E2E2E2E2E2E2E2E2E2E2E2E2E2E2E2E2E2E2E2E2E2E2E2E2E2E2E2E2E2E2E2E2E2E2E2E2E2E2E2E2E2E2E2E2E2E2E2E2E2E2E2E2E2E2E2E2E2E2E2E2E2E2E2E2E2E2E2E2E2E2E2E2E2E2E2E2E2E2E2E2E2E2E2E2E2E2E2E2E2E2E2
310
E2E2E2E2E2E2E2E2E2E2E2E2E2E2E2E2E2E2E2E2E2E2E2E2E2E2E2E2E2E2E2E2E2E2E2E2E2E2E2E2E2E2E2E2E2E2E2E2E2E2E2E2E2E2E2E2E2E2E2E2E2E2E2E2E2E2E2E2E2E2E2E2E2E2E2E2E2E2E2E2E2E2E2E2E2E2E2E2E2E2E2E2E2E2E2E2E2E2E2E2E2E2E2E2E2E2E2E2E2E2E2E2E2E2E2E2E2E2E2E2E2E2E2E2E2E2E2
310
E2E2E2E2E2E2E2E2E2E2E2E2E2E2E2E2E2E2E2E2E2E2E2E2E2E2E2E2E2E2E2E2E2E2E2E2E2E2E2E2E2E2E2E2E2E2E2E2E2E2E2E2E2E2E2E2E2E2E2E2E2E2E2E2E2E2E2E2E2E2E2E2E2E2E2E2E2E2E2E2E2E2E2E2E2E2E2E2E2E2E2E2E2E2E2E2E2E2E2E2E2E2E2E2E2E2E2E2E2E2E2E2E2E2E2E2E2E2E2E2E2E2E2E2E2E2E2
310
E2E2E2E2E2E2E2E2E2E2E2E2E2E2E2E2E2E2E2E2E2E2E2E2E2E2E2E2E2E2E2E2E2E2E2E2E2E2E2E2E2E2E2E2E2E2E2E2E2E2E2E2E2E2E2E2E2E2E2E2E2E2E2E2E2E2E2E2E2E2E2E2E2E2E2E2E2E2E2E2E2E2E2E2E2E2E2E2E2E2E2E2E2E2E2E2E2E2E2E2E2E2E2E2E2E2E2E2E2E2E2E2E2E2E2E2E2E2E2E2E2E2E2E2E2E2E2
310
E2E2E2E2E2E2E2E2E2E2E2E2E2E2E2E2E2E2E2E2E2E2E2E2E2E2E2E2E2E2E2E2E2E2E2E2E2E2E2E2E2E2E2E2E2E2E2E2E2E2E2E2E2E2E2E2E2E2E2E2E2E2E2E2E2E2E2E2E2E2E2E2E2E2E2E2E2E2E2E2E2E2E2E2E2E2E2E2E2E2E2E2E2E2E2E2E2E2E2E2E2E2E2E2E2E2E2E2E2E2E2E2E2E2E2E2E2E2E2E2E2E2E2E2E2E2E2
310
E2E2E2E2E2E2E2E2E2E2E2E2E2E2E2E2E2E2E2E2E2E2E2E2E2E2E2E2E2E2E2E2E2E2E2E2E2E2E2E2E2E2E2E2E2E2E2E2E2E2E2E2E2E2E2E2E2E2E2E2E2E2E2E2E2E2E2E2E2E2E2E2E2E2E2E2E2E2E2E2E2E2E2E2E2E2E2E2E2E2E2E2E2E2E2E2E2E2E2E2E2E2E2E2E2E2E2E2E2E2E2E2E2E2E2E2E2E2E2E2E2E2E2E2E2E2E2
310
E2E2E2E2E2E2E2E2E2E2E2E2E2E2E2E2E2E2E2E2E2E2E2E2E2E2E2E2E2E2E2E2E2E2E2E2E2E2E2E2E2E2E2E2E2E2E2E2E2E2E2E2E2E2E2E2E2E2E2E2E2E2E2E2E2E2E2E2E2E2E2E2E2E2E2E2E2E2E2E2E2E2E2E2E2E2E2E2E2E2E2E2E2E2E2E2E2E2E2E2E2E2E2E2E2E2E2E2E2E2E2E2E2E2E2E2E2E2E2E2E2E2E2E2E2E2E2
310
E2E2E2E2E2E2E2E2E2E2E2E2E2E2E2E2E2E2E2E2E2E2E2E2E2E2E2E2E2E2E2E2E2E2E2E2E2E2E2E2E2E2E2E2E2E2E2E2E2E2E2E2E2E2E2E2E2E2E2E2E2E2E2E2E2E2E2E2E2E2E2E2E2E2E2E2E2E2E2E2E2E2E2E2E2E2E2E2E2E2E2E2E2E2E2E2E2E2E2E2E2E2E2E2E2E2E2E2E2E2E2E2E2E2E2E2E2E2E2E2E2E2E2E2E2E2E2
310
E2E2E2E2E2E2E2E2E2E2E2E2E2E2E2E2E2E2E2E2E2E2E2E2E2E2E2E2E2E2E2E2E2E2E2E2E2E2E2E2E2E2E2E2E2E2E2E2E2E2E2E2E2E2E2E2E2E2E2E2E2E2E2E2E2E2E2E2E2E2E2E2E2E2E2E2E2E2E2E2E2E2E2E2E2E2E2E2E2E2E2E2E2E2E2E2E2E2E2E2E2E2E2E2E2E2E2E2E2E2E2E2E2E2E2E2E2E2E2E2E2E2E2E2E2E2E2
310
E2E2E2E2E2E2E2E2E2E2E2E2E2E2E2E2E2E2E2E2E2E2E2E2E2E2E2E2E2E2E2E2E2E2E2E2E2E2E2E2E2E2E2E2E2E2E2E2E2E2E2E2E2E2E2E2E2E2E2E2E2E2E2E2E2E2E2E2E2E2E2E2E2E2E2E2E2E2E2E2E2E2E2E2E2E2E2E2E2E2E2E2E2E2E2E2E2E2E2E2E2E2E2E2E2E2E2E2E2E2E2E2E2E2E2E2E2E2E2E2E2E2E2E2E2E2E2
310
E2E2E2E2E2E2E2E2E2E2E2E2E2E2E2E2E2E2E2E2E2E2E2E2E2E2E2E2E2E2E2E2E2E2E2E2E2E2E2E2E2E2E2E2E2E2E2E2E2E2E2E2E2E2E2E2E2E2E2E2E2E2E2E2E2E2E2E2E2E2E2E2E2E2E2E2E2E2E2E2E2E2E2E2E2E2E2E2E2E2E2E2E2E2E2E2E2E2E2E2E2E2E2E2E2E2E2E2E2E2E2E2E2E2E2E2E2E2E2E2E2E2E2E2E2E2E2
310
E2E2E2E2E2E2E2E2E2E2E2E2E2E2E2E2E2E2E2E2E2E2E2E2E2E2E2E2E2E2E2E2E2E2E2E2E2E2E2E2E2E2E2E2E2E2E2E2E2E2E2E2E2E2E2E2E2E2E2E2E2E2E2E2E2E2E2E2E2E2E2E2E2E2E2E2E2E2E2E2E2E2E2E2E2E2E2E2E2E2E2E2E2E2E2E2E2E2E2E2E2E2E2E2E2E2E2E2E2E2E2E2E2E2E2E2E2E2E2E2E2E2E2E2E2E2E2
310
E2E2E2E2E2E2E2E2E2E2E2E2E2E2E2E2E2E2E2E2E2E2E2E2E2E2E2E2E2E2E2E2E2E2E2E2E2E2E2E2E2E2E2E2E2E2E2E2E2E2E2E2E2E2E2E2E2E2E2E2E2E2E2E2E2E2E2E2E2E2E2E2E2E2E2E2E2E2E2E2E2E2E2E2E2E2E2E2E2E2E2E2E2E2E2E2E2E2E2E2E2E2E2E2E2E2E2E2E2E2E2E2E2E2E2E2E2E2E2E2E2E2E2E2E2E2E2
310
E2E2E2E2E2E2E2E2E2E2E2E2E2E2E2E2E2E2E2E2E2E2E2E2E2E2E2E2E2E2E2E2E2E2E2E2E2E2E2E2E2E2E2E2E2E2E2E2E2E2E2E2E2E2E2E2E2E2E2E2E2E2E2E2E2E2E2E2E2E2E2E2E2E2E2E2E2E2E2E2E2E2E2E2E2E2E2E2E2E2E2E2E2E2E2E2E2E2E2E2E2E2E2E2E2E2E2E2E2E2E2E2E2E2E2E2E2E2E2E2E2E2E2E2E2E2E2
310
E2E2E2E2E2E2E2E2E2E2E2E2E2E2E2E2E2E2E2E2E2E2E2E2E2E2E2E2E2E2E2E2E2E2E2E2E2E2E2E2E2E2E2E2E2E2E2E2E2E2E2E2E2E2E2E2E2E2E2E2E2E2E2E2E2E2E2E2E2E2E2E2E2E2E2E2E2E2E2E2E2E2E2E2E2E2E2E2E2E2E2E2E2E2E2E2E2E2E2E2E2E2E2E2E2E2E2E2E2E2E2E2E2E2E2E2E2E2E2E2E2E2E2E2E2E2E2
310
E2E2E2E2E2E2E2E2E2E2E2E2E2E2E2E2E2E2E2E2E2E2E2E2E2E2E2E2E2E2E2E2E2E2E2E2E2E2E2E2E2E2E2E2E2E2E2E2E2E2E2E2E2E2E2E2E2E2E2E2E2E2E2E2E2E2E2E2E2E2E2E2E2E2E2E2E2E2E2E2E2E2E2E2E2E2E2E2E2E2E2E2E2E2E2E2E2E2E2E2E2E2E2E2E2E2E2E2E2E2E2E2E2E2E2E2E2E2E2E2E2E2E2E2E2E2E2
310
E2E2E2E2E2E2E2E2E2E2E2E2E2E2E2E2E2E2E2E2E2E2E2E2E2E2E2E2E2E2E2E2E2E2E2E2E2E2E2E2E2E2E2E2E2E2E2E2E2E2E2E2E2E2E2E2E2E2E2E2E2E2E2E2E2E2E2E2E2E2E2E2E2E2E2E2E2E2E2E2E2E2E2E2E2E2E2E2E2E2E2E2E2E2E2E2E2E2E2E2E2E2E2E2E2E2E2E2E2E2E2E2E2E2E2E2E2E2E2E2E2E2E2E2E2E2E2
310
E2E2E2E2E2E2E2E2E2E2E2E2E2E2E2E2E2E2E2E2E2E2E2E2E2E2E2E2E2E2E2E2E2E2E2E2E2E2E2E2E2E2E2E2E2E2E2E2E2E2E2E2E2E2E2E2E2E2E2E2E2E2E2E2E2E2E2E2E2E2E2E2E2E2E2E2E2E2E2E2E2E2E2E2E2E2E2E2E2E2E2E2E2E2E2E2E2E2E2E2E2E2E2E2E2E2E2E2E2E2E2E2E2E2E2E2E2E2E2E2E2E2E2E2E2E2E2
310
E2E2E2E2E2E2E2E2E2E2E2E2E2E2E2E2E2E2E2E2E2E2E2E2E2E2E2E2E2E2E2E2E2E2E2E2E2E2E2E2E2E2E2E2E2E2E2E2E2E2E2E2E2E2E2E2E2E2E2E2E2E2E2E2E2E2E2E2E2E2E2E2E2E2E2E2E2E2E2E2E2E2E2E2E2E2E2E2E2E2E2E2E2E2E2E2E2E2E2E2E2E2E2E2E2E2E2E2E2E2E2E2E2E2E2E2E2E2E2E2E2E2E2E2E2E2E2
310
E2E2E2E2E2E2E2E2E2E2E2E2E2E2E2E2E2E2E2E2E2E2E2E2E2E2E2E2E2E2E2E2E2E2E2E2E2E2E2E2E2E2E2E2E2E2E2E2E2E2E2E2E2E2E2E2E2E2E2E2E2E2E2E2E2E2E2E2E2E2E2E2E2E2E2E2E2E2E2E2E2E2E2E2E2E2E2E2E2E2E2E2E2E2E2E2E2E2E2E2E2E2E2E2E2E2E2E2E2E2E2E2E2E2E2E2E2E2E2E2E2E2E2E2E2E2E2
310
E2E2E2E2E2E2E2E2E2E2E2E2E2E2E2E2E2E2E2E2E2E2E2E2E2E2E2E2E2E2E2E2E2E2E2E2E2E2E2E2E2E2E2E2E2E2E2E2E2E2E2E2E2E2E2E2E2E2E2E2E2E2E2E2E2E2E2E2E2E2E2E2E2E2E2E2E2E2E2E2E2E2E2E2E2E2E2E2E2E2E2E2E2E2E2E2E2E2E2E2E2E2E2E2E2E2E2E2E2E2E2E2E2E2E2E2E2E2E2E2E2E2E2E2E2E2E2
310
E2E2E2E2E2E2E2E2E2E2E2E2E2E2E2E2E2E2E2E2E2E2E2E2E2E2E2E2E2E2E2E2E2E2E2E2E2E2E2E2E2E2E2E2E2E2E2E2E2E2E2E2E2E2E2E2E2E2E2E2E2E2E2E2E2E2E2E2E2E2E2E2E2E2E2E2E2E2E2E2E2E2E2E2E2E2E2E2E2E2E2E2E2E2E2E2E2E2E2E2E2E2E2E2E2E2E2E2E2E2E2E2E2E2E2E2E2E2E2E2E2E2E2E2E2E2E2
310
E2E2E2E2E2E2E2E2E2E2E2E2E2E2E2E2E2E2E2E2E2E2E2E2E2E2E2E2E2E2E2E2E2E2E2E2E2E2E2E2E2E2E2E2E2E2E2E2E2E2E2E2E2E2E2E2E2E2E2E2E2E2E2E2E2E2E2E2E2E2E2E2E2E2E2E2E2E2E2E2E2E2E2E2E2E2E2E2E2E2E2E2E2E2E2E2E2E2E2E2E2E2E2E2E2E2E2E2E2E2E2E2E2E2E2E2E2E2E2E2E2E2E2E2E2E2E2
310
E2E2E2E2E2E2E2E2E2E2E2E2E2E2E2E2E2E2E2E2E2E2E2E2E2E2E2E2E2E2E2E2E2E2E2E2E2E2E2E2E2E2E2E2E2E2E2E2E2E2E2E2E2E2E2E2E2E2E2E2E2E2E2E2E2E2E2E2E2E2E2E2E2E2E2E2E2E2E2E2E2E2E2E2E2E2E2E2E2E2E2E2E2E2E2E2E2E2E2E2E2E2E2E2E2E2E2E2E2E2E2E2E2E2E2E2E2E2E2E2E2E2E2E2E2E2E2
310
E2E2E2E2E2E2E2E2E2E2E2E2E2E2E2E2E2E2E2E2E2E2E2E2E2E2E2E2E2E2E2E2E2E2E2E2E2E2E2E2E2E2E2E2E2E2E2E2E2E2E2E2E2E2E2E2E2E2E2E2E2E2E2E2E2E2E2E2E2E2E2E2E2E2E2E2E2E2E2E2E2E2E2E2E2E2E2E2E2E2E2E2E2E2E2E2E2E2E2E2E2E2E2E2E2E2E2E2E2E2E2E2E2E2E2E2E2E2E2E2E2E2E2E2E2E2E2
310
E2E2E2E2E2E2E2E2E2E2E2E2E2E2E2E2E2E2E2E2E2E2E2E2E2E2E2E2E2E2E2E2E2E2E2E2E2E2E2E2E2E2E2E2E2E2E2E2E2E2E2E2E2E2E2E2E2E2E2E2E2E2E2E2E2E2E2E2E2E2E2E2E2E2E2E2E2E2E2E2E2E2E2E2E2E2E2E2E2E2E2E2E2E2E2E2E2E2E2E2E2E2E2E2E2E2E2E2E2E2E2E2E2E2E2E2E2E2E2E2E2E2E2E2E2E2E2
310
E2E2E2E2E2E2E2E2E2E2E2E2E2E2E2E2E2E2E2E2E2E2E2E2E2E2E2E2E2E2E2E2E2E2E2E2E2E2E2E2E2E2E2E2E2E2E2E2E2E2E2E2E2E2E2E2E2E2
  0
XRECORD
  5
47
102
{ACAD_REACTORS
330
46
102
}
330
46
100
AcDbXrecord
280
     1
270
     1
271
     1
  0
XRECORD
  5
48
102
{ACAD_REACTORS
330
46
102
}
330
46
100
AcDbXrecord
280
     1
270
     1
271
     1
  0
XRECORD
  5
49
102
{ACAD_REACTORS
330
46
102
}
330
46
100
AcDbXrecord
280
     1
270
     1
271
     1
  0
XRECORD
  5
4A
102
{ACAD_REACTORS
330
46
102
}
330
46
100
AcDbXrecord
280
     1
270
     1
271
     1
  0
XRECORD
  5
4B
102
{ACAD_REACTORS
330
46
102
}
330
46
100
AcDbXrecord
280
     1
270
     1
271
     1
  0
XRECORD
  5
4C
102
{ACAD_REACTORS
330
46
102
}
330
46
100
AcDbXrecord
280
     1
270
     1
271
     1
  0
XRECORD
  5
3F
102
{ACAD_REACTORS
330
3E
102
}
330
3E
100
AcDbXrecord
280
     1
270
     1
271
     1
  0
XRECORD
  5
40
102
{ACAD_REACTORS
330
3E
102
}
330
3E
100
AcDbXrecord
280
     1
270
     1
271
     1
  0
XRECORD
  5
41
102
{ACAD_REACTORS
330
3E
102
}
330
3E
100
AcDbXrecord
280
     1
270
     1
271
     1
  0
XRECORD
  5
42
102
{ACAD_REACTORS
330
3E
102
}
330
3E
100
AcDbXrecord
280
     1
270
     1
271
     1
  0
XRECORD
  5
43
102
{ACAD_REACTORS
330
3E
102
}
330
3E
100
AcDbXrecord
280
     1
270
     1
271
     1
  0
XRECORD
  5
44
102
{ACAD_REACTORS
330
3E
102
}
330
3E
100
AcDbXrecord
280
     1
270
     1
271
     1
  0
XRECORD
  5
F
102
{ACAD_REACTORS
330
E
102
}
330
E
100
AcDbXrecord
280
     1
270
     1
271
     1
  0
XRECORD
  5
10
102
{ACAD_REACTORS
330
E
102
}
330
E
100
AcDbXrecord
280
     1
270
     1
271
     1
  0
XRECORD
  5
11
102
{ACAD_REACTORS
330
E
102
}
330
E
100
AcDbXrecord
280
     1
270
     1
271
     1
  0
XRECORD
  5
12
102
{ACAD_REACTORS
330
E
102
}
330
E
100
AcDbXrecord
280
     1
270
     1
271
     1
  0
XRECORD
  5
13
102
{ACAD_REACTORS
330
E
102
}
330
E
100
AcDbXrecord
280
     1
270
     1
271
     1
  0
XRECORD
  5
14
102
{ACAD_REACTORS
330
E
102
}
330
E
100
AcDbXrecord
280
     1
270
     1
271
     1
  0
CELLSTYLEMAP
  5
4C9
102
{ACAD_REACTORS
330
57
102
}
330
57
100
AcDbCellStyleMap
 90
        3
300
CELLSTYLE
  1
TABLEFORMAT_BEGIN
 90
        5
170
     1
 91
        0
 92
    32768
 62
   257
 93
        1
300
CONTENTFORMAT
  1
CONTENTFORMAT_BEGIN
 90
        0
 91
        0
 92
      512
 93
        0
300

 40
0.0
140
1.0
 94
        5
 62
     0
340
26
144
0.25
309
CONTENTFORMAT_END
171
     0
 94
        0
309
TABLEFORMAT_END
  1
CELLSTYLE_BEGIN
 90
        1
 91
        1
300
_TITLE
309
CELLSTYLE_END
300
CELLSTYLE
  1
TABLEFORMAT_BEGIN
 90
        5
170
     1
 91
        0
 92
        0
 62
   257
 93
        1
300
CONTENTFORMAT
  1
CONTENTFORMAT_BEGIN
 90
        0
 91
        0
 92
      512
 93
        0
300

 40
0.0
140
1.0
 94
        5
 62
     0
340
26
144
0.18
309
CONTENTFORMAT_END
171
     0
 94
        0
309
TABLEFORMAT_END
  1
CELLSTYLE_BEGIN
 90
        2
 91
        1
300
_HEADER
309
CELLSTYLE_END
300
CELLSTYLE
  1
TABLEFORMAT_BEGIN
 90
        5
170
     1
 91
        0
 92
        0
 62
   257
 93
        1
300
CONTENTFORMAT
  1
CONTENTFORMAT_BEGIN
 90
        0
 91
        0
 92
      512
 93
        0
300

 40
0.0
140
1.0
 94
        2
 62
     0
340
26
144
0.18
309
CONTENTFORMAT_END
171
     0
 94
        0
309
TABLEFORMAT_END
  1
CELLSTYLE_BEGIN
 90
        3
 91
        2
300
_DATA
309
CELLSTYLE_END
  0
ENDSEC
  0
EOF
