  0
SECTION
  2
HEADER
  9
$ACADVER
  1
AC1024
  9
$ACADMAINTVER
 70
     6
  9
$DWGCODEPAGE
  3
ANSI_1252
  9
$INSBASE
 10
0.0
 20
0.0
 30
0.0
  9
$EXTMIN
 10
0.0
 20
0.0
 30
0.0
  9
$EXTMAX
 10
1049.999999999895
 20
742.499999999926
 30
0.0
  9
$LIMMIN
 10
0.0
 20
0.0
  9
$LIMMAX
 10
1050.0
 20
742.4999999999999
  9
$ORTHOMODE
 70
     1
  9
$REGENMODE
 70
     1
  9
$FILLMODE
 70
     1
  9
$QTEXTMODE
 70
     0
  9
$MIRRTEXT
 70
     0
  9
$LTSCALE
 40
15.0
  9
$ATTMODE
 70
     1
  9
$TEXTSIZE
 40
10.8483456105514
  9
$TRACEWID
 40
1.0
  9
$TEXTSTYLE
  7
ROMANS
  9
$CLAYER
  8
09-01
  9
$CELTYPE
  6
ByLayer
  9
$CECOLOR
 62
   256
  9
$CELTSCALE
 40
1.0
  9
$DISPSILH
 70
     0
  9
$DIMSCALE
 40
2.5
  9
$DIMASZ
 40
2.5
  9
$DIMEXO
 40
1.0
  9
$DIMDLI
 40
10.0
  9
$DIMRND
 40
0.0
  9
$DIMDLE
 40
0.0
  9
$DIMEXE
 40
1.0
  9
$DIMTP
 40
0.0
  9
$DIMTM
 40
0.0
  9
$DIMTXT
 40
2.5
  9
$DIMCEN
 40
0.0
  9
$DIMTSZ
 40
0.0
  9
$DIMTOL
 70
     0
  9
$DIMLIM
 70
     0
  9
$DIMTIH
 70
     0
  9
$DIMTOH
 70
     0
  9
$DIMSE1
 70
     0
  9
$DIMSE2
 70
     0
  9
$DIMTAD
 70
     1
  9
$DIMZIN
 70
     8
  9
$DIMBLK
  1

  9
$DIMASO
 70
     1
  9
$DIMSHO
 70
     0
  9
$DIMPOST
  1

  9
$DIMAPOST
  1

  9
$DIMALT
 70
     0
  9
$DIMALTD
 70
     3
  9
$DIMALTF
 40
0.03937007874016
  9
$DIMLFAC
 40
1.0
  9
$DIMTOFL
 70
     1
  9
$DIMTVP
 40
0.0
  9
$DIMTIX
 70
     0
  9
$DIMSOXD
 70
     0
  9
$DIMSAH
 70
     0
  9
$DIMBLK1
  1

  9
$DIMBLK2
  1

  9
$DIMSTYLE
  2
Wagner
  9
$DIMCLRD
 70
     4
  9
$DIMCLRE
 70
     4
  9
$DIMCLRT
 70
     1
  9
$DIMTFAC
 40
1.0
  9
$DIMGAP
 40
1.0
  9
$DIMJUST
 70
     0
  9
$DIMSD1
 70
     0
  9
$DIMSD2
 70
     0
  9
$DIMTOLJ
 70
     0
  9
$DIMTZIN
 70
     8
  9
$DIMALTZ
 70
     0
  9
$DIMALTTZ
 70
     0
  9
$DIMUPT
 70
     0
  9
$DIMDEC
 70
     1
  9
$DIMTDEC
 70
     1
  9
$DIMALTU
 70
     2
  9
$DIMALTTD
 70
     3
  9
$DIMTXSTY
  7
STANDARD
  9
$DIMAUNIT
 70
     0
  9
$DIMADEC
 70
     2
  9
$DIMALTRND
 40
0.0
  9
$DIMAZIN
 70
     2
  9
$DIMDSEP
 70
    46
  9
$DIMATFIT
 70
     3
  9
$DIMFRAC
 70
     0
  9
$DIMLDRBLK
  1

  9
$DIMLUNIT
 70
     2
  9
$DIMLWD
 70
    -2
  9
$DIMLWE
 70
    -2
  9
$DIMTMOVE
 70
     0
  9
$DIMFXL
 40
1.0
  9
$DIMFXLON
 70
     0
  9
$DIMJOGANG
 40
0.7853981633974483
  9
$DIMTFILL
 70
     0
  9
$DIMTFILLCLR
 70
     0
  9
$DIMARCSYM
 70
     0
  9
$DIMLTYPE
  6

  9
$DIMLTEX1
  6

  9
$DIMLTEX2
  6

  9
$DIMTXTDIRECTION
 70
     0
  9
$LUNITS
 70
     2
  9
$LUPREC
 70
     2
  9
$SKETCHINC
 40
1.0
  9
$FILLETRAD
 40
0.0
  9
$AUNITS
 70
     0
  9
$AUPREC
 70
     2
  9
$MENU
  1
cncmenue
  9
$ELEVATION
 40
0.0
  9
$PELEVATION
 40
0.0
  9
$THICKNESS
 40
0.0
  9
$LIMCHECK
 70
     0
  9
$CHAMFERA
 40
0.0
  9
$CHAMFERB
 40
0.0
  9
$CHAMFERC
 40
0.0
  9
$CHAMFERD
 40
0.0
  9
$SKPOLY
 70
     0
  9
$TDCREATE
 40
2451452.416949537
  9
$TDUCREATE
 40
2451452.333616204
  9
$TDUPDATE
 40
2456881.642626528
  9
$TDUUPDATE
 40
2456881.559293195
  9
$TDINDWG
 40
0.5464445255
  9
$TDUSRTIMER
 40
0.5464445255
  9
$USRTIMER
 70
     1
  9
$ANGBASE
 50
0.0
  9
$ANGDIR
 70
     0
  9
$PDMODE
 70
     0
  9
$PDSIZE
 40
0.0
  9
$PLINEWID
 40
0.0
  9
$SPLFRAME
 70
     0
  9
$SPLINETYPE
 70
     6
  9
$SPLINESEGS
 70
     8
  9
$HANDSEED
  5
51B
  9
$SURFTAB1
 70
    24
  9
$SURFTAB2
 70
    24
  9
$SURFTYPE
 70
     6
  9
$SURFU
 70
     6
  9
$SURFV
 70
     6
  9
$UCSBASE
  2

  9
$UCSNAME
  2

  9
$UCSORG
 10
0.0
 20
0.0
 30
0.0
  9
$UCSXDIR
 10
1.0
 20
0.0
 30
0.0
  9
$UCSYDIR
 10
0.0
 20
1.0
 30
0.0
  9
$UCSORTHOREF
  2

  9
$UCSORTHOVIEW
 70
     0
  9
$UCSORGTOP
 10
0.0
 20
0.0
 30
0.0
  9
$UCSORGBOTTOM
 10
0.0
 20
0.0
 30
0.0
  9
$UCSORGLEFT
 10
0.0
 20
0.0
 30
0.0
  9
$UCSORGRIGHT
 10
0.0
 20
0.0
 30
0.0
  9
$UCSORGFRONT
 10
0.0
 20
0.0
 30
0.0
  9
$UCSORGBACK
 10
0.0
 20
0.0
 30
0.0
  9
$PUCSBASE
  2

  9
$PUCSNAME
  2

  9
$PUCSORG
 10
0.0
 20
0.0
 30
0.0
  9
$PUCSXDIR
 10
1.0
 20
0.0
 30
0.0
  9
$PUCSYDIR
 10
0.0
 20
1.0
 30
0.0
  9
$PUCSORTHOREF
  2

  9
$PUCSORTHOVIEW
 70
     0
  9
$PUCSORGTOP
 10
0.0
 20
0.0
 30
0.0
  9
$PUCSORGBOTTOM
 10
0.0
 20
0.0
 30
0.0
  9
$PUCSORGLEFT
 10
0.0
 20
0.0
 30
0.0
  9
$PUCSORGRIGHT
 10
0.0
 20
0.0
 30
0.0
  9
$PUCSORGFRONT
 10
0.0
 20
0.0
 30
0.0
  9
$PUCSORGBACK
 10
0.0
 20
0.0
 30
0.0
  9
$USERI1
 70
     0
  9
$USERI2
 70
     0
  9
$USERI3
 70
     0
  9
$USERI4
 70
     0
  9
$USERI5
 70
     0
  9
$USERR1
 40
0.0
  9
$USERR2
 40
0.0
  9
$USERR3
 40
0.0
  9
$USERR4
 40
0.0
  9
$USERR5
 40
0.0
  9
$WORLDVIEW
 70
     1
  9
$SHADEDGE
 70
     3
  9
$SHADEDIF
 70
    70
  9
$TILEMODE
 70
     1
  9
$MAXACTVP
 70
    16
  9
$PINSBASE
 10
0.0
 20
0.0
 30
0.0
  9
$PLIMCHECK
 70
     0
  9
$PEXTMIN
 10
1.000000000000000E+20
 20
1.000000000000000E+20
 30
1.000000000000000E+20
  9
$PEXTMAX
 10
-1.000000000000000E+20
 20
-1.000000000000000E+20
 30
-1.000000000000000E+20
  9
$PLIMMIN
 10
0.0
 20
0.0
  9
$PLIMMAX
 10
12.0
 20
9.0
  9
$UNITMODE
 70
     0
  9
$VISRETAIN
 70
     0
  9
$PLINEGEN
 70
     0
  9
$PSLTSCALE
 70
     0
  9
$TREEDEPTH
 70
  3020
  9
$CMLSTYLE
  2
Standard
  9
$CMLJUST
 70
     0
  9
$CMLSCALE
 40
1.0
  9
$PROXYGRAPHICS
 70
     1
  9
$MEASUREMENT
 70
     0
  9
$CELWEIGHT
370
    -1
  9
$ENDCAPS
280
     0
  9
$JOINSTYLE
280
     0
  9
$LWDISPLAY
290
     0
  9
$INSUNITS
 70
     0
  9
$HYPERLINKBASE
  1

  9
$STYLESHEET
  1

  9
$XEDIT
290
     1
  9
$CEPSNTYPE
380
     0
  9
$PSTYLEMODE
290
     1
  9
$FINGERPRINTGUID
  2
{32A60875-53B8-40C6-BF7A-F1EBEF0DD944}
  9
$VERSIONGUID
  2
{CAF30C9E-BFE2-406D-B4C4-9582CEEF9135}
  9
$EXTNAMES
290
     1
  9
$PSVPSCALE
 40
0.0
  9
$OLESTARTUP
290
     0
  9
$SORTENTS
280
   127
  9
$INDEXCTL
280
     0
  9
$HIDETEXT
280
     1
  9
$XCLIPFRAME
280
     0
  9
$HALOGAP
280
     0
  9
$OBSCOLOR
 70
   257
  9
$OBSLTYPE
280
     0
  9
$INTERSECTIONDISPLAY
280
     0
  9
$INTERSECTIONCOLOR
 70
   257
  9
$DIMASSOC
280
     1
  9
$PROJECTNAME
  1

  9
$CAMERADISPLAY
290
     0
  9
$LENSLENGTH
 40
50.0
  9
$CAMERAHEIGHT
 40
0.0
  9
$STEPSPERSEC
 40
2.0
  9
$STEPSIZE
 40
6.0
  9
$3DDWFPREC
 40
2.0
  9
$PSOLWIDTH
 40
0.25
  9
$PSOLHEIGHT
 40
4.0
  9
$LOFTANG1
 40
1.570796326794896
  9
$LOFTANG2
 40
1.570796326794896
  9
$LOFTMAG1
 40
0.0
  9
$LOFTMAG2
 40
0.0
  9
$LOFTPARAM
 70
     7
  9
$LOFTNORMALS
280
     1
  9
$LATITUDE
 40
37.795
  9
$LONGITUDE
 40
-122.394
  9
$NORTHDIRECTION
 40
0.0
  9
$TIMEZONE
 70
 -8000
  9
$LIGHTGLYPHDISPLAY
280
     1
  9
$TILEMODELIGHTSYNCH
280
     1
  9
$CMATERIAL
347
3C
  9
$SOLIDHIST
280
     1
  9
$SHOWHIST
280
     1
  9
$DWFFRAME
280
     2
  9
$DGNFRAME
280
     0
  9
$REALWORLDSCALE
290
     1
  9
$INTERFERECOLOR
 62
     1
  9
$INTERFEREOBJVS
345
57
  9
$INTERFEREVPVS
346
58
  9
$CSHADOW
280
     0
  9
$SHADOWPLANELOCATION
 40
0.0
  0
ENDSEC
  0
SECTION
  2
CLASSES
  0
CLASS
  1
ACDBDICTIONARYWDFLT
  2
AcDbDictionaryWithDefault
  3
ObjectDBX Classes
 90
        0
 91
        1
280
     0
281
     0
  0
CLASS
  1
MATERIAL
  2
AcDbMaterial
  3
ObjectDBX Classes
 90
     1153
 91
        3
280
     0
281
     0
  0
CLASS
  1
VISUALSTYLE
  2
AcDbVisualStyle
  3
ObjectDBX Classes
 90
     4095
 91
        3
280
     0
281
     0
  0
CLASS
  1
TABLESTYLE
  2
AcDbTableStyle
  3
ObjectDBX Classes
 90
     4095
 91
        1
280
     0
281
     0
  0
CLASS
  1
SCALE
  2
AcDbScale
  3
ObjectDBX Classes
 90
     1153
 91
       33
280
     0
281
     0
  0
CLASS
  1
MLEADERSTYLE
  2
AcDbMLeaderStyle
  3
ACDB_MLEADERSTYLE_CLASS
 90
     4095
 91
        0
280
     0
281
     0
  0
CLASS
  1
SORTENTSTABLE
  2
AcDbSortentsTable
  3
ObjectDBX Classes
 90
        0
 91
        6
280
     0
281
     0
  0
CLASS
  1
CELLSTYLEMAP
  2
AcDbCellStyleMap
  3
ObjectDBX Classes
 90
     1152
 91
        1
280
     0
281
     0
  0
CLASS
  1
DICTIONARYVAR
  2
AcDbDictionaryVar
  3
ObjectDBX Classes
 90
        0
 91
        7
280
     0
281
     0
  0
CLASS
  1
ACDB_DYNAMICBLOCKPURGEPREVENTER_VERSION
  2
AcDbDynamicBlockPurgePreventer
  3
ObjectDBX Classes
 90
     1153
 91
        0
280
     0
281
     0
  0
CLASS
  1
ACAD_TABLE
  2
AcDbTable
  3
ObjectDBX Classes
 90
     1025
 91
        0
280
     0
281
     1
  0
CLASS
  1
TABLECONTENT
  2
AcDbTableContent
  3
ObjectDBX Classes
 90
     1152
 91
        0
280
     0
281
     0
  0
CLASS
  1
TABLEGEOMETRY
  2
AcDbTableGeometry
  3
ObjectDBX Classes
 90
     1152
 91
        0
280
     0
281
     0
  0
CLASS
  1
SOLID_BACKGROUND
  2
AcDbSolidBackground
  3
SCENEOE
 90
     4095
 91
        0
280
     0
281
     0
  0
CLASS
  1
NPOCOLLECTION
  2
AcDbImpNonPersistentObjectsCollection
  3
ObjectDBX Classes
 90
     1153
 91
        0
280
     0
281
     0
  0
CLASS
  1
DIMASSOC
  2
AcDbDimAssoc
  3
"AcDbDimAssoc|Product Desc:     AcDim ARX App For Dimension|Company:          Autodesk, Inc.|WEB Address:      www.autodesk.com"
 90
        0
 91
        0
280
     0
281
     0
  0
CLASS
  1
EXACXREFPANELOBJECT
  2
ExAcXREFPanelObject
  3
EXAC_ESW
 90
     1025
 91
        0
280
     1
281
     0
  0
CLASS
  1
AEC_REFEDIT_STATUS_TRACKER
  2
AecDbRefEditStatusTracker
  3
AecArchBase60|Product Desc: Autodesk Architectural Desktop 2007 |Company: Autodesk,Inc. |WEB Address: www.autodesk.com
 90
      129
 91
        0
280
     0
281
     0
  0
ENDSEC
  0
SECTION
  2
TABLES
  0
TABLE
  2
VPORT
  5
2D
102
{ACAD_XDICTIONARY
360
31
102
}
330
0
100
AcDbSymbolTable
 70
     1
  0
VPORT
  5
2E
330
2D
100
AcDbSymbolTableRecord
100
AcDbViewportTableRecord
  2
*Active
 70
     0
 10
0.0
 20
0.0
 11
1.0
 21
1.0
 12
-293.3364743216139
 22
624.3025660926868
 13
0.0
 23
0.0
 14
1.0
 24
1.0
 15
100.0
 25
100.0
 16
0.0
 26
0.0
 36
1.0
 17
0.0
 27
0.0
 37
0.0
 40
1914.860565834161
 41
1.937738246505718
 42
50.0
 43
0.0
 44
0.0
 50
0.0
 51
0.0
 71
     0
 72
  1000
 73
     1
 74
     0
 75
     0
 76
     0
 77
     0
 78
     0
281
     0
 65
     1
110
0.0
120
0.0
130
0.0
111
1.0
121
0.0
131
0.0
112
0.0
122
1.0
132
0.0
 79
     0
146
0.0
348
2F
 60
     3
 61
     5
292
     1
282
     1
141
0.0
142
0.0
 63
   250
421
  3355443
  0
ENDTAB
  0
TABLE
  2
LTYPE
  5
28
330
0
100
AcDbSymbolTable
 70
     4
  0
LTYPE
  5
29
330
28
100
AcDbSymbolTableRecord
100
AcDbLinetypeTableRecord
  2
ByBlock
 70
     0
  3

 72
    65
 73
     0
 40
0.0
  0
LTYPE
  5
2A
330
28
100
AcDbSymbolTableRecord
100
AcDbLinetypeTableRecord
  2
ByLayer
 70
     0
  3

 72
    65
 73
     0
 40
0.0
  0
LTYPE
  5
15
330
28
100
AcDbSymbolTableRecord
100
AcDbLinetypeTableRecord
  2
CONTINUOUS
 70
     0
  3
Ausgezogene Linie
 72
    65
 73
     0
 40
0.0
  0
LTYPE
  5
7E
330
28
100
AcDbSymbolTableRecord
100
AcDbLinetypeTableRecord
  2
VERDECKT
 70
     0
  3
__ __ __ __ __ __ __ __ __ __ __ __ __ __ __ __
 72
    65
 73
     2
 40
0.375
 49
0.25
 74
     0
 49
-0.125
 74
     0
  0
LTYPE
  5
86
330
28
100
AcDbSymbolTableRecord
100
AcDbLinetypeTableRecord
  2
STRICHPUNKT
 70
     0
  3
__ . __ . __ . __ . __ . __ . __ . __ . __ . __
 72
    65
 73
     4
 40
1.0
 49
0.5
 74
     0
 49
-0.25
 74
     0
 49
0.0
 74
     0
 49
-0.25
 74
     0
  0
LTYPE
  5
2F7
330
28
100
AcDbSymbolTableRecord
100
AcDbLinetypeTableRecord
  2
AUSGEZOGEN
 70
     0
  3
Ausgezogene Linie
 72
    65
 73
     0
 40
0.0
  0
ENDTAB
  0
TABLE
  2
LAYER
  5
1F
102
{ACAD_XDICTIONARY
360
20
102
}
330
0
100
AcDbSymbolTable
 70
    11
  0
LAYER
  5
6
102
{ACAD_XDICTIONARY
360
7
102
}
330
1F
100
AcDbSymbolTableRecord
100
AcDbLayerTableRecord
  2
0
 70
     0
 62
     7
  6
CONTINUOUS
370
    -3
390
9
347
C
  0
LAYER
  5
21C
102
{ACAD_XDICTIONARY
360
21D
102
}
330
1F
100
AcDbSymbolTableRecord
100
AcDbLayerTableRecord
  2
01-01
 70
     0
 62
     2
  6
CONTINUOUS
370
    -3
390
9
347
C
  0
LAYER
  5
2B9
102
{ACAD_XDICTIONARY
360
2BA
102
}
330
1F
100
AcDbSymbolTableRecord
100
AcDbLayerTableRecord
  2
02-01
 70
     0
 62
     1
  6
CONTINUOUS
370
    -3
390
9
347
C
  0
LAYER
  5
7B
102
{ACAD_XDICTIONARY
360
7C
102
}
330
1F
100
AcDbSymbolTableRecord
100
AcDbLayerTableRecord
  2
03-01
 70
     0
 62
     3
  6
VERDECKT
370
    -3
390
9
347
C
  0
LAYER
  5
83
102
{ACAD_XDICTIONARY
360
84
102
}
330
1F
100
AcDbSymbolTableRecord
100
AcDbLayerTableRecord
  2
05-01
 70
     0
 62
     1
  6
STRICHPUNKT
370
    -3
390
9
347
C
  0
LAYER
  5
49C
102
{ACAD_XDICTIONARY
360
49D
102
}
330
1F
100
AcDbSymbolTableRecord
100
AcDbLayerTableRecord
  2
06-01
 70
     0
 62
     1
  6
CONTINUOUS
370
    -3
390
9
347
C
  0
LAYER
  5
50
102
{ACAD_XDICTIONARY
360
51
102
}
330
1F
100
AcDbSymbolTableRecord
100
AcDbLayerTableRecord
  2
09-01
 70
     0
 62
     7
  6
CONTINUOUS
370
    -3
390
9
347
C
  0
LAYER
  5
2B4
102
{ACAD_XDICTIONARY
360
2B5
102
}
330
1F
100
AcDbSymbolTableRecord
100
AcDbLayerTableRecord
  2
01-99
 70
     0
 62
     2
  6
CONTINUOUS
370
    -3
390
9
347
C
  0
LAYER
  5
2F4
102
{ACAD_XDICTIONARY
360
2F5
102
}
330
1F
100
AcDbSymbolTableRecord
100
AcDbLayerTableRecord
  2
06-99
 70
     0
 62
     1
  6
AUSGEZOGEN
370
    -3
390
9
347
C
  0
LAYER
  5
2DE
102
{ACAD_XDICTIONARY
360
2DF
102
}
330
1F
100
AcDbSymbolTableRecord
100
AcDbLayerTableRecord
  2
08-99
 70
     0
 62
     7
  6
CONTINUOUS
370
    -3
390
9
347
C
  0
LAYER
  5
1F1
330
1F
100
AcDbSymbolTableRecord
100
AcDbLayerTableRecord
  2
DEFPOINTS
 70
     0
 62
     7
  6
CONTINUOUS
290
     0
370
    -3
390
9
347
C
  0
ENDTAB
  0
TABLE
  2
STYLE
  5
25
330
0
100
AcDbSymbolTable
 70
     4
  0
STYLE
  5
26
330
25
100
AcDbSymbolTableRecord
100
AcDbTextStyleTableRecord
  2
STANDARD
 70
     0
 40
0.0
 41
1.0
 50
0.0
 71
     0
 42
3.5
  3
txt.shx
  4

  0
STYLE
  5
53
330
25
100
AcDbSymbolTableRecord
100
AcDbTextStyleTableRecord
  2
ROMANS
 70
     0
 40
0.0
 41
1.0
 50
0.0
 71
     0
 42
10.8483456105514
  3
arial.ttf
  4

1001
ACAD
1000
Arial
1071
       34
  0
STYLE
  5
2E1
330
25
100
AcDbSymbolTableRecord
100
AcDbTextStyleTableRecord
  2
ROMANS8
 70
     0
 40
0.0
 41
1.0
 50
0.0
 71
     0
 42
2.5
  3
ROMANS8
  4

  0
STYLE
  5
439
330
25
100
AcDbSymbolTableRecord
100
AcDbTextStyleTableRecord
  2
ROMAND8
 70
     0
 40
0.0
 41
1.0
 50
0.0
 71
     0
 42
3.5
  3
ROMAND8
  4

  0
ENDTAB
  0
TABLE
  2
VIEW
  5
2B
330
0
100
AcDbSymbolTable
 70
     0
  0
ENDTAB
  0
TABLE
  2
UCS
  5
2C
330
0
100
AcDbSymbolTable
 70
     0
  0
ENDTAB
  0
TABLE
  2
APPID
  5
32
330
0
100
AcDbSymbolTable
 70
     4
  0
APPID
  5
24
330
32
100
AcDbSymbolTableRecord
100
AcDbRegAppTableRecord
  2
ACAD
 70
     0
  0
APPID
  5
35
330
32
100
AcDbSymbolTableRecord
100
AcDbRegAppTableRecord
  2
ACAD_DSTYLE_DIMJOGGED_JOGANGLE_SYMBOL
 70
     0
  0
APPID
  5
36
330
32
100
AcDbSymbolTableRecord
100
AcDbRegAppTableRecord
  2
ACAD_DSTYLE_DIMJAG
 70
     0
  0
APPID
  5
37
330
32
100
AcDbSymbolTableRecord
100
AcDbRegAppTableRecord
  2
ACAD_DSTYLE_DIMTALN
 70
     0
  0
ENDTAB
  0
TABLE
  2
DIMSTYLE
  5
33
330
0
100
AcDbSymbolTable
 70
     2
100
AcDbDimStyleTable
 71
     1
340
34
  0
DIMSTYLE
105
34
330
33
100
AcDbSymbolTableRecord
100
AcDbDimStyleTableRecord
  2
Wagner
 70
     0
 41
2.5
 42
1.0
 43
10.0
 44
1.0
 73
     0
 74
     0
 77
     1
 78
     8
 79
     2
140
2.5
141
0.0
143
0.03937007874016
147
1.0
171
     3
172
     1
176
     4
177
     4
178
     1
179
     2
271
     1
272
     1
274
     3
283
     0
284
     8
340
26
1001
ACAD_DSTYLE_DIMJOGGED_JOGANGLE_SYMBOL
1070
   384
1040
0.7853981633974483
1001
ACAD_DSTYLE_DIMJAG
1070
   388
1040
1.5
1001
ACAD_DSTYLE_DIMTALN
1070
   392
1070
     0
  0
DIMSTYLE
105
1F5
102
{ACAD_REACTORS
330
481
330
48E
330
49F
330
4C3
330
4DA
330
4EC
330
4F9
330
285
330
277
330
26A
330
25D
330
250
330
243
330
236
330
205
330
1F6
330
1E5
102
}
330
33
100
AcDbSymbolTableRecord
100
AcDbDimStyleTableRecord
  2
Wagner$0
 70
     0
 41
2.5
 42
1.0
 43
10.0
 44
1.0
 73
     0
 74
     0
 77
     1
 78
     8
 79
     2
140
2.5
141
0.0
143
0.03937007874016
147
1.0
171
     3
172
     1
174
     1
176
     4
177
     4
178
     1
179
     2
271
     1
272
     1
274
     3
279
     2
283
     0
284
     8
340
26
1001
ACAD_DSTYLE_DIMJOGGED_JOGANGLE_SYMBOL
1070
   384
1040
0.7853981633974483
1001
ACAD_DSTYLE_DIMJAG
1070
   388
1040
1.5
1001
ACAD_DSTYLE_DIMTALN
1070
   392
1070
     0
  0
ENDTAB
  0
TABLE
  2
BLOCK_RECORD
  5
1
330
0
100
AcDbSymbolTable
 70
    20
  0
BLOCK_RECORD
  5
2
102
{ACAD_XDICTIONARY
360
3
102
}
330
1
100
AcDbSymbolTableRecord
100
AcDbBlockTableRecord
  2
*Model_Space
340
17
 70
     0
280
     1
281
     0
  0
BLOCK_RECORD
  5
1B
330
1
100
AcDbSymbolTableRecord
100
AcDbBlockTableRecord
  2
*Paper_Space
340
1E
 70
     0
280
     1
281
     0
  0
BLOCK_RECORD
  5
4FA
330
1
100
AcDbSymbolTableRecord
100
AcDbBlockTableRecord
  2
*D0
340
0
 70
     0
280
     1
281
     0
  0
BLOCK_RECORD
  5
4ED
330
1
100
AcDbSymbolTableRecord
100
AcDbBlockTableRecord
  2
*D1
340
0
 70
     0
280
     1
281
     0
  0
BLOCK_RECORD
  5
4DB
330
1
100
AcDbSymbolTableRecord
100
AcDbBlockTableRecord
  2
*D2
340
0
 70
     0
280
     1
281
     0
  0
BLOCK_RECORD
  5
4C4
330
1
100
AcDbSymbolTableRecord
100
AcDbBlockTableRecord
  2
*D3
340
0
 70
     0
280
     1
281
     0
  0
BLOCK_RECORD
  5
4A0
330
1
100
AcDbSymbolTableRecord
100
AcDbBlockTableRecord
  2
*D4
340
0
 70
     0
280
     1
281
     0
  0
BLOCK_RECORD
  5
48F
330
1
100
AcDbSymbolTableRecord
100
AcDbBlockTableRecord
  2
*D5
340
0
 70
     0
280
     1
281
     0
  0
BLOCK_RECORD
  5
482
330
1
100
AcDbSymbolTableRecord
100
AcDbBlockTableRecord
  2
*D6
340
0
 70
     0
280
     1
281
     0
  0
BLOCK_RECORD
  5
2AF
102
{ACAD_XDICTIONARY
360
2B0
102
}
330
1
100
AcDbSymbolTableRecord
100
AcDbBlockTableRecord
  2
DIN A3
340
0
102
{BLKREFS
331
2AE
102
}
 70
     4
280
     1
281
     0
  0
BLOCK_RECORD
  5
286
330
1
100
AcDbSymbolTableRecord
100
AcDbBlockTableRecord
  2
*D8
340
0
 70
     0
280
     1
281
     0
  0
BLOCK_RECORD
  5
278
330
1
100
AcDbSymbolTableRecord
100
AcDbBlockTableRecord
  2
*D9
340
0
 70
     0
280
     1
281
     0
  0
BLOCK_RECORD
  5
26B
330
1
100
AcDbSymbolTableRecord
100
AcDbBlockTableRecord
  2
*D10
340
0
 70
     0
280
     1
281
     0
  0
BLOCK_RECORD
  5
25E
330
1
100
AcDbSymbolTableRecord
100
AcDbBlockTableRecord
  2
*D11
340
0
 70
     0
280
     1
281
     0
  0
BLOCK_RECORD
  5
251
330
1
100
AcDbSymbolTableRecord
100
AcDbBlockTableRecord
  2
*D12
340
0
 70
     0
280
     1
281
     0
  0
BLOCK_RECORD
  5
244
330
1
100
AcDbSymbolTableRecord
100
AcDbBlockTableRecord
  2
*D13
340
0
 70
     0
280
     1
281
     0
  0
BLOCK_RECORD
  5
237
330
1
100
AcDbSymbolTableRecord
100
AcDbBlockTableRecord
  2
*D14
340
0
 70
     0
280
     1
281
     0
  0
BLOCK_RECORD
  5
206
330
1
100
AcDbSymbolTableRecord
100
AcDbBlockTableRecord
  2
*D15
340
0
 70
     0
280
     1
281
     0
  0
BLOCK_RECORD
  5
1F7
330
1
100
AcDbSymbolTableRecord
100
AcDbBlockTableRecord
  2
*D16
340
0
 70
     0
280
     1
281
     0
  0
BLOCK_RECORD
  5
1E6
330
1
100
AcDbSymbolTableRecord
100
AcDbBlockTableRecord
  2
*D17
340
0
 70
     0
280
     1
281
     0
  0
BLOCK_RECORD
  5
178
330
1
100
AcDbSymbolTableRecord
100
AcDbBlockTableRecord
  2
Sensor-Betätigungsmodul
340
0
310
2800000020000000200000000100080000000000000400000000000000000000000000000000000000000000000080000080000000808000800000008000800080800000C0C0C000C0DCC000F0CAA6000020400000206000002080000020A0000020C0000020E00000400000004020000040400000406000004080000040A0
310
000040C0000040E00000600000006020000060400000606000006080000060A0000060C0000060E00000800000008020000080400000806000008080000080A0000080C0000080E00000A0000000A0200000A0400000A0600000A0800000A0A00000A0C00000A0E00000C0000000C0200000C0400000C0600000C0800000C0
310
A00000C0C00000C0E00000E0000000E0200000E0400000E0600000E0800000E0A00000E0C00000E0E00040000000400020004000400040006000400080004000A0004000C0004000E00040200000402020004020400040206000402080004020A0004020C0004020E000404000004040200040404000404060004040800040
310
40A0004040C0004040E00040600000406020004060400040606000406080004060A0004060C0004060E00040800000408020004080400040806000408080004080A0004080C0004080E00040A0000040A0200040A0400040A0600040A0800040A0A00040A0C00040A0E00040C0000040C0200040C0400040C0600040C08000
310
40C0A00040C0C00040C0E00040E0000040E0200040E0400040E0600040E0800040E0A00040E0C00040E0E00080000000800020008000400080006000800080008000A0008000C0008000E00080200000802020008020400080206000802080008020A0008020C0008020E00080400000804020008040400080406000804080
310
008040A0008040C0008040E00080600000806020008060400080606000806080008060A0008060C0008060E00080800000808020008080400080806000808080008080A0008080C0008080E00080A0000080A0200080A0400080A0600080A0800080A0A00080A0C00080A0E00080C0000080C0200080C0400080C0600080C0
310
800080C0A00080C0C00080C0E00080E0000080E0200080E0400080E0600080E0800080E0A00080E0C00080E0E000C0000000C0002000C0004000C0006000C0008000C000A000C000C000C000E000C0200000C0202000C0204000C0206000C0208000C020A000C020C000C020E000C0400000C0402000C0404000C0406000C0
310
408000C040A000C040C000C040E000C0600000C0602000C0604000C0606000C0608000C060A000C060C000C060E000C0800000C0802000C0804000C0806000C0808000C080A000C080C000C080E000C0A00000C0A02000C0A04000C0A06000C0A08000C0A0A000C0A0C000C0A0E000C0C00000C0C02000C0C04000C0C06000
310
C0C08000C0C0A000F0FBFF00A4A0A000808080000000FF0000FF000000FFFF00FF000000FF00FF00FFFF0000FFFFFF000000000000000000000000000000000000000000000000000000000000000000000000000000000000000000000000000000FFFF0000000000000000000000000000000000000000000000FAFFFFFF
310
FFFFFFFF00FFFF000000000000000000000000000000000000000000FF000000FFFF0000FF00FF0000000000000000000000000000000000000000FFFA0000000000FF0000FF0000000000000000000000000000000000000000FFFFFA000000000000FFFFFAFAFF000000000000000000000000000000000000FFFFFA0000
310
00F900000000FFFAFF000000000000000000000000000000000000FFFFFA0000F9F9F9000000FFFAFF000000000000000000000000000000000000FFFFFA000000F900000000FFFAFF000000000000000000000000000000000000FFFFFA0000000000000000FFFAFF000000000000000000000000000000000000FFFFFA00
310
00000000000000FFFAFF00000000000000000000000000000000000000FFFA0000000000000000FFFAFF00000000000000000000000000000000000000FF000000000000000000FFFAFF00000000000000000000000000000000000000FF000000000000000000FFFAFF00000000000000000000000000000000000000FF00
310
0000000000000000FFFAFF00000000000000000000000000000000000000FF000000000000000000FFFAFF00000000000000000000000000000000000000FF000000000000000000FFFAFF00000000000000000000000000000000000000FF000000000000000000FF000000000000000000000000000000000000000000FF
310
000000000000000000FF000000000000000000000000000000000000000000FF000000000000000000FF000000000000000000000000000000000000000000FF000000000000000000FF0000000000000000000000000000000000000000FFFF000000000000000000FF0000000000000000000000000000000000000000FF
310
FF00000000F9000000FFFF0000000000000000000000000000000000000000FFFF000000F9F9F90000FF000000000000000000000000000000000000000000FFFF00000000F90000FFFF000000000000000000000000000000000000000000FFFF00000000000000FFFF000000000000000000000000000000000000000000
310
FFFF000000000000FFFF0000000000000000000000000000000000000000000000FF00FAFAFAFA00FFFF0000000000000000000000000000000000000000000000FFFFFAFFFFFAFFFF00000000000000000000000000000000000000000000000000FFFAFAFAFA00FF00000000000000000000000000000000000000000000
310
000000FFFFFFFFFFFF0000000000000000000000000000000000000000000000000000000000000000000000000000000000000000000000
102
{BLKREFS
331
177
102
}
 70
     4
280
     1
281
     0
  0
BLOCK_RECORD
  5
13E
102
{ACAD_XDICTIONARY
360
13F
102
}
330
1
100
AcDbSymbolTableRecord
100
AcDbBlockTableRecord
  2
e-modul draufsicht
340
0
102
{BLKREFS
331
13D
102
}
 70
     0
280
     1
281
     0
  0
ENDTAB
  0
ENDSEC
  0
SECTION
  2
BLOCKS
  0
BLOCK
  5
5
330
2
100
AcDbEntity
  8
0
100
AcDbBlockBegin
  2
*Model_Space
 70
     0
 10
0.0
 20
0.0
 30
0.0
  3
*Model_Space
  1

  0
ENDBLK
  5
16
330
2
100
AcDbEntity
  8
0
100
AcDbBlockEnd
  0
BLOCK
  5
1C
330
1B
100
AcDbEntity
 67
     1
  8
0
100
AcDbBlockBegin
  2
*Paper_Space
 70
     0
 10
0.0
 20
0.0
 30
0.0
  3
*Paper_Space
  1

  0
ENDBLK
  5
1D
330
1B
100
AcDbEntity
 67
     1
  8
0
100
AcDbBlockEnd
  0
BLOCK
  5
4FB
330
4FA
100
AcDbEntity
  8
0
100
AcDbBlockBegin
  2
*D0
 70
     1
 10
0.0
 20
0.0
 30
0.0
  3
*D0
  1

  0
LINE
  5
4FC
330
4FA
100
AcDbEntity
  8
09-01
 62
     4
370
    -2
100
AcDbLine
 10
650.9059092437048
 20
613.8836082567254
 30
0.0
 11
632.1891643975289
 21
613.8836082567254
 31
0.0
  0
LINE
  5
4FD
330
4FA
100
AcDbEntity
  8
09-01
 62
     4
370
    -2
100
AcDbLine
 10
650.9059092437048
 20
315.8836082567256
 30
0.0
 11
632.1891643975289
 21
315.8836082567256
 31
0.0
  0
LINE
  5
4FE
330
4FA
100
AcDbEntity
  8
09-01
 62
     4
370
    -2
100
AcDbLine
 10
634.6891643975289
 20
607.6336082567254
 30
0.0
 11
634.6891643975289
 21
322.1336082567256
 31
0.0
  0
SOLID
  5
4FF
330
4FA
100
AcDbEntity
  8
09-01
 62
     4
100
AcDbTrace
 10
633.6474977308622
 20
607.6336082567254
 30
0.0
 11
635.7308310641955
 21
607.6336082567254
 31
0.0
 12
634.6891643975289
 22
613.8836082567254
 32
0.0
 13
634.6891643975289
 23
613.8836082567254
 33
0.0
  0
SOLID
  5
500
330
4FA
100
AcDbEntity
  8
09-01
 62
     4
100
AcDbTrace
 10
633.6474977308622
 20
322.1336082567256
 30
0.0
 11
635.7308310641955
 21
322.1336082567256
 31
0.0
 12
634.6891643975289
 22
315.8836082567256
 32
0.0
 13
634.6891643975289
 23
315.8836082567256
 33
0.0
  0
MTEXT
  5
501
330
4FA
100
AcDbEntity
  8
09-01
 62
     1
100
AcDbMText
 10
629.0641643975288
 20
464.8836082567256
 30
0.0
 40
6.25
 41
0.0
 46
0.0
 71
     5
 72
     1
  1
298
 11
0.0000000000000001
 21
1.0
 31
0.0
 73
     1
 44
1.0
  0
POINT
  5
502
330
4FA
100
AcDbEntity
  8
DEFPOINTS
 62
     0
100
AcDbPoint
 10
653.4059092437048
 20
613.8836082567254
 30
0.0
  0
POINT
  5
503
330
4FA
100
AcDbEntity
  8
DEFPOINTS
 62
     0
100
AcDbPoint
 10
653.4059092437048
 20
315.8836082567256
 30
0.0
  0
POINT
  5
504
330
4FA
100
AcDbEntity
  8
DEFPOINTS
 62
     0
100
AcDbPoint
 10
634.6891643975289
 20
315.8836082567256
 30
0.0
  0
ENDBLK
  5
505
330
4FA
100
AcDbEntity
  8
0
100
AcDbBlockEnd
  0
BLOCK
  5
4EE
330
4ED
100
AcDbEntity
  8
0
100
AcDbBlockBegin
  2
*D1
 70
     1
 10
0.0
 20
0.0
 30
0.0
  3
*D1
  1

  0
LINE
  5
4EF
330
4ED
100
AcDbEntity
  8
09-01
 62
     4
370
    -2
100
AcDbLine
 10
653.4059092437048
 20
616.3836082567254
 30
0.0
 11
653.4059092437048
 21
632.1576966013553
 31
0.0
  0
LINE
  5
4F0
330
4ED
100
AcDbEntity
  8
09-01
 62
     4
370
    -2
100
AcDbLine
 10
763.4059092437048
 20
616.3836082567254
 30
0.0
 11
763.4059092437048
 21
632.1576966013553
 31
0.0
  0
LINE
  5
4F1
330
4ED
100
AcDbEntity
  8
09-01
 62
     4
370
    -2
100
AcDbLine
 10
659.6559092437048
 20
629.6576966013553
 30
0.0
 11
757.1559092437048
 21
629.6576966013553
 31
0.0
  0
SOLID
  5
4F2
330
4ED
100
AcDbEntity
  8
09-01
 62
     4
100
AcDbTrace
 10
659.6559092437048
 20
630.699363268022
 30
0.0
 11
659.6559092437048
 21
628.6160299346887
 31
0.0
 12
653.4059092437048
 22
629.6576966013553
 32
0.0
 13
653.4059092437048
 23
629.6576966013553
 33
0.0
  0
SOLID
  5
4F3
330
4ED
100
AcDbEntity
  8
09-01
 62
     4
100
AcDbTrace
 10
757.1559092437048
 20
630.699363268022
 30
0.0
 11
757.1559092437048
 21
628.6160299346887
 31
0.0
 12
763.4059092437048
 22
629.6576966013553
 32
0.0
 13
763.4059092437048
 23
629.6576966013553
 33
0.0
  0
MTEXT
  5
4F4
330
4ED
100
AcDbEntity
  8
09-01
 62
     1
100
AcDbMText
 10
708.4059092437049
 20
635.2826966013553
 30
0.0
 40
6.25
 41
0.0
 46
0.0
 71
     5
 72
     1
  1
110
 73
     1
 44
1.0
  0
POINT
  5
4F5
330
4ED
100
AcDbEntity
  8
DEFPOINTS
 62
     0
100
AcDbPoint
 10
653.4059092437048
 20
613.8836082567254
 30
0.0
  0
POINT
  5
4F6
330
4ED
100
AcDbEntity
  8
DEFPOINTS
 62
     0
100
AcDbPoint
 10
763.4059092437048
 20
613.8836082567254
 30
0.0
  0
POINT
  5
4F7
330
4ED
100
AcDbEntity
  8
DEFPOINTS
 62
     0
100
AcDbPoint
 10
763.4059092437048
 20
629.6576966013553
 30
0.0
  0
ENDBLK
  5
4F8
330
4ED
100
AcDbEntity
  8
0
100
AcDbBlockEnd
  0
BLOCK
  5
4DC
330
4DB
100
AcDbEntity
  8
0
100
AcDbBlockBegin
  2
*D2
 70
     1
 10
0.0
 20
0.0
 30
0.0
  3
*D2
  1

  0
LINE
  5
4DD
330
4DB
100
AcDbEntity
  8
09-01
 62
     4
370
    -2
100
AcDbLine
 10
653.4059092437048
 20
623.6467493104846
 30
0.0
 11
653.4059092437048
 21
644.1972914953275
 31
0.0
  0
LINE
  5
4DE
330
4DB
100
AcDbEntity
  8
09-01
 62
     4
370
    -2
100
AcDbLine
 10
773.4059120085321
 20
615.4273574339201
 30
0.0
 11
773.4059120085321
 21
644.1972914953275
 31
0.0
  0
LINE
  5
4DF
330
4DB
100
AcDbEntity
  8
09-01
 62
     4
370
    -2
100
AcDbLine
 10
659.6559092437048
 20
641.6972914953276
 30
0.0
 11
767.1559120085321
 21
641.6972914953276
 31
0.0
  0
SOLID
  5
4E0
330
4DB
100
AcDbEntity
  8
09-01
 62
     4
100
AcDbTrace
 10
659.6559092437048
 20
642.7389581619942
 30
0.0
 11
659.6559092437048
 21
640.655624828661
 31
0.0
 12
653.4059092437048
 22
641.6972914953276
 32
0.0
 13
653.4059092437048
 23
641.6972914953276
 33
0.0
  0
SOLID
  5
4E1
330
4DB
100
AcDbEntity
  8
09-01
 62
     4
100
AcDbTrace
 10
767.1559120085321
 20
642.7389581619942
 30
0.0
 11
767.1559120085321
 21
640.655624828661
 31
0.0
 12
773.4059120085321
 22
641.6972914953276
 32
0.0
 13
773.4059120085321
 23
641.6972914953276
 33
0.0
  0
MTEXT
  5
4E2
330
4DB
100
AcDbEntity
  8
09-01
 62
     1
100
AcDbMText
 10
713.4059106261185
 20
647.3222914953275
 30
0.0
 40
6.25
 41
0.0
 46
0.0
 71
     5
 72
     1
  1
120
 73
     1
 44
1.0
  0
POINT
  5
4E3
330
4DB
100
AcDbEntity
  8
DEFPOINTS
 62
     0
100
AcDbPoint
 10
653.4059092437048
 20
621.1467493104846
 30
0.0
  0
POINT
  5
4E4
330
4DB
100
AcDbEntity
  8
DEFPOINTS
 62
     0
100
AcDbPoint
 10
773.4059120085321
 20
612.9273574339201
 30
0.0
  0
POINT
  5
4E5
330
4DB
100
AcDbEntity
  8
DEFPOINTS
 62
     0
100
AcDbPoint
 10
773.4059120085321
 20
641.6972914953276
 30
0.0
  0
ENDBLK
  5
4E6
330
4DB
100
AcDbEntity
  8
0
100
AcDbBlockEnd
  0
BLOCK
  5
4C5
330
4C4
100
AcDbEntity
  8
0
100
AcDbBlockBegin
  2
*D3
 70
     1
 10
0.0
 20
0.0
 30
0.0
  3
*D3
  1

  0
LINE
  5
4C6
330
4C4
100
AcDbEntity
  8
09-01
 62
     4
370
    -2
100
AcDbLine
 10
775.9059120085323
 20
334.9273574339202
 30
0.0
 11
795.7771891145557
 21
334.9273574339202
 31
0.0
  0
LINE
  5
4C7
330
4C4
100
AcDbEntity
  8
09-01
 62
     4
370
    -2
100
AcDbLine
 10
775.9059120085321
 20
612.9273574339201
 30
0.0
 11
795.7771891145557
 21
612.9273574339201
 31
0.0
  0
LINE
  5
4C8
330
4C4
100
AcDbEntity
  8
09-01
 62
     4
370
    -2
100
AcDbLine
 10
793.2771891145558
 20
341.1773574339202
 30
0.0
 11
793.2771891145558
 21
606.6773574339201
 31
0.0
  0
SOLID
  5
4C9
330
4C4
100
AcDbEntity
  8
09-01
 62
     4
100
AcDbTrace
 10
792.2355224478891
 20
341.1773574339202
 30
0.0
 11
794.3188557812224
 21
341.1773574339202
 31
0.0
 12
793.2771891145558
 22
334.9273574339202
 32
0.0
 13
793.2771891145558
 23
334.9273574339202
 33
0.0
  0
SOLID
  5
4CA
330
4C4
100
AcDbEntity
  8
09-01
 62
     4
100
AcDbTrace
 10
792.2355224478891
 20
606.6773574339201
 30
0.0
 11
794.3188557812224
 21
606.6773574339201
 31
0.0
 12
793.2771891145558
 22
612.9273574339201
 32
0.0
 13
793.2771891145558
 23
612.9273574339201
 33
0.0
  0
MTEXT
  5
4CB
330
4C4
100
AcDbEntity
  8
09-01
 62
     1
100
AcDbMText
 10
787.6521891145556
 20
473.9273574339203
 30
0.0
 40
6.25
 41
0.0
 46
0.0
 71
     5
 72
     1
  1
278
 11
0.0000000000000001
 21
1.0
 31
0.0
 73
     1
 44
1.0
  0
POINT
  5
4CC
330
4C4
100
AcDbEntity
  8
DEFPOINTS
 62
     0
100
AcDbPoint
 10
773.4059120085324
 20
334.9273574339202
 30
0.0
  0
POINT
  5
4CD
330
4C4
100
AcDbEntity
  8
DEFPOINTS
 62
     0
100
AcDbPoint
 10
773.4059120085321
 20
612.9273574339201
 30
0.0
  0
POINT
  5
4CE
330
4C4
100
AcDbEntity
  8
DEFPOINTS
 62
     0
100
AcDbPoint
 10
793.2771891145558
 20
612.9273574339201
 30
0.0
  0
ENDBLK
  5
4CF
330
4C4
100
AcDbEntity
  8
0
100
AcDbBlockEnd
  0
BLOCK
  5
4A1
330
4A0
100
AcDbEntity
  8
0
100
AcDbBlockBegin
  2
*D4
 70
     1
 10
0.0
 20
0.0
 30
0.0
  3
*D4
  1

  0
LINE
  5
4A2
330
4A0
100
AcDbEntity
  8
09-01
 62
     4
370
    -2
100
AcDbLine
 10
527.9436399503624
 20
613.8836082567254
 30
0.0
 11
546.2130698231008
 21
613.8836082567254
 31
0.0
  0
LINE
  5
4A3
330
4A0
100
AcDbEntity
  8
09-01
 62
     4
370
    -2
100
AcDbLine
 10
527.9436399503622
 20
315.8836082567254
 30
0.0
 11
546.2130698231008
 21
315.8836082567254
 31
0.0
  0
LINE
  5
4A4
330
4A0
100
AcDbEntity
  8
09-01
 62
     4
370
    -2
100
AcDbLine
 10
543.7130698231007
 20
607.6336082567254
 30
0.0
 11
543.7130698231007
 21
322.1336082567254
 31
0.0
  0
SOLID
  5
4A5
330
4A0
100
AcDbEntity
  8
09-01
 62
     4
100
AcDbTrace
 10
542.6714031564341
 20
607.6336082567254
 30
0.0
 11
544.7547364897673
 21
607.6336082567254
 31
0.0
 12
543.7130698231007
 22
613.8836082567254
 32
0.0
 13
543.7130698231007
 23
613.8836082567254
 33
0.0
  0
SOLID
  5
4A6
330
4A0
100
AcDbEntity
  8
09-01
 62
     4
100
AcDbTrace
 10
542.6714031564341
 20
322.1336082567254
 30
0.0
 11
544.7547364897673
 21
322.1336082567254
 31
0.0
 12
543.7130698231007
 22
315.8836082567254
 32
0.0
 13
543.7130698231007
 23
315.8836082567254
 33
0.0
  0
MTEXT
  5
4A7
330
4A0
100
AcDbEntity
  8
09-01
 62
     1
100
AcDbMText
 10
538.0880698231006
 20
464.8836082567255
 30
0.0
 40
6.25
 41
0.0
 46
0.0
 71
     5
 72
     1
  1
298
 11
0.0000000000000001
 21
1.0
 31
0.0
 73
     1
 44
1.0
  0
POINT
  5
4A8
330
4A0
100
AcDbEntity
  8
DEFPOINTS
 62
     0
100
AcDbPoint
 10
525.4436399503624
 20
613.8836082567254
 30
0.0
  0
POINT
  5
4A9
330
4A0
100
AcDbEntity
  8
DEFPOINTS
 62
     0
100
AcDbPoint
 10
525.4436399503622
 20
315.8836082567254
 30
0.0
  0
POINT
  5
4AA
330
4A0
100
AcDbEntity
  8
DEFPOINTS
 62
     0
100
AcDbPoint
 10
543.7130698231007
 20
315.8836082567254
 30
0.0
  0
ENDBLK
  5
4AB
330
4A0
100
AcDbEntity
  8
0
100
AcDbBlockEnd
  0
BLOCK
  5
490
330
48F
100
AcDbEntity
  8
0
100
AcDbBlockBegin
  2
*D5
 70
     1
 10
0.0
 20
0.0
 30
0.0
  3
*D5
  1

  0
LINE
  5
491
330
48F
100
AcDbEntity
  8
09-01
 62
     4
370
    -2
100
AcDbLine
 10
525.8432797382901
 20
215.4807090720857
 30
0.0
 11
525.8432797382901
 21
227.9304937218929
 31
0.0
  0
LINE
  5
492
330
48F
100
AcDbEntity
  8
09-01
 62
     4
370
    -2
100
AcDbLine
 10
125.8432797382903
 20
215.4807090720856
 30
0.0
 11
125.8432797382903
 21
227.9304937218929
 31
0.0
  0
LINE
  5
493
330
48F
100
AcDbEntity
  8
09-01
 62
     4
370
    -2
100
AcDbLine
 10
519.5932797382901
 20
225.4304937218929
 30
0.0
 11
132.0932797382903
 21
225.4304937218929
 31
0.0
  0
SOLID
  5
494
330
48F
100
AcDbEntity
  8
09-01
 62
     4
100
AcDbTrace
 10
519.5932797382901
 20
226.4721603885596
 30
0.0
 11
519.5932797382901
 21
224.3888270552263
 31
0.0
 12
525.8432797382901
 22
225.4304937218929
 32
0.0
 13
525.8432797382901
 23
225.4304937218929
 33
0.0
  0
SOLID
  5
495
330
48F
100
AcDbEntity
  8
09-01
 62
     4
100
AcDbTrace
 10
132.0932797382903
 20
226.4721603885596
 30
0.0
 11
132.0932797382903
 21
224.3888270552263
 31
0.0
 12
125.8432797382903
 22
225.4304937218929
 32
0.0
 13
125.8432797382903
 23
225.4304937218929
 33
0.0
  0
MTEXT
  5
496
330
48F
100
AcDbEntity
  8
09-01
 62
     1
100
AcDbMText
 10
325.8432797382902
 20
231.0554937218929
 30
0.0
 40
6.25
 41
0.0
 46
0.0
 71
     5
 72
     1
  1
400
 73
     1
 44
1.0
  0
POINT
  5
497
330
48F
100
AcDbEntity
  8
DEFPOINTS
 62
     0
100
AcDbPoint
 10
525.8432797382901
 20
212.9807090720857
 30
0.0
  0
POINT
  5
498
330
48F
100
AcDbEntity
  8
DEFPOINTS
 62
     0
100
AcDbPoint
 10
125.8432797382903
 20
212.9807090720856
 30
0.0
  0
POINT
  5
499
330
48F
100
AcDbEntity
  8
DEFPOINTS
 62
     0
100
AcDbPoint
 10
125.8432797382903
 20
225.4304937218929
 30
0.0
  0
ENDBLK
  5
49A
330
48F
100
AcDbEntity
  8
0
100
AcDbBlockEnd
  0
BLOCK
  5
483
330
482
100
AcDbEntity
  8
0
100
AcDbBlockBegin
  2
*D6
 70
     1
 10
0.0
 20
0.0
 30
0.0
  3
*D6
  1

  0
LINE
  5
484
330
482
100
AcDbEntity
  8
09-01
 62
     4
370
    -2
100
AcDbLine
 10
123.3432797382903
 20
212.9807090720856
 30
0.0
 11
104.0400828284411
 21
212.9807090720856
 31
0.0
  0
LINE
  5
485
330
482
100
AcDbEntity
  8
09-01
 62
     4
370
    -2
100
AcDbLine
 10
124.3432797382903
 20
92.98070907208558
 30
0.0
 11
104.040082828441
 21
92.98070907208558
 31
0.0
  0
LINE
  5
486
330
482
100
AcDbEntity
  8
09-01
 62
     4
370
    -2
100
AcDbLine
 10
106.540082828441
 20
206.7307090720856
 30
0.0
 11
106.540082828441
 21
99.23070907208558
 31
0.0
  0
SOLID
  5
487
330
482
100
AcDbEntity
  8
09-01
 62
     4
100
AcDbTrace
 10
105.4984161617744
 20
206.7307090720856
 30
0.0
 11
107.5817494951077
 21
206.7307090720856
 31
0.0
 12
106.540082828441
 22
212.9807090720856
 32
0.0
 13
106.540082828441
 23
212.9807090720856
 33
0.0
  0
SOLID
  5
488
330
482
100
AcDbEntity
  8
09-01
 62
     4
100
AcDbTrace
 10
105.4984161617743
 20
99.23070907208558
 30
0.0
 11
107.5817494951077
 21
99.23070907208558
 31
0.0
 12
106.540082828441
 22
92.98070907208558
 32
0.0
 13
106.540082828441
 23
92.98070907208558
 33
0.0
  0
MTEXT
  5
489
330
482
100
AcDbEntity
  8
09-01
 62
     1
100
AcDbMText
 10
100.915082828441
 20
152.9807090720856
 30
0.0
 40
6.25
 41
0.0
 46
0.0
 71
     5
 72
     1
  1
120
 11
0.0000000000000001
 21
1.0
 31
0.0
 73
     1
 44
1.0
  0
POINT
  5
48A
330
482
100
AcDbEntity
  8
DEFPOINTS
 62
     0
100
AcDbPoint
 10
125.8432797382903
 20
212.9807090720856
 30
0.0
  0
POINT
  5
48B
330
482
100
AcDbEntity
  8
DEFPOINTS
 62
     0
100
AcDbPoint
 10
126.8432797382903
 20
92.98070907208558
 30
0.0
  0
POINT
  5
48C
330
482
100
AcDbEntity
  8
DEFPOINTS
 62
     0
100
AcDbPoint
 10
106.540082828441
 20
92.98070907208558
 30
0.0
  0
ENDBLK
  5
48D
330
482
100
AcDbEntity
  8
0
100
AcDbBlockEnd
  0
BLOCK
  5
2B2
330
2AF
100
AcDbEntity
  8
0
100
AcDbBlockBegin
  2
DIN A3
 70
     2
 10
0.0
 20
0.0
 30
0.0
  3
DIN A3
  1

  0
LINE
  5
2B3
330
2AF
100
AcDbEntity
  8
01-99
100
AcDbLine
 10
412.9999997697348
 20
290.0000007613509
 30
0.0
 11
6.999999769775513
 21
290.0000007613508
 31
0.0
  0
LINE
  5
2B7
330
2AF
100
AcDbEntity
  8
01-99
100
AcDbLine
 10
6.999999769775286
 20
7.000000761378942
 30
0.0
 11
6.999999769775513
 21
290.0000007613508
 31
0.0
  0
LINE
  5
2B8
330
2AF
100
AcDbEntity
  8
02-01
100
AcDbLine
 10
419.9999997697341
 20
297.0000007613501
 30
0.0
 11
-0.0000002302240318
 21
297.0000007613501
 31
0.0
  0
LINE
  5
2BC
330
2AF
100
AcDbEntity
  8
02-01
100
AcDbLine
 10
-0.0000002302240318
 20
297.0000007613501
 30
0.0
 11
-0.0000002302240318
 21
0.0000007613796242
 31
0.0
  0
LINE
  5
2BD
330
2AF
100
AcDbEntity
  8
02-01
100
AcDbLine
 10
-0.0000002302240318
 20
0.0000007613796242
 30
0.0
 11
419.9999997697341
 21
0.0000007613796242
 31
0.0
  0
LINE
  5
2BE
330
2AF
100
AcDbEntity
  8
02-01
100
AcDbLine
 10
419.9999997697341
 20
0.0000007613796242
 30
0.0
 11
419.9999997697341
 21
297.0000007613501
 31
0.0
  0
LINE
  5
2BF
330
2AF
100
AcDbEntity
  8
01-99
100
AcDbLine
 10
412.9999997697348
 20
290.0000007613509
 30
0.0
 11
412.9999997697348
 21
7.000000761379055
 31
0.0
  0
LINE
  5
2C0
330
2AF
100
AcDbEntity
  8
01-99
100
AcDbLine
 10
412.9999997697348
 20
7.000000761379055
 30
0.0
 11
6.999999769775286
 21
7.000000761378942
 31
0.0
  0
LINE
  5
2C1
330
2AF
100
AcDbEntity
  8
01-99
100
AcDbLine
 10
412.9999997697348
 20
53.00000076137905
 30
0.0
 11
228.999999769733
 21
53.00000076137894
 31
0.0
  0
LINE
  5
2C2
330
2AF
100
AcDbEntity
  8
01-99
100
AcDbLine
 10
228.999999769733
 20
53.00000076137894
 30
0.0
 11
228.999999769733
 21
7.000000761378942
 31
0.0
  0
LINE
  5
2C3
330
2AF
100
AcDbEntity
  8
01-99
100
AcDbLine
 10
278.9999997697348
 20
12.11111187237895
 30
0.0
 11
228.9999997697348
 21
12.11111187237895
 31
0.0
  0
LINE
  5
2C4
330
2AF
100
AcDbEntity
  8
01-99
100
AcDbLine
 10
278.9999997697348
 20
17.22222298337897
 30
0.0
 11
228.9999997697348
 21
17.22222298337897
 31
0.0
  0
LINE
  5
2C5
330
2AF
100
AcDbEntity
  8
01-99
100
AcDbLine
 10
278.9999997697348
 20
22.33333409437898
 30
0.0
 11
228.9999997697348
 21
22.33333409437893
 31
0.0
  0
LINE
  5
2C6
330
2AF
100
AcDbEntity
  8
01-99
100
AcDbLine
 10
323.9999997697348
 20
27.444445205379
 30
0.0
 11
228.9999997697348
 21
27.44444520537894
 31
0.0
  0
LINE
  5
2C7
330
2AF
100
AcDbEntity
  8
01-99
100
AcDbLine
 10
323.9999997697348
 20
32.55555631637901
 30
0.0
 11
228.9999997697348
 21
32.55555631637895
 31
0.0
  0
LINE
  5
2C8
330
2AF
100
AcDbEntity
  8
01-99
100
AcDbLine
 10
253.9999997697348
 20
7.000000761378942
 30
0.0
 11
253.9999997697348
 21
12.11111187237895
 31
0.0
  0
LINE
  5
2C9
330
2AF
100
AcDbEntity
  8
01-99
100
AcDbLine
 10
236.9999997697348
 20
12.11111187237895
 30
0.0
 11
236.9999997697348
 21
37.66666742804563
 31
0.0
  0
LINE
  5
2CA
330
2AF
100
AcDbEntity
  8
01-99
100
AcDbLine
 10
278.9999997697348
 20
7.000000761378942
 30
0.0
 11
278.9999997697348
 21
53.00000076137894
 31
0.0
  0
LINE
  5
2CB
330
2AF
100
AcDbEntity
  8
01-99
100
AcDbLine
 10
323.9999997697348
 20
7.000000761378942
 30
0.0
 11
323.9999997697348
 21
53.00000076137894
 31
0.0
  0
LINE
  5
2CC
330
2AF
100
AcDbEntity
  8
01-99
100
AcDbLine
 10
353.4999997697348
 20
7.000000761378942
 30
0.0
 11
353.4999997697348
 21
17.22222298337903
 31
0.0
  0
LINE
  5
2CD
330
2AF
100
AcDbEntity
  8
01-99
100
AcDbLine
 10
385.9999997697348
 20
7.000000761378942
 30
0.0
 11
385.9999997697348
 21
17.22222298337908
 31
0.0
  0
LINE
  5
2CE
330
2AF
100
AcDbEntity
  8
01-99
100
AcDbLine
 10
357.4999997697348
 20
37.66666742804569
 30
0.0
 11
357.4999997697348
 21
53.00000076137905
 31
0.0
  0
LINE
  5
2CF
330
2AF
100
AcDbEntity
  8
01-99
100
AcDbLine
 10
390.9999997697348
 20
37.66666742804569
 30
0.0
 11
390.9999997697348
 21
53.00000076137905
 31
0.0
  0
LINE
  5
2D0
330
2AF
100
AcDbEntity
  8
01-99
100
AcDbLine
 10
286.9999997697348
 20
22.33333409471232
 30
0.0
 11
286.9999997697348
 21
37.66666742804569
 31
0.0
  0
LINE
  5
2D1
330
2AF
100
AcDbEntity
  8
01-99
100
AcDbLine
 10
269.0031881091643
 20
12.11111187237895
 30
0.0
 11
269.0031881091643
 21
37.66666742804563
 31
0.0
  0
LINE
  5
2D2
330
2AF
100
AcDbEntity
  8
01-99
100
AcDbLine
 10
257.0031881091643
 20
12.11111187237895
 30
0.0
 11
257.0031881091643
 21
37.66666742804563
 31
0.0
  0
LINE
  5
2D3
330
2AF
100
AcDbEntity
  8
01-99
100
AcDbLine
 10
323.9999997697348
 20
22.33333409471232
 30
0.0
 11
278.9999997697348
 21
22.33333409471232
 31
0.0
  0
LINE
  5
2D4
330
2AF
100
AcDbEntity
  8
01-99
100
AcDbLine
 10
323.9999997697348
 20
37.66666742804569
 30
0.0
 11
228.9999997697348
 21
37.66666742804557
 31
0.0
  0
LINE
  5
2D5
330
2AF
100
AcDbEntity
  8
01-99
100
AcDbLine
 10
300.9999997697348
 20
22.33333409471232
 30
0.0
 11
300.9999997697348
 21
53.000000761379
 31
0.0
  0
LINE
  5
2D6
330
2AF
100
AcDbEntity
  8
01-99
100
AcDbLine
 10
278.9999997697348
 20
37.66666742804563
 30
0.0
 11
286.9999997697348
 21
32.55555632804567
 31
0.0
  0
LINE
  5
2D7
330
2AF
100
AcDbEntity
  8
01-99
100
AcDbLine
 10
278.9999997697348
 20
32.55555632804567
 30
0.0
 11
286.9999997697348
 21
37.66666742804569
 31
0.0
  0
LINE
  5
2D8
330
2AF
100
AcDbEntity
  8
01-99
100
AcDbLine
 10
412.9999997697348
 20
45.33333409471231
 30
0.0
 11
323.9999997697349
 21
45.33333409471225
 31
0.0
  0
LINE
  5
2D9
330
2AF
100
AcDbEntity
  8
01-99
100
AcDbLine
 10
323.9999997697348
 20
17.22222298337897
 30
0.0
 11
412.9999997697348
 21
17.22222298337908
 31
0.0
  0
LINE
  5
2DA
330
2AF
100
AcDbEntity
  8
01-99
100
AcDbLine
 10
323.9999997697348
 20
37.66666742804569
 30
0.0
 11
412.9999997697348
 21
37.66666742804574
 31
0.0
  0
LINE
  5
2DB
330
2AF
100
AcDbEntity
  8
01-99
100
AcDbLine
 10
300.9999997697348
 20
42.77777853937897
 30
0.0
 11
278.9999997697348
 21
42.77777853937897
 31
0.0
  0
LINE
  5
2DC
330
2AF
100
AcDbEntity
  8
01-99
100
AcDbLine
 10
300.9999997697348
 20
47.88888965037898
 30
0.0
 11
278.9999997697348
 21
47.88888965037893
 31
0.0
  0
TEXT
  5
2DD
330
2AF
100
AcDbEntity
  8
08-99
100
AcDbText
 10
325.4997009380411
 20
33.6698744692369
 30
0.0
 40
2.5
  1
Benennung/Teil:
 51
15.0
  7
ROMANS8
100
AcDbText
  0
TEXT
  5
2E2
330
2AF
100
AcDbEntity
  8
08-99
100
AcDbText
 10
387.5028272173022
 20
13.01760345560962
 30
0.0
 40
2.7
  1
Ident-Nr.
 51
15.0
  7
ROMANS8
100
AcDbText
  0
TEXT
  5
2E3
330
2AF
100
AcDbEntity
  8
08-99
100
AcDbText
 10
302.5000215029029
 20
34.05557772316138
 30
0.0
 40
2.5
  1
Name:
 51
15.0
  7
ROMANS8
100
AcDbText
  0
TEXT
  5
2E4
330
2AF
100
AcDbEntity
  8
08-99
100
AcDbText
 10
288.5077689122797
 20
34.04841872238342
 30
0.0
 40
2.5
  1
Datum:
 50
0.102528160689452
 41
0.8933771909280748
 51
15.0
  7
ROMANS8
 72
     5
 11
299.6749659193617
 21
34.0684019288434
 31
0.0
100
AcDbText
  0
TEXT
  5
2E5
330
2AF
100
AcDbEntity
  8
08-99
100
AcDbText
 10
238.5000078514702
 20
34.05597786035884
 30
0.0
 40
1.6
  1
Änderung:
 51
15.0
  7
ROMANS8
100
AcDbText
  0
TEXT
  5
2E6
330
2AF
100
AcDbEntity
  8
08-99
100
AcDbText
 10
255.4999378454877
 20
10.11112006054139
 30
0.0
 40
1.0
  1
ERSETZT.DURCH:
 51
15.0
  7
ROMANS8
100
AcDbText
  0
TEXT
  5
2E7
330
2AF
100
AcDbEntity
  8
08-99
100
AcDbText
 10
230.4993605854065
 20
10.11085496431519
 30
0.0
 40
1.0
  1
ERSETZT.FÜR:
 51
15.0
  7
ROMANS8
100
AcDbText
  0
TEXT
  5
2E8
330
2AF
100
AcDbEntity
  8
08-99
100
AcDbText
 10
354.990906611889
 20
13.61295762544273
 30
0.0
 40
2.112
  1
AUFTRAGS.NR.:
 51
15.0
  7
ROMANS8
100
AcDbText
  0
TEXT
  5
2E9
330
2AF
100
AcDbEntity
  8
08-99
100
AcDbText
 10
325.5034639747472
 20
13.61092941740929
 30
0.0
 40
2.112
  1
Sonder-Nr:
 51
15.0
  7
ROMANS8
100
AcDbText
  0
TEXT
  5
2EA
330
2AF
100
AcDbEntity
  8
08-99
100
AcDbText
 10
308.6963072648131
 20
50.92370926842125
 30
0.0
 40
1.349999999999999
  1
Format
 51
15.0
  7
ROMANS8
100
AcDbText
  0
TEXT
  5
2EB
330
2AF
100
AcDbEntity
  8
08-99
100
AcDbText
 10
307.3043795165026
 20
45.64161955447966
 30
0.0
 40
1.822499999999999
  1
Normen
 51
15.0
  7
ROMANS8
100
AcDbText
  0
TEXT
  5
2EC
330
2AF
100
AcDbEntity
  8
08-99
100
AcDbText
 10
230.5000293736364
 20
34.05556859693707
 30
0.0
 40
1.6
  1
Zust.
 51
15.0
  7
ROMANS8
100
AcDbText
  0
TEXT
  5
2ED
330
2AF
100
AcDbEntity
  8
08-99
100
AcDbText
 10
258.503180470904
 20
34.0555600128755
 30
0.0
 40
1.6
  1
Datum:
 51
15.0
  7
ROMANS8
100
AcDbText
  0
TEXT
  5
2EE
330
2AF
100
AcDbEntity
  8
08-99
100
AcDbText
 10
270.5032133866668
 20
34.05556481932439
 30
0.0
 40
1.6
  1
Name:
 51
15.0
  7
ROMANS8
100
AcDbText
  0
TEXT
  5
2EF
330
2AF
100
AcDbEntity
  8
08-99
100
AcDbText
 10
280.154554215326
 20
29.0381403293278
 30
0.0
 40
1.6
  1
Erst.
 51
15.0
  7
ROMANS8
100
AcDbText
  0
TEXT
  5
2F0
330
2AF
100
AcDbEntity
  8
08-99
100
AcDbText
 10
279.5171801320455
 20
24.19745182079998
 30
0.0
 40
1.6
  1
Bearb.
 51
15.0
  7
ROMANS8
100
AcDbText
  0
TEXT
  5
2F1
330
2AF
100
AcDbEntity
  8
08-99
100
AcDbText
 10
358.4308046815029
 20
42.61949825408587
 30
0.0
 40
2.0
  1
Zuschnittsbreite:
 51
15.0
  7
ROMANS8
100
AcDbText
  0
TEXT
  5
2F2
330
2AF
100
AcDbEntity
  8
08-99
100
AcDbText
 10
324.984994543767
 20
42.73762438949257
 30
0.0
 40
2.0
  1
Zuschnittslänge:
 51
15.0
  7
ROMANS8
100
AcDbText
  0
LINE
  5
2F3
330
2AF
100
AcDbEntity
  8
06-99
100
AcDbLine
 10
302.7675395817348
 20
19.87656561071236
 30
0.0
 11
303.0090469137349
 21
20.08724790671238
 31
0.0
  0
LINE
  5
2F8
330
2AF
100
AcDbEntity
  8
06-99
100
AcDbLine
 10
303.0090469137349
 20
20.08724790671238
 30
0.0
 11
302.9228515737349
 21
20.22625816271227
 31
0.0
  0
LINE
  5
2F9
330
2AF
100
AcDbEntity
  8
06-99
100
AcDbLine
 10
302.9228515737349
 20
20.22625816271227
 30
0.0
 11
302.8242642057348
 21
20.35180719071241
 31
0.0
  0
LINE
  5
2FA
330
2AF
100
AcDbEntity
  8
06-99
100
AcDbLine
 10
302.8242642057348
 20
20.35180719071241
 30
0.0
 11
302.713626953735
 21
20.4639413227124
 31
0.0
  0
LINE
  5
2FB
330
2AF
100
AcDbEntity
  8
06-99
100
AcDbLine
 10
302.713626953735
 20
20.4639413227124
 30
0.0
 11
302.5912962177348
 21
20.56271401871226
 31
0.0
  0
LINE
  5
2FC
330
2AF
100
AcDbEntity
  8
06-99
100
AcDbLine
 10
302.5912962177348
 20
20.56271401871226
 30
0.0
 11
302.4576141417349
 21
20.64816448271233
 31
0.0
  0
LINE
  5
2FD
330
2AF
100
AcDbEntity
  8
06-99
100
AcDbLine
 10
302.4576141417349
 20
20.64816448271233
 30
0.0
 11
302.3129264337349
 21
20.7203390467123
 31
0.0
  0
LINE
  5
2FE
330
2AF
100
AcDbEntity
  8
06-99
100
AcDbLine
 10
302.3129264337349
 20
20.7203390467123
 30
0.0
 11
302.1575859297349
 21
20.77929117071233
 31
0.0
  0
LINE
  5
2FF
330
2AF
100
AcDbEntity
  8
06-99
100
AcDbLine
 10
302.1575859297349
 20
20.77929117071233
 30
0.0
 11
301.991934773735
 21
20.82506005871232
 31
0.0
  0
LINE
  5
300
330
2AF
100
AcDbEntity
  8
06-99
100
AcDbLine
 10
301.991934773735
 20
20.82506005871232
 30
0.0
 11
301.8163222377349
 21
20.85769204271242
 31
0.0
  0
LINE
  5
301
330
2AF
100
AcDbEntity
  8
06-99
100
AcDbLine
 10
301.8163222377349
 20
20.85769204271242
 30
0.0
 11
301.631097593735
 21
20.87724058271238
 31
0.0
  0
LINE
  5
302
330
2AF
100
AcDbEntity
  8
06-99
100
AcDbLine
 10
301.631097593735
 20
20.87724058271238
 30
0.0
 11
301.436606549735
 21
20.88374488271234
 31
0.0
  0
LINE
  5
303
330
2AF
100
AcDbEntity
  8
06-99
100
AcDbLine
 10
301.436606549735
 20
20.88374488271234
 30
0.0
 11
301.2756812577348
 21
20.87768251871233
 31
0.0
  0
LINE
  5
304
330
2AF
100
AcDbEntity
  8
06-99
100
AcDbLine
 10
301.2756812577348
 20
20.87768251871233
 30
0.0
 11
301.1199415857348
 21
20.85975916271229
 31
0.0
  0
LINE
  5
305
330
2AF
100
AcDbEntity
  8
06-99
100
AcDbLine
 10
301.1199415857348
 20
20.85975916271229
 30
0.0
 11
300.969718985735
 21
20.83036329071246
 31
0.0
  0
LINE
  5
306
330
2AF
100
AcDbEntity
  8
06-99
100
AcDbLine
 10
300.969718985735
 20
20.83036329071246
 30
0.0
 11
300.825348473735
 21
20.78989050671231
 31
0.0
  0
LINE
  5
307
330
2AF
100
AcDbEntity
  8
06-99
100
AcDbLine
 10
300.825348473735
 20
20.78989050671231
 30
0.0
 11
300.6871615017349
 21
20.73873641471243
 31
0.0
  0
LINE
  5
308
330
2AF
100
AcDbEntity
  8
06-99
100
AcDbLine
 10
300.6871615017349
 20
20.73873641471243
 30
0.0
 11
300.5554823937349
 21
20.67729305471232
 31
0.0
  0
LINE
  5
309
330
2AF
100
AcDbEntity
  8
06-99
100
AcDbLine
 10
300.5554823937349
 20
20.67729305471232
 30
0.0
 11
300.4306532937349
 21
20.60595246671232
 31
0.0
  0
LINE
  5
30A
330
2AF
100
AcDbEntity
  8
06-99
100
AcDbLine
 10
300.4306532937349
 20
20.60595246671232
 30
0.0
 11
300.3129985257349
 21
20.52510669071228
 31
0.0
  0
LINE
  5
30B
330
2AF
100
AcDbEntity
  8
06-99
100
AcDbLine
 10
300.3129985257349
 20
20.52510669071228
 30
0.0
 11
300.2028495417349
 21
20.43514776671236
 31
0.0
  0
LINE
  5
30C
330
2AF
100
AcDbEntity
  8
06-99
100
AcDbLine
 10
300.2028495417349
 20
20.43514776671236
 30
0.0
 11
300.1005449217349
 21
20.33647486271235
 31
0.0
  0
LINE
  5
30D
330
2AF
100
AcDbEntity
  8
06-99
100
AcDbLine
 10
300.1005449217349
 20
20.33647486271235
 30
0.0
 11
300.006405425735
 21
20.22947289071237
 31
0.0
  0
LINE
  5
30E
330
2AF
100
AcDbEntity
  8
06-99
100
AcDbLine
 10
300.006405425735
 20
20.22947289071237
 30
0.0
 11
299.920769633735
 21
20.11454458271237
 31
0.0
  0
LINE
  5
30F
330
2AF
100
AcDbEntity
  8
06-99
100
AcDbLine
 10
299.920769633735
 20
20.11454458271237
 30
0.0
 11
299.8439689977349
 21
19.99207485071235
 31
0.0
  0
LINE
  5
310
330
2AF
100
AcDbEntity
  8
06-99
100
AcDbLine
 10
299.8439689977349
 20
19.99207485071235
 30
0.0
 11
299.7763314057349
 21
19.86245929871239
 31
0.0
  0
LINE
  5
311
330
2AF
100
AcDbEntity
  8
06-99
100
AcDbLine
 10
299.7763314057349
 20
19.86245929871239
 30
0.0
 11
299.7181918737349
 21
19.72608996671232
 31
0.0
  0
LINE
  5
312
330
2AF
100
AcDbEntity
  8
06-99
100
AcDbLine
 10
299.7181918737349
 20
19.72608996671232
 30
0.0
 11
299.6698782897349
 21
19.58336602271231
 31
0.0
  0
LINE
  5
313
330
2AF
100
AcDbEntity
  8
06-99
100
AcDbLine
 10
299.6698782897349
 20
19.58336602271231
 30
0.0
 11
299.631722105735
 21
19.43467237871232
 31
0.0
  0
LINE
  5
314
330
2AF
100
AcDbEntity
  8
06-99
100
AcDbLine
 10
299.631722105735
 20
19.43467237871232
 30
0.0
 11
299.6040619017348
 21
19.28040820271229
 31
0.0
  0
LINE
  5
315
330
2AF
100
AcDbEntity
  8
06-99
100
AcDbLine
 10
299.6040619017348
 20
19.28040820271229
 30
0.0
 11
299.5872184377349
 21
19.12096197071235
 31
0.0
  0
LINE
  5
316
330
2AF
100
AcDbEntity
  8
06-99
100
AcDbLine
 10
299.5872184377349
 20
19.12096197071235
 30
0.0
 11
299.5815338577349
 21
18.95672928671234
 31
0.0
  0
LINE
  5
317
330
2AF
100
AcDbEntity
  8
06-99
100
AcDbLine
 10
299.5815338577349
 20
18.95672928671234
 30
0.0
 11
299.5871471577349
 21
18.7876246147124
 31
0.0
  0
LINE
  5
318
330
2AF
100
AcDbEntity
  8
06-99
100
AcDbLine
 10
299.5871471577349
 20
18.7876246147124
 30
0.0
 11
299.603798165735
 21
18.62429005871234
 31
0.0
  0
LINE
  5
319
330
2AF
100
AcDbEntity
  8
06-99
100
AcDbLine
 10
299.603798165735
 20
18.62429005871234
 30
0.0
 11
299.6311875057347
 21
18.46704281471233
 31
0.0
  0
LINE
  5
31A
330
2AF
100
AcDbEntity
  8
06-99
100
AcDbLine
 10
299.6311875057347
 20
18.46704281471233
 30
0.0
 11
299.6690158017348
 21
18.31619651471226
 31
0.0
  0
LINE
  5
31B
330
2AF
100
AcDbEntity
  8
06-99
100
AcDbLine
 10
299.6690158017348
 20
18.31619651471226
 30
0.0
 11
299.7169872417348
 21
18.17206479071234
 31
0.0
  0
LINE
  5
31C
330
2AF
100
AcDbEntity
  8
06-99
100
AcDbLine
 10
299.7169872417348
 20
18.17206479071234
 30
0.0
 11
299.774806013735
 21
18.03496127471237
 31
0.0
  0
LINE
  5
31D
330
2AF
100
AcDbEntity
  8
06-99
100
AcDbLine
 10
299.774806013735
 20
18.03496127471237
 30
0.0
 11
299.8421763057349
 21
17.90519603471233
 31
0.0
  0
LINE
  5
31E
330
2AF
100
AcDbEntity
  8
06-99
100
AcDbLine
 10
299.8421763057349
 20
17.90519603471233
 30
0.0
 11
299.9187987417349
 21
17.7830862667123
 31
0.0
  0
LINE
  5
31F
330
2AF
100
AcDbEntity
  8
06-99
100
AcDbLine
 10
299.9187987417349
 20
17.7830862667123
 30
0.0
 11
300.0043775097349
 21
17.66894203871231
 31
0.0
  0
LINE
  5
320
330
2AF
100
AcDbEntity
  8
06-99
100
AcDbLine
 10
300.0043775097349
 20
17.66894203871231
 30
0.0
 11
300.0986203617349
 21
17.56308054671234
 31
0.0
  0
LINE
  5
321
330
2AF
100
AcDbEntity
  8
06-99
100
AcDbLine
 10
300.0986203617349
 20
17.56308054671234
 30
0.0
 11
300.2012207937348
 21
17.46581185871235
 31
0.0
  0
LINE
  5
322
330
2AF
100
AcDbEntity
  8
06-99
100
AcDbLine
 10
300.2012207937348
 20
17.46581185871235
 30
0.0
 11
300.3118936857348
 21
17.37745317071227
 31
0.0
  0
LINE
  5
323
330
2AF
100
AcDbEntity
  8
06-99
100
AcDbLine
 10
300.3118936857348
 20
17.37745317071227
 30
0.0
 11
300.430332533735
 21
17.2983145507124
 31
0.0
  0
LINE
  5
324
330
2AF
100
AcDbEntity
  8
06-99
100
AcDbLine
 10
300.430332533735
 20
17.2983145507124
 30
0.0
 11
300.5562450897348
 21
17.22870963071239
 31
0.0
  0
LINE
  5
325
330
2AF
100
AcDbEntity
  8
06-99
100
AcDbLine
 10
300.5562450897348
 20
17.22870963071239
 30
0.0
 11
300.6893319777348
 21
17.1689556067123
 31
0.0
  0
LINE
  5
326
330
2AF
100
AcDbEntity
  8
06-99
100
AcDbLine
 10
300.6893319777348
 20
17.1689556067123
 30
0.0
 11
300.8293009497348
 21
17.11936254671235
 31
0.0
  0
LINE
  5
327
330
2AF
100
AcDbEntity
  8
06-99
100
AcDbLine
 10
300.8293009497348
 20
17.11936254671235
 30
0.0
 11
300.975849065735
 21
17.0802440827124
 31
0.0
  0
LINE
  5
328
330
2AF
100
AcDbEntity
  8
06-99
100
AcDbLine
 10
300.975849065735
 20
17.0802440827124
 30
0.0
 11
301.1286876417348
 21
17.05191384671241
 31
0.0
  0
LINE
  5
329
330
2AF
100
AcDbEntity
  8
06-99
100
AcDbLine
 10
301.1286876417348
 20
17.05191384671241
 30
0.0
 11
301.2875101737348
 21
17.03468547071236
 31
0.0
  0
LINE
  5
32A
330
2AF
100
AcDbEntity
  8
06-99
100
AcDbLine
 10
301.2875101737348
 20
17.03468547071236
 30
0.0
 11
301.4520279777349
 21
17.02887258671239
 31
0.0
  0
LINE
  5
32B
330
2AF
100
AcDbEntity
  8
06-99
100
AcDbLine
 10
301.4520279777349
 20
17.02887258671239
 30
0.0
 11
301.616025437735
 21
17.03412592271235
 31
0.0
  0
LINE
  5
32C
330
2AF
100
AcDbEntity
  8
06-99
100
AcDbLine
 10
301.616025437735
 20
17.03412592271235
 30
0.0
 11
301.7733582177349
 21
17.04976475471238
 31
0.0
  0
LINE
  5
32D
330
2AF
100
AcDbEntity
  8
06-99
100
AcDbLine
 10
301.7733582177349
 20
17.04976475471238
 30
0.0
 11
301.9238374257349
 21
17.07559662671235
 31
0.0
  0
LINE
  5
32E
330
2AF
100
AcDbEntity
  8
06-99
100
AcDbLine
 10
301.9238374257349
 20
17.07559662671235
 30
0.0
 11
302.0672741697348
 21
17.11142908271239
 31
0.0
  0
LINE
  5
32F
330
2AF
100
AcDbEntity
  8
06-99
100
AcDbLine
 10
302.0672741697348
 20
17.11142908271239
 30
0.0
 11
302.203483121735
 21
17.15707323071234
 31
0.0
  0
LINE
  5
330
330
2AF
100
AcDbEntity
  8
06-99
100
AcDbLine
 10
302.203483121735
 20
17.15707323071234
 30
0.0
 11
302.3322718257348
 21
17.21234017871234
 31
0.0
  0
LINE
  5
331
330
2AF
100
AcDbEntity
  8
06-99
100
AcDbLine
 10
302.3322718257348
 20
17.21234017871234
 30
0.0
 11
302.4534549537349
 21
17.27703747071234
 31
0.0
  0
LINE
  5
332
330
2AF
100
AcDbEntity
  8
06-99
100
AcDbLine
 10
302.4534549537349
 20
17.27703747071234
 30
0.0
 11
302.5668364857349
 21
17.35097977871237
 31
0.0
  0
LINE
  5
333
330
2AF
100
AcDbEntity
  8
06-99
100
AcDbLine
 10
302.5668364857349
 20
17.35097977871237
 30
0.0
 11
302.6722382217349
 21
17.43397464671233
 31
0.0
  0
LINE
  5
334
330
2AF
100
AcDbEntity
  8
06-99
100
AcDbLine
 10
302.6722382217349
 20
17.43397464671233
 30
0.0
 11
302.7694605777349
 21
17.52582605471235
 31
0.0
  0
LINE
  5
335
330
2AF
100
AcDbEntity
  8
06-99
100
AcDbLine
 10
302.7694605777349
 20
17.52582605471235
 30
0.0
 11
302.8583217897349
 21
17.62635580271234
 31
0.0
  0
LINE
  5
336
330
2AF
100
AcDbEntity
  8
06-99
100
AcDbLine
 10
302.8583217897349
 20
17.62635580271234
 30
0.0
 11
302.938632965735
 21
17.73536074271232
 31
0.0
  0
LINE
  5
337
330
2AF
100
AcDbEntity
  8
06-99
100
AcDbLine
 10
302.938632965735
 20
17.73536074271232
 30
0.0
 11
303.0102016497349
 21
17.85266267471235
 31
0.0
  0
LINE
  5
338
330
2AF
100
AcDbEntity
  8
06-99
100
AcDbLine
 10
303.0102016497349
 20
17.85266267471235
 30
0.0
 11
303.0728389497349
 21
17.97806201471235
 31
0.0
  0
LINE
  5
339
330
2AF
100
AcDbEntity
  8
06-99
100
AcDbLine
 10
303.0728389497349
 20
17.97806201471235
 30
0.0
 11
303.126359537735
 21
18.11137343471228
 31
0.0
  0
LINE
  5
33A
330
2AF
100
AcDbEntity
  8
06-99
100
AcDbLine
 10
303.126359537735
 20
18.11137343471228
 30
0.0
 11
303.1705745217348
 21
18.25240447871232
 31
0.0
  0
LINE
  5
33B
330
2AF
100
AcDbEntity
  8
06-99
100
AcDbLine
 10
303.1705745217348
 20
18.25240447871232
 30
0.0
 11
303.2052878817349
 21
18.40096625471233
 31
0.0
  0
LINE
  5
33C
330
2AF
100
AcDbEntity
  8
06-99
100
AcDbLine
 10
303.2052878817349
 20
18.40096625471233
 30
0.0
 11
303.2303214177349
 21
18.55686987071237
 31
0.0
  0
LINE
  5
33D
330
2AF
100
AcDbEntity
  8
06-99
100
AcDbLine
 10
303.2303214177349
 20
18.55686987071237
 30
0.0
 11
303.245479109735
 21
18.7199264347123
 31
0.0
  0
LINE
  5
33E
330
2AF
100
AcDbEntity
  8
06-99
100
AcDbLine
 10
303.245479109735
 20
18.7199264347123
 30
0.0
 11
303.2505720657348
 21
18.88993992671231
 31
0.0
  0
LINE
  5
33F
330
2AF
100
AcDbEntity
  8
06-99
100
AcDbLine
 10
303.2505720657348
 20
18.88993992671231
 30
0.0
 11
303.2505720657348
 21
18.88993992671231
 31
0.0
  0
LINE
  5
340
330
2AF
100
AcDbEntity
  8
06-99
100
AcDbLine
 10
303.2505720657348
 20
18.88993992671231
 30
0.0
 11
303.2505720657348
 21
18.94132211471236
 31
0.0
  0
LINE
  5
341
330
2AF
100
AcDbEntity
  8
06-99
100
AcDbLine
 10
303.2505720657348
 20
18.94132211471236
 30
0.0
 11
301.6164638097349
 21
18.94132211471236
 31
0.0
  0
LINE
  5
342
330
2AF
100
AcDbEntity
  8
06-99
100
AcDbLine
 10
301.6164638097349
 20
18.94132211471236
 30
0.0
 11
301.6164638097349
 21
18.65355049871232
 31
0.0
  0
LINE
  5
343
330
2AF
100
AcDbEntity
  8
06-99
100
AcDbLine
 10
301.6164638097349
 20
18.65355049871232
 30
0.0
 11
302.8857253857347
 21
18.65355049871232
 31
0.0
  0
LINE
  5
344
330
2AF
100
AcDbEntity
  8
06-99
100
AcDbLine
 10
302.8857253857347
 20
18.65355049871232
 30
0.0
 11
302.8749870537348
 21
18.49100715071233
 31
0.0
  0
LINE
  5
345
330
2AF
100
AcDbEntity
  8
06-99
100
AcDbLine
 10
302.8749870537348
 20
18.49100715071233
 30
0.0
 11
302.8476547377348
 21
18.33636162671234
 31
0.0
  0
LINE
  5
346
330
2AF
100
AcDbEntity
  8
06-99
100
AcDbLine
 10
302.8476547377348
 20
18.33636162671234
 30
0.0
 11
302.804434109735
 21
18.19027683071238
 31
0.0
  0
LINE
  5
347
330
2AF
100
AcDbEntity
  8
06-99
100
AcDbLine
 10
302.804434109735
 20
18.19027683071238
 30
0.0
 11
302.7460308417349
 21
18.05341923071233
 31
0.0
  0
LINE
  5
348
330
2AF
100
AcDbEntity
  8
06-99
100
AcDbLine
 10
302.7460308417349
 20
18.05341923071233
 30
0.0
 11
302.673157733735
 21
17.92644460271236
 31
0.0
  0
LINE
  5
349
330
2AF
100
AcDbEntity
  8
06-99
100
AcDbLine
 10
302.673157733735
 20
17.92644460271236
 30
0.0
 11
302.586524021735
 21
17.81002654271236
 31
0.0
  0
LINE
  5
34A
330
2AF
100
AcDbEntity
  8
06-99
100
AcDbLine
 10
302.586524021735
 20
17.81002654271236
 30
0.0
 11
302.4868282497349
 21
17.70481726271237
 31
0.0
  0
LINE
  5
34B
330
2AF
100
AcDbEntity
  8
06-99
100
AcDbLine
 10
302.4868282497349
 20
17.70481726271237
 30
0.0
 11
302.3747867817349
 21
17.61149035871233
 31
0.0
  0
LINE
  5
34C
330
2AF
100
AcDbEntity
  8
06-99
100
AcDbLine
 10
302.3747867817349
 20
17.61149035871233
 30
0.0
 11
302.2511052897348
 21
17.53069804271234
 31
0.0
  0
LINE
  5
34D
330
2AF
100
AcDbEntity
  8
06-99
100
AcDbLine
 10
302.2511052897348
 20
17.53069804271234
 30
0.0
 11
302.116489445735
 21
17.46311034671237
 31
0.0
  0
LINE
  5
34E
330
2AF
100
AcDbEntity
  8
06-99
100
AcDbLine
 10
302.116489445735
 20
17.46311034671237
 30
0.0
 11
301.9716484857348
 21
17.40938661071232
 31
0.0
  0
LINE
  5
34F
330
2AF
100
AcDbEntity
  8
06-99
100
AcDbLine
 10
301.9716484857348
 20
17.40938661071232
 30
0.0
 11
301.8172916457349
 21
17.37019330271244
 31
0.0
  0
LINE
  5
350
330
2AF
100
AcDbEntity
  8
06-99
100
AcDbLine
 10
301.8172916457349
 20
17.37019330271244
 30
0.0
 11
301.654124597735
 21
17.3461897627123
 31
0.0
  0
LINE
  5
351
330
2AF
100
AcDbEntity
  8
06-99
100
AcDbLine
 10
301.654124597735
 20
17.3461897627123
 30
0.0
 11
301.482856577735
 21
17.33804245871238
 31
0.0
  0
LINE
  5
352
330
2AF
100
AcDbEntity
  8
06-99
100
AcDbLine
 10
301.482856577735
 20
17.33804245871238
 30
0.0
 11
301.318196213735
 21
17.34599374271232
 31
0.0
  0
LINE
  5
353
330
2AF
100
AcDbEntity
  8
06-99
100
AcDbLine
 10
301.318196213735
 20
17.34599374271232
 30
0.0
 11
301.1599011537348
 21
17.36937714671228
 31
0.0
  0
LINE
  5
354
330
2AF
100
AcDbEntity
  8
06-99
100
AcDbLine
 10
301.1599011537348
 20
17.36937714671228
 30
0.0
 11
301.0085630217349
 21
17.40748343471233
 31
0.0
  0
LINE
  5
355
330
2AF
100
AcDbEntity
  8
06-99
100
AcDbLine
 10
301.0085630217349
 20
17.40748343471233
 30
0.0
 11
300.8647698777347
 21
17.45960693471232
 31
0.0
  0
LINE
  5
356
330
2AF
100
AcDbEntity
  8
06-99
100
AcDbLine
 10
300.8647698777347
 20
17.45960693471232
 30
0.0
 11
300.7291026537349
 21
17.52503841071234
 31
0.0
  0
LINE
  5
357
330
2AF
100
AcDbEntity
  8
06-99
100
AcDbLine
 10
300.7291026537349
 20
17.52503841071234
 30
0.0
 11
300.6021529737349
 21
17.6030686267124
 31
0.0
  0
LINE
  5
358
330
2AF
100
AcDbEntity
  8
06-99
100
AcDbLine
 10
300.6021529737349
 20
17.6030686267124
 30
0.0
 11
300.4845053337349
 21
17.69299547471234
 31
0.0
  0
LINE
  5
359
330
2AF
100
AcDbEntity
  8
06-99
100
AcDbLine
 10
300.4845053337349
 20
17.69299547471234
 30
0.0
 11
300.3767513577348
 21
17.79410615471244
 31
0.0
  0
LINE
  5
35A
330
2AF
100
AcDbEntity
  8
06-99
100
AcDbLine
 10
300.3767513577348
 20
17.79410615471244
 30
0.0
 11
300.279475541735
 21
17.90569499471235
 31
0.0
  0
LINE
  5
35B
330
2AF
100
AcDbEntity
  8
06-99
100
AcDbLine
 10
300.279475541735
 20
17.90569499471235
 30
0.0
 11
300.1932623817348
 21
18.02705632271232
 31
0.0
  0
LINE
  5
35C
330
2AF
100
AcDbEntity
  8
06-99
100
AcDbLine
 10
300.1932623817348
 20
18.02705632271232
 30
0.0
 11
300.1187035017349
 21
18.15747733871234
 31
0.0
  0
LINE
  5
35D
330
2AF
100
AcDbEntity
  8
06-99
100
AcDbLine
 10
300.1187035017349
 20
18.15747733871234
 30
0.0
 11
300.0563833977349
 21
18.29625593471235
 31
0.0
  0
LINE
  5
35E
330
2AF
100
AcDbEntity
  8
06-99
100
AcDbLine
 10
300.0563833977349
 20
18.29625593471235
 30
0.0
 11
300.0068901297349
 21
18.44268287471232
 31
0.0
  0
LINE
  5
35F
330
2AF
100
AcDbEntity
  8
06-99
100
AcDbLine
 10
300.0068901297349
 20
18.44268287471232
 30
0.0
 11
299.9708117577347
 21
18.59604535871239
 31
0.0
  0
LINE
  5
360
330
2AF
100
AcDbEntity
  8
06-99
100
AcDbLine
 10
299.9708117577347
 20
18.59604535871239
 30
0.0
 11
299.9487327777348
 21
18.75564484271246
 31
0.0
  0
LINE
  5
361
330
2AF
100
AcDbEntity
  8
06-99
100
AcDbLine
 10
299.9487327777348
 20
18.75564484271246
 30
0.0
 11
299.9412448137349
 21
18.92076852671226
 31
0.0
  0
LINE
  5
362
330
2AF
100
AcDbEntity
  8
06-99
100
AcDbLine
 10
299.9412448137349
 20
18.92076852671226
 30
0.0
 11
299.947631501735
 21
19.08914257871237
 31
0.0
  0
LINE
  5
363
330
2AF
100
AcDbEntity
  8
06-99
100
AcDbLine
 10
299.947631501735
 20
19.08914257871237
 30
0.0
 11
299.9665349577349
 21
19.25115489071231
 31
0.0
  0
LINE
  5
364
330
2AF
100
AcDbEntity
  8
06-99
100
AcDbLine
 10
299.9665349577349
 20
19.25115489071231
 30
0.0
 11
299.997556013735
 21
19.40630650271231
 31
0.0
  0
LINE
  5
365
330
2AF
100
AcDbEntity
  8
06-99
100
AcDbLine
 10
299.997556013735
 20
19.40630650271231
 30
0.0
 11
300.0402990657349
 21
19.55410201871234
 31
0.0
  0
LINE
  5
366
330
2AF
100
AcDbEntity
  8
06-99
100
AcDbLine
 10
300.0402990657349
 20
19.55410201871234
 30
0.0
 11
300.0943720737348
 21
19.69404604271233
 31
0.0
  0
LINE
  5
367
330
2AF
100
AcDbEntity
  8
06-99
100
AcDbLine
 10
300.0943720737348
 20
19.69404604271233
 30
0.0
 11
300.1593758697349
 21
19.82564674271236
 31
0.0
  0
LINE
  5
368
330
2AF
100
AcDbEntity
  8
06-99
100
AcDbLine
 10
300.1593758697349
 20
19.82564674271236
 30
0.0
 11
300.2349148497349
 21
19.94840159471238
 31
0.0
  0
LINE
  5
369
330
2AF
100
AcDbEntity
  8
06-99
100
AcDbLine
 10
300.2349148497349
 20
19.94840159471238
 30
0.0
 11
300.3205969737349
 21
20.06182233071235
 31
0.0
  0
LINE
  5
36A
330
2AF
100
AcDbEntity
  8
06-99
100
AcDbLine
 10
300.3205969737349
 20
20.06182233071235
 30
0.0
 11
300.4160230737348
 21
20.16540642671242
 31
0.0
  0
LINE
  5
36B
330
2AF
100
AcDbEntity
  8
06-99
100
AcDbLine
 10
300.4160230737348
 20
20.16540642671242
 30
0.0
 11
300.5208046737348
 21
20.2586620507123
 31
0.0
  0
LINE
  5
36C
330
2AF
100
AcDbEntity
  8
06-99
100
AcDbLine
 10
300.5208046737348
 20
20.2586620507123
 30
0.0
 11
300.634535477735
 21
20.34109024271237
 31
0.0
  0
LINE
  5
36D
330
2AF
100
AcDbEntity
  8
06-99
100
AcDbLine
 10
300.634535477735
 20
20.34109024271237
 30
0.0
 11
300.756830573735
 21
20.41219917071237
 31
0.0
  0
LINE
  5
36E
330
2AF
100
AcDbEntity
  8
06-99
100
AcDbLine
 10
300.756830573735
 20
20.41219917071237
 30
0.0
 11
300.8872872297347
 21
20.47148987471235
 31
0.0
  0
LINE
  5
36F
330
2AF
100
AcDbEntity
  8
06-99
100
AcDbLine
 10
300.8872872297347
 20
20.47148987471235
 30
0.0
 11
301.025513405735
 21
20.51846695871234
 31
0.0
  0
LINE
  5
370
330
2AF
100
AcDbEntity
  8
06-99
100
AcDbLine
 10
301.025513405735
 20
20.51846695871234
 30
0.0
 11
301.171117061735
 21
20.55263502671232
 31
0.0
  0
LINE
  5
371
330
2AF
100
AcDbEntity
  8
06-99
100
AcDbLine
 10
301.171117061735
 20
20.55263502671232
 30
0.0
 11
301.323695465735
 21
20.57350224671234
 31
0.0
  0
LINE
  5
372
330
2AF
100
AcDbEntity
  8
06-99
100
AcDbLine
 10
301.323695465735
 20
20.57350224671234
 30
0.0
 11
301.482856577735
 21
20.58056609471237
 31
0.0
  0
LINE
  5
373
330
2AF
100
AcDbEntity
  8
06-99
100
AcDbLine
 10
301.482856577735
 20
20.58056609471237
 30
0.0
 11
301.6605611817349
 21
20.57164896671236
 31
0.0
  0
LINE
  5
374
330
2AF
100
AcDbEntity
  8
06-99
100
AcDbLine
 10
301.6605611817349
 20
20.57164896671236
 30
0.0
 11
301.830314501735
 21
20.54501163071234
 31
0.0
  0
LINE
  5
375
330
2AF
100
AcDbEntity
  8
06-99
100
AcDbLine
 10
301.830314501735
 20
20.54501163071234
 30
0.0
 11
301.9917779577349
 21
20.50082159471236
 31
0.0
  0
LINE
  5
376
330
2AF
100
AcDbEntity
  8
06-99
100
AcDbLine
 10
301.9917779577349
 20
20.50082159471236
 30
0.0
 11
302.1446129697349
 21
20.43924636671233
 31
0.0
  0
LINE
  5
377
330
2AF
100
AcDbEntity
  8
06-99
100
AcDbLine
 10
302.1446129697349
 20
20.43924636671233
 30
0.0
 11
302.2884809577349
 21
20.36046058271233
 31
0.0
  0
LINE
  5
378
330
2AF
100
AcDbEntity
  8
06-99
100
AcDbLine
 10
302.2884809577349
 20
20.36046058271233
 30
0.0
 11
302.423046905735
 21
20.2646281867124
 31
0.0
  0
LINE
  5
379
330
2AF
100
AcDbEntity
  8
06-99
100
AcDbLine
 10
302.423046905735
 20
20.2646281867124
 30
0.0
 11
302.5479722337349
 21
20.15192381471235
 31
0.0
  0
LINE
  5
37A
330
2AF
100
AcDbEntity
  8
06-99
100
AcDbLine
 10
302.5479722337349
 20
20.15192381471235
 30
0.0
 11
302.662914797735
 21
20.02251141071241
 31
0.0
  0
LINE
  5
37B
330
2AF
100
AcDbEntity
  8
06-99
100
AcDbLine
 10
302.662914797735
 20
20.02251141071241
 30
0.0
 11
302.7675395817348
 21
19.87656561071236
 31
0.0
  0
LINE
  5
37C
330
2AF
100
AcDbEntity
  8
06-99
100
AcDbLine
 10
299.4389952417348
 20
13.25281458671242
 30
0.0
 11
301.3222627377349
 21
13.25281458671242
 31
0.0
  0
LINE
  5
37D
330
2AF
100
AcDbEntity
  8
06-99
100
AcDbLine
 10
301.3222627377349
 20
13.25281458671242
 30
0.0
 11
301.4675990937349
 21
14.00768047871236
 31
0.0
  0
LINE
  5
37E
330
2AF
100
AcDbEntity
  8
06-99
100
AcDbLine
 10
301.4675990937349
 20
14.00768047871236
 30
0.0
 11
300.5648699697349
 21
14.00768047871236
 31
0.0
  0
LINE
  5
37F
330
2AF
100
AcDbEntity
  8
06-99
100
AcDbLine
 10
300.5648699697349
 20
14.00768047871236
 30
0.0
 11
300.6210528657348
 21
14.29950792671229
 31
0.0
  0
LINE
  5
380
330
2AF
100
AcDbEntity
  8
06-99
100
AcDbLine
 10
300.6210528657348
 20
14.29950792671229
 30
0.0
 11
301.4187152697349
 21
14.29950792671229
 31
0.0
  0
LINE
  5
381
330
2AF
100
AcDbEntity
  8
06-99
100
AcDbLine
 10
301.4187152697349
 20
14.29950792671229
 30
0.0
 11
301.5558009657348
 21
15.01156305071231
 31
0.0
  0
LINE
  5
382
330
2AF
100
AcDbEntity
  8
06-99
100
AcDbLine
 10
301.5558009657348
 20
15.01156305071231
 30
0.0
 11
300.7581385617348
 21
15.01156305071231
 31
0.0
  0
LINE
  5
383
330
2AF
100
AcDbEntity
  8
06-99
100
AcDbLine
 10
300.7581385617348
 20
15.01156305071231
 30
0.0
 11
300.8098450737348
 21
15.28005699071229
 31
0.0
  0
LINE
  5
384
330
2AF
100
AcDbEntity
  8
06-99
100
AcDbLine
 10
300.8098450737348
 20
15.28005699071229
 30
0.0
 11
301.6892264337348
 21
15.28005699071229
 31
0.0
  0
LINE
  5
385
330
2AF
100
AcDbEntity
  8
06-99
100
AcDbLine
 10
301.6892264337348
 20
15.28005699071229
 30
0.0
 11
301.8345520977349
 21
16.03490862671236
 31
0.0
  0
LINE
  5
386
330
2AF
100
AcDbEntity
  8
06-99
100
AcDbLine
 10
301.8345520977349
 20
16.03490862671236
 30
0.0
 11
299.9746323657349
 21
16.03490862671236
 31
0.0
  0
LINE
  5
387
330
2AF
100
AcDbEntity
  8
06-99
100
AcDbLine
 10
299.9746323657349
 20
16.03490862671236
 30
0.0
 11
299.4389952417348
 21
13.25281458671242
 31
0.0
  0
LINE
  5
388
330
2AF
100
AcDbEntity
  8
06-99
100
AcDbLine
 10
285.6086116857349
 20
13.88042785871232
 30
0.0
 11
298.0658608857348
 21
13.88042785871232
 31
0.0
  0
LINE
  5
389
330
2AF
100
AcDbEntity
  8
06-99
100
AcDbLine
 10
298.0658608857348
 20
13.88042785871232
 30
0.0
 11
297.9422827497349
 21
13.25209822271233
 31
0.0
  0
LINE
  5
38A
330
2AF
100
AcDbEntity
  8
06-99
100
AcDbLine
 10
297.9422827497349
 20
13.25209822271233
 30
0.0
 11
285.4850371137349
 21
13.25209822271233
 31
0.0
  0
LINE
  5
38B
330
2AF
100
AcDbEntity
  8
06-99
100
AcDbLine
 10
285.4850371137349
 20
13.25209822271233
 30
0.0
 11
285.6086116857349
 21
13.88042785871232
 31
0.0
  0
LINE
  5
38C
330
2AF
100
AcDbEntity
  8
06-99
100
AcDbLine
 10
291.3458426577349
 20
17.02887258671239
 30
0.0
 11
292.3221826377348
 21
20.10266933471235
 31
0.0
  0
LINE
  5
38D
330
2AF
100
AcDbEntity
  8
06-99
100
AcDbLine
 10
292.3221826377348
 20
20.10266933471235
 30
0.0
 11
293.3396476137348
 21
17.02887258671239
 31
0.0
  0
LINE
  5
38E
330
2AF
100
AcDbEntity
  8
06-99
100
AcDbLine
 10
293.3396476137348
 20
17.02887258671239
 30
0.0
 11
294.5677984497349
 21
20.80153409471234
 31
0.0
  0
LINE
  5
38F
330
2AF
100
AcDbEntity
  8
06-99
100
AcDbLine
 10
294.5677984497349
 20
20.80153409471234
 30
0.0
 11
294.2235089217348
 21
20.80153409471234
 31
0.0
  0
LINE
  5
390
330
2AF
100
AcDbEntity
  8
06-99
100
AcDbLine
 10
294.2235089217348
 20
20.80153409471234
 30
0.0
 11
293.3396476137348
 21
17.89303210271231
 31
0.0
  0
LINE
  5
391
330
2AF
100
AcDbEntity
  8
06-99
100
AcDbLine
 10
293.3396476137348
 20
17.89303210271231
 30
0.0
 11
292.3221826377348
 21
20.94541277471228
 31
0.0
  0
LINE
  5
392
330
2AF
100
AcDbEntity
  8
06-99
100
AcDbLine
 10
292.3221826377348
 20
20.94541277471228
 30
0.0
 11
291.3458426577349
 21
17.86733922671237
 31
0.0
  0
LINE
  5
393
330
2AF
100
AcDbEntity
  8
06-99
100
AcDbLine
 10
291.3458426577349
 20
17.86733922671237
 30
0.0
 11
290.426009897735
 21
20.80153409471234
 31
0.0
  0
LINE
  5
394
330
2AF
100
AcDbEntity
  8
06-99
100
AcDbLine
 10
290.426009897735
 20
20.80153409471234
 30
0.0
 11
290.0765810817349
 21
20.80153409471234
 31
0.0
  0
LINE
  5
395
330
2AF
100
AcDbEntity
  8
06-99
100
AcDbLine
 10
290.0765810817349
 20
20.80153409471234
 30
0.0
 11
291.3458426577349
 21
17.02887258671239
 31
0.0
  0
LINE
  5
396
330
2AF
100
AcDbEntity
  8
06-99
100
AcDbLine
 10
296.324415641735
 20
18.65868622271239
 30
0.0
 11
296.9770339377348
 21
20.2568337187123
 31
0.0
  0
LINE
  5
397
330
2AF
100
AcDbEntity
  8
06-99
100
AcDbLine
 10
296.9770339377348
 20
20.2568337187123
 30
0.0
 11
297.6039629217348
 21
18.65868622271239
 31
0.0
  0
LINE
  5
398
330
2AF
100
AcDbEntity
  8
06-99
100
AcDbLine
 10
297.6039629217348
 20
18.65868622271239
 30
0.0
 11
296.324415641735
 21
18.65868622271239
 31
0.0
  0
LINE
  5
399
330
2AF
100
AcDbEntity
  8
06-99
100
AcDbLine
 10
295.3831810617349
 20
17.12736016271231
 30
0.0
 11
295.7231937897349
 21
17.12736016271231
 31
0.0
  0
LINE
  5
39A
330
2AF
100
AcDbEntity
  8
06-99
100
AcDbLine
 10
295.7231937897349
 20
17.12736016271231
 30
0.0
 11
296.2113619977348
 21
18.37092886271233
 31
0.0
  0
LINE
  5
39B
330
2AF
100
AcDbEntity
  8
06-99
100
AcDbLine
 10
296.2113619977348
 20
18.37092886271233
 30
0.0
 11
297.711863021735
 21
18.37092886271233
 31
0.0
  0
LINE
  5
39C
330
2AF
100
AcDbEntity
  8
06-99
100
AcDbLine
 10
297.711863021735
 20
18.37092886271233
 30
0.0
 11
298.1794918977348
 21
17.12736016271231
 31
0.0
  0
LINE
  5
39D
330
2AF
100
AcDbEntity
  8
06-99
100
AcDbLine
 10
298.1794918977348
 20
17.12736016271231
 30
0.0
 11
298.5443385777348
 21
17.12736016271231
 31
0.0
  0
LINE
  5
39E
330
2AF
100
AcDbEntity
  8
06-99
100
AcDbLine
 10
298.5443385777348
 20
17.12736016271231
 30
0.0
 11
296.9975910897349
 21
20.94541277471228
 31
0.0
  0
LINE
  5
39F
330
2AF
100
AcDbEntity
  8
06-99
100
AcDbLine
 10
296.9975910897349
 20
20.94541277471228
 30
0.0
 11
295.3831810617349
 21
17.12736016271231
 31
0.0
  0
LINE
  5
3A0
330
2AF
100
AcDbEntity
  8
06-99
100
AcDbLine
 10
307.9298046897347
 20
13.25281458671242
 30
0.0
 11
309.0043792017348
 21
13.25281458671242
 31
0.0
  0
LINE
  5
3A1
330
2AF
100
AcDbEntity
  8
06-99
100
AcDbLine
 10
309.0043792017348
 20
13.25281458671242
 30
0.0
 11
309.1574066697349
 21
13.60301322671233
 31
0.0
  0
LINE
  5
3A2
330
2AF
100
AcDbEntity
  8
06-99
100
AcDbLine
 10
309.1574066697349
 20
13.60301322671233
 30
0.0
 11
309.9122725617349
 21
13.60301322671233
 31
0.0
  0
LINE
  5
3A3
330
2AF
100
AcDbEntity
  8
06-99
100
AcDbLine
 10
309.9122725617349
 20
13.60301322671233
 30
0.0
 11
309.9343444137348
 21
13.25281458671242
 31
0.0
  0
LINE
  5
3A4
330
2AF
100
AcDbEntity
  8
06-99
100
AcDbLine
 10
309.9343444137348
 20
13.25281458671242
 30
0.0
 11
311.0082738417347
 21
13.25281458671242
 31
0.0
  0
LINE
  5
3A5
330
2AF
100
AcDbEntity
  8
06-99
100
AcDbLine
 10
311.0082738417347
 20
13.25281458671242
 30
0.0
 11
310.5711492417348
 21
16.03490862671236
 31
0.0
  0
LINE
  5
3A6
330
2AF
100
AcDbEntity
  8
06-99
100
AcDbLine
 10
310.5711492417348
 20
16.03490862671236
 30
0.0
 11
309.4583116257348
 21
16.03490862671236
 31
0.0
  0
LINE
  5
3A7
330
2AF
100
AcDbEntity
  8
06-99
100
AcDbLine
 10
309.4583116257348
 20
16.03490862671236
 30
0.0
 11
307.9298046897347
 21
13.25281458671242
 31
0.0
  0
LINE
  5
3A8
330
2AF
100
AcDbEntity
  8
06-99
100
AcDbLine
 10
305.0434565217349
 20
14.66137866671232
 30
0.0
 11
305.0784799497348
 21
14.66137866671232
 31
0.0
  0
LINE
  5
3A9
330
2AF
100
AcDbEntity
  8
06-99
100
AcDbLine
 10
305.0784799497348
 20
14.66137866671232
 30
0.0
 11
305.0642239497349
 21
14.48699927471239
 31
0.0
  0
LINE
  5
3AA
330
2AF
100
AcDbEntity
  8
06-99
100
AcDbLine
 10
305.0642239497349
 20
14.48699927471239
 30
0.0
 11
305.0637998337348
 21
14.33510159471234
 31
0.0
  0
LINE
  5
3AB
330
2AF
100
AcDbEntity
  8
06-99
100
AcDbLine
 10
305.0637998337348
 20
14.33510159471234
 30
0.0
 11
305.0678984337348
 21
14.20222854671237
 31
0.0
  0
LINE
  5
3AC
330
2AF
100
AcDbEntity
  8
06-99
100
AcDbLine
 10
305.0678984337348
 20
14.20222854671237
 30
0.0
 11
305.0952307497349
 21
13.25281458671242
 31
0.0
  0
LINE
  5
3AD
330
2AF
100
AcDbEntity
  8
06-99
100
AcDbLine
 10
305.0952307497349
 20
13.25281458671242
 30
0.0
 11
305.9668283337347
 21
13.25281458671242
 31
0.0
  0
LINE
  5
3AE
330
2AF
100
AcDbEntity
  8
06-99
100
AcDbLine
 10
305.9668283337347
 20
13.25281458671242
 30
0.0
 11
307.3156882857347
 21
16.03490862671236
 31
0.0
  0
LINE
  5
3AF
330
2AF
100
AcDbEntity
  8
06-99
100
AcDbLine
 10
307.3156882857347
 20
16.03490862671236
 30
0.0
 11
306.3118057137349
 21
16.03490862671236
 31
0.0
  0
LINE
  5
3B0
330
2AF
100
AcDbEntity
  8
06-99
100
AcDbLine
 10
306.3118057137349
 20
16.03490862671236
 30
0.0
 11
305.8579124937348
 21
14.8092312067123
 31
0.0
  0
LINE
  5
3B1
330
2AF
100
AcDbEntity
  8
06-99
100
AcDbLine
 10
305.8579124937348
 20
14.8092312067123
 30
0.0
 11
305.8078097817349
 21
14.66872763471229
 31
0.0
  0
LINE
  5
3B2
330
2AF
100
AcDbEntity
  8
06-99
100
AcDbLine
 10
305.8078097817349
 20
14.66872763471229
 30
0.0
 11
305.7488398377348
 21
14.48671415471227
 31
0.0
  0
LINE
  5
3B3
330
2AF
100
AcDbEntity
  8
06-99
100
AcDbLine
 10
305.7488398377348
 20
14.48671415471227
 30
0.0
 11
305.6900267097347
 21
14.26059973871241
 31
0.0
  0
LINE
  5
3B4
330
2AF
100
AcDbEntity
  8
06-99
100
AcDbLine
 10
305.6900267097347
 20
14.26059973871241
 30
0.0
 11
305.6666932017348
 21
14.26059973871241
 31
0.0
  0
LINE
  5
3B5
330
2AF
100
AcDbEntity
  8
06-99
100
AcDbLine
 10
305.6666932017348
 20
14.26059973871241
 30
0.0
 11
305.6884193457348
 21
14.45803464671235
 31
0.0
  0
LINE
  5
3B6
330
2AF
100
AcDbEntity
  8
06-99
100
AcDbLine
 10
305.6884193457348
 20
14.45803464671235
 30
0.0
 11
305.6929777017349
 21
14.6156953147123
 31
0.0
  0
LINE
  5
3B7
330
2AF
100
AcDbEntity
  8
06-99
100
AcDbLine
 10
305.6929777017349
 20
14.6156953147123
 30
0.0
 11
305.6919370137348
 21
14.73531384671236
 31
0.0
  0
LINE
  5
3B8
330
2AF
100
AcDbEntity
  8
06-99
100
AcDbLine
 10
305.6919370137348
 20
14.73531384671236
 30
0.0
 11
305.6775527097348
 21
16.03490862671236
 31
0.0
  0
LINE
  5
3B9
330
2AF
100
AcDbEntity
  8
06-99
100
AcDbLine
 10
305.6775527097348
 20
16.03490862671236
 30
0.0
 11
304.9732849257348
 21
16.03490862671236
 31
0.0
  0
LINE
  5
3BA
330
2AF
100
AcDbEntity
  8
06-99
100
AcDbLine
 10
304.9732849257348
 20
16.03490862671236
 30
0.0
 11
304.4584829457349
 21
14.73531384671236
 31
0.0
  0
LINE
  5
3BB
330
2AF
100
AcDbEntity
  8
06-99
100
AcDbLine
 10
304.4584829457349
 20
14.73531384671236
 30
0.0
 11
304.4113811217347
 21
14.6156953147123
 31
0.0
  0
LINE
  5
3BC
330
2AF
100
AcDbEntity
  8
06-99
100
AcDbLine
 10
304.4113811217347
 20
14.6156953147123
 30
0.0
 11
304.355226737735
 21
14.45803464671235
 31
0.0
  0
LINE
  5
3BD
330
2AF
100
AcDbEntity
  8
06-99
100
AcDbLine
 10
304.355226737735
 20
14.45803464671235
 30
0.0
 11
304.3009220697348
 21
14.26059973871241
 31
0.0
  0
LINE
  5
3BE
330
2AF
100
AcDbEntity
  8
06-99
100
AcDbLine
 10
304.3009220697348
 20
14.26059973871241
 30
0.0
 11
304.2775885617348
 21
14.26059973871241
 31
0.0
  0
LINE
  5
3BF
330
2AF
100
AcDbEntity
  8
06-99
100
AcDbLine
 10
304.2775885617348
 20
14.26059973871241
 30
0.0
 11
304.3058439537349
 21
14.48671415471227
 31
0.0
  0
LINE
  5
3C0
330
2AF
100
AcDbEntity
  8
06-99
100
AcDbLine
 10
304.3058439537349
 20
14.48671415471227
 30
0.0
 11
304.3169636337349
 21
14.66872763471229
 31
0.0
  0
LINE
  5
3C1
330
2AF
100
AcDbEntity
  8
06-99
100
AcDbLine
 10
304.3169636337349
 20
14.66872763471229
 30
0.0
 11
304.3209588777348
 21
14.8092312067123
 31
0.0
  0
LINE
  5
3C2
330
2AF
100
AcDbEntity
  8
06-99
100
AcDbLine
 10
304.3209588777348
 20
14.8092312067123
 30
0.0
 11
304.3390319217348
 21
16.03490862671236
 31
0.0
  0
LINE
  5
3C3
330
2AF
100
AcDbEntity
  8
06-99
100
AcDbLine
 10
304.3390319217348
 20
16.03490862671236
 30
0.0
 11
303.3345042657348
 21
16.03490862671236
 31
0.0
  0
LINE
  5
3C4
330
2AF
100
AcDbEntity
  8
06-99
100
AcDbLine
 10
303.3345042657348
 20
16.03490862671236
 30
0.0
 11
303.6127350537349
 21
13.25281458671242
 31
0.0
  0
LINE
  5
3C5
330
2AF
100
AcDbEntity
  8
06-99
100
AcDbLine
 10
303.6127350537349
 20
13.25281458671242
 30
0.0
 11
304.4843290737348
 21
13.25281458671242
 31
0.0
  0
LINE
  5
3C6
330
2AF
100
AcDbEntity
  8
06-99
100
AcDbLine
 10
304.4843290737348
 20
13.25281458671242
 30
0.0
 11
304.8772386897349
 21
14.20222854671237
 31
0.0
  0
LINE
  5
3C7
330
2AF
100
AcDbEntity
  8
06-99
100
AcDbLine
 10
304.8772386897349
 20
14.20222854671237
 30
0.0
 11
304.9325127657348
 21
14.33510159471234
 31
0.0
  0
LINE
  5
3C8
330
2AF
100
AcDbEntity
  8
06-99
100
AcDbLine
 10
304.9325127657348
 20
14.33510159471234
 30
0.0
 11
304.9905774537349
 21
14.48699927471239
 31
0.0
  0
LINE
  5
3C9
330
2AF
100
AcDbEntity
  8
06-99
100
AcDbLine
 10
304.9905774537349
 20
14.48699927471239
 30
0.0
 11
305.0434565217349
 21
14.66137866671232
 31
0.0
  0
LINE
  5
3CA
330
2AF
100
AcDbEntity
  8
06-99
100
AcDbLine
 10
309.4520674977348
 20
14.26448449871236
 30
0.0
 11
309.5983590057348
 21
14.57965971071235
 31
0.0
  0
LINE
  5
3CB
330
2AF
100
AcDbEntity
  8
06-99
100
AcDbLine
 10
309.5983590057348
 20
14.57965971071235
 30
0.0
 11
309.6731103417349
 21
14.74409554271244
 31
0.0
  0
LINE
  5
3CC
330
2AF
100
AcDbEntity
  8
06-99
100
AcDbLine
 10
309.6731103417349
 20
14.74409554271244
 30
0.0
 11
309.7541521377349
 21
14.94571102271237
 31
0.0
  0
LINE
  5
3CD
330
2AF
100
AcDbEntity
  8
06-99
100
AcDbLine
 10
309.7541521377349
 20
14.94571102271237
 30
0.0
 11
309.8288286297349
 21
15.19056495071243
 31
0.0
  0
LINE
  5
3CE
330
2AF
100
AcDbEntity
  8
06-99
100
AcDbLine
 10
309.8288286297349
 20
15.19056495071243
 30
0.0
 11
309.8482880697349
 21
15.19056495071243
 31
0.0
  0
LINE
  5
3CF
330
2AF
100
AcDbEntity
  8
06-99
100
AcDbLine
 10
309.8482880697349
 20
15.19056495071243
 30
0.0
 11
309.8286646857348
 21
14.94571102271237
 31
0.0
  0
LINE
  5
3D0
330
2AF
100
AcDbEntity
  8
06-99
100
AcDbLine
 10
309.8286646857348
 20
14.94571102271237
 30
0.0
 11
309.8320718697348
 21
14.74409554271244
 31
0.0
  0
LINE
  5
3D1
330
2AF
100
AcDbEntity
  8
06-99
100
AcDbLine
 10
309.8320718697348
 20
14.74409554271244
 30
0.0
 11
309.8435051817348
 21
14.57965971071235
 31
0.0
  0
LINE
  5
3D2
330
2AF
100
AcDbEntity
  8
06-99
100
AcDbLine
 10
309.8435051817348
 20
14.57965971071235
 30
0.0
 11
309.868410413735
 21
14.26448449871236
 31
0.0
  0
LINE
  5
3D3
330
2AF
100
AcDbEntity
  8
06-99
100
AcDbLine
 10
309.868410413735
 20
14.26448449871236
 30
0.0
 11
309.4520674977348
 21
14.26448449871236
 31
0.0
  0
LINE
  5
3D4
330
2AF
100
AcDbEntity
  8
06-99
100
AcDbLine
 10
312.586705289735
 20
13.25281458671242
 30
0.0
 11
313.5672400977347
 21
13.25281458671242
 31
0.0
  0
LINE
  5
3D5
330
2AF
100
AcDbEntity
  8
06-99
100
AcDbLine
 10
313.5672400977347
 20
13.25281458671242
 30
0.0
 11
313.7440358817348
 21
14.17110413471232
 31
0.0
  0
LINE
  5
3D6
330
2AF
100
AcDbEntity
  8
06-99
100
AcDbLine
 10
313.7440358817348
 20
14.17110413471232
 30
0.0
 11
314.053626305735
 21
13.25281458671242
 31
0.0
  0
LINE
  5
3D7
330
2AF
100
AcDbEntity
  8
06-99
100
AcDbLine
 10
314.053626305735
 20
13.25281458671242
 30
0.0
 11
315.1742370057348
 21
13.25281458671242
 31
0.0
  0
LINE
  5
3D8
330
2AF
100
AcDbEntity
  8
06-99
100
AcDbLine
 10
315.1742370057348
 20
13.25281458671242
 30
0.0
 11
314.6490673497349
 21
14.38511520671233
 31
0.0
  0
LINE
  5
3D9
330
2AF
100
AcDbEntity
  8
06-99
100
AcDbLine
 10
314.6490673497349
 20
14.38511520671233
 30
0.0
 11
314.8084280457349
 21
14.42380955471236
 31
0.0
  0
LINE
  5
3DA
330
2AF
100
AcDbEntity
  8
06-99
100
AcDbLine
 10
314.8084280457349
 20
14.42380955471236
 30
0.0
 11
314.9537002497348
 21
14.49881749871235
 31
0.0
  0
LINE
  5
3DB
330
2AF
100
AcDbEntity
  8
06-99
100
AcDbLine
 10
314.9537002497348
 20
14.49881749871235
 30
0.0
 11
315.0813484737348
 21
14.60690292671233
 31
0.0
  0
LINE
  5
3DC
330
2AF
100
AcDbEntity
  8
06-99
100
AcDbLine
 10
315.0813484737348
 20
14.60690292671233
 30
0.0
 11
315.1878301017348
 21
14.74481903471235
 31
0.0
  0
LINE
  5
3DD
330
2AF
100
AcDbEntity
  8
06-99
100
AcDbLine
 10
315.1878301017348
 20
14.74481903471235
 30
0.0
 11
315.2695989537348
 21
14.90932258271232
 31
0.0
  0
LINE
  5
3DE
330
2AF
100
AcDbEntity
  8
06-99
100
AcDbLine
 10
315.2695989537348
 20
14.90932258271232
 30
0.0
 11
315.3231124137347
 21
15.09717033071234
 31
0.0
  0
LINE
  5
3DF
330
2AF
100
AcDbEntity
  8
06-99
100
AcDbLine
 10
315.3231124137347
 20
15.09717033071234
 30
0.0
 11
315.3445997697348
 21
15.26809264271236
 31
0.0
  0
LINE
  5
3E0
330
2AF
100
AcDbEntity
  8
06-99
100
AcDbLine
 10
315.3445997697348
 20
15.26809264271236
 30
0.0
 11
315.3403015857348
 21
15.42330127871241
 31
0.0
  0
LINE
  5
3E1
330
2AF
100
AcDbEntity
  8
06-99
100
AcDbLine
 10
315.3403015857348
 20
15.42330127871241
 30
0.0
 11
315.3102285537349
 21
15.56226163871236
 31
0.0
  0
LINE
  5
3E2
330
2AF
100
AcDbEntity
  8
06-99
100
AcDbLine
 10
315.3102285537349
 20
15.56226163871236
 30
0.0
 11
315.2543913657347
 21
15.68443555871226
 31
0.0
  0
LINE
  5
3E3
330
2AF
100
AcDbEntity
  8
06-99
100
AcDbLine
 10
315.2543913657347
 20
15.68443555871226
 30
0.0
 11
315.1728078417348
 21
15.78928843871239
 31
0.0
  0
LINE
  5
3E4
330
2AF
100
AcDbEntity
  8
06-99
100
AcDbLine
 10
315.1728078417348
 20
15.78928843871239
 30
0.0
 11
315.0654922377348
 21
15.87627855071235
 31
0.0
  0
LINE
  5
3E5
330
2AF
100
AcDbEntity
  8
06-99
100
AcDbLine
 10
315.0654922377348
 20
15.87627855071235
 30
0.0
 11
314.9324516817348
 21
15.94487485871235
 31
0.0
  0
LINE
  5
3E6
330
2AF
100
AcDbEntity
  8
06-99
100
AcDbLine
 10
314.9324516817348
 20
15.94487485871235
 30
0.0
 11
314.7737075577347
 21
15.9945356347124
 31
0.0
  0
LINE
  5
3E7
330
2AF
100
AcDbEntity
  8
06-99
100
AcDbLine
 10
314.7737075577347
 20
15.9945356347124
 30
0.0
 11
314.5892634297348
 21
16.02472627871236
 31
0.0
  0
LINE
  5
3E8
330
2AF
100
AcDbEntity
  8
06-99
100
AcDbLine
 10
314.5892634297348
 20
16.02472627871236
 30
0.0
 11
314.3791442457348
 21
16.03490862671236
 31
0.0
  0
LINE
  5
3E9
330
2AF
100
AcDbEntity
  8
06-99
100
AcDbLine
 10
314.3791442457348
 20
16.03490862671236
 30
0.0
 11
313.1223424137348
 21
16.03490862671236
 31
0.0
  0
LINE
  5
3EA
330
2AF
100
AcDbEntity
  8
06-99
100
AcDbLine
 10
313.1223424137348
 20
16.03490862671236
 30
0.0
 11
312.586705289735
 21
13.25281458671242
 31
0.0
  0
LINE
  5
3EB
330
2AF
100
AcDbEntity
  8
06-99
100
AcDbLine
 10
313.9650323937349
 20
15.31896517871234
 30
0.0
 11
314.1206829657349
 21
15.31896517871234
 31
0.0
  0
LINE
  5
3EC
330
2AF
100
AcDbEntity
  8
06-99
100
AcDbLine
 10
314.1206829657349
 20
15.31896517871234
 30
0.0
 11
314.2773528417349
 21
15.28538517071229
 31
0.0
  0
LINE
  5
3ED
330
2AF
100
AcDbEntity
  8
06-99
100
AcDbLine
 10
314.2773528417349
 20
15.28538517071229
 30
0.0
 11
314.3582200017347
 21
15.19041169871241
 31
0.0
  0
LINE
  5
3EE
330
2AF
100
AcDbEntity
  8
06-99
100
AcDbLine
 10
314.3582200017347
 20
15.19041169871241
 30
0.0
 11
314.3632167297349
 21
15.04270171871235
 31
0.0
  0
LINE
  5
3EF
330
2AF
100
AcDbEntity
  8
06-99
100
AcDbLine
 10
314.3632167297349
 20
15.04270171871235
 30
0.0
 11
314.3008645497348
 21
14.8970018347124
 31
0.0
  0
LINE
  5
3F0
330
2AF
100
AcDbEntity
  8
06-99
100
AcDbLine
 10
314.3008645497348
 20
14.8970018347124
 30
0.0
 11
314.1832917537348
 21
14.80578125471237
 31
0.0
  0
LINE
  5
3F1
330
2AF
100
AcDbEntity
  8
06-99
100
AcDbLine
 10
314.1832917537348
 20
14.80578125471237
 30
0.0
 11
314.0158122657348
 21
14.77422203471229
 31
0.0
  0
LINE
  5
3F2
330
2AF
100
AcDbEntity
  8
06-99
100
AcDbLine
 10
314.0158122657348
 20
14.77422203471229
 30
0.0
 11
313.8601616937349
 21
14.77422203471229
 31
0.0
  0
LINE
  5
3F3
330
2AF
100
AcDbEntity
  8
06-99
100
AcDbLine
 10
313.8601616937349
 20
14.77422203471229
 30
0.0
 11
313.9650323937349
 21
15.31896517871234
 31
0.0
  0
LINE
  5
3F4
330
2AF
100
AcDbEntity
  8
06-99
100
AcDbLine
 10
309.579801257735
 20
17.12736016271231
 30
0.0
 11
311.3988989337349
 21
17.12736016271231
 31
0.0
  0
LINE
  5
3F5
330
2AF
100
AcDbEntity
  8
06-99
100
AcDbLine
 10
311.3988989337349
 20
17.12736016271231
 30
0.0
 11
311.3988989337349
 21
17.44082465471229
 31
0.0
  0
LINE
  5
3F6
330
2AF
100
AcDbEntity
  8
06-99
100
AcDbLine
 10
311.3988989337349
 20
17.44082465471229
 30
0.0
 11
309.913819337735
 21
17.44082465471229
 31
0.0
  0
LINE
  5
3F7
330
2AF
100
AcDbEntity
  8
06-99
100
AcDbLine
 10
309.913819337735
 20
17.44082465471229
 30
0.0
 11
309.913819337735
 21
19.02353290271242
 31
0.0
  0
LINE
  5
3F8
330
2AF
100
AcDbEntity
  8
06-99
100
AcDbLine
 10
309.913819337735
 20
19.02353290271242
 30
0.0
 11
311.3988989337349
 21
19.02353290271242
 31
0.0
  0
LINE
  5
3F9
330
2AF
100
AcDbEntity
  8
06-99
100
AcDbLine
 10
311.3988989337349
 20
19.02353290271242
 30
0.0
 11
311.3988989337349
 21
19.3369973947124
 31
0.0
  0
LINE
  5
3FA
330
2AF
100
AcDbEntity
  8
06-99
100
AcDbLine
 10
311.3988989337349
 20
19.3369973947124
 30
0.0
 11
309.913819337735
 21
19.3369973947124
 31
0.0
  0
LINE
  5
3FB
330
2AF
100
AcDbEntity
  8
06-99
100
AcDbLine
 10
309.913819337735
 20
19.3369973947124
 30
0.0
 11
309.913819337735
 21
20.48806960271236
 31
0.0
  0
LINE
  5
3FC
330
2AF
100
AcDbEntity
  8
06-99
100
AcDbLine
 10
309.913819337735
 20
20.48806960271236
 30
0.0
 11
311.3988989337349
 21
20.48806960271236
 31
0.0
  0
LINE
  5
3FD
330
2AF
100
AcDbEntity
  8
06-99
100
AcDbLine
 10
311.3988989337349
 20
20.48806960271236
 30
0.0
 11
311.3988989337349
 21
20.80153409471234
 31
0.0
  0
LINE
  5
3FE
330
2AF
100
AcDbEntity
  8
06-99
100
AcDbLine
 10
311.3988989337349
 20
20.80153409471234
 30
0.0
 11
309.579801257735
 21
20.80153409471234
 31
0.0
  0
LINE
  5
3FF
330
2AF
100
AcDbEntity
  8
06-99
100
AcDbLine
 10
309.579801257735
 20
20.80153409471234
 30
0.0
 11
309.579801257735
 21
17.12736016271231
 31
0.0
  0
LINE
  5
400
330
2AF
100
AcDbEntity
  8
06-99
100
AcDbLine
 10
304.853024873735
 20
17.12736016271231
 30
0.0
 11
305.1870465177349
 21
17.12736016271231
 31
0.0
  0
LINE
  5
401
330
2AF
100
AcDbEntity
  8
06-99
100
AcDbLine
 10
305.1870465177349
 20
17.12736016271231
 30
0.0
 11
305.1870465177349
 21
20.09753361071233
 31
0.0
  0
LINE
  5
402
330
2AF
100
AcDbEntity
  8
06-99
100
AcDbLine
 10
305.1870465177349
 20
20.09753361071233
 30
0.0
 11
307.7666661537348
 21
17.01858688271232
 31
0.0
  0
LINE
  5
403
330
2AF
100
AcDbEntity
  8
06-99
100
AcDbLine
 10
307.7666661537348
 20
17.01858688271232
 30
0.0
 11
307.7666661537348
 21
20.80153409471234
 31
0.0
  0
LINE
  5
404
330
2AF
100
AcDbEntity
  8
06-99
100
AcDbLine
 10
307.7666661537348
 20
20.80153409471234
 30
0.0
 11
307.4326587657349
 21
20.80153409471234
 31
0.0
  0
LINE
  5
405
330
2AF
100
AcDbEntity
  8
06-99
100
AcDbLine
 10
307.4326587657349
 20
20.80153409471234
 30
0.0
 11
307.4326587657349
 21
17.88274639871235
 31
0.0
  0
LINE
  5
406
330
2AF
100
AcDbEntity
  8
06-99
100
AcDbLine
 10
307.4326587657349
 20
17.88274639871235
 30
0.0
 11
304.853024873735
 21
20.95568422271231
 31
0.0
  0
LINE
  5
407
330
2AF
100
AcDbEntity
  8
06-99
100
AcDbLine
 10
304.853024873735
 20
20.95568422271231
 30
0.0
 11
304.853024873735
 21
17.12736016271231
 31
0.0
  0
LINE
  5
408
330
2AF
100
AcDbEntity
  8
06-99
100
AcDbLine
 10
313.448423465735
 20
20.50862675471228
 30
0.0
 11
313.7824308537349
 21
20.50862675471228
 31
0.0
  0
LINE
  5
409
330
2AF
100
AcDbEntity
  8
06-99
100
AcDbLine
 10
313.7824308537349
 20
20.50862675471228
 30
0.0
 11
313.9866159777348
 21
20.50030837871236
 31
0.0
  0
LINE
  5
40A
330
2AF
100
AcDbEntity
  8
06-99
100
AcDbLine
 10
313.9866159777348
 20
20.50030837871236
 30
0.0
 11
314.1604465137349
 21
20.47385993471232
 31
0.0
  0
LINE
  5
40B
330
2AF
100
AcDbEntity
  8
06-99
100
AcDbLine
 10
314.1604465137349
 20
20.47385993471232
 30
0.0
 11
314.3048954337349
 21
20.42705748671227
 31
0.0
  0
LINE
  5
40C
330
2AF
100
AcDbEntity
  8
06-99
100
AcDbLine
 10
314.3048954337349
 20
20.42705748671227
 30
0.0
 11
314.4209178897349
 21
20.35767353471232
 31
0.0
  0
LINE
  5
40D
330
2AF
100
AcDbEntity
  8
06-99
100
AcDbLine
 10
314.4209178897349
 20
20.35767353471232
 30
0.0
 11
314.509479725735
 21
20.26348057871229
 31
0.0
  0
LINE
  5
40E
330
2AF
100
AcDbEntity
  8
06-99
100
AcDbLine
 10
314.509479725735
 20
20.26348057871229
 30
0.0
 11
314.5715432217348
 21
20.14225111871241
 31
0.0
  0
LINE
  5
40F
330
2AF
100
AcDbEntity
  8
06-99
100
AcDbLine
 10
314.5715432217348
 20
20.14225111871241
 30
0.0
 11
314.6080777857349
 21
19.99175052671228
 31
0.0
  0
LINE
  5
410
330
2AF
100
AcDbEntity
  8
06-99
100
AcDbLine
 10
314.6080777857349
 20
19.99175052671228
 30
0.0
 11
314.6200421337348
 21
19.80976199471234
 31
0.0
  0
LINE
  5
411
330
2AF
100
AcDbEntity
  8
06-99
100
AcDbLine
 10
314.6200421337348
 20
19.80976199471234
 30
0.0
 11
314.6074469577349
 21
19.63100957471232
 31
0.0
  0
LINE
  5
412
330
2AF
100
AcDbEntity
  8
06-99
100
AcDbLine
 10
314.6074469577349
 20
19.63100957471232
 30
0.0
 11
314.5693763097349
 21
19.48586211071233
 31
0.0
  0
LINE
  5
413
330
2AF
100
AcDbEntity
  8
06-99
100
AcDbLine
 10
314.5693763097349
 20
19.48586211071233
 30
0.0
 11
314.5054167657349
 21
19.37130445871241
 31
0.0
  0
LINE
  5
414
330
2AF
100
AcDbEntity
  8
06-99
100
AcDbLine
 10
314.5054167657349
 20
19.37130445871241
 30
0.0
 11
314.4151370817349
 21
19.28432860271238
 31
0.0
  0
LINE
  5
415
330
2AF
100
AcDbEntity
  8
06-99
100
AcDbLine
 10
314.4151370817349
 20
19.28432860271238
 30
0.0
 11
314.298123833735
 21
19.22192296271237
 31
0.0
  0
LINE
  5
416
330
2AF
100
AcDbEntity
  8
06-99
100
AcDbLine
 10
314.298123833735
 20
19.22192296271237
 30
0.0
 11
314.1539493417349
 21
19.18107239471232
 31
0.0
  0
LINE
  5
417
330
2AF
100
AcDbEntity
  8
06-99
100
AcDbLine
 10
314.1539493417349
 20
19.18107239471232
 30
0.0
 11
313.9821894897348
 21
19.15877244671242
 31
0.0
  0
LINE
  5
418
330
2AF
100
AcDbEntity
  8
06-99
100
AcDbLine
 10
313.9821894897348
 20
19.15877244671242
 30
0.0
 11
313.7824308537349
 21
19.15200797471237
 31
0.0
  0
LINE
  5
419
330
2AF
100
AcDbEntity
  8
06-99
100
AcDbLine
 10
313.7824308537349
 20
19.15200797471237
 30
0.0
 11
313.448423465735
 21
19.15200797471237
 31
0.0
  0
LINE
  5
41A
330
2AF
100
AcDbEntity
  8
06-99
100
AcDbLine
 10
313.448423465735
 20
19.15200797471237
 30
0.0
 11
313.448423465735
 21
20.50862675471228
 31
0.0
  0
LINE
  5
41B
330
2AF
100
AcDbEntity
  8
06-99
100
AcDbLine
 10
315.3445997697348
 20
17.12736016271231
 30
0.0
 11
314.0239560057348
 21
18.87965422271236
 31
0.0
  0
LINE
  5
41C
330
2AF
100
AcDbEntity
  8
06-99
100
AcDbLine
 10
314.0239560057348
 20
18.87965422271236
 30
0.0
 11
314.212373993735
 21
18.8922529627124
 31
0.0
  0
LINE
  5
41D
330
2AF
100
AcDbEntity
  8
06-99
100
AcDbLine
 10
314.212373993735
 20
18.8922529627124
 30
0.0
 11
314.3829007017349
 21
18.92942191871231
 31
0.0
  0
LINE
  5
41E
330
2AF
100
AcDbEntity
  8
06-99
100
AcDbLine
 10
314.3829007017349
 20
18.92942191871231
 30
0.0
 11
314.5343992137349
 21
18.99023088671242
 31
0.0
  0
LINE
  5
41F
330
2AF
100
AcDbEntity
  8
06-99
100
AcDbLine
 10
314.5343992137349
 20
18.99023088671242
 30
0.0
 11
314.6657219217349
 21
19.07375679071236
 31
0.0
  0
LINE
  5
420
330
2AF
100
AcDbEntity
  8
06-99
100
AcDbLine
 10
314.6657219217349
 20
19.07375679071236
 30
0.0
 11
314.7757283457349
 21
19.17905873471233
 31
0.0
  0
LINE
  5
421
330
2AF
100
AcDbEntity
  8
06-99
100
AcDbLine
 10
314.7757283457349
 20
19.17905873471233
 30
0.0
 11
314.8632744417348
 21
19.30521720671237
 31
0.0
  0
LINE
  5
422
330
2AF
100
AcDbEntity
  8
06-99
100
AcDbLine
 10
314.8632744417348
 20
19.30521720671237
 30
0.0
 11
314.9272232937349
 21
19.4512948747124
 31
0.0
  0
LINE
  5
423
330
2AF
100
AcDbEntity
  8
06-99
100
AcDbLine
 10
314.9272232937349
 20
19.4512948747124
 30
0.0
 11
314.9664308577349
 21
19.61636153471238
 31
0.0
  0
LINE
  5
424
330
2AF
100
AcDbEntity
  8
06-99
100
AcDbLine
 10
314.9664308577349
 20
19.61636153471238
 30
0.0
 11
314.9797530897347
 21
19.79949054671237
 31
0.0
  0
LINE
  5
425
330
2AF
100
AcDbEntity
  8
06-99
100
AcDbLine
 10
314.9797530897347
 20
19.79949054671237
 30
0.0
 11
314.969937833735
 21
19.97455422671237
 31
0.0
  0
LINE
  5
426
330
2AF
100
AcDbEntity
  8
06-99
100
AcDbLine
 10
314.969937833735
 20
19.97455422671237
 30
0.0
 11
314.940481373735
 21
20.13261762671238
 31
0.0
  0
LINE
  5
427
330
2AF
100
AcDbEntity
  8
06-99
100
AcDbLine
 10
314.940481373735
 20
20.13261762671238
 30
0.0
 11
314.8913551977349
 21
20.27374846271237
 31
0.0
  0
LINE
  5
428
330
2AF
100
AcDbEntity
  8
06-99
100
AcDbLine
 10
314.8913551977349
 20
20.27374846271237
 30
0.0
 11
314.822541485735
 21
20.39801445071225
 31
0.0
  0
LINE
  5
429
330
2AF
100
AcDbEntity
  8
06-99
100
AcDbLine
 10
314.822541485735
 20
20.39801445071225
 30
0.0
 11
314.7340152897349
 21
20.50548687071239
 31
0.0
  0
LINE
  5
42A
330
2AF
100
AcDbEntity
  8
06-99
100
AcDbLine
 10
314.7340152897349
 20
20.50548687071239
 30
0.0
 11
314.625751661735
 21
20.59623700271237
 31
0.0
  0
LINE
  5
42B
330
2AF
100
AcDbEntity
  8
06-99
100
AcDbLine
 10
314.625751661735
 20
20.59623700271237
 30
0.0
 11
314.4977292177349
 21
20.67032899871231
 31
0.0
  0
LINE
  5
42C
330
2AF
100
AcDbEntity
  8
06-99
100
AcDbLine
 10
314.4977292177349
 20
20.67032899871231
 30
0.0
 11
314.3499230097348
 21
20.72783413871235
 31
0.0
  0
LINE
  5
42D
330
2AF
100
AcDbEntity
  8
06-99
100
AcDbLine
 10
314.3499230097348
 20
20.72783413871235
 30
0.0
 11
314.1823116537348
 21
20.76882726671238
 31
0.0
  0
LINE
  5
42E
330
2AF
100
AcDbEntity
  8
06-99
100
AcDbLine
 10
314.1823116537348
 20
20.76882726671238
 30
0.0
 11
313.9948737657348
 21
20.79336897071238
 31
0.0
  0
LINE
  5
42F
330
2AF
100
AcDbEntity
  8
06-99
100
AcDbLine
 10
313.9948737657348
 20
20.79336897071238
 30
0.0
 11
313.7875808337349
 21
20.80153409471234
 31
0.0
  0
LINE
  5
430
330
2AF
100
AcDbEntity
  8
06-99
100
AcDbLine
 10
313.7875808337349
 20
20.80153409471234
 30
0.0
 11
313.7875808337349
 21
20.80153409471234
 31
0.0
  0
LINE
  5
431
330
2AF
100
AcDbEntity
  8
06-99
100
AcDbLine
 10
313.7875808337349
 20
20.80153409471234
 30
0.0
 11
313.1144053857349
 21
20.80153409471234
 31
0.0
  0
LINE
  5
432
330
2AF
100
AcDbEntity
  8
06-99
100
AcDbLine
 10
313.1144053857349
 20
20.80153409471234
 30
0.0
 11
313.1144053857349
 21
17.12736016271231
 31
0.0
  0
LINE
  5
433
330
2AF
100
AcDbEntity
  8
06-99
100
AcDbLine
 10
313.1144053857349
 20
17.12736016271231
 30
0.0
 11
313.448423465735
 21
17.12736016271231
 31
0.0
  0
LINE
  5
434
330
2AF
100
AcDbEntity
  8
06-99
100
AcDbLine
 10
313.448423465735
 20
17.12736016271231
 30
0.0
 11
313.448423465735
 21
18.87965422271236
 31
0.0
  0
LINE
  5
435
330
2AF
100
AcDbEntity
  8
06-99
100
AcDbLine
 10
313.448423465735
 20
18.87965422271236
 30
0.0
 11
313.6488378777349
 21
18.87965422271236
 31
0.0
  0
LINE
  5
436
330
2AF
100
AcDbEntity
  8
06-99
100
AcDbLine
 10
313.6488378777349
 20
18.87965422271236
 30
0.0
 11
314.9386387857348
 21
17.12736016271231
 31
0.0
  0
LINE
  5
437
330
2AF
100
AcDbEntity
  8
06-99
100
AcDbLine
 10
314.9386387857348
 20
17.12736016271231
 30
0.0
 11
315.3445997697348
 21
17.12736016271231
 31
0.0
  0
TEXT
  5
438
330
2AF
100
AcDbEntity
  8
06-99
100
AcDbText
 10
294.6083578687944
 20
10.63320974709819
 30
0.0
 40
1.4256
  1
GmbH & Co KG
 41
1.199203187251
 51
15.0
  7
ROMAND8
 72
     5
 11
315.0419578687945
 21
10.63320974709819
 31
0.0
100
AcDbText
  0
TEXT
  5
43A
330
2AF
100
AcDbEntity
  8
06-99
100
AcDbText
 10
294.7098146233783
 20
8.391016474674643
 30
0.0
 40
1.4256
  1
72774 Reutlingen
 50
0.5663244663116128
 41
1.087840993687879
 51
15.0
  7
ROMAND8
 72
     5
 11
314.9434146233783
 21
8.591016474674631
 31
0.0
100
AcDbText
  0
TEXT
  5
43B
330
2AF
100
AcDbEntity
  8
08-99
100
AcDbText
 10
282.4141179695723
 20
49.4500923918223
 30
0.0
 40
2.25
  1
Zul. Abw.
 51
15.0
  7
ROMANS8
100
AcDbText
  0
TEXT
  5
43C
330
2AF
100
AcDbEntity
  8
08-99
100
AcDbText
 10
332.2099260900184
 20
50.28616492075241
 30
0.0
 40
2.0
  1
Mat. Art.
 51
15.0
  7
ROMANS8
100
AcDbText
  0
TEXT
  5
43D
330
2AF
100
AcDbEntity
  8
08-99
100
AcDbText
 10
364.4865307401076
 20
50.40431414472369
 30
0.0
 40
2.0
  1
Oberfläche:
 51
15.0
  7
ROMANS8
100
AcDbText
  0
TEXT
  5
43E
330
2AF
100
AcDbEntity
  8
08-99
100
AcDbText
 10
393.7625376083154
 20
42.73764747805694
 30
0.0
 40
2.0
  1
Blech Dicke:
 51
15.0
  7
ROMANS8
100
AcDbText
  0
TEXT
  5
43F
330
2AF
100
AcDbEntity
  8
08-99
100
AcDbText
 10
396.4380277982925
 20
50.28616492075252
 30
0.0
 40
2.0
  1
Maßstab:
 51
15.0
  7
ROMANS8
100
AcDbText
  0
LINE
  5
440
330
2AF
100
AcDbEntity
  8
01-99
100
AcDbLine
 10
323.9999997697348
 20
47.88888965037898
 30
0.0
 11
300.9999997697348
 21
47.88888965037898
 31
0.0
  0
LINE
  5
441
330
2AF
100
AcDbEntity
  8
01-99
100
AcDbLine
 10
323.9999997697348
 20
45.33333409471225
 30
0.0
 11
300.9999997697348
 21
45.33333409471225
 31
0.0
  0
LINE
  5
442
330
2AF
100
AcDbEntity
  8
01-99
100
AcDbLine
 10
323.9999997697349
 20
41.50000076137894
 30
0.0
 11
300.9999997697347
 21
41.50000076137897
 31
0.0
  0
ATTDEF
  5
443
330
2AF
100
AcDbEntity
  8
06-99
100
AcDbText
 10
325.495446508912
 20
27.18783945866119
 30
0.0
 40
4.5
  1

 41
0.9
  7
ROMANS8
100
AcDbAttributeDefinition
280
     0
  3
Benennung/Teil
  2
TEILE
 70
     0
280
     0
  0
ATTDEF
  5
444
330
2AF
100
AcDbEntity
  8
06-99
100
AcDbText
 10
325.495446508912
 20
19.89177436492207
 30
0.0
 40
4.5
  1

 41
0.9
  7
ROMANS8
100
AcDbAttributeDefinition
280
     0
  3
Benennung/Teil2
  2
TEILE2
 70
     0
280
     0
  0
ATTDEF
  5
445
330
2AF
100
AcDbEntity
  8
06-99
100
AcDbText
 10
400.3473859814493
 20
46.33333409471231
 30
0.0
 40
3.375
  1

  7
ROMANS8
100
AcDbAttributeDefinition
280
     0
  3
Maßstab
  2
:
 70
     0
280
     0
  0
ATTDEF
  5
446
330
2AF
100
AcDbEntity
  8
06-99
100
AcDbText
 10
301.9970675691022
 20
28.44168622941026
 30
0.0
 40
2.5
  1

 41
0.9
  7
ROMANS8
100
AcDbAttributeDefinition
280
     0
  3
Name
  2
NAME
 70
     0
280
     0
  0
ATTDEF
  5
447
330
2AF
100
AcDbEntity
  8
06-99
100
AcDbText
 10
288.4931462216289
 20
28.46123593549021
 30
0.0
 40
2.5
  1

 50
359.9144597696142
 41
0.9542572414211148
  7
ROMANS8
 72
     5
 11
299.7397368901736
 21
28.44444522804565
 31
0.0
100
AcDbAttributeDefinition
280
     0
  3
Datum
  2
DATUM
 70
     0
280
     0
  0
ATTDEF
  5
448
330
2AF
100
AcDbEntity
  8
06-99
100
AcDbText
 10
387.5063437368931
 20
8.492900561667681
 30
0.0
 40
2.99376
  1

  7
ROMANS8
100
AcDbAttributeDefinition
280
     0
  3
Ident-Nummer
  2
ID.NR
 70
     0
280
     0
  0
ATTDEF
  5
449
330
2AF
100
AcDbEntity
  8
06-99
100
AcDbText
 10
325.7312660254454
 20
38.66666740582343
 30
0.0
 40
3.0
  1

 41
0.9
  7
ROMANS8
100
AcDbAttributeDefinition
280
     0
  3
Zuschnitts.Länge
  2
LÄNGE
 70
     0
280
     0
  0
ATTDEF
  5
44A
330
2AF
100
AcDbEntity
  8
06-99
100
AcDbText
 10
359.1808046815046
 20
38.6781046318238
 30
0.0
 40
3.0
  1

 41
0.9
  7
ROMANS8
100
AcDbAttributeDefinition
280
     0
  3
Zuschnitts Breite
  2
BREITE
 70
     0
280
     0
  0
ATTDEF
  5
44B
330
2AF
100
AcDbEntity
  8
06-99
100
AcDbText
 10
399.6090918964667
 20
38.66666742804574
 30
0.0
 40
3.09375
  1

  7
ROMANS8
100
AcDbAttributeDefinition
280
     0
  3
Blech.Dicke
  2
1.0
 70
     0
280
     0
  0
ATTDEF
  5
44C
330
2AF
100
AcDbEntity
  8
06-99
100
AcDbText
 10
373.1277853711375
 20
46.33333409471243
 30
0.0
 40
3.0
  1

  7
ROMANS8
 72
     1
 11
373.1277853711375
 21
46.33333409471243
 31
0.0
100
AcDbAttributeDefinition
280
     0
  3
Oberfläche
  2
IV
 70
     0
280
     0
  0
ATTDEF
  5
44D
330
2AF
100
AcDbEntity
  8
06-99
100
AcDbText
 10
332.2747403058506
 20
46.33333409471219
 30
0.0
 40
3.375
  1
1.4301
  7
ROMANS8
100
AcDbAttributeDefinition
280
     0
  3
Mat.Art
  2
1.4301
 70
     0
280
     0
  0
ATTDEF
  5
44E
330
2AF
100
AcDbEntity
  8
06-99
100
AcDbText
 10
355.0006336566149
 20
8.504397365733609
 30
0.0
 40
3.168
  1

 41
0.9
  7
ROMANS8
100
AcDbAttributeDefinition
280
     0
  3
Auftrags Nr.
  2
AUFTRAGS.NR.
 70
     0
280
     0
  0
ATTDEF
  5
44F
330
2AF
100
AcDbEntity
  8
06-99
100
AcDbText
 10
325.4999997697348
 20
8.500000761378998
 30
0.0
 40
3.168
  1

 41
0.9
  7
ROMANS8
100
AcDbAttributeDefinition
280
     0
  3
Sonder-NR,WPS
  2
SONDER-NR
 70
     0
280
     0
  0
ATTDEF
  5
450
330
2AF
100
AcDbEntity
  8
06-99
100
AcDbText
 10
255.4997507647431
 20
7.601810830638839
 30
0.0
 40
1.5
  1

 41
0.9
  7
ROMANS8
100
AcDbAttributeDefinition
280
     0
  3
ERSETZT.Durch
  2
ERSETZT.DURCH
 70
     0
280
     0
  0
ATTDEF
  5
451
330
2AF
100
AcDbEntity
  8
06-99
100
AcDbText
 10
230.4994675499334
 20
7.597457159251405
 30
0.0
 40
1.5
  1

 41
0.9
  7
ROMANS8
100
AcDbAttributeDefinition
280
     0
  3
ERSETZT.Für
  2
ERSETZT.FÜR
 70
     0
280
     0
  0
ATTDEF
  5
452
330
2AF
100
AcDbEntity
  8
06-99
100
AcDbText
 10
309.0037152733153
 20
48.66851190138698
 30
0.0
 40
1.287
  1
DIN A3
  7
ROMANS8
 72
     1
 11
312.2518581304581
 21
48.66851190138698
 31
0.0
100
AcDbAttributeDefinition
280
     0
  3
Format
  2
FORMAT
 70
     0
280
     0
  0
ATTDEF
  5
453
330
2AF
100
AcDbEntity
  8
06-99
100
AcDbText
 10
304.9914283411633
 20
38.39666742804565
 30
0.0
 40
2.34
  1
DIN 2768
  7
ROMANS8
 72
     1
 11
313.0142854840205
 21
38.39666742804565
 31
0.0
100
AcDbAttributeDefinition
280
     0
  3
Norm / Kanten
  2
NORM2
 70
     0
280
     0
  0
ATTDEF
  5
454
330
2AF
100
AcDbEntity
  8
06-99
100
AcDbText
 10
301.8157140554491
 20
42.23000076137895
 30
0.0
 40
2.34
  1
DIN 6930-M
  7
ROMANS8
 72
     1
 11
312.5128569125919
 21
42.23000076137895
 31
0.0
100
AcDbAttributeDefinition
280
     0
  3
Norm / Fräsen
  2
NORM1
 70
     0
280
     0
  0
ENDBLK
  5
455
330
2AF
100
AcDbEntity
  8
0
100
AcDbBlockEnd
  0
BLOCK
  5
287
330
286
100
AcDbEntity
  8
0
100
AcDbBlockBegin
  2
*D8
 70
     1
 10
0.0
 20
0.0
 30
0.0
  3
*D8
  1

  0
LINE
  5
288
330
286
100
AcDbEntity
  8
09-01
 62
     4
370
    -2
100
AcDbLine
 10
125.4436399503624
 20
616.3836082567254
 30
0.0
 11
125.4436399503624
 21
629.6652601089733
 31
0.0
  0
LINE
  5
289
330
286
100
AcDbEntity
  8
09-01
 62
     4
370
    -2
100
AcDbLine
 10
525.4436399503622
 20
616.3836082567254
 30
0.0
 11
525.4436399503622
 21
629.6652601089733
 31
0.0
  0
LINE
  5
28A
330
286
100
AcDbEntity
  8
09-01
 62
     4
370
    -2
100
AcDbLine
 10
131.6936399503624
 20
627.1652601089733
 30
0.0
 11
519.1936399503622
 21
627.1652601089733
 31
0.0
  0
SOLID
  5
28B
330
286
100
AcDbEntity
  8
09-01
 62
     4
100
AcDbTrace
 10
131.6936399503624
 20
628.20692677564
 30
0.0
 11
131.6936399503624
 21
626.1235934423067
 31
0.0
 12
125.4436399503624
 22
627.1652601089733
 32
0.0
 13
125.4436399503624
 23
627.1652601089733
 33
0.0
  0
SOLID
  5
28C
330
286
100
AcDbEntity
  8
09-01
 62
     4
100
AcDbTrace
 10
519.1936399503622
 20
628.20692677564
 30
0.0
 11
519.1936399503622
 21
626.1235934423067
 31
0.0
 12
525.4436399503622
 22
627.1652601089733
 32
0.0
 13
525.4436399503622
 23
627.1652601089733
 33
0.0
  0
MTEXT
  5
28D
330
286
100
AcDbEntity
  8
09-01
 62
     1
100
AcDbMText
 10
325.4436399503624
 20
632.7902601089733
 30
0.0
 40
6.25
 41
0.0
 46
0.0
 71
     5
 72
     1
  1
400
 73
     1
 44
1.0
  0
POINT
  5
28E
330
286
100
AcDbEntity
  8
DEFPOINTS
 62
     0
100
AcDbPoint
 10
125.4436399503624
 20
613.8836082567254
 30
0.0
  0
POINT
  5
28F
330
286
100
AcDbEntity
  8
DEFPOINTS
 62
     0
100
AcDbPoint
 10
525.4436399503622
 20
613.8836082567254
 30
0.0
  0
POINT
  5
290
330
286
100
AcDbEntity
  8
DEFPOINTS
 62
     0
100
AcDbPoint
 10
525.4436399503622
 20
627.1652601089733
 30
0.0
  0
ENDBLK
  5
291
330
286
100
AcDbEntity
  8
0
100
AcDbBlockEnd
  0
BLOCK
  5
279
330
278
100
AcDbEntity
  8
0
100
AcDbBlockBegin
  2
*D9
 70
     1
 10
0.0
 20
0.0
 30
0.0
  3
*D9
  1

  0
LINE
  5
27A
330
278
100
AcDbEntity
  8
09-01
 62
     4
370
    -2
100
AcDbLine
 10
151.4436399503624
 20
566.1336082567256
 30
0.0
 11
151.4436399503624
 21
552.5660495416683
 31
0.0
  0
LINE
  5
27B
330
278
100
AcDbEntity
  8
09-01
 62
     4
370
    -2
100
AcDbLine
 10
472.4436399503624
 20
566.1336082567256
 30
0.0
 11
472.4436399503624
 21
552.5660495416683
 31
0.0
  0
LINE
  5
27C
330
278
100
AcDbEntity
  8
09-01
 62
     4
370
    -2
100
AcDbLine
 10
157.6936399503624
 20
555.0660495416683
 30
0.0
 11
466.1936399503624
 21
555.0660495416683
 31
0.0
  0
SOLID
  5
27D
330
278
100
AcDbEntity
  8
09-01
 62
     4
100
AcDbTrace
 10
157.6936399503624
 20
556.1077162083349
 30
0.0
 11
157.6936399503624
 21
554.0243828750017
 31
0.0
 12
151.4436399503624
 22
555.0660495416683
 32
0.0
 13
151.4436399503624
 23
555.0660495416683
 33
0.0
  0
SOLID
  5
27E
330
278
100
AcDbEntity
  8
09-01
 62
     4
100
AcDbTrace
 10
466.1936399503624
 20
556.1077162083349
 30
0.0
 11
466.1936399503624
 21
554.0243828750017
 31
0.0
 12
472.4436399503624
 22
555.0660495416683
 32
0.0
 13
472.4436399503624
 23
555.0660495416683
 33
0.0
  0
MTEXT
  5
27F
330
278
100
AcDbEntity
  8
09-01
 62
     1
100
AcDbMText
 10
311.9436399503625
 20
560.6910495416683
 30
0.0
 40
6.25
 41
0.0
 46
0.0
 71
     5
 72
     1
  1
321
 73
     1
 44
1.0
  0
POINT
  5
280
330
278
100
AcDbEntity
  8
DEFPOINTS
 62
     0
100
AcDbPoint
 10
151.4436399503624
 20
568.6336082567256
 30
0.0
  0
POINT
  5
281
330
278
100
AcDbEntity
  8
DEFPOINTS
 62
     0
100
AcDbPoint
 10
472.4436399503624
 20
568.6336082567256
 30
0.0
  0
POINT
  5
282
330
278
100
AcDbEntity
  8
DEFPOINTS
 62
     0
100
AcDbPoint
 10
472.4436399503624
 20
555.0660495416683
 30
0.0
  0
ENDBLK
  5
283
330
278
100
AcDbEntity
  8
0
100
AcDbBlockEnd
  0
BLOCK
  5
26C
330
26B
100
AcDbEntity
  8
0
100
AcDbBlockBegin
  2
*D10
 70
     1
 10
0.0
 20
0.0
 30
0.0
  3
*D10
  1

  0
LINE
  5
26D
330
26B
100
AcDbEntity
  8
09-01
 62
     4
370
    -2
100
AcDbLine
 10
144.9436399503625
 20
587.8836082567256
 30
0.0
 11
105.7867829991296
 21
587.8836082567256
 31
0.0
  0
LINE
  5
26E
330
26B
100
AcDbEntity
  8
09-01
 62
     4
370
    -2
100
AcDbLine
 10
144.9436399503625
 20
375.8836082567257
 30
0.0
 11
105.7867829991296
 21
375.8836082567258
 31
0.0
  0
LINE
  5
26F
330
26B
100
AcDbEntity
  8
09-01
 62
     4
370
    -2
100
AcDbLine
 10
108.2867829991297
 20
581.6336082567256
 30
0.0
 11
108.2867829991296
 21
382.1336082567258
 31
0.0
  0
SOLID
  5
270
330
26B
100
AcDbEntity
  8
09-01
 62
     4
100
AcDbTrace
 10
107.245116332463
 20
581.6336082567256
 30
0.0
 11
109.3284496657963
 21
581.6336082567256
 31
0.0
 12
108.2867829991297
 22
587.8836082567256
 32
0.0
 13
108.2867829991297
 23
587.8836082567256
 33
0.0
  0
SOLID
  5
271
330
26B
100
AcDbEntity
  8
09-01
 62
     4
100
AcDbTrace
 10
107.2451163324629
 20
382.1336082567258
 30
0.0
 11
109.3284496657963
 21
382.1336082567258
 31
0.0
 12
108.2867829991296
 22
375.8836082567258
 32
0.0
 13
108.2867829991296
 23
375.8836082567258
 33
0.0
  0
MTEXT
  5
272
330
26B
100
AcDbEntity
  8
09-01
 62
     1
100
AcDbMText
 10
102.6617829991296
 20
481.8836082567257
 30
0.0
 40
6.25
 41
0.0
 46
0.0
 71
     5
 72
     1
  1
212
 11
0.0000000000000001
 21
1.0
 31
0.0
 73
     1
 44
1.0
  0
POINT
  5
273
330
26B
100
AcDbEntity
  8
DEFPOINTS
 62
     0
100
AcDbPoint
 10
147.4436399503624
 20
587.8836082567256
 30
0.0
  0
POINT
  5
274
330
26B
100
AcDbEntity
  8
DEFPOINTS
 62
     0
100
AcDbPoint
 10
147.4436399503624
 20
375.8836082567257
 30
0.0
  0
POINT
  5
275
330
26B
100
AcDbEntity
  8
DEFPOINTS
 62
     0
100
AcDbPoint
 10
108.2867829991296
 20
375.8836082567258
 30
0.0
  0
ENDBLK
  5
276
330
26B
100
AcDbEntity
  8
0
100
AcDbBlockEnd
  0
BLOCK
  5
25F
330
25E
100
AcDbEntity
  8
0
100
AcDbBlockBegin
  2
*D11
 70
     1
 10
0.0
 20
0.0
 30
0.0
  3
*D11
  1

  0
LINE
  5
260
330
25E
100
AcDbEntity
  8
09-01
 62
     4
370
    -2
100
AcDbLine
 10
144.9436399503625
 20
587.8836082567256
 30
0.0
 11
105.7867829991296
 21
587.8836082567256
 31
0.0
  0
LINE
  5
261
330
25E
100
AcDbEntity
  8
09-01
 62
     4
370
    -2
100
AcDbLine
 10
122.9436399503624
 20
613.8836082567254
 30
0.0
 11
105.7867829991296
 21
613.8836082567254
 31
0.0
  0
LINE
  5
262
330
25E
100
AcDbEntity
  8
09-01
 62
     4
370
    -2
100
AcDbLine
 10
108.2867829991296
 20
594.1336082567256
 30
0.0
 11
108.2867829991296
 21
607.6336082567254
 31
0.0
  0
SOLID
  5
263
330
25E
100
AcDbEntity
  8
09-01
 62
     4
100
AcDbTrace
 10
107.2451163324629
 20
594.1336082567256
 30
0.0
 11
109.3284496657963
 21
594.1336082567256
 31
0.0
 12
108.2867829991296
 22
587.8836082567256
 32
0.0
 13
108.2867829991296
 23
587.8836082567256
 33
0.0
  0
SOLID
  5
264
330
25E
100
AcDbEntity
  8
09-01
 62
     4
100
AcDbTrace
 10
107.2451163324629
 20
607.6336082567254
 30
0.0
 11
109.3284496657963
 21
607.6336082567254
 31
0.0
 12
108.2867829991296
 22
613.8836082567254
 32
0.0
 13
108.2867829991296
 23
613.8836082567254
 33
0.0
  0
MTEXT
  5
265
330
25E
100
AcDbEntity
  8
09-01
 62
     1
100
AcDbMText
 10
102.6617829991295
 20
600.8836082567255
 30
0.0
 40
6.25
 41
0.0
 46
0.0
 71
     5
 72
     1
  1
26
 11
0.0000000000000001
 21
1.0
 31
0.0
 73
     1
 44
1.0
  0
POINT
  5
266
330
25E
100
AcDbEntity
  8
DEFPOINTS
 62
     0
100
AcDbPoint
 10
147.4436399503624
 20
587.8836082567256
 30
0.0
  0
POINT
  5
267
330
25E
100
AcDbEntity
  8
DEFPOINTS
 62
     0
100
AcDbPoint
 10
125.4436399503624
 20
613.8836082567254
 30
0.0
  0
POINT
  5
268
330
25E
100
AcDbEntity
  8
DEFPOINTS
 62
     0
100
AcDbPoint
 10
108.2867829991296
 20
613.8836082567254
 30
0.0
  0
ENDBLK
  5
269
330
25E
100
AcDbEntity
  8
0
100
AcDbBlockEnd
  0
BLOCK
  5
252
330
251
100
AcDbEntity
  8
0
100
AcDbBlockBegin
  2
*D12
 70
     1
 10
0.0
 20
0.0
 30
0.0
  3
*D12
  1

  0
LINE
  5
253
330
251
100
AcDbEntity
  8
09-01
 62
     4
370
    -2
100
AcDbLine
 10
144.9436399503625
 20
375.8836082567257
 30
0.0
 11
105.7867829991296
 21
375.8836082567258
 31
0.0
  0
LINE
  5
254
330
251
100
AcDbEntity
  8
09-01
 62
     4
370
    -2
100
AcDbLine
 10
122.9436399503624
 20
315.8836082567256
 30
0.0
 11
105.7867829991296
 21
315.8836082567256
 31
0.0
  0
LINE
  5
255
330
251
100
AcDbEntity
  8
09-01
 62
     4
370
    -2
100
AcDbLine
 10
108.2867829991296
 20
369.6336082567258
 30
0.0
 11
108.2867829991296
 21
322.1336082567256
 31
0.0
  0
SOLID
  5
256
330
251
100
AcDbEntity
  8
09-01
 62
     4
100
AcDbTrace
 10
107.2451163324629
 20
369.6336082567258
 30
0.0
 11
109.3284496657963
 21
369.6336082567258
 31
0.0
 12
108.2867829991296
 22
375.8836082567258
 32
0.0
 13
108.2867829991296
 23
375.8836082567258
 33
0.0
  0
SOLID
  5
257
330
251
100
AcDbEntity
  8
09-01
 62
     4
100
AcDbTrace
 10
107.2451163324629
 20
322.1336082567256
 30
0.0
 11
109.3284496657963
 21
322.1336082567256
 31
0.0
 12
108.2867829991296
 22
315.8836082567256
 32
0.0
 13
108.2867829991296
 23
315.8836082567256
 33
0.0
  0
MTEXT
  5
258
330
251
100
AcDbEntity
  8
09-01
 62
     1
100
AcDbMText
 10
102.6617829991296
 20
345.8836082567257
 30
0.0
 40
6.25
 41
0.0
 46
0.0
 71
     5
 72
     1
  1
60
 11
0.0000000000000001
 21
1.0
 31
0.0
 73
     1
 44
1.0
  0
POINT
  5
259
330
251
100
AcDbEntity
  8
DEFPOINTS
 62
     0
100
AcDbPoint
 10
147.4436399503624
 20
375.8836082567257
 30
0.0
  0
POINT
  5
25A
330
251
100
AcDbEntity
  8
DEFPOINTS
 62
     0
100
AcDbPoint
 10
125.4436399503624
 20
315.8836082567256
 30
0.0
  0
POINT
  5
25B
330
251
100
AcDbEntity
  8
DEFPOINTS
 62
     0
100
AcDbPoint
 10
108.2867829991296
 20
315.8836082567256
 30
0.0
  0
ENDBLK
  5
25C
330
251
100
AcDbEntity
  8
0
100
AcDbBlockEnd
  0
BLOCK
  5
245
330
244
100
AcDbEntity
  8
0
100
AcDbBlockBegin
  2
*D13
 70
     1
 10
0.0
 20
0.0
 30
0.0
  3
*D13
  1

  0
LINE
  5
246
330
244
100
AcDbEntity
  8
09-01
 62
     4
370
    -2
100
AcDbLine
 10
151.4436399503624
 20
566.1336082567256
 30
0.0
 11
151.4436399503624
 21
552.5660495416683
 31
0.0
  0
LINE
  5
247
330
244
100
AcDbEntity
  8
09-01
 62
     4
370
    -2
100
AcDbLine
 10
125.4436399503625
 20
534.2964100795033
 30
0.0
 11
125.4436399503625
 21
557.5660495416683
 31
0.0
  0
LINE
  5
248
330
244
100
AcDbEntity
  8
09-01
 62
     4
370
    -2
100
AcDbLine
 10
145.1936399503624
 20
555.0660495416683
 30
0.0
 11
131.6936399503625
 21
555.0660495416683
 31
0.0
  0
MTEXT
  5
249
330
244
100
AcDbEntity
  8
09-01
 62
     1
100
AcDbMText
 10
118.6332037000994
 20
559.9794423895786
 30
0.0
 40
6.25
 41
0.0
 46
0.0
 71
     5
 72
     1
  1
26
 73
     1
 44
1.0
  0
SOLID
  5
24A
330
244
100
AcDbEntity
  8
09-01
 62
     4
100
AcDbTrace
 10
145.1936399503624
 20
556.1077162083349
 30
0.0
 11
145.1936399503624
 21
554.0243828750017
 31
0.0
 12
151.4436399503624
 22
555.0660495416683
 32
0.0
 13
151.4436399503624
 23
555.0660495416683
 33
0.0
  0
SOLID
  5
24B
330
244
100
AcDbEntity
  8
09-01
 62
     4
100
AcDbTrace
 10
131.6936399503625
 20
556.1077162083349
 30
0.0
 11
131.6936399503625
 21
554.0243828750017
 31
0.0
 12
125.4436399503625
 22
555.0660495416683
 32
0.0
 13
125.4436399503625
 23
555.0660495416683
 33
0.0
  0
POINT
  5
24C
330
244
100
AcDbEntity
  8
DEFPOINTS
 62
     0
100
AcDbPoint
 10
151.4436399503624
 20
568.6336082567256
 30
0.0
  0
POINT
  5
24D
330
244
100
AcDbEntity
  8
DEFPOINTS
 62
     0
100
AcDbPoint
 10
125.4436399503625
 20
531.7964100795032
 30
0.0
  0
POINT
  5
24E
330
244
100
AcDbEntity
  8
DEFPOINTS
 62
     0
100
AcDbPoint
 10
125.4436399503625
 20
555.0660495416683
 30
0.0
  0
ENDBLK
  5
24F
330
244
100
AcDbEntity
  8
0
100
AcDbBlockEnd
  0
BLOCK
  5
238
330
237
100
AcDbEntity
  8
0
100
AcDbBlockBegin
  2
*D14
 70
     1
 10
0.0
 20
0.0
 30
0.0
  3
*D14
  1

  0
LINE
  5
239
330
237
100
AcDbEntity
  8
09-01
 62
     4
370
    -2
100
AcDbLine
 10
472.4436399503624
 20
566.1336082567256
 30
0.0
 11
472.4436399503624
 21
552.5660495416683
 31
0.0
  0
LINE
  5
23A
330
237
100
AcDbEntity
  8
09-01
 62
     4
370
    -2
100
AcDbLine
 10
525.4436399503622
 20
534.5158818155022
 30
0.0
 11
525.4436399503622
 21
557.5660495416683
 31
0.0
  0
LINE
  5
23B
330
237
100
AcDbEntity
  8
09-01
 62
     4
370
    -2
100
AcDbLine
 10
478.6936399503624
 20
555.0660495416683
 30
0.0
 11
519.1936399503622
 21
555.0660495416683
 31
0.0
  0
SOLID
  5
23C
330
237
100
AcDbEntity
  8
09-01
 62
     4
100
AcDbTrace
 10
478.6936399503624
 20
556.1077162083349
 30
0.0
 11
478.6936399503624
 21
554.0243828750017
 31
0.0
 12
472.4436399503624
 22
555.0660495416683
 32
0.0
 13
472.4436399503624
 23
555.0660495416683
 33
0.0
  0
SOLID
  5
23D
330
237
100
AcDbEntity
  8
09-01
 62
     4
100
AcDbTrace
 10
519.1936399503622
 20
556.1077162083349
 30
0.0
 11
519.1936399503622
 21
554.0243828750017
 31
0.0
 12
525.4436399503622
 22
555.0660495416683
 32
0.0
 13
525.4436399503622
 23
555.0660495416683
 33
0.0
  0
MTEXT
  5
23E
330
237
100
AcDbEntity
  8
09-01
 62
     1
100
AcDbMText
 10
498.9436399503623
 20
560.6910495416683
 30
0.0
 40
6.25
 41
0.0
 46
0.0
 71
     5
 72
     1
  1
53
 73
     1
 44
1.0
  0
POINT
  5
23F
330
237
100
AcDbEntity
  8
DEFPOINTS
 62
     0
100
AcDbPoint
 10
472.4436399503624
 20
568.6336082567256
 30
0.0
  0
POINT
  5
240
330
237
100
AcDbEntity
  8
DEFPOINTS
 62
     0
100
AcDbPoint
 10
525.4436399503622
 20
532.0158818155022
 30
0.0
  0
POINT
  5
241
330
237
100
AcDbEntity
  8
DEFPOINTS
 62
     0
100
AcDbPoint
 10
525.4436399503622
 20
555.0660495416683
 30
0.0
  0
ENDBLK
  5
242
330
237
100
AcDbEntity
  8
0
100
AcDbBlockEnd
  0
BLOCK
  5
207
330
206
100
AcDbEntity
  8
0
100
AcDbBlockBegin
  2
*D15
 70
     1
 10
0.0
 20
0.0
 30
0.0
  3
*D15
  1

  0
LINE
  5
208
330
206
100
AcDbEntity
  8
09-01
 62
     4
370
    -2
100
AcDbLine
 10
157.4436399503625
 20
587.8836082567256
 30
0.0
 11
177.4061916437849
 21
587.8836082567256
 31
0.0
  0
LINE
  5
209
330
206
100
AcDbEntity
  8
09-01
 62
     4
370
    -2
100
AcDbLine
 10
160.6936399503624
 20
575.8836082567256
 30
0.0
 11
177.4061916437849
 21
575.8836082567256
 31
0.0
  0
LINE
  5
20A
330
206
100
AcDbEntity
  8
09-01
 62
     4
370
    -2
100
AcDbLine
 10
175.406191643785
 20
592.8836082567256
 30
0.0
 11
175.406191643785
 21
597.8836082567256
 31
0.0
  0
LINE
  5
20B
330
206
100
AcDbEntity
  8
09-01
 62
     4
370
    -2
100
AcDbLine
 10
175.4061916437849
 20
570.8836082567256
 30
0.0
 11
175.4061916437849
 21
565.8836082567257
 31
0.0
  0
LINE
  5
20C
330
206
100
AcDbEntity
  8
09-01
 62
     4
370
    -2
100
AcDbLine
 10
175.406191643785
 20
587.8836082567256
 30
0.0
 11
175.4061916437849
 21
575.8836082567256
 31
0.0
  0
SOLID
  5
20D
330
206
100
AcDbEntity
  8
09-01
 62
     4
100
AcDbTrace
 10
174.5728583104516
 20
592.8836082567256
 30
0.0
 11
176.2395249771183
 21
592.8836082567256
 31
0.0
 12
175.406191643785
 22
587.8836082567256
 32
0.0
 13
175.406191643785
 23
587.8836082567256
 33
0.0
  0
SOLID
  5
20E
330
206
100
AcDbEntity
  8
09-01
 62
     4
100
AcDbTrace
 10
174.5728583104516
 20
570.8836082567256
 30
0.0
 11
176.2395249771183
 21
570.8836082567256
 31
0.0
 12
175.4061916437849
 22
575.8836082567256
 32
0.0
 13
175.4061916437849
 23
575.8836082567256
 33
0.0
  0
MTEXT
  5
20F
330
206
100
AcDbEntity
  8
09-01
 62
     1
100
AcDbMText
 10
170.9061916437848
 20
581.8836082567257
 30
0.0
 40
5.0
 41
0.0
 46
0.0
 71
     5
 72
     1
  1
12
 11
0.0000000000000001
 21
1.0
 31
0.0
 73
     1
 44
1.0
  0
POINT
  5
210
330
206
100
AcDbEntity
  8
DEFPOINTS
 62
     0
100
AcDbPoint
 10
155.4436399503624
 20
587.8836082567256
 30
0.0
  0
POINT
  5
211
330
206
100
AcDbEntity
  8
DEFPOINTS
 62
     0
100
AcDbPoint
 10
158.6936399503624
 20
575.8836082567256
 30
0.0
  0
POINT
  5
212
330
206
100
AcDbEntity
  8
DEFPOINTS
 62
     0
100
AcDbPoint
 10
175.4061916437849
 20
575.8836082567256
 30
0.0
  0
ENDBLK
  5
213
330
206
100
AcDbEntity
  8
0
100
AcDbBlockEnd
  0
BLOCK
  5
1F8
330
1F7
100
AcDbEntity
  8
0
100
AcDbBlockBegin
  2
*D16
 70
     1
 10
0.0
 20
0.0
 30
0.0
  3
*D16
  1

  0
LINE
  5
1F9
330
1F7
100
AcDbEntity
  8
09-01
 62
     4
370
    -2
100
AcDbLine
 10
148.6936399503624
 20
589.8836082567256
 30
0.0
 11
148.6936399503624
 21
602.8624809769046
 31
0.0
  0
LINE
  5
1FA
330
1F7
100
AcDbEntity
  8
09-01
 62
     4
370
    -2
100
AcDbLine
 10
154.1936399503624
 20
589.8836082567256
 30
0.0
 11
154.1936399503624
 21
602.8624809769046
 31
0.0
  0
LINE
  5
1FB
330
1F7
100
AcDbEntity
  8
09-01
 62
     4
370
    -2
100
AcDbLine
 10
143.6936399503624
 20
600.8624809769046
 30
0.0
 11
138.6936399503625
 21
600.8624809769046
 31
0.0
  0
LINE
  5
1FC
330
1F7
100
AcDbEntity
  8
09-01
 62
     4
370
    -2
100
AcDbLine
 10
159.1936399503624
 20
600.8624809769046
 30
0.0
 11
164.1936399503624
 21
600.8624809769046
 31
0.0
  0
MTEXT
  5
1FD
330
1F7
100
AcDbEntity
  8
09-01
 62
     1
100
AcDbMText
 10
164.3972350796084
 20
605.2357427261043
 30
0.0
 40
5.0
 41
0.0
 46
0.0
 71
     5
 72
     1
  1
5.5
 73
     1
 44
1.0
  0
LINE
  5
1FE
330
1F7
100
AcDbEntity
  8
09-01
 62
     4
370
    -2
100
AcDbLine
 10
148.6936399503624
 20
600.8624809769046
 30
0.0
 11
154.1936399503624
 21
600.8624809769046
 31
0.0
  0
SOLID
  5
1FF
330
1F7
100
AcDbEntity
  8
09-01
 62
     4
100
AcDbTrace
 10
143.6936399503624
 20
601.695814310238
 30
0.0
 11
143.6936399503624
 21
600.0291476435712
 31
0.0
 12
148.6936399503624
 22
600.8624809769046
 32
0.0
 13
148.6936399503624
 23
600.8624809769046
 33
0.0
  0
SOLID
  5
200
330
1F7
100
AcDbEntity
  8
09-01
 62
     4
100
AcDbTrace
 10
159.1936399503624
 20
601.695814310238
 30
0.0
 11
159.1936399503624
 21
600.0291476435712
 31
0.0
 12
154.1936399503624
 22
600.8624809769046
 32
0.0
 13
154.1936399503624
 23
600.8624809769046
 33
0.0
  0
POINT
  5
201
330
1F7
100
AcDbEntity
  8
DEFPOINTS
 62
     0
100
AcDbPoint
 10
148.6936399503624
 20
587.8836082567256
 30
0.0
  0
POINT
  5
202
330
1F7
100
AcDbEntity
  8
DEFPOINTS
 62
     0
100
AcDbPoint
 10
154.1936399503624
 20
587.8836082567256
 30
0.0
  0
POINT
  5
203
330
1F7
100
AcDbEntity
  8
DEFPOINTS
 62
     0
100
AcDbPoint
 10
154.1936399503624
 20
600.8624809769046
 30
0.0
  0
ENDBLK
  5
204
330
1F7
100
AcDbEntity
  8
0
100
AcDbBlockEnd
  0
BLOCK
  5
1E7
330
1E6
100
AcDbEntity
  8
0
100
AcDbBlockBegin
  2
*D17
 70
     1
 10
0.0
 20
0.0
 30
0.0
  3
*D17
  1

  0
LINE
  5
1E8
330
1E6
100
AcDbEntity
  8
09-01
 62
     4
370
    -2
100
AcDbLine
 10
145.1936399503624
 20
573.8836082567257
 30
0.0
 11
145.1936399503624
 21
558.15119198167
 31
0.0
  0
LINE
  5
1E9
330
1E6
100
AcDbEntity
  8
09-01
 62
     4
370
    -2
100
AcDbLine
 10
157.6936399503624
 20
573.8836082567257
 30
0.0
 11
157.6936399503624
 21
558.15119198167
 31
0.0
  0
LINE
  5
1EA
330
1E6
100
AcDbEntity
  8
09-01
 62
     4
370
    -2
100
AcDbLine
 10
140.1936399503624
 20
560.15119198167
 30
0.0
 11
135.1936399503624
 21
560.15119198167
 31
0.0
  0
LINE
  5
1EB
330
1E6
100
AcDbEntity
  8
09-01
 62
     4
370
    -2
100
AcDbLine
 10
162.6936399503625
 20
560.15119198167
 30
0.0
 11
167.6936399503624
 21
560.15119198167
 31
0.0
  0
MTEXT
  5
1EC
330
1E6
100
AcDbEntity
  8
09-01
 62
     1
100
AcDbMText
 10
168.1631499180575
 20
564.8639229687471
 30
0.0
 40
5.0
 41
0.0
 46
0.0
 71
     5
 72
     1
  1
12.5
 73
     1
 44
1.0
  0
LINE
  5
1ED
330
1E6
100
AcDbEntity
  8
09-01
 62
     4
370
    -2
100
AcDbLine
 10
145.1936399503624
 20
560.15119198167
 30
0.0
 11
157.6936399503624
 21
560.15119198167
 31
0.0
  0
SOLID
  5
1EE
330
1E6
100
AcDbEntity
  8
09-01
 62
     4
100
AcDbTrace
 10
140.1936399503624
 20
560.9845253150034
 30
0.0
 11
140.1936399503624
 21
559.3178586483367
 31
0.0
 12
145.1936399503624
 22
560.15119198167
 32
0.0
 13
145.1936399503624
 23
560.15119198167
 33
0.0
  0
SOLID
  5
1EF
330
1E6
100
AcDbEntity
  8
09-01
 62
     4
100
AcDbTrace
 10
162.6936399503625
 20
560.9845253150034
 30
0.0
 11
162.6936399503625
 21
559.3178586483367
 31
0.0
 12
157.6936399503624
 22
560.15119198167
 32
0.0
 13
157.6936399503624
 23
560.15119198167
 33
0.0
  0
POINT
  5
1F0
330
1E6
100
AcDbEntity
  8
DEFPOINTS
 62
     0
100
AcDbPoint
 10
145.1936399503624
 20
575.8836082567256
 30
0.0
  0
POINT
  5
1F2
330
1E6
100
AcDbEntity
  8
DEFPOINTS
 62
     0
100
AcDbPoint
 10
157.6936399503624
 20
575.8836082567256
 30
0.0
  0
POINT
  5
1F3
330
1E6
100
AcDbEntity
  8
DEFPOINTS
 62
     0
100
AcDbPoint
 10
157.6936399503624
 20
560.15119198167
 30
0.0
  0
ENDBLK
  5
1F4
330
1E6
100
AcDbEntity
  8
0
100
AcDbBlockEnd
  0
BLOCK
  5
179
330
178
100
AcDbEntity
  8
0
100
AcDbBlockBegin
  2
Sensor-Betätigungsmodul
 70
     0
 10
0.0
 20
0.0
 30
0.0
  3
Sensor-Betätigungsmodul
  1

  0
LINE
  5
17A
330
178
100
AcDbEntity
  8
0
100
AcDbLine
 10
-0.0000000000003411
 20
8.599999999999795
 30
0.0
 11
0.0
 21
2.5
 31
0.0
  0
LINE
  5
17B
330
178
100
AcDbEntity
  8
0
100
AcDbLine
 10
-0.0000000000002274
 20
-20.49999999999994
 30
0.0
 11
-0.0000000000001137
 21
-67.5
 31
0.0
  0
LINE
  5
17C
330
178
100
AcDbEntity
  8
03-01
100
AcDbLine
 10
2.79999999999984
 20
-65.39999999999986
 30
0.0
 11
2.79999999999984
 21
-102.7055531081737
 31
0.0
  0
LINE
  5
17D
330
178
100
AcDbEntity
  8
0
100
AcDbLine
 10
-0.0000000000001137
 20
-90.5
 30
0.0
 11
-0.0000000000001137
 21
-96.39999999999993
 31
0.0
  0
LINE
  5
17E
330
178
100
AcDbEntity
  8
03-01
100
AcDbLine
 10
-1.200000000000159
 20
-0.0000000000000568
 30
0.0
 11
-1.200000000000045
 21
-20.50000000000006
 31
0.0
  0
LINE
  5
17F
330
178
100
AcDbEntity
  8
0
100
AcDbLine
 10
-3.300000000000068
 20
0.5
 30
0.0
 11
-3.300000000000068
 21
-20.50000000000006
 31
0.0
  0
ARC
  5
180
330
178
100
AcDbEntity
  8
0
100
AcDbCircle
 10
-1.300000000000068
 20
0.5
 30
0.0
 40
2.0
100
AcDbArc
 50
90.0
 51
180.0
  0
LINE
  5
181
330
178
100
AcDbEntity
  8
0
100
AcDbLine
 10
42.99999999999989
 20
-27.2820219666524
 30
0.0
 11
42.99999999999977
 21
-45.0
 31
0.0
  0
LINE
  5
182
330
178
100
AcDbEntity
  8
0
100
AcDbLine
 10
42.99999999999966
 20
-93.00000000000006
 30
0.0
 11
42.99999999999977
 21
-96.15658297858965
 31
0.0
  0
LINE
  5
183
330
178
100
AcDbEntity
  8
0
100
AcDbLine
 10
49.99999999999977
 20
-45.0
 30
0.0
 11
49.99999999999989
 21
-93.00000000000006
 31
0.0
  0
LINE
  5
184
330
178
100
AcDbEntity
  8
0
100
AcDbLine
 10
31.36940242224194
 20
-104.8999999999999
 30
0.0
 11
8.499999999999886
 21
-104.8999999999999
 31
0.0
  0
LINE
  5
185
330
178
100
AcDbEntity
  8
0
100
AcDbLine
 10
24.17361915066488
 20
14.60000000000013
 30
0.0
 11
5.999999999999658
 21
14.60000000000008
 31
0.0
  0
LINE
  5
186
330
178
100
AcDbEntity
  8
03-01
100
AcDbLine
 10
22.33680957533227
 20
11.60000000000019
 30
0.0
 11
7.836809575332267
 21
11.60000000000013
 31
0.0
  0
LINE
  5
187
330
178
100
AcDbEntity
  8
03-01
100
AcDbLine
 10
22.33680957533227
 20
3.100000000000136
 30
0.0
 11
7.836809575332267
 21
3.100000000000079
 31
0.0
  0
ARC
  5
188
330
178
100
AcDbEntity
  8
0
100
AcDbCircle
 10
5.999999999999658
 20
8.600000000000079
 30
0.0
 40
6.0
100
AcDbArc
 50
90.0
 51
180.0000000000032
  0
LINE
  5
189
330
178
100
AcDbEntity
  8
03-01
100
AcDbLine
 10
2.79999999999984
 20
-65.39999999999986
 30
0.0
 11
-0.0000000000001137
 21
-65.39999999999986
 31
0.0
  0
ARC
  5
18A
330
178
100
AcDbEntity
  8
0
100
AcDbCircle
 10
8.499999999999886
 20
-96.39999999999993
 30
0.0
 40
8.5
100
AcDbArc
 50
180.0
 51
270.0
  0
LINE
  5
18B
330
178
100
AcDbEntity
  8
0
100
AcDbLine
 10
25.00728896843054
 20
7.5
 30
0.0
 11
2.499999999999886
 21
7.5
 31
0.0
  0
ARC
  5
18C
330
178
100
AcDbEntity
  8
0
100
AcDbCircle
 10
25.00728896843054
 20
-1.0
 30
0.0
 40
8.5
100
AcDbArc
 50
20.00000000000065
 51
90.0
  0
LINE
  5
18D
330
178
100
AcDbEntity
  8
0
100
AcDbLine
 10
49.99999999999977
 20
-45.0
 30
0.0
 11
42.99999999999977
 21
-45.0
 31
0.0
  0
LINE
  5
18E
330
178
100
AcDbEntity
  8
0
100
AcDbLine
 10
49.99999999999989
 20
-93.00000000000006
 30
0.0
 11
42.99999999999966
 21
-93.00000000000006
 31
0.0
  0
LINE
  5
18F
330
178
100
AcDbEntity
  8
03-01
100
AcDbLine
 10
47.49999999999988
 20
-90.50000000000006
 30
0.0
 11
42.99999999999966
 21
-90.50000000000006
 31
0.0
  0
ARC
  5
190
330
178
100
AcDbEntity
  8
0
100
AcDbCircle
 10
2.499999999999886
 20
5.0
 30
0.0
 40
2.5
100
AcDbArc
 50
90.0
 51
180.0
  0
LINE
  5
191
330
178
100
AcDbEntity
  8
0
100
AcDbLine
 10
-0.0000000000001137
 20
2.5
 30
0.0
 11
-1.300000000000068
 21
2.5
 31
0.0
  0
LINE
  5
192
330
178
100
AcDbEntity
  8
03-01
100
AcDbLine
 10
-0.0000000000001137
 20
0.0
 30
0.0
 11
-1.200000000000159
 21
-0.0000000000000568
 31
0.0
  0
LINE
  5
193
330
178
100
AcDbEntity
  8
0
100
AcDbLine
 10
-0.0000000000001137
 20
-20.5
 30
0.0
 11
-3.300000000000068
 21
-20.50000000000006
 31
0.0
  0
LINE
  5
194
330
178
100
AcDbEntity
  8
0
100
AcDbLine
 10
-3.300000000000068
 20
-69.5
 30
0.0
 11
-3.300000000000068
 21
-90.50000000000006
 31
0.0
  0
ARC
  5
195
330
178
100
AcDbEntity
  8
0
100
AcDbCircle
 10
-1.300000000000068
 20
-69.5
 30
0.0
 40
2.0
100
AcDbArc
 50
90.0
 51
180.0
  0
LINE
  5
196
330
178
100
AcDbEntity
  8
0
100
AcDbLine
 10
-0.0000000000001137
 20
-67.5
 30
0.0
 11
-1.300000000000068
 21
-67.5
 31
0.0
  0
LINE
  5
197
330
178
100
AcDbEntity
  8
0
100
AcDbLine
 10
-0.0000000000001137
 20
-90.5
 30
0.0
 11
-3.300000000000068
 21
-90.50000000000006
 31
0.0
  0
LINE
  5
198
330
178
100
AcDbEntity
  8
03-01
100
AcDbLine
 10
-1.200000000000159
 20
-70.00000000000006
 30
0.0
 11
-1.200000000000045
 21
-90.50000000000006
 31
0.0
  0
LINE
  5
199
330
178
100
AcDbEntity
  8
03-01
100
AcDbLine
 10
-0.0000000000001137
 20
-70.0
 30
0.0
 11
-1.200000000000159
 21
-70.00000000000006
 31
0.0
  0
LINE
  5
19A
330
178
100
AcDbEntity
  8
03-01
100
AcDbLine
 10
48.19999999999982
 20
-45.0
 30
0.0
 11
47.49999999999988
 21
-90.50000000000006
 31
0.0
  0
LINE
  5
19B
330
178
100
AcDbEntity
  8
03-01
100
AcDbLine
 10
0.0
 20
2.5
 30
0.0
 11
-0.0000000000002274
 21
-20.49999999999994
 31
0.0
  0
LINE
  5
19C
330
178
100
AcDbEntity
  8
03-01
100
AcDbLine
 10
-0.0000000000001137
 20
-67.5
 30
0.0
 11
-0.0000000000001137
 21
-90.5
 31
0.0
  0
LINE
  5
19D
330
178
100
AcDbEntity
  8
03-01
100
AcDbLine
 10
42.99999999999977
 20
-45.0
 30
0.0
 11
42.99999999999977
 21
-93.00000000000006
 31
0.0
  0
ARC
  5
19E
330
178
100
AcDbEntity
  8
0
100
AcDbCircle
 10
16.7755654402124
 20
-102.3
 30
0.0
 40
1.0
100
AcDbArc
 50
270.0
 51
305.9497089065583
  0
ARC
  5
19F
330
178
100
AcDbEntity
  8
0
100
AcDbCircle
 10
40.5999999999999
 20
-85.02246509265711
 30
0.0
 40
1.000000000000005
100
AcDbArc
 50
305.9497089065583
 51
0.0
  0
LINE
  5
1A0
330
178
100
AcDbEntity
  8
0
100
AcDbLine
 10
8.899999999999863
 20
-103.3
 30
0.0
 11
16.7755654402124
 21
-103.3
 31
0.0
  0
ARC
  5
1A1
330
178
100
AcDbEntity
  8
0
100
AcDbCircle
 10
8.899999999999863
 20
-95.80000000000001
 30
0.0
 40
7.500000000000014
100
AcDbArc
 50
180.0
 51
270.0
  0
LINE
  5
1A2
330
178
100
AcDbEntity
  8
0
100
AcDbLine
 10
1.399999999999863
 20
3.900000000000034
 30
0.0
 11
1.399999999999863
 21
-95.80000000000001
 31
0.0
  0
ARC
  5
1A3
330
178
100
AcDbEntity
  8
0
100
AcDbCircle
 10
3.399999999999863
 20
3.900000000000034
 30
0.0
 40
2.0
100
AcDbArc
 50
90.0
 51
180.0
  0
LINE
  5
1A4
330
178
100
AcDbEntity
  8
0
100
AcDbLine
 10
24.79999999999995
 20
5.900000000000034
 30
0.0
 11
3.399999999999863
 21
5.900000000000034
 31
0.0
  0
ARC
  5
1A5
330
178
100
AcDbEntity
  8
0
100
AcDbCircle
 10
24.79999999999995
 20
-1.599999999999965
 30
0.0
 40
7.500000000000028
100
AcDbArc
 50
20.00000000001707
 51
90.0
  0
LINE
  5
1A6
330
178
100
AcDbEntity
  8
0
100
AcDbLine
 10
41.1030671952758
 20
-24.46377598564897
 30
0.0
 11
31.8476946558942
 21
0.9651510749426392
 31
0.0
  0
LINE
  5
1A7
330
178
100
AcDbEntity
  8
0
100
AcDbLine
 10
42.41863686437603
 20
-23.98494778499304
 30
0.0
 11
29.81177487538037
 21
10.65212085995415
 31
0.0
  0
ARC
  5
1A8
330
178
100
AcDbEntity
  8
0
100
AcDbCircle
 10
24.17361915066488
 20
8.600000000000136
 30
0.0
 40
6.0
100
AcDbArc
 50
20.00000000000065
 51
90.0
  0
ARC
  5
1A9
330
178
100
AcDbEntity
  8
0
100
AcDbCircle
 10
33.3599999999999
 20
-27.2820219666524
 30
0.0
 40
8.23999999999998
100
AcDbArc
 50
0.0
 51
20.00000000001707
  0
ARC
  5
1AA
330
178
100
AcDbEntity
  8
0
100
AcDbCircle
 10
33.3599999999999
 20
-27.2820219666524
 30
0.0
 40
9.639999999999981
100
AcDbArc
 50
0.0
 51
20.00000000001707
  0
LINE
  5
1AB
330
178
100
AcDbEntity
  8
0
100
AcDbLine
 10
41.59999999999991
 20
-85.02246509265711
 30
0.0
 11
41.59999999999991
 21
-27.2820219666524
 31
0.0
  0
LINE
  5
1AC
330
178
100
AcDbEntity
  8
0
100
AcDbLine
 10
17.36264035541512
 20
-103.1095326083237
 30
0.0
 11
41.18707491520285
 21
-85.83199770098081
 31
0.0
  0
CIRCLE
  5
1AD
330
178
100
AcDbEntity
  8
0
100
AcDbCircle
 10
21.51766465965579
 20
-13.60883232982866
 30
0.0
 40
1.75
  0
CIRCLE
  5
1AE
330
178
100
AcDbEntity
  8
0
100
AcDbCircle
 10
21.51766465965488
 20
-83.60883232982866
 30
0.0
 40
1.75
  0
LINE
  5
1AF
330
178
100
AcDbEntity
  8
05-01
  6
Continuous
100
AcDbLine
 10
21.51766465965579
 20
-16.35883232982866
 30
0.0
 11
21.51766465965579
 21
-10.85883232982866
 31
0.0
  0
LINE
  5
1B0
330
178
100
AcDbEntity
  8
05-01
  6
Continuous
100
AcDbLine
 10
18.76766465965579
 20
-13.60883232982866
 30
0.0
 11
24.2676646596558
 21
-13.60883232982866
 31
0.0
  0
LINE
  5
1B1
330
178
100
AcDbEntity
  8
05-01
  6
Continuous
100
AcDbLine
 10
21.51766465965488
 20
-86.35883232982866
 30
0.0
 11
21.51766465965488
 21
-80.85883232982865
 31
0.0
  0
LINE
  5
1B2
330
178
100
AcDbEntity
  8
05-01
  6
Continuous
100
AcDbLine
 10
18.76766465965488
 20
-83.60883232982866
 30
0.0
 11
24.26766465965489
 21
-83.60883232982866
 31
0.0
  0
ARC
  5
1B3
330
178
100
AcDbEntity
  8
03-01
100
AcDbCircle
 10
7.836809575332267
 20
7.350000000000136
 30
0.0
 40
4.25
100
AcDbArc
 50
90.0
 51
270.0
  0
ARC
  5
1B4
330
178
100
AcDbEntity
  8
03-01
100
AcDbCircle
 10
22.33680957533227
 20
7.350000000000136
 30
0.0
 40
4.25
100
AcDbArc
 50
270.0
 51
90.0
  0
LINE
  5
1B5
330
178
100
AcDbEntity
  8
0
100
AcDbLine
 10
34.62971126714365
 20
-107.2924552718343
 30
0.0
 11
45.93049885575431
 21
-105.2998058666647
 31
0.0
  0
ARC
  5
1B6
330
178
100
AcDbEntity
  8
0
100
AcDbCircle
 10
34.57761641703382
 20
-106.9970130158991
 30
0.0
 40
0.3
100
AcDbArc
 50
215.0
 51
280.0000769541884
  0
LWPOLYLINE
  5
1B7
330
178
100
AcDbEntity
  8
0
100
AcDbPolyline
 90
        9
 70
     0
 43
0.0
 10
43.52176514692359
 20
-105.7245339446396
 10
43.81734085507446
 20
-105.672439485106
 10
44.10155442781501
 20
-105.6223119788498
 10
44.36348703928047
 20
-105.5761183791489
 10
44.59306550450378
 20
-105.5356468253465
 10
44.78147951192909
 20
-105.5024172358842
 10
44.92147964663558
 20
-105.4777409129471
 10
45.00769404001289
 20
-105.4625417285294
 10
45.03680345840507
 20
-105.4574157290788
  0
LINE
  5
1B8
330
178
100
AcDbEntity
  8
0
100
AcDbLine
 10
32.51655529494406
 20
-104.5383040885779
 30
0.0
 11
42.14715287270189
 21
-97.79488706716769
 31
0.0
  0
ARC
  5
1B9
330
178
100
AcDbEntity
  8
0
100
AcDbCircle
 10
40.99999999999977
 20
-96.15658297858971
 30
0.0
 40
2.0
100
AcDbArc
 50
304.9999999999974
 51
0.0
  0
ARC
  5
1BA
330
178
100
AcDbEntity
  8
0
100
AcDbCircle
 10
31.36940242224194
 20
-102.8999999999999
 30
0.0
 40
2.0
100
AcDbArc
 50
270.0
 51
304.9999999999974
  0
LINE
  5
1BB
330
178
100
AcDbEntity
  8
0
100
AcDbLine
 10
32.49851813927865
 20
-104.5507869933884
 30
0.0
 11
34.33187080374717
 21
-107.1690859468044
 31
0.0
  0
LINE
  5
1BC
330
178
100
AcDbEntity
  8
0
100
AcDbLine
 10
41.50925962223914
 20
-98.2415447297147
 30
0.0
 11
46.12414961893114
 21
-104.8322906798243
 31
0.0
  0
ARC
  5
1BD
330
178
100
AcDbEntity
  8
0
100
AcDbCircle
 10
45.87840400564448
 20
-105.0043636107296
 30
0.0
 40
0.3
100
AcDbArc
 50
280.0000769541884
 51
35.00000000000003
  0
ENDBLK
  5
1BE
330
178
100
AcDbEntity
  8
0
100
AcDbBlockEnd
  0
BLOCK
  5
141
330
13E
100
AcDbEntity
  8
0
100
AcDbBlockBegin
  2
e-modul draufsicht
 70
     0
 10
0.0
 20
0.0
 30
0.0
  3
e-modul draufsicht
  1

  0
LINE
  5
142
330
13E
100
AcDbEntity
  8
05-01
100
AcDbLine
 10
114.8474353286315
 20
-308.8769984606092
 30
0.0
 11
109.8474353286315
 21
-308.8769984606092
 31
0.0
  0
LINE
  5
143
330
13E
100
AcDbEntity
  8
05-01
100
AcDbLine
 10
186.347435328631
 20
-312.0769984606099
 30
0.0
 11
109.8474353286315
 21
-312.0769984606099
 31
0.0
  0
LINE
  5
144
330
13E
100
AcDbEntity
  8
05-01
100
AcDbLine
 10
186.347435328631
 20
-354.57699846061
 30
0.0
 11
109.8474353286315
 21
-354.57699846061
 31
0.0
  0
LINE
  5
145
330
13E
100
AcDbEntity
  8
05-01
100
AcDbLine
 10
114.8474353286315
 20
-310.9769984606096
 30
0.0
 11
112.3474353286315
 21
-310.9769984606096
 31
0.0
  0
LINE
  5
146
330
13E
100
AcDbEntity
  8
05-01
100
AcDbLine
 10
109.8474353286315
 20
-312.0769984606099
 30
0.0
 11
109.8474353286315
 21
-354.57699846061
 31
0.0
  0
LINE
  5
147
330
13E
100
AcDbEntity
  8
05-01
100
AcDbLine
 10
186.347435328631
 20
-312.0769984606099
 30
0.0
 11
186.347435328631
 21
-354.57699846061
 31
0.0
  0
LINE
  5
148
330
13E
100
AcDbEntity
  8
05-01
100
AcDbLine
 10
109.8474353286315
 20
-308.8769984606092
 30
0.0
 11
109.8474353286315
 21
-312.0769984606099
 31
0.0
  0
LINE
  5
149
330
13E
100
AcDbEntity
  8
05-01
100
AcDbLine
 10
114.8474353286315
 20
-308.8769984606092
 30
0.0
 11
114.8474353286315
 21
-312.0769984606099
 31
0.0
  0
LINE
  5
14A
330
13E
100
AcDbEntity
  8
05-01
100
AcDbLine
 10
112.3474353286315
 20
-310.9769984606096
 30
0.0
 11
112.3474353286315
 21
-312.0769984606099
 31
0.0
  0
LINE
  5
14B
330
13E
100
AcDbEntity
  8
05-01
100
AcDbLine
 10
161.8474353286315
 20
-308.8769984606092
 30
0.0
 11
166.8474353286315
 21
-308.8769984606092
 31
0.0
  0
LINE
  5
14C
330
13E
100
AcDbEntity
  8
05-01
100
AcDbLine
 10
161.8474353286315
 20
-310.9769984606096
 30
0.0
 11
164.3474353286315
 21
-310.9769984606096
 31
0.0
  0
LINE
  5
14D
330
13E
100
AcDbEntity
  8
05-01
100
AcDbLine
 10
166.8474353286315
 20
-308.8769984606092
 30
0.0
 11
166.8474353286315
 21
-312.0769984606099
 31
0.0
  0
LINE
  5
14E
330
13E
100
AcDbEntity
  8
05-01
100
AcDbLine
 10
161.8474353286315
 20
-308.8769984606092
 30
0.0
 11
161.8474353286315
 21
-312.0769984606099
 31
0.0
  0
LINE
  5
14F
330
13E
100
AcDbEntity
  8
05-01
100
AcDbLine
 10
164.3474353286315
 20
-310.9769984606096
 30
0.0
 11
164.3474353286315
 21
-312.0769984606099
 31
0.0
  0
LINE
  5
150
330
13E
100
AcDbEntity
  8
05-01
100
AcDbLine
 10
109.8474353286315
 20
-354.57699846061
 30
0.0
 11
109.8474353286315
 21
-361.5769984606099
 31
0.0
  0
LINE
  5
151
330
13E
100
AcDbEntity
  8
05-01
100
AcDbLine
 10
112.8474353286315
 20
-354.57699846061
 30
0.0
 11
112.8474353286315
 21
-360.0769984606099
 31
0.0
  0
LINE
  5
152
330
13E
100
AcDbEntity
  8
05-01
100
AcDbLine
 10
109.8474353286315
 20
-361.5769984606099
 30
0.0
 11
117.3474353286315
 21
-361.5769984606099
 31
0.0
  0
LINE
  5
153
330
13E
100
AcDbEntity
  8
05-01
100
AcDbLine
 10
117.3474353286315
 20
-361.5769984606099
 30
0.0
 11
117.3474353286315
 21
-354.57699846061
 31
0.0
  0
LINE
  5
154
330
13E
100
AcDbEntity
  8
05-01
100
AcDbLine
 10
175.8474353286315
 20
-354.57699846061
 30
0.0
 11
175.8474353286315
 21
-361.5769984606099
 31
0.0
  0
LINE
  5
155
330
13E
100
AcDbEntity
  8
05-01
100
AcDbLine
 10
172.8474353286315
 20
-354.57699846061
 30
0.0
 11
172.8474353286315
 21
-360.0769984606099
 31
0.0
  0
LINE
  5
156
330
13E
100
AcDbEntity
  8
05-01
100
AcDbLine
 10
168.3474353286315
 20
-354.57699846061
 30
0.0
 11
168.3474353286315
 21
-361.5769984606099
 31
0.0
  0
LINE
  5
157
330
13E
100
AcDbEntity
  8
05-01
100
AcDbLine
 10
168.3474353286315
 20
-361.5769984606099
 30
0.0
 11
175.8474353286315
 21
-361.5769984606099
 31
0.0
  0
LINE
  5
158
330
13E
100
AcDbEntity
  8
05-01
100
AcDbLine
 10
112.8474353286315
 20
-360.0769984606099
 30
0.0
 11
117.3474353286315
 21
-360.0769984606099
 31
0.0
  0
LINE
  5
159
330
13E
100
AcDbEntity
  8
05-01
100
AcDbLine
 10
168.3474353286315
 20
-360.0769984606099
 30
0.0
 11
172.8474353286315
 21
-360.0769984606099
 31
0.0
  0
LINE
  5
15A
330
13E
100
AcDbEntity
  8
05-01
100
AcDbLine
 10
181.7474353286311
 20
-312.0769984606099
 30
0.0
 11
181.7474353286311
 21
-354.57699846061
 31
0.0
  0
ENDBLK
  5
15B
330
13E
100
AcDbEntity
  8
0
100
AcDbBlockEnd
  0
ENDSEC
  0
SECTION
  2
ENTITIES
  0
LINE
  5
7A
330
2
100
AcDbEntity
  8
03-01
100
AcDbLine
 10
177.1936409615672
 20
423.8554258349845
 30
0.0
 11
203.6936409615686
 21
423.8554258349845
 31
0.0
  0
CIRCLE
  5
7F
330
2
100
AcDbEntity
  8
03-01
100
AcDbCircle
 10
190.4436399503624
 20
130.6807090720845
 30
0.0
 40
10.5
  0
CIRCLE
  5
80
330
2
100
AcDbEntity
  8
03-01
100
AcDbCircle
 10
190.4436399503624
 20
130.6807090720845
 30
0.0
 40
14.5
  0
CIRCLE
  5
81
330
2
100
AcDbEntity
  8
03-01
100
AcDbCircle
 10
190.4436399503624
 20
130.6807090720845
 30
0.0
 40
11.5
  0
LINE
  5
82
330
2
100
AcDbEntity
  8
05-01
100
AcDbLine
 10
166.4436399503624
 20
167.6807090720841
 30
0.0
 11
214.4436399503625
 21
167.680709072085
 31
0.0
  0
ARC
  5
87
330
2
100
AcDbEntity
  8
05-01
100
AcDbCircle
 10
214.4436399503625
 20
98.68070907208457
 30
0.0
 40
5.0
100
AcDbArc
 50
270.0
 51
0.0
  0
ARC
  5
88
330
2
100
AcDbEntity
  8
05-01
100
AcDbCircle
 10
202.4436399503663
 20
98.68070907208412
 30
0.0
 40
5.0
100
AcDbArc
 50
270.0
 51
0.0
  0
LINE
  5
89
330
2
100
AcDbEntity
  8
05-01
100
AcDbLine
 10
166.4436399503624
 20
93.68070907208434
 30
0.0
 11
214.4436399503625
 21
93.68070907208457
 31
0.0
  0
LINE
  5
8A
330
2
100
AcDbEntity
  8
05-01
100
AcDbLine
 10
173.9436399503624
 20
93.68070907208457
 30
0.0
 11
206.9436399503625
 21
93.68070907208457
 31
0.0
  0
LINE
  5
8B
330
2
100
AcDbEntity
  8
05-01
100
AcDbLine
 10
173.9436399503624
 20
130.6807090720845
 30
0.0
 11
206.9436399503625
 21
130.6807090720845
 31
0.0
  0
ARC
  5
8C
330
2
100
AcDbEntity
  8
05-01
100
AcDbCircle
 10
214.4436399503625
 20
162.680709072085
 30
0.0
 40
5.0
100
AcDbArc
 50
0.0
 51
90.0
  0
LINE
  5
8D
330
2
100
AcDbEntity
  8
05-01
100
AcDbLine
 10
219.4436399503627
 20
162.680709072085
 30
0.0
 11
219.4436399503625
 21
98.68070907208457
 31
0.0
  0
ARC
  5
8E
330
2
100
AcDbEntity
  8
05-01
100
AcDbCircle
 10
202.4436399503663
 20
162.680709072085
 30
0.0
 40
5.0
100
AcDbArc
 50
0.0
 51
90.0
  0
LINE
  5
8F
330
2
100
AcDbEntity
  8
05-01
100
AcDbLine
 10
207.4436399503666
 20
162.680709072085
 30
0.0
 11
207.4436399503663
 21
98.68070907208457
 31
0.0
  0
ARC
  5
90
330
2
100
AcDbEntity
  8
05-01
100
AcDbCircle
 10
166.4436399503624
 20
162.680709072085
 30
0.0
 40
5.0
100
AcDbArc
 50
90.0
 51
180.0
  0
ARC
  5
91
330
2
100
AcDbEntity
  8
05-01
100
AcDbCircle
 10
166.4436399503624
 20
98.68070907208434
 30
0.0
 40
5.0
100
AcDbArc
 50
180.0
 51
270.0
  0
LINE
  5
92
330
2
100
AcDbEntity
  8
05-01
100
AcDbLine
 10
219.4436399503625
 20
147.1807090720846
 30
0.0
 11
219.4436399503625
 21
114.1807090720845
 31
0.0
  0
LINE
  5
93
330
2
100
AcDbEntity
  8
05-01
100
AcDbLine
 10
190.4436399503624
 20
147.1807090720846
 30
0.0
 11
190.4436399503624
 21
114.1807090720845
 31
0.0
  0
LINE
  5
94
330
2
100
AcDbEntity
  8
05-01
100
AcDbLine
 10
161.4436399503624
 20
162.680709072085
 30
0.0
 11
161.4436399503624
 21
98.68070907208434
 31
0.0
  0
LINE
  5
95
330
2
100
AcDbEntity
  8
03-01
100
AcDbLine
 10
746.4519701692162
 20
405.8554221394965
 30
0.0
 11
746.4519701692162
 21
406.8554221394962
 31
0.0
  0
LINE
  5
96
330
2
100
AcDbEntity
  8
03-01
100
AcDbLine
 10
723.4519701692162
 20
405.8554221394965
 30
0.0
 11
723.4519701692162
 21
406.8554221394962
 31
0.0
  0
LINE
  5
97
330
2
100
AcDbEntity
  8
03-01
100
AcDbLine
 10
702.3387950815807
 20
416.236627478679
 30
0.0
 11
721.7019701692148
 21
412.8554221394967
 31
0.0
  0
ARC
  5
98
330
2
100
AcDbEntity
  8
03-01
100
AcDbCircle
 10
766.9519701692162
 20
421.1988866730279
 30
0.0
 40
5.0
100
AcDbArc
 50
277.0442014487683
 51
0.0
  0
LINE
  5
99
330
2
100
AcDbEntity
  8
03-01
100
AcDbLine
 10
767.5651452568514
 20
416.2366274786788
 30
0.0
 11
748.2019701692159
 21
412.8554221394967
 31
0.0
  0
LINE
  5
9A
330
2
100
AcDbEntity
  8
03-01
100
AcDbLine
 10
748.2019701692162
 20
408.8554221394964
 30
0.0
 11
721.7019701692162
 21
408.8554221394964
 31
0.0
  0
LINE
  5
9B
330
2
100
AcDbEntity
  8
03-01
100
AcDbLine
 10
745.4519701692159
 20
379.3554221394968
 30
0.0
 11
724.4519701692159
 21
379.3554221394965
 31
0.0
  0
LINE
  5
9C
330
2
100
AcDbEntity
  8
0
100
AcDbLine
 10
749.4519701692162
 20
390.8554221394967
 30
0.0
 11
720.4519701692159
 21
390.8554221394965
 31
0.0
  0
LINE
  5
9D
330
2
100
AcDbEntity
  8
03-01
100
AcDbLine
 10
749.4519701692162
 20
405.8554221394965
 30
0.0
 11
720.4519701692159
 21
405.8554221394965
 31
0.0
  0
LINE
  5
9E
330
2
100
AcDbEntity
  8
03-01
100
AcDbLine
 10
748.2019701692162
 20
406.8554221394965
 30
0.0
 11
721.7019701692162
 21
406.8554221394965
 31
0.0
  0
LINE
  5
9F
330
2
100
AcDbEntity
  8
03-01
100
AcDbLine
 10
748.2019701692162
 20
412.8554221394967
 30
0.0
 11
721.7019701692148
 21
412.8554221394967
 31
0.0
  0
ARC
  5
A0
330
2
100
AcDbEntity
  8
03-01
100
AcDbCircle
 10
766.9519701692159
 20
549.8554221394967
 30
0.0
 40
5.0
100
AcDbArc
 50
0.0
 51
90.0
  0
LINE
  5
A1
330
2
100
AcDbEntity
  8
03-01
100
AcDbLine
 10
766.9519701692159
 20
554.8554221394968
 30
0.0
 11
702.951970169216
 21
554.8554221394968
 31
0.0
  0
ARC
  5
A2
330
2
100
AcDbEntity
  8
03-01
100
AcDbCircle
 10
702.951970169216
 20
549.8554221394967
 30
0.0
 40
5.0
100
AcDbArc
 50
90.0
 51
180.0
  0
ARC
  5
A3
330
2
100
AcDbEntity
  8
03-01
100
AcDbCircle
 10
702.951970169216
 20
421.1988866730282
 30
0.0
 40
5.0
100
AcDbArc
 50
180.0
 51
262.9557985512317
  0
LINE
  5
A4
330
2
100
AcDbEntity
  8
03-01
100
AcDbLine
 10
697.951970169216
 20
549.8554221394967
 30
0.0
 11
697.951970169216
 21
421.1988866730282
 31
0.0
  0
LINE
  5
A5
330
2
100
AcDbEntity
  8
03-01
100
AcDbLine
 10
748.2019701692162
 20
408.8554221394964
 30
0.0
 11
748.2019701692162
 21
406.8554221394965
 31
0.0
  0
LINE
  5
A6
330
2
100
AcDbEntity
  8
03-01
100
AcDbLine
 10
721.7019701692162
 20
408.8554221394964
 30
0.0
 11
721.7019701692162
 21
406.8554221394965
 31
0.0
  0
LINE
  5
A7
330
2
100
AcDbEntity
  8
03-01
100
AcDbLine
 10
746.4519701692162
 20
412.8554221394967
 30
0.0
 11
746.4519701692162
 21
408.8554221394967
 31
0.0
  0
LINE
  5
A8
330
2
100
AcDbEntity
  8
03-01
100
AcDbLine
 10
723.451970169216
 20
412.8554221394967
 30
0.0
 11
723.4519701692162
 21
408.8554221394967
 31
0.0
  0
LINE
  5
A9
330
2
100
AcDbEntity
  8
03-01
100
AcDbLine
 10
749.4519701692162
 20
405.8554221394965
 30
0.0
 11
749.4519701692162
 21
390.8554221394967
 31
0.0
  0
LINE
  5
AA
330
2
100
AcDbEntity
  8
03-01
100
AcDbLine
 10
720.4519701692159
 20
405.8554221394965
 30
0.0
 11
720.4519701692159
 21
390.8554221394965
 31
0.0
  0
LINE
  5
AB
330
2
100
AcDbEntity
  8
03-01
100
AcDbLine
 10
745.4519701692159
 20
390.855422139497
 30
0.0
 11
745.4519701692159
 21
379.3554221394968
 31
0.0
  0
LINE
  5
AC
330
2
100
AcDbEntity
  8
03-01
100
AcDbLine
 10
724.4519701692159
 20
390.8554221394967
 30
0.0
 11
724.4519701692159
 21
379.3554221394965
 31
0.0
  0
LINE
  5
AD
330
2
100
AcDbEntity
  8
03-01
100
AcDbLine
 10
771.951970169216
 20
549.8554221394967
 30
0.0
 11
771.9519701692162
 21
421.1988866730279
 31
0.0
  0
LINE
  5
AE
330
2
100
AcDbEntity
  8
03-01
100
AcDbLine
 10
178.9436409615672
 20
416.8554258349843
 30
0.0
 11
178.9436409615672
 21
417.8554258349841
 31
0.0
  0
LINE
  5
AF
330
2
100
AcDbEntity
  8
03-01
100
AcDbLine
 10
201.9436409615672
 20
416.8554258349843
 30
0.0
 11
201.9436409615672
 21
417.8554258349841
 31
0.0
  0
LINE
  5
B0
330
2
100
AcDbEntity
  8
03-01
100
AcDbLine
 10
215.3118818499018
 20
427.0501605465733
 30
0.0
 11
203.6936409615686
 21
423.8554258349845
 31
0.0
  0
ARC
  5
B1
330
2
100
AcDbEntity
  8
03-01
100
AcDbCircle
 10
166.4436409615672
 20
431.974199311634
 30
0.0
 40
5.0
100
AcDbArc
 50
180.0
 51
260.0000000000081
  0
LINE
  5
B2
330
2
100
AcDbEntity
  8
03-01
100
AcDbLine
 10
165.5754000732325
 20
427.0501605465729
 30
0.0
 11
177.1936409615672
 21
423.8554258349845
 31
0.0
  0
LINE
  5
B3
330
2
100
AcDbEntity
  8
03-01
100
AcDbLine
 10
177.1936409615672
 20
419.8554258349843
 30
0.0
 11
203.6936409615672
 21
419.8554258349843
 31
0.0
  0
LINE
  5
B4
330
2
100
AcDbEntity
  8
03-01
100
AcDbLine
 10
175.9436409615672
 20
401.8554258349845
 30
0.0
 11
204.9436409615672
 21
401.8554258349842
 31
0.0
  0
LINE
  5
B5
330
2
100
AcDbEntity
  8
03-01
100
AcDbLine
 10
175.9436409615672
 20
416.8554258349843
 30
0.0
 11
204.9436409615672
 21
416.8554258349843
 31
0.0
  0
LINE
  5
B6
330
2
100
AcDbEntity
  8
03-01
100
AcDbLine
 10
177.1936409615672
 20
417.8554258349842
 30
0.0
 11
203.6936409615672
 21
417.8554258349842
 31
0.0
  0
LINE
  5
B7
330
2
100
AcDbEntity
  8
03-01
100
AcDbLine
 10
177.1936409615672
 20
423.8554258349845
 30
0.0
 11
203.6936409615686
 21
423.8554258349845
 31
0.0
  0
ARC
  5
B8
330
2
100
AcDbEntity
  8
03-01
100
AcDbCircle
 10
166.4436409615672
 20
560.8554258349845
 30
0.0
 40
5.0
100
AcDbArc
 50
90.0
 51
180.0
  0
LINE
  5
B9
330
2
100
AcDbEntity
  8
03-01
100
AcDbLine
 10
212.4436409615672
 20
537.8554258349841
 30
0.0
 11
214.4436409615672
 21
537.8554258349841
 31
0.0
  0
LINE
  5
BA
330
2
100
AcDbEntity
  8
03-01
100
AcDbLine
 10
166.4436409615672
 20
565.8554258349845
 30
0.0
 11
202.4436409615672
 21
565.8554258349845
 31
0.0
  0
ARC
  5
BB
330
2
100
AcDbEntity
  8
03-01
100
AcDbCircle
 10
214.4436409615672
 20
532.855425834984
 30
0.0
 40
5.0
100
AcDbArc
 50
0.0
 51
90.0
  0
ARC
  5
BC
330
2
100
AcDbEntity
  8
03-01
100
AcDbCircle
 10
214.4436409615672
 20
431.9741993116345
 30
0.0
 40
5.0
100
AcDbArc
 50
279.9999999999919
 51
0.0
  0
LINE
  5
BD
330
2
100
AcDbEntity
  8
03-01
100
AcDbLine
 10
219.4436409615672
 20
532.855425834984
 30
0.0
 11
219.4436409615672
 21
431.9741993116345
 31
0.0
  0
LINE
  5
BE
330
2
100
AcDbEntity
  8
03-01
100
AcDbLine
 10
177.1936409615672
 20
419.8554258349843
 30
0.0
 11
177.1936409615672
 21
417.8554258349842
 31
0.0
  0
LINE
  5
BF
330
2
100
AcDbEntity
  8
03-01
100
AcDbLine
 10
203.6936409615672
 20
419.8554258349843
 30
0.0
 11
203.6936409615672
 21
417.8554258349842
 31
0.0
  0
LINE
  5
C0
330
2
100
AcDbEntity
  8
03-01
100
AcDbLine
 10
178.9436409615672
 20
423.8554258349845
 30
0.0
 11
178.9436409615672
 21
419.8554258349845
 31
0.0
  0
LINE
  5
C1
330
2
100
AcDbEntity
  8
03-01
100
AcDbLine
 10
201.9436409615672
 20
423.8554258349845
 30
0.0
 11
201.9436409615672
 21
419.8554258349845
 31
0.0
  0
LINE
  5
C2
330
2
100
AcDbEntity
  8
03-01
100
AcDbLine
 10
175.9436409615672
 20
416.8554258349843
 30
0.0
 11
175.9436409615672
 21
401.8554258349845
 31
0.0
  0
LINE
  5
C3
330
2
100
AcDbEntity
  8
03-01
100
AcDbLine
 10
204.9436409615672
 20
416.8554258349843
 30
0.0
 11
204.9436409615672
 21
401.8554258349842
 31
0.0
  0
LINE
  5
C4
330
2
100
AcDbEntity
  8
03-01
100
AcDbLine
 10
179.9436409615672
 20
401.8554258349848
 30
0.0
 11
179.9436409615672
 21
390.3554258349846
 31
0.0
  0
LINE
  5
C5
330
2
100
AcDbEntity
  8
03-01
100
AcDbLine
 10
200.9436409615672
 20
401.8554258349845
 30
0.0
 11
200.9436409615672
 21
390.3554258349843
 31
0.0
  0
ARC
  5
C6
330
2
100
AcDbEntity
  8
03-01
100
AcDbCircle
 10
202.4436409615672
 20
560.8554258349845
 30
0.0
 40
5.0
100
AcDbArc
 50
0.0
 51
90.0
  0
ARC
  5
C7
330
2
100
AcDbEntity
  8
03-01
100
AcDbCircle
 10
212.4436409615672
 20
542.8554258349841
 30
0.0
 40
5.0
100
AcDbArc
 50
180.0
 51
270.0
  0
LINE
  5
C8
330
2
100
AcDbEntity
  8
03-01
100
AcDbLine
 10
207.4436409615672
 20
560.8554258349845
 30
0.0
 11
207.4436409615672
 21
542.8554258349841
 31
0.0
  0
LINE
  5
C9
330
2
100
AcDbEntity
  8
03-01
100
AcDbLine
 10
161.4436409615672
 20
560.8554258349845
 30
0.0
 11
161.4436409615672
 21
431.974199311634
 31
0.0
  0
TEXT
  5
CA
330
2
100
AcDbEntity
  8
09-01
100
AcDbText
 10
265.4967781138843
 20
349.9547869794365
 30
0.0
 40
5.0
  1
Batteriefachdeckel
100
AcDbText
  0
LINE
  5
CB
330
2
100
AcDbEntity
  8
05-01
100
AcDbLine
 10
232.3436409615662
 20
416.375832250458
 30
0.0
 11
240.7577332747827
 21
411.8349087169499
 31
0.0
  0
LINE
  5
CC
330
2
100
AcDbEntity
  8
05-01
100
AcDbLine
 10
241.2682805721857
 20
419.8062467754175
 30
0.0
 11
240.7577332747827
 21
411.8349087169499
 31
0.0
  0
LINE
  5
CD
330
2
100
AcDbEntity
  8
05-01
100
AcDbLine
 10
232.3436409615662
 20
416.375832250458
 30
0.0
 11
241.2682805721857
 21
419.8062467754175
 31
0.0
  0
LINE
  5
CE
330
2
100
AcDbEntity
  8
05-01
100
AcDbLine
 10
327.0879607366411
 20
337.8554188016367
 30
0.0
 11
321.0639359169619
 21
345.280246137298
 31
0.0
  0
LINE
  5
CF
330
2
100
AcDbEntity
  8
05-01
100
AcDbLine
 10
328.8019260244115
 20
347.2617602256339
 30
0.0
 11
321.0639359169619
 21
345.280246137298
 31
0.0
  0
LINE
  5
D0
330
2
100
AcDbEntity
  8
05-01
100
AcDbLine
 10
327.0879607366411
 20
337.8554188016367
 30
0.0
 11
328.8019260244115
 21
347.2617602256339
 31
0.0
  0
ARC
  5
D1
330
2
100
AcDbEntity
  8
05-01
100
AcDbCircle
 10
232.3436409615668
 20
319.955418801637
 30
0.0
 40
96.42041344882045
100
AcDbArc
 50
10.69875917820766
 51
90.0
  0
LINE
  5
D2
330
2
100
AcDbEntity
  8
05-01
100
AcDbLine
 10
346.3436409615669
 20
337.8554188016367
 30
0.0
 11
234.3436409615669
 21
337.8554188016367
 31
0.0
  0
LINE
  5
D3
330
2
100
AcDbEntity
  8
05-01
100
AcDbLine
 10
353.8436409615668
 20
322.9554188016371
 30
0.0
 11
346.3436409615669
 21
322.9554188016371
 31
0.0
  0
LINE
  5
D4
330
2
100
AcDbEntity
  8
05-01
100
AcDbLine
 10
353.8436409615668
 20
319.955418801637
 30
0.0
 11
353.8436409615668
 21
322.9554188016371
 31
0.0
  0
LINE
  5
D5
330
2
100
AcDbEntity
  8
05-01
100
AcDbLine
 10
346.3436409615669
 20
337.8554188016367
 30
0.0
 11
346.3436409615669
 21
319.955418801637
 31
0.0
  0
LINE
  5
D6
330
2
100
AcDbEntity
  8
05-01
100
AcDbLine
 10
234.3436409615669
 20
337.8554188016367
 30
0.0
 11
234.3436409615669
 21
319.955418801637
 31
0.0
  0
LINE
  5
D7
330
2
100
AcDbEntity
  8
05-01
100
AcDbLine
 10
353.8436409615668
 20
319.955418801637
 30
0.0
 11
234.3436409615669
 21
319.955418801637
 31
0.0
  0
LINE
  5
D8
330
2
100
AcDbEntity
  8
03-01
100
AcDbLine
 10
161.4436409615671
 20
488.8554188016369
 30
0.0
 11
219.4436409615671
 21
488.8554188016366
 31
0.0
  0
ARC
  5
D9
330
2
100
AcDbEntity
  8
03-01
100
AcDbCircle
 10
152.0436409615671
 20
323.2636144402932
 30
0.0
 40
0.2
100
AcDbArc
 50
270.0
 51
0.0
  0
LINE
  5
DA
330
2
100
AcDbEntity
  8
03-01
100
AcDbLine
 10
148.443640961567
 20
323.0636144402934
 30
0.0
 11
152.0436409615671
 21
323.0636144402934
 31
0.0
  0
LINE
  5
DB
330
2
100
AcDbEntity
  8
03-01
100
AcDbLine
 10
148.443640961567
 20
331.0636144402934
 30
0.0
 11
152.0436409615671
 21
331.0636144402934
 31
0.0
  0
ARC
  5
DC
330
2
100
AcDbEntity
  8
03-01
100
AcDbCircle
 10
152.0436409615671
 20
330.8636144402935
 30
0.0
 40
0.2
100
AcDbArc
 50
0.0
 51
90.0
  0
LINE
  5
DD
330
2
100
AcDbEntity
  8
03-01
100
AcDbLine
 10
152.2436409615669
 20
330.8636144402935
 30
0.0
 11
152.2436409615669
 21
323.2636144402932
 31
0.0
  0
LINE
  5
DE
330
2
100
AcDbEntity
  8
03-01
100
AcDbLine
 10
148.443640961567
 20
323.0636144402934
 30
0.0
 11
148.443640961567
 21
331.0636144402934
 31
0.0
  0
LINE
  5
DF
330
2
100
AcDbEntity
  8
05-01
100
AcDbLine
 10
185.3436409615668
 20
431.955418801637
 30
0.0
 11
185.3436409615668
 21
319.955418801637
 31
0.0
  0
LINE
  5
E0
330
2
100
AcDbEntity
  8
03-01
100
AcDbLine
 10
176.5436409615671
 20
390.3554258349846
 30
0.0
 11
204.3436409615673
 21
390.3554258349846
 31
0.0
  0
LINE
  5
E1
330
2
100
AcDbEntity
  8
03-01
100
AcDbLine
 10
176.5436409615671
 20
385.8554258349845
 30
0.0
 11
176.5436409615671
 21
390.3554258349846
 31
0.0
  0
LINE
  5
E2
330
2
100
AcDbEntity
  8
03-01
100
AcDbLine
 10
204.3436409615673
 20
385.8554258349845
 30
0.0
 11
204.3436409615673
 21
390.3554258349846
 31
0.0
  0
LINE
  5
E3
330
2
100
AcDbEntity
  8
03-01
100
AcDbLine
 10
220.4436409615672
 20
385.8554258349845
 30
0.0
 11
160.4436409615672
 21
385.8554258349845
 31
0.0
  0
LINE
  5
E4
330
2
100
AcDbEntity
  8
03-01
100
AcDbLine
 10
220.4436409615672
 20
333.8554258349845
 30
0.0
 11
160.4436409615672
 21
333.8554258349845
 31
0.0
  0
LINE
  5
E5
330
2
100
AcDbEntity
  8
03-01
100
AcDbLine
 10
220.4436409615672
 20
385.8554258349845
 30
0.0
 11
220.4436409615672
 21
333.8554258349845
 31
0.0
  0
LINE
  5
E6
330
2
100
AcDbEntity
  8
03-01
100
AcDbLine
 10
160.4436409615672
 20
333.8554258349845
 30
0.0
 11
160.4436409615672
 21
385.8554258349845
 31
0.0
  0
LINE
  5
E7
330
2
100
AcDbEntity
  8
03-01
100
AcDbLine
 10
192.5937911055206
 20
331.3131431740226
 30
0.0
 11
193.4433384951375
 21
333.813175752889
 31
0.0
  0
LINE
  5
E8
330
2
100
AcDbEntity
  8
03-01
100
AcDbLine
 10
191.9568770188292
 20
328.8639302610586
 30
0.0
 11
192.5937911055206
 21
331.3131431740226
 31
0.0
  0
LINE
  5
E9
330
2
100
AcDbEntity
  8
03-01
100
AcDbLine
 10
188.9304049043054
 20
328.8639302610586
 30
0.0
 11
191.9568770188292
 21
328.8639302610586
 31
0.0
  0
LINE
  5
EA
330
2
100
AcDbEntity
  8
03-01
100
AcDbLine
 10
188.2933181516749
 20
331.3129540625941
 30
0.0
 11
188.9304049043054
 21
328.8639302610586
 31
0.0
  0
LINE
  5
EB
330
2
100
AcDbEntity
  8
03-01
100
AcDbLine
 10
187.4435586117837
 20
333.8129068341241
 30
0.0
 11
188.2933181516749
 21
331.3129540625941
 31
0.0
  0
LINE
  5
EC
330
2
100
AcDbEntity
  8
03-01
100
AcDbLine
 10
746.4519701692162
 20
405.8554221394962
 30
0.0
 11
746.4519701692162
 21
406.8554221394962
 31
0.0
  0
LINE
  5
ED
330
2
100
AcDbEntity
  8
03-01
100
AcDbLine
 10
723.4519701692163
 20
405.8554221394962
 30
0.0
 11
723.4519701692163
 21
406.8554221394962
 31
0.0
  0
LINE
  5
EE
330
2
100
AcDbEntity
  8
03-01
100
AcDbLine
 10
748.2019701692162
 20
408.8554221394963
 30
0.0
 11
721.7019701692163
 21
408.8554221394963
 31
0.0
  0
LINE
  5
EF
330
2
100
AcDbEntity
  8
03-01
100
AcDbLine
 10
749.4519701692162
 20
405.8554221394962
 30
0.0
 11
720.4519701692162
 21
405.8554221394962
 31
0.0
  0
LINE
  5
F0
330
2
100
AcDbEntity
  8
03-01
100
AcDbLine
 10
748.2019701692163
 20
406.8554221394962
 30
0.0
 11
721.7019701692163
 21
406.8554221394962
 31
0.0
  0
LINE
  5
F1
330
2
100
AcDbEntity
  8
03-01
100
AcDbLine
 10
748.2019701692162
 20
412.8554221394967
 30
0.0
 11
721.701970169215
 21
412.8554221394967
 31
0.0
  0
LINE
  5
F2
330
2
100
AcDbEntity
  8
03-01
100
AcDbLine
 10
748.2019701692162
 20
408.8554221394963
 30
0.0
 11
748.2019701692163
 21
406.8554221394962
 31
0.0
  0
LINE
  5
F3
330
2
100
AcDbEntity
  8
03-01
100
AcDbLine
 10
721.7019701692163
 20
408.8554221394963
 30
0.0
 11
721.7019701692163
 21
406.8554221394962
 31
0.0
  0
LINE
  5
F4
330
2
100
AcDbEntity
  8
03-01
100
AcDbLine
 10
746.4519701692162
 20
412.8554221394967
 30
0.0
 11
746.4519701692162
 21
408.8554221394967
 31
0.0
  0
LINE
  5
F5
330
2
100
AcDbEntity
  8
03-01
100
AcDbLine
 10
723.4519701692162
 20
412.8554221394967
 30
0.0
 11
723.4519701692163
 21
408.8554221394967
 31
0.0
  0
LINE
  5
F6
330
2
100
AcDbEntity
  8
03-01
100
AcDbLine
 10
749.4519701692162
 20
405.8554221394962
 30
0.0
 11
749.4519701692162
 21
390.8554221394967
 31
0.0
  0
LINE
  5
F7
330
2
100
AcDbEntity
  8
03-01
100
AcDbLine
 10
720.4519701692162
 20
405.8554221394962
 30
0.0
 11
720.4519701692162
 21
390.8554221394963
 31
0.0
  0
LINE
  5
F8
330
2
100
AcDbEntity
  8
03-01
100
AcDbLine
 10
209.4436399503625
 20
161.3807090720847
 30
0.0
 11
209.4436399503625
 21
156.3807090720847
 31
0.0
  0
LINE
  5
F9
330
2
100
AcDbEntity
  8
03-01
100
AcDbLine
 10
201.4436399503625
 20
156.3807090720847
 30
0.0
 11
209.4436399503625
 21
156.3807090720847
 31
0.0
  0
LINE
  5
FA
330
2
100
AcDbEntity
  8
03-01
100
AcDbLine
 10
201.4436399503625
 20
161.3807090720847
 30
0.0
 11
209.4436399503625
 21
161.3807090720847
 31
0.0
  0
LINE
  5
FB
330
2
100
AcDbEntity
  8
03-01
100
AcDbLine
 10
201.4436399503625
 20
156.3807090720847
 30
0.0
 11
201.4436399503625
 21
161.3807090720847
 31
0.0
  0
LINE
  5
FC
330
2
100
AcDbEntity
  8
03-01
100
AcDbLine
 10
179.4436399503624
 20
161.3807090720847
 30
0.0
 11
179.4436399503624
 21
156.3807090720847
 31
0.0
  0
LINE
  5
FD
330
2
100
AcDbEntity
  8
03-01
100
AcDbLine
 10
171.4436399503624
 20
156.3807090720847
 30
0.0
 11
179.4436399503624
 21
156.3807090720847
 31
0.0
  0
LINE
  5
FE
330
2
100
AcDbEntity
  8
03-01
100
AcDbLine
 10
171.4436399503624
 20
161.3807090720847
 30
0.0
 11
179.4436399503624
 21
161.3807090720847
 31
0.0
  0
LINE
  5
FF
330
2
100
AcDbEntity
  8
03-01
100
AcDbLine
 10
171.4436399503624
 20
156.3807090720847
 30
0.0
 11
171.4436399503624
 21
161.3807090720847
 31
0.0
  0
ARC
  5
100
330
2
100
AcDbEntity
  8
03-01
100
AcDbCircle
 10
200.4436399503624
 20
115.7807090720846
 30
0.0
 40
20.0
100
AcDbArc
 50
270.0
 51
0.0
  0
ARC
  5
101
330
2
100
AcDbEntity
  8
03-01
100
AcDbCircle
 10
180.4436399503624
 20
115.7807090720846
 30
0.0
 40
20.0
100
AcDbArc
 50
180.0
 51
270.0
  0
LINE
  5
102
330
2
100
AcDbEntity
  8
03-01
100
AcDbLine
 10
160.4436399503624
 20
165.7807090720846
 30
0.0
 11
160.4436399503624
 21
115.7807090720846
 31
0.0
  0
LINE
  5
103
330
2
100
AcDbEntity
  8
03-01
100
AcDbLine
 10
220.4436399503625
 20
155.7807090720846
 30
0.0
 11
160.4436399503624
 21
155.7807090720846
 31
0.0
  0
LINE
  5
104
330
2
100
AcDbEntity
  8
03-01
100
AcDbLine
 10
220.4436399503625
 20
115.7807090720846
 30
0.0
 11
220.4436399503625
 21
165.7807090720846
 31
0.0
  0
LINE
  5
105
330
2
100
AcDbEntity
  8
03-01
100
AcDbLine
 10
180.4436399503624
 20
95.78070907208465
 30
0.0
 11
200.4436399503624
 21
95.78070907208465
 31
0.0
  0
LINE
  5
106
330
2
100
AcDbEntity
  8
05-01
100
AcDbLine
 10
229.3436409615669
 20
439.455418801637
 30
0.0
 11
229.3436409615669
 21
431.955418801637
 31
0.0
  0
LINE
  5
107
330
2
100
AcDbEntity
  8
05-01
100
AcDbLine
 10
232.3436409615668
 20
439.455418801637
 30
0.0
 11
229.3436409615669
 21
439.455418801637
 31
0.0
  0
LINE
  5
108
330
2
100
AcDbEntity
  8
05-01
100
AcDbLine
 10
214.4436409615672
 20
431.955418801637
 30
0.0
 11
214.4436409615672
 21
319.955418801637
 31
0.0
  0
LINE
  5
109
330
2
100
AcDbEntity
  8
05-01
100
AcDbLine
 10
156.8436409615673
 20
431.955418801637
 30
0.0
 11
232.3436409615668
 21
431.955418801637
 31
0.0
  0
LINE
  5
10A
330
2
100
AcDbEntity
  8
05-01
100
AcDbLine
 10
156.8436409615673
 20
319.955418801637
 30
0.0
 11
232.3436409615668
 21
319.955418801637
 31
0.0
  0
LINE
  5
10B
330
2
100
AcDbEntity
  8
05-01
100
AcDbLine
 10
156.8436409615673
 20
431.955418801637
 30
0.0
 11
156.8436409615673
 21
319.955418801637
 31
0.0
  0
LINE
  5
10C
330
2
100
AcDbEntity
  8
05-01
100
AcDbLine
 10
232.3436409615668
 20
439.455418801637
 30
0.0
 11
232.3436409615668
 21
319.955418801637
 31
0.0
  0
LINE
  5
10D
330
2
100
AcDbEntity
  8
03-01
100
AcDbLine
 10
148.4436409615667
 20
483.0601855988557
 30
0.0
 11
147.4436409615667
 21
483.0601855988557
 31
0.0
  0
ARC
  5
10E
330
2
100
AcDbEntity
  8
03-01
100
AcDbCircle
 10
229.4436409615668
 20
319.8554188016369
 30
0.0
 40
5.0
100
AcDbArc
 50
270.0
 51
0.0
  0
LINE
  5
10F
330
2
100
AcDbEntity
  8
03-01
100
AcDbLine
 10
147.4436409615672
 20
349.1557903050857
 30
0.0
 11
148.4436409615672
 21
349.1557903050857
 31
0.0
  0
LINE
  5
110
330
2
100
AcDbEntity
  8
03-01
100
AcDbLine
 10
147.4436409615667
 20
488.8554188016369
 30
0.0
 11
147.4436409615672
 21
314.8554188016369
 31
0.0
  0
ARC
  5
111
330
2
100
AcDbEntity
  8
03-01
100
AcDbCircle
 10
229.4436409615668
 20
483.8554188016368
 30
0.0
 40
5.0
100
AcDbArc
 50
0.0
 51
90.0
  0
LINE
  5
112
330
2
100
AcDbEntity
  8
03-01
100
AcDbLine
 10
234.4436409615668
 20
483.8554188016368
 30
0.0
 11
234.4436409615668
 21
319.8554188016369
 31
0.0
  0
LINE
  5
113
330
2
100
AcDbEntity
  8
03-01
100
AcDbLine
 10
148.4436409615667
 20
488.8554188016369
 30
0.0
 11
148.4436409615672
 21
314.8554188016369
 31
0.0
  0
LINE
  5
114
330
2
100
AcDbEntity
  8
03-01
100
AcDbLine
 10
147.4436409615672
 20
314.8554188016369
 30
0.0
 11
229.4436409615668
 21
314.8554188016369
 31
0.0
  0
LINE
  5
115
330
2
100
AcDbEntity
  8
03-01
100
AcDbLine
 10
219.4436409615671
 20
488.8554188016366
 30
0.0
 11
229.4436409615668
 21
488.8554188016369
 31
0.0
  0
LINE
  5
116
330
2
100
AcDbEntity
  8
03-01
100
AcDbLine
 10
147.4436409615667
 20
488.8554188016369
 30
0.0
 11
161.4436409615671
 21
488.8554188016369
 31
0.0
  0
LINE
  5
117
330
2
100
AcDbEntity
  8
05-01
100
AcDbLine
 10
186.4436399503624
 20
208.2807090720847
 30
0.0
 11
186.4436399503624
 21
165.7807090720846
 31
0.0
  0
LINE
  5
118
330
2
100
AcDbEntity
  8
05-01
100
AcDbLine
 10
215.0436399503624
 20
208.2807090720847
 30
0.0
 11
215.0436399503624
 21
165.7807090720847
 31
0.0
  0
ARC
  5
119
330
2
100
AcDbEntity
  8
03-01
100
AcDbCircle
 10
152.043640961567
 20
323.2636144402932
 30
0.0
 40
0.2
100
AcDbArc
 50
270.0
 51
0.0
  0
LINE
  5
11A
330
2
100
AcDbEntity
  8
03-01
100
AcDbLine
 10
148.4436409615669
 20
323.0636144402934
 30
0.0
 11
152.043640961567
 21
323.0636144402934
 31
0.0
  0
LINE
  5
11B
330
2
100
AcDbEntity
  8
03-01
100
AcDbLine
 10
148.4436409615669
 20
331.0636144402934
 30
0.0
 11
152.043640961567
 21
331.0636144402934
 31
0.0
  0
LINE
  5
11C
330
2
100
AcDbEntity
  8
05-01
100
AcDbLine
 10
148.6069295894742
 20
327.0636144402934
 30
0.0
 11
153.6066110556751
 21
327.0636144402934
 31
0.0
  0
ARC
  5
11D
330
2
100
AcDbEntity
  8
03-01
100
AcDbCircle
 10
152.043640961567
 20
330.8636144402936
 30
0.0
 40
0.2
100
AcDbArc
 50
0.0
 51
90.0
  0
LINE
  5
11E
330
2
100
AcDbEntity
  8
03-01
100
AcDbLine
 10
152.2436409615668
 20
330.8636144402936
 30
0.0
 11
152.2436409615668
 21
323.2636144402932
 31
0.0
  0
LINE
  5
11F
330
2
100
AcDbEntity
  8
03-01
100
AcDbLine
 10
148.4436409615669
 20
323.0636144402934
 30
0.0
 11
148.4436409615669
 21
331.0636144402934
 31
0.0
  0
LINE
  5
120
330
2
100
AcDbEntity
  8
05-01
100
AcDbLine
 10
712.8019723388251
 20
384.8554258349847
 30
0.0
 11
702.8019723388251
 21
384.8554258349847
 31
0.0
  0
LINE
  5
121
330
2
100
AcDbEntity
  8
05-01
100
AcDbLine
 10
772.8019723388252
 20
336.8554258349847
 30
0.0
 11
772.8019723388252
 21
388.8554258349847
 31
0.0
  0
LINE
  5
122
330
2
100
AcDbEntity
  8
05-01
100
AcDbLine
 10
702.8019723388251
 20
336.8554258349847
 30
0.0
 11
772.8019723388252
 21
336.8554258349847
 31
0.0
  0
LINE
  5
123
330
2
100
AcDbEntity
  8
03-01
100
AcDbLine
 10
712.8019723388251
 20
387.3554258349843
 30
0.0
 11
712.8019723388251
 21
388.855425834985
 31
0.0
  0
LINE
  5
124
330
2
100
AcDbEntity
  8
03-01
100
AcDbLine
 10
712.3019723388249
 20
388.8554258349847
 30
0.0
 11
712.3019723388249
 21
387.5554258349843
 31
0.0
  0
ARC
  5
125
330
2
100
AcDbEntity
  8
03-01
100
AcDbCircle
 10
712.1019723388246
 20
387.5554258349843
 30
0.0
 40
0.2000000000002728
100
AcDbArc
 50
270.0
 51
0.0
  0
ARC
  5
126
330
2
100
AcDbEntity
  8
05-01
100
AcDbCircle
 10
711.5019723388252
 20
387.5554258349911
 30
0.0
 40
0.2000000000066393
100
AcDbArc
 50
180.0000000018238
 51
270.0
  0
ARC
  5
127
330
2
100
AcDbEntity
  8
05-01
100
AcDbCircle
 10
713.3019723388254
 20
388.8554258349847
 30
0.0
 40
2.0
100
AcDbArc
 50
90.0
 51
180.0
  0
ARC
  5
128
330
2
100
AcDbEntity
  8
05-01
100
AcDbCircle
 10
772.3019723388254
 20
388.8554258349847
 30
0.0
 40
2.0
100
AcDbArc
 50
0.0
 51
90.0
  0
ARC
  5
129
330
2
100
AcDbEntity
  8
03-01
100
AcDbCircle
 10
773.5019723388252
 20
387.5554258349843
 30
0.0
 40
0.2000000000001592
100
AcDbArc
 50
180.0
 51
270.0
  0
ARC
  5
12A
330
2
100
AcDbEntity
  8
05-01
100
AcDbCircle
 10
774.1019723388251
 20
387.5554258349911
 30
0.0
 40
0.2000000000066393
100
AcDbArc
 50
270.0
 51
0.0
  0
LINE
  5
12B
330
2
100
AcDbEntity
  8
05-01
100
AcDbLine
 10
711.3019723388254
 20
387.5554258349848
 30
0.0
 11
711.3019723388254
 21
388.8554258349847
 31
0.0
  0
LINE
  5
12C
330
2
100
AcDbEntity
  8
05-01
100
AcDbLine
 10
713.3019723388254
 20
390.8554258349847
 30
0.0
 11
772.3019723388254
 21
390.8554258349847
 31
0.0
  0
LINE
  5
12D
330
2
100
AcDbEntity
  8
05-01
100
AcDbLine
 10
774.3019723388254
 20
387.5554258349911
 30
0.0
 11
774.3019723388254
 21
388.8554258349847
 31
0.0
  0
LINE
  5
12E
330
2
100
AcDbEntity
  8
03-01
100
AcDbLine
 10
712.3019723388247
 20
388.855425834985
 30
0.0
 11
773.3019723388253
 21
388.8554258349847
 31
0.0
  0
LINE
  5
12F
330
2
100
AcDbEntity
  8
03-01
100
AcDbLine
 10
773.3019723388253
 20
388.8554258349847
 30
0.0
 11
773.3019723388253
 21
387.5554258349843
 31
0.0
  0
LINE
  5
130
330
2
100
AcDbEntity
  8
05-01
100
AcDbLine
 10
711.5019723388252
 20
387.3554258349843
 30
0.0
 11
774.1019723388251
 21
387.3554258349845
 31
0.0
  0
LINE
  5
131
330
2
100
AcDbEntity
  8
03-01
100
AcDbLine
 10
772.8019723388252
 20
387.3554258349845
 30
0.0
 11
772.8019723388252
 21
388.8554258349847
 31
0.0
  0
LINE
  5
132
330
2
100
AcDbEntity
  8
03-01
100
AcDbLine
 10
752.8019723388251
 20
388.8554258349847
 30
0.0
 11
752.8019723388251
 21
387.3554258349845
 31
0.0
  0
LINE
  5
133
330
2
100
AcDbEntity
  8
05-01
100
AcDbLine
 10
752.8019723388251
 20
387.3554258349845
 30
0.0
 11
752.8019723388251
 21
336.8554258349847
 31
0.0
  0
LINE
  5
134
330
2
100
AcDbEntity
  8
05-01
100
AcDbLine
 10
712.2492096503935
 20
336.3313114907135
 30
0.0
 11
712.2854152828834
 21
336.8554258349847
 31
0.0
  0
LINE
  5
135
330
2
100
AcDbEntity
  8
05-01
100
AcDbLine
 10
709.805909243704
 20
382.8554258349847
 30
0.0
 11
709.9022145168653
 21
336.8554258349847
 31
0.0
  0
LINE
  5
136
330
2
100
AcDbEntity
  8
05-01
100
AcDbLine
 10
707.3769723388254
 20
382.8554258349847
 30
0.0
 11
706.8019723388252
 21
336.8554258349847
 31
0.0
  0
LINE
  5
137
330
2
100
AcDbEntity
  8
05-01
100
AcDbLine
 10
757.3019723388251
 20
331.8554258349847
 30
0.0
 11
756.1019723388251
 21
336.8554258349847
 31
0.0
  0
LINE
  5
138
330
2
100
AcDbEntity
  8
05-01
100
AcDbLine
 10
760.8019723388252
 20
331.8554258349847
 30
0.0
 11
757.3019723388251
 21
331.8554258349847
 31
0.0
  0
LINE
  5
139
330
2
100
AcDbEntity
  8
05-01
100
AcDbLine
 10
762.201972338825
 20
336.8554258349847
 30
0.0
 11
760.8019723388252
 21
331.8554258349847
 31
0.0
  0
LINE
  5
13A
330
2
100
AcDbEntity
  8
05-01
100
AcDbLine
 10
712.8019723388251
 20
388.8554258349847
 30
0.0
 11
712.8019723388251
 21
384.8554258349847
 31
0.0
  0
LINE
  5
13B
330
2
100
AcDbEntity
  8
05-01
100
AcDbLine
 10
702.8019723388251
 20
384.8554258349847
 30
0.0
 11
702.8019723388251
 21
336.8554258349847
 31
0.0
  0
LINE
  5
13C
330
2
100
AcDbEntity
  8
05-01
100
AcDbLine
 10
709.805909243704
 20
382.8554258349847
 30
0.0
 11
707.3769723388253
 21
382.8554258349847
 31
0.0
  0
INSERT
  5
13D
330
2
100
AcDbEntity
  8
05-01
100
AcDbBlockReference
  2
e-modul draufsicht
 10
47.59620462173097
 20
520.3577075326945
 30
0.0
  0
ARC
  5
15C
330
2
100
AcDbEntity
  8
03-01
100
AcDbCircle
 10
670.4059092437037
 20
343.0556187757622
 30
0.0
 40
3.0
100
AcDbArc
 50
179.9999999999992
 51
261.470183134831
  0
LINE
  5
15D
330
2
100
AcDbEntity
  8
03-01
100
AcDbLine
 10
669.9609370115352
 20
340.0888023485799
 30
0.0
 11
693.2848481544747
 21
336.5906105800949
 31
0.0
  0
LINE
  5
15E
330
2
100
AcDbEntity
  8
03-01
100
AcDbLine
 10
655.4059092437041
 20
317.8554188016369
 30
0.0
 11
693.2848481544747
 21
323.5366183004919
 31
0.0
  0
ARC
  5
15F
330
2
100
AcDbEntity
  8
03-01
100
AcDbCircle
 10
152.0436399503624
 20
171.2807090720852
 30
0.0
 40
0.2
100
AcDbArc
 50
270.0
 51
0.0
  0
LINE
  5
160
330
2
100
AcDbEntity
  8
03-01
100
AcDbLine
 10
148.4436399503622
 20
171.0807090720854
 30
0.0
 11
152.0436399503624
 21
171.0807090720854
 31
0.0
  0
LINE
  5
161
330
2
100
AcDbEntity
  8
03-01
100
AcDbLine
 10
148.4436399503622
 20
179.0807090720854
 30
0.0
 11
152.0436399503624
 21
179.0807090720854
 31
0.0
  0
LINE
  5
162
330
2
100
AcDbEntity
  8
05-01
100
AcDbLine
 10
148.6069285782696
 20
175.0807090720854
 30
0.0
 11
153.6066100444704
 21
175.0807090720854
 31
0.0
  0
ARC
  5
163
330
2
100
AcDbEntity
  8
03-01
100
AcDbCircle
 10
152.0436399503624
 20
178.8807090720855
 30
0.0
 40
0.2
100
AcDbArc
 50
0.0
 51
90.0
  0
LINE
  5
164
330
2
100
AcDbEntity
  8
03-01
100
AcDbLine
 10
152.2436399503622
 20
178.8807090720855
 30
0.0
 11
152.2436399503622
 21
171.2807090720852
 31
0.0
  0
LINE
  5
165
330
2
100
AcDbEntity
  8
03-01
100
AcDbLine
 10
148.4436399503622
 20
171.0807090720854
 30
0.0
 11
148.4436399503622
 21
179.0807090720854
 31
0.0
  0
LINE
  5
166
330
2
100
AcDbEntity
  8
03-01
100
AcDbLine
 10
148.443639950362
 20
211.9807090720854
 30
0.0
 11
148.4436399503622
 21
168.4807090720854
 31
0.0
  0
LINE
  5
167
330
2
100
AcDbEntity
  8
0
100
AcDbLine
 10
148.4436399503622
 20
168.4807090720854
 30
0.0
 11
147.4436399503622
 21
168.4807090720854
 31
0.0
  0
LINE
  5
168
330
2
100
AcDbEntity
  8
03-01
100
AcDbLine
 10
147.443639950362
 20
212.9807090720854
 30
0.0
 11
147.4436399503622
 21
168.4807090720854
 31
0.0
  0
LINE
  5
169
330
2
100
AcDbEntity
  8
03-01
100
AcDbLine
 10
234.443639950362
 20
212.9807090720854
 30
0.0
 11
234.443639950362
 21
211.9807090720854
 31
0.0
  0
LINE
  5
16A
330
2
100
AcDbEntity
  8
03-01
100
AcDbLine
 10
202.706196476953
 20
211.9807090720854
 30
0.0
 11
234.443639950362
 21
211.9807090720854
 31
0.0
  0
LINE
  5
16B
330
2
100
AcDbEntity
  8
03-01
100
AcDbLine
 10
148.443639950362
 20
211.9807090720854
 30
0.0
 11
169.1810834237719
 21
211.9807090720854
 31
0.0
  0
LINE
  5
16C
330
2
100
AcDbEntity
  8
03-01
100
AcDbLine
 10
206.6250169836524
 20
209.2807090720846
 30
0.0
 11
201.2547814744721
 21
212.9807090720854
 31
0.0
  0
LINE
  5
16D
330
2
100
AcDbEntity
  8
03-01
100
AcDbLine
 10
206.3138754595427
 20
208.2807090720847
 30
0.0
 11
200.9436399503625
 21
211.9807090720854
 31
0.0
  0
LINE
  5
16E
330
2
100
AcDbEntity
  8
03-01
100
AcDbLine
 10
165.2622629170726
 20
209.2807090720846
 30
0.0
 11
170.6324984262526
 21
212.9807090720854
 31
0.0
  0
LINE
  5
16F
330
2
100
AcDbEntity
  8
03-01
100
AcDbLine
 10
165.5734044411822
 20
208.2807090720847
 30
0.0
 11
170.9436399503625
 21
211.9807090720854
 31
0.0
  0
LINE
  5
170
330
2
100
AcDbEntity
  8
03-01
100
AcDbLine
 10
211.6436399503627
 20
209.2807090720846
 30
0.0
 11
206.6250169836524
 21
209.2807090720846
 31
0.0
  0
LINE
  5
171
330
2
100
AcDbEntity
  8
03-01
100
AcDbLine
 10
211.6436399503627
 20
208.2807090720847
 30
0.0
 11
206.3138754595427
 21
208.2807090720847
 31
0.0
  0
LINE
  5
172
330
2
100
AcDbEntity
  8
03-01
100
AcDbLine
 10
211.6436399503627
 20
209.2807090720846
 30
0.0
 11
211.6436399503627
 21
208.2807090720847
 31
0.0
  0
LINE
  5
173
330
2
100
AcDbEntity
  8
03-01
100
AcDbLine
 10
160.2436399503622
 20
209.2807090720846
 30
0.0
 11
165.2622629170726
 21
209.2807090720846
 31
0.0
  0
LINE
  5
174
330
2
100
AcDbEntity
  8
03-01
100
AcDbLine
 10
160.2436399503622
 20
208.2807090720847
 30
0.0
 11
165.5734044411822
 21
208.2807090720847
 31
0.0
  0
LINE
  5
175
330
2
100
AcDbEntity
  8
03-01
100
AcDbLine
 10
160.2436399503622
 20
209.2807090720846
 30
0.0
 11
160.2436399503622
 21
208.2807090720847
 31
0.0
  0
LINE
  5
176
330
2
100
AcDbEntity
  8
03-01
100
AcDbLine
 10
170.9436399503625
 20
211.9807090720854
 30
0.0
 11
200.9436399503625
 21
211.9807090720854
 31
0.0
  0
INSERT
  5
177
330
2
100
AcDbEntity
  8
05-01
100
AcDbBlockReference
  2
Sensor-Betätigungsmodul
 10
659.2059092437048
 20
427.8554188016368
 30
0.0
  0
LINE
  5
1BF
330
2
100
AcDbEntity
  8
03-01
100
AcDbLine
 10
148.4436409615666
 20
483.0601855988557
 30
0.0
 11
147.4436409615666
 21
483.0601855988557
 31
0.0
  0
ARC
  5
1C0
330
2
100
AcDbEntity
  8
0
100
AcDbCircle
 10
229.4436409615666
 20
319.855418801637
 30
0.0
 40
5.0
100
AcDbArc
 50
270.0
 51
0.0
  0
LINE
  5
1C1
330
2
100
AcDbEntity
  8
03-01
100
AcDbLine
 10
658.1059092437048
 20
427.8554188016368
 30
0.0
 11
654.4059092437046
 21
427.855418801637
 31
0.0
  0
LINE
  5
1C2
330
2
100
AcDbEntity
  8
03-01
100
AcDbLine
 10
658.1059092437048
 20
405.8554188016368
 30
0.0
 11
654.4059092437046
 21
405.8554188016368
 31
0.0
  0
LINE
  5
1C3
330
2
100
AcDbEntity
  8
03-01
100
AcDbLine
 10
658.1059092437047
 20
335.8554188016369
 30
0.0
 11
654.4059092437041
 21
335.8554188016369
 31
0.0
  0
LINE
  5
1C4
330
2
100
AcDbEntity
  8
03-01
100
AcDbLine
 10
658.1059092437047
 20
357.8554188016369
 30
0.0
 11
654.4059092437044
 21
357.8554188016369
 31
0.0
  0
LINE
  5
1C5
330
2
100
AcDbEntity
  8
03-01
100
AcDbLine
 10
658.1059092437047
 20
357.8554188016369
 30
0.0
 11
658.1059092437044
 21
335.8554188016368
 31
0.0
  0
LINE
  5
1C6
330
2
100
AcDbEntity
  8
03-01
100
AcDbLine
 10
658.1059092437047
 20
427.8554188016368
 30
0.0
 11
658.1059092437047
 21
405.8554188016368
 31
0.0
  0
LINE
  5
1C7
330
2
100
AcDbEntity
  8
03-01
100
AcDbLine
 10
659.1059092437046
 20
357.8554188016369
 30
0.0
 11
659.1059092437044
 21
335.8554188016368
 31
0.0
  0
LINE
  5
1C8
330
2
100
AcDbEntity
  8
03-01
100
AcDbLine
 10
659.1059092437046
 20
427.8554188016368
 30
0.0
 11
659.1059092437046
 21
405.8554188016368
 31
0.0
  0
LINE
  5
1C9
330
2
100
AcDbEntity
  8
03-01
100
AcDbLine
 10
659.1059092437044
 20
335.8554188016368
 30
0.0
 11
658.1059092437044
 21
335.8554188016369
 31
0.0
  0
LINE
  5
1CA
330
2
100
AcDbEntity
  8
03-01
100
AcDbLine
 10
659.1059092437044
 20
357.8554188016369
 30
0.0
 11
658.1059092437044
 21
357.8554188016369
 31
0.0
  0
LINE
  5
1CB
330
2
100
AcDbEntity
  8
03-01
100
AcDbLine
 10
659.1059092437046
 20
405.8554188016369
 30
0.0
 11
658.1059092437044
 21
405.8554188016369
 31
0.0
  0
LINE
  5
1CC
330
2
100
AcDbEntity
  8
03-01
100
AcDbLine
 10
659.1059092437046
 20
427.8554188016368
 30
0.0
 11
658.1059092437047
 21
427.8554188016368
 31
0.0
  0
LINE
  5
1CD
330
2
100
AcDbEntity
  8
05-01
100
AcDbLine
 10
650.9059092437046
 20
356.3554188016876
 30
0.0
 11
658.6059092437047
 21
356.3554188016876
 31
0.0
  0
LINE
  5
1CE
330
2
100
AcDbEntity
  8
05-01
100
AcDbLine
 10
657.9059092437049
 20
482.8554188016357
 30
0.0
 11
650.9059092437048
 21
482.8554188016357
 31
0.0
  0
LINE
  5
1CF
330
2
100
AcDbEntity
  8
09-01
100
AcDbLine
 10
147.4436409615671
 20
349.1557903050859
 30
0.0
 11
148.4436409615671
 21
349.1557903050859
 31
0.0
  0
LINE
  5
1D0
330
2
100
AcDbEntity
  8
03-01
100
AcDbLine
 10
147.4436409615666
 20
488.8554188016369
 30
0.0
 11
147.4436409615671
 21
314.855418801637
 31
0.0
  0
CIRCLE
  5
1D1
330
2
100
AcDbEntity
  8
03-01
100
AcDbCircle
 10
692.4059092437044
 20
330.0636144402933
 30
0.0
 40
4.0
  0
LINE
  5
1D2
330
2
100
AcDbEntity
  8
05-01
100
AcDbLine
 10
697.4059092437044
 20
330.0636144402933
 30
0.0
 11
687.4059092437043
 21
330.0636144402933
 31
0.0
  0
LINE
  5
1D3
330
2
100
AcDbEntity
  8
05-01
100
AcDbLine
 10
692.4059092437044
 20
335.0636144402934
 30
0.0
 11
692.4059092437044
 21
325.0636144402934
 31
0.0
  0
LINE
  5
1D4
330
2
100
AcDbEntity
  8
0
100
AcDbLine
 10
655.4059092437041
 20
317.8554188016369
 30
0.0
 11
654.4059092437044
 21
317.8554188016369
 31
0.0
  0
ARC
  5
1D5
330
2
100
AcDbEntity
  8
03-01
100
AcDbCircle
 10
692.3059092437037
 20
330.0636144402933
 30
0.0
 40
6.600000000000363
100
AcDbArc
 50
278.5298168651558
 51
84.33228567003766
  0
ARC
  5
1D6
330
2
100
AcDbEntity
  8
03-01
100
AcDbCircle
 10
655.462519918419
 20
489.8554188016368
 30
0.0
 40
2.0
100
AcDbArc
 50
65.00000000002183
 51
90.0
  0
ARC
  5
1D7
330
2
100
AcDbEntity
  8
03-01
100
AcDbCircle
 10
665.4059092437043
 20
485.2187402112394
 30
0.0
 40
2.0
100
AcDbArc
 50
0.0
 51
65.00000000002183
  0
LINE
  5
1D8
330
2
100
AcDbEntity
  8
03-01
100
AcDbLine
 10
656.3077564419002
 20
491.6680343757106
 30
0.0
 11
666.251145767186
 21
487.0313557853132
 31
0.0
  0
LINE
  5
1D9
330
2
100
AcDbEntity
  8
03-01
100
AcDbLine
 10
655.4059092437048
 20
491.8554188016369
 30
0.0
 11
655.4059092437041
 21
317.8554188016369
 31
0.0
  0
LINE
  5
1DA
330
2
100
AcDbEntity
  8
03-01
100
AcDbLine
 10
654.4059092437044
 20
491.8554188016369
 30
0.0
 11
655.462519918419
 21
491.8554188016369
 31
0.0
  0
LINE
  5
1DB
330
2
100
AcDbEntity
  8
03-01
100
AcDbLine
 10
654.4059092437048
 20
491.8554188016369
 30
0.0
 11
654.4059092437044
 21
317.8554188016369
 31
0.0
  0
LINE
  5
1DC
330
2
100
AcDbEntity
  8
03-01
100
AcDbLine
 10
667.4059092437037
 20
343.0556187757622
 30
0.0
 11
667.4059092437048
 21
485.2187402112394
 31
0.0
  0
ARC
  5
1DD
330
2
100
AcDbEntity
  8
03-01
100
AcDbCircle
 10
229.4436409615666
 20
483.8554188016368
 30
0.0
 40
5.0
100
AcDbArc
 50
0.0
 51
90.0
  0
LINE
  5
1DE
330
2
100
AcDbEntity
  8
03-01
100
AcDbLine
 10
234.4436409615667
 20
483.8554188016368
 30
0.0
 11
234.4436409615667
 21
319.855418801637
 31
0.0
  0
LINE
  5
1DF
330
2
100
AcDbEntity
  8
03-01
100
AcDbLine
 10
148.4436409615666
 20
488.8554188016369
 30
0.0
 11
148.4436409615671
 21
314.855418801637
 31
0.0
  0
LINE
  5
1E0
330
2
100
AcDbEntity
  8
0
100
AcDbLine
 10
147.4436409615671
 20
314.855418801637
 30
0.0
 11
229.4436409615666
 21
314.855418801637
 31
0.0
  0
LINE
  5
1E1
330
2
100
AcDbEntity
  8
03-01
100
AcDbLine
 10
147.4436409615666
 20
488.8554188016369
 30
0.0
 11
229.4436409615666
 21
488.8554188016369
 31
0.0
  0
CIRCLE
  5
1E2
330
2
100
AcDbEntity
  8
03-01
100
AcDbCircle
 10
325.4436399503625
 20
571.8836082567257
 30
0.0
 40
3.25
  0
LINE
  5
1E3
330
2
100
AcDbEntity
  8
05-01
100
AcDbLine
 10
321.1936399503624
 20
571.8836082567257
 30
0.0
 11
329.6936399503625
 21
571.8836082567257
 31
0.0
  0
LINE
  5
1E4
330
2
100
AcDbEntity
  8
05-01
100
AcDbLine
 10
325.4436399503625
 20
576.1336082567257
 30
0.0
 11
325.4436399503625
 21
567.6336082567257
 31
0.0
  0
DIMENSION
  5
1E5
330
2
100
AcDbEntity
  8
09-01
100
AcDbDimension
280
     0
  2
*D17
 10
157.6936399503624
 20
560.15119198167
 30
0.0
 11
168.1631499180575
 21
564.8639229687471
 31
0.0
 70
   128
 71
     5
 42
12.5
 73
     0
 74
     0
 75
     0
  3
Wagner$0
100
AcDbAlignedDimension
 13
145.1936399503624
 23
575.8836082567256
 33
0.0
 14
157.6936399503624
 24
575.8836082567256
 34
0.0
100
AcDbRotatedDimension
1001
ACAD
1000
DSTYLE
1002
{
1070
    40
1040
2.0
1002
}
  0
DIMENSION
  5
1F6
330
2
100
AcDbEntity
  8
09-01
100
AcDbDimension
280
     0
  2
*D16
 10
154.1936399503624
 20
600.8624809769046
 30
0.0
 11
164.3972350796084
 21
605.2357427261043
 31
0.0
 70
   128
 71
     5
 42
5.5
 73
     0
 74
     0
 75
     0
  3
Wagner$0
100
AcDbAlignedDimension
 13
148.6936399503624
 23
587.8836082567256
 33
0.0
 14
154.1936399503624
 24
587.8836082567256
 34
0.0
100
AcDbRotatedDimension
1001
ACAD
1000
DSTYLE
1002
{
1070
    40
1040
2.0
1002
}
  0
DIMENSION
  5
205
330
2
100
AcDbEntity
  8
09-01
100
AcDbDimension
280
     0
  2
*D15
 10
175.4061916437849
 20
575.8836082567256
 30
0.0
 11
170.9061916437848
 21
581.8836082567257
 31
0.0
 71
     5
 42
12.0
 73
     0
 74
     0
 75
     0
  3
Wagner$0
100
AcDbAlignedDimension
 13
155.4436399503624
 23
587.8836082567256
 33
0.0
 14
158.6936399503624
 24
575.8836082567256
 34
0.0
 50
90.0
100
AcDbRotatedDimension
1001
ACAD
1000
DSTYLE
1002
{
1070
    40
1040
2.0
1002
}
  0
ARC
  5
214
330
2
100
AcDbEntity
  8
03-01
100
AcDbCircle
 10
472.4436399503624
 20
363.8836082567257
 30
0.0
 40
6.25
100
AcDbArc
 50
116.1038811373434
 51
63.89611886265655
  0
LINE
  5
215
330
2
100
AcDbEntity
  8
05-01
100
AcDbLine
 10
465.1936399503624
 20
363.8836082567257
 30
0.0
 11
479.6936399503624
 21
363.8836082567257
 31
0.0
  0
LINE
  5
216
330
2
100
AcDbEntity
  8
03-01
100
AcDbLine
 10
469.6936399503624
 20
375.8836082567257
 30
0.0
 11
469.6936399503624
 21
369.4960943368865
 31
0.0
  0
ARC
  5
217
330
2
100
AcDbEntity
  8
03-01
100
AcDbCircle
 10
472.4436399503624
 20
375.8836082567257
 30
0.0
 40
2.75
100
AcDbArc
 50
0.0
 51
180.0
  0
LINE
  5
218
330
2
100
AcDbEntity
  8
03-01
100
AcDbLine
 10
475.1936399503624
 20
369.4960943368865
 30
0.0
 11
475.1936399503624
 21
375.8836082567257
 31
0.0
  0
LINE
  5
219
330
2
100
AcDbEntity
  8
05-01
100
AcDbLine
 10
472.4436399503624
 20
379.3836082567257
 30
0.0
 11
472.4436399503624
 21
356.6336082567257
 31
0.0
  0
LINE
  5
21A
330
2
100
AcDbEntity
  8
05-01
100
AcDbLine
 10
468.4436399503624
 20
375.8836082567257
 30
0.0
 11
476.4436399503624
 21
375.8836082567257
 31
0.0
  0
LINE
  5
21B
330
2
100
AcDbEntity
  8
01-01
100
AcDbLine
 10
472.4436399503624
 20
378.8836082567257
 30
0.0
 11
472.4436399503624
 21
378.8836082567258
 31
0.0
  0
LINE
  5
21F
330
2
100
AcDbEntity
  8
01-01
100
AcDbLine
 10
472.4436399503624
 20
363.8836082567257
 30
0.0
 11
472.4436399503624
 21
363.8836082567257
 31
0.0
  0
ARC
  5
220
330
2
100
AcDbEntity
  8
03-01
100
AcDbCircle
 10
472.4436399503624
 20
575.8836082567256
 30
0.0
 40
6.25
100
AcDbArc
 50
116.1038811373434
 51
63.89611886265655
  0
LINE
  5
221
330
2
100
AcDbEntity
  8
05-01
100
AcDbLine
 10
465.1936399503624
 20
575.8836082567256
 30
0.0
 11
479.6936399503624
 21
575.8836082567256
 31
0.0
  0
LINE
  5
222
330
2
100
AcDbEntity
  8
03-01
100
AcDbLine
 10
469.6936399503624
 20
587.8836082567256
 30
0.0
 11
469.6936399503624
 21
581.4960943368864
 31
0.0
  0
ARC
  5
223
330
2
100
AcDbEntity
  8
03-01
100
AcDbCircle
 10
472.4436399503624
 20
587.8836082567256
 30
0.0
 40
2.75
100
AcDbArc
 50
0.0
 51
180.0
  0
LINE
  5
224
330
2
100
AcDbEntity
  8
03-01
100
AcDbLine
 10
475.1936399503624
 20
581.4960943368864
 30
0.0
 11
475.1936399503624
 21
587.8836082567256
 31
0.0
  0
LINE
  5
225
330
2
100
AcDbEntity
  8
05-01
100
AcDbLine
 10
472.4436399503624
 20
591.3836082567256
 30
0.0
 11
472.4436399503624
 21
568.6336082567256
 31
0.0
  0
LINE
  5
226
330
2
100
AcDbEntity
  8
05-01
100
AcDbLine
 10
468.4436399503624
 20
587.8836082567256
 30
0.0
 11
476.4436399503624
 21
587.8836082567256
 31
0.0
  0
LINE
  5
227
330
2
100
AcDbEntity
  8
01-01
100
AcDbLine
 10
472.4436399503624
 20
590.8836082567257
 30
0.0
 11
472.4436399503624
 21
590.8836082567257
 31
0.0
  0
ARC
  5
228
330
2
100
AcDbEntity
  8
03-01
100
AcDbCircle
 10
151.4436399503624
 20
363.8836082567257
 30
0.0
 40
6.25
100
AcDbArc
 50
116.1038811373434
 51
63.89611886265655
  0
LINE
  5
229
330
2
100
AcDbEntity
  8
05-01
100
AcDbLine
 10
144.1936399503624
 20
363.8836082567257
 30
0.0
 11
158.6936399503624
 21
363.8836082567257
 31
0.0
  0
LINE
  5
22A
330
2
100
AcDbEntity
  8
03-01
100
AcDbLine
 10
148.6936399503624
 20
375.8836082567257
 30
0.0
 11
148.6936399503624
 21
369.4960943368865
 31
0.0
  0
ARC
  5
22B
330
2
100
AcDbEntity
  8
03-01
100
AcDbCircle
 10
151.4436399503624
 20
375.8836082567257
 30
0.0
 40
2.75
100
AcDbArc
 50
0.0
 51
180.0
  0
LINE
  5
22C
330
2
100
AcDbEntity
  8
03-01
100
AcDbLine
 10
154.1936399503624
 20
369.4960943368865
 30
0.0
 11
154.1936399503624
 21
375.8836082567257
 31
0.0
  0
LINE
  5
22D
330
2
100
AcDbEntity
  8
05-01
100
AcDbLine
 10
151.4436399503624
 20
379.3836082567257
 30
0.0
 11
151.4436399503624
 21
356.6336082567257
 31
0.0
  0
LINE
  5
22E
330
2
100
AcDbEntity
  8
05-01
100
AcDbLine
 10
147.4436399503624
 20
375.8836082567257
 30
0.0
 11
155.4436399503624
 21
375.8836082567257
 31
0.0
  0
ARC
  5
22F
330
2
100
AcDbEntity
  8
03-01
100
AcDbCircle
 10
151.4436399503624
 20
575.8836082567256
 30
0.0
 40
6.25
100
AcDbArc
 50
116.1038811373434
 51
63.89611886265655
  0
LINE
  5
230
330
2
100
AcDbEntity
  8
05-01
100
AcDbLine
 10
144.1936399503624
 20
575.8836082567256
 30
0.0
 11
158.6936399503624
 21
575.8836082567256
 31
0.0
  0
LINE
  5
231
330
2
100
AcDbEntity
  8
03-01
100
AcDbLine
 10
148.6936399503624
 20
587.8836082567256
 30
0.0
 11
148.6936399503624
 21
581.4960943368864
 31
0.0
  0
ARC
  5
232
330
2
100
AcDbEntity
  8
03-01
100
AcDbCircle
 10
151.4436399503624
 20
587.8836082567256
 30
0.0
 40
2.75
100
AcDbArc
 50
0.0
 51
180.0
  0
LINE
  5
233
330
2
100
AcDbEntity
  8
03-01
100
AcDbLine
 10
154.1936399503624
 20
581.4960943368864
 30
0.0
 11
154.1936399503624
 21
587.8836082567256
 31
0.0
  0
LINE
  5
234
330
2
100
AcDbEntity
  8
05-01
100
AcDbLine
 10
151.4436399503624
 20
591.3836082567256
 30
0.0
 11
151.4436399503624
 21
568.6336082567256
 31
0.0
  0
LINE
  5
235
330
2
100
AcDbEntity
  8
05-01
100
AcDbLine
 10
147.4436399503624
 20
587.8836082567256
 30
0.0
 11
155.4436399503624
 21
587.8836082567256
 31
0.0
  0
DIMENSION
  5
236
330
2
100
AcDbEntity
  8
09-01
100
AcDbDimension
280
     0
  2
*D14
 10
525.4436399503622
 20
555.0660495416683
 30
0.0
 11
498.9436399503623
 21
560.6910495416683
 31
0.0
 71
     5
 42
52.99999999999977
 73
     0
 74
     0
 75
     0
  3
Wagner$0
100
AcDbAlignedDimension
 13
472.4436399503624
 23
568.6336082567256
 33
0.0
 14
525.4436399503622
 24
532.0158818155022
 34
0.0
100
AcDbRotatedDimension
1001
ACAD
1000
DSTYLE
1002
{
1070
    40
1040
2.5
1002
}
  0
DIMENSION
  5
243
330
2
100
AcDbEntity
  8
09-01
100
AcDbDimension
280
     0
  2
*D13
 10
125.4436399503625
 20
555.0660495416683
 30
0.0
 11
118.6332037000994
 21
559.9794423895786
 31
0.0
 70
   128
 71
     5
 42
25.99999999999994
 73
     0
 74
     0
 75
     0
  3
Wagner$0
100
AcDbAlignedDimension
 13
151.4436399503624
 23
568.6336082567256
 33
0.0
 14
125.4436399503625
 24
531.7964100795032
 34
0.0
100
AcDbRotatedDimension
1001
ACAD
1000
DSTYLE
1002
{
1070
    40
1040
2.5
1002
}
  0
DIMENSION
  5
250
330
2
100
AcDbEntity
  8
09-01
100
AcDbDimension
280
     0
  2
*D12
 10
108.2867829991296
 20
315.8836082567256
 30
0.0
 11
102.6617829991296
 21
345.8836082567257
 31
0.0
 71
     5
 42
60.00000000000023
 73
     0
 74
     0
 75
     0
  3
Wagner$0
100
AcDbAlignedDimension
 13
147.4436399503624
 23
375.8836082567257
 33
0.0
 14
125.4436399503624
 24
315.8836082567256
 34
0.0
 50
90.0
100
AcDbRotatedDimension
1001
ACAD
1000
DSTYLE
1002
{
1070
    40
1040
2.5
1002
}
  0
DIMENSION
  5
25D
330
2
100
AcDbEntity
  8
09-01
100
AcDbDimension
280
     0
  2
*D11
 10
108.2867829991296
 20
613.8836082567254
 30
0.0
 11
102.6617829991295
 21
600.8836082567255
 31
0.0
 71
     5
 42
25.99999999999977
 73
     0
 74
     0
 75
     0
  3
Wagner$0
100
AcDbAlignedDimension
 13
147.4436399503624
 23
587.8836082567256
 33
0.0
 14
125.4436399503624
 24
613.8836082567254
 34
0.0
 50
90.0
100
AcDbRotatedDimension
1001
ACAD
1000
DSTYLE
1002
{
1070
    40
1040
2.5
1002
}
  0
DIMENSION
  5
26A
330
2
100
AcDbEntity
  8
09-01
100
AcDbDimension
280
     0
  2
*D10
 10
108.2867829991296
 20
375.8836082567258
 30
0.0
 11
102.6617829991296
 21
481.8836082567257
 31
0.0
 71
     5
 42
211.9999999999999
 73
     0
 74
     0
 75
     0
  3
Wagner$0
100
AcDbAlignedDimension
 13
147.4436399503624
 23
587.8836082567256
 33
0.0
 14
147.4436399503624
 24
375.8836082567257
 34
0.0
 50
90.0
100
AcDbRotatedDimension
1001
ACAD
1000
DSTYLE
1002
{
1070
    40
1040
2.5
1002
}
  0
DIMENSION
  5
277
330
2
100
AcDbEntity
  8
09-01
100
AcDbDimension
280
     0
  2
*D9
 10
472.4436399503624
 20
555.0660495416683
 30
0.0
 11
311.9436399503625
 21
560.6910495416683
 31
0.0
 71
     5
 42
321.0
 73
     0
 74
     0
 75
     0
  3
Wagner$0
100
AcDbAlignedDimension
 13
151.4436399503624
 23
568.6336082567256
 33
0.0
 14
472.4436399503624
 24
568.6336082567256
 34
0.0
100
AcDbRotatedDimension
1001
ACAD
1000
DSTYLE
1002
{
1070
    40
1040
2.5
1002
}
  0
LINE
  5
284
330
2
100
AcDbEntity
  8
05-01
100
AcDbLine
 10
472.4436399503624
 20
579.8836082567254
 30
0.0
 11
472.4436399503624
 21
589.8836082567255
 31
0.0
  0
DIMENSION
  5
285
330
2
100
AcDbEntity
  8
09-01
100
AcDbDimension
280
     0
  2
*D8
 10
525.4436399503622
 20
627.1652601089733
 30
0.0
 11
325.4436399503624
 21
632.7902601089733
 31
0.0
 71
     5
 42
399.9999999999998
 73
     0
 74
     0
 75
     0
  3
Wagner$0
100
AcDbAlignedDimension
 13
125.4436399503624
 23
613.8836082567254
 33
0.0
 14
525.4436399503622
 24
613.8836082567254
 34
0.0
100
AcDbRotatedDimension
1001
ACAD
1000
DSTYLE
1002
{
1070
    40
1040
2.5
1002
}
  0
CIRCLE
  5
292
330
2
100
AcDbEntity
  8
0
100
AcDbCircle
 10
325.4436399503624
 20
586.8891358756627
 30
0.0
 40
8.5
  0
LINE
  5
293
330
2
100
AcDbEntity
  8
0
100
AcDbLine
 10
324.1936399503623
 20
583.6937077136187
 30
0.0
 11
326.6936399503624
 21
583.6937077136187
 31
0.0
  0
LINE
  5
294
330
2
100
AcDbEntity
  8
0
100
AcDbLine
 10
324.1936399503623
 20
591.6891358756627
 30
0.0
 11
326.6936399503624
 21
591.6891358756627
 31
0.0
  0
LWPOLYLINE
  5
295
330
2
100
AcDbEntity
  8
0
100
AcDbPolyline
 90
        2
 70
     0
 43
0.0
 10
324.1936399503623
 20
589.8877443495486
 10
324.1936399503623
 20
591.6891358756627
  0
LWPOLYLINE
  5
296
330
2
100
AcDbEntity
  8
0
100
AcDbPolyline
 90
        2
 70
     0
 43
0.0
 10
324.1936399503623
 20
583.6937077136187
 10
324.1936399503623
 20
585.5576173306265
  0
LWPOLYLINE
  5
297
330
2
100
AcDbEntity
  8
0
100
AcDbPolyline
 90
        2
 70
     0
 43
0.0
 10
326.6936399503624
 20
589.8877443495486
 10
326.6936399503624
 20
591.6891358756627
  0
LWPOLYLINE
  5
298
330
2
100
AcDbEntity
  8
0
100
AcDbPolyline
 90
        2
 70
     0
 43
0.0
 10
326.6936399503624
 20
583.6937077136187
 10
326.6936399503624
 20
585.5576173306265
  0
ARC
  5
299
330
2
100
AcDbEntity
  8
0
100
AcDbCircle
 10
325.4436399503624
 20
587.7226808400875
 30
0.0
 40
2.5
100
AcDbArc
 50
300.0000000000005
 51
59.99999999999946
  0
ARC
  5
29A
330
2
100
AcDbEntity
  8
0
100
AcDbCircle
 10
325.4436399503624
 20
587.7226808400875
 30
0.0
 40
2.5
100
AcDbArc
 50
120.0000000000005
 51
239.9999999999995
  0
CIRCLE
  5
29B
330
2
100
AcDbEntity
  8
0
100
AcDbCircle
 10
325.4436399503624
 20
586.8891358756627
 30
0.0
 40
7.25
  0
LINE
  5
29C
330
2
100
AcDbEntity
  8
09-01
100
AcDbLine
 10
525.4436399503622
 20
334.9273574339202
 30
0.0
 11
125.4436399503624
 21
334.9273574339203
 31
0.0
  0
LINE
  5
29D
330
2
100
AcDbEntity
  8
0
100
AcDbLine
 10
680.8312921593629
 20
320.5783816364505
 30
0.0
 11
681.3522366923637
 21
317.6239583774137
 31
0.0
  0
LINE
  5
29E
330
2
100
AcDbEntity
  8
0
100
AcDbLine
 10
735.9805263280467
 20
330.3026795857978
 30
0.0
 11
736.5014708610473
 21
327.3482563267618
 31
0.0
  0
LINE
  5
29F
330
2
100
AcDbEntity
  8
0
100
AcDbLine
 10
681.3522366923637
 20
317.6239583774137
 30
0.0
 11
736.5014708610473
 21
327.3482563267618
 31
0.0
  0
LINE
  5
2A0
330
2
100
AcDbEntity
  8
0
100
AcDbLine
 10
654.2059092437048
 20
315.8836082567256
 30
0.0
 11
762.6059092437051
 21
334.9974529655226
 31
0.0
  0
LINE
  5
2A1
330
2
100
AcDbEntity
  8
05-01
100
AcDbLine
 10
325.8881500198037
 20
110.9807090720855
 30
0.0
 11
325.8881500198037
 21
87.68070907208556
 31
0.0
  0
LINE
  5
2A2
330
2
100
AcDbEntity
  8
0
100
AcDbLine
 10
317.3881500198037
 20
92.98070907208558
 30
0.0
 11
317.3881500198037
 21
91.18070907208556
 31
0.0
  0
LINE
  5
2A3
330
2
100
AcDbEntity
  8
0
100
AcDbLine
 10
334.3881500198037
 20
91.18070907208556
 30
0.0
 11
334.3881500198037
 21
92.98070907208558
 31
0.0
  0
LINE
  5
2A4
330
2
100
AcDbEntity
  8
0
100
AcDbLine
 10
317.3881500198037
 20
91.18070907208556
 30
0.0
 11
334.3881500198037
 21
91.18070907208556
 31
0.0
  0
LINE
  5
2A5
330
2
100
AcDbEntity
  8
0
100
AcDbLine
 10
318.6381500198037
 20
89.68070907208556
 30
0.0
 11
317.3881500198037
 21
91.18070907208556
 31
0.0
  0
LINE
  5
2A6
330
2
100
AcDbEntity
  8
0
100
AcDbLine
 10
333.1381500198037
 20
89.68070907208556
 30
0.0
 11
334.3881500198037
 21
91.18070907208556
 31
0.0
  0
LINE
  5
2A7
330
2
100
AcDbEntity
  8
0
100
AcDbLine
 10
333.1381500198037
 20
89.68070907208556
 30
0.0
 11
318.6381500198037
 21
89.68070907208556
 31
0.0
  0
LINE
  5
2A8
330
2
100
AcDbEntity
  8
0
100
AcDbLine
 10
773.4048114558834
 20
578.4277385578029
 30
0.0
 11
775.2048114558833
 21
578.4277385578029
 31
0.0
  0
LINE
  5
2A9
330
2
100
AcDbEntity
  8
0
100
AcDbLine
 10
775.2048114558833
 20
595.427738557803
 30
0.0
 11
773.4048114558834
 21
595.427738557803
 31
0.0
  0
LINE
  5
2AA
330
2
100
AcDbEntity
  8
0
100
AcDbLine
 10
775.2048114558833
 20
578.4277385578029
 30
0.0
 11
775.2048114558833
 21
595.427738557803
 31
0.0
  0
LINE
  5
2AB
330
2
100
AcDbEntity
  8
0
100
AcDbLine
 10
776.7048114558833
 20
579.6777385578029
 30
0.0
 11
775.2048114558833
 21
578.4277385578029
 31
0.0
  0
LINE
  5
2AC
330
2
100
AcDbEntity
  8
0
100
AcDbLine
 10
776.7048114558833
 20
594.177738557803
 30
0.0
 11
775.2048114558833
 21
595.427738557803
 31
0.0
  0
LINE
  5
2AD
330
2
100
AcDbEntity
  8
0
100
AcDbLine
 10
776.7048114558833
 20
594.177738557803
 30
0.0
 11
776.7048114558833
 21
579.6777385578029
 31
0.0
  0
INSERT
  5
2AE
330
2
100
AcDbEntity
  8
09-01
100
AcDbBlockReference
 66
     1
  2
DIN A3
 10
0.0000005755600796
 20
-0.0000019034490606
 30
0.0
 41
2.5
 42
2.5
 43
2.5
  0
ATTRIB
  5
456
330
2AE
100
AcDbEntity
  8
06-99
100
AcDbText
 10
813.73861684784
 20
67.9695967432039
 30
0.0
 40
11.25
  1
Kombination WP 550e
 41
0.9
  7
ROMANS8
100
AcDbAttribute
280
     0
  2
TEILE
 70
     0
280
     0
  0
ATTRIB
  5
457
330
2AE
100
AcDbEntity
  8
06-99
100
AcDbText
 10
813.73861684784
 20
49.72943400885611
 30
0.0
 40
11.25
  1

 41
0.9
  7
ROMANS8
100
AcDbAttribute
280
     0
  2
TEILE2
 70
     0
280
     0
  0
ATTRIB
  5
458
330
2AE
100
AcDbEntity
  8
06-99
100
AcDbText
 10
1000.868465529183
 20
115.8333333333317
 30
0.0
 40
8.4375
  1
1:2,5
  7
ROMANS8
100
AcDbAttribute
280
     0
  2
:
 70
     0
280
     0
  0
ATTRIB
  5
459
330
2AE
100
AcDbEntity
  8
06-99
100
AcDbText
 10
754.9926694983156
 20
71.1042136700766
 30
0.0
 40
6.25
  1
Häberle
 41
0.9
  7
ROMANS8
100
AcDbAttribute
280
     0
  2
NAME
 70
     0
280
     0
  0
ATTRIB
  5
45A
330
2AE
100
AcDbEntity
  8
06-99
100
AcDbText
 10
721.2328661296322
 20
71.15308793527646
 30
0.0
 40
6.25
  1
21.07.2014
 50
359.9144597696142
 41
0.5656974065909603
  7
ROMANS8
 72
     5
 11
749.3493428009941
 21
71.11111116666506
 31
0.0
100
AcDbAttribute
280
     0
  2
DATUM
 70
     0
280
     0
  0
ATTRIB
  5
45B
330
2AE
100
AcDbEntity
  8
06-99
100
AcDbText
 10
968.7658599177927
 20
21.23224950072014
 30
0.0
 40
7.4844
  1
727782
  7
ROMANS8
100
AcDbAttribute
280
     0
  2
ID.NR
 70
     0
280
     0
  0
ATTRIB
  5
45C
330
2AE
100
AcDbEntity
  8
06-99
100
AcDbText
 10
814.3281656391735
 20
96.66666661110951
 30
0.0
 40
7.5
  1

 41
0.9
  7
ROMANS8
100
AcDbAttribute
280
     0
  2
LÄNGE
 70
     0
280
     0
  0
ATTRIB
  5
45D
330
2AE
100
AcDbEntity
  8
06-99
100
AcDbText
 10
897.9520122793214
 20
96.69525967611043
 30
0.0
 40
7.5
  1

 41
0.9
  7
ROMANS8
100
AcDbAttribute
280
     0
  2
BREITE
 70
     0
280
     0
  0
ATTRIB
  5
45E
330
2AE
100
AcDbEntity
  8
06-99
100
AcDbText
 10
999.0227303167268
 20
96.66666666666529
 30
0.0
 40
7.734375000000001
  1

  7
ROMANS8
100
AcDbAttribute
280
     0
  2
1.0
 70
     0
280
     0
  0
ATTRIB
  5
45F
330
2AE
100
AcDbEntity
  8
06-99
100
AcDbText
 10
932.8194640034039
 20
115.833333333332
 30
0.0
 40
7.5
  1

  7
ROMANS8
 72
     1
 11
932.8194640034039
 21
115.833333333332
 31
0.0
100
AcDbAttribute
280
     0
  2
IV
 70
     0
280
     0
  0
ATTRIB
  5
460
330
2AE
100
AcDbEntity
  8
06-99
100
AcDbText
 10
830.6868513401866
 20
115.8333333333314
 30
0.0
 40
8.4375
  1
1.4301
  7
ROMANS8
100
AcDbAttribute
280
     0
  2
1.4301
 70
     0
280
     0
  0
ATTRIB
  5
461
330
2AE
100
AcDbEntity
  8
06-99
100
AcDbText
 10
887.5015847170972
 20
21.26099151088496
 30
0.0
 40
7.919999999999999
  1

 41
0.9000000000000001
  7
ROMANS8
100
AcDbAttribute
280
     0
  2
AUFTRAGS.NR.
 70
     0
280
     0
  0
ATTRIB
  5
462
330
2AE
100
AcDbEntity
  8
06-99
100
AcDbText
 10
813.749999999897
 20
21.24999999999844
 30
0.0
 40
7.919999999999999
  1

 41
0.9000000000000001
  7
ROMANS8
100
AcDbAttribute
280
     0
  2
SONDER-NR
 70
     0
280
     0
  0
ATTRIB
  5
463
330
2AE
100
AcDbEntity
  8
06-99
100
AcDbText
 10
638.7493774874179
 20
19.00452517314804
 30
0.0
 40
3.75
  1

 41
0.9
  7
ROMANS8
100
AcDbAttribute
280
     0
  2
ERSETZT.DURCH
 70
     0
280
     0
  0
ATTRIB
  5
464
330
2AE
100
AcDbEntity
  8
06-99
100
AcDbText
 10
576.2486694503934
 20
18.99364099467945
 30
0.0
 40
3.75
  1

 41
0.9
  7
ROMANS8
100
AcDbAttribute
280
     0
  2
ERSETZT.FÜR
 70
     0
280
     0
  0
ATTRIB
  5
465
330
2AE
100
AcDbEntity
  8
06-99
100
AcDbText
 10
772.5092887588481
 20
121.6712778500184
 30
0.0
 40
3.2175
  1
DIN A3
  7
ROMANS8
 72
     1
 11
780.6296459017053
 21
121.6712778500184
 31
0.0
100
AcDbAttribute
280
     0
  2
FORMAT
 70
     0
280
     0
  0
ATTRIB
  5
466
330
2AE
100
AcDbEntity
  8
06-99
100
AcDbText
 10
762.4785714284684
 20
95.99166666666505
 30
0.0
 40
5.85
  1
DIN 2768
  7
ROMANS8
 72
     1
 11
782.5357142856113
 21
95.99166666666505
 31
0.0
100
AcDbAttribute
280
     0
  2
NORM2
 70
     0
280
     0
  0
ATTRIB
  5
467
330
2AE
100
AcDbEntity
  8
06-99
100
AcDbText
 10
754.5392857141827
 20
105.5749999999983
 30
0.0
 40
5.85
  1
DIN 6930-M
  7
ROMANS8
 72
     1
 11
781.2821428570398
 21
105.5749999999983
 31
0.0
100
AcDbAttribute
280
     0
  2
NORM1
 70
     0
280
     0
  0
SEQEND
  5
468
330
2AE
100
AcDbEntity
  8
09-01
  0
LINE
  5
469
330
2
100
AcDbEntity
  8
03-01
100
AcDbLine
 10
251.4411358104558
 20
165.3807090720857
 30
0.0
 11
251.4411358104559
 21
212.9807090720856
 31
0.0
  0
LINE
  5
46A
330
2
100
AcDbEntity
  8
03-01
100
AcDbLine
 10
250.6411358104559
 20
165.3807090720857
 30
0.0
 11
250.6411358104559
 21
212.9807090720857
 31
0.0
  0
LINE
  5
46B
330
2
100
AcDbEntity
  8
03-01
100
AcDbLine
 10
250.4436399503622
 20
593.0836082567254
 30
0.0
 11
250.4436399503624
 21
325.089113827957
 31
0.0
  0
ARC
  5
46C
330
2
100
AcDbEntity
  8
0
100
AcDbCircle
 10
461.4436399503622
 20
377.3063876576015
 30
0.0
 40
2.500086953560511
100
AcDbArc
 50
180.4778647734053
 51
359.5221352265947
  0
LINE
  5
46D
330
2
100
AcDbEntity
  8
0
100
AcDbLine
 10
463.9436399503622
 20
377.285536389934
 30
0.0
 11
463.9436399503622
 21
428.3063007040409
 31
0.0
  0
LINE
  5
46E
330
2
100
AcDbEntity
  8
0
100
AcDbLine
 10
458.9436399503622
 20
377.2855363899357
 30
0.0
 11
458.9436399503622
 21
428.3063007040409
 31
0.0
  0
ARC
  5
46F
330
2
100
AcDbEntity
  8
0
100
AcDbCircle
 10
461.4436399503622
 20
428.3063007040409
 30
0.0
 40
2.5
100
AcDbArc
 50
0.000000000000007
 51
180.0
  0
ARC
  5
470
330
2
100
AcDbEntity
  8
03-01
100
AcDbCircle
 10
265.3432797382902
 20
177.7807090720858
 30
0.0
 40
6.5
100
AcDbArc
 50
90.0
 51
180.0
  0
LINE
  5
471
330
2
100
AcDbEntity
  8
03-01
100
AcDbLine
 10
496.3432797382901
 20
184.2807090720857
 30
0.0
 11
265.3432797382902
 21
184.2807090720858
 31
0.0
  0
ARC
  5
472
330
2
100
AcDbEntity
  8
03-01
100
AcDbCircle
 10
496.3432797382901
 20
177.7807090720857
 30
0.0
 40
6.5
100
AcDbArc
 50
360.0
 51
90.0
  0
LINE
  5
473
330
2
100
AcDbEntity
  8
03-01
100
AcDbLine
 10
502.8432797382901
 20
177.7807090720857
 30
0.0
 11
502.8432797382901
 21
138.7807090720857
 31
0.0
  0
ARC
  5
474
330
2
100
AcDbEntity
  8
03-01
100
AcDbCircle
 10
496.3432797382901
 20
138.7807090720857
 30
0.0
 40
6.5
100
AcDbArc
 50
270.0
 51
0.0
  0
LINE
  5
475
330
2
100
AcDbEntity
  8
03-01
100
AcDbLine
 10
496.3432797382901
 20
132.2807090720857
 30
0.0
 11
265.3432797382902
 21
132.2807090720857
 31
0.0
  0
ARC
  5
476
330
2
100
AcDbEntity
  8
03-01
100
AcDbCircle
 10
265.3432797382902
 20
138.7807090720857
 30
0.0
 40
6.5
100
AcDbArc
 50
180.0
 51
270.0
  0
LINE
  5
477
330
2
100
AcDbEntity
  8
03-01
100
AcDbLine
 10
258.8432797382902
 20
177.7807090720858
 30
0.0
 11
258.8432797382902
 21
138.7807090720857
 31
0.0
  0
ARC
  5
478
330
2
100
AcDbEntity
  8
03-01
100
AcDbCircle
 10
265.3432797382902
 20
177.7807090720858
 30
0.0
 40
5.5
100
AcDbArc
 50
90.0
 51
180.0
  0
ARC
  5
479
330
2
100
AcDbEntity
  8
03-01
100
AcDbCircle
 10
265.3432797382902
 20
138.7807090720857
 30
0.0
 40
5.5
100
AcDbArc
 50
180.0
 51
270.0
  0
ARC
  5
47A
330
2
100
AcDbEntity
  8
03-01
100
AcDbCircle
 10
496.3432797382901
 20
177.7807090720857
 30
0.0
 40
5.5
100
AcDbArc
 50
360.0
 51
90.0
  0
ARC
  5
47B
330
2
100
AcDbEntity
  8
03-01
100
AcDbCircle
 10
496.3432797382901
 20
138.7807090720857
 30
0.0
 40
5.5
100
AcDbArc
 50
270.0
 51
0.0
  0
LINE
  5
47C
330
2
100
AcDbEntity
  8
03-01
100
AcDbLine
 10
501.84327973829
 20
177.7807090720857
 30
0.0
 11
501.8432797382901
 21
138.7807090720857
 31
0.0
  0
LINE
  5
47D
330
2
100
AcDbEntity
  8
03-01
100
AcDbLine
 10
259.8432797382902
 20
177.7807090720858
 30
0.0
 11
259.8432797382902
 21
138.7807090720857
 31
0.0
  0
LINE
  5
47E
330
2
100
AcDbEntity
  8
03-01
100
AcDbLine
 10
496.3432797382901
 20
133.2807090720857
 30
0.0
 11
265.3432797382902
 21
133.2807090720857
 31
0.0
  0
LINE
  5
47F
330
2
100
AcDbEntity
  8
03-01
100
AcDbLine
 10
496.3432797382901
 20
183.2807090720857
 30
0.0
 11
265.3432797382902
 21
183.2807090720858
 31
0.0
  0
LINE
  5
480
330
2
100
AcDbEntity
  8
0
100
AcDbLine
 10
524.8432797382902
 20
102.9807090720856
 30
0.0
 11
524.8432797382902
 21
92.98070907208558
 31
0.0
  0
DIMENSION
  5
481
330
2
100
AcDbEntity
  8
09-01
100
AcDbDimension
280
     0
  2
*D6
 10
106.540082828441
 20
92.98070907208558
 30
0.0
 11
100.915082828441
 21
152.9807090720856
 31
0.0
 71
     5
 42
120.0
 73
     0
 74
     0
 75
     0
  3
Wagner$0
100
AcDbAlignedDimension
 13
125.8432797382903
 23
212.9807090720856
 33
0.0
 14
126.8432797382903
 24
92.98070907208558
 34
0.0
 50
90.0
100
AcDbRotatedDimension
1001
ACAD
1000
DSTYLE
1002
{
1070
    40
1040
2.5
1002
}
  0
DIMENSION
  5
48E
330
2
100
AcDbEntity
  8
09-01
100
AcDbDimension
280
     0
  2
*D5
 10
125.8432797382903
 20
225.4304937218929
 30
0.0
 11
325.8432797382902
 21
231.0554937218929
 31
0.0
 71
     5
 42
400.0
 73
     0
 74
     0
 75
     0
  3
Wagner$0
100
AcDbAlignedDimension
 13
525.8432797382901
 23
212.9807090720857
 33
0.0
 14
125.8432797382903
 24
212.9807090720856
 34
0.0
100
AcDbRotatedDimension
1001
ACAD
1000
DSTYLE
1002
{
1070
    40
1040
2.5
1002
}
  0
LINE
  5
49B
330
2
100
AcDbEntity
  8
06-01
100
AcDbLine
 10
1033.224805840538
 20
510.7318045712436
 30
0.0
 11
1033.224805840538
 21
510.7318045712436
 31
0.0
  0
DIMENSION
  5
49F
330
2
100
AcDbEntity
  8
09-01
100
AcDbDimension
280
     0
  2
*D4
 10
543.7130698231007
 20
315.8836082567254
 30
0.0
 11
538.0880698231006
 21
464.8836082567255
 31
0.0
 71
     5
 42
298.0
 73
     0
 74
     0
 75
     0
  3
Wagner$0
100
AcDbAlignedDimension
 13
525.4436399503624
 23
613.8836082567254
 33
0.0
 14
525.4436399503622
 24
315.8836082567254
 34
0.0
 50
90.0
100
AcDbRotatedDimension
1001
ACAD
1000
DSTYLE
1002
{
1070
    40
1040
2.5
1002
}
  0
LINE
  5
4AC
330
2
100
AcDbEntity
  8
05-01
100
AcDbLine
 10
253.1841708038482
 20
321.6382727068122
 30
0.0
 11
510.4280458536461
 21
321.6382727068122
 31
0.0
  0
ARC
  5
4AD
330
2
100
AcDbEntity
  8
0
100
AcDbCircle
 10
260.9545569459992
 20
321.1689102298319
 30
0.0
 40
3.0
100
AcDbArc
 50
180.0
 51
268.839350616578
  0
ARC
  5
4AE
330
2
100
AcDbEntity
  8
0
100
AcDbCircle
 10
260.9545569459992
 20
322.2430386967494
 30
0.0
 40
3.0
100
AcDbArc
 50
91.32457210194566
 51
180.0
  0
ARC
  5
4AF
330
2
100
AcDbEntity
  8
0
100
AcDbCircle
 10
499.7545569459991
 20
321.2719829687435
 30
0.0
 40
3.0
100
AcDbArc
 50
271.2101102925359
 51
0.0
  0
ARC
  5
4B0
330
2
100
AcDbEntity
  8
0
100
AcDbCircle
 10
499.7545569459991
 20
322.2430386967494
 30
0.0
 40
3.0
100
AcDbArc
 50
0.0
 51
88.67542789805542
  0
LINE
  5
4B1
330
2
100
AcDbEntity
  8
0
100
AcDbLine
 10
502.7545569459991
 20
322.2430386967494
 30
0.0
 11
502.7545569459991
 21
321.2719829687435
 31
0.0
  0
LINE
  5
4B2
330
2
100
AcDbEntity
  8
0
100
AcDbLine
 10
257.9545569459992
 20
322.2430386967494
 30
0.0
 11
257.9545569459992
 21
321.1689102298319
 31
0.0
  0
ARC
  5
4B3
330
2
100
AcDbEntity
  8
0
100
AcDbCircle
 10
380.3545569459991
 20
-4841.611219400922
 30
0.0
 40
5168.234472787606
100
AcDbArc
 50
88.67542789805167
 51
91.32457210194827
  0
ARC
  5
4B4
330
2
100
AcDbEntity
  8
0
100
AcDbCircle
 10
377.8638825977259
 20
6091.640837556717
 30
0.0
 40
5774.656092881141
100
AcDbArc
 50
268.8393506165818
 51
271.2101102925953
  0
LINE
  5
4B5
330
2
100
AcDbEntity
  8
03-01
100
AcDbLine
 10
524.4436399503622
 20
349.4882788248337
 30
0.0
 11
523.6436399503625
 21
349.4882788248337
 31
0.0
  0
LINE
  5
4B6
330
2
100
AcDbEntity
  8
03-01
100
AcDbLine
 10
250.4436399503622
 20
593.0836082567254
 30
0.0
 11
250.4436399503624
 21
325.089113827957
 31
0.0
  0
LINE
  5
4B7
330
2
100
AcDbEntity
  8
03-01
100
AcDbLine
 10
251.2436399503622
 20
593.0836082567254
 30
0.0
 11
251.2436399503622
 21
325.089113827957
 31
0.0
  0
LINE
  5
4B8
330
2
100
AcDbEntity
  8
03-01
100
AcDbLine
 10
251.2436399503622
 20
325.089113827957
 30
0.0
 11
250.4436399503624
 21
325.089113827957
 31
0.0
  0
LINE
  5
4B9
330
2
100
AcDbEntity
  8
03-01
100
AcDbLine
 10
251.2436399503622
 20
593.0836082567254
 30
0.0
 11
250.4436399503622
 21
593.0836082567254
 31
0.0
  0
LINE
  5
4BA
330
2
100
AcDbEntity
  8
03-01
100
AcDbLine
 10
250.6411358104559
 20
165.3807090720857
 30
0.0
 11
251.4411358104558
 21
165.3807090720857
 31
0.0
  0
LINE
  5
4BB
330
2
100
AcDbEntity
  8
01-01
100
AcDbLine
 10
524.8432797382902
 20
92.98070907208568
 30
0.0
 11
524.8432797382902
 21
102.9807090720857
 31
0.0
  0
LINE
  5
4BC
330
2
100
AcDbEntity
  8
0
100
AcDbLine
 10
524.8432797382902
 20
92.98070907208568
 30
0.0
 11
126.8432797382903
 21
92.98070907208558
 31
0.0
  0
LINE
  5
4BD
330
2
100
AcDbEntity
  8
0
100
AcDbLine
 10
125.8432797382903
 20
102.9807090720856
 30
0.0
 11
525.8432797382901
 21
102.9807090720857
 31
0.0
  0
LINE
  5
4BE
330
2
100
AcDbEntity
  8
0
100
AcDbLine
 10
525.8432797382901
 20
102.9807090720857
 30
0.0
 11
525.8432797382901
 21
212.9807090720858
 31
0.0
  0
LINE
  5
4BF
330
2
100
AcDbEntity
  8
0
100
AcDbLine
 10
524.4436399503622
 20
612.8836082567254
 30
0.0
 11
524.4436399503622
 21
334.9273574339202
 31
0.0
  0
LINE
  5
4C0
330
2
100
AcDbEntity
  8
0
100
AcDbLine
 10
524.6436399503623
 20
334.9273574339202
 30
0.0
 11
524.6436399503623
 21
315.8836082567254
 31
0.0
  0
LINE
  5
4C1
330
2
100
AcDbEntity
  8
0
100
AcDbLine
 10
525.4436399503622
 20
613.8836082567254
 30
0.0
 11
525.4436399503622
 21
315.8836082567255
 31
0.0
  0
LINE
  5
4C2
330
2
100
AcDbEntity
  8
0
100
AcDbLine
 10
125.4436399503624
 20
315.8836082567255
 30
0.0
 11
525.4436399503622
 21
315.8836082567255
 31
0.0
  0
DIMENSION
  5
4C3
330
2
100
AcDbEntity
  8
09-01
100
AcDbDimension
280
     0
  2
*D3
 10
793.2771891145558
 20
612.9273574339201
 30
0.0
 11
787.6521891145556
 21
473.9273574339203
 31
0.0
 71
     5
 42
278.0000000000001
 73
     0
 74
     0
 75
     0
  3
Wagner$0
100
AcDbAlignedDimension
 13
773.4059120085324
 23
334.9273574339202
 33
0.0
 14
773.4059120085321
 24
612.9273574339201
 34
0.0
 50
90.0
100
AcDbRotatedDimension
1001
ACAD
1000
DSTYLE
1002
{
1070
    40
1040
2.5
1002
}
  0
LINE
  5
4D0
330
2
100
AcDbEntity
  8
01-01
100
AcDbLine
 10
772.4105763117395
 20
465.8270650181447
 30
0.0
 11
773.4059120085324
 21
465.8270650181447
 31
0.0
  0
LINE
  5
4D1
330
2
100
AcDbEntity
  8
0
100
AcDbLine
 10
187.9436399503624
 20
377.3063007040378
 30
0.0
 11
187.9436399503624
 21
428.3063007040409
 31
0.0
  0
LINE
  5
4D2
330
2
100
AcDbEntity
  8
0
100
AcDbLine
 10
192.9436399503624
 20
377.3063007040395
 30
0.0
 11
192.9436399503624
 21
428.3063007040409
 31
0.0
  0
ARC
  5
4D3
330
2
100
AcDbEntity
  8
0
100
AcDbCircle
 10
190.4436399503624
 20
377.3271519717052
 30
0.0
 40
2.500086953560511
100
AcDbArc
 50
180.4778647734053
 51
359.5221352265947
  0
ARC
  5
4D4
330
2
100
AcDbEntity
  8
0
100
AcDbCircle
 10
190.4436399503624
 20
428.3063007040409
 30
0.0
 40
2.5
100
AcDbArc
 50
0.0
 51
180.0
  0
LINE
  5
4D5
330
2
100
AcDbEntity
  8
0
100
AcDbLine
 10
773.4059120085324
 20
334.9273574339202
 30
0.0
 11
773.4059120085321
 21
612.9273574339201
 31
0.0
  0
LINE
  5
4D6
330
2
100
AcDbEntity
  8
0
100
AcDbLine
 10
763.4051392015393
 20
613.8836082567254
 30
0.0
 11
763.4136148568065
 21
334.9269891747154
 31
0.0
  0
LINE
  5
4D7
330
2
100
AcDbEntity
  8
01-01
100
AcDbLine
 10
763.4059092437048
 20
570.8836082567254
 30
0.0
 11
763.4059092437048
 21
351.9649152630652
 31
0.0
  0
LINE
  5
4D8
330
2
100
AcDbEntity
  8
0
100
AcDbLine
 10
126.4436399503624
 20
612.8836082567254
 30
0.0
 11
524.4436399503622
 21
612.8836082567254
 31
0.0
  0
LINE
  5
4D9
330
2
100
AcDbEntity
  8
0
100
AcDbLine
 10
126.4436399503624
 20
612.8836082567254
 30
0.0
 11
126.4436399503624
 21
334.9273574339202
 31
0.0
  0
DIMENSION
  5
4DA
330
2
100
AcDbEntity
  8
09-01
100
AcDbDimension
280
     0
  2
*D2
 10
773.4059120085321
 20
641.6972914953276
 30
0.0
 11
713.4059106261185
 21
647.3222914953275
 31
0.0
 71
     5
 42
120.0000027648273
 73
     0
 74
     0
 75
     0
  3
Wagner$0
100
AcDbAlignedDimension
 13
653.4059092437048
 23
621.1467493104846
 33
0.0
 14
773.4059120085321
 24
612.9273574339201
 34
0.0
100
AcDbRotatedDimension
1001
ACAD
1000
DSTYLE
1002
{
1070
    40
1040
2.5
1002
}
  0
LINE
  5
4E7
330
2
100
AcDbEntity
  8
0
100
AcDbLine
 10
763.4136148568065
 20
334.9269891747154
 30
0.0
 11
773.4059120085324
 21
334.9273574339202
 31
0.0
  0
LINE
  5
4E8
330
2
100
AcDbEntity
  8
0
100
AcDbLine
 10
763.404807922244
 20
612.9269888907018
 30
0.0
 11
773.4048114558834
 21
612.9273574339201
 31
0.0
  0
LINE
  5
4E9
330
2
100
AcDbEntity
  8
0
100
AcDbLine
 10
126.8432797382903
 20
102.9807090720856
 30
0.0
 11
126.8432797382903
 21
92.98070907208558
 31
0.0
  0
LINE
  5
4EA
330
2
100
AcDbEntity
  8
0
100
AcDbLine
 10
125.8432797382903
 20
212.9807090720856
 30
0.0
 11
525.8432797382901
 21
212.9807090720858
 31
0.0
  0
LINE
  5
4EB
330
2
100
AcDbEntity
  8
0
100
AcDbLine
 10
125.8432797382903
 20
212.9807090720856
 30
0.0
 11
125.8432797382903
 21
102.9807090720856
 31
0.0
  0
DIMENSION
  5
4EC
330
2
100
AcDbEntity
  8
09-01
100
AcDbDimension
280
     0
  2
*D1
 10
763.4059092437048
 20
629.6576966013553
 30
0.0
 11
708.4059092437049
 21
635.2826966013553
 31
0.0
 71
     5
 42
110.0
 73
     0
 74
     0
 75
     0
  3
Wagner$0
100
AcDbAlignedDimension
 13
653.4059092437048
 23
613.8836082567254
 33
0.0
 14
763.4059092437048
 24
613.8836082567254
 34
0.0
100
AcDbRotatedDimension
1001
ACAD
1000
DSTYLE
1002
{
1070
    40
1040
2.5
1002
}
  0
DIMENSION
  5
4F9
330
2
100
AcDbEntity
  8
09-01
100
AcDbDimension
280
     0
  2
*D0
 10
634.6891643975289
 20
315.8836082567256
 30
0.0
 11
629.0641643975288
 21
464.8836082567256
 31
0.0
 71
     5
 42
297.9999999999998
 73
     0
 74
     0
 75
     0
  3
Wagner$0
100
AcDbAlignedDimension
 13
653.4059092437048
 23
613.8836082567254
 33
0.0
 14
653.4059092437048
 24
315.8836082567256
 34
0.0
 50
90.0
100
AcDbRotatedDimension
1001
ACAD
1000
DSTYLE
1002
{
1070
    40
1040
2.5
1002
}
  0
LINE
  5
506
330
2
100
AcDbEntity
  8
0
100
AcDbLine
 10
653.4059092437048
 20
315.8836082567256
 30
0.0
 11
654.2059092437048
 21
315.8836082567256
 31
0.0
  0
LINE
  5
507
330
2
100
AcDbEntity
  8
0
100
AcDbLine
 10
762.6059092437051
 20
334.9974529655226
 30
0.0
 11
763.4136127158756
 21
334.9974529655225
 31
0.0
  0
LINE
  5
508
330
2
100
AcDbEntity
  8
0
100
AcDbLine
 10
125.4436399503624
 20
613.8836082567254
 30
0.0
 11
525.4436399503622
 21
613.8836082567254
 31
0.0
  0
LINE
  5
509
330
2
100
AcDbEntity
  8
0
100
AcDbLine
 10
126.2436399503624
 20
334.9273574339203
 30
0.0
 11
126.2436399503624
 21
315.8836082567256
 31
0.0
  0
LINE
  5
50A
330
2
100
AcDbEntity
  8
0
100
AcDbLine
 10
125.4436399503624
 20
613.8836082567254
 30
0.0
 11
125.4436399503624
 21
315.8836082567256
 31
0.0
  0
LINE
  5
50B
330
2
100
AcDbEntity
  8
0
100
AcDbLine
 10
653.4059092437048
 20
613.8836082567254
 30
0.0
 11
653.4059092437048
 21
315.8836082567256
 31
0.0
  0
LINE
  5
50C
330
2
100
AcDbEntity
  8
0
100
AcDbLine
 10
653.4059092437048
 20
613.8836082567254
 30
0.0
 11
763.4059092437048
 21
613.8836082567254
 31
0.0
  0
ENDSEC
  0
SECTION
  2
OBJECTS
  0
DICTIONARY
  5
B
330
0
100
AcDbDictionary
281
     1
  3
ACAD_COLOR
350
4C
  3
ACAD_GROUP
350
39
  3
ACAD_LAYOUT
350
18
  3
ACAD_MATERIAL
350
D
  3
ACAD_MLEADERSTYLE
350
4F
  3
ACAD_MLINESTYLE
350
3A
  3
ACAD_PLOTSETTINGS
350
3B
  3
ACAD_PLOTSTYLENAME
350
A
  3
ACAD_SCALELIST
350
4D
  3
ACAD_TABLESTYLE
350
4E
  3
ACAD_VISUALSTYLE
350
30
  3
ACDB_RECOMPOSE_DATA
350
51A
  3
AcDbVariableDictionary
350
510
  0
DICTIONARY
  5
31
330
2D
100
AcDbDictionary
280
     1
281
     1
  0
DICTIONARY
  5
20
330
1F
100
AcDbDictionary
280
     1
281
     1
  3
ACAD_LAYERFILTERS
360
21
  3
ACAD_LAYERSTATES
360
22
  3
ACLYDICTIONARY
360
23
  0
DICTIONARY
  5
7
330
6
100
AcDbDictionary
280
     1
281
     1
  3
ADSK_XREC_LAYER_RECONCILED
360
8
  0
DICTIONARY
  5
21D
330
21C
100
AcDbDictionary
280
     1
281
     1
  3
ADSK_XREC_LAYER_RECONCILED
360
21E
  0
DICTIONARY
  5
2BA
330
2B9
100
AcDbDictionary
280
     1
281
     1
  3
ADSK_XREC_LAYER_RECONCILED
360
2BB
  0
DICTIONARY
  5
7C
330
7B
100
AcDbDictionary
280
     1
281
     1
  3
ADSK_XREC_LAYER_RECONCILED
360
7D
  0
DICTIONARY
  5
84
330
83
100
AcDbDictionary
280
     1
281
     1
  3
ADSK_XREC_LAYER_RECONCILED
360
85
  0
DICTIONARY
  5
49D
330
49C
100
AcDbDictionary
280
     1
281
     1
  3
ADSK_XREC_LAYER_RECONCILED
360
49E
  0
DICTIONARY
  5
51
330
50
100
AcDbDictionary
280
     1
281
     1
  3
ADSK_XREC_LAYER_RECONCILED
360
52
  0
DICTIONARY
  5
2B5
330
2B4
100
AcDbDictionary
280
     1
281
     1
  3
ADSK_XREC_LAYER_RECONCILED
360
2B6
  0
DICTIONARY
  5
2F5
330
2F4
100
AcDbDictionary
280
     1
281
     1
  3
ADSK_XREC_LAYER_RECONCILED
360
2F6
  0
DICTIONARY
  5
2DF
330
2DE
100
AcDbDictionary
280
     1
281
     1
  3
ADSK_XREC_LAYER_RECONCILED
360
2E0
  0
DICTIONARY
  5
3
330
2
100
AcDbDictionary
280
     1
281
     1
  3
ACAD_SORTENTS
360
50F
  0
DICTIONARY
  5
2B0
330
2AF
100
AcDbDictionary
280
     1
281
     1
  3
ACAD_SORTENTS
360
50E
  0
DICTIONARY
  5
13F
330
13E
100
AcDbDictionary
280
     1
281
     1
  3
ACAD_SORTENTS
360
50D
  0
DICTIONARY
  5
4C
102
{ACAD_REACTORS
330
B
102
}
330
B
100
AcDbDictionary
281
     1
  0
DICTIONARY
  5
39
102
{ACAD_REACTORS
330
B
102
}
330
B
100
AcDbDictionary
281
     1
  0
DICTIONARY
  5
18
102
{ACAD_REACTORS
330
B
102
}
330
B
100
AcDbDictionary
281
     1
  3
Layout1
350
1E
  3
Model
350
17
  0
DICTIONARY
  5
D
102
{ACAD_REACTORS
330
B
102
}
330
B
100
AcDbDictionary
281
     1
  3
ByBlock
350
44
  3
ByLayer
350
3C
  3
Global
350
C
  0
DICTIONARY
  5
4F
102
{ACAD_REACTORS
330
B
102
}
330
B
100
AcDbDictionary
281
     1
  0
DICTIONARY
  5
3A
102
{ACAD_REACTORS
330
B
102
}
330
B
100
AcDbDictionary
281
     1
  3
Standard
350
54
  0
DICTIONARY
  5
3B
102
{ACAD_REACTORS
330
B
102
}
330
B
100
AcDbDictionary
281
     1
  0
ACDBDICTIONARYWDFLT
  5
A
102
{ACAD_REACTORS
330
B
102
}
330
B
100
AcDbDictionary
281
     1
  3
Normal
350
9
100
AcDbDictionaryWithDefault
340
9
  0
DICTIONARY
  5
4D
102
{ACAD_REACTORS
330
B
102
}
330
B
100
AcDbDictionary
281
     1
  3
A0
350
59
  3
A1
350
5A
  3
A2
350
5B
  3
A3
350
5C
  3
A4
350
5D
  3
A5
350
5E
  3
A6
350
5F
  3
A7
350
60
  3
A8
350
61
  3
A9
350
62
  3
B0
350
63
  3
B1
350
64
  3
B2
350
65
  3
B3
350
66
  3
B4
350
67
  3
B5
350
68
  3
B6
350
69
  3
B7
350
6A
  3
B8
350
6B
  3
B9
350
6C
  3
C0
350
6D
  3
C1
350
6E
  3
C2
350
6F
  3
C3
350
70
  3
C4
350
71
  3
C5
350
72
  3
C6
350
73
  3
C7
350
74
  3
C8
350
75
  3
C9
350
76
  3
D0
350
77
  3
D1
350
78
  3
D2
350
79
  0
DICTIONARY
  5
4E
102
{ACAD_REACTORS
330
B
102
}
330
B
100
AcDbDictionary
281
     1
  3
Standard
350
55
  0
DICTIONARY
  5
30
102
{ACAD_REACTORS
330
B
102
}
330
B
100
AcDbDictionary
281
     1
  3
2dWireframe
350
2F
  3
3dWireframe
350
58
  3
Realistic
350
57
  0
XRECORD
  5
51A
102
{ACAD_REACTORS
330
B
102
}
330
B
100
AcDbXrecord
280
     1
 90
        1
330
55
  0
DICTIONARY
  5
510
102
{ACAD_REACTORS
330
B
102
}
330
B
100
AcDbDictionary
281
     1
  3
CANNOSCALE
350
514
  3
CMLEADERSTYLE
350
512
  3
CTABLESTYLE
350
511
  3
LAYEREVAL
350
516
  3
LAYERNOTIFY
350
517
  3
LIGHTINGUNITS
350
515
  3
MSLTSCALE
350
513
  0
DICTIONARY
  5
21
102
{ACAD_REACTORS
330
20
102
}
330
20
100
AcDbDictionary
281
     1
  0
DICTIONARY
  5
22
102
{ACAD_REACTORS
330
20
102
}
330
20
100
AcDbDictionary
281
     1
  0
DICTIONARY
  5
23
102
{ACAD_REACTORS
330
20
102
}
330
20
100
AcDbDictionary
281
     1
1001
ACAD
1000
<All
  0
XRECORD
  5
8
102
{ACAD_REACTORS
330
7
102
}
330
7
100
AcDbXrecord
280
     1
290
     1
  0
XRECORD
  5
21E
102
{ACAD_REACTORS
330
21D
102
}
330
21D
100
AcDbXrecord
280
     1
290
     1
  0
XRECORD
  5
2BB
102
{ACAD_REACTORS
330
2BA
102
}
330
2BA
100
AcDbXrecord
280
     1
290
     1
  0
XRECORD
  5
7D
102
{ACAD_REACTORS
330
7C
102
}
330
7C
100
AcDbXrecord
280
     1
290
     1
  0
XRECORD
  5
85
102
{ACAD_REACTORS
330
84
102
}
330
84
100
AcDbXrecord
280
     1
290
     1
  0
XRECORD
  5
49E
102
{ACAD_REACTORS
330
49D
102
}
330
49D
100
AcDbXrecord
280
     1
290
     1
  0
XRECORD
  5
52
102
{ACAD_REACTORS
330
51
102
}
330
51
100
AcDbXrecord
280
     1
290
     1
  0
XRECORD
  5
2B6
102
{ACAD_REACTORS
330
2B5
102
}
330
2B5
100
AcDbXrecord
280
     1
290
     1
  0
XRECORD
  5
2F6
102
{ACAD_REACTORS
330
2F5
102
}
330
2F5
100
AcDbXrecord
280
     1
290
     1
  0
XRECORD
  5
2E0
102
{ACAD_REACTORS
330
2DF
102
}
330
2DF
100
AcDbXrecord
280
     1
290
     1
  0
SORTENTSTABLE
  5
50F
102
{ACAD_REACTORS
330
3
102
}
330
3
100
AcDbSortentsTable
330
2
331
477
  5
C0
331
473
  5
C4
331
4AE
  5
B0
331
4E9
  5
8D
331
46F
  5
C8
331
46B
  5
CC
331
21F
  5
10A
331
21B
  5
10B
331
1DC
  5
11E
331
217
  5
10F
331
12E
  5
1CC
331
B4
  5
49B
331
1D8
  5
122
331
B0
  5
4AE
331
EF
  5
26A
331
12A
  5
1D0
331
165
  5
16C
331
AC
  5
4B2
331
EB
  5
292
331
126
  5
1D4
331
122
  5
1D8
331
295
  5
E8
331
161
  5
170
331
A8
  5
4B6
331
4D9
  5
91
331
1D4
  5
126
331
4D5
  5
95
331
1D0
  5
12A
331
4D1
  5
99
331
E7
  5
296
331
E3
  5
29A
331
1CC
  5
12E
331
11E
  5
1DC
331
15D
  5
174
331
A4
  5
4BA
331
A0
  5
4BE
331
DF
  5
29E
331
11A
  5
1E0
331
1C8
  5
132
331
9C
  5
4C2
331
DB
  5
2A2
331
116
  5
1E4
331
112
  5
214
331
285
  5
EC
331
98
  5
4D2
331
50C
  5
7A
331
508
  5
82
331
48E
  5
B5
331
1C4
  5
136
331
1C0
  5
13A
331
4C1
  5
9D
331
D7
  5
2A6
331
236
  5
F3
331
D3
  5
2AA
331
10E
  5
218
331
94
  5
4D6
331
232
  5
F7
331
90
  5
4DA
331
CF
  5
2AE
331
10A
  5
21F
331
8C
  5
4EA
331
CB
  5
46C
331
106
  5
223
331
88
  5
506
331
102
  5
227
331
2AC
  5
D1
331
2A8
  5
D5
331
4BD
  5
A1
331
4B9
  5
A5
331
47E
  5
B9
331
47A
  5
BD
331
4B5
  5
A9
331
22E
  5
FB
331
175
  5
15C
331
171
  5
160
331
4B1
  5
AD
331
22A
  5
FF
331
C7
  5
470
331
226
  5
103
331
C3
  5
474
331
16D
  5
164
331
FE
  5
22B
331
13D
  5
176
331
222
  5
107
331
169
  5
168
331
80
  5
50A
331
BF
  5
478
331
FA
  5
22F
331
139
  5
1C1
331
1E3
  5
117
331
BB
  5
47C
331
F6
  5
233
331
135
  5
1C5
331
131
  5
1C9
331
2A4
  5
D9
331
F2
  5
243
331
2A0
  5
DD
331
25D
  5
F0
331
29C
  5
E1
331
298
  5
E5
331
476
  5
C1
331
4EC
  5
8A
331
472
  5
C5
331
4AD
  5
B1
331
4E8
  5
8E
331
46E
  5
C9
331
46A
  5
CD
331
1DF
  5
11B
331
21A
  5
10C
331
B7
  5
480
331
1DB
  5
11F
331
B3
  5
49F
331
12D
  5
1CD
331
216
  5
110
331
AF
  5
4AF
331
EE
  5
277
331
129
  5
1D1
331
164
  5
16D
331
AB
  5
4B3
331
EA
  5
293
331
125
  5
1D5
331
121
  5
1D9
331
294
  5
E9
331
160
  5
171
331
1D7
  5
123
331
4D8
  5
92
331
1D3
  5
127
331
4D4
  5
96
331
E6
  5
297
331
1CF
  5
12B
331
4D0
  5
9A
331
A7
  5
4B7
331
E2
  5
29B
331
1CB
  5
12F
331
11D
  5
1DD
331
15C
  5
175
331
A3
  5
4BB
331
9F
  5
4BF
331
DE
  5
29F
331
119
  5
1E1
331
9B
  5
4C3
331
DA
  5
2A3
331
115
  5
1E5
331
111
  5
215
331
284
  5
ED
331
50B
  5
7F
331
1C7
  5
133
331
507
  5
87
331
1C3
  5
137
331
1BF
  5
13B
331
4C0
  5
9E
331
97
  5
4D3
331
D6
  5
2A7
331
235
  5
F4
331
D2
  5
2AB
331
1F6
  5
114
331
10D
  5
219
331
93
  5
4D7
331
231
  5
F8
331
8F
  5
4E7
331
CE
  5
469
331
109
  5
220
331
8B
  5
4EB
331
CA
  5
46D
331
105
  5
224
331
101
  5
228
331
2AB
  5
D2
331
481
  5
B6
331
4BC
  5
A2
331
4B8
  5
A6
331
47D
  5
BA
331
479
  5
BE
331
4B4
  5
AA
331
22D
  5
FC
331
174
  5
15D
331
170
  5
161
331
4B0
  5
AE
331
229
  5
100
331
87
  5
507
331
C6
  5
471
331
225
  5
104
331
C2
  5
475
331
16C
  5
165
331
FD
  5
22C
331
13C
  5
177
331
1E2
  5
118
331
221
  5
108
331
7F
  5
50B
331
BE
  5
479
331
168
  5
169
331
F9
  5
230
331
138
  5
1C2
331
134
  5
1C6
331
BA
  5
47D
331
2A7
  5
D6
331
F5
  5
234
331
130
  5
1CA
331
2A3
  5
DA
331
F1
  5
250
331
29F
  5
DE
331
29B
  5
E2
331
475
  5
C2
331
4EB
  5
8B
331
471
  5
C6
331
4AC
  5
B2
331
4E7
  5
8F
331
46D
  5
CA
331
469
  5
CE
331
1DE
  5
11C
331
219
  5
10D
331
B6
  5
481
331
215
  5
111
331
B2
  5
4AC
331
12C
  5
1CE
331
1DA
  5
120
331
250
  5
F1
331
167
  5
16A
331
AE
  5
4B0
331
ED
  5
284
331
128
  5
1D2
331
163
  5
16E
331
AA
  5
4B4
331
E9
  5
294
331
297
  5
E6
331
124
  5
1D6
331
120
  5
1DA
331
293
  5
EA
331
1D6
  5
124
331
4D7
  5
93
331
1D2
  5
128
331
4D3
  5
97
331
E5
  5
298
331
1CE
  5
12C
331
15F
  5
172
331
A6
  5
4B8
331
1CA
  5
130
331
A2
  5
4BC
331
E1
  5
29C
331
11C
  5
1DE
331
205
  5
113
331
9E
  5
4C0
331
DD
  5
2A0
331
118
  5
1E2
331
9A
  5
4D0
331
D9
  5
2A4
331
114
  5
1F6
331
110
  5
216
331
50A
  5
80
331
1C6
  5
134
331
506
  5
88
331
1C2
  5
138
331
4C3
  5
9B
331
D5
  5
2A8
331
96
  5
4D4
331
234
  5
F5
331
D1
  5
2AC
331
10C
  5
21A
331
92
  5
4D8
331
230
  5
F9
331
8E
  5
4E8
331
CD
  5
46A
331
108
  5
221
331
8A
  5
4EC
331
C9
  5
46E
331
277
  5
EE
331
104
  5
225
331
100
  5
229
331
2AE
  5
CF
331
2AA
  5
D3
331
4BF
  5
9F
331
480
  5
B7
331
4BB
  5
A3
331
47C
  5
BB
331
4B7
  5
A7
331
177
  5
13C
331
478
  5
BF
331
4B3
  5
AB
331
22C
  5
FD
331
173
  5
15E
331
16F
  5
162
331
228
  5
101
331
C5
  5
472
331
224
  5
105
331
16B
  5
166
331
C1
  5
476
331
1E5
  5
115
331
FC
  5
22D
331
13B
  5
1BF
331
82
  5
508
331
1E1
  5
119
331
220
  5
109
331
BD
  5
47A
331
F8
  5
231
331
137
  5
1C3
331
133
  5
1C7
331
7A
  5
50C
331
B9
  5
47E
331
2A6
  5
D7
331
F4
  5
235
331
F0
  5
25D
331
2A2
  5
DB
331
29E
  5
DF
331
29A
  5
E3
331
474
  5
C3
331
4AF
  5
AF
331
4EA
  5
8C
331
470
  5
C7
331
46C
  5
CB
331
1DD
  5
11D
331
218
  5
10E
331
12F
  5
1CB
331
B5
  5
48E
331
214
  5
112
331
B1
  5
4AD
331
12B
  5
1CF
331
1D9
  5
121
331
166
  5
16B
331
AD
  5
4B1
331
EC
  5
285
331
127
  5
1D3
331
123
  5
1D7
331
296
  5
E7
331
162
  5
16F
331
A9
  5
4B5
331
E8
  5
295
331
292
  5
EB
331
4DA
  5
90
331
49F
  5
B3
331
49B
  5
B4
331
1D5
  5
125
331
4D6
  5
94
331
1D1
  5
129
331
4D2
  5
98
331
E4
  5
299
331
1CD
  5
12D
331
11F
  5
1DB
331
15E
  5
173
331
A5
  5
4B9
331
243
  5
F2
331
A1
  5
4BD
331
E0
  5
29D
331
11B
  5
1DF
331
1C9
  5
131
331
9D
  5
4C1
331
DC
  5
2A1
331
117
  5
1E3
331
99
  5
4D1
331
D8
  5
2A5
331
113
  5
205
331
509
  5
81
331
1C5
  5
135
331
1C1
  5
139
331
4C2
  5
9C
331
D4
  5
2A9
331
10F
  5
217
331
95
  5
4D5
331
233
  5
F6
331
91
  5
4D9
331
D0
  5
2AD
331
10B
  5
21B
331
8D
  5
4E9
331
CC
  5
46B
331
107
  5
222
331
89
  5
4F9
331
C8
  5
46F
331
103
  5
226
331
2AD
  5
D0
331
2A9
  5
D4
331
26A
  5
EF
331
4BE
  5
A0
331
4F9
  5
89
331
47F
  5
B8
331
4BA
  5
A4
331
47B
  5
BC
331
4B6
  5
A8
331
22F
  5
FA
331
176
  5
13D
331
172
  5
15F
331
4B2
  5
AC
331
22B
  5
FE
331
16E
  5
163
331
C4
  5
473
331
FF
  5
22A
331
227
  5
102
331
223
  5
106
331
16A
  5
167
331
C0
  5
477
331
1E4
  5
116
331
FB
  5
22E
331
13A
  5
1C0
331
81
  5
509
331
1E0
  5
11A
331
BC
  5
47B
331
F7
  5
232
331
136
  5
1C4
331
132
  5
1C8
331
B8
  5
47F
331
2A5
  5
D8
331
F3
  5
236
331
2A1
  5
DC
331
29D
  5
E0
331
299
  5
E4
  0
SORTENTSTABLE
  5
50E
102
{ACAD_REACTORS
330
2B0
102
}
330
2B0
100
AcDbSortentsTable
330
2AF
  0
SORTENTSTABLE
  5
50D
102
{ACAD_REACTORS
330
13F
102
}
330
13F
100
AcDbSortentsTable
330
13E
  0
LAYOUT
  5
1E
102
{ACAD_REACTORS
330
18
102
}
330
18
100
AcDbPlotSettings
  1

  2
HP LaserJet 4 Plus
  4

  6

 40
0.0
 41
0.0
 42
0.0
 43
0.0
 44
0.0
 45
0.0
 46
0.0
 47
0.0
 48
0.0
 49
0.0
140
0.0
141
0.0
142
1.0
143
1.0
 70
   688
 72
     0
 73
     0
 74
     5
  7
CNC-Soft.ctb
 75
    16
147
1.0
 76
     0
 77
     2
 78
   300
148
0.0
149
0.0
100
AcDbLayout
  1
Layout1
 70
     0
 71
     1
 10
0.0
 20
0.0
 11
12.0
 21
9.0
 12
0.0
 22
0.0
 32
0.0
 14
1.000000000000000E+20
 24
1.000000000000000E+20
 34
1.000000000000000E+20
 15
-1.000000000000000E+20
 25
-1.000000000000000E+20
 35
-1.000000000000000E+20
146
0.0
 13
0.0
 23
0.0
 33
0.0
 16
1.0
 26
0.0
 36
0.0
 17
0.0
 27
1.0
 37
0.0
 76
     0
330
1B
  0
LAYOUT
  5
17
102
{ACAD_XDICTIONARY
360
19
102
}
102
{ACAD_REACTORS
330
18
102
}
330
18
100
AcDbPlotSettings
  1

  2
HP LaserJet 4 Plus.pc3
  4
A4
  6

 40
6.043083190917968
 41
6.720414161682128
 42
7.821090698242187
 43
5.027069091796875
 44
210.0579986572266
 45
296.9259948730469
 46
0.0
 47
0.0
 48
0.0
 49
0.0
140
0.0
141
0.0
142
1.0
143
3.78498477641195
 70
 11952
 72
     1
 73
     1
 74
     1
  7
CNC-Soft.ctb
 75
     0
147
0.2642018552444401
 76
     0
 77
     2
 78
   300
148
0.0640839803218114
149
0.0453165289418394
100
AcDbLayout
  1
Model
 70
     1
 71
     0
 10
0.0
 20
0.0
 11
12.0
 21
9.0
 12
0.0
 22
0.0
 32
0.0
 14
0.0
 24
0.0
 34
0.0
 15
0.0
 25
0.0
 35
0.0
146
0.0
 13
0.0
 23
0.0
 33
0.0
 16
1.0
 26
0.0
 36
0.0
 17
0.0
 27
1.0
 37
0.0
 76
     0
330
2
331
2E
  0
MATERIAL
  5
44
102
{ACAD_XDICTIONARY
360
45
102
}
102
{ACAD_REACTORS
330
D
102
}
330
D
100
AcDbMaterial
  1
ByBlock
 72
     0
 43
0.0208333333333333
 43
0.0
 43
0.0
 43
0.0
 43
0.0
 43
0.0208333333333333
 43
0.0
 43
0.0
 43
0.0
 43
0.0
 43
1.0
 43
0.0
 43
0.0
 43
0.0
 43
0.0
 43
1.0
 77
     0
 47
0.0208333333333333
 47
0.0
 47
0.0
 47
0.0
 47
0.0
 47
0.0208333333333333
 47
0.0
 47
0.0
 47
0.0
 47
0.0
 47
1.0
 47
0.0
 47
0.0
 47
0.0
 47
0.0
 47
1.0
171
     0
 49
0.0208333333333333
 49
0.0
 49
0.0
 49
0.0
 49
0.0
 49
0.0208333333333333
 49
0.0
 49
0.0
 49
0.0
 49
0.0
 49
1.0
 49
0.0
 49
0.0
 49
0.0
 49
0.0
 49
1.0
175
     0
142
0.0208333333333333
142
0.0
142
0.0
142
0.0
142
0.0
142
0.0208333333333333
142
0.0
142
0.0
142
0.0
142
0.0
142
1.0
142
0.0
142
0.0
142
0.0
142
0.0
142
1.0
179
     0
144
0.0208333333333333
144
0.0
144
0.0
144
0.0
144
0.0
144
0.0208333333333333
144
0.0
144
0.0
144
0.0
144
0.0
144
1.0
144
0.0
144
0.0
144
0.0
144
0.0
144
1.0
147
0.0208333333333333
147
0.0
147
0.0
147
0.0
147
0.0
147
0.0208333333333333
147
0.0
147
0.0
147
0.0
147
0.0
147
1.0
147
0.0
147
0.0
147
0.0
147
0.0
147
1.0
  0
MATERIAL
  5
3C
102
{ACAD_XDICTIONARY
360
3D
102
}
102
{ACAD_REACTORS
330
D
102
}
330
D
100
AcDbMaterial
  1
ByLayer
 72
     0
 43
0.0208333333333333
 43
0.0
 43
0.0
 43
0.0
 43
0.0
 43
0.0208333333333333
 43
0.0
 43
0.0
 43
0.0
 43
0.0
 43
1.0
 43
0.0
 43
0.0
 43
0.0
 43
0.0
 43
1.0
 77
     0
 47
0.0208333333333333
 47
0.0
 47
0.0
 47
0.0
 47
0.0
 47
0.0208333333333333
 47
0.0
 47
0.0
 47
0.0
 47
0.0
 47
1.0
 47
0.0
 47
0.0
 47
0.0
 47
0.0
 47
1.0
171
     0
 49
0.0208333333333333
 49
0.0
 49
0.0
 49
0.0
 49
0.0
 49
0.0208333333333333
 49
0.0
 49
0.0
 49
0.0
 49
0.0
 49
1.0
 49
0.0
 49
0.0
 49
0.0
 49
0.0
 49
1.0
175
     0
142
0.0208333333333333
142
0.0
142
0.0
142
0.0
142
0.0
142
0.0208333333333333
142
0.0
142
0.0
142
0.0
142
0.0
142
1.0
142
0.0
142
0.0
142
0.0
142
0.0
142
1.0
179
     0
144
0.0208333333333333
144
0.0
144
0.0
144
0.0
144
0.0
144
0.0208333333333333
144
0.0
144
0.0
144
0.0
144
0.0
144
1.0
144
0.0
144
0.0
144
0.0
144
0.0
144
1.0
147
0.0208333333333333
147
0.0
147
0.0
147
0.0
147
0.0
147
0.0208333333333333
147
0.0
147
0.0
147
0.0
147
0.0
147
1.0
147
0.0
147
0.0
147
0.0
147
0.0
147
1.0
  0
MATERIAL
  5
C
102
{ACAD_XDICTIONARY
360
E
102
}
102
{ACAD_REACTORS
330
D
102
}
330
D
100
AcDbMaterial
  1
Global
 72
     0
 43
0.0208333333333333
 43
0.0
 43
0.0
 43
0.0
 43
0.0
 43
0.0208333333333333
 43
0.0
 43
0.0
 43
0.0
 43
0.0
 43
1.0
 43
0.0
 43
0.0
 43
0.0
 43
0.0
 43
1.0
 77
     0
 47
0.0208333333333333
 47
0.0
 47
0.0
 47
0.0
 47
0.0
 47
0.0208333333333333
 47
0.0
 47
0.0
 47
0.0
 47
0.0
 47
1.0
 47
0.0
 47
0.0
 47
0.0
 47
0.0
 47
1.0
171
     0
 49
0.0208333333333333
 49
0.0
 49
0.0
 49
0.0
 49
0.0
 49
0.0208333333333333
 49
0.0
 49
0.0
 49
0.0
 49
0.0
 49
1.0
 49
0.0
 49
0.0
 49
0.0
 49
0.0
 49
1.0
175
     0
142
0.0208333333333333
142
0.0
142
0.0
142
0.0
142
0.0
142
0.0208333333333333
142
0.0
142
0.0
142
0.0
142
0.0
142
1.0
142
0.0
142
0.0
142
0.0
142
0.0
142
1.0
179
     0
144
0.0208333333333333
144
0.0
144
0.0
144
0.0
144
0.0
144
0.0208333333333333
144
0.0
144
0.0
144
0.0
144
0.0
144
1.0
144
0.0
144
0.0
144
0.0
144
0.0
144
1.0
147
0.0208333333333333
147
0.0
147
0.0
147
0.0
147
0.0
147
0.0208333333333333
147
0.0
147
0.0
147
0.0
147
0.0
147
1.0
147
0.0
147
0.0
147
0.0
147
0.0
147
1.0
  0
MLINESTYLE
  5
54
102
{ACAD_REACTORS
330
3A
102
}
330
3A
100
AcDbMlineStyle
  2
STANDARD
 70
     0
  3

 62
   256
 51
90.0
 52
90.0
 71
     2
 49
0.5
 62
   256
  6
BYLAYER
 49
-0.5
 62
   256
  6
BYLAYER
  0
ACDBPLACEHOLDER
  5
9
102
{ACAD_REACTORS
330
A
102
}
330
A
  0
SCALE
  5
59
102
{ACAD_REACTORS
330
4D
102
}
330
4D
100
AcDbScale
 70
     0
300
1:1
140
1.0
141
1.0
290
     1
  0
SCALE
  5
5A
102
{ACAD_REACTORS
330
4D
102
}
330
4D
100
AcDbScale
 70
     0
300
1:2
140
1.0
141
2.0
290
     0
  0
SCALE
  5
5B
102
{ACAD_REACTORS
330
4D
102
}
330
4D
100
AcDbScale
 70
     0
300
1:4
140
1.0
141
4.0
290
     0
  0
SCALE
  5
5C
102
{ACAD_REACTORS
330
4D
102
}
330
4D
100
AcDbScale
 70
     0
300
1:5
140
1.0
141
5.0
290
     0
  0
SCALE
  5
5D
102
{ACAD_REACTORS
330
4D
102
}
330
4D
100
AcDbScale
 70
     0
300
1:8
140
1.0
141
8.0
290
     0
  0
SCALE
  5
5E
102
{ACAD_REACTORS
330
4D
102
}
330
4D
100
AcDbScale
 70
     0
300
1:10
140
1.0
141
10.0
290
     0
  0
SCALE
  5
5F
102
{ACAD_REACTORS
330
4D
102
}
330
4D
100
AcDbScale
 70
     0
300
1:16
140
1.0
141
16.0
290
     0
  0
SCALE
  5
60
102
{ACAD_REACTORS
330
4D
102
}
330
4D
100
AcDbScale
 70
     0
300
1:20
140
1.0
141
20.0
290
     0
  0
SCALE
  5
61
102
{ACAD_REACTORS
330
4D
102
}
330
4D
100
AcDbScale
 70
     0
300
1:30
140
1.0
141
30.0
290
     0
  0
SCALE
  5
62
102
{ACAD_REACTORS
330
4D
102
}
330
4D
100
AcDbScale
 70
     0
300
1:40
140
1.0
141
40.0
290
     0
  0
SCALE
  5
63
102
{ACAD_REACTORS
330
4D
102
}
330
4D
100
AcDbScale
 70
     0
300
1:50
140
1.0
141
50.0
290
     0
  0
SCALE
  5
64
102
{ACAD_REACTORS
330
4D
102
}
330
4D
100
AcDbScale
 70
     0
300
1:100
140
1.0
141
100.0
290
     0
  0
SCALE
  5
65
102
{ACAD_REACTORS
330
4D
102
}
330
4D
100
AcDbScale
 70
     0
300
2:1
140
2.0
141
1.0
290
     0
  0
SCALE
  5
66
102
{ACAD_REACTORS
330
4D
102
}
330
4D
100
AcDbScale
 70
     0
300
4:1
140
4.0
141
1.0
290
     0
  0
SCALE
  5
67
102
{ACAD_REACTORS
330
4D
102
}
330
4D
100
AcDbScale
 70
     0
300
8:1
140
8.0
141
1.0
290
     0
  0
SCALE
  5
68
102
{ACAD_REACTORS
330
4D
102
}
330
4D
100
AcDbScale
 70
     0
300
10:1
140
10.0
141
1.0
290
     0
  0
SCALE
  5
69
102
{ACAD_REACTORS
330
4D
102
}
330
4D
100
AcDbScale
 70
     0
300
100:1
140
100.0
141
1.0
290
     0
  0
SCALE
  5
6A
102
{ACAD_REACTORS
330
4D
102
}
330
4D
100
AcDbScale
 70
     0
300
1/128" = 1'-0"
140
0.0078125
141
12.0
290
     0
  0
SCALE
  5
6B
102
{ACAD_REACTORS
330
4D
102
}
330
4D
100
AcDbScale
 70
     0
300
1/64" = 1'-0"
140
0.015625
141
12.0
290
     0
  0
SCALE
  5
6C
102
{ACAD_REACTORS
330
4D
102
}
330
4D
100
AcDbScale
 70
     0
300
1/32" = 1'-0"
140
0.03125
141
12.0
290
     0
  0
SCALE
  5
6D
102
{ACAD_REACTORS
330
4D
102
}
330
4D
100
AcDbScale
 70
     0
300
1/16" = 1'-0"
140
0.0625
141
12.0
290
     0
  0
SCALE
  5
6E
102
{ACAD_REACTORS
330
4D
102
}
330
4D
100
AcDbScale
 70
     0
300
3/32" = 1'-0"
140
0.09375
141
12.0
290
     0
  0
SCALE
  5
6F
102
{ACAD_REACTORS
330
4D
102
}
330
4D
100
AcDbScale
 70
     0
300
1/8" = 1'-0"
140
0.125
141
12.0
290
     0
  0
SCALE
  5
70
102
{ACAD_REACTORS
330
4D
102
}
330
4D
100
AcDbScale
 70
     0
300
3/16" = 1'-0"
140
0.1875
141
12.0
290
     0
  0
SCALE
  5
71
102
{ACAD_REACTORS
330
4D
102
}
330
4D
100
AcDbScale
 70
     0
300
1/4" = 1'-0"
140
0.25
141
12.0
290
     0
  0
SCALE
  5
72
102
{ACAD_REACTORS
330
4D
102
}
330
4D
100
AcDbScale
 70
     0
300
3/8" = 1'-0"
140
0.375
141
12.0
290
     0
  0
SCALE
  5
73
102
{ACAD_REACTORS
330
4D
102
}
330
4D
100
AcDbScale
 70
     0
300
1/2" = 1'-0"
140
0.5
141
12.0
290
     0
  0
SCALE
  5
74
102
{ACAD_REACTORS
330
4D
102
}
330
4D
100
AcDbScale
 70
     0
300
3/4" = 1'-0"
140
0.75
141
12.0
290
     0
  0
SCALE
  5
75
102
{ACAD_REACTORS
330
4D
102
}
330
4D
100
AcDbScale
 70
     0
300
1" = 1'-0"
140
1.0
141
12.0
290
     0
  0
SCALE
  5
76
102
{ACAD_REACTORS
330
4D
102
}
330
4D
100
AcDbScale
 70
     0
300
1-1/2" = 1'-0"
140
1.5
141
12.0
290
     0
  0
SCALE
  5
77
102
{ACAD_REACTORS
330
4D
102
}
330
4D
100
AcDbScale
 70
     0
300
3" = 1'-0"
140
3.0
141
12.0
290
     0
  0
SCALE
  5
78
102
{ACAD_REACTORS
330
4D
102
}
330
4D
100
AcDbScale
 70
     0
300
6" = 1'-0"
140
6.0
141
12.0
290
     0
  0
SCALE
  5
79
102
{ACAD_REACTORS
330
4D
102
}
330
4D
100
AcDbScale
 70
     0
300
1'-0" = 1'-0"
140
12.0
141
12.0
290
     0
  0
TABLESTYLE
  5
55
102
{ACAD_XDICTIONARY
360
56
102
}
102
{ACAD_REACTORS
330
4E
102
}
330
4E
100
AcDbTableStyle
280
     0
  3
Standard
 70
     0
 71
     0
 40
0.06
 41
0.06
280
     0
281
     0
  7
STANDARD
140
0.18
170
     2
 62
     0
 63
     7
283
     0
 90
      512
 91
        0
  1

274
    -2
284
     1
 64
     0
275
    -2
285
     1
 65
     0
276
    -2
286
     1
 66
     0
277
    -2
287
     1
 67
     0
278
    -2
288
     1
 68
     0
279
    -2
289
     1
 69
     0
  7
STANDARD
140
0.25
170
     5
 62
     0
 63
     7
283
     0
 90
      512
 91
        0
  1

274
    -2
284
     1
 64
     0
275
    -2
285
     1
 65
     0
276
    -2
286
     1
 66
     0
277
    -2
287
     1
 67
     0
278
    -2
288
     1
 68
     0
279
    -2
289
     1
 69
     0
  7
STANDARD
140
0.18
170
     5
 62
     0
 63
     7
283
     0
 90
      512
 91
        0
  1

274
    -2
284
     1
 64
     0
275
    -2
285
     1
 65
     0
276
    -2
286
     1
 66
     0
277
    -2
287
     1
 67
     0
278
    -2
288
     1
 68
     0
279
    -2
289
     1
 69
     0
  0
VISUALSTYLE
  5
2F
102
{ACAD_REACTORS
330
30
102
}
330
30
100
AcDbVisualStyle
  2
2dWireframe
 70
     4
177
     2
291
     0
 71
     0
176
     1
 72
     2
176
     1
 73
     0
176
     1
 90
        0
176
     1
 40
0.6
176
     1
 41
30.0
176
     1
 63
     7
176
     1
 74
     1
176
     1
 91
        4
176
     1
 64
     7
176
     1
 65
   257
176
     1
 75
     1
176
     1
175
     1
176
     1
 42
1.0
176
     1
 92
        0
176
     1
 66
   257
176
     1
 43
1.0
176
     1
 76
     1
176
     1
 77
     6
176
     1
 78
     2
176
     1
 67
     7
176
     1
 79
     5
176
     1
170
     0
176
     1
171
     0
176
     1
290
     0
176
     1
 93
        1
176
     1
 44
0.0
176
     1
173
     0
176
     1
  0
VISUALSTYLE
  5
58
102
{ACAD_REACTORS
330
30
102
}
330
30
100
AcDbVisualStyle
  2
3dWireframe
 70
     5
177
     2
291
     0
 71
     0
176
     1
 72
     2
176
     1
 73
     0
176
     1
 90
        0
176
     1
 40
0.6
176
     1
 41
30.0
176
     1
 63
     7
176
     1
 74
     1
176
     1
 91
        4
176
     1
 64
     7
176
     1
 65
   257
176
     1
 75
     1
176
     1
175
     1
176
     1
 42
1.0
176
     1
 92
        0
176
     1
 66
   257
176
     1
 43
1.0
176
     1
 76
     1
176
     1
 77
     6
176
     1
 78
     2
176
     1
 67
     7
176
     1
 79
     5
176
     1
170
     0
176
     1
171
     0
176
     1
290
     0
176
     1
 93
        1
176
     1
 44
0.0
176
     1
173
     0
176
     1
  0
VISUALSTYLE
  5
57
102
{ACAD_REACTORS
330
30
102
}
330
30
100
AcDbVisualStyle
  2
Realistic
 70
     8
177
     2
291
     0
 71
     2
176
     1
 72
     2
176
     1
 73
     0
176
     1
 90
        0
176
     1
 40
0.6
176
     1
 41
30.0
176
     1
 63
     7
176
     1
 74
     1
176
     1
 91
        0
176
     1
 64
     7
176
     1
 65
   257
176
     1
 75
     1
176
     1
175
     1
176
     1
 42
1.0
176
     1
 92
        8
176
     1
 66
     8
176
     1
 43
1.0
176
     1
 76
     1
176
     1
 77
     6
176
     1
 78
     2
176
     1
 67
     7
176
     1
 79
     5
176
     1
170
     0
176
     1
171
     0
176
     1
290
     0
176
     1
 93
       13
176
     1
 44
0.0
176
     1
173
     0
176
     1
  0
DICTIONARYVAR
  5
514
102
{ACAD_REACTORS
330
510
102
}
330
510
100
DictionaryVariables
280
     0
  1
1:1
  0
DICTIONARYVAR
  5
512
102
{ACAD_REACTORS
330
510
102
}
330
510
100
DictionaryVariables
280
     0
  1
STANDARD
  0
DICTIONARYVAR
  5
511
102
{ACAD_REACTORS
330
510
102
}
330
510
100
DictionaryVariables
280
     0
  1
STANDARD
  0
DICTIONARYVAR
  5
516
102
{ACAD_REACTORS
330
510
102
}
330
510
100
DictionaryVariables
280
     0
  1
1
  0
DICTIONARYVAR
  5
517
102
{ACAD_REACTORS
330
510
102
}
330
510
100
DictionaryVariables
280
     0
  1
15
  0
DICTIONARYVAR
  5
515
102
{ACAD_REACTORS
330
510
102
}
330
510
100
DictionaryVariables
280
     0
  1
0
  0
DICTIONARYVAR
  5
513
102
{ACAD_REACTORS
330
510
102
}
330
510
100
DictionaryVariables
280
     0
  1
0
  0
DICTIONARY
  5
19
330
17
100
AcDbDictionary
280
     1
281
     1
  3
ADSK_XREC_LAYOUTTHUMBNAIL
360
1A
  0
DICTIONARY
  5
45
330
44
100
AcDbDictionary
280
     1
281
     1
  3
BUMPTILE
360
46
  3
DIFFUSETILE
360
47
  3
OPACITYTILE
360
48
  3
REFLECTIONTILE
360
49
  3
REFRACTIONTILE
360
4A
  3
SPECULARTILE
360
4B
  0
DICTIONARY
  5
3D
330
3C
100
AcDbDictionary
280
     1
281
     1
  3
BUMPTILE
360
3E
  3
DIFFUSETILE
360
3F
  3
OPACITYTILE
360
40
  3
REFLECTIONTILE
360
41
  3
REFRACTIONTILE
360
42
  3
SPECULARTILE
360
43
  0
DICTIONARY
  5
E
330
C
100
AcDbDictionary
280
     1
281
     1
  3
BUMPTILE
360
F
  3
DIFFUSETILE
360
10
  3
OPACITYTILE
360
11
  3
REFLECTIONTILE
360
12
  3
REFRACTIONTILE
360
13
  3
SPECULARTILE
360
14
  0
DICTIONARY
  5
56
330
55
100
AcDbDictionary
280
     1
281
     1
  3
ACAD_ROUNDTRIP_2008_TABLESTYLE_CELLSTYLEMAP
360
518
  0
XRECORD
  5
1A
102
{ACAD_REACTORS
330
19
102
}
330
19
100
AcDbXrecord
280
     1
310
280000000001000084000000010008000000000000840000000000000000000000010000000000000000000000000000FFFFFF000000000000000000000000000000000000000000000000000000000000000000330000006600000099000000CC000000FF00000000330000333300006633000099330000CC330000FF3300
310
0000660000336600006666000099660000CC660000FF66000000990000339900006699000099990000CC990000FF99000000CC000033CC000066CC000099CC0000CCCC0000FFCC000000FF000033FF000066FF000099FF0000CCFF0000FFFF000000003300330033006600330099003300CC003300FF003300003333003333
310
33006633330099333300CC333300FF33330000663300336633006666330099663300CC663300FF66330000993300339933006699330099993300CC993300FF99330000CC330033CC330066CC330099CC3300CCCC3300FFCC330000FF330033FF330066FF330099FF3300CCFF3300FFFF330000006600330066006600660099
310
006600CC006600FF00660000336600333366006633660099336600CC336600FF33660000666600336666006666660099666600CC666600FF66660000996600339966006699660099996600CC996600FF99660000CC660033CC660066CC660099CC6600CCCC6600FFCC660000FF660033FF660066FF660099FF6600CCFF6600
310
FFFF660000009900330099006600990099009900CC009900FF00990000339900333399006633990099339900CC339900FF33990000669900336699006666990099669900CC669900FF66990000999900339999006699990099999900CC999900FF99990000CC990033CC990066CC990099CC9900CCCC9900FFCC990000FF99
310
0033FF990066FF990099FF9900CCFF9900FFFF99000000CC003300CC006600CC009900CC00CC00CC00FF00CC000033CC003333CC006633CC009933CC00CC33CC00FF33CC000066CC003366CC006666CC009966CC00CC66CC00FF66CC000099CC003399CC006699CC009999CC00CC99CC00FF99CC0000CCCC0033CCCC0066CC
310
CC0099CCCC00CCCCCC00FFCCCC0000FFCC0033FFCC0066FFCC0099FFCC00CCFFCC00FFFFCC000000FF003300FF006600FF009900FF00CC00FF00FF00FF000033FF003333FF006633FF009933FF00CC33FF00FF33FF000066FF003366FF006666FF009966FF00CC66FF00FF66FF000099FF003399FF006699FF009999FF00CC
310
99FF00FF99FF0000CCFF0033CCFF0066CCFF0099CCFF00CCCCFF00FFCCFF0000FFFF0033FFFF0066FFFF0099FFFF00CCFFFF00FFFFFF00000000000D0D0D001A1A1A00282828003535350043434300505050005D5D5D006B6B6B00787878008686860093939300A1A1A100AEAEAE00BBBBBB00C9C9C900D6D6D600E4E4E400
310
F1F1F100FFFFFF0000000000000000000000000000000000000000000000000000000000000000000000000000000000E2E2E2E2E2E2E2E2E2E2E2E2E2E2E2E2E2E2E2E2E2E2E2E2E2E2E2E2E2E2E2E2E2E2E2E2E2E2E2E2E2E2E2E2E2E2E2E2E2E2E2E2E2E2E2E2E2E2E2E2E2E2E2E2E2E2E2E2E2E2E2E2E2E2E2E2E2E2E2
310
E2E2E2E2E2E2E2E2E2E2E2E2E2E2E2E2E2E2E2E2E2E2E2E2E2E2E2E2E2E2E2E2E2E2E2E2E2E2E2E2E2E2E2E2E2E2E2E2E2E2E2E2E2E2E2E2E2E2E2E2E2E2E2E2E2E2E2E2E2E2E2E2E2E2E2E2E2E2E2E2E2E2E2E2E2E2E2E2E2E2E2E2E2E2E2E2E2E2E2E2E2E2E2E2E2E2E2E2E2E2E2E2E2E2E2E2E2E2E2E2E2E2E2E2E2E2E2
310
E2E2E2E2E2E2E2E2E2E2E2E2E2E2E2E2E2E2E2E2E2E2E2E2E2E2E2E2E2E2E2E2E2E2E2E2E2E2E2E2E2E2E2E2E2E2E2E2E2E2E2E2E2E2E2E2E2E2E2E2E2E2E2E2E2E2E2E2E2E2E2E2E2E2E2E2E2E2E2E2E2E2E2E2E2BEBEBEBEBEBEBEBEBEBEBEBEBEBEBEBEBEBEBEBEBEBEBEBEBEBEBEBEBEBEBEBEBEBEBEBEBEBEBEBEBEBE
310
BEBEBEBEBEBEBEBEBEBEBEBEBEBEBEBEBEBEBEBEBEBEBEBEBEBEBEBEBEBEBEBEBEBEBEBEBEBEBEBEBEBEBEBEBEBEBEBEBEBEBEBEBEBEBEBEBEBEBEBEBEBEBEBEBEBEBEBEBEBEBEBEBEBEBEBEBEBEBEBEBEBEBEBEBEBEBEBEBEBEBEBEBEBEBEBEBEBEBEBEBEBEBEBEBEBEBEBEBEBEBEBEBEBEBEBEBEBEBEBEBEBEBEBEBEBEBE
310
BEBEBEBEBEBEBEBEBEBEBEBEBEBEBEBEBEE2E2E2E2E2E2E2E2E2E2E2E2E2E2E2E2E2E2E2E2E2E2E2E2E2E2E2E2E2E2E2E2E2E2E2E2E2E2E2E2E2E2E2E2E2E2E2E2E2E2E2E2E2E2E2E2E2E2E2E2E2E2E2E2E2E2E2E2E2E2BEE2E2E2E2E2E2E2E2E2E2E2E2E2E2E2E2E2E2E2E2E2E2E2E2E2E2E2E2E2E2E2E2E2E2E2E2E2E2E2
310
E2E2E2E2E2E2E2E2E2E2E2E2E2E2E2E2E2E2E2E2E2E2E2E2E2E2E2E2E2E2E2E2E2E2E2E2E2E2E2E2E2E2E2E2E2E2E2E2E2E2E2E2E2E2E2E2E2E2E2E2E2E2E2E2E2E2E2E2E2E2E2E2E2E2E2E2E2E2E2E2E2E2E2E2E2E2E2E2E2E2E2E2E2E2E2E2E2E2E2E2E2E2E2E2E2E2E2E2E2E2E2E2E2E2E2E2E2E2E2E2E2E2E2E2E2E2E2
310
E2E2E2E2E2E2E2E2E2E2E2E2E2E2E2E2E2E2BEE2E2E2E2E2E2E2E2E2E2E2E2E2E2E2E2E2E2E2E2E2E2E2E2E2E2E2E2E2E2E2E2E2E2E2E2E2E2E2E2E2E2E2E2E2E2E2E2E2E2E2E2E2E2E2E2E2E2E2E2E2E2E2E2E2E2E2E2E2E2BEE2E2E2E2E2E2E2E2E2E2E2E2E2E2E2E2E2E2E2E2E2E2E2E2E2E2E2E2E2E2E2E2E2E2E2E2E2
310
E2E2E2E2E2E2E2E2E2E2E2E2E2E2E2E2E2E2E2E2E2E2E2E2E2E2E2E2E2E2E2E2E2E2E2E2E2E2E2E2E2E2E2E2E2E2E2E2E2E2E2E2E2E2E2E2E2E2E2E2E2E2E2E2E2E2E2E2E2E2E2E2E2E2E2E2E2E2E2E2E2E2E2E2E2E2E2E2E2E2E2E2E2E2E2E2E2E2E2E2E2E2E2E2E2E2E2E2E2E2E2E2E2E2E2E2E2E2E2E2E2E2E2E2E2E2E2
310
E2E2E2E2E2E2E2E2E2E2E2E2E2E2E2E2E2E2E2E2BEE2E2E2E2E2E2E2E2E2E2E2E2E2E2E2E2E2E2E2E2E2E2E2E2E2E2E2E2E2E2E2E2E2E2E2E2E2E2E2E2E2E2E2E2E2E2E2E2E2E2E2E2E2E2E2E2E2E2E2E2E2E2E2E2E2E2E2E2E2E2BEE2E2DCDCDCDCDCDCDCDCDCDCDCDCDCDCDCDCDCDCDCDCDCDCDCDCDCDCDCDCDCDCDCDCDC
310
DCDCDCDCDCDCDCDCDCDCDCDCDCDCDCDCDCDCDCDCDCDCDCDCDCDCDCDCDCDCDCDCDCDCDCDCDCDCDCDCDCDCDCDCDCDCDCDCDCDCDCDCDCDCDCDCDCDCDCDCDCDCDCDCDCDCDCDCDCDCDCDCDCDCDCDCDCDCDCDCDCDCDCDCDCDCDCDCDCDCDCDCDCDCBEBEBEBEBEBEBEBEBEBEDCDCDCDCDCDCDCDCDCDCDCDCDCDCDCDCDCDCDCDCDCDCDC
310
DCDCDCDCDCDCDCDCBEBEBEDCBEBEBEBEDCDCDCDCE2E2BEE2E2E2E2E2E2E2E2E2E2E2E2E2E2E2E2E2E2E2E2E2E2E2E2E2E2E2E2E2E2E2E2E2E2E2E2E2E2E2E2E2E2E2E2E2E2E2E2E2E2E2E2E2E2E2E2E2E2E2E2E2E2E2E2E2E2E2E2E2E2BEE2E2DCE2E2E2E2E2E2E2E2E2E2E2E2E2E2E2E2E2E2E2E2E2E2E2E2E2E2E2E2E2E2
310
E2E2E2E2E2E2E2E2E2E2E2E2E2E2E2E2E2E2E2E2E2E2E2E2E2E2E2E2E2E2E2E2E2E2E2E2E2E2E2E2E2E2E2E2E2E2E2E2E2E2E2E2E2E2E2E2E2E2E2E2E2E2E2E2E2E2E2DCF5F5F5F5F5E2E2E2E2E2DCF5F5F5F5F5F5E2E2E2E2DCE2E2E2E2E2E2BEBEBEBEBEBEBEBEBEBEE2E2E2DCE2E2E2E2E2E2E2E2E2E2E2E2DCE2E2E2E2
310
E2E2E2E2E2E2E2E2E2DCBEBEBEBEBEBEBEBEE2E2E2DCE2E2BEE2E2E2E2E2E2E2E2E2E2E2E2E2E2E2E2E2E2E2E2E2E2E2E2E2E2E2E2E2E2E2E2E2E2E2E2E2E2E2E2E2E2E2E2E2E2E2E2E2E2E2E2E2E2E2E2E2E2E2E2E2E2E2E2E2E2E2E2E2E2BEE2E2DCE2E2E2E2E2E2E2E2E2E2E2E2E2E2E2E2E2E2E2E2E2E2E2E2E2E2E2E2
310
E2E2E2E2E2E2E2E2E2E2E2E2E2E2E2E2E2E2E2E2E2E2E2E2E2E2E2E2E2E2E2E2E2E2E2E2E2E2E2E2E2E2E2E2E2E2E2E2E2E2E2E2E2E2E2E2E2E2E2E2E2E2E2E2E2E2E2E2E2DCDCDCDCDCDCDCDCDCDCDCDCDCDCDCDCDCDCDCDCDCDCDCE2E2BEBEBEBEBEBEBEBEBEBEBEBEBEBEE2E2E2DCF5F5F5F5E2F5F5F5E2E2E2E2F5F5F5
310
F5F5F5F5F5F5F5F5E2E2E2DCBEBEBEBEBEBEBEF5F5E2E2DCE2E2BEE2E2E2E2E2E2E2E2E2E2E2E2E2E2E2E2E2E2E2E2E2E2E2E2E2E2E2E2E2E2E2E2E2E2E2E2E2E2E2E2E2E2E2E2E2E2E2E2E2E2E2E2E2E2E2E2E2E2E2E2E2E2E2E2E2E2E2E2E2E2BEE2E2DCE2E2E2E2E2E2E2E2E2E2E2E2E2E2E2E2E2E2E2E2E2E2E2E2E2E2
310
E2E2E2E2E2E2E2E2E2E2E2E2E2E2E2E2E2E2E2E2E2E2E2E2E2E2E2E2E2E2E2E2E2E2E2E2E2E2E2E2E2E2E2E2E2E2E2E2E2E2E2E2E2E2E2E2E2E2E2E2E2E2E2E2E2E2E2E2E2E2E2DCE2E2DCE2E2E2E2E2E2E2E2DCE2E2E2E2DCE2E2E2E2DCE2E2BEBEBEBEBEBEBEBEBEBEBEBEBEBEE2E2E2F5F5F5F5F5F5F5F5F5E2E2E2E2F5
310
F5F5F5F5F5F5F5F5F5F5F5E2E2DCF5F5F5F5F5F5F5F5E2E2E2DCE2E2BEE2E2E2E2E2E2E2E2E2E2E2E2E2E2E2E2E2E2E2E2E2E2E2E2E2E2E2E2E2E2E2E2E2E2E2E2E2E2E2E2E2E2E2E2E2E2E2E2E2E2E2E2E2E2E2E2E2E2E2E2E2E2E2E2E2E2E2E2E2E2BEE2E2DCE2E2E2E2E2E2E2E2E2E2E2E2E2E2E2E2E2E2E2E2E2E2E2E2
310
E2E2E2E2E2E2E2E2E2E2E2E2E2E2E2E2E2E2E2E2E2E2E2E2E2E2E2E2E2E2E2E2E2E2E2E2E2E2E2E2E2E2E2E2E2E2E2E2E2E2E2E2E2E2E2E2E2E2E2E2E2E2E2E2E2E2E2E2E2E2E2E2E2DCDCDCDCDCDCDCDCDCDCDCDCDCDCDCDCDCDCDCDCDCDCDCE2E2E2E2BEBEBEBEBEBEBEBEBEBEBEBEE2E2E2DCDCDCDCDCDCDCDCDCDCDCDC
310
DCDCDCDCDCDCDCDCDCDCDCDCDCDCDCDCDCDCDCDCDCDCDCDCDCDCDCDCE2E2BEE2E2E2E2E2E2E2E2E2E2E2E2E2E2E2E2E2E2E2E2E2E2E2E2E2E2E2E2E2E2E2E2E2E2E2E2E2E2E2E2E2E2E2E2E2E2E2E2E2E2E2E2E2E2E2E2E2E2E2E2E2E2E2E2E2E2E2E2E2E2BEE2E2DCE2E2E2E2E2E2E2E2E2E2E2E2E2E2E2E2E2E2E2E2E2E2
310
E2E2E2E2E2E2E2E2E2E2E2E2E2E2E2E2E2E2E2E2E2E2E2E2E2E2E2E2E2E2E2E2E2E2E2E2E2E2E2E2E2E2E2E2E2E2E2E2E2E2E2E2E2E2E2E2E2E2E2E2E2E2E2E2E2E2E2E2E2E2E2E2E2E2E2DCE2E2DCE2E2E2E2E2E2E2E2DCE2E2E2E2DCE2E2E2E2DCE2E2E2E2BEBEBEBEBEBEBEBEBEBEBEBEE2E2E2DCE2E2E2E2E2E2E2E2E2
310
E2E2E2E2E2E2E2E2E2E2E2E2E2E2E2E2E2E2E2E2E2E2E2E2E2E2E2E2E2DCE2E2BEE2E2E2E2E2E2E2E2E2E2E2E2E2E2E2E2E2E2E2E2E2E2E2E2E2E2E2E2E2E2E2E2E2E2E2E2E2E2E2E2E2E2E2E2E2E2E2E2E2E2E2E2E2E2E2E2E2E2E2E2E2E2E2E2E2E2E2E2E2E2BEE2E2DCE2E2E2E2E2E2E2E2E2E2E2E2E2E2E2E2E2E2E2E2
310
E2E2E2E2E2E2E2E2E2E2E2E2E2E2E2E2E2E2E2E2E2E2E2E2E2E2E2E2E2E2E2E2E2E2E2E2E2E2E2E2E2E2E2E2E2E2E2E2E2E2E2E2E2E2E2E2E2E2E2E2E2E2E2E2E2E2E2E2E2E2E2E2E2E2E2E2E2DCDCDCDCDCDCDCDCDCDCDCDCDCDCDCDCDCDCDCDCDCDCDCDCDCDCDCBEBEBEBEBEBEBEBEBEBEBEBEDCDCDCDCE2E2E2E2E2E2E2
310
E2E2E2E2E2E2E2E2E2E2E2E2E2E2E2E2E2E2E2E2E2E2E2E2E2E2E2E2E2E2E2DCE2E2BEE2E2E2E2E2E2E2E2E2E2E2E2E2E2E2E2E2E2E2E2E2E2E2E2E2E2E2E2E2E2E2E2E2E2E2E2E2E2E2E2E2E2E2E2E2E2E2E2E2E2E2E2E2E2E2E2E2E2E2E2E2E2E2E2E2E2E2E2E2E2BEE2E2DCE2E2E2E2E2E2E2E2E2E2E2E2E2E2E2E2E2E2
310
E2E2E2E2E2E2E2E2E2E2E2E2E2E2E2E2E2E2E2E2E2E2E2E2E2E2E2E2E2E2E2E2E2E2E2E2E2E2E2E2E2E2E2E2E2E2E2E2E2E2E2E2E2E2E2E2E2E2E2E2E2E2E2E2E2E2E2E2E2E2E2E2E2E2E2E2E2E2E2DCE2E2DCE2E2E2E2E2E2E2E2DCE2E2E2E2DCE2E2E2E2F5F5F5F5E2E2E2E2E2E2DCE2E2E2E2E2E2E2E2E2DCE2E2E2E2E2
310
E2E2E2E2E2E2E2E2E2E2E2E2E2E2E2E2E2E2E2E2E2E2E2E2E2E2E2E2E2E2E2E2E2DCE2E2BEE2E2E2E2E2E2E2E2E2E2E2E2E2E2E2E2E2E2E2E2E2E2E2E2E2E2E2E2E2E2E2E2E2E2E2E2E2E2E2E2E2E2E2E2E2E2E2E2E2E2E2E2E2E2E2E2E2E2E2E2E2E2E2E2E2E2E2E2E2E2BEE2E2DCE2E2E2E2E2E2E2E2E2E2E2E2E2E2E2E2
310
E2E2E2E2E2E2E2E2E2E2E2E2E2E2E2E2E2E2E2E2E2E2E2E2E2E2E2E2E2E2E2E2E2E2E2E2E2E2E2E2E2E2E2E2E2E2E2E2E2E2E2E2E2E2E2E2E2E2E2E2E2E2E2E2E2E2E2E2E2E2E2E2E2E2E2E2E2E2E2E2E2DCE2E2DCE2E2E2E2E2E2E2E2DCE2E2E2E2DCE2E2E2E2F5F5F5F5E2E2E2E2E2E2DCE2E2E2E2E2E2E2E2E2BEBEBEBE
310
BEBEBEBEBEBEBEBEBEBEBEBEBEE2E2BEBEE2E2E2BEBEBEE2BEBEBEE2E2E2E2E2E2E2E2DCE2E2BEE2E2E2E2E2E2E2E2E2E2E2E2E2E2E2E2E2E2E2E2E2E2E2E2E2E2E2E2E2E2E2E2E2E2E2E2E2E2E2E2E2E2E2E2E2E2E2E2E2E2E2E2E2E2E2E2E2E2E2E2E2E2E2E2E2E2E2E2E2E2BEE2E2DCE2E2E2E2E2E2E2E2E2E2E2E2E2E2
310
E2E2E2E2E2E2E2E2E2E2E2E2E2E2E2E2E2E2E2E2E2E2E2E2E2E2E2E2E2E2E2E2E2E2E2E2E2E2E2E2E2E2E2E2E2E2E2E2E2E2E2E2E2E2E2E2E2E2E2E2E2E2E2E2E2E2E2E2E2E2E2E2E2E2E2E2E2E2E2E2E2E2E2DCDCDCDCDCDCDCDCDCDCDCDCDCDCDCDCDCDCDCDCDCDCF5F5F5F5BEBEBEBEBEBEBEBEBEBEBEBEDCDCDCDCBEBE
310
BEBEBEBEBEBEBEBEBEBEBEBEBEBEBEE2E2BEBEBEE2E2BEBEBEBEBEBEBEE2E2E2E2E2E2E2E2DCE2E2BEE2E2E2E2E2E2E2E2E2E2E2E2E2E2E2E2E2E2E2E2E2E2E2E2E2E2E2E2E2E2E2E2E2E2E2E2E2E2E2E2E2E2E2E2E2E2E2E2E2E2E2E2E2E2E2E2E2E2E2E2E2E2E2E2E2E2E2E2E2E2BEE2E2DCE2E2E2E2E2E2E2E2E2E2E2E2
310
E2E2E2E2E2E2E2E2E2E2E2E2E2E2E2E2E2E2E2E2E2E2E2E2E2E2E2E2E2E2E2E2E2E2E2E2E2E2E2E2E2E2E2E2E2E2E2E2E2E2E2E2E2E2E2E2E2E2E2E2E2E2E2E2E2E2E2E2E2E2E2E2E2E2E2E2E2E2E2E2E2E2E2E2E2DCE2E2DCE2E2E2E2E2E2E2E2DCE2E2E2E2DCE2E2E2E2F5F5F5DCBEBEBEBEBEBEBEBEBEBEBEBEE2E2E2E2
310
BEBEBEBEBEBEBEBEBEBEBEBEBEBEBEBEBEE2BEBEBEBEBEE2BEBEBEBEBEBEBEE2E2E2E2E2E2E2E2DCE2E2BEE2E2E2E2E2E2E2E2E2E2E2E2E2E2E2E2E2E2E2E2E2E2E2E2E2E2E2E2E2E2E2E2E2E2E2E2E2E2E2E2E2E2E2E2E2E2E2E2E2E2E2E2E2E2E2E2E2E2E2E2E2E2E2E2E2E2E2E2E2E2BEE2E2DCE2E2E2E2E2E2E2E2E2E2
310
E2E2E2E2E2E2E2E2E2E2E2E2E2E2E2E2E2E2E2E2E2E2E2E2E2E2E2E2E2E2E2E2E2E2E2E2E2E2E2E2E2E2E2E2E2E2E2E2E2E2E2E2E2E2E2E2E2E2E2E2E2E2E2E2E2E2E2E2E2E2E2E2E2E2E2E2E2E2E2E2E2E2E2E2E2E2E2DCF5F5F5F5F5F5F5F5F5DCDCDCF5F5F5F5DCF5F5F5F5DCDCDCDCF5F5F5F5F5F5F5F5F5F5F5F5DCDC
310
DCDCF5F5F5F5F5F5F5F5F5F5E2F5F5F5E2E2E2E2E2E2E2E2E2E2E2E2E2E2E2E2E2E2E2E2E2E2E2E2E2DCE2E2BEE2E2E2E2E2E2E2E2E2E2E2E2E2E2E2E2E2E2E2E2E2E2E2E2E2E2E2E2E2E2E2E2E2E2E2E2E2E2E2E2E2E2E2E2E2E2E2E2E2E2E2E2E2E2E2E2E2E2E2E2E2E2E2E2E2E2E2E2E2E2BEE2E2DCE2E2E2E2E2E2E2E2
310
E2E2E2E2E2E2E2E2E2E2E2E2E2E2E2E2E2E2E2E2E2E2E2E2E2E2E2E2E2E2E2E2E2E2E2E2E2E2E2E2E2E2E2E2F5BEF5F5E2E2E2E2E2E2E2E2E2E2E2E2E2E2E2E2E2E2E2E2E2E2E2E2E2E2E2E2E2E2E2E2E2E2E2E2E2E2E2E2E2DCF5F5F5F5F5F5F5F5F5E2E2DCF5F5F5F5DCF5F5F5F5DCDCDCDCF5F5F5F5F5F5F5F5F5F5F5F5
310
E2E2E2E2F5F5F5F5F5F5F5F5F5F5F5F5F5F5E2E2E2E2E2E2E2E2E2E2E2E2E2E2E2E2E2E2E2E2E2E2E2E2E2DCE2E2BEE2E2E2E2E2E2E2E2E2E2E2E2E2E2E2E2E2E2E2E2E2E2E2E2E2E2E2E2E2E2E2E2E2E2E2E2E2E2E2E2E2E2E2E2E2E2E2E2E2E2E2E2E2E2E2E2E2E2E2E2E2E2E2E2E2E2E2E2E2E2BEE2E2DCE2E2E2E2E2E2
310
E2E2E2E2E2E2E2E22DF52D2DF5F5F5F5F5F5F5BEBEBEBEBEBEBEBEBEBEBEF5F5F5F5F5F5F5F5F5F5F5F5F5F5F5F5F5BEF5F5F5F5F5F5F5F5F5F5F5F5F5F5F5F5F5F5F5F5F5F5F5F5F5F5F5F5F5F5F5F5F5F5F5E2E2E2E2E2E2E2E2DCDCDCDCDCDCDCDCDCDCDCDCDCDCDCDCDCDCDCDCDCDCDCDCDCDCF5F5F5DCDCDCF5BEBEBE
310
DCBEBEBEBEDCDCDCDCDCDCDCDCDCDCDCDCF5DCDCDCDCDCDCDCDCDCDCDCDCDCDCDCDCDCDCDCDCDCDCDCDCDCDCDCDCE2E2BEE2E2E2E2E2E2E2E2E2E2E2E2E2E2E2E2E2E2E2E2E2E2E2E2E2E2E2E2E2E2E2E2E2E2E2E2E2E2E2E2E2E2E2E2E2E2E2E2E2E2E2E2E2E2E2E2E2E2E2E2E2E2E2E2E2E2E2E2E2E2BEE2E2DCE2E2E2E2
310
E2E2E2E2E2E2E2E2E2E2E22DE2E2F5E2E2E2E2E2E2BE2828E2E2E2E2E2BE28BEE2E2E2E2E2E2E2E2E2E2E2E2E2E2E2E2E2BEE2E2E2E2E2E2E2E2E2E2E2E2E2E2E2E2E2E2E2E2E2E2E2E2E2E2E2E2E2E2E2E2E2E2F5E2E2E2E2E2E2E2E2DCE2E2E2E2E2E2E2E2E2E2E2E2E2E2E2E2E2E2E2E2E2DCE2E2E2E2E2E2E2E2E2DCBE
310
BEBEE2BEBEBEBEE2DCE2E2E2E2E2E2E2E2E2E2E2E2E2DCE2E2E2E2E2E2E2E2E2E2E2E2E2E2DCE2E2E2E2E2E2E2E2E2DCE2E2BEE2E2E2E2E2E2E2E2E2E2E2E2E2E2E2E2E2E2E2E2E2E2E2E2E2E2E2E2E2E2E2E2E2E2E2E2E2E2E2E2E2E2E2E2E2E2E2E2E2E2E2E2E2E2E2E2E2E2E2E2E2E2E2E2E2E2E2E2E2E2BEE2E2DCE2E2
310
E2E2E2E2E2E2E2E2E2E2E2E2E22DE2E2F5F5F5F5F5F5F5BEF5F5F5F5F5F5F5BE28BEF5F5F5F5F5F5F5F5F5F5F5F5F5F5F5F5F5BEF5F5F5F5F5F5F5F5F5F5F5F5F5F5F5F5F5F5F5F5F5F5F5F5F5F5F5F5F5F5F5F5F5F5F5F5E2E2E2E2E2E2E2DCE2E2E2E2E2E2E2E2E2E2E2E2E2E2E2E2E2E2E2E2E2DCDCDCDCDCDCDCDCDCDC
310
BEBEBEBEBEBEBEBEBEBEDCF5F5F5F5F5F5F5F5F5F5F5E2E2DCF5F5F5F5F5F5F5F5F5F5F5F5E2E2DCF5F5F5F5E2F5F5F5F5DCE2E2BEE2E2E2E2E2E2E2E2E2E2E2E2E2E2E2E2E2E2E2E2E2E2E2E2E2E2E2E2E2E2E2E2E2E2E2E2E2E2E2E2E2E2E2E2E2E2E2E2E2E2E2E2E2E2E2E2E2E2E2E2E2E2E2E2E2E2E2E2E2E2BEE2E2DC
310
E2E2E2E2E2E2E2E2E2E2E2E2E2E2E22DE2E2F5E2E2E2E2E228BEE2E2E2E2BEE2E2BEE2BEE2E2E2E2E2E2E2E2E2E2E2E2E2E2E2E2E2BEE2E2E2E2E2E2E2E2E2E2E2E2E2E2E2E2E2E2E2E2E2E2E2E2E2E2E2E2E2E2E2E2E2E2E2F5E2E2E2E2E2E2E2DCE2E2E2E2E2E2E2E2E2E2E2E2E2E2E2E2E2E2E2E2E2DCE2E2E2E2E2E2E2
310
E2E2BEBEBEBEBEBEBEBEBEBEDCF5F5F5F5F5F5F5F5F5F5F5DCDCDCF5F5F5F5F5F5F5F5F5F5F5F5DCDCDCF5F5F5F5F5F5F5F5F5DCE2E2BEE2E2E2E2E2E2E2E2E2E2E2E2E2E2E2E2E2E2E2E2E2E2E2E2E2E2E2E2E2E2E2E2E2E2E2E2E2E2E2E2E2E2E2E2E2E2E2E2E2E2E2E2E2E2E2E2E2E2E2E2E2E2E2E2E2E2E2E2E2E2BEE2
310
E2DCE2E2E2E2E2E2E2E2E2E2E2E2E2E2E22DE2E2F5E2E2E2E2E228BEE2E228282828E2BEE2BEE2E2E2E2E2E2E2E2E2E2E2E2E2E2E2E2E2E2E2E2E2E2E2E2E2E2E2E2E2E2E2E2E2E2E2E2E2E2E2E2E2E2E2E2E2E2E2E2E2E2E2E2E2F5E2E2E2E2E2E2E2DCE2E2E2E2E2E2E2E2E2E2E2E2E2E2E2E2E2E2E2E2E2DCDCDCDCDCDC
310
DCDCDCDCDCDCDCDCDCDCDCDCDCDCDCE2E2E2BEBEBEBEBEBEBEE2E2E2DCE2E2E2E2E2E2E2E2E2E2E2E2E2E2DCE2E2E2E2BEBEBEBEBEDCE2E2BEE2E2E2E2E2E2E2E2E2E2E2E2E2E2E2E2E2E2E2E2E2E2E2E2E2E2E2E2E2E2E2E2E2E2E2E2E2E2E2E2E2E2E2E2E2E2E2E2E2E2E2E2E2E2E2E2E2E2E2E2E2E2E2E2E2E2E2E2E2E2
310
BEE2E2DCE2E2E2E2E2E2E2E2E2E2E2E2E2E2E22DE2E2F5E2E2E2E2E228BEE2282828282828BEE2BEE2E2E2E2E2E2E2E2E2E2E2E2E2E2E2E2E2E2E2E2E2E2E2E2E2E2E2E2E2E2E2E2E2E2E2E2E2E2E2E2E2E2E2E2E2E2E2E2E2E2E2E2E2F5E2E2E2E2E2E2E2DCE2E2E2E2E2E2E2E2E2E2E2E2E2E2E2E2E2E2E2E2E2DCF5F5F5
310
F5F5F5F5F5E2DCE2E2BEBEBEBEE2E2E2DCE2E2BEBEE2BEBEBEBEBEE2E2E2DCE2E2E2E2E2E2E2E2E2E2E2E2E2E2DCE2E2E2BEBEBEBEE2BEDCE2E2BEE2E2E2E2E2E2E2E2E2E2E2E2E2E2E2E2E2E2E2E2E2E2E2E2E2E2E2E2E2E2E2E2E2E2E2E2E2E2E2E2E2E2E2E2E2E2E2E2E2E2E2E2E2E2E2E2E2E2E2E2E2E2E2E2E2E2E2E2
310
E2E2BEE2E2DCE2E2E2E2E2E2E2E2E2E2E2E2E2E2E22DE2E2F5E2E2E2E2E228BEE22828BEBE2828BEE2BEE2E2E2E2E2E2E2E2E2E2E2E2E2E2E2E2E2E2E2E2E2E2E2E2E2E2E2E2E2E2E2E2E2E2E2E2E2E2E2E2E2E2E2E2E2E2E2E2E2E2E2E2E2F5E2E2E2E2E2E2E2DCE2E2E2E2E2E2E2E2E2E2E2E2E2E2E2E2E2E2E2E2E2DCE2
310
F5F5E2E2F5F5F5E2DCE2E2F5F5F5F5E2E2E2DCE2E2F5F5F5F5F5F5F5E2E2E2E2DCE2E2E2F5F5F5F5F5F5F5F5E2E2E2DCE2F5F5F5F5F5F5F5E2DCE2E2BEE2E2E2E2E2E2E2E2E2E2E2E2E2E2E2E2E2E2E2E2E2E2E2E2E2E2E2E2E2E2E2E2E2E2E2E2E2E2E2E2E2E2E2E2E2E2E2E2E2E2E2E2E2E2E2E2E2E2E2E2E2E2E2E2E2E2
310
E2E2E2E2BEE2E2DCE2E2E2E2E2E2E2E2E2E2E2E2E2E2E22DE2E2F5E2E2E2E2E228BEE22828E2BE2828BEE2BEE2E2E2E2E2E228282828282828282828282828282828282828282828282828282828282828282828282828282828282828E2E2E2E2F5E2E2E2E2E2E2E2DCDCDCDCDCDCDCDCDCDCDCDCDCDCDCDCDCDCDCDCDCDC
310
DCDCDCDCDCDCDCDCDCDCDCDCDCDCDCDCDCDCDCDCDCDCDCDCDCDCDCDCDCDCDCDCDCDCDCDCDCDCDCDCDCDCDCDCDCDCDCDCDCDCDCDCDCDCDCDCDCDCDCDCE2E2BEE2E2E2E2E2E2E2E2E2E2E2E2E2E2E2E2E2E2E2E2E2E2E2E2E2E2E2E2E2E2E2E2E2E2E2E2E2E2E2E2E2E2E2E2E2E2E2E2E2E2E2E2E2E2E2E2E2E2E2E2E2E2E2E2
310
E2E2E2E2E2E2BEE2E2DCE2E2E2E2E2E2E2E2E2E2E2E2E2E2E22DE2E2F5E2E2E2E2E228BEE2282828282828BEE2BEE2E2E2E2E2E228E2E2E2E2E2E2E2E2E2E2E2E2E2E2E2E2E2E2E2E2E2E2E2E2E2E2E2E2E2E2E2E2E2E2E2E2E2E2E2E2E22828E2E2E2F5E2E2E2E2E2E2E2E2E2E2E2E2E2E2E2E2E2E2E2E2E2E2E2E2E2E2E2
310
E2E2E2E2E2E2E2E2E2E2E2E2E2E2E2E2E2E2E2E2E2E2E2E2E2E2E2E2E2E2E2E2E2E2E2E2E2E2E2E2E2E2E2E2E2E2E2E2E2E2E2E2E2E2E2E2E2E2E2E2E2DCE2E2BEE2E2E2E2E2E2E2E2E2E2E2E2E2E2E2E2E2E2E2E2E2E2E2E2E2E2E2E2E2E2E2E2E2E2E2E2E2E2E2E2E2E2E2E2E2E2E2E2E2E2E2E2E2E2E2E2E2E2E2E2E2E2
310
E2E2E2E2E2E2E2E2BEE2E2DCE2E2E2E2E2E2E2E2E2E2E2E2E2BEBE2DE2E2F5E2E2E2E2E228BEE2E2E2282828E2BEE2BEE2E2E2E2E2E228E2E2E2E2E2E2E2E2E2E2E2E2E2E2E2E2E2E2E2E2E2E2E2E2E2E2E2E2E2E2E2E2E2E2E2E2E2E2E2E2E22828E2E2E2F5E2E2E2E2E2E2E2E2E2E2E2E2E2E2E2E2E2E2E2E2E2E2E2E2E2
310
E2E2E2E2E2E2E2E2E2E2E2E2E2E2E2E2E2E2E2E2E2E2E2E2E2E2E2E2E2E2E2E2E2E2E2E2E2E2E2E2E2E2E2E2E2E2E2E2E2E2E2E2E2E2E2E2E2E2E2E2E2E2E2DCE2E2BEE2E2E2E2E2E2E2E2E2E2E2E2E2E2E2E2E2E2E2E2E2E2E2E2E2E2E2E2E2E2E2E2E2E2E2E2E2E2E2E2E2E2E2E2E2E2E2E2E2E2E2E2E2E2E2E2E2E2E2E2
310
E2E2E2E2E2E2E2E2E2E2BEE2E2DCE2E2E2E2E2E2E2E2E2E2E2E2E2BEBE2DE2E2F5E2E2E2E2E228BEE2E2E2E2E2E2E2BEE2BEE2E2E2E2E2E228E2E2E2E2E2E2E2E2E2E2E2E2E2E2E2E2E2E2E2E2E2E2E2E2E2E2E2E2E2E2E2E2E2E2E2E2E2E2E2E2E22828E2E2E2F5E2E2E2E2E2E2E2E2E2E2E2E2E2E2E2E2E2E2E2E2E2E2E2
310
E2E2E2E2E2E2E2E2E2E2E2E2E2E2E2E2E2E2E2E2E2E2E2E2E2E2E2E2E2E2E2E2E2E2E2E2E2E2E2E2E2E2E2E2E2E2E2E2E2E2E2E2E2E2E2E2E2E2E2E2E2E2E2E2E2DCE2E2BEE2E2E2E2E2E2E2E2E2E2E2E2E2E2E2E2E2E2E2E2E2E2E2E2E2E2E2E2E2E2E2E2E2E2E2E2E2E2E2E2E2E2E2E2E2E2E2E2E2E2E2E2E2E2E2E2E2E2
310
E2E2E2E2E2E2E2E2E2E2E2E2BEE2E2DCE2E2E2E2E2E2E2E2E2E2E2E2E2BEBE2DE2E2F5E2E2E2E2E228BE28282828282828BE28BEE2E2E2E2E2E228E2E2E2E2E2E2E2E2E2E2E2E2E2E2E2E2E2E2E2E2E2E2E2E2E2E2E2E2E2E2E2E2E2E2E2E2E2E2E2E2E22828E2E2E2F5E2E2E2E2E2E2E2E2E2E2E2E2E2E2E2E2E2E2E2E2E2
310
E2E2E2E2E2E2E2E2E2E2E2E2E2E2E2E2E2E2E2E2E2E2E2E2E2E2E2E2E2E2E2E2E2E2E2E2E2E2E2E2E2E2E2E2E2E2E2E2E2E2E2E2E2E2E2E2E2E2E2E2E2E2E2E2E2E2E2DCE2E2BEE2E2E2E2E2E2E2E2E2E2E2E2E2E2E2E2E2E2E2E2E2E2E2E2E2E2E2E2E2E2E2E2E2E2E2E2E2E2E2E2E2E2E2E2E2E2E2E2E2E2E2E2E2E2E2E2
310
E2E2E2E2E2E2E2E2E2E2E2E2E2E2BEE2E2DCE2E2E2E2E2E2E2E2E2E2E2E2E2E2E22DE2E2F5E2E2E2E2E228BE282828E2E2E228BEBEBEE2E2E2E228E228E2E2E2E2E2E2E2E2E2E2E2E2E2E2E2E2E2E2E2E2E2E2E2E2E2E2E2E2E2E2E2E2E2E2E2E2E2E2E2E2E22828E2E2E2F5E2E2E2E2E2E2E2E2E2E2E2E2E2E2E2E2E2E2E2
310
E2E2E2E2E2E2E2E2E2E2E2E2E2E2E2E2E2E2E2E2E2E2E2E2E2E2E2E2E2E2E2E2E2E2E2E2E2E2E2E2E2E2E2E2E2E2E2E2E2E2E2E2E2E2E2E2E2E2E2E2E2E2E2E2E2E2E2E2E2DCE2E2BEE2E2E2E2E2E2E2E2E2E2E2E2E2E2E2E2E2E2E2E2E2E2E2E2E2E2E2E2E2E2E2E2E2E2E2E2E2E2E2E2E2E2E2E2E2E2E2E2E2E2E2E2E2E2
310
E2E2E2E2E2E2E2E2E2E2E2E2E2E2E2E2BEE2E2DCE2E2E2E2E2E2E2E2E2E2E2E2E2E2E22DE2E2F5E2E2E2282828BEBEBEBEBEBEBEBEBEBEBEBEBEE2E228E228E2E2E2E2E2E2E2E2E2E2E2E2E2E2E2E2E2E2E2E2E2E2E2E2E2E2E2E2E2E2E2E2E2E2E2E2E2E2E2E2E22828E2E2E2F5E2E2E2E2E2E2E2E2E2E2E2E2E2E2E2E2E2
310
E2E2E2E2E2E2E2E2E2E2E2E2E2E2E2E2E2E2E2E2E2E2E2E2E2E2E2E2E2E2E2E2E2E2E2E2E2E2E2E2E2E2E2E2E2E2E2E2E2E2E2E2E2E2E2E2E2E2E2E2E2E2E2E2E2E2E2E2E2E2E2DCE2E2BEE2E2E2E2E2E2E2E2E2E2E2E2E2E2E2E2E2E2E2E2E2E2E2E2E2E2E2E2E2E2E2E2E2E2E2E2E2E2E2E2E2E2E2E2E2E2E2E2E2E2E2E2
310
E2E2E2E2E2E2E2E2E2E2E2E2E2E2E2E2E2E2BEE2E2DCE2E2E2E2E2E2E2E2E2E2E2E2E2E2E22DE2E2F5E2E2E2BEBEBEE2E2E2E2BEE2E2E2E2BEE2E2BEE2E228E228E2E2E2E2E2E2E2E2E2E2E2E2E2E2E2E2E2E2E2E2E2E2E2E2E2E2E2E2E2E2E2E2E2E2E2E2E2E2E2E2E22828E2E2E2F5E2E2E2E2E2E2E2E2E2E2E2E2E2E2E2
310
E2E2E2E2E2E2E2E2E2E2E2E2E2E2E2E2E2E2E2E2E2E2E2E2E2E2E2E2E2E2E2E2E2E2E2E2E2E2E2E2E2E2E2E2E2E2E2E2E2E2E2E2E2E2E2E2E2E2E2E2E2E2E2E2E2E2E2E2E2E2E2E2E2DCE2E2BEE2E2E2E2E2E2E2E2E2E2E2E2E2E2E2E2E2E2E2E2E2E2E2E2E2E2E2E2E2E2E2E2E2E2E2E2E2E2E2E2E2E2E2E2E2E2E2E2E2E2
310
E2E2E2E2E2E2E2E2E2E2E2E2E2E2E2E2E2E2E2E2BEE2E2DCE2E2E2E2E2E2E2E2E2E2E2E2E2E2E22DE2E2F5E2E2E22828BEE2E2E2E2BEE2E2E2E2BEE2E2BEE2E228E228E2E2E2E2E2E2E2E2E2E2E2E2E2E2E2E2E2E2E2E2E2E2E2E2E2E2E2E2E2E2E2E2E2E2E2E2E2E2E2E2E22828E2E2E2F5E2E2E2E2E2E2E2E2E2E2E2E2E2
310
E2E2E2E2E2E2E2E2E2E2E2E2E2E2E2E2E2E2E2E2E2E2E2E2E2E2E2E2E2E2E2E2E2E2E2E2E2E2E2E2E2E2E2E2E2E2E2E2E2E2E2E2E2E2E2E2E2E2E2E2E2E2E2E2E2E2E2E2E2E2E2E2E2E2E2DCE2E2BEE2E2E2E2E2E2E2E2E2E2E2E2E2E2E2E2E2E2E2E2E2E2E2E2E2E2E2E2E2E2E2E2E2E2E2E2E2E2E2E2E2E2E2E2E2E2E2E2
310
E2E2E2E2E2E2E2E2E2E2E2E2E2E2E2E2E2E2E2E2E2E2BEE2E2DCE2E2E2E2E2E2E2E2E2E2E2E2E2E2E22DE2E2F5E2E2E228E2BEE2E2E2E2BEE2E2E2E2BEE2E2BEE2E228E228282828282828282828282828282828282828282828282828282828282828282828282828282828282828E2E2E2E2F5E2E2E2E2E2E2E2E2E2E2E2
310
E2E2E2E2E2E2E2E2E2E2E2E2E2E2E2E2E2E2E2E2E2E2E2E2E2E2E2E2E2E2E2E2E2E2E2E2E2E2E2E2E2E2E2E2E2E2E2E2E2E2E2E2E2E2E2E2E2E2E2E2E2E2E2E2E2E2E2E2E2E2E2E2E2E2E2E2E2DCE2E2BEE2E2E2E2E2E2E2E2E2E2E2E2E2E2E2E2E2E2E2E2E2E2E2E2E2E2E2E2E2E2E2E2E2E2E2E2E2E2E2E2E2E2E2E2E2E2
310
E2E2E2E2E2E2E2E2E2E2E2E2E2E2E2E2E2E2E2E2E2E2E2E2BEE2E2DCE2E2E2E2E2E2E2E2E2E2E2E2E2E2E22DE2E2F5E2E2E228E2BEE2E2E2E2BEE2E2E2E2BEE2E2BEE2E228E2E2E2E2E2E2E2E2E2E2E2E2E2E2E2E2E2E2E2E2E2E2E2E2E2E2E2E2E2E2E2E2E2E2E2E2E2E2E2E2E2E2E2E2E2E2E2E2F5E2E2E2E2E2E2E2E2E2
310
E2E2E2E2E2E2E2E2E2E2E2E2E2E2E2E2E2E2E2E2E2E2E2E2E2E2E2E2E2E2E2E2E2E2E2E2E2E2E2E2E2E2E2E2E2E2E2E2E2E2E2E2E2E2E2E2E2E2E2E2E2E2E2E2E2E2E2E2E2E2E2E2E2E2E2E2E2E2E2DCE2E2BEE2E2E2E2E2E2E2E2E2E2E2E2E2E2E2E2E2E2E2E2E2E2E2E2E2E2E2E2E2E2E2E2E2E2E2E2E2E2E2E2E2E2E2E2
310
E2E2E2E2E2E2E2E2E2E2E2E2E2E2E2E2E2E2E2E2E2E2E2E2E2E2BEE2E2DCE2E2E2E2E2E2E2E2E2E2E2E2E2E2E22DE2E2F5E2E2E228E2BEE2E2E2E2BEE2E2E2E2BEE2E2BEE2E228E2E2E2E2E2E2E2E2E2E2E2E2E2E2E2E2E2E2E2E2E2E2E2E2E2E2E2E2E2E2E2E2E2E2E2E2E2E2E2E2E2E2E2E2E2E2E2E2F5E2E2E2E2E2E2E2
310
E2E2E2E2E2E2E2E2E2E2E2E2E2E2E2E2E2E2E2E2E2E2E2E2E2E2E2E2E2E2E2E2E2E2E2E2E2E2E2E2E2E2E2E2E2E2E2E2E2E2E2E2E2E2E2E2E2E2E2E2E2E2E2E2E2E2E2E2E2E2E2E2E2E2E2E2E2E2E2E2E2DCE2E2BEE2E2E2E2E2E2E2E2E2E2E2E2E2E2E2E2E2E2E2E2E2E2E2E2E2E2E2E2E2E2E2E2E2E2E2E2E2E2E2E2E2E2
310
E2E2E2E2E2E2E2E2E2E2E2E2E2E2E2E2E2E2E2E2E2E2E2E2E2E2E2E2BEE2E2DCE2E2E2E2E2E2E2E2E2E2E2E2E2E2E22DE2E2F5E2E2E228E2BEE2E2E2E2BEE2E2E2E2BEE2E2BEE2E228E2E2E2E2E2E2E2E2E2E2E2E2E2E2E2E2E2E2E2E2E2E2E2E2E2E2E2E2E2E2E2E2E2E2E2E2E2E2E2E2E2E2E2E2E2E2E2E2F5E2E2E2E2E2
310
E2E2E2E2E2E2E2E2E2E2E2E2E2E2E2E2E2E2E2E2E2E2E2E2E2E2E2E2E2E2E2E2E2E2E2E2E2E2E2E2E2E2E2E2E2E2E2E2E2E2E2E2E2E2E2E2E2E2E2E2E2E2E2E2E2E2E2E2E2E2E2E2E2E2E2E2E2E2E2E2E2E2E2DCE2E2BEE2E2E2E2E2E2E2E2E2E2E2E2E2E2E2E2E2E2E2E2E2E2E2E2E2E2E2E2E2E2E2E2E2E2E2E2E2E2E2E2
310
E2E2E2E2E2E2E2E2E2E2E2E2E2E2E2E2E2E2E2E2E2E2E2E2E2E2E2E2E2E2BEE2E2DCE2E2E2E2E2E2E2E2E2E2E2E2E2E2E22DE2E2F5E2E2E228E2BEBEBEBEBEBEBEBEBEBEBEBEBEBEE2E228E2E2E2E2E2E2E2E2E2E2E2E2E2E2E2E2E2E2E2E2E2E2E2E2E2E2E2E2E2E2E2E2E2E2E2E2E2E2E2E2E2E2E2E2E2E2E2E2F5E2E2E2
310
E2E2E2E2E2E2E2E2E2E2E2E2E2E2E2E2E2E2E2E2E2E2E2E2E2E2E2E2E2E2E2E2E2E2E2E2E2E2E2E2E2E2E2E2E2E2E2E2E2E2E2E2E2E2E2E2E2E2E2E2E2E2E2E2E2E2E2E2E2E2E2E2E2E2E2E2E2E2E2E2E2E2E2E2E2DCE2E2BEE2E2E2E2E2E2E2E2E2E2E2E2E2E2E2E2E2E2E2E2E2E2E2E2E2E2E2E2E2E2E2E2E2E2E2E2E2E2
310
E2E2E2E2E2E2E2E2E2E2E2E2E2E2E2E2E2E2E2E2E2E2E2E2E2E2E2E2E2E2E2E2BEE2E2DCE2E2E2E2E2E2E2E2E2E2E2E2E2E22D2D2D2DF5F5F5F52828BEBE28282828282828BEBE282828F5F528F5F5F5F5F5F5F5F5F5F5F5F5F5F5F5F5F5F5F5F5F5F5F5F5F5F5F5F5F5F5F5F5F5F5F5F5F5F5F5F5F5F5F5F5F5F5F5F5F5E2
310
E2E2E2E2E2E2E2E2E2E2E2E2E2E2E2E2E2E2E2E2E2E2E2E2E2E2E2E2E2E2E2E2E2E2E2E2E2E2E2E2E2E2E2E2E2E2E2E2E2E2E2E2E2E2E2E2E2E2E2E2E2E2E2E2E2E2E2E2E2E2E2E2E2E2E2E2E2E2E2E2E2E2E2E2E2E2E2DCE2E2BEE2E2E2E2E2E2E2E2E2E2E2E2E2E2E2E2E2E2E2E2E2E2E2E2E2E2E2E2E2E2E2E2E2E2E2E2
310
E2E2E2E2E2E2E2E2E2E2E2E2E2E2E2E2E2E2E2E2E2E2E2E2E2E2E2E2E2E2E2E2E2E2BEE2E2DCE2E2E2E2E2E2E2E2E2E2E2E2E2E2E2E2E2E22DE2E2E2E2E2E2E2E2E2E2E2E2E2E2E2E2E2E2E2E2E2E2E2E2E2E2E2E2E2E2E2E2E2E2E2E2E2E2E2E2E2E2E2E2E2E2E2E2E2E2E2E2E2E2E2E2E2E2E2E2E2E2E2E2E2E2E2E2E2E2
310
2DE2E2E2E2E2E2E2E2E2E2E2E2E2E2E2E2E2E2E2E2E2E2E2E2E2E2E2E2E2E2E2E2E2E2E2E2E2E2E2E2E2E2E2E2E2E2E2E2E2E2E2E2E2E2E2E2E2E2E2E2E2E2E2E2E2E2E2E2E2E2E2E2E2E2E2E2E2E2E2E2E2E2E2E2E2E2E2E2DCE2E2BEE2E2E2E2E2E2E2E2E2E2E2E2E2E2E2E2E2E2E2E2E2E2E2E2E2E2E2E2E2E2E2E2E2E2
310
E2E2E2E2E2E2E2E2E2E2E2E2E2E2E2E2E2E2E2E2E2E2E2E2E2E2E2E2E2E2E2E2E2E2E2E2BEE2E2DCE2E2E2E2E2E2E2E2E2E2E2E2E2E2E2E2E2E2F52D2D2D2D2D2D2D2D2D2D2D2D2D2D2D2D2D2D2D2D2D2D2D2D2D2D2D2D2D2D2D2D2D2DBEBEBE2D2D2D2D2D2D2D2D2D2D2D2D2D2D2D2D2D2D2D2D2D2D2D2D2D2D2D2D2D2D2D
310
2D2D2DE2E2E2E2E2E2E2E2E2E2E2E2E2E2E2E2E2E2E2E2E2E2E2E2E2E2E2E2E2E2E2E2E2E2E2E2E2E2E2E2E2E2E2E2E2E2E2E2E2E2E2E2E2E2E2E2E2E2E2E2E2E2E2E2E2E2E2E2E2E2E2E2E2E2E2E2E2E2E2E2E2E2E2E2E2E2E2E2DCE2E2BEE2E2E2E2E2E2E2E2E2E2E2E2E2E2E2E2E2E2E2E2E2E2E2E2E2E2E2E2E2E2E2E2
310
E2E2E2E2E2E2E2E2E2E2E2E2E2E2E2E2E2E2E2E2E2E2E2E2E2E2E2E2E2E2E2E2E2E2E2E2E2E2BEE2E2DCE2E2E2E2E2E2E2E2E2E2E2E2E2E2E2E2E2E2E2E2E2E2E2E2E2E2E2E2E2E2E2E2E2E2E2E2E2E2E2E2E2E2E2E2E2E2E2E2E2E2E2E2BEBEBEBEE2E2E2E2E2E2E2E2E2E2E2E2E2E2E2E2E2E2E2E2E2E2E2E2E2E2E2E2E2
310
E2E2E2E2E2E2E2E2E2E2E2E2E2E2E2E2E2E2E2E2E2E2E2E2E2E2E2E2E2E2E2E2E2E2E2E2E2E2E2E2E2E2E2E2E2E2E2E2E2E2E2E2E2E2E2E2E2E2E2E2E2E2E2E2E2E2E2E2E2E2E2E2E2E2E2E2E2E2E2E2E2E2E2E2E2E2E2E2E2E2E2E2E2DCE2E2BEE2E2E2E2E2E2E2E2E2E2E2E2E2E2E2E2E2E2E2E2E2E2E2E2E2E2E2E2E2E2
310
E2E2E2E2E2E2E2E2E2E2E2E2E2E2E2E2E2E2E2E2E2E2E2E2E2E2E2E2E2E2E2E2E2E2E2E2E2E2E2E2BEE2E2DCE2E2E2E2E2E2E2E2E2E2E2E2E2E2E2E2E2E2E2E2E2E2E2E2E2E2E2E2E2E2E2E2E2E2E2E2E2E2E2E2E2E2E2E2E2E2E2E2E2E2E2E2E2BEBEBEE2E2E2E2E2E2E2E2E2E2E2E2E2E2E2E2E2E2E2E2E2E2E2E2E2E2E2
310
E2E2E2E2E2E2E2E2E2E2E2E2E2E2E2E2E2E2E2E2E2E2E2E2E2E2E2E2E2E2E2E2E2E2E2E2E2E2E2E2E2E2E2E2E2E2E2E2E2E2E2E2E2E2E2E2E2E2E2E2E2E2E2E2E2E2E2E2E2E2E2E2E2E2E2E2E2E2E2E2E2E2E2E2E2E2E2E2E2E2E2E2E2E2E2DCE2E2BEE2E2E2E2E2E2E2E2E2E2E2E2E2E2E2E2E2E2E2E2E2E2E2E2E2E2E2E2
310
E2E2E2E2E2E2E2E2E2E2E2E2E2E2E2E2E2E2E2E2E2E2E2E2E2E2E2E2E2E2E2E2E2E2E2E2E2E2E2E2E2E2BEE2E2DCE2E2E2E2E2E2E2E2E2E2E2E2E2E2E2E2E2E2E2E2E2E2E2E2E2E2E2E2E2E2E2E2E2E2E2E2E2E2E2E2E2E2E2E2E2E2E2E2E2E2E2E2E2E2E2E2E2E2E2E2E2E2E2E2E2E2E2E2E2E2E2E2E2E2E2E2E2E2E2E2E2
310
E2E2E2E2E2E2E2E2E2E2E2E2E2E2E2E2E2E2E2E2E2E2E2E2E2E2E2E2E2E2E2E2E2E2E2E2E2E2E2E2E2E2E2E2E2E2E2E2E2E2E2E2E2E2E2E2E2E2E2E2E2E2E2E2E2E2E2E2E2E2E2E2E2E2E2E2E2E2E2E2E2E2E2E2E2E2E2E2E2E2E2E2E2E2E2E2E2DCE2E2BEE2E2E2E2E2E2E2E2E2E2E2E2E2E2E2E2E2E2E2E2E2E2E2E2E2E2
310
E2E2E2E2E2E2E2E2E2E2E2E2E2E2E2E2E2E2E2E2E2E2E2E2E2E2E2E2E2E2E2E2E2E2E2E2E2E2E2E2E2E2E2E2BEE2E2DCE2E2E2E2E2E2E2E2E2E2E2E2E2E2E2E2E2E2E2E2E2E2E2E2E2E2E2E2E2E2E2E2E2E2E2E2E2E2E2E2E2E2E2E2E2E2E2E2E2E2E2E2E2E2E2E2E2E2E2E2E2E2E2E2E2E2E2E2E2E2E2E2E2E2E2E2E2E2E2
310
E2E2E2E2E2E2E2E2E2E2E2E2E2E2E2E2E2E2E2E2E2E2E2E2E2E2E2E2E2E2E2E2E2E2E2E2E2E2E2E2E2E2E2E2E2E2E2E2E2E2E2E2E2E2E2E2E2E2E2E2E2E2E2E2E2E2E2E2E2E2E2E2E2E2E2E2E2E2E2E2E2E2E2E2E2E2E2E2E2E2E2E2E2E2E2E2E2E2E2DCE2E2BEE2E2E2E2E2E2E2E2E2E2E2E2E2E2E2E2E2E2E2E2E2E2E2E2
310
E2E2E2E2E2E2E2E2E2E2E2E2E2E2E2E2E2E2E2E2E2E2E2E2E2E2E2E2E2E2E2E2E2E2E2E2E2E2E2E2E2E2E2E2E2E2BEE2E2DCE2E2E2E2E2E2E2E2E2E2E2E2E2E2E2E2E2E2E2E2E2E2E2E2E2E2E2E2E2E2E2E2E2E2E2E2E2E2E2E2E2E2E2E2E2E2E2E2E2E2E2E2E2E2E2E2E2E2E2E2E2E2E2E2E2E2E2E2E2E2E2E2E2E2E2E2E2
310
E2E2E2E2E2E2E2E2E2E2E2E2E2E2E2E2E2E2E2E2E2E2E2E2E2E2E2E2E2E2E2E2E2E2E2E2E2E2E2E2E2E2E2E2E2E2E2E2E2E2E2E2E2E2E2E2E2E2E2E2E2E2E2E2E2E2E2E2E2E2E2E2E2E2E2E2E2E2E2E2E2E2E2E2E2E2E2E2E2E2E2E2E2E2E2E2E2E2E2E2E2DCE2E2BEE2E2E2E2E2E2E2E2E2E2E2E2E2E2E2E2E2E2E2E2E2E2
310
E2E2E2E2E2E2E2E2E2E2E2E2E2E2E2E2E2E2E2E2E2E2E2E2E2E2E2E2E2E2E2E2E2E2E2E2E2E2E2E2E2E2E2E2E2E2E2E2BEE2E2DCE2E2E2E2E2E2E2E2E2E2E2E2E2E2E2E2E2E2E2E2E2E2E2E2E2E2E2E2E2E2E2E2E2E2E2E2E2E2E2E2E2E2E2E2E2E2E2E2E2E2E2E2E2E2E2E2E2E2E2E2E2E2E2E2E2E2E2E2E2E2E2E2E2E2E2
310
E2E2E2E2E2E2E2E2E2E2E2E2E2E2E2E2E2E2E2E2E2E2E2E2E2E2E2E2E2E2E2E2E2E2E2E2E2E2E2E2E2E2E2E2E2E2E2E2E2E2E2E2E2E2E2E2E2E2E2E2E2E2E2E2E2E2E2E2E2E2E2E2E2E2E2E2E2E2E2E2E2E2E2E2E2E2E2E2E2E2E2E2E2E2E2E2E2E2E2E2E2E2E2DCE2E2BEE2E2E2E2E2E2E2E2E2E2E2E2E2E2E2E2E2E2E2E2
310
E2E2E2E2E2E2E2E2E2E2E2E2E2E2E2E2E2E2E2E2E2E2E2E2E2E2E2E2E2E2E2E2E2E2E2E2E2E2E2E2E2E2E2E2E2E2E2E2E2E2BEE2E2DCE2E2E2E2E2E2E2E2E2E2E2E2E2E2E2E2E2E2E2E2E2E2E2E2E2E2E2E2E2E2E2E2E2E2E2E2E2E2E2E2E2E2E2E2E2E2E2E2E2E2E2E2E2E2E2E2E2E2E2E2E2E2E2E2E2E2E2E2E2E2E2E2E2
310
E2E2E2E2E2E2E2E2E2E2E2E2E2E2E2E2E2E2E2E2E2E2E2E2E2E2E2E2E2E2E2E2E2E2E2E2E2E2E2E2E2E2E2E2E2E2E2E2E2E2E2E2E2E2E2E2E2E2E2E2E2E2E2E2E2E2E2E2E2E2E2E2E2E2E2E2E2E2E2E2E2E2E2E2E2E2E2E2E2E2E2E2E2E2E2E2E2E2E2E2E2E2E2E2E2DCE2E2BEE2E2E2E2E2E2E2E2E2E2E2E2E2E2E2E2E2E2
310
E2E2E2E2E2E2E2E2E2E2E2E2E2E2E2E2E2E2E2E2E2E2E2E2E2E2E2E2E2E2E2E2E2E2E2E2E2E2E2E2E2E2E2E2E2E2E2E2E2E2E2E2BEE2E2DCE2E2E2E2E2E2E2E2E2E2E2E2E2E2E2E2E2E2E2E2E2E2E2E2E2E2E2E2E2E2E2E2E2E2E2E2E2E2E2E2E2E2E2E2E2E2E2E2E2E2E2E2E2E2E2E2E2E2E2E2E2E2E2E2E2E2E2E2E2E2E2
310
E2E2E2E2E2E2E2E2E2E2E2E2E2E2E2E2E2E2E2E2E2E2E2E2E2E2E2E2E2E2E2E2E2E2E2E2E2E2E2E2E2E2E2E2E2E2E2E2E2E2E2E2E2E2E2E2E2E2E2E2E2E2E2E2E2E2E2E2E2E2E2E2E2E2E2E2E2E2E2E2E2E2E2E2E2E2E2E2E2E2E2E2E2E2E2E2E2E2E2E2E2E2E2E2E2E2E2DCE2E2BEE2E2E2E2E2E2E2E2E2E2E2E2E2E2E2E2
310
E2E2E2E2E2E2E2E2E2E2E2E2E2E2E2E2E2E2E2E2E2E2E2E2E2E2E2E2E2E2E2E2E2E2E2E2E2E2E2E2E2E2E2E2E2E2E2E2E2E2E2E2E2E2BEE2E2DCE2E2E2E2E2E2E2E2E2E2E2E2E2E2E2E2E2E2E2E2E2E2E2E2E2E2E2E2E2E2E2E2E2E2E2E2E2E2E2E2E2E2E2E2E2E2E2E2E2E2E2E2E2E2E2E2E2E2E2E2E2E2E2E2E2E2E2E2E2
310
E2E2E2E2E2E2E2E2E2E2E2E2E2E2E2E2E2E2E2E2E2E2E2E2E2E2E2E2E2E2E2E2E2E2E2E2E2E2E2E2E2E2E2E2E2E2E2E2E2E2E2E2E2E2E2E2E2E2E2E2E2E2E2E2E2E2E2E2E2E2E2E2E2E2E2E2E2E2E2E2E2E2E2E2E2E2E2E2E2E2E2E2E2E2E2E2E2E2E2E2E2E2E2E2E2E2E2E2E2DCE2E2BEE2E2E2E2E2E2E2E2E2E2E2E2E2E2
310
E2E2E2E2E2E2E2E2E2E2E2E2E2E2E2E2E2E2E2E2E2E2E2E2E2E2E2E2E2E2E2E2E2E2E2E2E2E2E2E2E2E2E2E2E2E2E2E2E2E2E2E2E2E2E2E2BEE2E2DCE2E2E2E2E2E2E2E2E2E2E2E2E2E2E2E2E2E2E2E2E2E2E2E2E2E2E2E2E2E2E2E2E2E2E2E2E2E2E2E2E2E2E2E2E2E2E2E2E2E2E2E2E2E2E2E2E2E2E2E2E2E2E2E2E2E2E2
310
E2E2E2E2E2E2E2E2E2E2E2E2E2E2E2E2E2E2E2E2E2E2E2E2E2E2E2E2E2E2E2E2E2E2E2E2E2E2E2E2E2E2E2E2E2E2E2E2E2E2E2E2E2E2E2E2E2E2E2E2E2E2E2E2E2E2E2E2E2E2E2E2E2E2E2E2E2E2E2E2E2E2E2E2E2E2E2E2E2E2E2E2E2E2E2E2E2E2E2E2E2E2E2E2E2E2E2E2E2E2E2DCE2E2BEE2E2E2E2E2E2E2E2E2E2E2E2
310
E2E2E2E2E2E2E2E2E2E2E2E2E2E2E2E2E2E2E2E2E2E2E2E2E2E2E2E2E2E2E2E2E2E2E2E2E2E2E2E2E2E2E2E2E2E2E2E2E2E2E2E2E2E2E2E2E2E2BEE2E2DCE2E2E2E2E2E2E2E2E2E2E2E2E2E2E2E2E2E2E2E2E2E2E2E2E2E2E2E2E2E2E2E2E2E2E2E2E2E2E2E2E2E2E2E2E2E2E2E2E2E2E2E2E2E2E2E2E2E2E2E2E2E2E2E2E2
310
E2E2E2E2E2E2E2E2E2E2E2E2E2E2E2E2E2E2E2E2E2E2E2E2E2E2E2E2E2E2E2E2E2E2E2E2E2E2E2E2E2E2E2E2E2E2E2E2E2E2E2E2E2E2E2E2E2E2E2E2E2E2E2E2E2E2E2E2E2E2E2E2E2E2E2E2E2E2E2E2E2E2E2E2E2E2E2E2E2E2E2E2E2E2E2E2E2E2E2E2E2E2E2E2E2E2E2E2E2E2E2E2E2DCE2E2BEE2E2E2E2E2E2E2E2E2E2
310
E2E2E2E2E2E2E2E2E2E2E2E2E2E2E2E2E2E2E2E2E2E2E2E2E2E2E2E2E2E2E2E2E2E2E2E2E2E2E2E2E2E2E2E2E2E2E2E2E2E2E2E2E2E2E2E2E2E2E2E2BEE2E2DCE2E2E2E2E2E2E2E2E2E2E2E2E2E2E2E2E2E2E2E2E2E2E2E2E2E2E2E2E2E2E2E2E2E2E2E2E2E2E2E2E2E2E2E2E2E2E2E2E2E2E2E2E2E2E2E2E2E2E2E2E2E2E2
310
E2E2E2E2E2E2E2E2E2E2E2E2E2E2E2E2E2E2E2E2E2E2E2E2E2E2E2E2E2E2E2E2E2E2E2E2E2E2E2E2E2E2E2E2E2E2E2E2E2E2E2E2E2E2E2E2E2E2E2E2E2E2E2E2E2E2E2E2E2E2E2E2E2E2E2E2E2E2E2E2E2E2E2E2E2E2E2E2E2E2E2E2E2E2E2E2E2E2E2E2E2E2E2E2E2E2E2E2E2E2E2E2E2E2E2DCE2E2BEE2E2E2E2E2E2E2E2
310
E2E2E2E2E2E2E2E2E2E2E2E2E2E2E2E2E2E2E2E2E2E2E2E2E2E2E2E2E2E2E2E2E2E2E2E2E2E2E2E2E2E2E2E2E2E2E2E2E2E2E2E2E2E2E2E2E2E2E2E2E2E2BEE2E2DCE2E2E2E2E2E2E2E2E2E2E2E2E2E2E2E2E2E2E2E2E2E2E2E2E2E2E2E2E2E2E2E2E2E2E2E2E2E2E2E2E2E2E2E2E2E2E2E2E2E2E2E2E2E2E2E2E2E2E2E2E2
310
E2E2E2E2E2E2E2E2E2E2E2E2E2E2E2E2E2E2E2E2E2E2E2E2E2E2E2E2E2E2E2E2E2E2E2E2E2E2E2E2E2E2E2E2E2E2E2E2E2E2E2E2E2E2E2E2E2E2E2E2E2E2E2E2E2E2E2E2E2E2E2E2E2E2E2E2E2E2E2E2E2E2E2E2E2E2E2E2E2E2E2E2E2E2E2E2E2E2E2E2E2E2E2E2E2E2E2E2E2E2E2E2E2E2E2E2E2DCE2E2BEE2E2E2E2E2E2
310
E2E2E2E2E2E2E2E2E2E2E2E2E2E2E2E2E2E2E2E2E2E2E2E2E2E2E2E2E2E2E2E2E2E2E2E2E2E2E2E2E2E2E2E2E2E2E2E2E2E2E2E2E2E2E2E2E2E2E2E2E2E2E2E2BEE2E2DCE2E2E2E2E2E2E2E2E2E2E2E2E2E2E2E2E2E2E2E2E2E2E2E2E2E2E2E2E2E2E2E2E2E2E2E2E2E2E2E2E2E2E2E2E2E2E2E2E2E2E2E2E2E2E2E2E2E2E2
310
E2E2E2E2E2E2E2E2E2E2E2E2E2E2E2E2E2E2E2E2E2E2E2E2E2E2E2E2E2E2E2E2E2E2E2E2E2E2E2E2E2E2E2E2E2E2E2E2E2E2E2E2E2E2E2E2E2E2E2E2E2E2E2E2E2E2E2E2E2E2E2E2E2E2E2E2E2E2E2E2E2E2E2E2E2E2E2E2E2E2E2E2E2E2E2E2E2E2E2E2E2E2E2E2E2E2E2E2E2E2E2E2E2E2E2E2E2E2E2DCE2E2BEE2E2E2E2
310
E2E2E2E2E2E2E2E2E2E2E2E2E2E2E2E2E2E2E2E2E2E2E2E2E2E2E2E2E2E2E2E2E2E2E2E2E2E2E2E2E2E2E2E2E2E2E2E2E2E2E2E2E2E2E2E2E2E2E2E2E2E2E2E2E2E2BEE2E2DCE2E2E2E2E2E2E2E2E2E2E2E2E2E2E2E2E2E2E2E2E2E2E2E2E2E2E2E2E2E2E2E2E2E2E2E2E2E2E2E2E2E2E2E2E2E2E2E2E2E2E2E2E2E2E2E2E2
310
E2E2E2E2E2E2E2E2E2E2E2E2E2E2E2E2E2E2E2E2E2E2E2E2E2E2E2E2E2E2E2E2E2E2E2E2E2E2E2E2E2E2E2E2E2E2E2E2E2E2E2E2E2E2E2E2E2E2E2E2E2E2E2E2E2E2E2E2E2E2E2E2E2E2E2E2E2E2E2E2E2E2E2E2E2E2E2E2E2E2E2E2E2E2E2E2E2E2E2E2E2E2E2E2E2E2E2E2E2E2E2E2E2E2E2E2E2E2E2E2E2DCE2E2BEE2E2
310
E2E2E2E2E2E2E2E2E2E2E2E2E2E2E2E2E2E2E2E2E2E2E2E2E2E2E2E2E2E2E2E2E2E2E2E2E2E2E2E2E2E2E2E2E2E2E2E2E2E2E2E2E2E2E2E2E2E2E2E2E2E2E2E2E2E2E2E2BEE2E2DCE2E2E2E2E2E2E2E2E2E2E2E2E2E2E2F52D2DF5F5F5F528282828282828282828282828282828F5F5F5F5F5F5F5F5F5F5F5F5F5F5F5F5F5
310
F5F5F5F5F5F5F5F5F5F5F5F5F5F5F5F5F5F5F5F5F5F5F5F5F5F5F5F5F5F5F5F5F5F5F52D2DF5E2E2E2E2E2E2E2E2E2E2E2E2E2E22DF52D2D282828F5E2F5F5F5E2E2E2E2E2E2E2E2E2E2E2E2E2E2E2E2E2E2E2E2E2E2E2E2E2E2E2E2E2E2E2E2E2E2E2E2E2E2E2E2E2E2E2E2E2E2E2E2E2E2E2E2E2E2E2E2E2E2E2DCE2E2BE
310
E2E2E2E2E2E2E2E2E2E2E2E2E2E2E2E2E2E2E2E2E2E2E2E2E2E2E2E2E2E2E2E2E2E2E2E2E2E2E2E2E2E2E2E2E2E2E2E2E2E2E2E2E2E2E2E2E2E2E2E2E2E2E2E2E2E2E2E2E2E2BEE2E2DCE2E2E2E2E2E2E2E2E2E2E2E2E2E2E22DE2E2F5E2E2E22828BEBEBEBEBEBEBEBEBEBEBEBEBEBEBEBEBEBEBEBEBEBEBEBEBEBEBEBEBE
310
BEBEBEBEBEBEBEBEBEBEBEBEBEBEBEBEBEBEBEBEBEBEBEBEBEBEBEBEBEBEBEBEBEBEE2F5F5E2E22DE2E2E2E2E2E2E2E2E2E2E2E2E2E2E22DE2E228E2BE2828282828BEBEF5F5F5E2E2E2E2E2E2E2E2E2E2E2E2E2E2E2E2E2E2E2E2E2E2E2E2E2E2E2E2E2E2E2E2E2E2E2E2E2E2E2E2E2E2E2E2E2E2E2E2E2E2E2E2E2E2DCE2
310
E2BEE2E2E2E2E2E2E2E2E2E2E2E2E2E2E2E2E2E2E2E2E2E2E2E2E2E2E2E2E2E2E2E2E2E2E2E2E2E2E2E2E2E2E2E2E2E2E2E2E2E2E2E2E2E2E2E2E2E2E2E2E2E2E2E2E2E2E2E2E2E2BEE2E2DCE2E2E2E2E2E2E2E2E2E2E2E2E2E2E22DE2E2F5E2E2E22828BEE2E2E2E2BE28E2E2E2BEE2E2BEE2E228E2E2E2E2E2F5F5F5F5F5
310
F5F5F5F5F5F5BEF5F5F5F5F5F5F5F5F5F5F5F5F5F5F5F5F5F5F5F5F5F5F5E2E2E2E2E2E2E2F5F5E2E22DE2E2E2E2E2E2E2E2E2E2E2E2E2E2E22DE2E228BEBEE2E2BEBE28BEBEF5F5F5F5F5F5E2E2E2E2E2E2E2E2E2E2E2E2E2E2E2E2E2E2E2E2E2E2E2E2E2E2E2E2E2E2E2E2E2E2E2E2E2E2E2E2E2E2E2E2E2E2E2E2E2E2E2
310
DCE2E2BEE2E2E2E2E2E2E2E2E2E2E2E2E2E2E2E2E2E2E2E2E2E2E2E2E2E2E2E2E2E2E2E2E2E2E2E2E2E2E2E2E2E2E2E2E2E2E2E2E2E2E2E2E2E2E2E2E2E2E2E2E2E2E2E2E2E2E2E2E2E2BEE2E2DCE2E2E2E2E2E2E2E2E2E2E2E2E2E2E22DE2E2F5F5F5F528F52828282828BE282828282828F5BEF5F5F5F5F5F5F5F5F5F5F5
310
F5F5F5F5F5F5F5F5BEF5F5F5F5F5F5F5F5F5F5F5F5F5F5F5F5F5F5F5F5F5F5F5F5F5F5F5F5F5F5F5F5E2E22DE2E2E2E2E2E2E2E2E2E2E2E2E2E2E22DE2E228BE28E2E2E2BE2828BEBEBEBEBEBEBEBEBEBEBEBEBE2D2D2D2DE2E2E2E2E2E2E2E2E2E2E2E2E2E2E2E2E2E2E2E2E2E2E2E2E2E2E2E2E2E2E2E2E2E2E2E2E2E2E2
310
E2E2DCE2E2BEE2E2E2E2E2E2E2E2E2E2E2E2E2E2E2E2E2E2E2E2E2E2E2E2E2E2E2E2E2E2E2E2E2E2E2E2E2E2E2E2E2E2E2E2E2E2E2E2E2E2E2E2E2E2E2E2E2E2E2E2E2E2E2E2E2E2E2E2E2E2BEE2E2DCE2E2E2E2E2E2E2E2E2E2E2E2E2E2BEBEE2E2F5E2E2E228E228E2E2E2E2BEE2E2E2E2BE28E2BEBEBEBEBEBEBEBEBEBE
310
BEBEBEBEBEBEBEBEBEBEBEE2E2E2E2E2E2E2E2E2E2E2E2E2E2E2E2E2E2E2E2E2E2E2E2E2E2E2E2E2E2F5F5E2E22DE2E2E2E2E2E2E2E2E2E2E2E2E2E2E22DE2E228BE2828282828E2BEBEBEE2E2E2E2E2E2E2BEF5E2BEE2E2E22DE2E2E2E2E2E2E2E2E2E2E2E2E2E2E2E2E2E2E2E2E2E2E2E2E2E2E2E2E2E2E2E2E2E2E2E2E2
310
E2E2E2E2DCE2E2BEE2E2E2E2E2E2E2E2E2E2E2E2E2E2E2E2E2E2E2E2E2E2E2E2E2E2E2E2E2E2E2E2E2E2E2E2E2E2E2E2E2E2E2E2E2E2E2E2E2E2E2E2E2E2E2E2E2E2E2E2E2E2E2E2E2E2E2E2E2E2BEE2E2DCE2E2E2E2E2E2E2E2E2E2E2E2E2E2BEBEE2E2F5E2E2E228E228E2E2E2E2BEE2E2E2E2BE28E2BEE2E228E2E2E2E2
310
E2E2E2E2E2E2E2E2BEBEE2E2E2E2E2E2E2E2E2E2E2E2E2E2E2E2E2E2E2E2E2E2E2E2E2E2E2E2E2E2E2E2E2F5F5E2E22DE2E2E2E2E2E2E2E2E2E2E2E2E2E2E22DE2E228BE2828BEBEE2E2BEBEBEE2E2E2E2E2E2E2BEF5E2BEE2E2E22DE2E2E2E2E2E2E2E2E2E2E2E2E2E2E2E2E2E2E2E2E2E2E2E2E2E2E2E2E2E2E2E2E2E2E2
310
E2E2E2E2E2E2DCE2E2BEE2E2E2E2E2E2E2E2E2E2E2E2E2E2E2E2E2E2E2E2E2E2E2E2E2E2E2E2E2E2E2E2E2E2E2E2E2E2E2E2E2E2E2E2E2E2E2E2E2E2E2E2E2E2E2E2E2E2E2E2E2E2E2E2E2E2E2E2E2E2BEE2E2DCE2E2E2E2E2E2E2E2E2E2E2E2E2E2BEBEE2E2F5E2E2E228E228E2E2E2E2BEE2E2E2E2BE28E2BEE2E228E2E2
310
F5F5F5F5F5F5F5F5F5F5F5F5F5F5F5E2E2E2E2E2E2E2E2E2E2E2E2E2E2E2E2E2E2E2E2E2E2E2E2E2E2E2E2E2E228F5E2E22DE2E2E2E2E2E2E2E2E2E2E2E2E2E2E22DE2E228BE2828E2E2E2E2BEBEBEE2E2E2E2E2E2E2BEF5E2BEE2E2E22DE2E2E2E2E2E2E2E2E2E2E2E2E2E2E2E2E2E2E2E2E2E2E2E2E2E2E2E2E2E2E2E2E2
310
E2E2E2E2E2E2E2E2DCE2E2BEE2E2E2E2E2E2E2E2E2E2E2E2E2E2E2E2E2E2E2E2E2E2E2E2E2E2E2E2E2E2E2E2E2E2E2E2E2E2E2E2E2E2E2E2E2E2E2E2E2E2E2E2E2E2E2E2E2E2E2E2E2E2E2E2E2E2E2E2E2E2BEE2E2DCE2E2E2E2E2E2E2E2E2E2E2E2E2E2E22DE2E2F5E2E2E2282828E2E2E2E2BEE2E2E2E2BE28E2BEE2E228
310
E2E2F5E2F5F5E2F5F5F5E2F5F5E2F5E2F5E2E2E2E2E2E2E2E2E2E2E2E2E2E2E2E2E2E2E2E2E22828E2E2E2E2E2E2E2F5F5E2E22DE2E2E2E2E2E2E2E2E2E2E2E2E2E2E22DE2E228BE2828E2E2E2E2BEBEBEE2E2E2E2E2E2E2BEF5E2BEE2E2E22DE2E2E2E2E2E2E2E2E2E2E2E2E2E2E2E2E2E2E2E2E2E2E2E2E2E2E2E2E2E2E2
310
E2E2E2E2E2E2E2E2E2E2DCE2E2BEE2E2E2E2E2E2E2E2E2E2E2E2E2E2E2E2E2E2E2E2E2E2E2E2E2E2E2E2E2E2E2E2E2E2E2E2E2E2E2E2E2E2E2E2E2E2E2E2E2E2E2E2E2E2E2E2E2E2E2E2E2E2E2E2E2E2E2E2E2E2BEE2E2DCE2E2E2E2E2E2E2E2E2E2E2E2E2E2E22DE2E2F5E2E2E228BE28E2E2E2E2BEE2E2E2E2BE28E2BEE2
310
E228E2E2E2E2E2E2E2E2E2E2E2BEE2E2E2E2E2E2E2E2E2E2E2E2E2E2E2E2E2E2E2E2E2E2E2E2E228BE28BEE2E2E2E2E2E2F5F5E2E22DE2E2E2E2E2E2E2E2E2E2E2E2E2E2E22DE2E228BE2828E2E2E2E2BEBEBEE2E2E2E2E2E2E2BEF5E2BEE2E2E22DE2E2E2E2E2E2E2E2E2E2E2E2E2E2E2E2E2E2E2E2E2E2E2E2E2E2E2E2E2
310
E2E2E2E2E2E2E2E2E2E2E2E2DCE2E2BEE2E2E2E2E2E2E2E2E2E2E2E2E2E2E2E2E2E2E2E2E2E2E2E2E2E2E2E2E2E2E2E2E2E2E2E2E2E2E2E2E2E2E2E2E2E2E2E2E2E2E2E2E2E2E2E2E2E2E2E2E2E2E2E2E2E2E2E2E2E2BEE2E2DCE2E2E2E2E2E2E2E2E2E2E2E2E2E2E22DE2E2F5E2E2E2282828E2E2E2E2BEE2E2E2E2BE28E2
310
BEE2E228E2E2E2E2E2E2E2E2E2E2E2BEE2E2E2E2E2E2E2E2E2E2E2E2E2E2E2E2E2E2E2E2E2E2E2E2E2282828E2E2E2E2E2E2E2F5F5E2E22DE2E2E2E2E2E2E2E2E2E2E2E2E2E2E22DE2E228BEE228E2E2E2E2BEBEBEE2E2E2E2E2E2E2BEF5E2BEE2E2E22DE2E2E2E2E2E2E2E2E2E2E2E2E2E2E2E2E2E2E2E2E2E2E2E2E2E2E2
310
E2E2E2E2E2E2E2E2E2E2E2E2E2E2DCE2E2BEE2E2E2E2E2E2E2E2E2E2E2E2E2E2E2E2E2E2E2E2E2E2E2E2E2E2E2E2E2E2E2E2E2E2E2E2E2E2E2E2E2E2E2E2E2E2E2E2E2E2E2E2E2E2E2E2E2E2E2E2E2E2E2E2E2E2E2E2E2E2BEE2E2DCE2E2E2E2E2E2E2E2E2E2E2E2E2E2E22D2D2D2D2D2D2D282828E2E2E2E2BEF5E2E2E2BE
310
28E2BEE2E228E2E2E2E2E2E2E2E2E2E2BEE2E2E2E2E2E2E2E2E2E2E2E2E2E2E2E2E2E2E2E2E2E2E2E2E2F5F52828E2E2E2E2E2E2E2F5F5E2E22DE2E2E2E2E2E2E2E2E2E2E2E2E2E2E22DE2E228BEE228E2E2E2E2BEBEBEE2E2E2E2E2E2E2BEF5E2BEE2E2E22DE2E2E2E2E2E2E2E2E2E2E2E2E2E2E2E2E2E2E2E2E2E2E2E2E2
310
E2E2E2E2E2E2E2E2E2E2E2E2E2E2E2E2DCE2E2BEE2E2E2E2E2E2E2E2E2E2E2E2E2E2E2E2E2E2E2E2E2E2E2E2E2E2E2E2E2E2E2E2E2E2E2E2E2E2E2E2E2E2E2E2E2E2E2E2E2E2E2E2E2E2E2E2E2E2E2E2E2E2E2E2E2E2E2E2E2E2BEE2E2DCE2E2E2E2E2E2E2E2E2E2E2E2E2E2E22DE2E2F5E2E2E2282828E2E2E2E2BEF5E2E2
310
E2BE28E2BEE2E228E2E2E2E2E2E2E2E2E2BEBEE2E2E2E2E2E2E2E2E2E2E2E2E2E2E2E2E2E2E2E2E2E2E2E2E2F5F52828E2E2E2E2E2E2E2F5F5E2E22DE2E2E2E2E2E2E2E2E2E2E2E2E2E2E22DE2E228BEE228E2E2E2E2BEBEBEE2E228282828E2BEF5E2BEE2E2E22DE2E2E2E2E2E2E2E2E2E2E2E2E2E2E2E2E2E2E2E2E2E2E2
310
E2E2E2E2E2E2E2E2E2E2E2E2E2E2E2E2E2E2DCE2E2BEE2E2E2E2E2E2E2E2E2E2E2E2E2E2E2E2E2E2E2E2E2E2E2E2E2E2E2E2E2E2E2E2E2E2E2E2E2E2E2E2E2E2E2E2E2E2E2E2E2E2E2E2E2E2E2E2E2E2E2E2E2E2E2E2E2E2E2E2E2E2BEE2E2DCE2E2E2E2E2E2E2E2E2E2E2E2E2E2E22DE2E2F5E2E2E228E22828282828BE28
310
2828282828E2BEE2E228E2E2E2E2E2E2E2E2BEE2E2E2E2E2E2E2E2E2E2E2E2E2E2E2E2E2E2E2E2E2E2E2E2E2E2E2F5F5E2E2E2E2E2E2E2E2E2F5F5E2E22DE2E2E2E2E2E2E2E2E2E2E2E2E2E2E22DE2E228BEE228E2E2E2E2BEBEBEBEBE28BEBE28BEBEBEBEBEE2E2E22DE2E2E2E2E2E2E2E2E2E2E2E2E2E2E2E2E2E2E2E2E2
310
E2E2E2E2E2E2E2E2E2E2E2E2E2E2E2E2E2E2E2E2DCE2E2BEE2E2E2E2E2E2E2E2E2E2E2E2E2E2E2E2E2E2E2E2E2E2E2E2E2E2E2E2E2E2E2E2E2E2E2E2E2E2E2E2E2E2E2E2E2E2E2E2E2E2E2E2E2E2E2E2E2E2E2E2E2E2E2E2E2E2E2E2E2E2BEE2E2DCE2E2E2E2E2E2E2E2E2E2E2E2E2E2E22DE2E2F5E2E2E228E2BEE2E22828
310
BE282828E2BEE2E2BEE2E228E2E2E2E2E2E2E2BEBEE2E2E2E2E2E2E2E2E2E2E2E2E2E2E2E2E2E2E2E2E2E2E2E2E2E2E2F5F5E2E2E2E2E2E2E2E2E2F5F5E2E22DE2E2E2E2E2E2E2E2E2E2E2E2E2E2E22DE2E228BEE228E2E2E2E2BEBE2828F5F5F5F5F5F5BEBEBEBEE2E2E22DE2E2E2E2E2E2E2E2E2E2E2E2E2E2E2E2E2E2E2
310
E2E2E2E2E2E2E2E2E2E2E2E2E2E2E2E2E2E2E2E2E2E2DCE2E2BEE2E2E2E2E2E2E2E2E2E2E2E2E2E2E2E2E2E2E2E2E2E2E2E2E2E2E2E2E2E2E2E2E2E2E2E2E2E2E2E2E2E2E2E2E2E2E2E2E2E2E2E2E2E2E2E2E2E2E2E2E2E2E2E2E2E2E2E2E2E2BEE2E2DCE2E2E2E2E2E2E2E2E2E2E2E2E2E2E22DE2E2F5E2E2E228E2BEE2E2
310
E228BEF5E228E2BEE2E2BEE2E228E2E2E2E2E2E2BEBEE2E2E2E2E2E2E2E2E2E2E2E2E2E2E2E2E2E2E2E2E2E2E2E2E2E2E2E2F5F5E2E2E2E2E2E2E2E2E2F5F5E2E22DE2E2E2E2E2E2E2E2E2E2E2E2E2E2E22DE2E228BEE228E2E2E2E2BEBEE2E228E2E2E2E228E2F5E2F5E2E2E22DE2E2E2E2E2E2E2E2E2E2E2E2E2E2E2E2E2
310
E2E2E2E2E2E2E2E2E2E2E2E2E2E2E2E2E2E2E2E2E2E2E2E2DCE2E2BEE2E2E2E2E2E2E2E2E2E2E2E2E2E2E2E2E2E2E2E2E2E2E2E2E2E2E2E2E2E2E2E2E2E2E2E2E2E2E2E2E2E2E2E2E2E2E2E2E2E2E2E2E2E2E2E2E2E2E2E2E2E2E2E2E2E2E2E2E2E2BEE2E2DCE2E2E2E2E2E2E2E2E2E2E2E2E2E2E22DE2E2F5E2E2E228E2BE
310
E2E2282828282828E2BEE2E2BEE2E228E2E2E2E2BEBEE2E2E2E2E2E2E2E2E2E2E2E2E2E2E2E2E2E2E2E2E2E2E2E2E2E2E2E2E2E2F5F5E2E2E2E2E2E2E2E2E2F5F5E2E22DE2E2E2E2E2E2E2E2E2E2E2E2E2E2E22DE2E228BEE228E2E2E2E2BEBEE2E228E2E2E2E228E2F5E2F5E2E2E22DE2E2E2E2E2E2E2E2E2E2E2E2E2E2E2
310
E2E2E2E2E2E2E2E2E2E2E2E2E2E2E2E2E2E2E2E2E2E2E2E2E2E2DCE2E2BEE2E2E2E2E2E2E2E2E2E2E2E2E2E2E2E2E2E2E2E2E2E2E2E2E2E2E2E2E2E2E2E2E2E2E2E2E2E2E2E2E2E2E2E2E2E2E2E2E2E2E2E2E2E2E2E2E2E2E2E2E2E2E2E2E2E2E2E2E2E2BEE2E2DCE2E2E2E2E2E2E2E2E2E2E2E2E2E2E22DE2E2F5E2E2E228
310
E2BEE2E228E2BEF5E228E2BEE2E2BEE2E228E2E2BEBEBEE2E2E2E2E2E2E2E2E2E2E2E2E2E2E2E2E2E2E2E2E2E2E2E2E2E2E2E2E2E2E2F5F5E2E2E2E2E2E2E2E2E2F5F5E2E22DE2E2E2E2E2E2E2E2E2E2E2E2E2E2E22DE2E228BEE228E2E2E2E2BEE2E2E2282828282828E2F5E2F5E2E2E22DE2E2E2E2E2E2E2E2E2E2E2E2E2
310
E2E2E2E2E2E2E2E2E2E2E2E2E2E2E2E2E2E2E2E2E2E2E2E2E2E2E2E2DCE2E2BEE2E2E2E2E2E2E2E2E2E2E2E2E2E2E2E2E2E2E2E2E2E2E2E2E2E2E2E2E2E2E2E2E2E2E2E2E2E2E2E2E2E2E2E2E2E2E2E2E2E2E2E2E2E2E2E2E2E2E2E2E2E2E2E2E2E2E2E2E2E2BEE2E2DCE2E2E2E2E2E2E2E2E2E2E2E2E2E2E22DE2E2F5E2E2
310
E228E2BEE2E2282828282828E2BEE2E2BEBEBEBEBEBEE2E2E2E2E2E2E2E2E2E2E2E2E2E2E2E2E2E2E2E2E2E2E2E2E2E2E2E2E2E2E2E2E2E2F5F5E2E2E2E2E2E2E2E2E2F5F5E2E22DE2E2E2E2E2E2E2E2E2E2E2E2E2E2E22DE2E228BEE228BEBEE2E228282828282828282828282828F5E2E2E22DE2E2E2E2E2E2E2E2E2E2E2
310
E2E2E2E2E2E2E2E2E2E2E2E2E2E2E2E2E2E2E2E2E2E2E2E2E2E2E2E2E2E2DCE2E2BEE2E2E2E2E2E2E2E2E2E2E2E2E2E2E2E2E2E2E2E2E2E2E2E2E2E2E2E2E2E2E2E2E2E2E2E2E2E2E2E2E2E2E2E2E2E2E2E2E2E2E2E2E2E2E2E2E2E2E2E2E2E2E2E2E2E2E2E2E2E2BEE2E2DCE2E2E2E2E2E2E2E2E2E2E2E2E2E2E22DE2E2F5
310
E2E2E228E2BEE2E2282828282828E2BEE2E2BEBEBE28E2E2E2E2E2E2E2E2E2E2E2E2E2E2E2E2E2E2E2E2E2E2E2E2E2E2E2E2E2E2E2E2E2E2E2E2F5F5E2E2E2E2E2E2E2E2E2F5F5E2E22DE2E2E2E2E2E2E2E2E2E2E2E2E2E2E22DE2E228BEE228E2BEE2BE28E2E2E2E2E2E2E2E2E2E2F5E228E2E2E22DE2E2E2E2E2E2E2E2E2
310
E2E2E2E2E2E2E2E2E2E2E2E2E2E2E2E2E2E2E2E2E2E2E2E2E2E2E2E2E2E2E2E2DCE2E2BEE2E2E2E2E2E2E2E2E2E2E2E2E2E2E2E2E2E2E2E2E2E2E2E2E2E2E2E2E2E2E2E2E2E2E2E2E2E2E2E2E2E2E2E2E2E2E2E2E2E2E2E2E2E2E2E2E2E2E2E2E2E2E2E2E2E2E2E2E2E2BEE2E2DCE2E2E2E2E2E2E2E2E2E2E2E2E2E2E22DE2
310
E2F5E2E2E228E2BE28282828282828282828E2E2BEE2E228E2E2E2E2E2E2E2E2E2E2E2E2E2E2E2E2E2E2E2E2E2E2E2E2E2E2E2E2E2E2E2E2E2E2E2E2F5F5E2E2E2E2E2E2E2E2E2F5F5E2E22DE2E2E2E2E2E2E2E2E2E2E2E2E2E2E22DE2E228BEE228E2E2E2BE28E2E2E2E2E2E2E2E2E2E2F5E228E2E2E22DE2E2E2E2E2E2E2
310
E2E2E2E2E2E2E2E2E2E2E2E2E2E2E2E2E2E2E2E2E2E2E2E2E2E2E2E2E2E2E2E2E2E2DCE2E2BEE2E2E2E2E2E2E2E2E2E2E2E2E2E2E2E2E2E2E2E2E2E2E2E2E2E2E2E2E2E2E2E2E2E2E2E2E2E2E2E2E2E2E2E2E2E2E2E2E2E2E2E2E2E2E2E2E2E2E2E2E2E2E2E2E2E2E2E2E2E2BEE2E2DCE2E2E2E2E2E2E2E2E2E2E2E2E2E2E2
310
2DE2E2F5E2E2E228E2BE28BEBEBEBEBEBEBEBEBE28BEBEE2E228E2E2E2E2E2E2E2E2E2E2E2E2E2E2E2E2E2E2E2E2E2E2E2E2E2E2E2E2E2E2E2E2E2E2E2E2F5F5E2E2E2E2E2E2E2E2E2F5F5E2E22DE2E2E2E2E2E2E2E2E2E2E2E2E2E2E22DE2E228BE28BEBE2828BE28E2E2E2E2E2E2E2E2E2E2F5E228E2E2E22DE2E2E2E2E2
310
E2E2E2E2E2E2E2E2E2E2E2E2E2E2E2E2E2E2E2E2E2E2E2E2E2E2E2E2E2E2E2E2E2E2E2E2DCE2E2BEE2E2E2E2E2E2E2E2E2E2E2E2E2E2E2E2E2E2E2E2E2E2E2E2E2E2E2E2E2E2E2E2E2E2E2E2E2E2E2E2E2E2E2E2E2E2E2E2E2E2E2E2E2E2E2E2E2E2E2E2E2E2E2E2E2E2E2E2E2E2BEE2E2DCE2E2E2E2E2E2E2E2E2E2E2E2E2
310
E2E22DE2E2F5E2E2E228E2E228E2E2E2E2E2E2E2E2E228E2BEE2E228E2E2E2E2E2E2E2E2E2E2E2E2E2E2E2E2E2E2E2E2E2E2E2E2E2E2E2E2E2E2E2E2E2E2E2E2E2E2E2E2E2E2E2E2E2E2E2F5F5E2E22DE2E2E2E2E2E2E2E2E2E2E2E2E2E2E22DE2E228BE28BEBE2828E228E2E2E2E2E2E2E2E2E2E2F5E228E2E2E22DE2E2E2
310
E2E2E2E2E2E2E2E2E2E2E2E2E2E2E2E2E2E2E2E2E2E2E2E2E2E2E2E2E2E2E2E2E2E2E2E2E2E2DCE2E2BEE2E2E2E2E2E2E2E2E2E2E2E2E2E2E2E2E2E2E2E2E2E2E2E2E2E2E2E2E2E2E2E2E2E2E2E2E2E2E2E2E2E2E2E2E2E2E2E2E2E2E2E2E2E2E2E2E2E2E2E2E2E2E2E2E2E2E2E2E2E2BEE2E2DCE2E2E2E2E2E2E2E2E2E2E2
310
E2E2E2E22DE2E2F5E2E2E228E2E228E2E2E2E2E2E2E2E2E228E228E2E228E2E2E2E2E2E2E2E2E2E2E2E2E2E2E2E2E2E2E2E2E2E2E2E2E2E2E2E2E2E2E2E2E2E2E2E2E2E2E2E2E2E2E2E2E2E2E2F5F5E2E22DE2E2E2E2E2E2E2E2E2E2E2E2E2E2E22DE2E228BEBEBEBEBEBEE228E2E2E2E2E2E2E2E2E2E2F5E228E2E2E22DE2
310
E2E2E2E2E2E2E2E2E2E2E2E2E2E2E2E2E2E2E2E2E2E2E2E2E2E2E2E2E2E2E2E2E2E2E2E2E2E2E2E2DCE2E2BEE2E2E2E2E2E2E2E2E2E2E2E2E2E2E2E2E2E2E2E2E2E2E2E2E2E2E2E2E2E2E2E2E2E2E2E2E2E2E2E2E2E2E2E2E2E2E2E2E2E2E2E2E2E2E2E2E2E2E2E2E2E2E2E2E2E2E2E2E2E2BEE2E2DCE2E2E2E2E2E2E2E2E2
310
E2E2E2E2E2E22DE2E2F5E2E2E228E2E228E2E2E2E2E2E2E2E2E228E228E2E228E2E2E2E2E2E2E2E2E2E2E2E2E2E2E2E2E2E2E2E2E2E2E2E2E2E2E2E2E2E2E2E2E2E2E2E2E2E2E2E2E2E2E2E2E2E2E2F5F5E2E22DE2E2E2E2E2E2E2E2E2E2E2E2E2E2E22DE2E228E2E228E2E2E2E228E2E2E2E2E2E2E2E2E2E2F5E228E2E2E2
310
2DE2E2E2E2E2E2E2E2E2E2E2E2E2E2E2E2E2E2E2E2E2E2E2E2E2E2E2E2E2E2E2E2E2E2E2E2E2E2E2E2E2DCE2E2BEE2E2E2E2E2E2E2E2E2E2E2E2E2E2E2E2E2E2E2E2E2E2E2E2E2E2E2E2E2E2E2E2E2E2E2E2E2E2E2E2E2E2E2E2E2E2E2E2E2E2E2E2E2E2E2E2E2E2E2E2E2E2E2E2E2E2E2E2E2E2BEE2E2DCE2E2E2E2E2E2E2
310
E2E2E2E2E2E2E2E22DE2E2F5E2E2E228E2E228E2E2E2E2E2E2E2E2E228E228E2E228E2E2E2E2E2E2E2E2E2E2E2E2E2E2E2E2E2E2E2E2E2E2E2E2E2E2E2E2E2E2E2E2E2E2E2E2E2E2E2E2E2E2E2E2E2E2E2F5F5BEBE2DE2E2E2E2E2E2E2E2E2E2E2E2E2BEBE2DE2E228E2E228E2E2E2E228E2E2E2E2E2E2E2E2E2E2F5E228E2
310
E2E22DE2E2E2E2E2E2E2E2E2E2E2E2E2E2E2E2E2E2E2E2E2E2E2E2E2E2E2E2E2E2E2E2E2E2E2E2E2E2E2E2E2DCE2E2BEE2E2E2E2E2E2E2E2E2E2E2E2E2E2E2E2E2E2E2E2E2E2E2E2E2E2E2E2E2E2E2E2E2E2E2E2E2E2E2E2E2E2E2E2E2E2E2E2E2E2E2E2E2E2E2E2E2E2E2E2E2E2E2E2E2E2E2E2E2E2BEE2E2DCE2E2E2E2E2
310
E2E2E2E2E2E2E2E2E2E22DE2E2F5E2E2E228E2E228E2E2E2E2E2E2E2E2E228E228E2E228E2E2E2E2E2E2E2E2E2E2E2E2E2E2E2E2E2E2E2E2E2E2E2E2E2E2E2E2E2E2E2E2E2E2E2E2E2E2E2E2E2E2E2E2E2E2E2F5F5BEBE2DE2E2E2E2E2E2E2E2E2E2E2E2E2BEBE2DE2E228E2E228E2E2E2E228E2E2E2E2E2E2E2E2E2E2F5E2
310
28E2E2E22DE2E2E2E2E2E2E2E2E2E2E2E2E2E2E2E2E2E2E2E2E2E2E2E2E2E2E2E2E2E2E2E2E2E2E2E2E2E2E2E2E2DCE2E2BEE2E2E2E2E2E2E2E2E2E2E2E2E2E2E2E2E2E2E2E2E2E2E2E2E2E2E2E2E2E2E2E2E2E2E2E2E2E2E2E2E2E2E2E2E2E2E2E2E2E2E2E2E2E2E2E2E2E2E2E2E2E2E2E2E2E2E2E2E2E2BEE2E2DCE2E2E2
310
E2E2E2E2E2E2E2E2E2E2E2E22DE2E2F5E2E2E228E2E228E2E2E2E2E2E2E2E2E228E228E2E228E2E2E2E2E2E2E2E2E2E2E2E2E2E2E2E2E2E2E2E2E2E2E2E2E2E2E2E2E2E2E2E2E2E2E2E2E2E2E2E2E2E2E2E2E2E2E2F5F5BEBE2DE2E2E2E2E2E2E2E2E2E2E2E2E2BEBE2DE2E228E2E228E2E2E2E228E2E2E2E2E2E2E2E2E2E2
310
F5E228E2BEBE2DE2E2E2E2E2E2E2E2E2E2E2E2E2E2E2E2E2E2E2E2E2E2E2E2E2E2E2E2E2E2E2E2E2E2E2E2E2E2E2E2E2DCE2E2BEE2E2E2E2E2E2E2E2E2E2E2E2E2E2E2E2E2E2E2E2E2E2E2E2E2E2E2E2E2E2E2E2E2E2E2E2E2E2E2E2E2E2E2E2E2E2E2E2E2E2E2E2E2E2E2E2E2E2E2E2E2E2E2E2E2E2E2E2E2E2BEE2E2DCE2
310
E2E2E2E2E2E2E2E2E2E2E2E2E2E22DE2E2F5E2E2E228E2E228E2E2E2E2E2E2E2E2E228E228E2E228E2E2E2E2E2E2E2E2E2E2E2E2E2E2E2E2E2E2E2E2E2E2E2E2E2E2E2E2E2E2E2E2E2E2E2E2E2E2E2E2E2E2E2E2E2E2E2F5F5BEBE2DE2E2E2E2E2E2E2E2E2E2E2E2E2BEBE2DE2E228E2E228E2E2E2E228E2E2E2E2E2E2E2E2
310
E2E2F5E228E2BEBE2DE2E2E2E2E2E2E2E2E2E2E2E2E2E2E2E2E2E2E2E2E2E2E2E2E2E2E2E2E2E2E2E2E2E2E2E2E2E2E2E2E2DCE2E2BEE2E2E2E2E2E2E2E2E2E2E2E2E2E2E2E2E2E2E2E2E2E2E2E2E2E2E2E2E2E2E2E2E2E2E2E2E2E2E2E2E2E2E2E2E2E2E2E2E2E2E2E2E2E2E2E2E2E2E2E2E2E2E2E2E2E2E2E2E2E2BEE2E2
310
DCE2E2E2E2E2E2E2E2E2E2E2E2E2E2BEBEE2E2F5E2E2E228E2E228E2E2E2E2E2E2E2E2E228E228E2E228E2E2E2E2E2E2E2E2E2E2E2E2E2E2E2E2E2E2E2E2E2E2E2E2E2E2E2E2E2E2E2E2E2E2E2E2E2E2E2E2E2E2E2E2E2E2E2F5F5E2E22DE2E2E2E2E2E2E2E2E2E2E2E2E2E2E22DE2E228E2E228E2E2E2E228E2E2E2E2E2E2
310
E2E2E2E2F5E228E2BEBE2DE2E2E2E2E2E2E2E2E2E2E2E2E2E2E2E2E2E2E2E2E2E2E2E2E2E2E2E2E2E2E2E2E2E2E2E2E2E2E2E2E2DCE2E2BEE2E2E2E2E2E2E2E2E2E2E2E2E2E2E2E2E2E2E2E2E2E2E2E2E2E2E2E2E2E2E2E2E2E2E2E2E2E2E2E2E2E2E2E2E2E2E2E2E2E2E2E2E2E2E2E2E2E2E2E2E2E2E2E2E2E2E2E2E2E2BE
310
E2E2DCE2E2E2E2E2E2E2E2E2E2E2E2E2E2BEBEE2E2F5E2E2E228E2E228E2E2E2E2E2E2E2E2E228E228E2E228E2E2E2E2E2E2E2E2E2E2E2E2E2E2E2E2E2E2E2E2E2E2E2E2E2E2E2E2E2E2E2E2E2E2E2E2E2E2E2E2E2E2E2E2E2E2E2F5F5E2E22DE2E2E2E2E2E2E2E2E2E2E2E2E2E2E22DE2E2BEBEE228E2E2E2E228E2E2E2E2
310
E2E2E2E2E2E2F5E228E2BEBE2DE2E2E2E2E2E2E2E2E2E2E2E2E2E2E2E2E2E2E2E2E2E2E2E2E2E2E2E2E2E2E2E2E2E2E2E2E2E2E2E2E2DCE2E2BEE2E2E2E2E2E2E2E2E2E2E2E2E2E2E2E2E2E2E2E2E2E2E2E2E2E2E2E2E2E2E2E2E2E2E2E2E2E2E2E2E2E2E2E2E2E2E2E2E2E2E2E2E2E2E2E2E2E2E2E2E2E2E2E2E2E2E2E2E2
310
E2BEE2E2DCE2E2E2E2E2E2E2E2E2E2E2E2E2E2BEBEE2E2F5E2E2E228282828282828282828282828282828E2E228E2E2E2E2E2E2E2E2E2E2E2E2E2E2E2E2E2E2E2E2E2E2E2E2E2E2E2E2E2E2E2E2E2E2E2E2E2E2E2E2E2E2E2E2E2E2E2F5F5E2E22DE2E2E2E2E2E2E2E2E2E2E2E2E2E2E22DE2E228282828E2E2E2E228E2E2
310
E2E2E2E2E2E2E2E2F5E228E2E2E22DE2E2E2E2E2E2E2E2E2E2E2E2E2E2E2E2E2E2E2E2E2E2E2E2E2E2E2E2E2E2E2E2E2E2E2E2E2E2E2E2E2DCE2E2BEE2E2E2E2E2E2E2E2E2E2E2E2E2E2E2E2E2E2E2E2E2E2E2E2E2E2E2E2E2E2E2E2E2E2E2E2E2E2E2E2E2E2E2E2E2E2E2E2E2E2E2E2E2E2E2E2E2E2E2E2E2E2E2E2E2E2E2
310
E2E2E2BEE2E2DCE2E2E2E2E2E2E2E2E2E2E2E2E2E2E22DE2E2F5E2E2E2E2E2E228E2E2E2E2E2E2E2E2E228E2E2E2E228E2E2E2E2E2E2E2E2E2E2E2E2E2E2E2E2E2E2E2E2E2E2E2E2E2E2E2E2E2E2E2E2E2E2E2E2E2E2E2E2E2E2E2E2E2E2E2F5F5E2E22DE2E2E2E2E2E2E2E2E2E2E2E2E2E2E22DE2E22828E2E2E2E2E2E228
310
E2E2E2E2E2E2E2E2E2E2F5E228E2E2E22DE2E2E2E2E2E2E2E2E2E2E2E2E2E2E2E2E2E2E2E2E2E2E2E2E2E2E2E2E2E2E2E2E2E2E2E2E2E2E2E2E2DCE2E2BEE2E2E2E2E2E2E2E2E2E2E2E2E2E2E2E2E2E2E2E2E2E2E2E2E2E2E2E2E2E2E2E2E2E2E2E2E2E2E2E2E2E2E2E2E2E2E2E2E2E2E2E2E2E2E2E2E2E2E2E2E2E2E2E2E2
310
E2E2E2E2E2BEE2E2DCE2E2E2E2E2E2E2E2E2E2E2E2E2E2E22DE2E2F5E2E2E2E2E2E228E2E2E2E2E2E2E2E2E228E2E2E2E228E2E2E2E2E2E2E2E2E2E2E2E2E2E2E2E2E2E2E2E2E2E2E2E2E2E2E2E2E2E2E2E2E2E2E2E2E2E2E2E2E2E2E2E2E2E2E2F5F5E2E22DE2E2E2E2E2E2E2E2E2E2E2E2E2E2E22DE2E2F5E2E2E2E2E2E2
310
E228E2E2E2E2E2E2E2E2E2E2F5E228E2E2E22DE2E2E2E2E2E2E2E2E2E2E2E2E2E2E2E2E2E2E2E2E2E2E2E2E2E2E2E2E2E2E2E2E2E2E2E2E2E2E2E2E2DCE2E2BEE2E2E2E2E2E2E2E2E2E2E2E2E2E2E2E2E2E2E2E2E2E2E2E2E2E2E2E2E2E2E2E2E2E2E2E2E2E2E2E2E2E2E2E2E2E2E2E2E2E2E2E2E2E2E2E2E2E2E2E2E2E2E2
310
E2E2E2E2E2E2E2BEE2E2DCE2E2E2E2E2E2E2E2E2E2E2E2E2E2E22DE2E2F5E2E2E2E2E2E228E2E2E2E2E2E2E2E2E228E2E2E2E228E2E2E2E2E2E2E2E2E2E2E2E2E2E2E2E2E2E2E2E2E2E2E2E2E2E2E2E2E2E2E2E2E2E2E2E2E2E2E2E2E2E2E2E2E2E2E2F5F5E2E22DE2E2E2E2E2E2E2E2E2E2E2E2E2E2E22DE2E2F5E2E2E2E2
310
E2E2E228E2E2E2E2E2E2E2E2E2E2F5E228E2E2E22DE2E2E2E2E2E2E2E2E2E2E2E2E2E2E2E2E2E2E2E2E2E2E2E2E2E2E2E2E2E2E2E2E2E2E2E2E2E2E2E2E2DCE2E2BEE2E2E2E2E2E2E2E2E2E2E2E2E2E2E2E2E2E2E2E2E2E2E2E2E2E2E2E2E2E2E2E2E2E2E2E2E2E2E2E2E2E2E2E2E2E2E2E2E2E2E2E2E2E2E2E2E2E2E2E2E2
310
E2E2E2E2E2E2E2E2E2BEE2E2DCE2E2E2E2E2E2E2E2E2E2E2E2E2E2E22DE2E2F5E2E2E2E2E2E228E2E2E2E2E2E2E2E2E228E2E2E2E228E2E2E2E2E2E2E2E2E2E2E2E2E2E2E2E2E2E2E2E2E2E2E2E2E2E2E2E2E2E2E2E2E2E2E2E2E2E2E2E2E2E2E2E2E2E2E2F5F5E2E22DE2E2E2E2E2E2E2E2E2E2E2E2E2E2E22DE2E2F5E2E2
310
E2E2E2E2E228E2E2E2E2E2E2E2E2E2E2F5E228E2E2E22DE2E2E2E2E2E2E2E2E2E2E2E2E2E2E2E2E2E2E2E2E2E2E2E2E2E2E2E2E2E2E2E2E2E2E2E2E2E2E2E2E2DCE2E2BEE2E2E2E2E2E2E2E2E2E2E2E2E2E2E2E2E2E2E2E2E2E2E2E2E2E2E2E2E2E2E2E2E2E2E2E2E2E2E2E2E2E2E2E2E2E2E2E2E2E2E2E2E2E2E2E2E2E2E2
310
E2E2E2E2E2E2E2E2E2E2E2BEE2E2DCE2E2E2E2E2E2E2E2E2E2E2E2E2E2E22DE2E2F5E2E2E2E2E2E228E2E2E2E2E2E2E2E2E228E2E2E2E228E2E2E2E2E2E2E2E2E2E2E2E2E2E2E2E2E2E2E2E2E2E2E2E2E2E2E2E2E2E2E2E2E2E2E2E2E2E2E2E2E2E2E2E2E2E2E2F5F5E2E22DE2E2E2E2E2E2E2E2E2E2E2E2E2E2E22DE2E2F5
310
E2E2E2E2E2E2E228E2E2E2E2E2E2E2E2E2E2F5E228E2E2E22DE2E2E2E2E2E2E2E2E2E2E2E2E2E2E2E2E2E2E2E2E2E2E2E2E2E2E2E2E2E2E2E2E2E2E2E2E2E2E2E2E2DCE2E2BEE2E2E2E2E2E2E2E2E2E2E2E2E2E2E2E2E2E2E2E2E2E2E2E2E2E2E2E2E2E2E2E2E2E2E2E2E2E2E2E2E2E2E2E2E2E2E2E2E2E2E2E2E2E2E2E2E2
310
E2E2E2E2E2E2E2E2E2E2E2E2E2BEE2E2DCE2E2E2E2E2E2E2E2E2E2E2E2E2E2E22DE2E2F5E2E2E2E2E2E228E2E2E2E2E2E2E2E2E228E2E2E2E228E2E2E2E2E2E2E2E2E2E2E2E2E2E2E2E2E2E2E2E2E2E2E2E2E2E2E2E2E2E2E2E2E2E2E2E2E2E2E2E2E2E2E2E2E2E2E2F5F5E2E22DE2E2E2E2E2E2E2E2E2E2E2E2E2E2E22DE2
310
E2F5E2E2E2E2E2E2E228E2E2E2E2E2E2E2E2E2E2F5E228E2E2E22DE2E2E2E2E2E2E2E2E2E2E2E2E2E2E2E2E2E2E2E2E2E2E2E2E2E2E2E2E2E2E2E2E2E2E2E2E2E2E2E2E2DCE2E2BEE2E2E2E2E2E2E2E2E2E2E2E2E2E2E2E2E2E2E2E2E2E2E2E2E2E2E2E2E2E2E2E2E2E2E2E2E2E2E2E2E2E2E2E2E2E2E2E2E2E2E2E2E2E2E2
310
E2E2E2E2E2E2E2E2E2E2E2E2E2E2E2BEE2E2DCE2E2E2E2E2E2E2E2E2E2E2E2E2E2E22DE2E2F5E2E2E2E2E2E228E2E2E2E2E2E2E2E2E228E2E2E2E228E2E2E2E2E2E2E2E2E2E2E2E2E2E2E2E2E2E2E2E2E2E2E2E2E2E2E2E2E2E2E2E2E2E2E2E2E2E2E2E2E2E2E2E2E2E2E2F5F5E2E22DE2E2E2E2E2E2E2E2E2E2E2E2E2E2E2
310
2DE2E2F5E2E2E2E2E2E2E228E2E2E2E2E2E2E2E2E2E2F5E228E2E2E22DE2E2E2E2E2E2E2E2E2E2E2E2E2E2E2E2E2E2E2E2E2E2E2E2E2E2E2E2E2E2E2E2E2E2E2E2E2E2E2E2E2DCE2E2BEE2E2E2E2E2E2E2E2E2E2E2E2E2E2E2E2E2E2E2E2E2E2E2E2E2E2E2E2E2E2E2E2E2E2E2E2E2E2E2E2E2E2E2E2E2E2E2E2E2E2E2E2E2
310
E2E2E2E2E2E2E2E2E2E2E2E2E2E2E2E2E2BEE2E2DCE2E2E2E2E2E2E2E2E2E2E2E2E2E2E22DE2E2F5E2E2E2E2E2E228E2E2E2E2E2E2E2E2E228E2E2E2E228E2E2E2E2E2E2E2E2E2E2E2E2E2E2E2E2E2E2E2E2E2E2E2E2E2E2E2E2E2E2E2E2E2E2E2E2E2E2E2E2E2E2E2E2E2E2E2F5F5E2E22DE2E2E2E2E2E2E2E2E2E2E2E2E2
310
E2E22DE2E2F5E2E2E2E2E2E2E228E2E2E2E2E2E2E2E2E2E2F5E228E2E2E22DE2E2E2E2E2E2E2E2E2E2E2E2E2E2E2E2E2E2E2E2E2E2E2E2E2E2E2E2E2E2E2E2E2E2E2E2E2E2E2E2E2DCE2E2BEE2E2E2E2E2E2E2E2E2E2E2E2E2E2E2E2E2E2E2E2E2E2E2E2E2E2E2E2E2E2E2E2E2E2E2E2E2E2E2E2E2E2E2E2E2E2E2E2E2E2E2
310
E2E2E2E2E2E2E2E2E2E2E2E2E2E2E2E2E2E2E2BEE2E2DCE2E2E2E2E2E2E2E2E2E2E2E2E2E2E22DE2E22DE2E2E2E2E2E228E2E2E2E2E2E2E22828E2E2E2E2E228E2E2E2E2E2E2E2E2E2E2E2E2E2E2E2E2E2E2E2E2E2E2E2E2E2E2E2E2E2E2E2E2E2E2E2E2E2E2E2E2E2E2E2E2E2E2E2F52DE2E22DE2E2E2E2E2E2E2E2E2E2E2
310
E2E2E2E22DE2E2F5E2E2E2E2E2E2E228E2E2E2E2E2E2E2E2E2E2F5E228E2E2E22DE2E2E2E2E2E2E2E2E2E2E2E2E2E2E2E2E2E2E2E2E2E2E2E2E2E2E2E2E2E2E2E2E2E2E2E2E2E2E2E2E2DCE2E2BEE2E2E2E2E2E2E2E2E2E2E2E2E2E2E2E2E2E2E2E2E2E2E2E2E2E2E2E2E2E2E2E2E2E2E2E2E2E2E2E2E2E2E2E2E2E2E2E2E2
310
E2E2E2E2E2E2E2E2E2E2E2E2E2E2E2E2E2E2E2E2E2BEE2E2DCE2E2E2E2E2E2E2E2E2E2E2E2E2E2E22DE2E22DE2E2E2E2E2E228E2E2E2E2E2E2E228E2E2E2E2E2E228E2E2E2E2E2E2E2E2E2E2E2E2E2E2E2E2E2E2E2E2E2E2E2E2E2E2E2E2E2E2E2E2E2E2E2E2E2E2E2E2E2E2E2E2E2E2E2F52DE2E22DE2E2E2E2E2E2E2E2E2
310
E2E2E2E2E2E22DE2E2F5E2E2E2E2E2E2E228E2E2E2E2E2E2E2E2E2E2F5E228E2E2E22DE2E2E2E2E2E2E2E2E2E2E2E2E2E2E2E2E2E2E2E2E2E2E2E2E2E2E2E2E2E2E2E2E2E2E2E2E2E2E2E2E2DCE2E2BEE2E2E2E2E2E2E2E2E2E2E2E2E2E2E2E2E2E2E2E2E2E2E2E2E2E2E2E2E2E2E2E2E2E2E2E2E2E2E2E2E2E2E2E2E2E2E2
310
E2E2E2E2E2E2E2E2E2E2E2E2E2E2E2E2E2E2E2E2E2E2E2BEE2E2DCE2E2E2E2E2E2E2E2E2E2E2E2E2E2E22DE2E22DE2E2E2E22DE228E2E2E2E2E2E2E228E2E2E2E2E2E228E2E2E2E2E2E2E2E2E2E2E2E2E2E2E2E2E2E2E2E2E2E2E2E2E2E2E2E2E2E2E2E2E2E2E2E2E2E22DE2E2E2E2E2E2E2E2F52DE2E22DE2E2E2E2E2E2E2
310
E2E2E2E2E2E2E2E22DE2E2F5E2E2E2E2E2E2E228E2E2E2E2E2E2E2E2E2E2F5E228E2E2E22DE2E2E2E2E2E2E2E2E2E2E2E2E2E2E2E2E2E2E2E2E2E2E2E2E2E2E2E2E2E2E2E2E2E2E2E2E2E2E2E2E2DCE2E2BEE2E2E2E2E2E2E2E2E2E2E2E2E2E2E2E2E2E2E2E2E2E2E2E2E2E2E2E2E2E2E2E2E2E2E2E2E2E2E2E2E2E2E2E2E2
310
E2E2E2E2E2E2E2E2E2E2E2E2E2E2E2E2E2E2E2E2E2E2E2E2E2BEE2E2DCE2E2E2E2E2E2E2E2E2E2E2E2E2E2E22DBEBEF52D2D2D2D2D2D282D2D2D2D2D2D2D282D2D2D2D2D2D2D2D2D2D2D2D2D2D2D2DBEBEBE2D2D2D2D2D2D2D2D2D2D2D2D2D2D2D2D2D2D2D2D2D2D2D2D2D2D2D2D2D2DBEBEBE2D2D2DF5E2E22DE2E2E2E2E2
310
E2E2E2E2E2E2E2E2E2E22DE2E2F5E2E2E2E2E2E2E228282828282828282828282828F5E2E2E22DE2E2E2E2E2E2E2E2E2E2E2E2E2E2E2E2E2E2E2E2E2E2E2E2E2E2E2E2E2E2E2E2E2E2E2E2E2E2E2E2E2DCE2E2BEE2E2E2E2E2E2E2E2E2E2E2E2E2E2E2E2E2E2E2E2E2E2E2E2E2E2E2E2E2E2E2E2E2E2E2E2E2E2E2E2E2E2E2
310
E2E2E2E2E2E2E2E2E2E2E2E2E2E2E2E2E2E2E2E2E2E2E2E2E2E2E2BEE2E2DCE2E2E2E2E2E2E2E2E2E2E2E2E2E2E22DBEBEBEE22D2D2D2DF528BEBEE2E2E2E22828E2E2E2E2E2E228E2E2E2E2E2E2E2E2E2BEBEBEE2E2E2E2E2E2E2E2E2E2E2E2E2E2E2E2E2E2E2E2E2E2E2E2E2E22DE2E2E2BEBEBEE2E2F5F5E2E22DE2E2E2
310
E2E2E2E2E2E2E2E2E2E2E2E22DE2E2F5E2E2E2E2E2E2E2E2E2E2E2E2E2E2E2E2E2E2F5E2F5E2E2E22DE2E2E2E2E2E2E2E2E2E2E2E2E2E2E2E2E2E2E2E2E2E2E2E2E2E2E2E2E2E2E2E2E2E2E2E2E2E2E2E2E2DCE2E2BEE2E2E2E2E2E2E2E2E2E2E2E2E2E2E2E2E2E2E2E2E2E2E2E2E2E2E2E2E2E2E2E2E2E2E2E2E2E2E2E2E2
310
E2E2E2E2E2E2E2E2E2E2E2E2E2E2E2E2E2E2E2E2E2E2E2E2E2E2E2E2E2BEE2E2DCE2E2E2E2E2E2E2E2E2E2E2E2E2E2E22DE2E2F5E2E2E22D282D2828282828282828E2E2E2E2E2E2E228E2E2E2E2E2E2E2E2E2E2E2E22828E2E2E2E2E2E2E2E2E2E2E2E2E2E2E2E2E2E2E2E2E2E2E2E22828E2E2E2E2E2E2E2F5F5E2E22DE2
310
E2E2E2E2E2E2E2E2E2E2E2E2E2E22DE2E2F5E2E2E2E2E2E2E2E2E2E2E2E2E2E2E2E2E2E2F5E2F5E2E2E22DE2E2E2E2E2E2E2E2E2E2E2E2E2E2E2E2E2E2E2E2E2E2E2E2E2E2E2E2E2E2E2E2E2E2E2E2E2E2E2E2E2DCE2E2BEE2E2E2E2E2E2E2E2E2E2E2E2E2E2E2E2E2E2E2E2E2E2E2E2E2E2E2E2E2E2E2E2E2E2E2E2E2E2E2
310
E2E2E2E2E2E2E2E2E2E2E2E2E2E2E2E2E2E2E2E2E2E2E2E2E2E2E2E2E2E2E2BEE2E2DCE2E2E2E2E2E2E2E2E2E2E2E2E2E2E22DE2E2F5E2E2E2F5BEF52D2DF5E2E2E2E2E2E2E2E2E2E2E2E228E2E2E2E2E2E2E2E2E2E2E2E22828E2E2E2E2E2E2E2E2E2E2E2E2E2E2E2E2E2E2E2E2E2E2E2282828BEE2E2E2E2E2E2F5F5E2E2
310
2DE2E2E2E2E2E2E2E2E2E2E2E2E2E2E22DE2E2F5E2E2E2E2E2E2E2E2E2E2E2E2E2E2E2E2E2E2F5E2F5E2E2E22DE2E2E2E2E2E2E2E2E2E2E2E2E2E2E2E2E2E2E2E2E2E2E2E2E2E2E2E2E2E2E2E2E2E2E2E2E2E2E2E2E2DCE2E2BEE2E2E2E2E2E2E2E2E2E2E2E2E2E2E2E2E2E2E2E2E2E2E2E2E2E2E2E2E2E2E2E2E2E2E2E2E2
310
E2E2E2E2E2E2E2E2E2E2E2E2E2E2E2E2E2E2E2E2E2E2E2E2E2E2E2E2E2E2E2E2E2BEE2E2DCE2E2E2E2E2E2E2E2E2E2E2E2E2E2E22DE2E2F5E2E2E2282828E2BEBEE2E2E2E2E2E2E2E2E2E2E2E228E2E2E2E2E2E2E2E2E2E2E2F5F5F5F5E2E2E2E2E2E2E2E2E2E2E2E2E2E2E2E2E2E2E2E2E2E2282828E2E2E2E2E2E2E2F5F5
310
E2E22DE2E2E2E2E2E2E2E2E2E2E2E2E2E2E22DE2E2F5E2E2E2E2E2E2E2E2E2E2E2E2E2E2E2E2E2E2F5E2F5F5E2E22DE2E2E2E2E2E2E2E2E2E2E2E2E2E2E2E2E2E2E2E2E2E2E2E2E2E2E2E2E2E2E2E2E2E2E2E2E2E2E2E2E2DCE2E2BEE2E2E2E2E2E2E2E2E2E2E2E2E2E2E2E2E2E2E2E2E2E2E2E2E2E2E2E2E2E2E2E2E2E2E2
310
E2E2E2E2E2E2E2E2E2E2E2E2E2E2E2E2E2E2E2E2E2E2E2E2E2E2E2E2E2E2E2E2E2E2E2BEE2E2DCE2E2E2E2E2E2E2E2E2E2E2E2E2E2E22D2D2D2D2D2D2DF5F5F52DBEBEE2E2E2E2E2E2E2E2E2E2E2E228E2E2E2E2E2E2E2E2E2E2E2F5F5F5F5E2E2E2E2E2E2E2E2E2E2E2E2E2E2E2E2E2E2E2E2E2E2E22828E2E2E2E2E2E2E2
310
F5F5E2E22DE2E2E2E2E2E2E2E2E2E2E2E2E2E2E22DE2E2F5E2E2E2E2E2E2E2E2E2E2E2E2E2E2E2E2E2E2F5E2F5F5E2E22DE2E2E2E2E2E2E2E2E2E2E2E2E2E2E2E2E2E2E2E2E2E2E2E2E2E2E2E2E2E2E2E2E2E2E2E2E2E2E2E2E2DCE2E2BEE2E2E2E2E2E2E2E2E2E2E2E2E2E2E2E2E2E2E2E2E2E2E2E2E2E2E2E2E2E2E2E2E2
310
E2E2E2E2E2E2E2E2E2E2E2E2E2E2E2E2E2E2E2E2E2E2E2E2E2E2E2E2E2E2E2E2E2E2E2E2E2BEE2E2DCE2E2E2E2E2E2E2E2E2E2E2E2E2E2E22DE2E2F5E2E2E22D2DE2E2E22DE2E2E2E2E2E2E2E2E2E2E2E228E2E2E2E2E2E2E2E2E2E2E2F5F5F5F5E2E2E2E2E2E2E2E2E2E2E2E2E2E2E2E2E2E2E2E2E2E2E22828E2E2E2E2E2
310
E2E2F5F5E2E22DE2E2E2E2E2E2E2E2E2E2E2E2E2E2E22DE2E2F5E2E2E2E2E2E2E2E2E2E2E2E2E2E2E2E2E2E2F5E2F5F5E2E22DE2E2E2E2E2E2E2E2E2E2E2E2E2E2E2E2E2E2E2E2E2E2E2E2E2E2E2E2E2E2E2E2E2E2E2E2E2E2E2E2E2DCE2E2BEE2E2E2E2E2E2E2E2E2E2E2E2E2E2E2E2E2E2E2E2E2E2E2E2E2E2E2E2E2E2E2
310
E2E2E2E2E2E2E2E2E2E2E2E2E2E2E2E2E2E2E2E2E2E2E2E2E2E2E2E2E2E2E2E2E2E2E2E2E2E2E2BEE2E2DCE2E2E2E2E2E2E2E2E2E2E2E2E2E2BEBEE2E2F5E2E2E22D2DE2E2E22DE2E2E2E2E2E2E2E2E2E2E2E2E2E2E2E2E2E2E2E2E2E2E2E2E2F5F5E2E2E2E2E2E2E2E2E2E2E2E2E2E2E2E2E2E2E2E2E2E2E2E2E2E2E2E2E2
310
E2E2E2E2F5F5E2E22DE2E2E2E2E2E2E2E2E2E2E2E2E2E2E22DE2E2F5E2E2E2E2E2E2E2E2E2E2E2E2E2E2E2E2E2E2F5E2F5F5E2E22DE2E2E2E2E2E2E2E2E2E2E2E2E2E2E2E2E2E2E2E2E2E2E2E2E2E2E2E2E2E2E2E2E2E2E2E2E2E2E2E2E2DCE2E2BEE2E2E2E2E2E2E2E2E2E2E2E2E2E2E2E2E2E2E2E2E2E2E2E2E2E2E2E2E2
310
E2E2E2E2E2E2E2E2E2E2E2E2E2E2E2E2E2E2E2E2E2E2E2E2E2E2E2E2E2E2E2E2E2E2E2E2E2E2E2E2E2BEE2E2DCE2E2E2E2E2E2E2E2E2E2E2E2E2E2BEBEE2E2F5E2E22D2DF52DBEBEE2E2E2E2E2E2E2E2E2E2E2E2E2E2E2E2E2E2E2E2E2E2E2E2E2E2E2E2E2E2E2E2E2E2E2E2E2E2E2E2E2E2E2E2E2E2E2E2E2E2E2E2E2E2E2
310
E2E2E2E2E2E2F5F5E2E22DE2E2E2E2E2E2E2E2E2E2E2E2E2E2E22DE2E2F5E2E2E2E2E2E2E2E2E2E2E2E2E2E2E2E2E2E2F5E2F5E2E2E22DE2E2E2E2E2E2E2E2E2E2E2E2E2E2E2E2E2E2E2E2E2E2E2E2E2E2E2E2E2E2E2E2E2E2E2E2E2E2E2E2E2DCE2E2BEE2E2E2E2E2E2E2E2E2E2E2E2E2E2E2E2E2E2E2E2E2E2E2E2E2E2E2
310
E2E2E2E2E2E2E2E2E2E2E2E2E2E2E2E2E2E2E2E2E2E2E2E2E2E2E2E2E2E2E2E2E2E2E2E2E2E2E2E2E2E2E2BEE2E2DCE2E2E2E2E2E2E2E2E2E2E2E2E2E2BEBEE2E2F5E2E2E2E2E2BEBEBEE2E2E2E2E2E2E2E2E2E2E2E2E2E2E2E2E2E2E2E2E2E2E2E2E2E2E2E2E2E2E2E2E2E2E2E2E2E2E2E2E2E2E2E2E2E2E2E2E2E2E2E2E2
310
E2E2E2E2E2E2E2E2F5F5E2E22DE2E2E2E2E2E2E2E2E2E2E2E2E2E2E22DE2E2F5E2E2E2E2E2E2E2E2E2E2E2E2E2E2E2E2E2E2F5E2F5E2E2E22DE2E2E2E2E2E2E2E2E2E2E2E2E2E2E2E2E2E2E2E2E2E2E2E2E2E2E2E2E2E2E2E2E2E2E2E2E2E2E2E2E2DCE2E2BEE2E2E2E2E2E2E2E2E2E2E2E2E2E2E2E2E2E2E2E2E2E2E2E2E2
310
E2E2E2E2E2E2E2E2E2E2E2E2E2E2E2E2E2E2E2E2E2E2E2E2E2E2E2E2E2E2E2E2E2E2E2E2E2E2E2E2E2E2E2E2E2BEE2E2DCE2E2E2E2E2E2E2E2E2E2E2E2E2E2E2F52D2DF5F5F5F5F5F5F5F5F5F5F5F5F5F5F5F5F5F5F5F5F5F5F5F5F5F5F5F5F5F5F5F5F5F5F5F5F5F5F5F5F5F5F5F5F5F5F5F5F5F5F5F5F5F5F5F5F5F5F5F5
310
F5F5F5F5F5F5F5F5F5F5F5F52D2D2DE2E2E2E2E2E2E2E2E2E2E2E2E2E22D2D2D2DF5F5F5F5F5F5F5F5F5F5F5F5F5F5F5F5F5F5F5F5F5F52D2D2DF5E2E2E2E2E2E2E2E2E2E2E2E2E2E2E2E2E2E2E2E2E2E2E2E2E2E2E2E2E2E2E2E2E2E2E2E2E2E2E2E2E2DCE2E2BEE2E2E2E2E2E2E2E2E2E2E2E2E2E2E2E2E2E2E2E2E2E2E2
310
E2E2E2E2E2E2E2E2E2E2E2E2E2E2E2E2E2E2E2E2E2E2E2E2E2E2E2E2E2E2E2E2E2E2E2E2E2E2E2E2E2E2E2E2E2E2E2BEE2E2DCE2E2E2E2E2E2E2E2E2E2E2E2E2E2E2E2E2E22DE2E2E2E2E2E2E2E2E2E2E2E2E2E2E2E2E2E2E2E2E2E2E2E2E2E2E2E2E2E2E2E2E2E2E2E2E2E2E2E2E2E2E2E2E2E2E2E2E2E2E2E2E2E2E2E2E2
310
E2E2E2E2E2E2E2E2E2E2E2E2E22DE2E2E2E2E2E2E2E2E2E2E2E2E2E2E2E2E2E2E2E2E2F5E2E2E2E2E2E2E2E2E2E2E2E2E2E2E2E2E2E22DE22DE2E2E2E2E2E2E2E2E2E2E2E2E2E2E2E2E2E2E2E2E2E2E2E2E2E2E2E2E2E2E2E2E2E2E2E2E2E2E2E2E2E2E2E2E2DCE2E2BEE2E2E2E2E2E2E2E2E2E2E2E2E2E2E2E2E2E2E2E2E2
310
E2E2E2E2E2E2E2E2E2E2E2E2E2E2E2E2E2E2E2E2E2E2E2E2E2E2E2E2E2E2E2E2E2E2E2E2E2E2E2E2E2E2E2E2E2E2E2E2E2BEE2E2DCE2E2E2E2E2E2E2E2E2E2E2E2E2E2E2E2E2E22D2D2D2D2D2D2D2D2D2D2D2D2D2D2D2D2D2D2D2D2D2D2D2D2D2D2D2D2D2D2D2D2D2D2D2D2D2D2D2D2D2D2D2D2D2D2D2D2D2D2D2D2D2D2D2D
310
2D2D2D2D2D2D2D2D2D2D2D2D2D2D2DF5E2E2E2E2E2E2E2E2E2E2E2E2E2E2E2E2E2E2E2E2E22DE2E2E2E2E2E2E2E2E2E2E2E2E2E2E2E2E2E22DE22DE2E2E2E2E2E2E2E2E2E2E2E2E2E2E2E2E2E2E2E2E2E2E2E2E2E2E2E2E2E2E2E2E2E2E2E2E2E2E2E2E2E2E2E2E2DCE2E2BEE2E2E2E2E2E2E2E2E2E2E2E2E2E2E2E2E2E2E2
310
E2E2E2E2E2E2E2E2E2E2E2E2E2E2E2E2E2E2E2E2E2E2E2E2E2E2E2E2E2E2E2E2E2E2E2E2E2E2E2E2E2E2E2E2E2E2E2E2E2E2E2BEE2E2DCE2E2E2E2E2E2E2E2E2E2E2E2E2E2E2E2E2E22DE2E2E2E2E2E2E2E2E2E2E2E2E2E2E2E2E2E2E2E2E2E2E2E2E2E2E2E2E2E2E2E2E2BEBEBEBEE2E2E2E2E2E2E2E2E2E2E2E2E2E2E2E2
310
E2E2E2E2E2E2E2E2E2E2E2E2E2E2E2E2E22DE2E2E2E2E2E2E2E2E2E2E2E2E2E2E2E2E2E2E2E2E22D2D2D2D2D2D2D2D2DBEBEBE2D2D2D2D2D2D2DF5E22DE2E2E2E2E2E2E2E2E2E2E2E2E2E2E2E2E2E2E2E2E2E2E2E2E2E2E2E2E2E2E2E2E2E2E2E2E2E2E2E2E2E2E2E2E2DCE2E2BEE2E2E2E2E2E2E2E2E2E2E2E2E2E2E2E2E2
310
E2E2E2E2E2E2E2E2E2E2E2E2E2E2E2E2E2E2E2E2E2E2E2E2E2E2E2E2E2E2E2E2E2E2E2E2E2E2E2E2E2E2E2E2E2E2E2E2E2E2E2E2E2BEE2E2DCE2E2E2E2E2E2E2E2E2E2E2E2E2E2E2E2E2E2E2E2E2E2E2E2E2E2E2E2E2E2E2E2E2E2E2E2E2E2E2E2E2E2E2E2E2E2E2E2E2E2E2E2E2BEBEBEE2E2E2E2E2E2E2E2E2E2E2E2E2E2
310
E2E2E2E2E2E2E2E2E2E2E2E2E2E2E2E2E2E2E2E2E2E2E2E2E2E2E2E2E2E2E2E2E2E2E2E2E2E2E2E2E22DE2E2E2E2E2E2E2E2BEBEBEE2E2E2E2E2E2E2E2E22DE2E2E2E2E2E2E2E2E2E2E2E2E2E2E2E2E2E2E2E2E2E2E2E2E2E2E2E2E2E2E2E2E2E2E2E2E2E2E2E2E2E2E2E2E2DCE2E2BEE2E2E2E2E2E2E2E2E2E2E2E2E2E2E2
310
E2E2E2E2E2E2E2E2E2E2E2E2E2E2E2E2E2E2E2E2E2E2E2E2E2E2E2E2E2E2E2E2E2E2E2E2E2E2E2E2E2E2E2E2E2E2E2E2E2E2E2E2E2E2E2BEE2E2DCE2E2E2E2E2E2E2E2E2E2E2E2E2E2E2E2E2E2E2E2E2E2E2E2E2E2E2E2E2E2E2E2E2E2E2E2E2E2E2E2E2E2E2E2E2E2E2E2E2E2E2E2E2E2E2E2E2E2E2E2E2E2E2E2E2E2E2E2
310
E2E2E2E2E2E2E2E2E2E2E2E2E2E2E2E2E2E2E2E2E2E2E2E2E2E2E2E2E2E2E2E2E2E2E2E2E2E2E2E2E2E2E22D2D2D2D2D2D2D2D2DBEBEBEBE2D2D2D2D2D2D2D2DF5E2E2E2E2E2E2E2E2E2E2E2E2E2E2E2E2E2E2E2E2E2E2E2E2E2E2E2E2E2E2E2E2E2E2E2E2E2E2E2E2E2E2E2E2E2DCE2E2BEE2E2E2E2E2E2E2E2E2E2E2E2E2
310
E2E2E2E2E2E2E2E2E2E2E2E2E2E2E2E2E2E2E2E2E2E2E2E2E2E2E2E2E2E2E2E2E2E2E2E2E2E2E2E2E2E2E2E2E2E2E2E2E2E2E2E2E2E2E2E2E2BEE2E2DCE2E2E2E2E2E2E2E2E2E2E2E2E2E2E2E2E2E2E2E2E2E2E2E2E2E2E2E2E2E2E2E2E2E2E2E2E2E2E2E2E2E2E2E2E2E2E2E2E2E2E2E2E2E2E2E2E2E2E2E2E2E2E2E2E2E2
310
E2E2E2E2E2E2E2E2E2E2E2E2E2E2E2E2E2E2E2E2E2E2E2E2E2E2E2E2E2E2E2E2E2E2E2E2E2E2E2E2E2E2E2E2E2E2E2E2E2E2E2E2E2E2BEBEBEBEE2E2E2E2E2E2E2E2E2E2E2E2E2E2E2E2E2E2E2E2E2E2E2E2E2E2E2E2E2E2E2E2E2E2E2E2E2E2E2E2E2E2E2E2E2E2E2E2E2E2E2E2E2E2DCE2E2BEE2E2E2E2E2E2E2E2E2E2E2
310
E2E2E2E2E2E2E2E2E2E2E2E2E2E2E2E2E2E2E2E2E2E2E2E2E2E2E2E2E2E2E2E2E2E2E2E2E2E2E2E2E2E2E2E2E2E2E2E2E2E2E2E2E2E2E2E2E2E2E2BEE2E2DCE2E2E2E2E2E2E2E2E2E2E2E2E2E2E2E2E2E2E2E2E2E2E2E2E2E2E2E2E2E2E2E2E2E2E2E2E2E2E2E2E2E2E2E2E2E2E2E2E2E2E2E2E2E2E2E2E2E2E2E2E2E2E2E2
310
E2E2E2E2E2E2E2E2E2E2E2E2E2E2E2E2E2E2E2E2E2E2E2E2E2E2E2E2E2E2E2E2E2E2E2E2E2E2E2E2E2E2E2E2E2E2E2E2E2E2E2E2E2E2E2E2E2E2E2E2E2E2E2E2E2E2E2E2E2E2E2E2E2E2E2E2E2E2E2E2E2E2E2E2E2E2E2E2E2E2E2E2E2E2E2E2E2E2E2E2E2E2E2E2E2E2E2E2E2E2E2E2E2E2DCE2E2BEE2E2E2E2E2E2E2E2E2
310
E2E2E2E2E2E2E2E2E2E2E2E2E2E2E2E2E2E2E2E2E2E2E2E2E2E2E2E2E2E2E2E2E2E2E2E2E2E2E2E2E2E2E2E2E2E2E2E2E2E2E2E2E2E2E2E2E2E2E2E2E2BEE2E2DCE2E2E2E2E2E2E2E2E2E2E2E2E2E2E2E2E2E2E2E2E2E2E2E2E2E2E2E2E2E2E2E2E2E2E2E2E2E2E2E2E2E2E2E2E2E2E2E2E2E2E2E2E2E2E2E2E2E2E2E2E2E2
310
E2E2E2E2E2E2E2E2E2E2E2E2E2E2E2E2E2E2E2E2E2E2E2E2E2E2E2E2E2E2E2E2E2E2E2E2E2E2E2E2E2E2E2E2E2E2E2E2E2E2E2E2E2E2E2E2E2E2E2E2E2E2E2E2E2E2E2E2E2E2E2E2E2E2E2E2E2E2E2E2E2E2E2E2E2E2E2E2E2E2E2E2E2E2E2E2E2E2E2E2E2E2E2E2E2E2E2E2E2E2E2E2E2E2E2E2DCE2E2BEE2E2E2E2E2E2E2
310
E2E2E2E2E2E2E2E2E2E2E2E2E2E2E2E2E2E2E2E2E2E2E2E2E2E2E2E2E2E2E2E2E2E2E2E2E2E2E2E2E2E2E2E2E2E2E2E2E2E2E2E2E2E2E2E2E2E2E2E2E2E2E2BEE2E2DCE2E2E2E2E2E2E2E2E2E2E2E2E2E2E2E2E2E2E2E2E2E2E2E2E2E2E2E2E2E2E2E2E2E2E2E2E2E2E2E2E2E2E2E2E2E2E2E2E2E2E2E2E2E2E2E2E2E2E2E2
310
E2E2E2E2E2E2E2E2E2E2E2E2E2E2E2E2E2E2E2E2E2E2E2E2E2E2E2E2E2E2E2E2E2E2E2E2E2E2E2E2E2E2E2E2E2E2E2E2E2E2E2E2E2E2E2E2E2E2E2E2E2E2E2E2E2E2E2E2E2E2E2E2E2E2E2E2E2E2E2E2E2E2E2E2E2E2E2E2E2E2E2E2E2E2E2E2E2E2E2E2E2E2E2E2E2E2E2E2E2E2E2E2E2E2E2E2E2E2DCE2E2BEE2E2E2E2E2
310
E2E2E2E2E2E2E2E2E2E2E2E2E2E2E2E2E2E2E2E2E2E2E2E2E2E2E2E2E2E2E2E2E2E2E2E2E2E2E2E2E2E2E2E2E2E2E2E2E2E2E2E2E2E2E2E2E2E2E2E2E2E2E2E2E2BEE2E2DCE2E2E2E2E2E2E2E2E2E2E2E2E2E2E2E2E2E2E2E2E2E2E2E2E2E2E2E2E2E2E2E2E2E2E2E2E2E2E2E2E2E2E2E2E2E2E2E2E2E2E2E2E2E2E2E2E2E2
310
E2E2E2E2E2E2E2E2E2E2E2E2E2E2E2E2E2E2E2E2E2E2E2E2E2E2E2E2E2E2E2E2E2E2E2E2E2E2E2E2E2E2E2E2E2E2E2E2E2E2E2E2E2E2E2E2E2E2E2E2E2E2E2E2E2E2E2E2E2E2E2E2E2E2E2E2E2E2E2E2E2E2E2E2E2E2E2E2E2E2E2E2E2E2E2E2E2E2E2E2E2E2E2E2E2E2E2E2E2E2E2E2E2E2E2E2E2E2E2E2DCE2E2BEE2E2E2
310
E2E2E2E2E2E2E2E2E2E2E2E2E2E2E2E2E2E2E2E2E2E2E2E2E2E2E2E2E2E2E2E2E2E2E2E2E2E2E2E2E2E2E2E2E2E2E2E2E2E2E2E2E2E2E2E2E2E2E2E2E2E2E2E2E2E2E2BEE2E2DCE2E2E2E2E2E2E2E2E2E2E2E2E2E2E2E2E2E2E2E2E2E2E2E2E2E2E2E2E2E2E2E2E2E2E2E2E2E2E2E2E2E2E2E2E2E2E2E2E2E2E2E2E2E2E2E2
310
E2E2E2E2E2E2E2E2E2E2E2E2E2E2E2E2E2E2E2E2E2E2E2E2E2E2E2E2E2E2E2E2E2E2E2E2E2E2E2E2E2E2E2E2E2E2E2E2E2E2E2E2E2E2E2E2E2E2E2E2E2E2E2E2E2E2E2E2E2E2E2E2E2E2E2E2E2E2E2E2E2E2E2E2E2E2E2E2E2E2E2E2E2E2E2E2E2E2E2E2E2E2E2E2E2E2E2E2E2E2E2E2E2E2E2E2E2E2E2E2E2E2DCE2E2BEE2
310
E2E2E2E2E2E2E2E2E2E2E2E2E2E2E2E2E2E2E2E2E2E2E2E2E2E2E2E2E2E2E2E2E2E2E2E2E2E2E2E2E2E2E2E2E2E2E2E2E2E2E2E2E2E2E2E2E2E2E2E2E2E2E2E2E2E2E2E2E2BEE2E2DCE2E2E2E2E2E2E2E2E2E2E2E2E2E2E2E2E2E2E2E2E2E2E2E2E2E2E2E2E2E2E2E2E2E2E2E2E2E2E2E2E2E2E2E2E2E2E2E2E2E2E2E2E2E2
310
E2E2E2E2E2E2E2E2E2E2E2E2E2E2E2E2E2E2E2E2E2E2E2E2E2E2E2E2E2E2E2E2E2E2E2E2E2E2E2E2E2E2E2E2E2E2E2E2E2E2E2E2E2E2E2E2E2E2E2E2E2E2E2E2E2E2E2E2E2E2E2E2E2E2E2E2E2E2E2E2E2E2E2E2E2E2E2E2E2E2E2E2E2E2E2E2E2E2E2E2E2E2E2E2E2E2E2E2E2E2E2E2E2E2E2E2E2E2E2E2E2E2E2E2DCE2E2
310
BEE2E2E2E2E2E2E2E2E2E2E2E2E2E2E2E2E2E2E2E2E2E2E2E2E2E2E2E2E2E2E2E2E2E2E2E2E2E2E2E2E2E2E2E2E2E2E2E2E2E2E2E2E2E2E2E2E2E2E2E2E2E2E2E2E2E2E2E2E2E2BEE2E2DCE2E2E2E2E2E2E2E2E2E2E2E2E2E2E2E2E2E2E2E2E2E2E2E2E2E2E2E2E2E2E2E2E2E2E2E2E2E2E2E2E2E2E2E2E2E2E2E2E2E2E2E2
310
E2E2E2E2E2E2E2E2E2E2E2E2E2E2E2E2E2E2E2E2E2E2E2E2E2E2E2E2E2E2E2E2E2E2E2E2E2E2E2E2E2E2E2E2E2E2E2E2E2E2E2E2E2E2E2E2E2E2E2E2E2E2E2E2E2E2E2E2E2E2E2E2E2E2E2E2E2E2E2E2E2E2E2E2E2E2E2E2E2E2E2E2E2E2E2E2E2E2E2E2E2E2E2E2E2E2E2E2E2E2E2E2E2E2E2E2E2E2E2E2E2E2E2E2E2E2DC
310
E2E2BEE2E2E2E2E2E2E2E2E2E2E2E2E2E2E2E2E2E2E2E2E2E2E2E2E2E2E2E2E2E2E2E2E2E2E2E2E2E2E2E2E2E2E2E2E2E2E2E2E2E2E2E2E2E2E2E2E2E2E2E2E2E2E2E2E2E2E2E2E2E2BEE2E2DCE2E2E2E2E2E2E2E2E2E2E2E2E2E2E2E2E2E2E2E2E2E2E2E2E2E2E2E2E2E2E2E2E2E2E2E2E2E2E2E2E2E2E2E2E2E2E2E2E2E2
310
E2E2E2E2E2E2E2E2E2E2E2E2E2E2E2E2E2E2E2E2E2E2E2E2E2E2E2E2E2E2E2E2E2E2E2E2E2E2E2E2E2E2E2E2E2E2E2E2E2E2E2E2E2E2E2E2E2E2E2E2E2E2E2E2E2E2E2E2E2E2E2E2E2E2E2E2E2E2E2E2E2E2E2E2E2E2E2E2E2E2E2E2E2E2E2E2E2E2E2E2E2E2E2E2E2E2E2E2E2E2E2E2E2E2E2E2E2E2E2E2E2E2E2E2E2E2E2
310
E2DCE2E2BEE2E2E2E2E2E2E2E2E2E2E2E2E2E2E2E2E2E2E2E2E2E2E2E2E2E2E2E2E2E2E2E2E2E2E2E2E2E2E2E2E2E2E2E2E2E2E2E2E2E2E2E2E2E2E2E2E2E2E2E2E2E2E2E2E2E2E2E2E2E2BEE2E2DCE2E2E2E2E2E2E2E2E2E2E2E2E2E2E2E2E2E2E2E2E2E2E2E2E2E2E2E2E2E2E2E2E2E2E2E2E2E2E2E2E2E2E2E2E2E2E2E2
310
E2E2E2E2E2E2E2E2E2E2E2E2E2E2E2E2E2E2E2E2E2E2E2E2E2E2E2E2E2E2E2E2E2E2E2E2E2E2E2E2E2E2E2E2E2E2E2E2E2E2E2E2E2E2E2E2E2E2E2E2E2E2E2E2E2E2E2E2E2E2E2E2E2E2E2E2E2E2E2E2E2E2E2E2E2E2E2E2E2E2E2E2E2E2E2E2E2E2E2E2E2E2E2E2E2E2E2E2E2E2E2E2E2E2E2E2E2E2E2E2E2E2E2E2E2E2E2
310
E2E2E2DCE2E2BEE2E2E2E2E2E2E2E2E2E2E2E2E2E2E2E2E2E2E2E2E2E2E2E2E2E2E2E2E2E2E2E2E2E2E2E2E2E2E2E2E2E2E2E2E2E2E2E2E2E2E2E2E2E2E2E2E2E2E2E2E2E2E2E2E2E2E2E2E2E2BEE2E2DCE2E2E2E2E2E2E2E2E2E2E2E2E2E2E2E2E2E2E2E2E2E2E2E2E2E2E2E2E2E2E2E2E2E2E2E2E2E2E2E2E2E2E2E2E2E2
310
E2E2E2E2E2E2E2E2E2E2E2E2E2E2E2E2E2E2E2E2E2E2E2E2E2E2E2E2E2E2E2E2E2E2E2E2E2E2E2E2E2E2E2E2E2E2E2E2E2E2E2E2E2E2E2E2E2E2E2E2E2E2E2E2E2E2E2E2E2E2E2E2E2E2E2E2E2E2E2E2E2E2E2E2E2E2E2E2E2E2E2E2E2E2E2E2E2E2E2E2E2E2E2E2E2E2E2E2E2E2E2E2E2E2E2E2E2E2E2E2E2E2E2E2E2E2E2
310
E2E2E2E2E2DCE2E2BEE2E2E2E2E2E2E2E2E2E2E2E2E2E2E2E2E2E2E2E2E2E2E2E2E2E2E2E2E2E2E2E2E2E2E2E2E2E2E2E2E2E2E2E2E2E2E2E2E2E2E2E2E2E2E2E2E2E2E2E2E2E2E2E2E2E2E2E2E2E2BEE2E2DCE2E2E2E2E2E2E2E2E2E2E2E2E2E2E2E2E2E2E2E2E2E2E2E2E2E2E2E2E2E2E2E2E2E2E2E2E2E2E2E2E2E2E2E2
310
E2E2E2E2E2E2E2E2E2E2E2E2E2E2E2E2E2E2E2E2E2E2E2E2E2E2E2E2E2E2E2E2E2E2E2E2E2E2E2E2E2E2E2E2E2E2E2E2E2E2E2E2E2E2E2E2E2E2E2E2E2E2E2E2E2E2E2E2E2E2E2E2E2E2E2E2E2E2E2E2E2E2E2E2E2E2E2E2E2E2E2E2E2E2E2E2E2E2E2E2E2E2E2E2E2E2E2E2E2E2E2E2E2E2E2E2E2E2E2E2E2E2E2E2E2E2E2
310
E2E2E2E2E2E2E2DCE2E2BEE2E2E2E2E2E2E2E2E2E2E2E2E2E2E2E2E2E2E2E2E2E2E2E2E2E2E2E2E2E2E2E2E2E2E2E2E2E2E2E2E2E2E2E2E2E2E2E2E2E2E2E2E2E2E2E2E2E2E2E2E2E2E2E2E2E2E2E2E2E2BEE2E2DCE2E2E2E2E2E2E2E2E2E2E2E2E2E2E2E2E2E2E2E2E2E2E2E2E2E2E2E2E2E2E2E2E2E2E2E2E2E2E2E2E2E2
310
E2E2E2E2E2E2E2E2E2E2E2E2E2E2E2E2E2E2E2E2E2E2E2E2E2E2E2E2E2E2E2E2E2E2E2E2E2E2E2E2E2E2E2E2E2E2E2E2E2E2E2E2E2E2E2E2E2E2E2E2E2E2E2E2E2E2E2E2E2E2E2E2E2E2E2E2E2E2E2E2E2E2E2E2E2E2E2E2E2E2E2E2E2E2E2E2E2E2E2E2E2E2E2E2E2E2E2E2E2E2E2E2E2E2E2E2E2E2E2E2E2E2E2E2E2E2E2
310
E2E2E2E2E2E2E2E2E2DCE2E2BEE2E2E2E2E2E2E2E2E2E2E2E2E2E2E2E2E2E2E2E2E2E2E2E2E2E2E2E2E2E2E2E2E2E2E2E2E2E2E2E2E2E2E2E2E2E2E2E2E2E2E2E2E2E2E2E2E2E2E2E2E2E2E2E2E2E2E2E2E2E2BEE2E2DCDCDCDCDCDCDCDCDCDCDCDCDCDCDCDCDCDCDCDCDCDCDCDCDCDCDCDCDCDCDCDCDCDCDCDCDCDCDCDCDC
310
DCDCDCDCDCDCDCDCDCDCDCDCDCDCDCDCDCDCDCDCDCDCDCDCDCDCDCDCDCDCDCDCDCDCDCDCDCDCDCDCDCDCDCDCDCDCDCDCDCDCDCDCDCDCDCDCDCDCDCDCDCDCDCDCDCDCDCDCDCDCDCDCDCDCDCDCDCDCDCDCDCDCDCDCDCDCDCDCDCDCDCDCDCDCDCDCDCDCDCDCDCDCDCDCDCDCDCDCDCDCDCDCDCDCDCDCDCDCDCDCDCDCDCDCDCDCDC
310
DCDCDCDCDCDCDCDCDCDCDCDCE2E2BEE2E2E2E2E2E2E2E2E2E2E2E2E2E2E2E2E2E2E2E2E2E2E2E2E2E2E2E2E2E2E2E2E2E2E2E2E2E2E2E2E2E2E2E2E2E2E2E2E2E2E2E2E2E2E2E2E2E2E2E2E2E2E2E2E2E2E2E2E2E2BEE2E2E2E2E2E2E2E2E2E2E2E2E2E2E2E2E2E2E2E2E2E2E2E2E2E2E2E2E2E2E2E2E2E2E2E2E2E2E2E2E2
310
E2E2E2E2E2E2E2E2E2E2E2E2E2E2E2E2E2E2E2E2E2E2E2E2E2E2E2E2E2E2E2E2E2E2E2E2E2E2E2E2E2E2E2E2E2E2E2E2E2E2E2E2E2E2E2E2E2E2E2E2E2E2E2E2E2E2E2E2E2E2E2E2E2E2E2E2E2E2E2E2E2E2E2E2E2E2E2E2E2E2E2E2E2E2E2E2E2E2E2E2E2E2E2E2E2E2E2E2E2E2E2E2E2E2E2E2E2E2E2E2E2E2E2E2E2E2E2
310
E2E2E2E2E2E2E2E2E2E2E2E2E2E2E2E2BEE2E2E2E2E2E2E2E2E2E2E2E2E2E2E2E2E2E2E2E2E2E2E2E2E2E2E2E2E2E2E2E2E2E2E2E2E2E2E2E2E2E2E2E2E2E2E2E2E2E2E2E2E2E2E2E2E2E2E2E2E2E2E2E2E2E2E2E2E2E2BEE2E2E2E2E2E2E2E2E2E2E2E2E2E2E2E2E2E2E2E2E2E2E2E2E2E2E2E2E2E2E2E2E2E2E2E2E2E2E2
310
E2E2E2E2E2E2E2E2E2E2E2E2E2E2E2E2E2E2E2E2E2E2E2E2E2E2E2E2E2E2E2E2E2E2E2E2E2E2E2E2E2E2E2E2E2E2E2E2E2E2E2E2E2E2E2E2E2E2E2E2E2E2E2E2E2E2E2E2E2E2E2E2E2E2E2E2E2E2E2E2E2E2E2E2E2E2E2E2E2E2E2E2E2E2E2E2E2E2E2E2E2E2E2E2E2E2E2E2E2E2E2E2E2E2E2E2E2E2E2E2E2E2E2E2E2E2E2
310
E2E2E2E2E2E2E2E2E2E2E2E2E2E2E2E2E2E2BEE2E2E2E2E2E2E2E2E2E2E2E2E2E2E2E2E2E2E2E2E2E2E2E2E2E2E2E2E2E2E2E2E2E2E2E2E2E2E2E2E2E2E2E2E2E2E2E2E2E2E2E2E2E2E2E2E2E2E2E2E2E2E2E2E2E2E2E2E2E2BEBEBEBEBEBEBEBEBEBEBEBEBEBEBEBEBEBEBEBEBEBEBEBEBEBEBEBEBEBEBEBEBEBEBEBEBEBE
310
BEBEBEBEBEBEBEBEBEBEBEBEBEBEBEBEBEBEBEBEBEBEBEBEBEBEBEBEBEBEBEBEBEBEBEBEBEBEBEBEBEBEBEBEBEBEBEBEBEBEBEBEBEBEBEBEBEBEBEBEBEBEBEBEBEBEBEBEBEBEBEBEBEBEBEBEBEBEBEBEBEBEBEBEBEBEBEBEBEBEBEBEBEBEBEBEBEBEBEBEBEBEBEBEBEBEBEBEBEBEBEBEBEBEBEBEBEBEBEBEBEBEBEBEBEBEBE
310
BEBEBEBEBEBEBEBEBEBEBEBEBEBEBEBEBEBEBEBEBEE2E2E2E2E2E2E2E2E2E2E2E2E2E2E2E2E2E2E2E2E2E2E2E2E2E2E2E2E2E2E2E2E2E2E2E2E2E2E2E2E2E2E2E2E2E2E2E2E2E2E2E2E2E2E2E2E2E2E2E2E2E2E2E2E2E2E2E2E2E2E2E2E2E2E2E2E2E2E2E2E2E2E2E2E2E2E2E2E2E2E2E2E2E2E2E2E2E2E2E2E2E2E2E2E2E2
310
E2E2E2E2E2E2E2E2E2E2E2E2E2E2E2E2E2E2E2E2E2E2E2E2E2E2E2E2E2E2E2E2E2E2E2E2E2E2E2E2E2E2E2E2E2E2E2E2E2E2E2E2E2E2E2E2E2E2E2E2E2E2E2E2E2E2E2E2E2E2E2E2E2E2E2E2E2E2E2E2E2E2E2E2E2E2E2E2E2E2E2E2E2E2E2E2E2E2E2E2E2E2E2E2E2E2E2E2E2E2E2E2E2E2E2E2E2E2E2E2E2E2E2E2E2E2E2
310
E2E2E2E2E2E2E2E2E2E2E2E2E2E2E2E2E2E2E2E2E2E2E2E2E2E2E2E2E2E2E2E2E2E2E2E2E2E2E2E2E2E2E2E2E2E2E2E2E2E2E2E2E2E2E2E2E2E2
  0
XRECORD
  5
46
102
{ACAD_REACTORS
330
45
102
}
330
45
100
AcDbXrecord
280
     1
270
     1
271
     1
  0
XRECORD
  5
47
102
{ACAD_REACTORS
330
45
102
}
330
45
100
AcDbXrecord
280
     1
270
     1
271
     1
  0
XRECORD
  5
48
102
{ACAD_REACTORS
330
45
102
}
330
45
100
AcDbXrecord
280
     1
270
     1
271
     1
  0
XRECORD
  5
49
102
{ACAD_REACTORS
330
45
102
}
330
45
100
AcDbXrecord
280
     1
270
     1
271
     1
  0
XRECORD
  5
4A
102
{ACAD_REACTORS
330
45
102
}
330
45
100
AcDbXrecord
280
     1
270
     1
271
     1
  0
XRECORD
  5
4B
102
{ACAD_REACTORS
330
45
102
}
330
45
100
AcDbXrecord
280
     1
270
     1
271
     1
  0
XRECORD
  5
3E
102
{ACAD_REACTORS
330
3D
102
}
330
3D
100
AcDbXrecord
280
     1
270
     1
271
     1
  0
XRECORD
  5
3F
102
{ACAD_REACTORS
330
3D
102
}
330
3D
100
AcDbXrecord
280
     1
270
     1
271
     1
  0
XRECORD
  5
40
102
{ACAD_REACTORS
330
3D
102
}
330
3D
100
AcDbXrecord
280
     1
270
     1
271
     1
  0
XRECORD
  5
41
102
{ACAD_REACTORS
330
3D
102
}
330
3D
100
AcDbXrecord
280
     1
270
     1
271
     1
  0
XRECORD
  5
42
102
{ACAD_REACTORS
330
3D
102
}
330
3D
100
AcDbXrecord
280
     1
270
     1
271
     1
  0
XRECORD
  5
43
102
{ACAD_REACTORS
330
3D
102
}
330
3D
100
AcDbXrecord
280
     1
270
     1
271
     1
  0
XRECORD
  5
F
102
{ACAD_REACTORS
330
E
102
}
330
E
100
AcDbXrecord
280
     1
270
     1
271
     1
  0
XRECORD
  5
10
102
{ACAD_REACTORS
330
E
102
}
330
E
100
AcDbXrecord
280
     1
270
     1
271
     1
  0
XRECORD
  5
11
102
{ACAD_REACTORS
330
E
102
}
330
E
100
AcDbXrecord
280
     1
270
     1
271
     1
  0
XRECORD
  5
12
102
{ACAD_REACTORS
330
E
102
}
330
E
100
AcDbXrecord
280
     1
270
     1
271
     1
  0
XRECORD
  5
13
102
{ACAD_REACTORS
330
E
102
}
330
E
100
AcDbXrecord
280
     1
270
     1
271
     1
  0
XRECORD
  5
14
102
{ACAD_REACTORS
330
E
102
}
330
E
100
AcDbXrecord
280
     1
270
     1
271
     1
  0
CELLSTYLEMAP
  5
518
102
{ACAD_REACTORS
330
56
102
}
330
56
100
AcDbCellStyleMap
 90
        3
300
CELLSTYLE
  1
TABLEFORMAT_BEGIN
 90
        5
170
     1
 91
        0
 92
    32768
 62
   257
 93
        1
300
CONTENTFORMAT
  1
CONTENTFORMAT_BEGIN
 90
        0
 91
        0
 92
      512
 93
        0
300

 40
0.0
140
1.0
 94
        5
 62
     0
340
26
144
0.25
309
CONTENTFORMAT_END
171
     0
 94
        0
309
TABLEFORMAT_END
  1
CELLSTYLE_BEGIN
 90
        1
 91
        1
300
_TITLE
309
CELLSTYLE_END
300
CELLSTYLE
  1
TABLEFORMAT_BEGIN
 90
        5
170
     1
 91
        0
 92
        0
 62
   257
 93
        1
300
CONTENTFORMAT
  1
CONTENTFORMAT_BEGIN
 90
        0
 91
        0
 92
      512
 93
        0
300

 40
0.0
140
1.0
 94
        5
 62
     0
340
26
144
0.18
309
CONTENTFORMAT_END
171
     0
 94
        0
309
TABLEFORMAT_END
  1
CELLSTYLE_BEGIN
 90
        2
 91
        1
300
_HEADER
309
CELLSTYLE_END
300
CELLSTYLE
  1
TABLEFORMAT_BEGIN
 90
        5
170
     1
 91
        0
 92
        0
 62
   257
 93
        1
300
CONTENTFORMAT
  1
CONTENTFORMAT_BEGIN
 90
        0
 91
        0
 92
      512
 93
        0
300

 40
0.0
140
1.0
 94
        2
 62
     0
340
26
144
0.18
309
CONTENTFORMAT_END
171
     0
 94
        0
309
TABLEFORMAT_END
  1
CELLSTYLE_BEGIN
 90
        3
 91
        2
300
_DATA
309
CELLSTYLE_END
  0
ENDSEC
  0
EOF
