  0
SECTION
  2
HEADER
  9
$ACADVER
  1
AC1024
  9
$ACADMAINTVER
 70
    37
  9
$DWGCODEPAGE
  3
ANSI_1252
  9
$INSBASE
 10
0.0
 20
0.0
 30
0.0
  9
$EXTMIN
 10
-8535.928086717687
 20
-1140.601399277622
 30
-0.0015258207003583
  9
$EXTMAX
 10
9688.082850717227
 20
6171.744882156072
 30
0.0000000349246037
  9
$LIMMIN
 10
0.0
 20
0.0
  9
$LIMMAX
 10
2100.0
 20
2970.000000000001
  9
$ORTHOMODE
 70
     1
  9
$REGENMODE
 70
     1
  9
$FILLMODE
 70
     1
  9
$QTEXTMODE
 70
     0
  9
$MIRRTEXT
 70
     0
  9
$LTSCALE
 40
15.0
  9
$ATTMODE
 70
     1
  9
$TEXTSIZE
 40
20.0
  9
$TRACEWID
 40
1.0
  9
$TEXTSTYLE
  7
STANDARD
  9
$CLAYER
  8
09-01
  9
$CELTYPE
  6
ByLayer
  9
$CECOLOR
 62
   256
  9
$CELTSCALE
 40
1.0
  9
$DISPSILH
 70
     0
  9
$DIMSCALE
 40
5.0
  9
$DIMASZ
 40
2.5
  9
$DIMEXO
 40
1.0
  9
$DIMDLI
 40
10.0
  9
$DIMRND
 40
0.0
  9
$DIMDLE
 40
0.0
  9
$DIMEXE
 40
1.0
  9
$DIMTP
 40
0.0
  9
$DIMTM
 40
0.0
  9
$DIMTXT
 40
2.5
  9
$DIMCEN
 40
0.0
  9
$DIMTSZ
 40
0.0
  9
$DIMTOL
 70
     0
  9
$DIMLIM
 70
     0
  9
$DIMTIH
 70
     0
  9
$DIMTOH
 70
     0
  9
$DIMSE1
 70
     0
  9
$DIMSE2
 70
     0
  9
$DIMTAD
 70
     1
  9
$DIMZIN
 70
     8
  9
$DIMBLK
  1

  9
$DIMASO
 70
     1
  9
$DIMSHO
 70
     0
  9
$DIMPOST
  1

  9
$DIMAPOST
  1

  9
$DIMALT
 70
     0
  9
$DIMALTD
 70
     3
  9
$DIMALTF
 40
0.03937007874016
  9
$DIMLFAC
 40
1.0
  9
$DIMTOFL
 70
     1
  9
$DIMTVP
 40
0.0
  9
$DIMTIX
 70
     0
  9
$DIMSOXD
 70
     0
  9
$DIMSAH
 70
     0
  9
$DIMBLK1
  1

  9
$DIMBLK2
  1

  9
$DIMSTYLE
  2
Wagner
  9
$DIMCLRD
 70
     4
  9
$DIMCLRE
 70
     4
  9
$DIMCLRT
 70
     1
  9
$DIMTFAC
 40
1.0
  9
$DIMGAP
 40
1.0
  9
$DIMJUST
 70
     0
  9
$DIMSD1
 70
     0
  9
$DIMSD2
 70
     0
  9
$DIMTOLJ
 70
     0
  9
$DIMTZIN
 70
     8
  9
$DIMALTZ
 70
     0
  9
$DIMALTTZ
 70
     0
  9
$DIMUPT
 70
     0
  9
$DIMDEC
 70
     1
  9
$DIMTDEC
 70
     1
  9
$DIMALTU
 70
     2
  9
$DIMALTTD
 70
     3
  9
$DIMTXSTY
  7
STANDARD
  9
$DIMAUNIT
 70
     0
  9
$DIMADEC
 70
     1
  9
$DIMALTRND
 40
0.0
  9
$DIMAZIN
 70
     2
  9
$DIMDSEP
 70
    46
  9
$DIMATFIT
 70
     3
  9
$DIMFRAC
 70
     0
  9
$DIMLDRBLK
  1

  9
$DIMLUNIT
 70
     2
  9
$DIMLWD
 70
    -2
  9
$DIMLWE
 70
    -2
  9
$DIMTMOVE
 70
     0
  9
$DIMFXL
 40
1.0
  9
$DIMFXLON
 70
     0
  9
$DIMJOGANG
 40
0.7853981633974483
  9
$DIMTFILL
 70
     0
  9
$DIMTFILLCLR
 70
     0
  9
$DIMARCSYM
 70
     0
  9
$DIMLTYPE
  6

  9
$DIMLTEX1
  6

  9
$DIMLTEX2
  6

  9
$DIMTXTDIRECTION
 70
     0
  9
$LUNITS
 70
     2
  9
$LUPREC
 70
     1
  9
$SKETCHINC
 40
1.0
  9
$FILLETRAD
 40
0.0
  9
$AUNITS
 70
     0
  9
$AUPREC
 70
     2
  9
$MENU
  1
cncmenue
  9
$ELEVATION
 40
0.0
  9
$PELEVATION
 40
0.0
  9
$THICKNESS
 40
0.0
  9
$LIMCHECK
 70
     0
  9
$CHAMFERA
 40
0.0
  9
$CHAMFERB
 40
0.0
  9
$CHAMFERC
 40
0.0
  9
$CHAMFERD
 40
0.0
  9
$SKPOLY
 70
     0
  9
$TDCREATE
 40
2451036.686584491
  9
$TDUCREATE
 40
2451036.644917824
  9
$TDUPDATE
 40
2457697.623620243
  9
$TDUUPDATE
 40
2457697.581953576
  9
$TDINDWG
 40
3.9264117361
  9
$TDUSRTIMER
 40
3.9264117361
  9
$USRTIMER
 70
     1
  9
$ANGBASE
 50
0.0
  9
$ANGDIR
 70
     0
  9
$PDMODE
 70
     0
  9
$PDSIZE
 40
0.0
  9
$PLINEWID
 40
0.0
  9
$SPLFRAME
 70
     0
  9
$SPLINETYPE
 70
     6
  9
$SPLINESEGS
 70
     8
  9
$HANDSEED
  5
433
  9
$SURFTAB1
 70
    24
  9
$SURFTAB2
 70
    24
  9
$SURFTYPE
 70
     6
  9
$SURFU
 70
     6
  9
$SURFV
 70
     6
  9
$UCSBASE
  2

  9
$UCSNAME
  2

  9
$UCSORG
 10
0.0
 20
0.0
 30
0.0
  9
$UCSXDIR
 10
1.0
 20
0.0
 30
0.0
  9
$UCSYDIR
 10
0.0
 20
1.0
 30
0.0
  9
$UCSORTHOREF
  2

  9
$UCSORTHOVIEW
 70
     0
  9
$UCSORGTOP
 10
0.0
 20
0.0
 30
0.0
  9
$UCSORGBOTTOM
 10
0.0
 20
0.0
 30
0.0
  9
$UCSORGLEFT
 10
0.0
 20
0.0
 30
0.0
  9
$UCSORGRIGHT
 10
0.0
 20
0.0
 30
0.0
  9
$UCSORGFRONT
 10
0.0
 20
0.0
 30
0.0
  9
$UCSORGBACK
 10
0.0
 20
0.0
 30
0.0
  9
$PUCSBASE
  2

  9
$PUCSNAME
  2

  9
$PUCSORG
 10
0.0
 20
0.0
 30
0.0
  9
$PUCSXDIR
 10
1.0
 20
0.0
 30
0.0
  9
$PUCSYDIR
 10
0.0
 20
1.0
 30
0.0
  9
$PUCSORTHOREF
  2

  9
$PUCSORTHOVIEW
 70
     0
  9
$PUCSORGTOP
 10
0.0
 20
0.0
 30
0.0
  9
$PUCSORGBOTTOM
 10
0.0
 20
0.0
 30
0.0
  9
$PUCSORGLEFT
 10
0.0
 20
0.0
 30
0.0
  9
$PUCSORGRIGHT
 10
0.0
 20
0.0
 30
0.0
  9
$PUCSORGFRONT
 10
0.0
 20
0.0
 30
0.0
  9
$PUCSORGBACK
 10
0.0
 20
0.0
 30
0.0
  9
$USERI1
 70
     0
  9
$USERI2
 70
     0
  9
$USERI3
 70
     0
  9
$USERI4
 70
     0
  9
$USERI5
 70
     0
  9
$USERR1
 40
0.0
  9
$USERR2
 40
0.0
  9
$USERR3
 40
0.0
  9
$USERR4
 40
0.0
  9
$USERR5
 40
0.0
  9
$WORLDVIEW
 70
     1
  9
$SHADEDGE
 70
     3
  9
$SHADEDIF
 70
    70
  9
$TILEMODE
 70
     1
  9
$MAXACTVP
 70
    16
  9
$PINSBASE
 10
0.0
 20
0.0
 30
0.0
  9
$PLIMCHECK
 70
     0
  9
$PEXTMIN
 10
1.000000000000000E+20
 20
1.000000000000000E+20
 30
1.000000000000000E+20
  9
$PEXTMAX
 10
-1.000000000000000E+20
 20
-1.000000000000000E+20
 30
-1.000000000000000E+20
  9
$PLIMMIN
 10
0.0
 20
0.0
  9
$PLIMMAX
 10
12.0
 20
9.0
  9
$UNITMODE
 70
     0
  9
$VISRETAIN
 70
     0
  9
$PLINEGEN
 70
     0
  9
$PSLTSCALE
 70
     0
  9
$TREEDEPTH
 70
  3020
  9
$CMLSTYLE
  2
Standard
  9
$CMLJUST
 70
     0
  9
$CMLSCALE
 40
1.0
  9
$PROXYGRAPHICS
 70
     1
  9
$MEASUREMENT
 70
     0
  9
$CELWEIGHT
370
    -1
  9
$ENDCAPS
280
     0
  9
$JOINSTYLE
280
     0
  9
$LWDISPLAY
290
     0
  9
$INSUNITS
 70
     0
  9
$HYPERLINKBASE
  1

  9
$STYLESHEET
  1

  9
$XEDIT
290
     1
  9
$CEPSNTYPE
380
     0
  9
$PSTYLEMODE
290
     1
  9
$FINGERPRINTGUID
  2
{299CA804-8371-43C6-90D9-4CF17C794850}
  9
$VERSIONGUID
  2
{153D7DF7-5C0E-4386-8DB8-443AE2D9EF3C}
  9
$EXTNAMES
290
     1
  9
$PSVPSCALE
 40
0.0
  9
$OLESTARTUP
290
     0
  9
$SORTENTS
280
   127
  9
$INDEXCTL
280
     0
  9
$HIDETEXT
280
     1
  9
$XCLIPFRAME
280
     0
  9
$HALOGAP
280
     0
  9
$OBSCOLOR
 70
   257
  9
$OBSLTYPE
280
     0
  9
$INTERSECTIONDISPLAY
280
     0
  9
$INTERSECTIONCOLOR
 70
   257
  9
$DIMASSOC
280
     1
  9
$PROJECTNAME
  1

  9
$CAMERADISPLAY
290
     0
  9
$LENSLENGTH
 40
50.0
  9
$CAMERAHEIGHT
 40
0.0
  9
$STEPSPERSEC
 40
2.0
  9
$STEPSIZE
 40
6.0
  9
$3DDWFPREC
 40
2.0
  9
$PSOLWIDTH
 40
0.25
  9
$PSOLHEIGHT
 40
4.0
  9
$LOFTANG1
 40
1.570796326794896
  9
$LOFTANG2
 40
1.570796326794896
  9
$LOFTMAG1
 40
0.0
  9
$LOFTMAG2
 40
0.0
  9
$LOFTPARAM
 70
     7
  9
$LOFTNORMALS
280
     1
  9
$LATITUDE
 40
37.795
  9
$LONGITUDE
 40
-122.394
  9
$NORTHDIRECTION
 40
0.0
  9
$TIMEZONE
 70
 -8000
  9
$LIGHTGLYPHDISPLAY
280
     1
  9
$TILEMODELIGHTSYNCH
280
     1
  9
$CMATERIAL
347
3B
  9
$SOLIDHIST
280
     1
  9
$SHOWHIST
280
     1
  9
$DWFFRAME
280
     2
  9
$DGNFRAME
280
     0
  9
$REALWORLDSCALE
290
     1
  9
$INTERFERECOLOR
 62
     1
  9
$INTERFEREOBJVS
345
55
  9
$INTERFEREVPVS
346
56
  9
$CSHADOW
280
     0
  9
$SHADOWPLANELOCATION
 40
0.0
  0
ENDSEC
  0
SECTION
  2
CLASSES
  0
CLASS
  1
ACDBDICTIONARYWDFLT
  2
AcDbDictionaryWithDefault
  3
ObjectDBX Classes
 90
        0
 91
        1
280
     0
281
     0
  0
CLASS
  1
MATERIAL
  2
AcDbMaterial
  3
ObjectDBX Classes
 90
     1153
 91
        3
280
     0
281
     0
  0
CLASS
  1
VISUALSTYLE
  2
AcDbVisualStyle
  3
ObjectDBX Classes
 90
     4095
 91
        3
280
     0
281
     0
  0
CLASS
  1
TABLESTYLE
  2
AcDbTableStyle
  3
ObjectDBX Classes
 90
     4095
 91
        1
280
     0
281
     0
  0
CLASS
  1
SCALE
  2
AcDbScale
  3
ObjectDBX Classes
 90
     1153
 91
       33
280
     0
281
     0
  0
CLASS
  1
MLEADERSTYLE
  2
AcDbMLeaderStyle
  3
ACDB_MLEADERSTYLE_CLASS
 90
     4095
 91
        0
280
     0
281
     0
  0
CLASS
  1
SORTENTSTABLE
  2
AcDbSortentsTable
  3
ObjectDBX Classes
 90
        0
 91
        4
280
     0
281
     0
  0
CLASS
  1
CELLSTYLEMAP
  2
AcDbCellStyleMap
  3
ObjectDBX Classes
 90
     1152
 91
        1
280
     0
281
     0
  0
CLASS
  1
DICTIONARYVAR
  2
AcDbDictionaryVar
  3
ObjectDBX Classes
 90
        0
 91
        7
280
     0
281
     0
  0
CLASS
  1
SOLID_BACKGROUND
  2
AcDbSolidBackground
  3
SCENEOE
 90
     4095
 91
        0
280
     0
281
     0
  0
CLASS
  1
NPOCOLLECTION
  2
AcDbImpNonPersistentObjectsCollection
  3
ObjectDBX Classes
 90
     1153
 91
        0
280
     0
281
     0
  0
CLASS
  1
DIMASSOC
  2
AcDbDimAssoc
  3
"AcDbDimAssoc|Product Desc:     AcDim ARX App For Dimension|Company:          Autodesk, Inc.|WEB Address:      www.autodesk.com"
 90
        0
 91
        0
280
     0
281
     0
  0
CLASS
  1
AEC_REFEDIT_STATUS_TRACKER
  2
AecDbRefEditStatusTracker
  3
AecArchBase60|Product Desc: Autodesk Architectural Desktop 2007 |Company: Autodesk,Inc. |WEB Address: www.autodesk.com
 90
      129
 91
        0
280
     0
281
     0
  0
CLASS
  1
ACAD_TABLE
  2
AcDbTable
  3
ObjectDBX Classes
 90
     1025
 91
        0
280
     0
281
     1
  0
CLASS
  1
ACDB_DYNAMICBLOCKPURGEPREVENTER_VERSION
  2
AcDbDynamicBlockPurgePreventer
  3
ObjectDBX Classes
 90
     1153
 91
        0
280
     0
281
     0
  0
CLASS
  1
ACDBASSOCNETWORK
  2
AcDbAssocNetwork
  3
ObjectDBX Classes
 90
     1025
 91
        0
280
     0
281
     0
  0
CLASS
  1
ACDBASSOC2DCONSTRAINTGROUP
  2
AcDbAssoc2dConstraintGroup
  3
ObjectDBX Classes
 90
     1025
 91
        0
280
     0
281
     0
  0
CLASS
  1
ACDBASSOCGEOMDEPENDENCY
  2
AcDbAssocGeomDependency
  3
ObjectDBX Classes
 90
     1025
 91
        0
280
     0
281
     0
  0
CLASS
  1
TABLECONTENT
  2
AcDbTableContent
  3
ObjectDBX Classes
 90
     1152
 91
        0
280
     0
281
     0
  0
CLASS
  1
TABLEGEOMETRY
  2
AcDbTableGeometry
  3
ObjectDBX Classes
 90
     1152
 91
        0
280
     0
281
     0
  0
CLASS
  1
EXACXREFPANELOBJECT
  2
ExAcXREFPanelObject
  3
EXAC_ESW
 90
     1025
 91
        0
280
     0
281
     0
  0
CLASS
  1
RASTERVARIABLES
  2
AcDbRasterVariables
  3
ISM
 90
        0
 91
        0
280
     0
281
     0
  0
CLASS
  1
IMAGEDEF
  2
AcDbRasterImageDef
  3
ISM
 90
        0
 91
        0
280
     0
281
     0
  0
CLASS
  1
IMAGEDEF_REACTOR
  2
AcDbRasterImageDefReactor
  3
ISM
 90
        1
 91
        0
280
     0
281
     0
  0
CLASS
  1
IMAGE
  2
AcDbRasterImage
  3
ISM
 90
     2175
 91
        0
280
     0
281
     1
  0
CLASS
  1
ACDB_TEXTOBJECTCONTEXTDATA_CLASS
  2
AcDbTextObjectContextData
  3
ObjectDBX Classes
 90
     1153
 91
        0
280
     0
281
     0
  0
ENDSEC
  0
SECTION
  2
TABLES
  0
TABLE
  2
VPORT
  5
2C
102
{ACAD_XDICTIONARY
360
30
102
}
330
0
100
AcDbSymbolTable
 70
     1
  0
VPORT
  5
2D
330
2C
100
AcDbSymbolTableRecord
100
AcDbViewportTableRecord
  2
*Active
 70
     0
 10
0.0
 20
0.0
 11
1.0
 21
1.0
 12
148.8752329488707
 22
1242.175122262997
 13
0.0
 23
0.0
 14
1.0
 24
1.0
 15
100.0
 25
100.0
 16
0.0
 26
0.0
 36
1.0
 17
0.0
 27
0.0
 37
0.0
 40
2942.448371741556
 41
1.763409961685823
 42
50.0
 43
0.0
 44
0.0
 50
0.0
 51
0.0
 71
     0
 72
  1000
 73
     1
 74
     0
 75
     0
 76
     0
 77
     0
 78
     0
281
     0
 65
     1
110
0.0
120
0.0
130
0.0
111
1.0
121
0.0
131
0.0
112
0.0
122
1.0
132
0.0
 79
     0
146
0.0
348
2E
 60
     3
 61
     5
292
     1
282
     1
141
0.0
142
0.0
 63
   250
421
  3355443
  0
ENDTAB
  0
TABLE
  2
LTYPE
  5
27
330
0
100
AcDbSymbolTable
 70
     4
  0
LTYPE
  5
28
330
27
100
AcDbSymbolTableRecord
100
AcDbLinetypeTableRecord
  2
ByBlock
 70
     0
  3

 72
    65
 73
     0
 40
0.0
  0
LTYPE
  5
29
330
27
100
AcDbSymbolTableRecord
100
AcDbLinetypeTableRecord
  2
ByLayer
 70
     0
  3

 72
    65
 73
     0
 40
0.0
  0
LTYPE
  5
15
330
27
100
AcDbSymbolTableRecord
100
AcDbLinetypeTableRecord
  2
CONTINUOUS
 70
     0
  3
Ausgezogene Linie
 72
    65
 73
     0
 40
0.0
  0
LTYPE
  5
C2
330
27
100
AcDbSymbolTableRecord
100
AcDbLinetypeTableRecord
  2
VERDECKT
 70
     0
  3
__ __ __ __ __ __ __ __ __ __ __ __ __ __ __ __
 72
    65
 73
     2
 40
0.375
 49
0.25
 74
     0
 49
-0.125
 74
     0
  0
LTYPE
  5
339
330
27
100
AcDbSymbolTableRecord
100
AcDbLinetypeTableRecord
  2
STRICHPUNKT
 70
     0
  3
__ . __ . __ . __ . __ . __ . __ . __ . __ . __
 72
    65
 73
     4
 40
1.0
 49
0.5
 74
     0
 49
-0.25
 74
     0
 49
0.0
 74
     0
 49
-0.25
 74
     0
  0
LTYPE
  5
3E5
330
27
100
AcDbSymbolTableRecord
100
AcDbLinetypeTableRecord
  2
AUSGEZOGEN
 70
     0
  3
Ausgezogene Linie
 72
    65
 73
     0
 40
0.0
  0
ENDTAB
  0
TABLE
  2
LAYER
  5
20
102
{ACAD_XDICTIONARY
360
21
102
}
330
0
100
AcDbSymbolTable
 70
    11
  0
LAYER
  5
6
102
{ACAD_XDICTIONARY
360
7
102
}
330
20
100
AcDbSymbolTableRecord
100
AcDbLayerTableRecord
  2
0
 70
     0
 62
     7
  6
CONTINUOUS
370
    -3
390
9
347
C
  0
LAYER
  5
340
102
{ACAD_XDICTIONARY
360
341
102
}
330
20
100
AcDbSymbolTableRecord
100
AcDbLayerTableRecord
  2
01-01
 70
     0
 62
     2
  6
CONTINUOUS
370
    -3
390
9
347
C
  0
LAYER
  5
3A7
102
{ACAD_XDICTIONARY
360
3A8
102
}
330
20
100
AcDbSymbolTableRecord
100
AcDbLayerTableRecord
  2
02-01
 70
     0
 62
     1
  6
CONTINUOUS
370
    -3
390
9
347
C
  0
LAYER
  5
BF
102
{ACAD_XDICTIONARY
360
C0
102
}
330
20
100
AcDbSymbolTableRecord
100
AcDbLayerTableRecord
  2
03-01
 70
     0
 62
     3
  6
VERDECKT
370
    -3
390
9
347
C
  0
LAYER
  5
336
102
{ACAD_XDICTIONARY
360
337
102
}
330
20
100
AcDbSymbolTableRecord
100
AcDbLayerTableRecord
  2
05-01
 70
     0
 62
     1
  6
STRICHPUNKT
370
    -3
390
9
347
C
  0
LAYER
  5
4F
102
{ACAD_XDICTIONARY
360
50
102
}
330
20
100
AcDbSymbolTableRecord
100
AcDbLayerTableRecord
  2
09-01
 70
     0
 62
     7
  6
CONTINUOUS
370
    -3
390
9
347
C
  0
LAYER
  5
3A2
102
{ACAD_XDICTIONARY
360
3A3
102
}
330
20
100
AcDbSymbolTableRecord
100
AcDbLayerTableRecord
  2
01-99
 70
     0
 62
     2
  6
CONTINUOUS
370
    -3
390
9
347
C
  0
LAYER
  5
3E2
102
{ACAD_XDICTIONARY
360
3E3
102
}
330
20
100
AcDbSymbolTableRecord
100
AcDbLayerTableRecord
  2
06-99
 70
     0
 62
     1
  6
AUSGEZOGEN
370
    -3
390
9
347
C
  0
LAYER
  5
89
330
20
100
AcDbSymbolTableRecord
100
AcDbLayerTableRecord
  2
DEFPOINTS
 70
     0
 62
     7
  6
CONTINUOUS
290
     0
370
    -3
390
9
347
C
  0
LAYER
  5
3CC
102
{ACAD_XDICTIONARY
360
3CD
102
}
330
20
100
AcDbSymbolTableRecord
100
AcDbLayerTableRecord
  2
08-99
 70
     0
 62
     7
  6
CONTINUOUS
370
    -3
390
9
347
C
  0
LAYER
  5
317
102
{ACAD_XDICTIONARY
360
318
102
}
330
20
100
AcDbSymbolTableRecord
100
AcDbLayerTableRecord
  2
02TNR-01
 70
     0
 62
     1
  6
CONTINUOUS
370
    -3
390
9
347
C
  0
ENDTAB
  0
TABLE
  2
STYLE
  5
23
330
0
100
AcDbSymbolTable
 70
     3
  0
STYLE
  5
24
330
23
100
AcDbSymbolTableRecord
100
AcDbTextStyleTableRecord
  2
STANDARD
 70
     0
 40
0.0
 41
1.0
 50
0.0
 71
     0
 42
20.0
  3
arial.ttf
  4

1001
ACAD
1000
Arial
1071
       34
  0
STYLE
  5
3CF
330
23
100
AcDbSymbolTableRecord
100
AcDbTextStyleTableRecord
  2
ROMANS8
 70
     0
 40
0.0
 41
1.0
 50
0.0
 71
     0
 42
2.5
  3
ROMANS8
  4

  0
STYLE
  5
3F6
330
23
100
AcDbSymbolTableRecord
100
AcDbTextStyleTableRecord
  2
ROMAND8
 70
     0
 40
0.0
 41
1.0
 50
0.0
 71
     0
 42
3.5
  3
ROMAND8
  4

  0
ENDTAB
  0
TABLE
  2
VIEW
  5
2A
330
0
100
AcDbSymbolTable
 70
     0
  0
ENDTAB
  0
TABLE
  2
UCS
  5
2B
330
0
100
AcDbSymbolTable
 70
     0
  0
ENDTAB
  0
TABLE
  2
APPID
  5
31
330
0
100
AcDbSymbolTable
 70
     5
  0
APPID
  5
25
330
31
100
AcDbSymbolTableRecord
100
AcDbRegAppTableRecord
  2
ACAD
 70
     0
  0
APPID
  5
34
330
31
100
AcDbSymbolTableRecord
100
AcDbRegAppTableRecord
  2
ACAD_DSTYLE_DIMJOGGED_JOGANGLE_SYMBOL
 70
     0
  0
APPID
  5
35
330
31
100
AcDbSymbolTableRecord
100
AcDbRegAppTableRecord
  2
ACAD_DSTYLE_DIMJAG
 70
     0
  0
APPID
  5
36
330
31
100
AcDbSymbolTableRecord
100
AcDbRegAppTableRecord
  2
ACAD_DSTYLE_DIMTALN
 70
     0
  0
APPID
  5
1B
330
31
100
AcDbSymbolTableRecord
100
AcDbRegAppTableRecord
  2
ACAD_PSEXT
 70
     0
  0
ENDTAB
  0
TABLE
  2
DIMSTYLE
  5
32
330
0
100
AcDbSymbolTable
 70
     2
100
AcDbDimStyleTable
 71
     1
340
33
  0
DIMSTYLE
105
33
102
{ACAD_REACTORS
330
7D
102
}
330
32
100
AcDbSymbolTableRecord
100
AcDbDimStyleTableRecord
  2
Wagner
 70
     0
 41
2.5
 42
1.0
 43
10.0
 44
1.0
 73
     0
 74
     0
 77
     1
 78
     8
 79
     2
140
2.5
141
0.0
143
0.03937007874016
147
1.0
171
     3
172
     1
176
     4
177
     4
178
     1
179
     1
271
     1
272
     1
274
     3
283
     0
284
     8
340
24
1001
ACAD_DSTYLE_DIMJOGGED_JOGANGLE_SYMBOL
1070
   384
1040
0.7853981633974483
1001
ACAD_DSTYLE_DIMJAG
1070
   388
1040
1.5
1001
ACAD_DSTYLE_DIMTALN
1070
   392
1070
     0
  0
DIMSTYLE
105
9E
102
{ACAD_REACTORS
330
37C
330
35E
330
230
330
223
330
214
330
207
330
1FA
330
183
330
176
330
167
330
AE
330
9F
330
8F
102
}
330
32
100
AcDbSymbolTableRecord
100
AcDbDimStyleTableRecord
  2
Wagner$0
 70
     0
 41
2.5
 42
1.0
 43
10.0
 44
1.0
 73
     0
 74
     0
 77
     1
 78
     8
 79
     2
140
2.5
141
0.0
143
0.03937007874016
147
1.0
171
     3
172
     1
174
     1
176
     4
177
     4
178
     1
179
     1
271
     1
272
     1
274
     3
279
     2
283
     0
284
     8
340
24
1001
ACAD_DSTYLE_DIMJOGGED_JOGANGLE_SYMBOL
1070
   384
1040
0.7853981633974483
1001
ACAD_DSTYLE_DIMJAG
1070
   388
1040
1.5
1001
ACAD_DSTYLE_DIMTALN
1070
   392
1070
     0
  0
ENDTAB
  0
TABLE
  2
BLOCK_RECORD
  5
1
330
0
100
AcDbSymbolTable
 70
    17
  0
BLOCK_RECORD
  5
2
102
{ACAD_XDICTIONARY
360
3
102
}
330
1
100
AcDbSymbolTableRecord
100
AcDbBlockTableRecord
  2
*Model_Space
340
17
 70
     0
280
     1
281
     0
  0
BLOCK_RECORD
  5
1C
330
1
100
AcDbSymbolTableRecord
100
AcDbBlockTableRecord
  2
*Paper_Space
340
1F
 70
     0
280
     1
281
     0
  0
BLOCK_RECORD
  5
2B4
330
1
100
AcDbSymbolTableRecord
100
AcDbBlockTableRecord
  2
Seifenflasche01-v
340
0
310
2800000020000000200000000100080000000000000400000000000000000000000000000000000000000000000080000080000000808000800000008000800080800000C0C0C000C0DCC000F0CAA6000020400000206000002080000020A0000020C0000020E00000400000004020000040400000406000004080000040A0
310
000040C0000040E00000600000006020000060400000606000006080000060A0000060C0000060E00000800000008020000080400000806000008080000080A0000080C0000080E00000A0000000A0200000A0400000A0600000A0800000A0A00000A0C00000A0E00000C0000000C0200000C0400000C0600000C0800000C0
310
A00000C0C00000C0E00000E0000000E0200000E0400000E0600000E0800000E0A00000E0C00000E0E00040000000400020004000400040006000400080004000A0004000C0004000E00040200000402020004020400040206000402080004020A0004020C0004020E000404000004040200040404000404060004040800040
310
40A0004040C0004040E00040600000406020004060400040606000406080004060A0004060C0004060E00040800000408020004080400040806000408080004080A0004080C0004080E00040A0000040A0200040A0400040A0600040A0800040A0A00040A0C00040A0E00040C0000040C0200040C0400040C0600040C08000
310
40C0A00040C0C00040C0E00040E0000040E0200040E0400040E0600040E0800040E0A00040E0C00040E0E00080000000800020008000400080006000800080008000A0008000C0008000E00080200000802020008020400080206000802080008020A0008020C0008020E00080400000804020008040400080406000804080
310
008040A0008040C0008040E00080600000806020008060400080606000806080008060A0008060C0008060E00080800000808020008080400080806000808080008080A0008080C0008080E00080A0000080A0200080A0400080A0600080A0800080A0A00080A0C00080A0E00080C0000080C0200080C0400080C0600080C0
310
800080C0A00080C0C00080C0E00080E0000080E0200080E0400080E0600080E0800080E0A00080E0C00080E0E000C0000000C0002000C0004000C0006000C0008000C000A000C000C000C000E000C0200000C0202000C0204000C0206000C0208000C020A000C020C000C020E000C0400000C0402000C0404000C0406000C0
310
408000C040A000C040C000C040E000C0600000C0602000C0604000C0606000C0608000C060A000C060C000C060E000C0800000C0802000C0804000C0806000C0808000C080A000C080C000C080E000C0A00000C0A02000C0A04000C0A06000C0A08000C0A0A000C0A0C000C0A0E000C0C00000C0C02000C0C04000C0C06000
310
C0C08000C0C0A000F0FBFF00A4A0A000808080000000FF0000FF000000FFFF00FF000000FF00FF00FFFF0000FFFFFF0000000000000000000000000000000000000000000000000000000000000000000000000000000000000000000000FFFFFFFF00000000000000000000000000000000000000000000000000000000FF
310
0000FF00000000000000000000000000000000000000000000000000000000FFFFFFFF00000000000000000000000000000000000000000000000000000000FF0000FF00000000000000000000000000000000000000000000000000000000FFFFFFFF00000000000000000000000000000000000000000000000000FFFFFF
310
FFFFFFFFFFFFFF00000000000000000000000000000000000000000000FF0000000000000000FF00000000000000000000000000000000000000000000FF0000000000000000FF00000000000000000000000000000000000000000000FF0000000000000000FF00000000000000000000000000000000000000000000FF00
310
00000000000000FF00000000000000000000000000000000000000000000FF0000000000000000FF00000000000000000000000000000000000000000000FF0000000000000000FF00000000000000000000000000000000000000000000FF0000000000000000FF00000000000000000000000000000000000000000000FF
310
0000000000000000FF00000000000000000000000000000000000000000000FF0000000000000000FF00000000000000000000000000000000000000000000FF0000000000000000FF00000000000000000000000000000000000000000000FF0000000000000000FF00000000000000000000000000000000000000000000
310
FF0000000000000000FF00000000000000000000000000000000000000000000FF0000000000000000FF00000000000000000000000000000000000000000000FF0000000000000000FF00000000000000000000000000000000000000000000FF0000000000000000FF000000000000000000000000000000000000000000
310
00FF0000000000000000FF00000000000000000000000000000000000000000000FF0000000000000000FF00000000000000000000000000000000000000000000FF0000000000000000FF00000000000000000000000000000000000000000000FF0000000000000000FF0000000000000000000000000000000000000000
310
0000FF00000000000000FFFF00000000000000000000000000000000000000000000FF00000000000000FF0000000000000000000000000000000000000000000000FF00000000000000FF0000000000000000000000000000000000000000000000FF00000000000000FF0000000000000000000000000000000000000000
310
000000FFFFFFFFFFFFFFFF000000000000000000000000000000000000000000000000000000000000000000000000000000000000000000
102
{BLKREFS
331
2B3
102
}
 70
     4
280
     1
281
     0
  0
BLOCK_RECORD
  5
23E
330
1
100
AcDbSymbolTableRecord
100
AcDbBlockTableRecord
  2
Seifenflasche01-s
340
0
310
2800000020000000200000000100080000000000000400000000000000000000000000000000000000000000000080000080000000808000800000008000800080800000C0C0C000C0DCC000F0CAA6000020400000206000002080000020A0000020C0000020E00000400000004020000040400000406000004080000040A0
310
000040C0000040E00000600000006020000060400000606000006080000060A0000060C0000060E00000800000008020000080400000806000008080000080A0000080C0000080E00000A0000000A0200000A0400000A0600000A0800000A0A00000A0C00000A0E00000C0000000C0200000C0400000C0600000C0800000C0
310
A00000C0C00000C0E00000E0000000E0200000E0400000E0600000E0800000E0A00000E0C00000E0E00040000000400020004000400040006000400080004000A0004000C0004000E00040200000402020004020400040206000402080004020A0004020C0004020E000404000004040200040404000404060004040800040
310
40A0004040C0004040E00040600000406020004060400040606000406080004060A0004060C0004060E00040800000408020004080400040806000408080004080A0004080C0004080E00040A0000040A0200040A0400040A0600040A0800040A0A00040A0C00040A0E00040C0000040C0200040C0400040C0600040C08000
310
40C0A00040C0C00040C0E00040E0000040E0200040E0400040E0600040E0800040E0A00040E0C00040E0E00080000000800020008000400080006000800080008000A0008000C0008000E00080200000802020008020400080206000802080008020A0008020C0008020E00080400000804020008040400080406000804080
310
008040A0008040C0008040E00080600000806020008060400080606000806080008060A0008060C0008060E00080800000808020008080400080806000808080008080A0008080C0008080E00080A0000080A0200080A0400080A0600080A0800080A0A00080A0C00080A0E00080C0000080C0200080C0400080C0600080C0
310
800080C0A00080C0C00080C0E00080E0000080E0200080E0400080E0600080E0800080E0A00080E0C00080E0E000C0000000C0002000C0004000C0006000C0008000C000A000C000C000C000E000C0200000C0202000C0204000C0206000C0208000C020A000C020C000C020E000C0400000C0402000C0404000C0406000C0
310
408000C040A000C040C000C040E000C0600000C0602000C0604000C0606000C0608000C060A000C060C000C060E000C0800000C0802000C0804000C0806000C0808000C080A000C080C000C080E000C0A00000C0A02000C0A04000C0A06000C0A08000C0A0A000C0A0C000C0A0E000C0C00000C0C02000C0C04000C0C06000
310
C0C08000C0C0A000F0FBFF00A4A0A000808080000000FF0000FF000000FFFF00FF000000FF00FF00FFFF0000FFFFFF0000000000000000000000000000000000000000000000000000000000000000000000000000000000000000000000FFFFFFFF00000000000000000000000000000000000000000000000000000000FF
310
0000FF00000000000000000000000000000000000000000000000000000000FFFFFFFF00000000000000000000000000000000000000000000000000000000FF0000FF00000000000000000000000000000000000000000000000000000000FFFFFFFF000000000000000000000000000000000000000000000000FFFFFFFF
310
FFFFFFFFFFFFFFFF0000000000000000000000000000000000000000FF00000000000000000000FF0000000000000000000000000000000000000000FF00000000000000000000FF0000000000000000000000000000000000000000FF00000000000000000000FF0000000000000000000000000000000000000000FF0000
310
0000000000000000FF0000000000000000000000000000000000000000FF00000000000000000000FF0000000000000000000000000000000000000000FF00000000000000000000FF0000000000000000000000000000000000000000FF00000000000000000000FF0000000000000000000000000000000000000000FF00
310
000000000000000000FF0000000000000000000000000000000000000000FF00000000000000000000FF0000000000000000000000000000000000000000FF00000000000000000000FF0000000000000000000000000000000000000000FF00000000000000000000FF0000000000000000000000000000000000000000FF
310
00000000000000000000FF0000000000000000000000000000000000000000FF00000000000000000000FF0000000000000000000000000000000000000000FF00000000000000000000FF0000000000000000000000000000000000000000FF00000000000000000000FF0000000000000000000000000000000000000000
310
FF00000000000000000000FF0000000000000000000000000000000000000000FF00000000000000000000FF0000000000000000000000000000000000000000FF00000000000000000000FF0000000000000000000000000000000000000000FF00000000000000000000FF00000000000000000000000000000000000000
310
00FF00000000000000000000FF0000000000000000000000000000000000000000FF00000000000000000000FF0000000000000000000000000000000000000000FF00000000000000000000FF0000000000000000000000000000000000000000FF00000000000000000000FF000000000000000000000000000000000000
310
0000FFFFFFFFFFFFFFFFFFFFFFFF000000000000000000000000000000000000000000000000000000000000000000000000000000000000
102
{BLKREFS
331
2D4
331
23D
102
}
 70
     4
280
     1
281
     0
  0
BLOCK_RECORD
  5
39D
102
{ACAD_XDICTIONARY
360
39E
102
}
330
1
100
AcDbSymbolTableRecord
100
AcDbBlockTableRecord
  2
DIN A4 Quer
340
0
102
{BLKREFS
331
39C
102
}
 70
     4
280
     1
281
     0
  0
BLOCK_RECORD
  5
37D
330
1
100
AcDbSymbolTableRecord
100
AcDbBlockTableRecord
  2
*D3
340
0
 70
     0
280
     1
281
     0
  0
BLOCK_RECORD
  5
35F
330
1
100
AcDbSymbolTableRecord
100
AcDbBlockTableRecord
  2
*D4
340
0
 70
     0
280
     1
281
     0
  0
BLOCK_RECORD
  5
231
330
1
100
AcDbSymbolTableRecord
100
AcDbBlockTableRecord
  2
*D5
340
0
 70
     0
280
     1
281
     0
  0
BLOCK_RECORD
  5
224
330
1
100
AcDbSymbolTableRecord
100
AcDbBlockTableRecord
  2
*D6
340
0
 70
     0
280
     1
281
     0
  0
BLOCK_RECORD
  5
215
330
1
100
AcDbSymbolTableRecord
100
AcDbBlockTableRecord
  2
*D7
340
0
 70
     0
280
     1
281
     0
  0
BLOCK_RECORD
  5
208
330
1
100
AcDbSymbolTableRecord
100
AcDbBlockTableRecord
  2
*D8
340
0
 70
     0
280
     1
281
     0
  0
BLOCK_RECORD
  5
1FB
330
1
100
AcDbSymbolTableRecord
100
AcDbBlockTableRecord
  2
*D9
340
0
 70
     0
280
     1
281
     0
  0
BLOCK_RECORD
  5
184
330
1
100
AcDbSymbolTableRecord
100
AcDbBlockTableRecord
  2
*D10
340
0
 70
     0
280
     1
281
     0
  0
BLOCK_RECORD
  5
177
330
1
100
AcDbSymbolTableRecord
100
AcDbBlockTableRecord
  2
*D11
340
0
 70
     0
280
     1
281
     0
  0
BLOCK_RECORD
  5
168
330
1
100
AcDbSymbolTableRecord
100
AcDbBlockTableRecord
  2
*D12
340
0
 70
     0
280
     1
281
     0
  0
BLOCK_RECORD
  5
AF
330
1
100
AcDbSymbolTableRecord
100
AcDbBlockTableRecord
  2
*D13
340
0
 70
     0
280
     1
281
     0
  0
BLOCK_RECORD
  5
A0
330
1
100
AcDbSymbolTableRecord
100
AcDbBlockTableRecord
  2
*D14
340
0
 70
     0
280
     1
281
     0
  0
BLOCK_RECORD
  5
90
330
1
100
AcDbSymbolTableRecord
100
AcDbBlockTableRecord
  2
*D15
340
0
 70
     0
280
     1
281
     0
  0
BLOCK_RECORD
  5
7E
330
1
100
AcDbSymbolTableRecord
100
AcDbBlockTableRecord
  2
*D16
340
0
 70
     0
280
     1
281
     0
  0
ENDTAB
  0
ENDSEC
  0
SECTION
  2
BLOCKS
  0
BLOCK
  5
5
330
2
100
AcDbEntity
  8
0
100
AcDbBlockBegin
  2
*Model_Space
 70
     0
 10
0.0
 20
0.0
 30
0.0
  3
*Model_Space
  1

  0
ENDBLK
  5
16
330
2
100
AcDbEntity
  8
0
100
AcDbBlockEnd
  0
BLOCK
  5
1D
330
1C
100
AcDbEntity
 67
     1
  8
0
100
AcDbBlockBegin
  2
*Paper_Space
 70
     0
 10
0.0
 20
0.0
 30
0.0
  3
*Paper_Space
  1

  0
ENDBLK
  5
1E
330
1C
100
AcDbEntity
 67
     1
  8
0
100
AcDbBlockEnd
  0
BLOCK
  5
2B5
330
2B4
100
AcDbEntity
  8
0
100
AcDbBlockBegin
  2
Seifenflasche01-v
 70
     0
 10
0.0
 20
0.0
 30
0.0
  3
Seifenflasche01-v
  1

  0
LINE
  5
2B6
330
2B4
100
AcDbEntity
  8
0
100
AcDbLine
 10
-35.5
 20
197.0
 30
0.0
 11
-35.5
 21
30.11877347664949
 31
0.0
  0
LINE
  5
2B7
330
2B4
100
AcDbEntity
  8
0
100
AcDbLine
 10
23.5
 20
197.0
 30
0.0
 11
23.5
 21
178.9999999999995
 31
0.0
  0
ARC
  5
2B8
330
2B4
100
AcDbEntity
  8
0
100
AcDbCircle
 10
28.5
 20
178.9999999999995
 30
0.0
 40
5.0
100
AcDbArc
 50
180.0
 51
270.0
  0
ARC
  5
2B9
330
2B4
100
AcDbEntity
  8
0
100
AcDbCircle
 10
18.5
 20
197.0
 30
0.0
 40
5.0
100
AcDbArc
 50
0.0
 51
90.0
  0
LINE
  5
2BA
330
2B4
100
AcDbEntity
  8
0
100
AcDbLine
 10
10.50000000000006
 20
0.0
 30
0.0
 11
10.5
 21
-11.50000000000023
 31
0.0
  0
LINE
  5
2BB
330
2B4
100
AcDbEntity
  8
0
100
AcDbLine
 10
-10.49999999999988
 20
0.0000000000002274
 30
0.0
 11
-10.49999999999994
 21
-11.5
 31
0.0
  0
LINE
  5
2BC
330
2B4
100
AcDbEntity
  8
0
100
AcDbLine
 10
14.5
 20
14.99999999999977
 30
0.0
 11
14.5
 21
-0.0000000000002274
 31
0.0
  0
LINE
  5
2BD
330
2B4
100
AcDbEntity
  8
0
100
AcDbLine
 10
-14.5
 20
14.99999999999977
 30
0.0
 11
-14.5
 21
0.0
 31
0.0
  0
LINE
  5
2BE
330
2B4
100
AcDbEntity
  8
0
100
AcDbLine
 10
11.5
 20
22.0
 30
0.0
 11
11.49999999999994
 21
18.0
 31
0.0
  0
LINE
  5
2BF
330
2B4
100
AcDbEntity
  8
0
100
AcDbLine
 10
-11.5
 20
22.0
 30
0.0
 11
-11.5
 21
18.0
 31
0.0
  0
LINE
  5
2C0
330
2B4
100
AcDbEntity
  8
0
100
AcDbLine
 10
13.24999999999994
 20
17.99999999999977
 30
0.0
 11
13.24999999999994
 21
15.99999999999977
 31
0.0
  0
LINE
  5
2C1
330
2B4
100
AcDbEntity
  8
0
100
AcDbLine
 10
-13.25
 20
17.99999999999977
 30
0.0
 11
-13.25000000000005
 21
15.99999999999977
 31
0.0
  0
LINE
  5
2C2
330
2B4
100
AcDbEntity
  8
0
100
AcDbLine
 10
35.5
 20
168.9999999999995
 30
0.0
 11
35.5
 21
30.11877347664995
 31
0.0
  0
ARC
  5
2C3
330
2B4
100
AcDbEntity
  8
0
100
AcDbCircle
 10
30.5
 20
30.11877347664995
 30
0.0
 40
5.0
100
AcDbArc
 50
279.9999999999974
 51
0.0
  0
ARC
  5
2C4
330
2B4
100
AcDbEntity
  8
0
100
AcDbCircle
 10
30.5
 20
168.9999999999995
 30
0.0
 40
5.0
100
AcDbArc
 50
0.0
 51
90.0
  0
LINE
  5
2C5
330
2B4
100
AcDbEntity
  8
0
100
AcDbLine
 10
-30.5
 20
202.0
 30
0.0
 11
18.5
 21
202.0
 31
0.0
  0
LINE
  5
2C6
330
2B4
100
AcDbEntity
  8
0
100
AcDbLine
 10
28.49999999999994
 20
173.9999999999995
 30
0.0
 11
30.5
 21
173.9999999999995
 31
0.0
  0
ARC
  5
2C7
330
2B4
100
AcDbEntity
  8
0
100
AcDbCircle
 10
-30.5
 20
197.0
 30
0.0
 40
5.0
100
AcDbArc
 50
90.0
 51
180.0
  0
LINE
  5
2C8
330
2B4
100
AcDbEntity
  8
0
100
AcDbLine
 10
-13.25
 20
22.0
 30
0.0
 11
13.2500000000013
 21
22.0
 31
0.0
  0
LINE
  5
2C9
330
2B4
100
AcDbEntity
  8
0
100
AcDbLine
 10
-13.25000000000005
 20
15.99999999999977
 30
0.0
 11
13.24999999999994
 21
15.99999999999977
 31
0.0
  0
LINE
  5
2CA
330
2B4
100
AcDbEntity
  8
0
100
AcDbLine
 10
-14.5
 20
14.99999999999977
 30
0.0
 11
14.5
 21
14.99999999999977
 31
0.0
  0
LINE
  5
2CB
330
2B4
100
AcDbEntity
  8
0
100
AcDbLine
 10
-14.5
 20
0.0
 30
0.0
 11
14.5
 21
-0.0000000000002274
 31
0.0
  0
LINE
  5
2CC
330
2B4
100
AcDbEntity
  8
0
100
AcDbLine
 10
-10.49999999999994
 20
-11.5
 30
0.0
 11
10.5
 21
-11.50000000000023
 31
0.0
  0
LINE
  5
2CD
330
2B4
100
AcDbEntity
  8
0
100
AcDbLine
 10
-13.25
 20
17.99999999999977
 30
0.0
 11
13.24999999999994
 21
17.99999999999977
 31
0.0
  0
LINE
  5
2CE
330
2B4
100
AcDbEntity
  8
0
100
AcDbLine
 10
-31.36824088833464
 20
25.19473471158836
 30
0.0
 11
-13.24999999999994
 21
22.0
 31
0.0
  0
ARC
  5
2CF
330
2B4
100
AcDbEntity
  8
0
100
AcDbCircle
 10
-30.5
 20
30.11877347664949
 30
0.0
 40
5.0
100
AcDbArc
 50
180.0
 51
260.0000000000026
  0
LINE
  5
2D0
330
2B4
100
AcDbEntity
  8
0
100
AcDbLine
 10
31.36824088833464
 20
25.19473471158881
 30
0.0
 11
13.2500000000013
 21
22.0
 31
0.0
  0
LINE
  5
2D1
330
2B4
100
AcDbEntity
  8
0
100
AcDbLine
 10
11.49999999999994
 20
14.99999999999977
 30
0.0
 11
11.49999999999994
 21
15.99999999999954
 31
0.0
  0
LINE
  5
2D2
330
2B4
100
AcDbEntity
  8
0
100
AcDbLine
 10
-11.5
 20
14.99999999999977
 30
0.0
 11
-11.5
 21
15.99999999999954
 31
0.0
  0
ENDBLK
  5
2D3
330
2B4
100
AcDbEntity
  8
0
100
AcDbBlockEnd
  0
BLOCK
  5
23F
330
23E
100
AcDbEntity
  8
0
100
AcDbBlockBegin
  2
Seifenflasche01-s
 70
     0
 10
0.0
 20
0.0
 30
0.0
  3
Seifenflasche01-s
  1

  0
LINE
  5
240
330
23E
100
AcDbEntity
  8
0
100
AcDbLine
 10
-45.0
 20
197.0
 30
0.0
 11
-45.00000000000002
 21
30.34346453353123
 31
0.0
  0
LINE
  5
241
330
23E
100
AcDbEntity
  8
0
100
AcDbLine
 10
10.50000000000006
 20
0.0
 30
0.0
 11
10.5
 21
-11.50000000000023
 31
0.0
  0
LINE
  5
242
330
23E
100
AcDbEntity
  8
0
100
AcDbLine
 10
-10.49999999999988
 20
0.0000000000002274
 30
0.0
 11
-10.49999999999994
 21
-11.5
 31
0.0
  0
LINE
  5
243
330
23E
100
AcDbEntity
  8
0
100
AcDbLine
 10
14.5
 20
14.99999999999977
 30
0.0
 11
14.5
 21
-0.0000000000002274
 31
0.0
  0
LINE
  5
244
330
23E
100
AcDbEntity
  8
0
100
AcDbLine
 10
-14.5
 20
14.99999999999977
 30
0.0
 11
-14.5
 21
0.0
 31
0.0
  0
LINE
  5
245
330
23E
100
AcDbEntity
  8
0
100
AcDbLine
 10
11.5
 20
22.0
 30
0.0
 11
11.49999999999994
 21
18.0
 31
0.0
  0
LINE
  5
246
330
23E
100
AcDbEntity
  8
0
100
AcDbLine
 10
-11.5
 20
22.0
 30
0.0
 11
-11.5
 21
18.0
 31
0.0
  0
LINE
  5
247
330
23E
100
AcDbEntity
  8
0
100
AcDbLine
 10
13.24999999999994
 20
17.99999999999977
 30
0.0
 11
13.24999999999994
 21
15.99999999999977
 31
0.0
  0
LINE
  5
248
330
23E
100
AcDbEntity
  8
0
100
AcDbLine
 10
-13.25
 20
17.99999999999977
 30
0.0
 11
-13.25000000000005
 21
15.99999999999977
 31
0.0
  0
LINE
  5
249
330
23E
100
AcDbEntity
  8
0
100
AcDbLine
 10
44.99999999999994
 20
197.0
 30
0.0
 11
45.0
 21
30.34346453353146
 31
0.0
  0
ARC
  5
24A
330
23E
100
AcDbEntity
  8
0
100
AcDbCircle
 10
40.0
 20
30.34346453353146
 30
0.0
 40
5.0
100
AcDbArc
 50
277.0442014487688
 51
0.0
  0
ARC
  5
24B
330
23E
100
AcDbEntity
  8
0
100
AcDbCircle
 10
39.99999999999995
 20
197.0
 30
0.0
 40
5.0
100
AcDbArc
 50
0.0
 51
90.0
  0
LINE
  5
24C
330
23E
100
AcDbEntity
  8
0
100
AcDbLine
 10
-40.0
 20
202.0
 30
0.0
 11
39.99999999999995
 21
202.0
 31
0.0
  0
ARC
  5
24D
330
23E
100
AcDbEntity
  8
0
100
AcDbCircle
 10
-40.0
 20
197.0
 30
0.0
 40
5.0
100
AcDbArc
 50
90.0
 51
180.0
  0
LINE
  5
24E
330
23E
100
AcDbEntity
  8
0
100
AcDbLine
 10
-13.25
 20
22.0
 30
0.0
 11
13.2500000000013
 21
22.0
 31
0.0
  0
LINE
  5
24F
330
23E
100
AcDbEntity
  8
0
100
AcDbLine
 10
-13.25000000000005
 20
15.99999999999977
 30
0.0
 11
13.24999999999994
 21
15.99999999999977
 31
0.0
  0
LINE
  5
250
330
23E
100
AcDbEntity
  8
0
100
AcDbLine
 10
-14.5
 20
14.99999999999977
 30
0.0
 11
14.5
 21
14.99999999999977
 31
0.0
  0
LINE
  5
251
330
23E
100
AcDbEntity
  8
0
100
AcDbLine
 10
-14.5
 20
0.0
 30
0.0
 11
14.5
 21
-0.0000000000002274
 31
0.0
  0
LINE
  5
252
330
23E
100
AcDbEntity
  8
0
100
AcDbLine
 10
-10.49999999999994
 20
-11.5
 30
0.0
 11
10.5
 21
-11.50000000000023
 31
0.0
  0
LINE
  5
253
330
23E
100
AcDbEntity
  8
0
100
AcDbLine
 10
-13.25
 20
17.99999999999977
 30
0.0
 11
13.24999999999994
 21
17.99999999999977
 31
0.0
  0
LINE
  5
254
330
23E
100
AcDbEntity
  8
0
100
AcDbLine
 10
-40.61317508763525
 20
25.38120533918209
 30
0.0
 11
-13.24999999999994
 21
22.0
 31
0.0
  0
ARC
  5
255
330
23E
100
AcDbEntity
  8
0
100
AcDbCircle
 10
-40.00000000000002
 20
30.34346453353123
 30
0.0
 40
5.0
100
AcDbArc
 50
180.0
 51
262.9557985512313
  0
LINE
  5
256
330
23E
100
AcDbEntity
  8
0
100
AcDbLine
 10
40.61317508763534
 20
25.38120533918232
 30
0.0
 11
13.2500000000013
 21
22.0
 31
0.0
  0
LINE
  5
257
330
23E
100
AcDbEntity
  8
0
100
AcDbLine
 10
11.49999999999994
 20
14.99999999999977
 30
0.0
 11
11.49999999999994
 21
15.99999999999954
 31
0.0
  0
LINE
  5
258
330
23E
100
AcDbEntity
  8
0
100
AcDbLine
 10
-11.5
 20
14.99999999999977
 30
0.0
 11
-11.5
 21
15.99999999999954
 31
0.0
  0
ENDBLK
  5
259
330
23E
100
AcDbEntity
  8
0
100
AcDbBlockEnd
  0
BLOCK
  5
3A0
330
39D
100
AcDbEntity
  8
0
100
AcDbBlockBegin
  2
DIN A4 Quer
 70
     2
 10
0.0
 20
0.0
 30
0.0
  3
DIN A4 Quer
  1

  0
LINE
  5
3A1
330
39D
100
AcDbEntity
  8
01-99
100
AcDbLine
 10
6.000001890710337
 20
6.000000518749232
 30
0.0
 11
6.000001890710223
 21
204.0000005187492
 31
0.0
  0
LINE
  5
3A5
330
39D
100
AcDbEntity
  8
01-99
100
AcDbLine
 10
6.000001890710223
 20
204.0000005187492
 30
0.0
 11
291.0000018907104
 21
204.0000005187492
 31
0.0
  0
LINE
  5
3A6
330
39D
100
AcDbEntity
  8
02-01
100
AcDbLine
 10
297.0000018907104
 20
210.0000005187492
 30
0.0
 11
0.0000018907103367
 21
210.0000005187492
 31
0.0
  0
LINE
  5
3AA
330
39D
100
AcDbEntity
  8
02-01
100
AcDbLine
 10
0.0000018907103367
 20
210.0000005187492
 30
0.0
 11
0.0000018907103367
 21
0.000000518749232
 31
0.0
  0
LINE
  5
3AB
330
39D
100
AcDbEntity
  8
01-99
100
AcDbLine
 10
291.0000018907104
 20
6.000000518749288
 30
0.0
 11
291.0000018907104
 21
204.0000005187492
 31
0.0
  0
LINE
  5
3AC
330
39D
100
AcDbEntity
  8
01-99
100
AcDbLine
 10
291.0000018907104
 20
6.000000518749288
 30
0.0
 11
6.000001890710337
 21
6.000000518749232
 31
0.0
  0
LINE
  5
3AD
330
39D
100
AcDbEntity
  8
02-01
100
AcDbLine
 10
0.0000018907103367
 20
0.000000518749232
 30
0.0
 11
297.0000018907104
 21
0.000000518749232
 31
0.0
  0
LINE
  5
3AE
330
39D
100
AcDbEntity
  8
02-01
100
AcDbLine
 10
297.0000018907104
 20
0.000000518749232
 30
0.0
 11
297.0000018907104
 21
210.0000005187492
 31
0.0
  0
LINE
  5
3AF
330
39D
100
AcDbEntity
  8
01-99
100
AcDbLine
 10
157.0000018907103
 20
11.11111162974919
 30
0.0
 11
107.0000018907103
 21
11.11111162974919
 31
0.0
  0
LINE
  5
3B0
330
39D
100
AcDbEntity
  8
01-99
100
AcDbLine
 10
157.0000018907103
 20
16.22222274074923
 30
0.0
 11
107.0000018907103
 21
16.22222274074923
 31
0.0
  0
LINE
  5
3B1
330
39D
100
AcDbEntity
  8
01-99
100
AcDbLine
 10
157.0000018907103
 20
21.33333385174925
 30
0.0
 11
107.0000018907103
 21
21.33333385174919
 31
0.0
  0
LINE
  5
3B2
330
39D
100
AcDbEntity
  8
01-99
100
AcDbLine
 10
202.0000018907104
 20
26.44444496274923
 30
0.0
 11
107.0000018907103
 21
26.4444449627492
 31
0.0
  0
LINE
  5
3B3
330
39D
100
AcDbEntity
  8
01-99
100
AcDbLine
 10
202.0000018907104
 20
31.55555607374925
 30
0.0
 11
107.0000018907103
 21
31.55555607374919
 31
0.0
  0
LINE
  5
3B4
330
39D
100
AcDbEntity
  8
01-99
100
AcDbLine
 10
132.0000018907103
 20
6.000000518749232
 30
0.0
 11
132.0000018907103
 21
11.11111162974919
 31
0.0
  0
LINE
  5
3B5
330
39D
100
AcDbEntity
  8
01-99
100
AcDbLine
 10
115.0000018907103
 20
11.11111162974919
 30
0.0
 11
115.0000018907103
 21
36.66666718541589
 31
0.0
  0
LINE
  5
3B6
330
39D
100
AcDbEntity
  8
01-99
100
AcDbLine
 10
157.0000018907103
 20
6.000000518749232
 30
0.0
 11
157.0000018907103
 21
52.0000005187492
 31
0.0
  0
LINE
  5
3B7
330
39D
100
AcDbEntity
  8
01-99
100
AcDbLine
 10
202.0000018907104
 20
6.000000518749232
 30
0.0
 11
202.0000018907104
 21
52.0000005187492
 31
0.0
  0
LINE
  5
3B8
330
39D
100
AcDbEntity
  8
01-99
100
AcDbLine
 10
231.5000018907104
 20
6.000000518749232
 30
0.0
 11
231.5000018907104
 21
16.22222274074928
 31
0.0
  0
LINE
  5
3B9
330
39D
100
AcDbEntity
  8
01-99
100
AcDbLine
 10
264.0000018907104
 20
6.000000518749232
 30
0.0
 11
264.0000018907104
 21
16.22222274074931
 31
0.0
  0
LINE
  5
3BA
330
39D
100
AcDbEntity
  8
01-99
100
AcDbLine
 10
235.5000018907104
 20
36.66666718541592
 30
0.0
 11
235.5000018907104
 21
52.00000051874929
 31
0.0
  0
LINE
  5
3BB
330
39D
100
AcDbEntity
  8
01-99
100
AcDbLine
 10
269.0000018907104
 20
36.66666718541592
 30
0.0
 11
269.0000018907104
 21
52.00000051874929
 31
0.0
  0
LINE
  5
3BC
330
39D
100
AcDbEntity
  8
01-99
100
AcDbLine
 10
165.0000018907103
 20
21.33333385208258
 30
0.0
 11
165.0000018907103
 21
36.66666718541592
 31
0.0
  0
LINE
  5
3BD
330
39D
100
AcDbEntity
  8
01-99
100
AcDbLine
 10
147.0031902301398
 20
11.11111162974919
 30
0.0
 11
147.0031902301398
 21
36.66666718541589
 31
0.0
  0
LINE
  5
3BE
330
39D
100
AcDbEntity
  8
01-99
100
AcDbLine
 10
135.0031902301398
 20
11.11111162974919
 30
0.0
 11
135.0031902301398
 21
36.66666718541589
 31
0.0
  0
LINE
  5
3BF
330
39D
100
AcDbEntity
  8
01-99
100
AcDbLine
 10
291.0000018907104
 20
52.00000051874929
 30
0.0
 11
107.0000018907085
 21
52.0000005187492
 31
0.0
  0
LINE
  5
3C0
330
39D
100
AcDbEntity
  8
01-99
100
AcDbLine
 10
202.0000018907104
 20
21.33333385208258
 30
0.0
 11
157.0000018907103
 21
21.33333385208258
 31
0.0
  0
LINE
  5
3C1
330
39D
100
AcDbEntity
  8
01-99
100
AcDbLine
 10
202.0000018907104
 20
36.66666718541592
 30
0.0
 11
107.0000018907103
 21
36.66666718541583
 31
0.0
  0
LINE
  5
3C2
330
39D
100
AcDbEntity
  8
01-99
100
AcDbLine
 10
179.0000018907103
 20
21.33333385208258
 30
0.0
 11
179.0000018907103
 21
52.00000051874926
 31
0.0
  0
LINE
  5
3C3
330
39D
100
AcDbEntity
  8
01-99
100
AcDbLine
 10
157.0000018907103
 20
36.66666718541589
 30
0.0
 11
165.0000018907103
 21
31.55555608541593
 31
0.0
  0
LINE
  5
3C4
330
39D
100
AcDbEntity
  8
01-99
100
AcDbLine
 10
157.0000018907103
 20
31.55555608541593
 30
0.0
 11
165.0000018907103
 21
36.66666718541592
 31
0.0
  0
LINE
  5
3C5
330
39D
100
AcDbEntity
  8
01-99
100
AcDbLine
 10
291.0000018907104
 20
44.33333385208257
 30
0.0
 11
202.0000018907104
 21
44.33333385208252
 31
0.0
  0
LINE
  5
3C6
330
39D
100
AcDbEntity
  8
01-99
100
AcDbLine
 10
202.0000018907104
 20
16.22222274074923
 30
0.0
 11
291.0000018907104
 21
16.22222274074931
 31
0.0
  0
LINE
  5
3C7
330
39D
100
AcDbEntity
  8
01-99
100
AcDbLine
 10
202.0000018907104
 20
36.66666718541592
 30
0.0
 11
291.0000018907104
 21
36.66666718541601
 31
0.0
  0
LINE
  5
3C8
330
39D
100
AcDbEntity
  8
01-99
100
AcDbLine
 10
179.0000018907103
 20
41.77777829674923
 30
0.0
 11
157.0000018907103
 21
41.77777829674923
 31
0.0
  0
LINE
  5
3C9
330
39D
100
AcDbEntity
  8
01-99
100
AcDbLine
 10
179.0000018907103
 20
46.88888940774925
 30
0.0
 11
157.0000018907103
 21
46.88888940774918
 31
0.0
  0
LINE
  5
3CA
330
39D
100
AcDbEntity
  8
01-99
100
AcDbLine
 10
107.0000018907085
 20
52.0000005187492
 30
0.0
 11
107.0000018907085
 21
6.000000518749232
 31
0.0
  0
TEXT
  5
3CB
330
39D
100
AcDbEntity
  8
08-99
100
AcDbText
 10
203.4997030590167
 20
32.66987422660716
 30
0.0
 40
2.5
  1
Benennung/Teil:
 51
15.0
  7
ROMANS8
100
AcDbText
  0
TEXT
  5
3D0
330
39D
100
AcDbEntity
  8
08-99
100
AcDbText
 10
265.5028293382778
 20
12.01760321297988
 30
0.0
 40
2.7
  1
Ident-Nr.
 51
15.0
  7
ROMANS8
100
AcDbText
  0
TEXT
  5
3D1
330
39D
100
AcDbEntity
  8
08-99
100
AcDbText
 10
180.5000236238784
 20
33.05557748053164
 30
0.0
 40
2.5
  1
Name:
 51
15.0
  7
ROMANS8
100
AcDbText
  0
TEXT
  5
3D2
330
39D
100
AcDbEntity
  8
08-99
100
AcDbText
 10
166.5077710332553
 20
33.04841847975365
 30
0.0
 40
2.5
  1
Datum:
 50
0.1025281606895979
 41
0.8933771909280746
 51
15.0
  7
ROMANS8
 72
     5
 11
177.6749680403373
 21
33.06840168621366
 31
0.0
100
AcDbText
  0
TEXT
  5
3D3
330
39D
100
AcDbEntity
  8
08-99
100
AcDbText
 10
116.5000099724457
 20
33.0559776177291
 30
0.0
 40
1.6
  1
Änderung:
 51
15.0
  7
ROMANS8
100
AcDbText
  0
TEXT
  5
3D4
330
39D
100
AcDbEntity
  8
08-99
100
AcDbText
 10
133.4999399664632
 20
9.111119817911628
 30
0.0
 40
1.0
  1
ERSETZT.DURCH:
 51
15.0
  7
ROMANS8
100
AcDbText
  0
TEXT
  5
3D5
330
39D
100
AcDbEntity
  8
08-99
100
AcDbText
 10
108.499362706382
 20
9.110854721685484
 30
0.0
 40
1.0
  1
ERSETZT.FÜR:
 51
15.0
  7
ROMANS8
100
AcDbText
  0
TEXT
  5
3D6
330
39D
100
AcDbEntity
  8
08-99
100
AcDbText
 10
232.9909087328646
 20
12.61295738281299
 30
0.0
 40
2.112
  1
AUFTRAGS.NR.:
 51
15.0
  7
ROMANS8
100
AcDbText
  0
TEXT
  5
3D7
330
39D
100
AcDbEntity
  8
08-99
100
AcDbText
 10
203.5034660957227
 20
12.61092917477953
 30
0.0
 40
2.112
  1
Sonder-Nr:
 51
15.0
  7
ROMANS8
100
AcDbText
  0
TEXT
  5
3D8
330
39D
100
AcDbEntity
  8
08-99
100
AcDbText
 10
186.6963093857886
 20
49.92370902579151
 30
0.0
 40
1.349999999999999
  1
Format
 51
15.0
  7
ROMANS8
100
AcDbText
  0
TEXT
  5
3D9
330
39D
100
AcDbEntity
  8
08-99
100
AcDbText
 10
185.3043816374782
 20
44.64161931184992
 30
0.0
 40
1.822499999999999
  1
Normen
 51
15.0
  7
ROMANS8
100
AcDbText
  0
TEXT
  5
3DA
330
39D
100
AcDbEntity
  8
08-99
100
AcDbText
 10
108.5000314946119
 20
33.0555683543073
 30
0.0
 40
1.6
  1
Zust.
 51
15.0
  7
ROMANS8
100
AcDbText
  0
TEXT
  5
3DB
330
39D
100
AcDbEntity
  8
08-99
100
AcDbText
 10
136.5031825918795
 20
33.05555977024574
 30
0.0
 40
1.6
  1
Datum:
 51
15.0
  7
ROMANS8
100
AcDbText
  0
TEXT
  5
3DC
330
39D
100
AcDbEntity
  8
08-99
100
AcDbText
 10
148.5032155076424
 20
33.05556457669462
 30
0.0
 40
1.6
  1
Name:
 51
15.0
  7
ROMANS8
100
AcDbText
  0
TEXT
  5
3DD
330
39D
100
AcDbEntity
  8
08-99
100
AcDbText
 10
158.1545563363015
 20
28.03814008669803
 30
0.0
 40
1.6
  1
Erst.
 51
15.0
  7
ROMANS8
100
AcDbText
  0
TEXT
  5
3DE
330
39D
100
AcDbEntity
  8
08-99
100
AcDbText
 10
157.517182253021
 20
23.19745157817022
 30
0.0
 40
1.6
  1
Bearb.
 51
15.0
  7
ROMANS8
100
AcDbText
  0
TEXT
  5
3DF
330
39D
100
AcDbEntity
  8
08-99
100
AcDbText
 10
236.4308068024784
 20
41.61949801145607
 30
0.0
 40
2.0
  1
Zuschnittsbreite:
 51
15.0
  7
ROMANS8
100
AcDbText
  0
TEXT
  5
3E0
330
39D
100
AcDbEntity
  8
08-99
100
AcDbText
 10
202.9849966647425
 20
41.73762414686282
 30
0.0
 40
2.0
  1
Zuschnittslänge:
 51
15.0
  7
ROMANS8
100
AcDbText
  0
LWPOLYLINE
  5
3E1
330
39D
100
AcDbEntity
  8
06-99
100
AcDbPolyline
 90
      133
 70
     1
 43
0.010692
 10
180.7675417027103
 20
18.87656536808262
 10
181.0090490347104
 20
19.08724766408264
 10
180.9228536947104
 20
19.22625792008253
 10
180.8242663267104
 20
19.35180694808264
 10
180.7136290747105
 20
19.46394108008266
 10
180.5912983387103
 20
19.56271377608252
 10
180.4576162627104
 20
19.64816424008259
 10
180.3129285547104
 20
19.72033880408256
 10
180.1575880507104
 20
19.77929092808259
 10
179.9919368947105
 20
19.82505981608255
 10
179.8163243587104
 20
19.85769180008268
 10
179.6310997147105
 20
19.87724034008263
 10
179.4366086707105
 20
19.88374464008257
 10
179.2756833787104
 20
19.87768227608256
 10
179.1199437067102
 20
19.85975892008253
 10
178.9697211067105
 20
19.83036304808272
 10
178.8253505947105
 20
19.78989026408257
 10
178.6871636227104
 20
19.73873617208269
 10
178.5554845147104
 20
19.67729281208258
 10
178.4306554147105
 20
19.60595222408256
 10
178.3130006467104
 20
19.52510644808251
 10
178.2028516627104
 20
19.43514752408262
 10
178.1005470427104
 20
19.33647462008261
 10
178.0064075467105
 20
19.22947264808263
 10
177.9207717547105
 20
19.11454434008263
 10
177.8439711187104
 20
18.99207460808262
 10
177.7763335267104
 20
18.86245905608265
 10
177.7181939947104
 20
18.72608972408258
 10
177.6698804107104
 20
18.58336578008257
 10
177.6317242267105
 20
18.43467213608258
 10
177.6040640227103
 20
18.28040796008255
 10
177.5872205587104
 20
18.12096172808262
 10
177.5815359787105
 20
17.95672904408261
 10
177.5871492787104
 20
17.78762437208263
 10
177.6038002867105
 20
17.62428981608261
 10
177.6311896267102
 20
17.46704257208259
 10
177.6690179227102
 20
17.31619627208249
 10
177.7169893627104
 20
17.17206454808257
 10
177.7748081347105
 20
17.03496103208263
 10
177.8421784267105
 20
16.90519579208259
 10
177.9188008627104
 20
16.78308602408256
 10
178.0043796307104
 20
16.66894179608255
 10
178.0986224827104
 20
16.5630803040826
 10
178.2012229147103
 20
16.46581161608259
 10
178.3118958067103
 20
16.3774529280825
 10
178.4303346547105
 20
16.29831430808264
 10
178.5562472107104
 20
16.22870938808262
 10
178.6893340987103
 20
16.16895536408256
 10
178.8293030707103
 20
16.11936230408261
 10
178.9758511867105
 20
16.08024384008266
 10
179.1286897627103
 20
16.05191360408264
 10
179.2875122947104
 20
16.03468522808262
 10
179.4520300987105
 20
16.02887234408266
 10
179.6160275587104
 20
16.03412568008261
 10
179.7733603387104
 20
16.04976451208264
 10
179.9238395467104
 20
16.07559638408259
 10
180.0672762907103
 20
16.11142884008265
 10
180.2034852427104
 20
16.1570729880826
 10
180.3322739467103
 20
16.2123399360826
 10
180.4534570747104
 20
16.2770372280826
 10
180.5668386067104
 20
16.35097953608263
 10
180.6722403427104
 20
16.43397440408256
 10
180.7694626987104
 20
16.52582581208261
 10
180.8583239107104
 20
16.6263555600826
 10
180.9386350867105
 20
16.73536050008255
 10
181.0102037707104
 20
16.85266243208261
 10
181.0728410707104
 20
16.97806177208261
 10
181.1263616587105
 20
17.11137319208251
 10
181.1705766427103
 20
17.25240423608258
 10
181.2052900027104
 20
17.40096601208256
 10
181.2303235387104
 20
17.55686962808264
 10
181.2454812307105
 20
17.71992619208254
 10
181.2505741867103
 20
17.88993968408258
 10
181.2505741867103
 20
17.88993968408258
 10
181.2505741867103
 20
17.94132187208262
 10
179.6164659307104
 20
17.94132187208262
 10
179.6164659307104
 20
17.65355025608258
 10
180.8857275067103
 20
17.65355025608258
 10
180.8749891747103
 20
17.49100690808259
 10
180.8476568587103
 20
17.33636138408261
 10
180.8044362307105
 20
17.19027658808261
 10
180.7460329627104
 20
17.05341898808257
 10
180.6731598547106
 20
16.92644436008263
 10
180.5865261427104
 20
16.81002630008262
 10
180.4868303707104
 20
16.7048170200826
 10
180.3747889027104
 20
16.61149011608256
 10
180.2511074107103
 20
16.53069780008258
 10
180.1164915667105
 20
16.46311010408263
 10
179.9716506067103
 20
16.40938636808255
 10
179.8172937667104
 20
16.37019306008267
 10
179.6541267187105
 20
16.34618952008256
 10
179.4828586987105
 20
16.33804221608264
 10
179.3181983347105
 20
16.34599350008258
 10
179.1599032747103
 20
16.36937690408251
 10
179.0085651427103
 20
16.40748319208259
 10
178.8647719987102
 20
16.45960669208259
 10
178.7291047747104
 20
16.5250381680826
 10
178.6021550947103
 20
16.60306838408266
 10
178.4845074547104
 20
16.69299523208261
 10
178.3767534787104
 20
16.7941059120827
 10
178.2794776627105
 20
16.90569475208261
 10
178.1932645027103
 20
17.02705608008256
 10
178.1187056227104
 20
17.1574770960826
 10
178.0563855187104
 20
17.29625569208261
 10
178.0068922507104
 20
17.44268263208255
 10
177.9708138787103
 20
17.59604511608262
 10
177.9487348987103
 20
17.75564460008269
 10
177.9412469347104
 20
17.92076828408253
 10
177.9476336227105
 20
18.0891423360826
 10
177.9665370787104
 20
18.25115464808257
 10
177.9975581347105
 20
18.40630626008257
 10
178.0403011867104
 20
18.55410177608257
 10
178.0943741947103
 20
18.69404580008259
 10
178.1593779907104
 20
18.82564650008262
 10
178.2349169707104
 20
18.94840135208261
 10
178.3205990947104
 20
19.06182208808258
 10
178.4160251947103
 20
19.16540618408268
 10
178.5208067947103
 20
19.25866180808256
 10
178.6345375987105
 20
19.34109000008263
 10
178.7568326947105
 20
19.41219892808263
 10
178.8872893507103
 20
19.47148963208258
 10
179.0255155267105
 20
19.5184667160826
 10
179.1711191827105
 20
19.55263478408258
 10
179.3236975867105
 20
19.5735020040826
 10
179.4828586987105
 20
19.58056585208263
 10
179.6605633027104
 20
19.57164872408262
 10
179.8303166227105
 20
19.5450113880826
 10
179.9917800787104
 20
19.50082135208259
 10
180.1446150907104
 20
19.43924612408259
 10
180.2884830787104
 20
19.36046034008256
 10
180.4230490267105
 20
19.26462794408263
 10
180.5479743547104
 20
19.15192357208261
 10
180.6629169187105
 20
19.02251116808264
  0
LWPOLYLINE
  5
3E6
330
39D
100
AcDbEntity
  8
06-99
100
AcDbPolyline
 90
       12
 70
     1
 43
0.010692
 10
177.4389973627103
 20
12.25281434408268
 10
179.3222648587105
 20
12.25281434408268
 10
179.4676012147104
 20
13.00768023608262
 10
178.5648720907104
 20
13.00768023608262
 10
178.6210549867103
 20
13.29950768408255
 10
179.4187173907104
 20
13.29950768408255
 10
179.5558030867103
 20
14.01156280808257
 10
178.7581406827103
 20
14.01156280808257
 10
178.8098471947103
 20
14.28005674808256
 10
179.6892285547103
 20
14.28005674808256
 10
179.8345542187104
 20
15.0349083840826
 10
177.9746344867104
 20
15.0349083840826
  0
LWPOLYLINE
  5
3E7
330
39D
100
AcDbEntity
  8
06-99
100
AcDbPolyline
 90
        4
 70
     1
 43
0.010692
 10
163.6086138067104
 20
12.88042761608258
 10
176.0658630067103
 20
12.88042761608258
 10
175.9422848707104
 20
12.25209798008259
 10
163.4850392347104
 20
12.25209798008259
  0
SOLID
  5
3E8
330
39D
100
AcDbEntity
  8
06-99
100
AcDbTrace
 10
163.6086138067104
 20
12.88042761608258
 30
0.0
 11
176.0658630067103
 21
12.88042761608258
 31
0.0
 12
163.4850392347104
 22
12.25209798008259
 32
0.0
 13
175.9422848707104
 23
12.25209798008259
 33
0.0
  0
LWPOLYLINE
  5
3E9
330
39D
100
AcDbEntity
  8
06-99
100
AcDbPolyline
 90
       10
 70
     1
 43
0.010692
 10
169.3458447787105
 20
16.02887234408266
 10
170.3221847587104
 20
19.1026690920826
 10
171.3396497347103
 20
16.02887234408266
 10
172.5678005707105
 20
19.80153385208257
 10
172.2235110427103
 20
19.80153385208257
 10
171.3396497347103
 20
16.89303186008257
 10
170.3221847587104
 20
19.94541253208254
 10
169.3458447787105
 20
16.86733898408263
 10
168.4260120187104
 20
19.80153385208257
 10
168.0765832027105
 20
19.80153385208257
  0
LWPOLYLINE
  5
3EA
330
39D
100
AcDbEntity
  8
06-99
100
AcDbPolyline
 90
        3
 70
     1
 43
0.010692
 10
174.3244177627104
 20
17.65868598008265
 10
174.9770360587104
 20
19.25683347608253
 10
175.6039650427103
 20
17.65868598008265
  0
LWPOLYLINE
  5
3EB
330
39D
100
AcDbEntity
  8
06-99
100
AcDbPolyline
 90
        7
 70
     1
 43
0.010692
 10
173.3831831827104
 20
16.12735992008257
 10
173.7231959107104
 20
16.12735992008257
 10
174.2113641187103
 20
17.37092862008259
 10
175.7118651427105
 20
17.37092862008259
 10
176.1794940187103
 20
16.12735992008257
 10
176.5443406987104
 20
16.12735992008257
 10
174.9975932107104
 20
19.94541253208254
  0
LWPOLYLINE
  5
3EC
330
39D
100
AcDbEntity
  8
06-99
100
AcDbPolyline
 90
        8
 70
     1
 43
0.010692
 10
185.9298068107102
 20
12.25281434408268
 10
187.0043813227103
 20
12.25281434408268
 10
187.1574087907104
 20
12.60301298408259
 10
187.9122746827104
 20
12.60301298408259
 10
187.9343465347104
 20
12.25281434408268
 10
189.0082759627103
 20
12.25281434408268
 10
188.5711513627103
 20
15.0349083840826
 10
187.4583137467103
 20
15.0349083840826
  0
LWPOLYLINE
  5
3ED
330
39D
100
AcDbEntity
  8
06-99
100
AcDbPolyline
 90
       34
 70
     1
 43
0.010692
 10
183.0434586427104
 20
13.66137842408258
 10
183.0784820707102
 20
13.66137842408258
 10
183.0642260707104
 20
13.48699903208265
 10
183.0638019547104
 20
13.3351013520826
 10
183.0679005547104
 20
13.20222830408264
 10
183.0952328707104
 20
12.25281434408268
 10
183.9668304547102
 20
12.25281434408268
 10
185.3156904067102
 20
15.0349083840826
 10
184.3118078347104
 20
15.0349083840826
 10
183.8579146147103
 20
13.80923096408256
 10
183.8078119027105
 20
13.66872739208253
 10
183.7488419587103
 20
13.48671391208251
 10
183.6900288307102
 20
13.26059949608267
 10
183.6666953227103
 20
13.26059949608267
 10
183.6884214667103
 20
13.45803440408261
 10
183.6929798227104
 20
13.61569507208256
 10
183.6919391347103
 20
13.73531360408262
 10
183.6775548307103
 20
15.0349083840826
 10
182.9732870467103
 20
15.0349083840826
 10
182.4584850667104
 20
13.73531360408262
 10
182.4113832427102
 20
13.61569507208256
 10
182.3552288587105
 20
13.45803440408261
 10
182.3009241907104
 20
13.26059949608267
 10
182.2775906827103
 20
13.26059949608267
 10
182.3058460747104
 20
13.48671391208251
 10
182.3169657547104
 20
13.66872739208253
 10
182.3209609987103
 20
13.80923096408256
 10
182.3390340427103
 20
15.0349083840826
 10
181.3345063867103
 20
15.0349083840826
 10
181.6127371747104
 20
12.25281434408268
 10
182.4843311947103
 20
12.25281434408268
 10
182.8772408107104
 20
13.20222830408264
 10
182.9325148867104
 20
13.3351013520826
 10
182.9905795747104
 20
13.48699903208265
  0
LWPOLYLINE
  5
3EE
330
39D
100
AcDbEntity
  8
06-99
100
AcDbPolyline
 90
       10
 70
     1
 43
0.010692
 10
187.4520696187103
 20
13.26448425608262
 10
187.5983611267103
 20
13.57965946808258
 10
187.6731124627104
 20
13.74409530008267
 10
187.7541542587104
 20
13.9457107800826
 10
187.8288307507103
 20
14.19056470808266
 10
187.8482901907103
 20
14.19056470808266
 10
187.8286668067103
 20
13.9457107800826
 10
187.8320739907104
 20
13.74409530008267
 10
187.8435073027103
 20
13.57965946808258
 10
187.8684125347105
 20
13.26448425608262
  0
LWPOLYLINE
  5
3EF
330
39D
100
AcDbEntity
  8
06-99
100
AcDbPolyline
 90
       23
 70
     1
 43
0.010692
 10
190.5867074107104
 20
12.25281434408268
 10
191.5672422187103
 20
12.25281434408268
 10
191.7440380027103
 20
13.17110389208258
 10
192.0536284267105
 20
12.25281434408268
 10
193.1742391267103
 20
12.25281434408268
 10
192.6490694707104
 20
13.38511496408256
 10
192.8084301667104
 20
13.42380931208259
 10
192.9537023707103
 20
13.49881725608259
 10
193.0813505947103
 20
13.60690268408257
 10
193.1878322227103
 20
13.74481879208261
 10
193.2696010747103
 20
13.90932234008255
 10
193.3231145347103
 20
14.09717008808257
 10
193.3446018907103
 20
14.26809240008262
 10
193.3403037067103
 20
14.42330103608268
 10
193.3102306747104
 20
14.56226139608259
 10
193.2543934867102
 20
14.6844353160825
 10
193.1728099627103
 20
14.78928819608265
 10
193.0654943587103
 20
14.87627830808262
 10
192.9324538027104
 20
14.94487461608261
 10
192.7737096787102
 20
14.99453539208267
 10
192.5892655507103
 20
15.02472603608262
 10
192.3791463667103
 20
15.0349083840826
 10
191.1223445347103
 20
15.0349083840826
  0
LWPOLYLINE
  5
3F0
330
39D
100
AcDbEntity
  8
06-99
100
AcDbPolyline
 90
        9
 70
     1
 43
0.010692
 10
191.9650345147104
 20
14.31896493608261
 10
192.1206850867104
 20
14.31896493608261
 10
192.2773549627104
 20
14.28538492808255
 10
192.3582221227102
 20
14.19041145608264
 10
192.3632188507104
 20
14.04270147608261
 10
192.3008666707103
 20
13.89700159208266
 10
192.1832938747103
 20
13.8057810120826
 10
192.0158143867103
 20
13.77422179208255
 10
191.8601638147104
 20
13.77422179208255
  0
LWPOLYLINE
  5
3F1
330
39D
100
AcDbEntity
  8
06-99
100
AcDbPolyline
 90
       12
 70
     1
 43
0.010692
 10
187.5798033787105
 20
16.12735992008257
 10
189.3989010547105
 20
16.12735992008257
 10
189.3989010547105
 20
16.44082441208255
 10
187.9138214587105
 20
16.44082441208255
 10
187.9138214587105
 20
18.02353266008268
 10
189.3989010547105
 20
18.02353266008268
 10
189.3989010547105
 20
18.33699715208266
 10
187.9138214587105
 20
18.33699715208266
 10
187.9138214587105
 20
19.48806936008262
 10
189.3989010547105
 20
19.48806936008262
 10
189.3989010547105
 20
19.80153385208257
 10
187.5798033787105
 20
19.80153385208257
  0
LWPOLYLINE
  5
3F2
330
39D
100
AcDbEntity
  8
06-99
100
AcDbPolyline
 90
        8
 70
     1
 43
0.010692
 10
182.8530269947105
 20
16.12735992008257
 10
183.1870486387104
 20
16.12735992008257
 10
183.1870486387104
 20
19.09753336808259
 10
185.7666682747103
 20
16.01858664008259
 10
185.7666682747103
 20
19.80153385208257
 10
185.4326608867104
 20
19.80153385208257
 10
185.4326608867104
 20
16.88274615608262
 10
182.8530269947105
 20
19.95568398008257
  0
LWPOLYLINE
  5
3F3
330
39D
100
AcDbEntity
  8
06-99
100
AcDbPolyline
 90
       19
 70
     1
 43
0.010692
 10
191.4484255867105
 20
19.50862651208254
 10
191.7824329747104
 20
19.50862651208254
 10
191.9866180987103
 20
19.50030813608259
 10
192.1604486347104
 20
19.47385969208258
 10
192.3048975547104
 20
19.42705724408253
 10
192.4209200107105
 20
19.35767329208255
 10
192.5094818467105
 20
19.26348033608252
 10
192.5715453427103
 20
19.14225087608264
 10
192.6080799067104
 20
18.99175028408251
 10
192.6200442547104
 20
18.80976175208258
 10
192.6074490787103
 20
18.63100933208255
 10
192.5693784307105
 20
18.48586186808256
 10
192.5054188867105
 20
18.37130421608268
 10
192.4151392027104
 20
18.28432836008261
 10
192.2981259547105
 20
18.22192272008263
 10
192.1539514627104
 20
18.18107215208257
 10
191.9821916107103
 20
18.15877220408268
 10
191.7824329747104
 20
18.15200773208264
 10
191.4484255867105
 20
18.15200773208264
  0
LWPOLYLINE
  5
3F4
330
39D
100
AcDbEntity
  8
06-99
100
AcDbPolyline
 90
       29
 70
     1
 43
0.010692
 10
193.3446018907103
 20
16.12735992008257
 10
192.0239581267104
 20
17.87965398008262
 10
192.2123761147105
 20
17.89225272008266
 10
192.3829028227104
 20
17.92942167608257
 10
192.5344013347104
 20
17.99023064408268
 10
192.6657240427104
 20
18.07375654808263
 10
192.7757304667105
 20
18.17905849208256
 10
192.8632765627103
 20
18.3052169640826
 10
192.9272254147104
 20
18.45129463208263
 10
192.9664329787104
 20
18.61636129208264
 10
192.9797552107102
 20
18.79949030408264
 10
192.9699399547105
 20
18.97455398408263
 10
192.9404834947105
 20
19.13261738408263
 10
192.8913573187104
 20
19.27374822008264
 10
192.8225436067105
 20
19.39801420808251
 10
192.7340174107104
 20
19.50548662808262
 10
192.6257537827105
 20
19.59623676008263
 10
192.4977313387104
 20
19.67032875608257
 10
192.3499251307103
 20
19.72783389608261
 10
192.1823137747104
 20
19.76882702408264
 10
191.9948758867104
 20
19.79336872808264
 10
191.7875829547104
 20
19.80153385208257
 10
191.7875829547104
 20
19.80153385208257
 10
191.1144075067104
 20
19.80153385208257
 10
191.1144075067104
 20
16.12735992008257
 10
191.4484255867105
 20
16.12735992008257
 10
191.4484255867105
 20
17.87965398008262
 10
191.6488399987104
 20
17.87965398008262
 10
192.9386409067104
 20
16.12735992008257
  0
TEXT
  5
3F5
330
39D
100
AcDbEntity
  8
06-99
100
AcDbText
 10
172.6083599897699
 20
9.633209504468425
 30
0.0
 40
1.4256
  1
GmbH & Co KG
 41
1.199203187250998
 51
15.0
  7
ROMAND8
 72
     5
 11
193.04195998977
 21
9.633209504468425
 31
0.0
100
AcDbText
  0
TEXT
  5
3F7
330
39D
100
AcDbEntity
  8
06-99
100
AcDbText
 10
172.7098167443538
 20
7.391016232044876
 30
0.0
 40
1.4256
  1
72770 Reutlingen
 50
0.5663244663116137
 41
1.087840993687877
 51
15.0
  7
ROMAND8
 72
     5
 11
192.9434167443538
 21
7.591016232044864
 31
0.0
100
AcDbText
  0
TEXT
  5
3F8
330
39D
100
AcDbEntity
  8
08-99
100
AcDbText
 10
160.4141200905478
 20
48.45009214919255
 30
0.0
 40
2.25
  1
Zul. Abw.
 51
15.0
  7
ROMANS8
100
AcDbText
  0
TEXT
  5
3F9
330
39D
100
AcDbEntity
  8
08-99
100
AcDbText
 10
210.2099282109939
 20
49.28616467812273
 30
0.0
 40
2.0
  1
Mat. Art.
 51
15.0
  7
ROMANS8
100
AcDbText
  0
TEXT
  5
3FA
330
39D
100
AcDbEntity
  8
08-99
100
AcDbText
 10
242.4865328610831
 20
49.40431390209392
 30
0.0
 40
2.0
  1
Oberfläche:
 51
15.0
  7
ROMANS8
100
AcDbText
  0
TEXT
  5
3FB
330
39D
100
AcDbEntity
  8
08-99
100
AcDbText
 10
270.2625397292909
 20
41.7376472354272
 30
0.0
 40
2.0
  1
Blech Dicke:
 51
15.0
  7
ROMANS8
100
AcDbText
  0
TEXT
  5
3FC
330
39D
100
AcDbEntity
  8
08-99
100
AcDbText
 10
274.4380299192681
 20
49.28616467812279
 30
0.0
 40
2.0
  1
Maßstab:
 51
15.0
  7
ROMANS8
100
AcDbText
  0
LINE
  5
3FD
330
39D
100
AcDbEntity
  8
01-99
100
AcDbLine
 10
202.0000018907104
 20
46.88888940774925
 30
0.0
 11
179.0000018907103
 21
46.88888940774925
 31
0.0
  0
LINE
  5
3FE
330
39D
100
AcDbEntity
  8
01-99
100
AcDbLine
 10
202.0000018907104
 20
44.33333385208252
 30
0.0
 11
179.0000018907103
 21
44.33333385208252
 31
0.0
  0
LINE
  5
3FF
330
39D
100
AcDbEntity
  8
01-99
100
AcDbLine
 10
202.0000018907104
 20
40.5000005187492
 30
0.0
 11
179.0000018907103
 21
40.5000005187492
 31
0.0
  0
ATTDEF
  5
400
330
39D
100
AcDbEntity
  8
06-99
100
AcDbText
 10
203.4954486298875
 20
26.18783921603142
 30
0.0
 40
4.5
  1

 41
0.9
  7
ROMANS8
100
AcDbAttributeDefinition
280
     0
  3
Benennung/Teil
  2
TEILE
 70
     0
280
     0
  0
ATTDEF
  5
401
330
39D
100
AcDbEntity
  8
06-99
100
AcDbText
 10
203.4954486298875
 20
18.9506040036654
 30
0.0
 40
4.5
  1

 41
0.9
  7
ROMANS8
100
AcDbAttributeDefinition
280
     0
  3
Benennung/Teil2
  2
TEILE2
 70
     0
280
     0
  0
ATTDEF
  5
402
330
39D
100
AcDbEntity
  8
06-99
100
AcDbText
 10
278.347388102425
 20
45.33333385208258
 30
0.0
 40
3.375
  1

  7
ROMANS8
100
AcDbAttributeDefinition
280
     0
  3
Maßstab
  2
:
 70
     0
280
     0
  0
ATTDEF
  5
403
330
39D
100
AcDbEntity
  8
06-99
100
AcDbText
 10
179.9970696900777
 20
27.4416859867805
 30
0.0
 40
2.5
  1

 41
0.9
  7
ROMANS8
100
AcDbAttributeDefinition
280
     0
  3
Name
  2
NAME
 70
     0
280
     0
  0
ATTDEF
  5
404
330
39D
100
AcDbEntity
  8
06-99
100
AcDbText
 10
166.4931483426044
 20
27.46123569286047
 30
0.0
 40
2.5
  1

 50
359.914459769614
 41
0.9542572414211146
  7
ROMANS8
 72
     5
 11
177.7397390111491
 21
27.44444498541589
 31
0.0
100
AcDbAttributeDefinition
280
     0
  3
Datum
  2
DATUM
 70
     0
280
     0
  0
ATTDEF
  5
405
330
39D
100
AcDbEntity
  8
06-99
100
AcDbText
 10
265.5063458578687
 20
7.492900319037914
 30
0.0
 40
2.99376
  1

  7
ROMANS8
100
AcDbAttributeDefinition
280
     0
  3
Ident-Nummer
  2
ID.NR
 70
     0
280
     0
  0
ATTDEF
  5
406
330
39D
100
AcDbEntity
  8
06-99
100
AcDbText
 10
203.7312681464209
 20
37.66666716319369
 30
0.0
 40
3.0
  1

 41
0.9
  7
ROMANS8
100
AcDbAttributeDefinition
280
     0
  3
Zuschnitts.Länge
  2
LÄNGE
 70
     0
280
     0
  0
ATTDEF
  5
407
330
39D
100
AcDbEntity
  8
06-99
100
AcDbText
 10
237.1808068024801
 20
37.67810438919401
 30
0.0
 40
3.0
  1

 41
0.9
  7
ROMANS8
100
AcDbAttributeDefinition
280
     0
  3
Zuschnitts Breite
  2
BREITE
 70
     0
280
     0
  0
ATTDEF
  5
408
330
39D
100
AcDbEntity
  8
06-99
100
AcDbText
 10
277.6090940174423
 20
37.666667185416
 30
0.0
 40
3.09375
  1

  7
ROMANS8
100
AcDbAttributeDefinition
280
     0
  3
Blech.Dicke
  2
1.0
 70
     0
280
     0
  0
ATTDEF
  5
409
330
39D
100
AcDbEntity
  8
06-99
100
AcDbText
 10
251.127787492113
 20
45.33333385208268
 30
0.0
 40
3.0
  1

  7
ROMANS8
 72
     1
 11
251.127787492113
 21
45.33333385208268
 31
0.0
100
AcDbAttributeDefinition
280
     0
  3
Oberfläche
  2
IV
 70
     0
280
     0
  0
ATTDEF
  5
40A
330
39D
100
AcDbEntity
  8
06-99
100
AcDbText
 10
210.2747424268261
 20
45.33333385208251
 30
0.0
 40
3.375
  1
1.4301
  7
ROMANS8
100
AcDbAttributeDefinition
280
     0
  3
Mat.Art
  2
1.4301
 70
     0
280
     0
  0
ATTDEF
  5
40B
330
39D
100
AcDbEntity
  8
06-99
100
AcDbText
 10
233.0006357775905
 20
7.504397123103899
 30
0.0
 40
3.168
  1

 41
0.9
  7
ROMANS8
100
AcDbAttributeDefinition
280
     0
  3
Auftrags Nr.
  2
AUFTRAGS.NR.
 70
     0
280
     0
  0
ATTDEF
  5
40C
330
39D
100
AcDbEntity
  8
06-99
100
AcDbText
 10
203.5000018907104
 20
7.500000518749232
 30
0.0
 40
3.168
  1

 41
0.9
  7
ROMANS8
100
AcDbAttributeDefinition
280
     0
  3
Sonder-NR,WPS
  2
SONDER-NR
 70
     0
280
     0
  0
ATTDEF
  5
40D
330
39D
100
AcDbEntity
  8
06-99
100
AcDbText
 10
133.4997528857186
 20
6.601810588009072
 30
0.0
 40
1.5
  1

 41
0.9
  7
ROMANS8
100
AcDbAttributeDefinition
280
     0
  3
ERSETZT.Durch
  2
ERSETZT.DURCH
 70
     0
280
     0
  0
ATTDEF
  5
40E
330
39D
100
AcDbEntity
  8
06-99
100
AcDbText
 10
108.4994696709088
 20
6.597456916621638
 30
0.0
 40
1.5
  1

 41
0.9
  7
ROMANS8
100
AcDbAttributeDefinition
280
     0
  3
ERSETZT.Für
  2
ERSETZT.FÜR
 70
     0
280
     0
  0
ATTDEF
  5
40F
330
39D
100
AcDbEntity
  8
06-99
100
AcDbText
 10
186.9730745371479
 20
47.66851165875723
 30
0.0
 40
1.287
  1
DIN A4
  7
ROMANS8
 72
     1
 11
190.2518602514336
 21
47.66851165875723
 31
0.0
100
AcDbAttributeDefinition
280
     0
  3
Format
  2
FORMAT
 70
     0
280
     0
  0
ATTDEF
  5
410
330
39D
100
AcDbEntity
  8
06-99
100
AcDbText
 10
182.9908211122643
 20
37.31860869812613
 30
0.0
 40
2.34
  1
DIN 2768
  7
ROMANS8
 72
     1
 11
191.0136782551215
 21
37.31860869812613
 31
0.0
100
AcDbAttributeDefinition
280
     0
  3
Norm / Kanten
  2
NORM2
 70
     0
280
     0
  0
ATTDEF
  5
411
330
39D
100
AcDbEntity
  8
06-99
100
AcDbText
 10
179.8151068265501
 20
41.15194203145941
 30
0.0
 40
2.34
  1
DIN 6930-M
  7
ROMANS8
 72
     1
 11
190.5122496836929
 21
41.15194203145941
 31
0.0
100
AcDbAttributeDefinition
280
     0
  3
Norm / Fräsen
  2
NORM1
 70
     0
280
     0
  0
ENDBLK
  5
412
330
39D
100
AcDbEntity
  8
0
100
AcDbBlockEnd
  0
BLOCK
  5
37E
330
37D
100
AcDbEntity
  8
0
100
AcDbBlockBegin
  2
*D3
 70
     1
 10
0.0
 20
0.0
 30
0.0
  3
*D3
  1

  0
LINE
  5
37F
330
37D
100
AcDbEntity
  8
09-01
 62
     4
440
 16777216
370
    -2
100
AcDbLine
 10
-1201.041989141193
 20
1955.987494507516
 30
0.0
 11
-1201.041989141193
 21
2011.173345581862
 31
0.0
  0
LINE
  5
380
330
37D
100
AcDbEntity
  8
09-01
 62
     4
440
 16777216
370
    -2
100
AcDbLine
 10
-903.0419891411934
 20
1955.987494507516
 30
0.0
 11
-903.0419891411934
 21
2011.173345581862
 31
0.0
  0
LINE
  5
381
330
37D
100
AcDbEntity
  8
09-01
 62
     4
440
 16777216
370
    -2
100
AcDbLine
 10
-1188.541989141193
 20
2006.173345581862
 30
0.0
 11
-915.5419891411934
 21
2006.173345581862
 31
0.0
  0
SOLID
  5
382
330
37D
100
AcDbEntity
  8
09-01
 62
     4
440
 16777216
100
AcDbTrace
 10
-1188.541989141193
 20
2008.256678915195
 30
0.0
 11
-1188.541989141193
 21
2004.090012248529
 31
0.0
 12
-1201.041989141193
 22
2006.173345581862
 32
0.0
 13
-1201.041989141193
 23
2006.173345581862
 33
0.0
  0
SOLID
  5
383
330
37D
100
AcDbEntity
  8
09-01
 62
     4
440
 16777216
100
AcDbTrace
 10
-915.5419891411934
 20
2008.256678915195
 30
0.0
 11
-915.5419891411934
 21
2004.090012248529
 31
0.0
 12
-903.0419891411934
 22
2006.173345581862
 32
0.0
 13
-903.0419891411934
 23
2006.173345581862
 33
0.0
  0
MTEXT
  5
384
330
37D
100
AcDbEntity
  8
09-01
 62
     1
440
 16777216
100
AcDbMText
 10
-1052.041989141193
 20
2017.555507928383
 30
0.0
 40
12.5
 41
0.0
 46
0.0
 71
     5
 72
     1
  1
298
 73
     1
 44
1.0
  0
POINT
  5
385
330
37D
100
AcDbEntity
  8
DEFPOINTS
 62
     0
440
 16777216
100
AcDbPoint
 10
-1201.041989141193
 20
1950.987494507516
 30
0.0
  0
POINT
  5
386
330
37D
100
AcDbEntity
  8
DEFPOINTS
 62
     0
440
 16777216
100
AcDbPoint
 10
-903.0419891411934
 20
1950.987494507517
 30
0.0
  0
POINT
  5
387
330
37D
100
AcDbEntity
  8
DEFPOINTS
 62
     0
440
 16777216
100
AcDbPoint
 10
-903.0419891411934
 20
2006.173345581862
 30
0.0
  0
ENDBLK
  5
388
330
37D
100
AcDbEntity
  8
0
100
AcDbBlockEnd
  0
BLOCK
  5
360
330
35F
100
AcDbEntity
  8
0
100
AcDbBlockBegin
  2
*D4
 70
     1
 10
0.0
 20
0.0
 30
0.0
  3
*D4
  1

  0
LINE
  5
361
330
35F
100
AcDbEntity
  8
09-01
 62
     4
440
 16777216
370
    -2
100
AcDbLine
 10
-1206.041989141193
 20
1950.987494507516
 30
0.0
 11
-1261.969637567095
 21
1950.987494507516
 31
0.0
  0
LINE
  5
362
330
35F
100
AcDbEntity
  8
09-01
 62
     4
440
 16777216
370
    -2
100
AcDbLine
 10
-1206.041989141193
 20
1652.987494507517
 30
0.0
 11
-1261.969637567095
 21
1652.987494507517
 31
0.0
  0
LINE
  5
363
330
35F
100
AcDbEntity
  8
09-01
 62
     4
440
 16777216
370
    -2
100
AcDbLine
 10
-1256.969637567095
 20
1938.487494507516
 30
0.0
 11
-1256.969637567095
 21
1665.487494507517
 31
0.0
  0
SOLID
  5
364
330
35F
100
AcDbEntity
  8
09-01
 62
     4
440
 16777216
100
AcDbTrace
 10
-1259.052970900428
 20
1938.487494507516
 30
0.0
 11
-1254.886304233761
 21
1938.487494507516
 31
0.0
 12
-1256.969637567095
 22
1950.987494507516
 32
0.0
 13
-1256.969637567095
 23
1950.987494507516
 33
0.0
  0
SOLID
  5
365
330
35F
100
AcDbEntity
  8
09-01
 62
     4
440
 16777216
100
AcDbTrace
 10
-1259.052970900428
 20
1665.487494507517
 30
0.0
 11
-1254.886304233761
 21
1665.487494507517
 31
0.0
 12
-1256.969637567095
 22
1652.987494507517
 32
0.0
 13
-1256.969637567095
 23
1652.987494507517
 33
0.0
  0
MTEXT
  5
366
330
35F
100
AcDbEntity
  8
09-01
 62
     1
440
 16777216
100
AcDbMText
 10
-1268.351799913616
 20
1801.987494507516
 30
0.0
 40
12.5
 41
0.0
 46
0.0
 71
     5
 72
     1
  1
298
 11
0.0000000000000001
 21
1.0
 31
0.0
 73
     1
 44
1.0
  0
POINT
  5
367
330
35F
100
AcDbEntity
  8
DEFPOINTS
 62
     0
440
 16777216
100
AcDbPoint
 10
-1201.041989141193
 20
1950.987494507516
 30
0.0
  0
POINT
  5
368
330
35F
100
AcDbEntity
  8
DEFPOINTS
 62
     0
440
 16777216
100
AcDbPoint
 10
-1201.041989141193
 20
1652.987494507517
 30
0.0
  0
POINT
  5
369
330
35F
100
AcDbEntity
  8
DEFPOINTS
 62
     0
440
 16777216
100
AcDbPoint
 10
-1256.969637567095
 20
1652.987494507517
 30
0.0
  0
ENDBLK
  5
36A
330
35F
100
AcDbEntity
  8
0
100
AcDbBlockEnd
  0
BLOCK
  5
232
330
231
100
AcDbEntity
  8
0
100
AcDbBlockBegin
  2
*D5
 70
     1
 10
0.0
 20
0.0
 30
0.0
  3
*D5
  1

  0
LINE
  5
233
330
231
100
AcDbEntity
  8
09-01
 62
     4
440
 16777216
370
    -2
100
AcDbLine
 10
-1206.041989141193
 20
1545.876832201194
 30
0.0
 11
-1235.694067593823
 21
1545.876832201194
 31
0.0
  0
LINE
  5
234
330
231
100
AcDbEntity
  8
09-01
 62
     4
440
 16777216
370
    -2
100
AcDbLine
 10
-1206.041989141193
 20
1424.876832201194
 30
0.0
 11
-1235.694067593823
 21
1424.876832201194
 31
0.0
  0
LINE
  5
235
330
231
100
AcDbEntity
  8
09-01
 62
     4
440
 16777216
370
    -2
100
AcDbLine
 10
-1230.694067593823
 20
1533.376832201194
 30
0.0
 11
-1230.694067593823
 21
1437.376832201194
 31
0.0
  0
SOLID
  5
236
330
231
100
AcDbEntity
  8
09-01
 62
     4
440
 16777216
100
AcDbTrace
 10
-1232.777400927157
 20
1533.376832201194
 30
0.0
 11
-1228.61073426049
 21
1533.376832201194
 31
0.0
 12
-1230.694067593823
 22
1545.876832201194
 32
0.0
 13
-1230.694067593823
 23
1545.876832201194
 33
0.0
  0
SOLID
  5
237
330
231
100
AcDbEntity
  8
09-01
 62
     4
440
 16777216
100
AcDbTrace
 10
-1232.777400927157
 20
1437.376832201194
 30
0.0
 11
-1228.61073426049
 21
1437.376832201194
 31
0.0
 12
-1230.694067593823
 22
1424.876832201194
 32
0.0
 13
-1230.694067593823
 23
1424.876832201194
 33
0.0
  0
MTEXT
  5
238
330
231
100
AcDbEntity
  8
09-01
 62
     1
440
 16777216
100
AcDbMText
 10
-1241.969647402828
 20
1485.376832201193
 30
0.0
 40
12.5
 41
0.0
 46
0.0
 71
     5
 72
     1
  1
121
 11
0.0000000000000001
 21
1.0
 31
0.0
 73
     1
 44
1.0
  0
POINT
  5
239
330
231
100
AcDbEntity
  8
DEFPOINTS
 62
     0
440
 16777216
100
AcDbPoint
 10
-1201.041989141193
 20
1545.876832201194
 30
0.0
  0
POINT
  5
23A
330
231
100
AcDbEntity
  8
DEFPOINTS
 62
     0
440
 16777216
100
AcDbPoint
 10
-1201.041989141193
 20
1424.876832201194
 30
0.0
  0
POINT
  5
23B
330
231
100
AcDbEntity
  8
DEFPOINTS
 62
     0
440
 16777216
100
AcDbPoint
 10
-1230.694067593823
 20
1424.876832201194
 30
0.0
  0
ENDBLK
  5
23C
330
231
100
AcDbEntity
  8
0
100
AcDbBlockEnd
  0
BLOCK
  5
225
330
224
100
AcDbEntity
  8
0
100
AcDbBlockBegin
  2
*D6
 70
     1
 10
0.0
 20
0.0
 30
0.0
  3
*D6
  1

  0
LINE
  5
226
330
224
100
AcDbEntity
  8
09-01
 62
     4
440
 16777216
370
    -2
100
AcDbLine
 10
-1201.041989141193
 20
1419.876832201194
 30
0.0
 11
-1201.041989141193
 21
1384.243862134544
 31
0.0
  0
LINE
  5
227
330
224
100
AcDbEntity
  8
09-01
 62
     4
440
 16777216
370
    -2
100
AcDbLine
 10
-903.0419891411934
 20
1419.876832201194
 30
0.0
 11
-903.0419891411934
 21
1384.243862134544
 31
0.0
  0
LINE
  5
228
330
224
100
AcDbEntity
  8
09-01
 62
     4
440
 16777216
370
    -2
100
AcDbLine
 10
-1188.541989141193
 20
1389.243862134544
 30
0.0
 11
-915.5419891411934
 21
1389.243862134544
 31
0.0
  0
SOLID
  5
229
330
224
100
AcDbEntity
  8
09-01
 62
     4
440
 16777216
100
AcDbTrace
 10
-1188.541989141193
 20
1391.327195467877
 30
0.0
 11
-1188.541989141193
 21
1387.16052880121
 31
0.0
 12
-1201.041989141193
 22
1389.243862134544
 32
0.0
 13
-1201.041989141193
 23
1389.243862134544
 33
0.0
  0
SOLID
  5
22A
330
224
100
AcDbEntity
  8
09-01
 62
     4
440
 16777216
100
AcDbTrace
 10
-915.5419891411934
 20
1391.327195467877
 30
0.0
 11
-915.5419891411934
 21
1387.16052880121
 31
0.0
 12
-903.0419891411934
 22
1389.243862134544
 32
0.0
 13
-903.0419891411934
 23
1389.243862134544
 33
0.0
  0
MTEXT
  5
22B
330
224
100
AcDbEntity
  8
09-01
 62
     1
440
 16777216
100
AcDbMText
 10
-1052.041989141193
 20
1400.626024481065
 30
0.0
 40
12.5
 41
0.0
 46
0.0
 71
     5
 72
     1
  1
298
 73
     1
 44
1.0
  0
POINT
  5
22C
330
224
100
AcDbEntity
  8
DEFPOINTS
 62
     0
440
 16777216
100
AcDbPoint
 10
-1201.041989141193
 20
1424.876832201194
 30
0.0
  0
POINT
  5
22D
330
224
100
AcDbEntity
  8
DEFPOINTS
 62
     0
440
 16777216
100
AcDbPoint
 10
-903.0419891411934
 20
1424.876832201194
 30
0.0
  0
POINT
  5
22E
330
224
100
AcDbEntity
  8
DEFPOINTS
 62
     0
440
 16777216
100
AcDbPoint
 10
-903.0419891411934
 20
1389.243862134544
 30
0.0
  0
ENDBLK
  5
22F
330
224
100
AcDbEntity
  8
0
100
AcDbBlockEnd
  0
BLOCK
  5
216
330
215
100
AcDbEntity
  8
0
100
AcDbBlockBegin
  2
*D7
 70
     1
 10
0.0
 20
0.0
 30
0.0
  3
*D7
  1

  0
LINE
  5
217
330
215
100
AcDbEntity
  8
09-01
 62
     4
440
 16777216
370
    -2
100
AcDbLine
 10
-1206.041989141193
 20
1950.987494507516
 30
0.0
 11
-1236.941533222758
 21
1950.987494507516
 31
0.0
  0
LINE
  5
218
330
215
100
AcDbEntity
  8
09-01
 62
     4
440
 16777216
370
    -2
100
AcDbLine
 10
-1190.541989141193
 20
1932.487494507516
 30
0.0
 11
-1236.941533222758
 21
1932.487494507516
 31
0.0
  0
LINE
  5
219
330
215
100
AcDbEntity
  8
09-01
 62
     4
440
 16777216
370
    -2
100
AcDbLine
 10
-1231.941533222758
 20
1963.487494507516
 30
0.0
 11
-1231.941533222758
 21
1975.987494507515
 31
0.0
  0
LINE
  5
21A
330
215
100
AcDbEntity
  8
09-01
 62
     4
440
 16777216
370
    -2
100
AcDbLine
 10
-1231.941533222758
 20
1919.987494507516
 30
0.0
 11
-1231.941533222758
 21
1907.487494507516
 31
0.0
  0
MTEXT
  5
21B
330
215
100
AcDbEntity
  8
09-01
 62
     1
440
 16777216
100
AcDbMText
 10
-1243.072863806817
 20
1981.430536360683
 30
0.0
 40
12.5
 41
0.0
 46
0.0
 71
     5
 72
     1
  1
18.5
 11
0.0000000000000001
 21
1.0
 31
0.0
 73
     1
 44
1.0
  0
LINE
  5
21C
330
215
100
AcDbEntity
  8
09-01
 62
     4
440
 16777216
370
    -2
100
AcDbLine
 10
-1231.941533222758
 20
1950.987494507516
 30
0.0
 11
-1231.941533222758
 21
1932.487494507516
 31
0.0
  0
SOLID
  5
21D
330
215
100
AcDbEntity
  8
09-01
 62
     4
440
 16777216
100
AcDbTrace
 10
-1234.024866556091
 20
1963.487494507516
 30
0.0
 11
-1229.858199889424
 21
1963.487494507516
 31
0.0
 12
-1231.941533222758
 22
1950.987494507516
 32
0.0
 13
-1231.941533222758
 23
1950.987494507516
 33
0.0
  0
SOLID
  5
21E
330
215
100
AcDbEntity
  8
09-01
 62
     4
440
 16777216
100
AcDbTrace
 10
-1234.024866556091
 20
1919.987494507516
 30
0.0
 11
-1229.858199889424
 21
1919.987494507516
 31
0.0
 12
-1231.941533222758
 22
1932.487494507516
 32
0.0
 13
-1231.941533222758
 23
1932.487494507516
 33
0.0
  0
POINT
  5
21F
330
215
100
AcDbEntity
  8
DEFPOINTS
 62
     0
440
 16777216
100
AcDbPoint
 10
-1201.041989141193
 20
1950.987494507516
 30
0.0
  0
POINT
  5
220
330
215
100
AcDbEntity
  8
DEFPOINTS
 62
     0
440
 16777216
100
AcDbPoint
 10
-1185.541989141193
 20
1932.487494507516
 30
0.0
  0
POINT
  5
221
330
215
100
AcDbEntity
  8
DEFPOINTS
 62
     0
440
 16777216
100
AcDbPoint
 10
-1231.941533222758
 20
1932.487494507516
 30
0.0
  0
ENDBLK
  5
222
330
215
100
AcDbEntity
  8
0
100
AcDbBlockEnd
  0
BLOCK
  5
209
330
208
100
AcDbEntity
  8
0
100
AcDbBlockBegin
  2
*D8
 70
     1
 10
0.0
 20
0.0
 30
0.0
  3
*D8
  1

  0
LINE
  5
20A
330
208
100
AcDbEntity
  8
09-01
 62
     4
440
 16777216
370
    -2
100
AcDbLine
 10
-1190.541989141193
 20
1932.487494507516
 30
0.0
 11
-1236.941533222758
 21
1932.487494507516
 31
0.0
  0
LINE
  5
20B
330
208
100
AcDbEntity
  8
09-01
 62
     4
440
 16777216
370
    -2
100
AcDbLine
 10
-1190.541989141193
 20
1727.487494507516
 30
0.0
 11
-1236.941533222758
 21
1727.487494507516
 31
0.0
  0
LINE
  5
20C
330
208
100
AcDbEntity
  8
09-01
 62
     4
440
 16777216
370
    -2
100
AcDbLine
 10
-1231.941533222758
 20
1919.987494507516
 30
0.0
 11
-1231.941533222758
 21
1739.987494507516
 31
0.0
  0
SOLID
  5
20D
330
208
100
AcDbEntity
  8
09-01
 62
     4
440
 16777216
100
AcDbTrace
 10
-1234.024866556091
 20
1919.987494507516
 30
0.0
 11
-1229.858199889424
 21
1919.987494507516
 31
0.0
 12
-1231.941533222758
 22
1932.487494507516
 32
0.0
 13
-1231.941533222758
 23
1932.487494507516
 33
0.0
  0
SOLID
  5
20E
330
208
100
AcDbEntity
  8
09-01
 62
     4
440
 16777216
100
AcDbTrace
 10
-1234.024866556091
 20
1739.987494507516
 30
0.0
 11
-1229.858199889424
 21
1739.987494507516
 31
0.0
 12
-1231.941533222758
 22
1727.487494507516
 32
0.0
 13
-1231.941533222758
 23
1727.487494507516
 33
0.0
  0
MTEXT
  5
20F
330
208
100
AcDbEntity
  8
09-01
 62
     1
440
 16777216
100
AcDbMText
 10
-1243.323695569279
 20
1829.987494507516
 30
0.0
 40
12.5
 41
0.0
 46
0.0
 71
     5
 72
     1
  1
205
 11
0.0000000000000001
 21
1.0
 31
0.0
 73
     1
 44
1.0
  0
POINT
  5
210
330
208
100
AcDbEntity
  8
DEFPOINTS
 62
     0
440
 16777216
100
AcDbPoint
 10
-1185.541989141193
 20
1932.487494507516
 30
0.0
  0
POINT
  5
211
330
208
100
AcDbEntity
  8
DEFPOINTS
 62
     0
440
 16777216
100
AcDbPoint
 10
-1185.541989141193
 20
1727.487494507516
 30
0.0
  0
POINT
  5
212
330
208
100
AcDbEntity
  8
DEFPOINTS
 62
     0
440
 16777216
100
AcDbPoint
 10
-1231.941533222758
 20
1727.487494507516
 30
0.0
  0
ENDBLK
  5
213
330
208
100
AcDbEntity
  8
0
100
AcDbBlockEnd
  0
BLOCK
  5
1FC
330
1FB
100
AcDbEntity
  8
0
100
AcDbBlockBegin
  2
*D9
 70
     1
 10
0.0
 20
0.0
 30
0.0
  3
*D9
  1

  0
LINE
  5
1FD
330
1FB
100
AcDbEntity
  8
09-01
 62
     4
440
 16777216
370
    -2
100
AcDbLine
 10
-1190.541989141193
 20
1727.487494507516
 30
0.0
 11
-1236.941533222758
 21
1727.487494507516
 31
0.0
  0
LINE
  5
1FE
330
1FB
100
AcDbEntity
  8
09-01
 62
     4
440
 16777216
370
    -2
100
AcDbLine
 10
-1206.041989141193
 20
1652.987494507517
 30
0.0
 11
-1236.941533222758
 21
1652.987494507517
 31
0.0
  0
LINE
  5
1FF
330
1FB
100
AcDbEntity
  8
09-01
 62
     4
440
 16777216
370
    -2
100
AcDbLine
 10
-1231.941533222758
 20
1714.987494507516
 30
0.0
 11
-1231.941533222758
 21
1665.487494507517
 31
0.0
  0
SOLID
  5
200
330
1FB
100
AcDbEntity
  8
09-01
 62
     4
440
 16777216
100
AcDbTrace
 10
-1234.024866556091
 20
1714.987494507516
 30
0.0
 11
-1229.858199889424
 21
1714.987494507516
 31
0.0
 12
-1231.941533222758
 22
1727.487494507516
 32
0.0
 13
-1231.941533222758
 23
1727.487494507516
 33
0.0
  0
SOLID
  5
201
330
1FB
100
AcDbEntity
  8
09-01
 62
     4
440
 16777216
100
AcDbTrace
 10
-1234.024866556091
 20
1665.487494507517
 30
0.0
 11
-1229.858199889424
 21
1665.487494507517
 31
0.0
 12
-1231.941533222758
 22
1652.987494507517
 32
0.0
 13
-1231.941533222758
 23
1652.987494507517
 33
0.0
  0
MTEXT
  5
202
330
1FB
100
AcDbEntity
  8
09-01
 62
     1
440
 16777216
100
AcDbMText
 10
-1243.298115760275
 20
1690.237494507516
 30
0.0
 40
12.5
 41
0.0
 46
0.0
 71
     5
 72
     1
  1
74.5
 11
0.0000000000000001
 21
1.0
 31
0.0
 73
     1
 44
1.0
  0
POINT
  5
203
330
1FB
100
AcDbEntity
  8
DEFPOINTS
 62
     0
440
 16777216
100
AcDbPoint
 10
-1185.541989141193
 20
1727.487494507516
 30
0.0
  0
POINT
  5
204
330
1FB
100
AcDbEntity
  8
DEFPOINTS
 62
     0
440
 16777216
100
AcDbPoint
 10
-1201.041989141193
 20
1652.987494507517
 30
0.0
  0
POINT
  5
205
330
1FB
100
AcDbEntity
  8
DEFPOINTS
 62
     0
440
 16777216
100
AcDbPoint
 10
-1231.941533222758
 20
1652.987494507517
 30
0.0
  0
ENDBLK
  5
206
330
1FB
100
AcDbEntity
  8
0
100
AcDbBlockEnd
  0
BLOCK
  5
185
330
184
100
AcDbEntity
  8
0
100
AcDbBlockBegin
  2
*D10
 70
     1
 10
0.0
 20
0.0
 30
0.0
  3
*D10
  1

  0
LINE
  5
186
330
184
100
AcDbEntity
  8
0
 62
     4
440
 16777216
370
    -2
100
AcDbLine
 10
-1201.041989141193
 20
1955.987494507516
 30
0.0
 11
-1201.041989141193
 21
1983.885352630982
 31
0.0
  0
LINE
  5
187
330
184
100
AcDbEntity
  8
0
 62
     4
440
 16777216
370
    -2
100
AcDbLine
 10
-1182.041989141193
 20
1940.987494507515
 30
0.0
 11
-1182.041989141193
 21
1983.885352630982
 31
0.0
  0
LINE
  5
188
330
184
100
AcDbEntity
  8
0
 62
     4
440
 16777216
370
    -2
100
AcDbLine
 10
-1213.541989141193
 20
1978.885352630982
 30
0.0
 11
-1226.041989141193
 21
1978.885352630982
 31
0.0
  0
LINE
  5
189
330
184
100
AcDbEntity
  8
0
 62
     4
440
 16777216
370
    -2
100
AcDbLine
 10
-1169.541989141193
 20
1978.885352630982
 30
0.0
 11
-1157.041989141193
 21
1978.885352630982
 31
0.0
  0
LINE
  5
18A
330
184
100
AcDbEntity
  8
0
 62
     4
440
 16777216
370
    -2
100
AcDbLine
 10
-1201.041989141193
 20
1978.885352630982
 30
0.0
 11
-1182.041989141193
 21
1978.885352630982
 31
0.0
  0
SOLID
  5
18B
330
184
100
AcDbEntity
  8
0
 62
     4
440
 16777216
100
AcDbTrace
 10
-1213.541989141193
 20
1980.968685964316
 30
0.0
 11
-1213.541989141193
 21
1976.802019297649
 31
0.0
 12
-1201.041989141193
 22
1978.885352630982
 32
0.0
 13
-1201.041989141193
 23
1978.885352630982
 33
0.0
  0
SOLID
  5
18C
330
184
100
AcDbEntity
  8
0
 62
     4
440
 16777216
100
AcDbTrace
 10
-1169.541989141193
 20
1980.968685964316
 30
0.0
 11
-1169.541989141193
 21
1976.802019297649
 31
0.0
 12
-1182.041989141193
 22
1978.885352630982
 32
0.0
 13
-1182.041989141193
 23
1978.885352630982
 33
0.0
  0
MTEXT
  5
18D
330
184
100
AcDbEntity
  8
0
 62
     1
440
 16777216
100
AcDbMText
 10
-1191.541989141193
 20
1990.267514977504
 30
0.0
 40
12.5
 41
0.0
 46
0.0
 71
     5
 72
     1
  1
19
 73
     1
 44
1.0
  0
POINT
  5
18E
330
184
100
AcDbEntity
  8
DEFPOINTS
 62
     0
440
 16777216
100
AcDbPoint
 10
-1201.041989141193
 20
1950.987494507516
 30
0.0
  0
POINT
  5
18F
330
184
100
AcDbEntity
  8
DEFPOINTS
 62
     0
440
 16777216
100
AcDbPoint
 10
-1182.041989141193
 20
1935.987494507516
 30
0.0
  0
POINT
  5
190
330
184
100
AcDbEntity
  8
DEFPOINTS
 62
     0
440
 16777216
100
AcDbPoint
 10
-1182.041989141193
 20
1978.885352630982
 30
0.0
  0
ENDBLK
  5
191
330
184
100
AcDbEntity
  8
0
100
AcDbBlockEnd
  0
BLOCK
  5
178
330
177
100
AcDbEntity
  8
0
100
AcDbBlockBegin
  2
*D11
 70
     1
 10
0.0
 20
0.0
 30
0.0
  3
*D11
  1

  0
LINE
  5
179
330
177
100
AcDbEntity
  8
0
 62
     4
440
 16777216
370
    -2
100
AcDbLine
 10
-1182.041989141193
 20
1940.987494507515
 30
0.0
 11
-1182.041989141193
 21
1983.885352630982
 31
0.0
  0
LINE
  5
17A
330
177
100
AcDbEntity
  8
0
 62
     4
440
 16777216
370
    -2
100
AcDbLine
 10
-922.0419891411935
 20
1940.987494507517
 30
0.0
 11
-922.0419891411935
 21
1983.885352630982
 31
0.0
  0
LINE
  5
17B
330
177
100
AcDbEntity
  8
0
 62
     4
440
 16777216
370
    -2
100
AcDbLine
 10
-1169.541989141193
 20
1978.885352630982
 30
0.0
 11
-934.5419891411935
 21
1978.885352630982
 31
0.0
  0
SOLID
  5
17C
330
177
100
AcDbEntity
  8
0
 62
     4
440
 16777216
100
AcDbTrace
 10
-1169.541989141193
 20
1980.968685964316
 30
0.0
 11
-1169.541989141193
 21
1976.802019297649
 31
0.0
 12
-1182.041989141193
 22
1978.885352630982
 32
0.0
 13
-1182.041989141193
 23
1978.885352630982
 33
0.0
  0
SOLID
  5
17D
330
177
100
AcDbEntity
  8
0
 62
     4
440
 16777216
100
AcDbTrace
 10
-934.5419891411935
 20
1980.968685964316
 30
0.0
 11
-934.5419891411935
 21
1976.802019297649
 31
0.0
 12
-922.0419891411935
 22
1978.885352630982
 32
0.0
 13
-922.0419891411935
 23
1978.885352630982
 33
0.0
  0
MTEXT
  5
17E
330
177
100
AcDbEntity
  8
0
 62
     1
440
 16777216
100
AcDbMText
 10
-1052.041989141193
 20
1990.267514977504
 30
0.0
 40
12.5
 41
0.0
 46
0.0
 71
     5
 72
     1
  1
260
 73
     1
 44
1.0
  0
POINT
  5
17F
330
177
100
AcDbEntity
  8
DEFPOINTS
 62
     0
440
 16777216
100
AcDbPoint
 10
-1182.041989141193
 20
1935.987494507516
 30
0.0
  0
POINT
  5
180
330
177
100
AcDbEntity
  8
DEFPOINTS
 62
     0
440
 16777216
100
AcDbPoint
 10
-922.0419891411935
 20
1935.987494507516
 30
0.0
  0
POINT
  5
181
330
177
100
AcDbEntity
  8
DEFPOINTS
 62
     0
440
 16777216
100
AcDbPoint
 10
-922.0419891411935
 20
1978.885352630982
 30
0.0
  0
ENDBLK
  5
182
330
177
100
AcDbEntity
  8
0
100
AcDbBlockEnd
  0
BLOCK
  5
169
330
168
100
AcDbEntity
  8
0
100
AcDbBlockBegin
  2
*D12
 70
     1
 10
0.0
 20
0.0
 30
0.0
  3
*D12
  1

  0
LINE
  5
16A
330
168
100
AcDbEntity
  8
0
 62
     4
440
 16777216
370
    -2
100
AcDbLine
 10
-922.0419891411935
 20
1940.987494507517
 30
0.0
 11
-922.0419891411935
 21
1983.885352630982
 31
0.0
  0
LINE
  5
16B
330
168
100
AcDbEntity
  8
0
 62
     4
440
 16777216
370
    -2
100
AcDbLine
 10
-903.0419891411934
 20
1955.987494507516
 30
0.0
 11
-903.0419891411934
 21
1983.885352630982
 31
0.0
  0
LINE
  5
16C
330
168
100
AcDbEntity
  8
0
 62
     4
440
 16777216
370
    -2
100
AcDbLine
 10
-934.5419891411935
 20
1978.885352630982
 30
0.0
 11
-947.0419891411935
 21
1978.885352630982
 31
0.0
  0
LINE
  5
16D
330
168
100
AcDbEntity
  8
0
 62
     4
440
 16777216
370
    -2
100
AcDbLine
 10
-890.5419891411934
 20
1978.885352630982
 30
0.0
 11
-878.0419891411934
 21
1978.885352630982
 31
0.0
  0
LINE
  5
16E
330
168
100
AcDbEntity
  8
0
 62
     4
440
 16777216
370
    -2
100
AcDbLine
 10
-922.0419891411935
 20
1978.885352630982
 30
0.0
 11
-903.0419891411934
 21
1978.885352630982
 31
0.0
  0
SOLID
  5
16F
330
168
100
AcDbEntity
  8
0
 62
     4
440
 16777216
100
AcDbTrace
 10
-934.5419891411935
 20
1980.968685964316
 30
0.0
 11
-934.5419891411935
 21
1976.802019297649
 31
0.0
 12
-922.0419891411935
 22
1978.885352630982
 32
0.0
 13
-922.0419891411935
 23
1978.885352630982
 33
0.0
  0
SOLID
  5
170
330
168
100
AcDbEntity
  8
0
 62
     4
440
 16777216
100
AcDbTrace
 10
-890.5419891411934
 20
1980.968685964316
 30
0.0
 11
-890.5419891411934
 21
1976.802019297649
 31
0.0
 12
-903.0419891411934
 22
1978.885352630982
 32
0.0
 13
-903.0419891411934
 23
1978.885352630982
 33
0.0
  0
MTEXT
  5
171
330
168
100
AcDbEntity
  8
0
 62
     1
440
 16777216
100
AcDbMText
 10
-912.5419891411935
 20
1990.267514977504
 30
0.0
 40
12.5
 41
0.0
 46
0.0
 71
     5
 72
     1
  1
19
 73
     1
 44
1.0
  0
POINT
  5
172
330
168
100
AcDbEntity
  8
DEFPOINTS
 62
     0
440
 16777216
100
AcDbPoint
 10
-922.0419891411935
 20
1935.987494507516
 30
0.0
  0
POINT
  5
173
330
168
100
AcDbEntity
  8
DEFPOINTS
 62
     0
440
 16777216
100
AcDbPoint
 10
-903.0419891411934
 20
1950.987494507517
 30
0.0
  0
POINT
  5
174
330
168
100
AcDbEntity
  8
DEFPOINTS
 62
     0
440
 16777216
100
AcDbPoint
 10
-903.0419891411934
 20
1978.885352630982
 30
0.0
  0
ENDBLK
  5
175
330
168
100
AcDbEntity
  8
0
100
AcDbBlockEnd
  0
BLOCK
  5
B0
330
AF
100
AcDbEntity
  8
0
100
AcDbBlockBegin
  2
*D13
 70
     1
 10
0.0
 20
0.0
 30
0.0
  3
*D13
  1

  0
LINE
  5
B1
330
AF
100
AcDbEntity
  8
0
 62
     4
440
 16777216
370
    -2
100
AcDbLine
 10
-928.2919891411935
 20
1915.487494507517
 30
0.0
 11
-928.2919891411935
 21
1882.957180407884
 31
0.0
  0
LINE
  5
B2
330
AF
100
AcDbEntity
  8
0
 62
     4
440
 16777216
370
    -2
100
AcDbLine
 10
-915.7919891411935
 20
1915.487494507517
 30
0.0
 11
-915.7919891411935
 21
1882.957180407884
 31
0.0
  0
LINE
  5
B3
330
AF
100
AcDbEntity
  8
0
 62
     4
440
 16777216
370
    -2
100
AcDbLine
 10
-940.7919891411935
 20
1887.957180407883
 30
0.0
 11
-953.2919891411935
 21
1887.957180407883
 31
0.0
  0
LINE
  5
B4
330
AF
100
AcDbEntity
  8
0
 62
     4
440
 16777216
370
    -2
100
AcDbLine
 10
-903.2919891411935
 20
1887.957180407883
 30
0.0
 11
-890.7919891411935
 21
1887.957180407883
 31
0.0
  0
MTEXT
  5
B5
330
AF
100
AcDbEntity
  8
0
 62
     1
440
 16777216
100
AcDbMText
 10
-958.912065172138
 20
1899.598991043782
 30
0.0
 40
12.5
 41
0.0
 46
0.0
 71
     5
 72
     1
  1
12.5
 73
     1
 44
1.0
  0
LINE
  5
B6
330
AF
100
AcDbEntity
  8
0
 62
     4
440
 16777216
370
    -2
100
AcDbLine
 10
-928.2919891411935
 20
1887.957180407883
 30
0.0
 11
-915.7919891411935
 21
1887.957180407883
 31
0.0
  0
SOLID
  5
B7
330
AF
100
AcDbEntity
  8
0
 62
     4
440
 16777216
100
AcDbTrace
 10
-940.7919891411935
 20
1890.040513741217
 30
0.0
 11
-940.7919891411935
 21
1885.87384707455
 31
0.0
 12
-928.2919891411935
 22
1887.957180407883
 32
0.0
 13
-928.2919891411935
 23
1887.957180407883
 33
0.0
  0
SOLID
  5
B8
330
AF
100
AcDbEntity
  8
0
 62
     4
440
 16777216
100
AcDbTrace
 10
-903.2919891411935
 20
1890.040513741217
 30
0.0
 11
-903.2919891411935
 21
1885.87384707455
 31
0.0
 12
-915.7919891411935
 22
1887.957180407883
 32
0.0
 13
-915.7919891411935
 23
1887.957180407883
 33
0.0
  0
POINT
  5
B9
330
AF
100
AcDbEntity
  8
DEFPOINTS
 62
     0
440
 16777216
100
AcDbPoint
 10
-928.2919891411935
 20
1920.487494507517
 30
0.0
  0
POINT
  5
BA
330
AF
100
AcDbEntity
  8
DEFPOINTS
 62
     0
440
 16777216
100
AcDbPoint
 10
-915.7919891411935
 20
1920.487494507517
 30
0.0
  0
POINT
  5
BB
330
AF
100
AcDbEntity
  8
DEFPOINTS
 62
     0
440
 16777216
100
AcDbPoint
 10
-915.7919891411935
 20
1887.957180407883
 30
0.0
  0
ENDBLK
  5
BC
330
AF
100
AcDbEntity
  8
0
100
AcDbBlockEnd
  0
BLOCK
  5
A1
330
A0
100
AcDbEntity
  8
0
100
AcDbBlockBegin
  2
*D14
 70
     1
 10
0.0
 20
0.0
 30
0.0
  3
*D14
  1

  0
LINE
  5
A2
330
A0
100
AcDbEntity
  8
0
 62
     4
440
 16777216
370
    -2
100
AcDbLine
 10
-909.7919891411937
 20
1920.487494507517
 30
0.0
 11
-873.6446610321575
 21
1920.487494507517
 31
0.0
  0
LINE
  5
A3
330
A0
100
AcDbEntity
  8
0
 62
     4
440
 16777216
370
    -2
100
AcDbLine
 10
-913.5419891411936
 20
1932.487494507516
 30
0.0
 11
-873.6446610321575
 21
1932.487494507516
 31
0.0
  0
LINE
  5
A4
330
A0
100
AcDbEntity
  8
0
 62
     4
440
 16777216
370
    -2
100
AcDbLine
 10
-878.6446610321574
 20
1907.987494507517
 30
0.0
 11
-878.6446610321574
 21
1895.487494507517
 31
0.0
  0
LINE
  5
A5
330
A0
100
AcDbEntity
  8
0
 62
     4
440
 16777216
370
    -2
100
AcDbLine
 10
-878.6446610321574
 20
1944.987494507516
 30
0.0
 11
-878.6446610321574
 21
1957.487494507516
 31
0.0
  0
MTEXT
  5
A6
330
A0
100
AcDbEntity
  8
0
 62
     1
440
 16777216
100
AcDbMText
 10
-888.0878689844605
 20
1952.459155125518
 30
0.0
 40
12.5
 41
0.0
 46
0.0
 71
     5
 72
     1
  1
12
 11
0.0000000000000001
 21
1.0
 31
0.0
 73
     1
 44
1.0
  0
LINE
  5
A7
330
A0
100
AcDbEntity
  8
0
 62
     4
440
 16777216
370
    -2
100
AcDbLine
 10
-878.6446610321574
 20
1920.487494507517
 30
0.0
 11
-878.6446610321574
 21
1932.487494507516
 31
0.0
  0
SOLID
  5
A8
330
A0
100
AcDbEntity
  8
0
 62
     4
440
 16777216
100
AcDbTrace
 10
-880.7279943654908
 20
1907.987494507517
 30
0.0
 11
-876.5613276988242
 21
1907.987494507517
 31
0.0
 12
-878.6446610321574
 22
1920.487494507517
 32
0.0
 13
-878.6446610321574
 23
1920.487494507517
 33
0.0
  0
SOLID
  5
A9
330
A0
100
AcDbEntity
  8
0
 62
     4
440
 16777216
100
AcDbTrace
 10
-880.7279943654908
 20
1944.987494507516
 30
0.0
 11
-876.5613276988242
 21
1944.987494507516
 31
0.0
 12
-878.6446610321574
 22
1932.487494507516
 32
0.0
 13
-878.6446610321574
 23
1932.487494507516
 33
0.0
  0
POINT
  5
AA
330
A0
100
AcDbEntity
  8
DEFPOINTS
 62
     0
440
 16777216
100
AcDbPoint
 10
-914.7919891411936
 20
1920.487494507517
 30
0.0
  0
POINT
  5
AB
330
A0
100
AcDbEntity
  8
DEFPOINTS
 62
     0
440
 16777216
100
AcDbPoint
 10
-918.5419891411937
 20
1932.487494507516
 30
0.0
  0
POINT
  5
AC
330
A0
100
AcDbEntity
  8
DEFPOINTS
 62
     0
440
 16777216
100
AcDbPoint
 10
-878.6446610321574
 20
1932.487494507516
 30
0.0
  0
ENDBLK
  5
AD
330
A0
100
AcDbEntity
  8
0
100
AcDbBlockEnd
  0
BLOCK
  5
91
330
90
100
AcDbEntity
  8
0
100
AcDbBlockBegin
  2
*D15
 70
     1
 10
0.0
 20
0.0
 30
0.0
  3
*D15
  1

  0
LINE
  5
92
330
90
100
AcDbEntity
  8
0
 62
     4
440
 16777216
370
    -2
100
AcDbLine
 10
-924.5419891411936
 20
1732.487494507516
 30
0.0
 11
-924.5419891411936
 21
1746.340618411868
 31
0.0
  0
LINE
  5
93
330
90
100
AcDbEntity
  8
0
 62
     4
440
 16777216
370
    -2
100
AcDbLine
 10
-919.5419891411937
 20
1732.487494507516
 30
0.0
 11
-919.5419891411937
 21
1746.340618411868
 31
0.0
  0
LINE
  5
94
330
90
100
AcDbEntity
  8
0
 62
     4
440
 16777216
370
    -2
100
AcDbLine
 10
-937.0419891411936
 20
1741.340618411868
 30
0.0
 11
-949.5419891411936
 21
1741.340618411868
 31
0.0
  0
LINE
  5
95
330
90
100
AcDbEntity
  8
0
 62
     4
440
 16777216
370
    -2
100
AcDbLine
 10
-907.0419891411937
 20
1741.340618411868
 30
0.0
 11
-894.5419891411937
 21
1741.340618411868
 31
0.0
  0
MTEXT
  5
96
330
90
100
AcDbEntity
  8
0
 62
     1
440
 16777216
100
AcDbMText
 10
-893.9068429622995
 20
1751.509196412571
 30
0.0
 40
12.5
 41
0.0
 46
0.0
 71
     5
 72
     1
  1
5
 73
     1
 44
1.0
  0
LINE
  5
97
330
90
100
AcDbEntity
  8
0
 62
     4
440
 16777216
370
    -2
100
AcDbLine
 10
-924.5419891411936
 20
1741.340618411868
 30
0.0
 11
-919.5419891411937
 21
1741.340618411868
 31
0.0
  0
SOLID
  5
98
330
90
100
AcDbEntity
  8
0
 62
     4
440
 16777216
100
AcDbTrace
 10
-937.0419891411936
 20
1743.423951745201
 30
0.0
 11
-937.0419891411936
 21
1739.257285078535
 31
0.0
 12
-924.5419891411936
 22
1741.340618411868
 32
0.0
 13
-924.5419891411936
 23
1741.340618411868
 33
0.0
  0
SOLID
  5
99
330
90
100
AcDbEntity
  8
0
 62
     4
440
 16777216
100
AcDbTrace
 10
-907.0419891411937
 20
1743.423951745201
 30
0.0
 11
-907.0419891411937
 21
1739.257285078535
 31
0.0
 12
-919.5419891411937
 22
1741.340618411868
 32
0.0
 13
-919.5419891411937
 23
1741.340618411868
 33
0.0
  0
POINT
  5
9A
330
90
100
AcDbEntity
  8
DEFPOINTS
 62
     0
440
 16777216
100
AcDbPoint
 10
-924.5419891411936
 20
1727.487494507516
 30
0.0
  0
POINT
  5
9B
330
90
100
AcDbEntity
  8
DEFPOINTS
 62
     0
440
 16777216
100
AcDbPoint
 10
-919.5419891411937
 20
1727.487494507516
 30
0.0
  0
POINT
  5
9C
330
90
100
AcDbEntity
  8
DEFPOINTS
 62
     0
440
 16777216
100
AcDbPoint
 10
-919.5419891411937
 20
1741.340618411868
 30
0.0
  0
ENDBLK
  5
9D
330
90
100
AcDbEntity
  8
0
100
AcDbBlockEnd
  0
BLOCK
  5
7F
330
7E
100
AcDbEntity
  8
0
100
AcDbBlockBegin
  2
*D16
 70
     1
 10
0.0
 20
0.0
 30
0.0
  3
*D16
  1

  0
LINE
  5
80
330
7E
100
AcDbEntity
  8
0
 62
     4
440
 16777216
370
    -2
100
AcDbLine
 10
-702.5710954037633
 20
1652.987494507516
 30
0.0
 11
-551.0085122967995
 21
1652.987494507515
 31
0.0
  0
LINE
  5
81
330
7E
100
AcDbEntity
  8
0
 62
     4
440
 16777216
370
    -2
100
AcDbLine
 10
-591.8060652527312
 20
1675.191300061575
 30
0.0
 11
-553.5413878964225
 21
1681.938395087596
 31
0.0
  0
ARC
  5
82
330
7E
100
AcDbEntity
  8
0
 62
     4
440
 16777216
370
    -2
100
AcDbCircle
 10
-717.7301040177923
 20
1652.987494507517
 30
0.0
 40
161.7215917209927
100
AcDbArc
 50
355.5703153959494
 51
359.9999999999995
  0
LINE
  5
83
330
7E
100
AcDbEntity
  8
0
 62
     4
440
 16777216
370
    -2
100
AcDbLine
 10
-556.491595595502
 20
1640.496832774584
 30
0.0
 11
-559.0670809771323
 21
1607.250602088298
 31
0.0
  0
ARC
  5
84
330
7E
100
AcDbEntity
  8
0
 62
     4
440
 16777216
370
    -2
100
AcDbCircle
 10
-717.7301040177923
 20
1652.987494507517
 30
0.0
 40
161.7215917209927
100
AcDbArc
 50
4.429684604049559
 51
5.570315395949678
  0
SOLID
  5
85
330
7E
100
AcDbEntity
  8
0
 62
     4
440
 16777216
100
AcDbTrace
 10
-554.4098186400133
 20
1665.558670123564
 30
0.0
 11
-558.5733725509904
 21
1665.397642357329
 31
0.0
 12
-556.0085122967994
 22
1652.987494507515
 32
0.0
 13
-556.0085122967994
 23
1652.987494507515
 33
0.0
  0
SOLID
  5
86
330
7E
100
AcDbEntity
  8
0
 62
     4
440
 16777216
100
AcDbTrace
 10
-558.8363213665064
 20
1668.403161071626
 30
0.0
 11
-554.7080590167316
 21
1668.967573228248
 31
0.0
 12
-558.4654266614836
 22
1681.070154199262
 32
0.0
 13
-558.4654266614836
 23
1681.070154199262
 33
0.0
  0
MTEXT
  5
87
330
7E
100
AcDbEntity
  8
0
 62
     1
440
 16777216
100
AcDbMText
 10
-546.4311759299903
 20
1622.9946094648
 30
0.0
 40
12.5
 41
0.0
 46
0.0
 71
     5
 72
     1
  1
10\U+00B0
 11
-0.0772355849334034
 21
-0.9970128707393877
 31
0.0
 73
     1
 44
1.0
  0
POINT
  5
88
330
7E
100
AcDbEntity
  8
DEFPOINTS
 62
     0
440
 16777216
100
AcDbPoint
 10
-557.1020158454202
 20
1671.762225367376
 30
0.0
  0
POINT
  5
8A
330
7E
100
AcDbEntity
  8
DEFPOINTS
 62
     0
440
 16777216
100
AcDbPoint
 10
-717.7301040177923
 20
1652.987494507517
 30
0.0
  0
POINT
  5
8B
330
7E
100
AcDbEntity
  8
DEFPOINTS
 62
     0
440
 16777216
100
AcDbPoint
 10
-717.7301040177923
 20
1652.987494507517
 30
0.0
  0
POINT
  5
8C
330
7E
100
AcDbEntity
  8
DEFPOINTS
 62
     0
440
 16777216
100
AcDbPoint
 10
-596.7301040177923
 20
1674.32305917324
 30
0.0
  0
POINT
  5
8D
330
7E
100
AcDbEntity
  8
DEFPOINTS
 62
     0
440
 16777216
100
AcDbPoint
 10
-707.5710954037633
 20
1652.987494507516
 30
0.0
  0
ENDBLK
  5
8E
330
7E
100
AcDbEntity
  8
0
100
AcDbBlockEnd
  0
ENDSEC
  0
SECTION
  2
ENTITIES
  0
ARC
  5
78
330
2
100
AcDbEntity
  8
0
100
AcDbCircle
 10
-1037.389704506715
 20
1646.106153822728
 30
0.0
 40
1.103480220913529
100
AcDbArc
 50
71.63269909811575
 51
97.93239173860694
  0
ARC
  5
79
330
2
100
AcDbEntity
  8
0
100
AcDbCircle
 10
-1066.69426740407
 20
1646.106069780179
 30
0.0
 40
1.103562400390835
100
AcDbArc
 50
82.06860505845734
 51
108.3663041048611
  0
LWPOLYLINE
  5
7A
330
2
100
AcDbEntity
  8
0
100
AcDbPolyline
 90
        5
 70
   128
 43
0.0
 10
-1066.541989840964
 20
1647.199075505384
 10
-1066.509244539241
 20
1647.204946562895
 10
-1066.471363924841
 20
1647.226404235014
 10
-1066.416634753743
 20
1647.28514461244
 10
-1066.357635468641
 20
1647.385399624952
  0
LWPOLYLINE
  5
7B
330
2
100
AcDbEntity
  8
0
100
AcDbPolyline
 90
        6
 70
   128
 43
0.0
 10
-1037.726344116429
 20
1647.385399624952
 10
-1037.681669503847
 20
1647.305946633467
 10
-1037.618344225386
 20
1647.231023594984
 10
-1037.584341638187
 20
1647.208910271772
 10
-1037.552261300782
 20
1647.19964174951
 10
-1037.541989744106
 20
1647.199075505384
  0
LWPOLYLINE
  5
7C
330
2
100
AcDbEntity
  8
0
100
AcDbPolyline
 90
       15
 70
   128
 43
0.0
 10
-1037.726344116429
 20
1647.385399624952
 10
-1038.276020944515
 20
1648.316841408857
 10
-1039.228651248315
 20
1649.452160880217
 10
-1040.351030923823
 20
1650.413971230635
 10
-1042.250145733753
 20
1651.555161759504
 10
-1044.323116116623
 20
1652.390520856031
 10
-1047.624881886343
 20
1653.182040736326
 10
-1051.039930299787
 20
1653.507839724668
 10
-1054.584342562059
 20
1653.415363118299
 10
-1058.064162306884
 20
1652.864198968061
 10
-1060.360892251531
 20
1652.182381436476
 10
-1062.517204828957
 20
1651.196192786344
 10
-1063.882501371602
 20
1650.301437661299
 10
-1065.091141075293
 20
1649.207662627348
 10
-1066.357635468641
 20
1647.385399624952
  0
DIMENSION
  5
7D
330
2
100
AcDbEntity
  8
0
100
AcDbDimension
280
     0
  2
*D16
 10
-707.5710954037633
 20
1652.987494507516
 30
0.0
 11
-546.4311759299903
 21
1622.994609464801
 31
0.0
 70
     2
 71
     5
 42
0.1745329251994379
 73
     0
 74
     0
 75
     0
  3
Wagner
100
AcDb2LineAngularDimension
 13
-717.7301040177922
 23
1652.987494507516
 33
0.0
 14
-596.7301040177922
 24
1674.32305917324
 34
0.0
 15
-717.7301040177922
 25
1652.987494507516
 35
0.0
 16
-557.1020158454202
 26
1671.762225367376
 36
0.0
1001
ACAD
1000
DSTYLE
1002
{
1070
    40
1040
5.0
1002
}
  0
DIMENSION
  5
8F
330
2
100
AcDbEntity
  8
0
100
AcDbDimension
280
     0
  2
*D15
 10
-919.5419891411937
 20
1741.340618411868
 30
0.0
 11
-893.9068429622995
 21
1751.509196412571
 31
0.0
 70
   128
 71
     5
 42
5.0
 73
     0
 74
     0
 75
     0
  3
Wagner$0
100
AcDbAlignedDimension
 13
-924.5419891411936
 23
1727.487494507516
 33
0.0
 14
-919.5419891411937
 24
1727.487494507516
 34
0.0
100
AcDbRotatedDimension
1001
ACAD
1000
DSTYLE
1002
{
1070
    40
1040
5.0
1002
}
  0
DIMENSION
  5
9F
330
2
100
AcDbEntity
  8
0
100
AcDbDimension
280
     0
  2
*D14
 10
-878.6446610321574
 20
1932.487494507516
 30
0.0
 11
-888.0878689844605
 21
1952.459155125518
 31
0.0
 70
   128
 71
     5
 42
12.0
 73
     0
 74
     0
 75
     0
  3
Wagner$0
100
AcDbAlignedDimension
 13
-914.7919891411936
 23
1920.487494507517
 33
0.0
 14
-918.5419891411937
 24
1932.487494507516
 34
0.0
 50
90.0
100
AcDbRotatedDimension
1001
ACAD
1000
DSTYLE
1002
{
1070
    40
1040
5.0
1002
}
  0
DIMENSION
  5
AE
330
2
100
AcDbEntity
  8
0
100
AcDbDimension
280
     0
  2
*D13
 10
-915.7919891411935
 20
1887.957180407883
 30
0.0
 11
-958.912065172138
 21
1899.598991043782
 31
0.0
 70
   128
 71
     5
 42
12.5
 73
     0
 74
     0
 75
     0
  3
Wagner$0
100
AcDbAlignedDimension
 13
-928.2919891411935
 23
1920.487494507517
 33
0.0
 14
-915.7919891411935
 24
1920.487494507517
 34
0.0
100
AcDbRotatedDimension
1001
ACAD
1000
DSTYLE
1002
{
1070
    40
1040
5.0
1002
}
  0
LINE
  5
BD
330
2
100
AcDbEntity
  8
0
100
AcDbLine
 10
-404.4661889727556
 20
1633.549560123841
 30
0.0
 11
-405.4344156375002
 21
1633.799634364172
 31
0.0
  0
ARC
  5
BE
330
2
100
AcDbEntity
  8
03-01
100
AcDbCircle
 10
-414.980170097539
 20
1716.438620560416
 30
0.0
 40
4.119653316495944
100
AcDbArc
 50
359.2460272369752
 51
175.8192340796806
  0
ARC
  5
C3
330
2
100
AcDbEntity
  8
0
100
AcDbCircle
 10
-406.3385017090797
 20
1642.295670403125
 30
0.0
 40
1.0
100
AcDbArc
 50
292.3879922576576
 51
345.5180946118186
  0
ARC
  5
C4
330
2
100
AcDbEntity
  8
0
100
AcDbCircle
 10
-404.434118676173
 20
1637.672541023151
 30
0.0
 40
4.0
100
AcDbArc
 50
112.3879922576576
 51
255.5180946118186
  0
ARC
  5
C5
330
2
100
AcDbEntity
  8
03-01
100
AcDbCircle
 10
-417.0475031858334
 20
1676.081397803407
 30
0.0
 40
5.0
100
AcDbArc
 50
175.8192340796806
 51
230.982871945332
  0
LINE
  5
C6
330
2
100
AcDbEntity
  8
03-01
100
AcDbLine
 10
-420.19526660422
 20
1672.196608817906
 30
0.0
 11
-406.4903694003662
 21
1661.091816708977
 31
0.0
  0
ARC
  5
C7
330
2
100
AcDbEntity
  8
03-01
100
AcDbCircle
 10
-409.2082296984122
 20
1673.59061172814
 30
0.0
 40
3.0
100
AcDbArc
 50
175.8192340796806
 51
230.982871945332
  0
LINE
  5
C8
330
2
100
AcDbEntity
  8
03-01
100
AcDbLine
 10
-411.0968877494442
 20
1671.25973833684
 30
0.0
 11
-399.9914379789047
 21
1662.261224218594
 31
0.0
  0
ARC
  5
C9
330
2
100
AcDbEntity
  8
03-01
100
AcDbCircle
 10
-414.494047344464
 20
1654.706317921886
 30
0.0
 40
10.0
100
AcDbArc
 50
35.88469897854011
 51
50.98287194533197
  0
ARC
  5
CA
330
2
100
AcDbEntity
  8
0
100
AcDbCircle
 10
-414.494047344464
 20
1654.706317921886
 30
0.0
 40
10.0
100
AcDbArc
 50
345.5180946118186
 51
35.88469897854011
  0
LINE
  5
CB
330
2
100
AcDbEntity
  8
0
100
AcDbLine
 10
-408.3070253351513
 20
1638.672837984478
 30
0.0
 11
-404.8117806970179
 21
1652.205575518568
 31
0.0
  0
ARC
  5
CC
330
2
100
AcDbEntity
  8
03-01
100
AcDbCircle
 10
-412.7858962371394
 20
1653.322238737976
 30
0.0
 40
10.0
100
AcDbArc
 50
47.05120118464274
 51
50.98287194533197
  0
ARC
  5
CD
330
2
100
AcDbEntity
  8
0
100
AcDbCircle
 10
-412.7858962371394
 20
1653.322238737976
 30
0.0
 40
10.0
100
AcDbArc
 50
345.5180946118186
 51
47.05120118464274
  0
LINE
  5
CE
330
2
100
AcDbEntity
  8
0
100
AcDbLine
 10
-405.3702750443351
 20
1642.045596162793
 30
0.0
 11
-403.1036295896931
 21
1650.821496334658
 31
0.0
  0
ARC
  5
CF
330
2
100
AcDbEntity
  8
0
100
AcDbCircle
 10
-403.7159662517601
 20
1636.454240118075
 30
0.0
 40
3.0
100
AcDbArc
 50
255.5180946118186
 51
345.5180946118186
  0
ARC
  5
D0
330
2
100
AcDbEntity
  8
03-01
100
AcDbCircle
 10
-406.2869648156779
 20
1654.491646247592
 30
0.0
 40
10.0
100
AcDbArc
 50
46.88544560979736
 51
50.98287194533197
  0
ARC
  5
D1
330
2
100
AcDbEntity
  8
0
100
AcDbCircle
 10
-406.2869648156779
 20
1654.491646247592
 30
0.0
 40
10.0
100
AcDbArc
 50
345.5180946118186
 51
46.88544560979736
  0
LINE
  5
D2
330
2
100
AcDbEntity
  8
0
100
AcDbLine
 10
-400.8112862575265
 20
1635.704017397079
 30
0.0
 11
-396.6046981682318
 21
1651.990903844275
 31
0.0
  0
LINE
  5
D3
330
2
100
AcDbEntity
  8
03-01
100
AcDbLine
 10
-410.8608734706518
 20
1716.384410341533
 30
0.0
 11
-411.2501077000131
 21
1686.807491430142
 31
0.0
  0
LINE
  5
D4
330
2
100
AcDbEntity
  8
03-01
100
AcDbLine
 10
-411.2501077000131
 20
1686.807491430142
 30
0.0
 11
-412.2002467192515
 21
1673.809321917679
 31
0.0
  0
CIRCLE
  5
D5
330
2
100
AcDbEntity
  8
03-01
100
AcDbCircle
 10
-415.2394637277989
 20
1687.099105016194
 30
0.0
 40
2.5
  0
CIRCLE
  5
D6
330
2
100
AcDbEntity
  8
03-01
100
AcDbCircle
 10
-415.0907818842145
 20
1716.566678613444
 30
0.0
 40
1.9
  0
LINE
  5
D7
330
2
100
AcDbEntity
  8
03-01
100
AcDbLine
 10
-419.0888610451765
 20
1716.738957279644
 30
0.0
 11
-422.0341982205657
 21
1676.445914785971
 31
0.0
  0
LINE
  5
D8
330
2
100
AcDbEntity
  8
03-01
100
AcDbLine
 10
-360.1303967017289
 20
1903.566679820429
 30
0.0
 11
-418.6285510531129
 21
1903.566679820429
 31
0.0
  0
ARC
  5
D9
330
2
100
AcDbEntity
  8
03-01
100
AcDbCircle
 10
-418.6285555192357
 20
1902.566679820439
 30
0.0
 40
1.0
100
AcDbArc
 50
89.99974411001016
 51
177.9998629061425
  0
ARC
  5
DA
330
2
100
AcDbEntity
  8
03-01
100
AcDbCircle
 10
-420.1294738774208
 20
1902.566679630449
 30
0.0
 40
0.4999999999999858
100
AcDbArc
 50
270.0
 51
358.0000000000747
  0
LINE
  5
DB
330
2
100
AcDbEntity
  8
03-01
100
AcDbLine
 10
-419.6279507234289
 20
1902.601581864204
 30
0.0
 11
-419.6297790268049
 21
1902.549229931107
 31
0.0
  0
ARC
  5
DC
330
2
100
AcDbEntity
  8
03-01
100
AcDbCircle
 10
-360.1303922356069
 20
1902.566679820439
 30
0.0
 40
1.0
100
AcDbArc
 50
2.000137093857455
 51
90.00025588998985
  0
ARC
  5
DD
330
2
100
AcDbEntity
  8
03-01
100
AcDbCircle
 10
-358.6294738774209
 20
1902.566679630449
 30
0.0
 40
0.4999999999999858
100
AcDbArc
 50
181.9999999999254
 51
270.0
  0
LINE
  5
DE
330
2
100
AcDbEntity
  8
03-01
100
AcDbLine
 10
-359.1309970314137
 20
1902.601581864204
 30
0.0
 11
-359.1291687280377
 21
1902.549229931107
 31
0.0
  0
LINE
  5
DF
330
2
100
AcDbEntity
  8
03-01
100
AcDbLine
 10
-366.5812854039873
 20
1667.566686362049
 30
0.0
 11
-366.5812854039873
 21
1674.566685646793
 31
0.0
  0
LINE
  5
E0
330
2
100
AcDbEntity
  8
03-01
100
AcDbLine
 10
-365.6812850702013
 20
1667.566686362049
 30
0.0
 11
-366.5812854039873
 21
1667.566686362049
 31
0.0
  0
LINE
  5
E1
330
2
100
AcDbEntity
  8
03-01
100
AcDbLine
 10
-365.6812850702013
 20
1667.566686362049
 30
0.0
 11
-365.6812850702013
 21
1674.566685646793
 31
0.0
  0
LINE
  5
E2
330
2
100
AcDbEntity
  8
03-01
100
AcDbLine
 10
-352.0660567789932
 20
1899.566679686328
 30
0.0
 11
-352.092238196628
 21
1897.566679686328
 31
0.0
  0
LINE
  5
E3
330
2
100
AcDbEntity
  8
03-01
100
AcDbLine
 10
-426.4758751470721
 20
1899.566679686328
 30
0.0
 11
-427.4758751601106
 21
1900.566679699367
 31
0.0
  0
LINE
  5
E4
330
2
100
AcDbEntity
  8
03-01
100
AcDbLine
 10
-424.4758751470722
 20
1897.566679686328
 30
0.0
 11
-352.092238196628
 21
1897.566679686328
 31
0.0
  0
LINE
  5
E5
330
2
100
AcDbEntity
  8
03-01
100
AcDbLine
 10
-426.4758751470721
 20
1899.566679686328
 30
0.0
 11
-424.4758751470722
 21
1897.566679686328
 31
0.0
  0
LINE
  5
E6
330
2
100
AcDbEntity
  8
03-01
100
AcDbLine
 10
-427.4758751601106
 20
1900.566679699367
 30
0.0
 11
-428.6758750993217
 21
1899.566679686328
 31
0.0
  0
LINE
  5
E7
330
2
100
AcDbEntity
  8
03-01
100
AcDbLine
 10
-427.4758751601106
 20
1901.066679699367
 30
0.0
 11
-427.4758751601106
 21
1900.566679699367
 31
0.0
  0
LINE
  5
E8
330
2
100
AcDbEntity
  8
03-01
100
AcDbLine
 10
-413.1567500400747
 20
1720.066678613445
 30
0.0
 11
-410.9138085659983
 21
1720.066678613445
 31
0.0
  0
ARC
  5
E9
330
2
100
AcDbEntity
  8
03-01
100
AcDbCircle
 10
-427.4758751601106
 20
1903.655781552561
 30
0.0
 40
2.589101853194733
100
AcDbArc
 50
217.8622888068161
 51
322.1377111931839
  0
LINE
  5
EA
330
2
100
AcDbEntity
  8
03-01
100
AcDbLine
 10
-427.4758751601106
 20
1900.566679699367
 30
0.0
 11
-427.4758751601106
 21
1901.066679699367
 31
0.0
  0
ARC
  5
EB
330
2
100
AcDbEntity
  8
03-01
100
AcDbCircle
 10
-350.9288651907113
 20
1901.066679630449
 30
0.0
 40
1.0
100
AcDbArc
 50
1.999909506949976
 51
90.00002473332854
  0
LINE
  5
EC
330
2
100
AcDbEntity
  8
03-01
100
AcDbLine
 10
-366.5812854039873
 20
1667.566686362049
 30
0.0
 11
-366.8812867570127
 21
1666.066675871631
 31
0.0
  0
LINE
  5
ED
330
2
100
AcDbEntity
  8
03-01
100
AcDbLine
 10
-365.3812874424661
 20
1666.066675871631
 30
0.0
 11
-365.6812850702013
 21
1667.566686362049
 31
0.0
  0
LINE
  5
EE
330
2
100
AcDbEntity
  8
03-01
100
AcDbLine
 10
-354.6261402807827
 20
1696.862747877857
 30
0.0
 11
-400.704082074751
 21
1696.862747877857
 31
0.0
  0
LINE
  5
EF
330
2
100
AcDbEntity
  8
03-01
100
AcDbLine
 10
-354.5803227999227
 20
1700.362747877857
 30
0.0
 11
-398.4202617221149
 21
1700.362747877857
 31
0.0
  0
LINE
  5
F0
330
2
100
AcDbEntity
  8
03-01
100
AcDbLine
 10
-400.704082074751
 20
1696.862747877857
 30
0.0
 11
-410.9138085659983
 21
1720.066678613445
 31
0.0
  0
LINE
  5
F1
330
2
100
AcDbEntity
  8
03-01
100
AcDbLine
 10
-398.4202617221149
 20
1700.362747877857
 30
0.0
 11
-410.0868229827142
 21
1726.87766770901
 31
0.0
  0
ARC
  5
F2
330
2
100
AcDbEntity
  8
03-01
100
AcDbCircle
 10
-429.2894091296416
 20
1893.066679470262
 30
0.0
 40
0.5
100
AcDbArc
 50
270.0
 51
359.0000005236813
  0
LINE
  5
F3
330
2
100
AcDbEntity
  8
03-01
100
AcDbLine
 10
-443.674374288344
 20
1892.566679470261
 30
0.0
 11
-429.2894091296416
 21
1892.566679470261
 31
0.0
  0
LINE
  5
F4
330
2
100
AcDbEntity
  8
03-01
100
AcDbLine
 10
-428.7894852819831
 20
1893.057953271612
 30
0.0
 11
-428.6758750993217
 21
1899.566679686328
 31
0.0
  0
LINE
  5
F5
330
2
100
AcDbEntity
  8
0
100
AcDbLine
 10
-370.5203195077281
 20
1666.893034666797
 30
0.0
 11
-361.3073770272936
 21
1666.893034666797
 31
0.0
  0
LINE
  5
F6
330
2
100
AcDbEntity
  8
03-01
100
AcDbLine
 10
-370.955193446895
 20
1666.893034666797
 30
0.0
 11
-370.5203195077281
 21
1666.893034666797
 31
0.0
  0
ARC
  5
F7
330
2
100
AcDbEntity
  8
03-01
100
AcDbCircle
 10
-448.7148855734253
 20
1892.066679686328
 30
0.0
 40
0.5000000000001137
100
AcDbArc
 50
181.0000000000148
 51
270.0
  0
LINE
  5
F8
330
2
100
AcDbEntity
  8
03-01
100
AcDbLine
 10
-445.7615069658555
 20
1891.566679306349
 30
0.0
 11
-448.7148840296472
 21
1891.566679306349
 31
0.0
  0
LINE
  5
F9
330
2
100
AcDbEntity
  8
03-01
100
AcDbLine
 10
-449.3458737004007
 20
1899.566679686328
 30
0.0
 11
-445.865875141641
 21
1899.566679686328
 31
0.0
  0
LINE
  5
FA
330
2
100
AcDbEntity
  8
03-01
100
AcDbLine
 10
-449.2148105371202
 20
1892.057953361442
 30
0.0
 11
-449.3458737004007
 21
1899.566679686328
 31
0.0
  0
LINE
  5
FB
330
2
100
AcDbEntity
  8
03-01
100
AcDbLine
 10
-421.5022139567341
 20
1674.566685646793
 30
0.0
 11
-422.0907818842138
 21
1719.527407974025
 31
0.0
  0
ARC
  5
FC
330
2
100
AcDbEntity
  8
03-01
100
AcDbCircle
 10
-419.0910395938549
 20
1719.566679686328
 30
0.0
 40
3.000000000000047
100
AcDbArc
 50
90.0
 51
180.7500000000089
  0
LINE
  5
FD
330
2
100
AcDbEntity
  8
03-01
100
AcDbLine
 10
-419.0910403001512
 20
1722.566678613445
 30
0.0
 11
-412.130569029357
 21
1722.566678613445
 31
0.0
  0
LINE
  5
FE
330
2
100
AcDbEntity
  8
03-01
100
AcDbLine
 10
-410.0868229827142
 20
1726.87766770901
 30
0.0
 11
-410.539764335644
 21
1761.477897505002
 31
0.0
  0
LINE
  5
FF
330
2
100
AcDbEntity
  8
03-01
100
AcDbLine
 10
-412.130569029357
 20
1722.566678613445
 30
0.0
 11
-412.63958442392
 21
1761.450409382602
 31
0.0
  0
LINE
  5
100
330
2
100
AcDbEntity
  8
03-01
100
AcDbLine
 10
-351.9660567789938
 20
1899.566679686328
 30
0.0
 11
-354.9111063456589
 21
1674.594173780135
 31
0.0
  0
LINE
  5
101
330
2
100
AcDbEntity
  8
03-01
100
AcDbLine
 10
-349.8658768517111
 20
1899.566679686328
 30
0.0
 11
-352.8112862575258
 21
1674.566685646793
 31
0.0
  0
LINE
  5
102
330
2
100
AcDbEntity
  8
03-01
100
AcDbLine
 10
-352.8112862575258
 20
1674.566685646793
 30
0.0
 11
-421.5022139567341
 21
1674.566685646793
 31
0.0
  0
ARC
  5
103
330
2
100
AcDbEntity
  8
03-01
100
AcDbCircle
 10
-417.6391563911324
 20
1761.38496688646
 30
0.0
 40
7.100000000000038
100
AcDbArc
 50
0.7499999999959149
 51
15.72008221836725
  0
ARC
  5
104
330
2
100
AcDbEntity
  8
03-01
100
AcDbCircle
 10
-417.6391563911324
 20
1761.38496688646
 30
0.0
 40
5.000000000000039
100
AcDbArc
 50
0.7499999999959149
 51
15.72008221836725
  0
LINE
  5
105
330
2
100
AcDbEntity
  8
03-01
100
AcDbLine
 10
-413.1567500400747
 20
1674.566685646793
 30
0.0
 11
-413.1567500400747
 21
1720.066678613445
 31
0.0
  0
LINE
  5
106
330
2
100
AcDbEntity
  8
03-01
100
AcDbLine
 10
-415.1567500400747
 20
1674.566685646793
 30
0.0
 11
-415.1567500400747
 21
1720.566674560329
 31
0.0
  0
LINE
  5
107
330
2
100
AcDbEntity
  8
03-01
100
AcDbLine
 10
-419.5270310293958
 20
1722.534829188651
 30
0.0
 11
-420.2565188325957
 21
1674.597116942744
 31
0.0
  0
LINE
  5
108
330
2
100
AcDbEntity
  8
03-01
100
AcDbLine
 10
-417.5567496884073
 20
1720.566674560329
 30
0.0
 11
-418.2567503619398
 21
1674.566685646793
 31
0.0
  0
LINE
  5
109
330
2
100
AcDbEntity
  8
03-01
100
AcDbLine
 10
-415.1567500400747
 20
1720.566674560329
 30
0.0
 11
-417.5567496884073
 21
1720.566674560329
 31
0.0
  0
LINE
  5
10A
330
2
100
AcDbEntity
  8
03-01
100
AcDbLine
 10
-351.6469132471288
 20
1763.513206928989
 30
0.0
 11
-413.1146945961586
 21
1763.513206928989
 31
0.0
  0
SPLINE
  5
10B
330
2
100
AcDbEntity
  8
03-01
100
AcDbSpline
210
0.0
220
0.0
230
1.0
 70
     8
 71
     3
 72
    12
 73
     8
 74
     0
 42
0.0000000001
 43
0.0000000001
 40
0.0
 40
0.0
 40
0.0
 40
0.0
 40
0.4970186212892235
 40
0.4970186212892235
 40
0.9135240146987644
 40
0.9135240146987644
 40
1.0
 40
1.0
 40
1.0
 40
1.0
 10
-410.8047188156783
 20
1763.308625647056
 30
0.0
 10
-410.9290730579182
 20
1763.750435454097
 30
0.0
 10
-411.0941725897815
 20
1764.172450811243
 30
0.0
 10
-411.459855913446
 20
1764.901273580312
 30
0.0
 10
-411.6540624516878
 20
1765.222349260309
 30
0.0
 10
-411.915313620238
 20
1765.58656667394
 30
0.0
 10
-411.9612352913859
 20
1765.648433255349
 30
0.0
 10
-412.0081531983401
 20
1765.709525019121
 30
0.0
  0
SPLINE
  5
10C
330
2
100
AcDbEntity
  8
03-01
100
AcDbSpline
210
0.0
220
0.0
230
1.0
 70
     8
 71
     3
 72
    10
 73
     6
 74
     0
 42
0.0000000001
 43
0.0000000001
 40
0.0
 40
0.0
 40
0.0
 40
0.0
 40
0.5
 40
0.5
 40
1.0
 40
1.0
 40
1.0
 40
1.0
 10
-412.8261721830654
 20
1762.739656154485
 30
0.0
 10
-412.9145878460098
 20
1763.05378220504
 30
0.0
 10
-413.0308969862758
 20
1763.350522779218
 30
0.0
 10
-413.3143968054123
 20
1763.913982354132
 30
0.0
 10
-413.4831868779706
 20
1764.182413939114
 30
0.0
 10
-413.6736611849405
 20
1764.430430360165
 30
0.0
  0
ARC
  5
10D
330
2
100
AcDbEntity
  8
03-01
100
AcDbCircle
 10
-417.6391563911324
 20
1761.38496688646
 30
0.0
 40
7.100000000000079
100
AcDbArc
 50
37.52392776275008
 51
64.6210996702701
  0
ARC
  5
10E
330
2
100
AcDbEntity
  8
03-01
100
AcDbCircle
 10
-417.6391563911324
 20
1761.38496688646
 30
0.0
 40
5.000000000000079
100
AcDbArc
 50
37.52392776275008
 51
64.6210996702701
  0
LINE
  5
10F
330
2
100
AcDbEntity
  8
03-01
100
AcDbLine
 10
-414.5960789397554
 20
1767.799764820935
 30
0.0
 11
-440.5880359850357
 21
1780.129932382378
 31
0.0
  0
LINE
  5
110
330
2
100
AcDbEntity
  8
03-01
100
AcDbLine
 10
-415.4961444753612
 20
1765.902429312488
 30
0.0
 11
-437.8198217916692
 21
1776.492423802635
 31
0.0
  0
LWPOLYLINE
  5
111
330
2
100
AcDbEntity
  8
03-01
100
AcDbPolyline
 90
        4
 70
     0
 43
0.0
 10
-437.8198217916692
 20
1776.492423802635
 10
-438.8338942396845
 20
1776.973477989456
 10
-439.8589749205316
 20
1777.459762483856
 10
-440.890049593469
 20
1777.948885649463
  0
LINE
  5
112
330
2
100
AcDbEntity
  8
03-01
100
AcDbLine
 10
-351.4502104599692
 20
1778.539344161769
 30
0.0
 11
-442.0404107392392
 21
1778.539344161769
 31
0.0
  0
LINE
  5
113
330
2
100
AcDbEntity
  8
03-01
100
AcDbLine
 10
-440.890049593469
 20
1777.948885649463
 30
0.0
 11
-441.4844457376207
 21
1778.230860322734
 31
0.0
  0
ARC
  5
114
330
2
100
AcDbEntity
  8
03-01
100
AcDbCircle
 10
-439.3414346529775
 20
1782.748325996583
 30
0.0
 40
2.900000000000078
100
AcDbArc
 50
180.7474394900076
 51
244.6210996702701
  0
ARC
  5
115
330
2
100
AcDbEntity
  8
03-01
100
AcDbCircle
 10
-439.3414346529775
 20
1782.748325996583
 30
0.0
 40
5.000000000000079
100
AcDbArc
 50
180.7474394900076
 51
244.6210996702701
  0
LINE
  5
116
330
2
100
AcDbEntity
  8
03-01
100
AcDbLine
 10
-442.2411882001502
 20
1782.710498083742
 30
0.0
 11
-443.7656964406382
 21
1899.566679686328
 31
0.0
  0
LINE
  5
117
330
2
100
AcDbEntity
  8
03-01
100
AcDbLine
 10
-444.3410095143522
 20
1782.683103770038
 30
0.0
 11
-445.865875141641
 21
1899.566679686328
 31
0.0
  0
LINE
  5
118
330
2
100
AcDbEntity
  8
03-01
100
AcDbLine
 10
-445.8658751416419
 20
1899.566679686328
 30
0.0
 11
-349.865874307176
 21
1899.566679686328
 31
0.0
  0
LINE
  5
119
330
2
100
AcDbEntity
  8
03-01
100
AcDbLine
 10
-447.4653993118013
 20
1888.710947200676
 30
0.0
 11
-447.4653993118013
 21
1891.566679306349
 31
0.0
  0
ARC
  5
11A
330
2
100
AcDbEntity
  8
03-01
100
AcDbCircle
 10
-447.1653984935614
 20
1888.710947306977
 30
0.0
 40
0.3000000000000114
100
AcDbArc
 50
180.0
 51
267.9999999999964
  0
LINE
  5
11B
330
2
100
AcDbEntity
  8
03-01
100
AcDbLine
 10
-447.1758697498048
 20
1888.411130249521
 30
0.0
 11
-445.7196762013587
 21
1888.360279181535
 31
0.0
  0
SPLINE
  5
11C
330
2
100
AcDbEntity
  8
03-01
100
AcDbSpline
210
0.0
220
0.0
230
1.0
 70
    24
 71
     3
 72
     8
 73
     4
 74
     0
 42
0.0000000001
 43
0.0000000001
 40
0.0
 40
0.0
 40
0.0
 40
0.0
 40
0.4052512809765209
 40
0.4052512809765209
 40
0.4052512809765209
 40
0.4052512809765209
 10
-351.345883713981
 20
1902.066679630449
 30
0.0
 10
-351.1928403689831
 20
1902.066679630449
 30
0.0
 10
-351.0397970239842
 20
1902.066679630449
 30
0.0
 10
-350.9288656223885
 20
1902.066679630449
 30
0.0
  0
SPLINE
  5
11D
330
2
100
AcDbEntity
  8
03-01
100
AcDbSpline
210
0.0
220
0.0
230
1.0
 70
    24
 71
     3
 72
     9
 73
     5
 74
     0
 42
0.0000000001
 43
0.0000000001
 40
0.0
 40
0.0
 40
0.0
 40
0.0
 40
0.5000826474199004
 40
1.0
 40
1.0
 40
1.0
 40
1.0
 10
-352.9360723066534
 20
1902.066679630449
 30
0.0
 10
-352.6382458811672
 20
1902.066679630449
 30
0.0
 10
-352.0426914722662
 20
1902.066679630449
 30
0.0
 10
-351.57812737006
 20
1902.066679630449
 30
0.0
 10
-351.345883713981
 20
1902.066679630449
 30
0.0
  0
LINE
  5
11E
330
2
100
AcDbEntity
  8
03-01
100
AcDbLine
 10
-425.4318097288301
 20
1902.066679630449
 30
0.0
 11
-352.9360723066534
 21
1902.066679630449
 31
0.0
  0
LINE
  5
11F
330
2
100
AcDbEntity
  8
03-01
100
AcDbLine
 10
-429.5199405913904
 20
1902.066679630449
 30
0.0
 11
-446.42288366431
 21
1902.066679630449
 31
0.0
  0
LINE
  5
120
330
2
100
AcDbEntity
  8
03-01
100
AcDbLine
 10
-349.9294738774211
 20
1901.101577563767
 30
0.0
 11
-349.8758764664758
 21
1899.566679686328
 31
0.0
  0
ARC
  5
121
330
2
100
AcDbEntity
  8
03-01
100
AcDbCircle
 10
-446.42288366431
 20
1901.066679630449
 30
0.0
 40
1.0
100
AcDbArc
 50
90.0
 51
177.9999452137612
  0
LINE
  5
122
330
2
100
AcDbEntity
  8
03-01
100
AcDbLine
 10
-447.4222744579578
 20
1901.101580082769
 30
0.0
 11
-447.4758758303564
 21
1899.566679686328
 31
0.0
  0
LINE
  5
123
330
2
100
AcDbEntity
  8
0
100
AcDbLine
 10
-362.2921873200144
 20
1666.066675871631
 30
0.0
 11
-369.9703850168194
 21
1666.066675871631
 31
0.0
  0
SPLINE
  5
124
330
2
100
AcDbEntity
  8
03-01
100
AcDbSpline
210
0.0
220
0.0
230
1.0
 70
     8
 71
     3
 72
    17
 73
    13
 74
     0
 42
0.0000000001
 43
0.0000000001
 40
0.0
 40
0.0
 40
0.0
 40
0.0
 40
0.0600543499638597
 40
0.1648234495280559
 40
0.2723661016691685
 40
0.3832407533501493
 40
0.4895330601902239
 40
0.5863420781005051
 40
0.6814648365672097
 40
0.7837911670314727
 40
0.8936449548470841
 40
1.0
 40
1.0
 40
1.0
 40
1.0
 10
-360.8829584288801
 20
1669.743820518276
 30
0.0
 10
-360.8724315495497
 20
1669.73999777197
 30
0.0
 10
-360.8435397779272
 20
1669.729505971907
 30
0.0
 10
-361.4368417114342
 20
1669.945991760866
 30
0.0
 10
-362.546161357674
 20
1670.288332235911
 30
0.0
 10
-364.1153010858229
 20
1670.629023661894
 30
0.0
 10
-365.8951812076516
 20
1670.781942255458
 30
0.0
 10
-367.6096083888219
 20
1670.69351158567
 30
0.0
 10
-369.1290259317134
 20
1670.431768605107
 30
0.0
 10
-370.3864949671483
 20
1670.091730470342
 30
0.0
 10
-371.281528923771
 20
1669.781987709558
 30
0.0
 10
-371.3903292445098
 20
1669.740464098214
 30
0.0
 10
-371.44384908857
 20
1669.72003826501
 30
0.0
  0
ARC
  5
125
330
2
100
AcDbEntity
  8
0
100
AcDbCircle
 10
-362.2921864332316
 20
1667.066679686328
 30
0.0
 40
1.000000000000002
100
AcDbArc
 50
270.0
 51
349.9999999999934
  0
ARC
  5
126
330
2
100
AcDbEntity
  8
0
100
AcDbCircle
 10
-369.9703856955862
 20
1667.066679686328
 30
0.0
 40
1.000000000000002
100
AcDbArc
 50
194.3306387089384
 51
270.0
  0
ARC
  5
127
330
2
100
AcDbEntity
  8
03-01
100
AcDbCircle
 10
-369.9703856955862
 20
1667.066679686328
 30
0.0
 40
1.000000000000002
100
AcDbArc
 50
190.0000000000066
 51
194.3306387089384
  0
LINE
  5
128
330
2
100
AcDbEntity
  8
03-01
100
AcDbLine
 10
-361.0117444369655
 20
1668.569652999865
 30
0.0
 11
-360.8070668149198
 21
1669.730439275524
 31
0.0
  0
LINE
  5
129
330
2
100
AcDbEntity
  8
0
100
AcDbLine
 10
-361.3073770272936
 20
1666.893034666797
 30
0.0
 11
-361.0117444369655
 21
1668.569652999865
 31
0.0
  0
LINE
  5
12A
330
2
100
AcDbEntity
  8
03-01
100
AcDbLine
 10
-371.4533672052826
 20
1669.718309730312
 30
0.0
 11
-370.955193446895
 21
1666.893034666797
 31
0.0
  0
ARC
  5
12B
330
2
100
AcDbEntity
  8
03-01
100
AcDbCircle
 10
-372.5613140824876
 20
1670.716685503742
 30
0.0
 40
1.0
100
AcDbArc
 50
181.0000015651748
 51
270.0
  0
LINE
  5
12C
330
2
100
AcDbEntity
  8
03-01
100
AcDbLine
 10
-373.6286685186828
 20
1674.566685646793
 30
0.0
 11
-373.5611617771679
 21
1670.699233069991
 31
0.0
  0
ARC
  5
12D
330
2
100
AcDbEntity
  8
03-01
100
AcDbCircle
 10
-359.7012582543462
 20
1670.716685503742
 30
0.0
 40
1.0
100
AcDbArc
 50
270.0
 51
358.9999984348251
  0
LINE
  5
12E
330
2
100
AcDbEntity
  8
03-01
100
AcDbLine
 10
-358.7014105596668
 20
1670.699233069991
 30
0.0
 11
-358.6339038181509
 21
1674.566685646793
 31
0.0
  0
LINE
  5
12F
330
2
100
AcDbEntity
  8
03-01
100
AcDbLine
 10
-372.5613140824876
 20
1669.716685503742
 30
0.0
 11
-371.44384908857
 21
1669.716685503742
 31
0.0
  0
LINE
  5
130
330
2
100
AcDbEntity
  8
03-01
100
AcDbLine
 10
-360.8829584288801
 20
1669.716685503742
 30
0.0
 11
-359.7012582543462
 21
1669.716685503742
 31
0.0
  0
LINE
  5
131
330
2
100
AcDbEntity
  8
03-01
100
AcDbLine
 10
-680.2937657294517
 20
1722.56667456033
 30
0.0
 11
-690.2937657294521
 21
1722.56667456033
 31
0.0
  0
LINE
  5
132
330
2
100
AcDbEntity
  8
03-01
100
AcDbLine
 10
-620.293765729452
 20
1724.56667456033
 30
0.0
 11
-680.2937657294517
 21
1724.56667456033
 31
0.0
  0
LINE
  5
133
330
2
100
AcDbEntity
  8
03-01
100
AcDbLine
 10
-620.293765729452
 20
1726.56667456033
 30
0.0
 11
-680.2937657294517
 21
1726.56667456033
 31
0.0
  0
LINE
  5
134
330
2
100
AcDbEntity
  8
03-01
100
AcDbLine
 10
-620.293765729452
 20
1674.56667456033
 30
0.0
 11
-620.293765729452
 21
1726.56667456033
 31
0.0
  0
LINE
  5
135
330
2
100
AcDbEntity
  8
03-01
100
AcDbLine
 10
-690.2937657294521
 20
1674.56667456033
 30
0.0
 11
-620.293765729452
 21
1674.56667456033
 31
0.0
  0
LINE
  5
136
330
2
100
AcDbEntity
  8
03-01
100
AcDbLine
 10
-680.8465284178835
 20
1674.042560216059
 30
0.0
 11
-680.8103227853937
 21
1674.56667456033
 31
0.0
  0
ARC
  5
137
330
2
100
AcDbEntity
  8
03-01
100
AcDbCircle
 10
-680.565426095947
 20
1678.111809915811
 30
0.0
 40
9.99999999999342
100
AcDbArc
 50
193.3856318612958
 51
200.7636330503178
  0
ARC
  5
138
330
2
100
AcDbEntity
  8
03-01
100
AcDbCircle
 10
-681.2479847666065
 20
1678.055489858967
 30
0.0
 40
9.3235168706339
100
AcDbArc
 50
175.4139447523202
 51
194.0199928843762
  0
LINE
  5
139
330
2
100
AcDbEntity
  8
03-01
100
AcDbLine
 10
-690.2937657294521
 20
1682.389364591031
 30
0.0
 11
-690.5416511663054
 21
1678.800963995414
 31
0.0
  0
LINE
  5
13A
330
2
100
AcDbEntity
  8
0
100
AcDbLine
 10
-677.667525579513
 20
1660.051608002934
 30
0.0
 11
-674.8560825980947
 21
1656.943531066492
 31
0.0
  0
LINE
  5
13B
330
2
100
AcDbEntity
  8
03-01
100
AcDbLine
 10
-687.4056659923974
 20
1670.817214782502
 30
0.0
 11
-677.667525579513
 21
1660.051608002934
 31
0.0
  0
ARC
  5
13C
330
2
100
AcDbEntity
  8
0
100
AcDbCircle
 10
-680.7889638837898
 20
1651.57688223786
 30
0.0
 40
8.0
100
AcDbArc
 50
344.9781031974538
 51
42.1312422212248
  0
ARC
  5
13D
330
2
100
AcDbEntity
  8
0
100
AcDbCircle
 10
-674.0526269745515
 20
1637.711029799955
 30
0.0
 40
2.900000000000142
100
AcDbArc
 50
121.3752842247616
 51
208.5809221701702
  0
LINE
  5
13E
330
2
100
AcDbEntity
  8
0
100
AcDbLine
 10
-675.1859623600911
 20
1633.873641247322
 30
0.0
 11
-676.5992396945313
 21
1636.323671283047
 31
0.0
  0
LINE
  5
13F
330
2
100
AcDbEntity
  8
0
100
AcDbLine
 10
-673.0623491434581
 20
1649.50337683529
 30
0.0
 11
-675.5624869932461
 21
1640.186978653213
 31
0.0
  0
ARC
  5
140
330
2
100
AcDbEntity
  8
0
100
AcDbCircle
 10
-670.9619810784187
 20
1636.881627638928
 30
0.0
 40
2.900000000000142
100
AcDbArc
 50
121.3752842247616
 51
208.5809221701702
  0
LINE
  5
141
330
2
100
AcDbEntity
  8
0
100
AcDbLine
 10
-672.0953164639582
 20
1633.044239086294
 30
0.0
 11
-673.5085937983987
 21
1635.494269122019
 31
0.0
  0
LINE
  5
142
330
2
100
AcDbEntity
  8
0
100
AcDbLine
 10
-669.1978359363339
 20
1632.26667456033
 30
0.0
 11
-675.1859623600911
 21
1633.873641247322
 31
0.0
  0
ARC
  5
143
330
2
100
AcDbEntity
  8
0
100
AcDbCircle
 10
-674.3348938993332
 20
1651.706186109797
 30
0.0
 40
10.0
100
AcDbArc
 50
344.9781031974538
 51
46.84110227042828
  0
ARC
  5
144
330
2
100
AcDbEntity
  8
0
100
AcDbCircle
 10
-677.6983179876572
 20
1650.747480076832
 30
0.0
 40
8.0
100
AcDbArc
 50
344.9781031974538
 51
46.84110227042828
  0
LINE
  5
145
330
2
100
AcDbEntity
  8
0
100
AcDbLine
 10
-669.9717032473255
 20
1648.673974674261
 30
0.0
 11
-672.4718410971132
 21
1639.357576492185
 31
0.0
  0
LINE
  5
146
330
2
100
AcDbEntity
  8
0
100
AcDbLine
 10
-664.6766254739187
 20
1649.114304356584
 30
0.0
 11
-669.1978359363339
 21
1632.26667456033
 31
0.0
  0
LINE
  5
147
330
2
100
AcDbEntity
  8
03-01
100
AcDbLine
 10
-676.2007730250147
 20
1660.310236052315
 30
0.0
 11
-687.4056659923974
 21
1670.817214782502
 31
0.0
  0
LINE
  5
148
330
2
100
AcDbEntity
  8
0
100
AcDbLine
 10
-672.2261260704916
 20
1656.58315618348
 30
0.0
 11
-676.2007730250147
 21
1660.310236052315
 31
0.0
  0
ARC
  5
149
330
2
100
AcDbEntity
  8
03-01
100
AcDbCircle
 10
-679.6240240532926
 20
1677.229044567902
 30
0.0
 40
5.0
100
AcDbArc
 50
176.0483057753941
 51
226.8411022704283
  0
LINE
  5
14A
330
2
100
AcDbEntity
  8
03-01
100
AcDbLine
 10
-679.2785358309295
 20
1670.050685609603
 30
0.0
 11
-683.0441440015208
 21
1673.581747001247
 31
0.0
  0
LINE
  5
14B
330
2
100
AcDbEntity
  8
03-01
100
AcDbLine
 10
-670.048042943695
 20
1661.395128370668
 30
0.0
 11
-679.2785358309295
 21
1670.050685609603
 31
0.0
  0
LINE
  5
14C
330
2
100
AcDbEntity
  8
0
100
AcDbLine
 10
-667.4946540028765
 20
1659.000781243108
 30
0.0
 11
-670.048042943695
 21
1661.395128370668
 31
0.0
  0
LINE
  5
14D
330
2
100
AcDbEntity
  8
03-01
100
AcDbLine
 10
-680.0453033704559
 20
1685.641129595165
 30
0.0
 11
-679.998038896513
 21
1715.47814965531
 31
0.0
  0
ARC
  5
14E
330
2
100
AcDbEntity
  8
03-01
100
AcDbCircle
 10
-683.9980338778507
 20
1715.484486000501
 30
0.0
 40
4.0
100
AcDbArc
 50
359.9092385027974
 51
176.0483057753941
  0
LINE
  5
14F
330
2
100
AcDbEntity
  8
03-01
100
AcDbLine
 10
-689.759649890572
 20
1690.121249201505
 30
0.0
 11
-683.7739148483531
 21
1689.707756753744
 31
0.0
  0
LINE
  5
150
330
2
100
AcDbEntity
  8
03-01
100
AcDbLine
 10
-689.759649890572
 20
1690.121249201505
 30
0.0
 11
-683.7739148483531
 21
1689.707756753744
 31
0.0
  0
LINE
  5
151
330
2
100
AcDbEntity
  8
03-01
100
AcDbLine
 10
-684.6121365884748
 20
1677.573621607702
 30
0.0
 11
-683.7739148483531
 21
1689.707756753744
 31
0.0
  0
ARC
  5
152
330
2
100
AcDbEntity
  8
03-01
100
AcDbCircle
 10
-675.8584158827012
 20
1673.697983176258
 30
0.0
 40
5.0
100
AcDbArc
 50
176.0483057753941
 51
226.8411022704283
  0
LINE
  5
153
330
2
100
AcDbEntity
  8
03-01
100
AcDbLine
 10
-680.8103227853937
 20
1674.56667456033
 30
0.0
 11
-680.0453033704559
 21
1685.641129595165
 31
0.0
  0
ARC
  5
154
330
2
100
AcDbEntity
  8
03-01
100
AcDbCircle
 10
-680.5654260959406
 20
1678.111809915813
 30
0.0
 40
10.0
100
AcDbArc
 50
200.7636330503003
 51
226.8411022704283
  0
LINE
  5
155
330
2
100
AcDbEntity
  8
03-01
100
AcDbLine
 10
-687.9885239059965
 20
1715.760147632342
 30
0.0
 11
-690.2937657294521
 21
1682.389364591031
 31
0.0
  0
CIRCLE
  5
156
330
2
100
AcDbEntity
  8
03-01
100
AcDbCircle
 10
-683.9980338778507
 20
1715.484486000501
 30
0.0
 40
1.900000000000028
  0
CIRCLE
  5
157
330
2
100
AcDbEntity
  8
03-01
100
AcDbCircle
 10
-685.033415905638
 20
1685.985706634966
 30
0.0
 40
2.399999999999999
  0
LINE
  5
158
330
2
100
AcDbEntity
  8
03-01
100
AcDbLine
 10
-683.289828824573
 20
1720.56667456033
 30
0.0
 11
-683.1935235514118
 21
1674.56667456033
 31
0.0
  0
LINE
  5
159
330
2
100
AcDbEntity
  8
03-01
100
AcDbLine
 10
-685.7187657294518
 20
1720.56667456033
 30
0.0
 11
-686.2937657294517
 21
1674.56667456033
 31
0.0
  0
LINE
  5
15A
330
2
100
AcDbEntity
  8
03-01
100
AcDbLine
 10
-669.093765729452
 20
1731.06667456033
 30
0.0
 11
-641.293765729452
 21
1731.06667456033
 31
0.0
  0
LINE
  5
15B
330
2
100
AcDbEntity
  8
03-01
100
AcDbLine
 10
-647.6937657294519
 20
1740.56667456033
 30
0.0
 11
-647.6937657294519
 21
1731.06667456033
 31
0.0
  0
LINE
  5
15C
330
2
100
AcDbEntity
  8
03-01
100
AcDbLine
 10
-662.6937657294519
 20
1735.06667456033
 30
0.0
 11
-647.6937657294519
 21
1740.56667456033
 31
0.0
  0
LINE
  5
15D
330
2
100
AcDbEntity
  8
03-01
100
AcDbLine
 10
-662.6937657294519
 20
1731.06667456033
 30
0.0
 11
-662.6937657294519
 21
1735.06667456033
 31
0.0
  0
LINE
  5
15E
330
2
100
AcDbEntity
  8
03-01
100
AcDbLine
 10
-669.093765729452
 20
1726.56667456033
 30
0.0
 11
-669.093765729452
 21
1731.06667456033
 31
0.0
  0
LINE
  5
15F
330
2
100
AcDbEntity
  8
03-01
100
AcDbLine
 10
-641.293765729452
 20
1726.56667456033
 30
0.0
 11
-641.293765729452
 21
1731.06667456033
 31
0.0
  0
LINE
  5
160
330
2
100
AcDbEntity
  8
03-01
100
AcDbLine
 10
-635.793765729452
 20
1669.56667456033
 30
0.0
 11
-636.9937657294518
 21
1674.56667456033
 31
0.0
  0
LINE
  5
161
330
2
100
AcDbEntity
  8
03-01
100
AcDbLine
 10
-632.293765729452
 20
1669.56667456033
 30
0.0
 11
-635.793765729452
 21
1669.56667456033
 31
0.0
  0
LINE
  5
162
330
2
100
AcDbEntity
  8
03-01
100
AcDbLine
 10
-630.8937657294519
 20
1674.56667456033
 30
0.0
 11
-632.293765729452
 21
1669.56667456033
 31
0.0
  0
LINE
  5
163
330
2
100
AcDbEntity
  8
03-01
100
AcDbLine
 10
-680.2937657294521
 20
1726.56667456033
 30
0.0
 11
-680.2937657294517
 21
1722.56667456033
 31
0.0
  0
LINE
  5
164
330
2
100
AcDbEntity
  8
03-01
100
AcDbLine
 10
-690.2937657294517
 20
1722.56667456033
 30
0.0
 11
-690.2937657294521
 21
1674.56667456033
 31
0.0
  0
LINE
  5
165
330
2
100
AcDbEntity
  8
03-01
100
AcDbLine
 10
-683.289828824573
 20
1720.56667456033
 30
0.0
 11
-685.7187657294518
 21
1720.56667456033
 31
0.0
  0
LINE
  5
166
330
2
100
AcDbEntity
  8
0
100
AcDbLine
 10
-1142.041989141193
 20
1664.926386745045
 30
0.0
 11
-1142.041989141193
 21
1685.209907820608
 31
0.0
  0
DIMENSION
  5
167
330
2
100
AcDbEntity
  8
0
100
AcDbDimension
280
     0
  2
*D12
 10
-903.0419891411934
 20
1978.885352630982
 30
0.0
 11
-912.5419891411935
 21
1990.267514977504
 31
0.0
 71
     5
 42
19.00000000000023
 73
     0
 74
     0
 75
     0
  3
Wagner$0
100
AcDbAlignedDimension
 13
-922.0419891411935
 23
1935.987494507516
 33
0.0
 14
-903.0419891411934
 24
1950.987494507517
 34
0.0
100
AcDbRotatedDimension
1001
ACAD
1000
DSTYLE
1002
{
1070
    40
1040
5.0
1002
}
  0
DIMENSION
  5
176
330
2
100
AcDbEntity
  8
0
100
AcDbDimension
280
     0
  2
*D11
 10
-922.0419891411935
 20
1978.885352630982
 30
0.0
 11
-1052.041989141193
 21
1990.267514977504
 31
0.0
 71
     5
 42
259.9999999999996
 73
     0
 74
     0
 75
     0
  3
Wagner$0
100
AcDbAlignedDimension
 13
-1182.041989141193
 23
1935.987494507516
 33
0.0
 14
-922.0419891411935
 24
1935.987494507516
 34
0.0
100
AcDbRotatedDimension
1001
ACAD
1000
DSTYLE
1002
{
1070
    40
1040
5.0
1002
}
  0
DIMENSION
  5
183
330
2
100
AcDbEntity
  8
0
100
AcDbDimension
280
     0
  2
*D10
 10
-1182.041989141193
 20
1978.885352630982
 30
0.0
 11
-1191.541989141193
 21
1990.267514977504
 31
0.0
 71
     5
 42
19.00000000000023
 73
     0
 74
     0
 75
     0
  3
Wagner$0
100
AcDbAlignedDimension
 13
-1201.041989141193
 23
1950.987494507516
 33
0.0
 14
-1182.041989141193
 24
1935.987494507516
 34
0.0
100
AcDbRotatedDimension
1001
ACAD
1000
DSTYLE
1002
{
1070
    40
1040
5.0
1002
}
  0
LINE
  5
192
330
2
100
AcDbEntity
  8
03-01
100
AcDbLine
 10
-1027.396525179834
 20
1673.224410442754
 30
0.0
 11
-1027.396525179834
 21
1719.22439935629
 31
0.0
  0
LINE
  5
193
330
2
100
AcDbEntity
  8
03-01
100
AcDbLine
 10
-1027.396525179834
 20
1719.22439935629
 30
0.0
 11
-1022.094352719378
 21
1719.22439935629
 31
0.0
  0
LINE
  5
194
330
2
100
AcDbEntity
  8
03-01
100
AcDbLine
 10
-1076.68745310256
 20
1673.224410442754
 30
0.0
 11
-1076.68745310256
 21
1719.22439935629
 31
0.0
  0
LINE
  5
195
330
2
100
AcDbEntity
  8
03-01
100
AcDbLine
 10
-1076.68745310256
 20
1719.22439935629
 30
0.0
 11
-1081.989625563016
 21
1719.22439935629
 31
0.0
  0
LINE
  5
196
330
2
100
AcDbEntity
  8
03-01
100
AcDbLine
 10
-1082.015807033708
 20
1721.224403409406
 30
0.0
 11
-1022.068171248686
 21
1721.224403409406
 31
0.0
  0
LINE
  5
197
330
2
100
AcDbEntity
  8
03-01
100
AcDbLine
 10
-1079.579144433712
 20
1695.520472673818
 30
0.0
 11
-1024.504833848681
 21
1695.520472673818
 31
0.0
  0
LINE
  5
198
330
2
100
AcDbEntity
  8
03-01
100
AcDbLine
 10
-1079.624961914571
 20
1699.020472673818
 30
0.0
 11
-1024.459016367822
 21
1699.020472673818
 31
0.0
  0
LINE
  5
199
330
2
100
AcDbEntity
  8
03-01
100
AcDbLine
 10
-1051.591989905626
 20
1666.22441115801
 30
0.0
 11
-1051.591989905626
 21
1673.224410442754
 31
0.0
  0
LINE
  5
19A
330
2
100
AcDbEntity
  8
03-01
100
AcDbLine
 10
-1052.491990239412
 20
1666.22441115801
 30
0.0
 11
-1051.591989905626
 21
1666.22441115801
 31
0.0
  0
LINE
  5
19B
330
2
100
AcDbEntity
  8
03-01
100
AcDbLine
 10
-1052.491990239412
 20
1666.22441115801
 30
0.0
 11
-1052.491990239412
 21
1673.224410442754
 31
0.0
  0
LINE
  5
19C
330
2
100
AcDbEntity
  8
03-01
100
AcDbLine
 10
-1051.591989905626
 20
1666.22441115801
 30
0.0
 11
-1051.291988552601
 21
1664.724400667592
 31
0.0
  0
LINE
  5
19D
330
2
100
AcDbEntity
  8
03-01
100
AcDbLine
 10
-1052.791987867148
 20
1664.724400667592
 30
0.0
 11
-1052.491990239412
 21
1666.22441115801
 31
0.0
  0
LINE
  5
19E
330
2
100
AcDbEntity
  8
0
100
AcDbLine
 10
-1047.218081862719
 20
1665.550759462758
 30
0.0
 11
-1056.86589828232
 21
1665.550759462758
 31
0.0
  0
LINE
  5
19F
330
2
100
AcDbEntity
  8
0
100
AcDbLine
 10
-1055.881087989599
 20
1664.724400667592
 30
0.0
 11
-1048.202890292794
 21
1664.724400667592
 31
0.0
  0
SPLINE
  5
1A0
330
2
100
AcDbEntity
  8
0
100
AcDbSpline
210
0.0
220
0.0
230
1.0
 70
     8
 71
     3
 72
    10
 73
     6
 74
     0
 42
0.0000000001
 43
0.0000000001
 40
0.724809526533784
 40
0.724809526533784
 40
0.724809526533784
 40
0.724809526533784
 40
0.7837911670314727
 40
0.8936449548470841
 40
1.0
 40
1.0
 40
1.0
 40
1.0
 10
-1048.557324362015
 20
1668.951877518943
 30
0.0
 10
-1048.311635111435
 20
1668.8895014678
 30
0.0
 10
-1047.664988547358
 20
1668.707307003012
 30
0.0
 10
-1046.891746385843
 20
1668.439712505518
 30
0.0
 10
-1046.782946065104
 20
1668.398188894175
 30
0.0
 10
-1046.729426221044
 20
1668.377763060971
 30
0.0
  0
SPLINE
  5
1A1
330
2
100
AcDbEntity
  8
03-01
100
AcDbSpline
210
0.0
220
0.0
230
1.0
 70
     8
 71
     3
 72
    12
 73
     8
 74
     0
 42
0.0000000001
 43
0.0000000001
 40
0.2755388273073324
 40
0.2755388273073324
 40
0.2755388273073324
 40
0.2755388273073324
 40
0.3832407533501493
 40
0.4895330601902239
 40
0.5863420781005051
 40
0.6814648365672097
 40
0.724809526533784
 40
0.724809526533784
 40
0.724809526533784
 40
0.724809526533784
 10
-1055.524995180607
 20
1668.952028604644
 30
0.0
 10
-1055.076717750286
 20
1669.065524512031
 30
0.0
 10
-1054.039988544251
 20
1669.288293699462
 30
0.0
 10
-1052.278094101962
 20
1669.439667051419
 30
0.0
 10
-1050.563666920792
 20
1669.351236381631
 30
0.0
 10
-1049.348804247238
 20
1669.14195764937
 30
0.0
 10
-1048.737877569838
 20
1668.997716708483
 30
0.0
 10
-1048.557324362015
 20
1668.951877518943
 30
0.0
  0
SPLINE
  5
1A2
330
2
100
AcDbEntity
  8
0
100
AcDbSpline
210
0.0
220
0.0
230
1.0
 70
     8
 71
     3
 72
    11
 73
     7
 74
     0
 42
0.0000000001
 43
0.0000000001
 40
0.0
 40
0.0
 40
0.0
 40
0.0
 40
0.0600543499638597
 40
0.1648234495280559
 40
0.2723661016691685
 40
0.2755388273073324
 40
0.2755388273073324
 40
0.2755388273073324
 40
0.2755388273073324
 10
-1057.290316880734
 20
1668.401545314237
 30
0.0
 10
-1057.300843760065
 20
1668.397722567931
 30
0.0
 10
-1057.329735531687
 20
1668.387230767867
 30
0.0
 10
-1056.736433598179
 20
1668.603716556827
 30
0.0
 10
-1055.996794920091
 20
1668.831972008064
 30
0.0
 10
-1055.538200713214
 20
1668.948685197628
 30
0.0
 10
-1055.524995180607
 20
1668.952028604644
 30
0.0
  0
ARC
  5
1A3
330
2
100
AcDbEntity
  8
0
100
AcDbCircle
 10
-1055.881088876382
 20
1665.724404482289
 30
0.0
 40
1.000000000000002
100
AcDbArc
 50
190.0000000000066
 51
270.0
  0
ARC
  5
1A4
330
2
100
AcDbEntity
  8
0
100
AcDbCircle
 10
-1048.202889614028
 20
1665.724404482289
 30
0.0
 40
1.000000000000002
100
AcDbArc
 50
270.0
 51
349.9999999999934
  0
LINE
  5
1A5
330
2
100
AcDbEntity
  8
0
100
AcDbLine
 10
-1056.86589828232
 20
1665.550759462758
 30
0.0
 11
-1057.366208494694
 21
1668.388164071485
 31
0.0
  0
LINE
  5
1A6
330
2
100
AcDbEntity
  8
0
100
AcDbLine
 10
-1046.719908104331
 20
1668.376034526273
 30
0.0
 11
-1047.218081862719
 21
1665.550759462758
 31
0.0
  0
ARC
  5
1A7
330
2
100
AcDbEntity
  8
03-01
100
AcDbCircle
 10
-1045.611961227126
 20
1669.374410299703
 30
0.0
 40
1.0
100
AcDbArc
 50
282.9111330746615
 51
358.9999984348382
  0
ARC
  5
1A8
330
2
100
AcDbEntity
  8
0
100
AcDbCircle
 10
-1045.611961227126
 20
1669.374410299703
 30
0.0
 40
1.0
100
AcDbArc
 50
270.0
 51
282.9111330746615
  0
LINE
  5
1A9
330
2
100
AcDbEntity
  8
03-01
100
AcDbLine
 10
-1044.544606790931
 20
1673.224410442754
 30
0.0
 11
-1044.612113532446
 21
1669.356957865952
 31
0.0
  0
ARC
  5
1AA
330
2
100
AcDbEntity
  8
0
100
AcDbCircle
 10
-1058.472017055268
 20
1669.374410299703
 30
0.0
 40
1.0
100
AcDbArc
 50
257.0888669255791
 51
270.0
  0
ARC
  5
1AB
330
2
100
AcDbEntity
  8
03-01
100
AcDbCircle
 10
-1058.472017055268
 20
1669.374410299703
 30
0.0
 40
1.0
100
AcDbArc
 50
181.0000015651618
 51
257.0888669255791
  0
LINE
  5
1AC
330
2
100
AcDbEntity
  8
03-01
100
AcDbLine
 10
-1059.471864749947
 20
1669.356957865952
 30
0.0
 11
-1059.539371491463
 21
1673.224410442754
 31
0.0
  0
LINE
  5
1AD
330
2
100
AcDbEntity
  8
0
100
AcDbLine
 10
-1045.611961227126
 20
1668.374410299703
 30
0.0
 11
-1046.729426221044
 21
1668.374410299703
 31
0.0
  0
LINE
  5
1AE
330
2
100
AcDbEntity
  8
0
100
AcDbLine
 10
-1057.290316880734
 20
1668.374410299703
 30
0.0
 11
-1058.472017055268
 21
1668.374410299703
 31
0.0
  0
LINE
  5
1AF
330
2
100
AcDbEntity
  8
03-01
100
AcDbLine
 10
-1082.551827112376
 20
1762.17093172495
 30
0.0
 11
-1021.532152169437
 21
1762.17093172495
 31
0.0
  0
LINE
  5
1B0
330
2
100
AcDbEntity
  8
03-01
100
AcDbLine
 10
-1085.734650814027
 20
1777.19706895773
 30
0.0
 11
-1018.349327468366
 21
1777.19706895773
 31
0.0
  0
LINE
  5
1B1
330
2
100
AcDbEntity
  8
03-01
100
AcDbLine
 10
-1077.771529550054
 20
1902.224404672269
 30
0.0
 11
-1026.312448732339
 21
1902.224404672269
 31
0.0
  0
ARC
  5
1B2
330
2
100
AcDbEntity
  8
03-01
100
AcDbCircle
 10
-1026.312444266216
 20
1901.224404672279
 30
0.0
 40
1.0
100
AcDbArc
 50
2.000137093870475
 51
90.00025588996379
  0
ARC
  5
1B3
330
2
100
AcDbEntity
  8
03-01
100
AcDbCircle
 10
-1017.594980248965
 20
1899.72440442641
 30
0.0
 40
1.0
100
AcDbArc
 50
1.99990937561742
 51
90.00002849675381
  0
ARC
  5
1B4
330
2
100
AcDbEntity
  8
03-01
100
AcDbCircle
 10
-1024.811525908031
 20
1901.224404482289
 30
0.0
 40
0.4999999999999858
100
AcDbArc
 50
181.9999999999254
 51
270.0
  0
LINE
  5
1B5
330
2
100
AcDbEntity
  8
03-01
100
AcDbLine
 10
-1025.313049062023
 20
1901.259306716045
 30
0.0
 11
-1025.311220758648
 21
1901.206954782947
 31
0.0
  0
LINE
  5
1B6
330
2
100
AcDbEntity
  8
03-01
100
AcDbLine
 10
-1016.59558886999
 20
1899.759302359728
 30
0.0
 11
-1016.552467220516
 21
1898.524404496539
 31
0.0
  0
ARC
  5
1B7
330
2
100
AcDbEntity
  8
03-01
100
AcDbCircle
 10
-1077.771534016177
 20
1901.224404672279
 30
0.0
 40
1.0
100
AcDbArc
 50
89.99974411002318
 51
177.9998629061295
  0
LINE
  5
1B8
330
2
100
AcDbEntity
  8
03-01
100
AcDbLine
 10
-1086.488997536066
 20
1900.724404426409
 30
0.0
 11
-1017.594980248965
 21
1900.724404426409
 31
0.0
  0
ARC
  5
1B9
330
2
100
AcDbEntity
  8
03-01
100
AcDbCircle
 10
-1011.533007972829
 20
1762.040029768833
 30
0.0
 40
12.10000000000002
100
AcDbArc
 50
167.2213636342257
 51
179.2500000000041
  0
ARC
  5
1BA
330
2
100
AcDbEntity
  8
03-01
100
AcDbCircle
 10
-1011.533007972829
 20
1762.040029768833
 30
0.0
 40
10.00000000000002
100
AcDbArc
 50
167.2213636342257
 51
179.2500000000041
  0
LINE
  5
1BB
330
2
100
AcDbEntity
  8
03-01
100
AcDbLine
 10
-1023.333314433374
 20
1764.71636721623
 30
0.0
 11
-1020.397314428963
 21
1777.66155728829
 31
0.0
  0
LINE
  5
1BC
330
2
100
AcDbEntity
  8
03-01
100
AcDbLine
 10
-1021.285327472777
 20
1764.251878885671
 30
0.0
 11
-1018.349327468366
 21
1777.19706895773
 31
0.0
  0
ARC
  5
1BD
330
2
100
AcDbEntity
  8
03-01
100
AcDbCircle
 10
-1028.101645592643
 20
1779.408920919404
 30
0.0
 40
7.900000000000011
100
AcDbArc
 50
347.2213636342257
 51
359.2483529999936
  0
ARC
  5
1BE
330
2
100
AcDbEntity
  8
03-01
100
AcDbCircle
 10
-1028.101645592643
 20
1779.408920919404
 30
0.0
 40
10.00000000000001
100
AcDbArc
 50
347.2213636342257
 51
359.2483529999936
  0
ARC
  5
1BF
330
2
100
AcDbEntity
  8
03-01
100
AcDbCircle
 10
-1086.488998033429
 20
1899.72440442641
 30
0.0
 40
1.0
100
AcDbArc
 50
89.9999715032462
 51
178.0000906243826
  0
LINE
  5
1C0
330
2
100
AcDbEntity
  8
03-01
100
AcDbLine
 10
-1079.287633014426
 20
1673.251898576096
 30
0.0
 11
-1080.452006024823
 21
1762.198419858292
 31
0.0
  0
LINE
  5
1C1
330
2
100
AcDbEntity
  8
03-01
100
AcDbLine
 10
-1081.38745310256
 20
1673.224410442754
 30
0.0
 11
-1082.551826112957
 21
1762.17093172495
 31
0.0
  0
LINE
  5
1C2
330
2
100
AcDbEntity
  8
03-01
100
AcDbLine
 10
-1023.631972257569
 20
1762.198419858292
 30
0.0
 11
-1024.796345267966
 21
1673.251898576096
 31
0.0
  0
LINE
  5
1C3
330
2
100
AcDbEntity
  8
03-01
100
AcDbLine
 10
-1021.532152169437
 20
1762.17093172495
 30
0.0
 11
-1022.696525179834
 21
1673.224410442754
 31
0.0
  0
ARC
  5
1C4
330
2
100
AcDbEntity
  8
03-01
100
AcDbCircle
 10
-1092.550970309564
 20
1762.040029768833
 30
0.0
 40
12.10000000000002
100
AcDbArc
 50
0.7499999999959149
 51
12.7786363657743
  0
ARC
  5
1C5
330
2
100
AcDbEntity
  8
03-01
100
AcDbCircle
 10
-1092.550970309564
 20
1762.040029768833
 30
0.0
 40
10.00000000000002
100
AcDbArc
 50
0.7499999999959149
 51
12.7786363657743
  0
LINE
  5
1C6
330
2
100
AcDbEntity
  8
03-01
100
AcDbLine
 10
-1080.75066384902
 20
1764.71636721623
 30
0.0
 11
-1083.686663853431
 21
1777.66155728829
 31
0.0
  0
LINE
  5
1C7
330
2
100
AcDbEntity
  8
03-01
100
AcDbLine
 10
-1082.798650809617
 20
1764.251878885671
 30
0.0
 11
-1085.734650814027
 21
1777.19706895773
 31
0.0
  0
ARC
  5
1C8
330
2
100
AcDbEntity
  8
03-01
100
AcDbCircle
 10
-1075.98233268975
 20
1779.408920919404
 30
0.0
 40
7.900000000000011
100
AcDbArc
 50
180.7516470000064
 51
192.7786363657743
  0
ARC
  5
1C9
330
2
100
AcDbEntity
  8
03-01
100
AcDbCircle
 10
-1075.98233268975
 20
1779.408920919404
 30
0.0
 40
10.00000000000001
100
AcDbArc
 50
180.7516470000064
 51
192.7786363657743
  0
LINE
  5
1CA
330
2
100
AcDbEntity
  8
03-01
100
AcDbLine
 10
-1087.541990303487
 20
1898.224404482289
 30
0.0
 11
-1016.541987978906
 21
1898.224404482289
 31
0.0
  0
LINE
  5
1CB
330
2
100
AcDbEntity
  8
03-01
100
AcDbLine
 10
-1083.88165435111
 20
1779.305288953796
 30
0.0
 11
-1085.442171006555
 21
1898.251952989116
 31
0.0
  0
LINE
  5
1CC
330
2
100
AcDbEntity
  8
03-01
100
AcDbLine
 10
-1085.981473648042
 20
1779.277740446969
 30
0.0
 11
-1087.541990303487
 21
1898.224404482289
 31
0.0
  0
LINE
  5
1CD
330
2
100
AcDbEntity
  8
03-01
100
AcDbLine
 10
-1018.641807275839
 20
1898.251952989116
 30
0.0
 11
-1020.202323931284
 21
1779.305288953796
 31
0.0
  0
LINE
  5
1CE
330
2
100
AcDbEntity
  8
03-01
100
AcDbLine
 10
-1016.541987978906
 20
1898.224404482289
 30
0.0
 11
-1018.102504634351
 21
1779.277740446969
 31
0.0
  0
LINE
  5
1CF
330
2
100
AcDbEntity
  8
03-01
100
AcDbLine
 10
-1081.38745310256
 20
1673.224410442754
 30
0.0
 11
-1022.696525179834
 21
1673.224410442754
 31
0.0
  0
ARC
  5
1D0
330
2
100
AcDbEntity
  8
03-01
100
AcDbCircle
 10
-1079.272452374363
 20
1901.224404482289
 30
0.0
 40
0.4999999999999858
100
AcDbArc
 50
270.0
 51
358.0000000000747
  0
LINE
  5
1D1
330
2
100
AcDbEntity
  8
03-01
100
AcDbLine
 10
-1078.77092922037
 20
1901.259306716045
 30
0.0
 11
-1078.772757523746
 21
1901.206954782947
 31
0.0
  0
LINE
  5
1D2
330
2
100
AcDbEntity
  8
03-01
100
AcDbLine
 10
-1016.552467220516
 20
1898.524404496539
 30
0.0
 11
-1087.531511061878
 21
1898.524404496539
 31
0.0
  0
LINE
  5
1D3
330
2
100
AcDbEntity
  8
03-01
100
AcDbLine
 10
-1087.488389412404
 20
1899.759302359728
 30
0.0
 11
-1087.531511061878
 21
1898.524404496539
 31
0.0
  0
LINE
  5
1D4
330
2
100
AcDbEntity
  8
03-01
100
AcDbLine
 10
-1065.041989409418
 20
1668.900467304631
 30
0.0
 11
-1065.041989409418
 21
1673.224410442754
 31
-0.0000000000000018
  0
LINE
  5
1D5
330
2
100
AcDbEntity
  8
03-01
100
AcDbLine
 10
-1039.041988872976
 20
1673.224410442754
 30
-0.0000000000000018
 11
-1039.041988872976
 21
1668.900467304631
 31
0.0
  0
ELLIPSE
  5
1D6
330
2
100
AcDbEntity
  8
03-01
100
AcDbEllipse
 10
-1070.041989141197
 20
1669.186492016821
 30
0.0
 11
0.2484919834170221
 21
5.263192856745674
 31
0.0
210
0.0
220
0.0
230
1.0
 40
0.9504834253762473
 41
3.833416961865338
 42
4.702917820863312
  0
ELLIPSE
  5
1D7
330
2
100
AcDbEntity
  8
03-01
100
AcDbEllipse
 10
-1034.041989141197
 20
1669.186492016821
 30
0.0
 11
-0.2484919834099526
 21
5.263192856745614
 31
0.0
210
0.0
220
0.0
230
0.9999999999999998
 40
0.9504834253762739
 41
1.580267486317548
 42
2.449768345315681
  0
LWPOLYLINE
  5
1D8
330
2
100
AcDbEntity
  8
0
100
AcDbPolyline
 90
       11
 70
   128
 43
0.0
 10
-1037.078397669882
 20
1632.11038134771
 10
-1039.960249648482
 20
1632.164323551232
 10
-1042.915695668251
 20
1632.2066130467
 10
-1045.92673279816
 20
1632.237011415535
 10
-1048.975020037086
 20
1632.255310041481
 10
-1052.041989141197
 20
1632.261419517571
 10
-1055.108958245308
 20
1632.255310041481
 10
-1058.157245484234
 20
1632.237011415535
 10
-1061.168282614143
 20
1632.2066130467
 10
-1064.123728633911
 20
1632.164323551232
 10
-1067.005580612511
 20
1632.11038134771
  0
LINE
  5
1D9
330
2
100
AcDbEntity
  8
0
100
AcDbLine
 10
-1067.041988805921
 20
1632.119947893196
 30
0.0
 11
-1067.041988805921
 21
1664.982719885259
 31
0.0
  0
LINE
  5
1DA
330
2
100
AcDbEntity
  8
0
100
AcDbLine
 10
-1037.041989476473
 20
1664.982719885259
 30
0.0
 11
-1037.041989476473
 21
1632.119947893196
 31
0.0
  0
ELLIPSE
  5
1DB
330
2
100
AcDbEntity
  8
0
100
AcDbEllipse
 10
-962.0419891411934
 20
1667.798624664658
 30
0.0
 11
-7.5
 21
0.0
 31
0.0
210
0.0
220
0.0
230
1.0
 40
0.1736481776669279
 41
0.0
 42
6.283185307179586
  0
ELLIPSE
  5
1DC
330
2
100
AcDbEntity
  8
0
100
AcDbEllipse
 10
-1052.041989141193
 20
1667.798624664657
 30
0.0
 11
-7.5
 21
0.0
 31
0.0
210
0.0
220
0.0
230
1.0
 40
0.1736481776669279
 41
2.309594305506352
 42
7.115183504516219
  0
ELLIPSE
  5
1DD
330
2
100
AcDbEntity
  8
0
100
AcDbEllipse
 10
-1142.041989141193
 20
1667.798624664657
 30
0.0
 11
-7.5
 21
0.0
 31
0.0
210
0.0
220
0.0
230
1.0
 40
0.1736481776669279
 41
0.0
 42
6.283185307179586
  0
ARC
  5
1DE
330
2
100
AcDbEntity
  8
0
100
AcDbCircle
 10
-987.0419891411934
 20
1661.926386745046
 30
0.0
 40
3.0
100
AcDbArc
 50
90.0
 51
180.0
  0
LINE
  5
1DF
330
2
100
AcDbEntity
  8
0
100
AcDbLine
 10
-990.0419891411933
 20
1661.926386745046
 30
0.0
 11
-990.0419891411933
 21
1660.980459638369
 31
0.0
  0
ARC
  5
1E0
330
2
100
AcDbEntity
  8
0
100
AcDbCircle
 10
-937.0419891411934
 20
1661.926386745046
 30
0.0
 40
3.0
100
AcDbArc
 50
0.0
 51
90.0
  0
LINE
  5
1E1
330
2
100
AcDbEntity
  8
0
100
AcDbLine
 10
-934.0419891411935
 20
1661.926386745046
 30
0.0
 11
-934.0419891411935
 21
1660.980459638369
 31
0.0
  0
ARC
  5
1E2
330
2
100
AcDbEntity
  8
0
100
AcDbCircle
 10
-987.0419891411934
 20
1660.980459638369
 30
0.0
 40
3.0
100
AcDbArc
 50
180.0
 51
270.0
  0
ARC
  5
1E3
330
2
100
AcDbEntity
  8
0
100
AcDbCircle
 10
-937.0419891411934
 20
1660.980459638369
 30
0.0
 40
3.0
100
AcDbArc
 50
270.0
 51
0.0
  0
LINE
  5
1E4
330
2
100
AcDbEntity
  8
0
100
AcDbLine
 10
-977.1419891411937
 20
1657.980459638369
 30
0.0
 11
-987.0419891411934
 21
1657.980459638369
 31
0.0
  0
LINE
  5
1E5
330
2
100
AcDbEntity
  8
0
100
AcDbLine
 10
-937.0419891411934
 20
1657.980459638369
 30
0.0
 11
-947.1419891411938
 21
1657.980459638369
 31
0.0
  0
LINE
  5
1E6
330
2
100
AcDbEntity
  8
09-01
100
AcDbLine
 10
-937.0419891411934
 20
1664.926386745046
 30
0.0
 11
-987.0419891411934
 21
1664.926386745046
 31
0.0
  0
ARC
  5
1E7
330
2
100
AcDbEntity
  8
0
100
AcDbCircle
 10
-1077.041989141193
 20
1661.926386745045
 30
0.0
 40
3.0
100
AcDbArc
 50
90.0
 51
180.0
  0
LINE
  5
1E8
330
2
100
AcDbEntity
  8
0
100
AcDbLine
 10
-1080.041989141193
 20
1661.926386745045
 30
0.0
 11
-1080.041989141193
 21
1660.980459638369
 31
0.0
  0
ARC
  5
1E9
330
2
100
AcDbEntity
  8
0
100
AcDbCircle
 10
-1027.041989141193
 20
1661.926386745045
 30
0.0
 40
3.0
100
AcDbArc
 50
0.0
 51
90.0
  0
LINE
  5
1EA
330
2
100
AcDbEntity
  8
0
100
AcDbLine
 10
-1024.041989141193
 20
1661.926386745045
 30
0.0
 11
-1024.041989141193
 21
1660.980459638369
 31
0.0
  0
ARC
  5
1EB
330
2
100
AcDbEntity
  8
0
100
AcDbCircle
 10
-1077.041989141193
 20
1660.980459638369
 30
0.0
 40
3.0
100
AcDbArc
 50
180.0
 51
270.0
  0
ARC
  5
1EC
330
2
100
AcDbEntity
  8
0
100
AcDbCircle
 10
-1027.041989141193
 20
1660.980459638369
 30
0.0
 40
3.0
100
AcDbArc
 50
270.0
 51
0.0
  0
LINE
  5
1ED
330
2
100
AcDbEntity
  8
0
100
AcDbLine
 10
-1067.041988805921
 20
1657.980459638369
 30
0.0
 11
-1077.041989141193
 21
1657.980459638369
 31
0.0
  0
LINE
  5
1EE
330
2
100
AcDbEntity
  8
0
100
AcDbLine
 10
-1027.041989141193
 20
1657.980459638369
 30
0.0
 11
-1037.041989476473
 21
1657.980459638369
 31
0.0
  0
LINE
  5
1EF
330
2
100
AcDbEntity
  8
09-01
100
AcDbLine
 10
-1056.48372283746
 20
1664.926386745045
 30
0.0
 11
-1077.041989141193
 21
1664.926386745045
 31
0.0
  0
LINE
  5
1F0
330
2
100
AcDbEntity
  8
09-01
100
AcDbLine
 10
-1027.041989141193
 20
1664.926386745045
 30
0.0
 11
-1047.60025565295
 21
1664.926386745045
 31
0.0
  0
ARC
  5
1F1
330
2
100
AcDbEntity
  8
0
100
AcDbCircle
 10
-1167.041989141193
 20
1661.926386745045
 30
0.0
 40
3.0
100
AcDbArc
 50
90.0
 51
180.0
  0
LINE
  5
1F2
330
2
100
AcDbEntity
  8
0
100
AcDbLine
 10
-1170.041989141193
 20
1661.926386745045
 30
0.0
 11
-1170.041989141193
 21
1660.980459638369
 31
0.0
  0
ARC
  5
1F3
330
2
100
AcDbEntity
  8
0
100
AcDbCircle
 10
-1117.041989141193
 20
1661.926386745045
 30
0.0
 40
3.0
100
AcDbArc
 50
0.0
 51
90.0
  0
LINE
  5
1F4
330
2
100
AcDbEntity
  8
0
100
AcDbLine
 10
-1114.041989141193
 20
1661.926386745045
 30
0.0
 11
-1114.041989141193
 21
1660.980459638369
 31
0.0
  0
ARC
  5
1F5
330
2
100
AcDbEntity
  8
0
100
AcDbCircle
 10
-1167.041989141193
 20
1660.980459638369
 30
0.0
 40
3.0
100
AcDbArc
 50
180.0
 51
270.0
  0
ARC
  5
1F6
330
2
100
AcDbEntity
  8
0
100
AcDbCircle
 10
-1117.041989141193
 20
1660.980459638369
 30
0.0
 40
3.0
100
AcDbArc
 50
270.0
 51
0.0
  0
LINE
  5
1F7
330
2
100
AcDbEntity
  8
0
100
AcDbLine
 10
-1157.141989141194
 20
1657.980459638369
 30
0.0
 11
-1167.041989141193
 21
1657.980459638369
 31
0.0
  0
LINE
  5
1F8
330
2
100
AcDbEntity
  8
0
100
AcDbLine
 10
-1117.041989141193
 20
1657.980459638369
 30
0.0
 11
-1127.141989141194
 21
1657.980459638369
 31
0.0
  0
LINE
  5
1F9
330
2
100
AcDbEntity
  8
09-01
100
AcDbLine
 10
-1117.041989141193
 20
1664.926386745045
 30
0.0
 11
-1167.041989141193
 21
1664.926386745045
 31
0.0
  0
DIMENSION
  5
1FA
330
2
100
AcDbEntity
  8
09-01
100
AcDbDimension
280
     0
  2
*D9
 10
-1231.941533222758
 20
1652.987494507517
 30
0.0
 11
-1243.298115760275
 21
1690.237494507516
 31
0.0
 71
     5
 42
74.49999999999909
 73
     0
 74
     0
 75
     0
  3
Wagner$0
100
AcDbAlignedDimension
 13
-1185.541989141193
 23
1727.487494507516
 33
0.0
 14
-1201.041989141193
 24
1652.987494507517
 34
0.0
 50
90.0
100
AcDbRotatedDimension
1001
ACAD
1000
DSTYLE
1002
{
1070
    40
1040
5.0
1002
}
  0
DIMENSION
  5
207
330
2
100
AcDbEntity
  8
09-01
100
AcDbDimension
280
     0
  2
*D8
 10
-1231.941533222758
 20
1727.487494507516
 30
0.0
 11
-1243.323695569279
 21
1829.987494507516
 31
0.0
 71
     5
 42
204.9999999999998
 73
     0
 74
     0
 75
     0
  3
Wagner$0
100
AcDbAlignedDimension
 13
-1185.541989141193
 23
1932.487494507516
 33
0.0
 14
-1185.541989141193
 24
1727.487494507516
 34
0.0
 50
90.0
100
AcDbRotatedDimension
1001
ACAD
1000
DSTYLE
1002
{
1070
    40
1040
5.0
1002
}
  0
DIMENSION
  5
214
330
2
100
AcDbEntity
  8
09-01
100
AcDbDimension
280
     0
  2
*D7
 10
-1231.941533222758
 20
1932.487494507516
 30
0.0
 11
-1243.072863806817
 21
1981.430536360683
 31
0.0
 70
   128
 71
     5
 42
18.5
 73
     0
 74
     0
 75
     0
  3
Wagner$0
100
AcDbAlignedDimension
 13
-1201.041989141193
 23
1950.987494507516
 33
0.0
 14
-1185.541989141193
 24
1932.487494507516
 34
0.0
 50
90.0
100
AcDbRotatedDimension
1001
ACAD
1000
DSTYLE
1002
{
1070
    40
1040
5.0
1002
}
  0
DIMENSION
  5
223
330
2
100
AcDbEntity
  8
09-01
100
AcDbDimension
280
     0
  2
*D6
 10
-903.0419891411934
 20
1389.243862134544
 30
0.0
 11
-1052.041989141193
 21
1400.626024481065
 31
0.0
 71
     5
 42
298.0
 73
     0
 74
     0
 75
     0
  3
Wagner$0
100
AcDbAlignedDimension
 13
-1201.041989141193
 23
1424.876832201194
 33
0.0
 14
-903.0419891411934
 24
1424.876832201194
 34
0.0
100
AcDbRotatedDimension
1001
ACAD
1000
DSTYLE
1002
{
1070
    40
1040
5.0
1002
}
  0
DIMENSION
  5
230
330
2
100
AcDbEntity
  8
09-01
100
AcDbDimension
280
     0
  2
*D5
 10
-1230.694067593823
 20
1424.876832201194
 30
0.0
 11
-1241.969647402828
 21
1485.376832201193
 31
0.0
 71
     5
 42
121.0
 73
     0
 74
     0
 75
     0
  3
Wagner$0
100
AcDbAlignedDimension
 13
-1201.041989141193
 23
1545.876832201194
 33
0.0
 14
-1201.041989141193
 24
1424.876832201194
 34
0.0
 50
90.0
100
AcDbRotatedDimension
1001
ACAD
1000
DSTYLE
1002
{
1070
    40
1040
5.0
1002
}
  0
INSERT
  5
23D
330
2
100
AcDbEntity
  8
03-01
100
AcDbBlockReference
  2
Seifenflasche01-s
 10
-1142.041989141194
 20
1728.019330460489
 30
0.0
  0
LINE
  5
25A
330
2
100
AcDbEntity
  8
03-01
100
AcDbLine
 10
-1128.291989141194
 20
1728.72439941217
 30
0.0
 11
-1155.791989141194
 21
1728.72439941217
 31
0.0
  0
LINE
  5
25B
330
2
100
AcDbEntity
  8
03-01
100
AcDbLine
 10
-1155.791989141194
 20
1725.724399412171
 30
0.0
 11
-1128.291989141194
 21
1725.724399412171
 31
0.0
  0
LINE
  5
25C
330
2
100
AcDbEntity
  8
03-01
100
AcDbLine
 10
-1129.641989141194
 20
1667.011400125472
 30
0.0
 11
-1129.641989141194
 21
1673.22439941217
 31
0.0
  0
LINE
  5
25D
330
2
100
AcDbEntity
  8
03-01
100
AcDbLine
 10
-1154.641989141194
 20
1673.22439941217
 30
0.0
 11
-1154.641989141194
 21
1667.011400125472
 31
0.0
  0
LWPOLYLINE
  5
25E
330
2
100
AcDbEntity
  8
0
100
AcDbPolyline
 90
       10
 70
   128
 43
0.0
 10
-1140.542200683898
 20
1668.250312538019
 10
-1140.652227249279
 20
1668.24846479403
 10
-1140.981478650405
 20
1668.242921562066
 10
-1141.465745434447
 20
1668.234785528055
 10
-1142.041989141193
 20
1668.225099773279
 10
-1142.617233065879
 20
1668.215443820825
 10
-1143.102499690189
 20
1668.207307786813
 10
-1143.431750683862
 20
1668.201764554849
 10
-1143.54177754028
 20
1668.199916810861
 10
-1143.54177754028
 20
1668.199916810861
  0
LINE
  5
25F
330
2
100
AcDbEntity
  8
03-01
100
AcDbLine
 10
-1112.041989141194
 20
1673.22439941217
 30
0.0
 11
-1112.041989811746
 21
1719.224397238894
 31
0.0
  0
LINE
  5
260
330
2
100
AcDbEntity
  8
03-01
100
AcDbLine
 10
-1172.041988470641
 20
1719.224397238894
 30
0.0
 11
-1172.041989141194
 21
1673.22439941217
 31
0.0
  0
LINE
  5
261
330
2
100
AcDbEntity
  8
03-01
100
AcDbLine
 10
-1112.041989141194
 20
1673.22439941217
 30
0.0
 11
-1132.041989141194
 21
1673.22439941217
 31
0.0
  0
LINE
  5
262
330
2
100
AcDbEntity
  8
03-01
100
AcDbLine
 10
-1132.041989141194
 20
1723.22439941217
 30
0.0
 11
-1112.041989141194
 21
1723.22439941217
 31
0.0
  0
LINE
  5
263
330
2
100
AcDbEntity
  8
03-01
100
AcDbLine
 10
-1112.041989141194
 20
1723.22439941217
 30
0.0
 11
-1112.041989141194
 21
1673.22439941217
 31
0.0
  0
LINE
  5
264
330
2
100
AcDbEntity
  8
03-01
100
AcDbLine
 10
-1152.041989141194
 20
1673.22439941217
 30
0.0
 11
-1132.041989141194
 21
1673.22439941217
 31
0.0
  0
LINE
  5
265
330
2
100
AcDbEntity
  8
03-01
100
AcDbLine
 10
-1152.041989141194
 20
1723.22439941217
 30
0.0
 11
-1132.041989141194
 21
1723.22439941217
 31
0.0
  0
LINE
  5
266
330
2
100
AcDbEntity
  8
03-01
100
AcDbLine
 10
-1152.041989141194
 20
1673.22439941217
 30
0.0
 11
-1172.041989141194
 21
1673.22439941217
 31
0.0
  0
LINE
  5
267
330
2
100
AcDbEntity
  8
03-01
100
AcDbLine
 10
-1172.041989141194
 20
1723.22439941217
 30
0.0
 11
-1152.041989141194
 21
1723.22439941217
 31
0.0
  0
LINE
  5
268
330
2
100
AcDbEntity
  8
03-01
100
AcDbLine
 10
-1172.041989141194
 20
1673.22439941217
 30
0.0
 11
-1172.041989141194
 21
1723.22439941217
 31
0.0
  0
ELLIPSE
  5
269
330
2
100
AcDbEntity
  8
03-01
100
AcDbEllipse
 10
-1142.041989141194
 20
1735.72439941217
 30
0.0
 11
7.49999999999997
 21
0.0
 31
0.0
210
0.0
220
0.0
230
1.0
 40
0.3333333333333346
 41
0.0
 42
3.141592653589845
  0
LINE
  5
26A
330
2
100
AcDbEntity
  8
03-01
100
AcDbLine
 10
-1155.291989141194
 20
1729.224399412171
 30
0.0
 11
-1128.791989141194
 21
1729.224399412171
 31
0.0
  0
LINE
  5
26B
330
2
100
AcDbEntity
  8
03-01
100
AcDbLine
 10
-1132.041989141194
 20
1723.22439941217
 30
0.0
 11
-1112.041989141194
 21
1723.22439941217
 31
0.0
  0
LINE
  5
26C
330
2
100
AcDbEntity
  8
03-01
100
AcDbLine
 10
-1132.041989141194
 20
1725.22439941217
 30
0.0
 11
-1112.041989141194
 21
1725.22439941217
 31
0.0
  0
LINE
  5
26D
330
2
100
AcDbEntity
  8
03-01
100
AcDbLine
 10
-1112.041989141194
 20
1725.22439941217
 30
0.0
 11
-1112.041989141194
 21
1723.22439941217
 31
0.0
  0
LINE
  5
26E
330
2
100
AcDbEntity
  8
03-01
100
AcDbLine
 10
-1152.041989141194
 20
1723.22439941217
 30
0.0
 11
-1132.041989141194
 21
1723.22439941217
 31
0.0
  0
LINE
  5
26F
330
2
100
AcDbEntity
  8
03-01
100
AcDbLine
 10
-1152.041989141194
 20
1725.22439941217
 30
0.0
 11
-1132.041989141194
 21
1725.22439941217
 31
0.0
  0
LINE
  5
270
330
2
100
AcDbEntity
  8
03-01
100
AcDbLine
 10
-1132.041989141194
 20
1725.22439941217
 30
0.0
 11
-1132.041989141194
 21
1723.22439941217
 31
0.0
  0
LINE
  5
271
330
2
100
AcDbEntity
  8
03-01
100
AcDbLine
 10
-1172.041989141194
 20
1723.22439941217
 30
0.0
 11
-1152.041989141194
 21
1723.22439941217
 31
0.0
  0
LINE
  5
272
330
2
100
AcDbEntity
  8
03-01
100
AcDbLine
 10
-1152.041989141194
 20
1725.22439941217
 30
0.0
 11
-1152.041989141194
 21
1723.22439941217
 31
0.0
  0
LINE
  5
273
330
2
100
AcDbEntity
  8
03-01
100
AcDbLine
 10
-1172.041989141194
 20
1725.22439941217
 30
0.0
 11
-1152.041989141194
 21
1725.22439941217
 31
0.0
  0
LINE
  5
274
330
2
100
AcDbEntity
  8
03-01
100
AcDbLine
 10
-1172.041989141194
 20
1725.22439941217
 30
0.0
 11
-1172.041989141194
 21
1723.22439941217
 31
0.0
  0
LINE
  5
275
330
2
100
AcDbEntity
  8
03-01
100
AcDbLine
 10
-1129.141989141194
 20
1673.22439941217
 30
0.0
 11
-1129.141989141194
 21
1666.71490179929
 31
0.0
  0
LINE
  5
276
330
2
100
AcDbEntity
  8
03-01
100
AcDbLine
 10
-1155.141989141194
 20
1666.71490179929
 30
0.0
 11
-1155.141989141194
 21
1673.22439941217
 31
0.0
  0
LINE
  5
277
330
2
100
AcDbEntity
  8
03-01
100
AcDbLine
 10
-1129.141989141194
 20
1666.71490179929
 30
0.0
 11
-1128.985402030125
 21
1665.473389984068
 31
0.0
  0
LWPOLYLINE
  5
278
330
2
100
AcDbEntity
  8
03-01
100
AcDbPolyline
 90
        9
 70
   128
 43
0.0
 10
-1129.1419887031
 20
1666.71489566247
 10
-1129.151596226779
 20
1666.772741970224
 10
-1129.180049062756
 20
1666.8283531038
 10
-1129.226254769651
 20
1666.879613098307
 10
-1129.288435452667
 20
1666.924555000467
 10
-1129.364204132048
 20
1666.961420473261
 10
-1129.450647630779
 20
1666.988838609858
 10
-1129.544443921236
 20
1667.005706724329
 10
-1129.641988785056
 20
1667.011398967905
  0
LINE
  5
279
330
2
100
AcDbEntity
  8
03-01
100
AcDbLine
 10
-1155.298576252263
 20
1665.473389984068
 30
0.0
 11
-1155.141989141194
 21
1666.71490179929
 31
0.0
  0
LWPOLYLINE
  5
27A
330
2
100
AcDbEntity
  8
03-01
100
AcDbPolyline
 90
        9
 70
   128
 43
0.0
 10
-1154.641989157585
 20
1667.011398967905
 10
-1154.739534021405
 20
1667.005706724329
 10
-1154.833331243185
 20
1666.988838609858
 10
-1154.919773810593
 20
1666.961420473261
 10
-1154.995542489973
 20
1666.924555000467
 10
-1155.057724104313
 20
1666.879613098307
 10
-1155.103928879885
 20
1666.8283531038
 10
-1155.132381715862
 20
1666.772741970224
 10
-1155.141989239541
 20
1666.71489566247
  0
LINE
  5
27B
330
2
100
AcDbEntity
  8
03-01
100
AcDbLine
 10
-1129.469743319018
 20
1665.689790773785
 30
0.0
 11
-1129.641989141194
 21
1667.011400125472
 31
0.0
  0
LINE
  5
27C
330
2
100
AcDbEntity
  8
03-01
100
AcDbLine
 10
-1154.641989141194
 20
1667.011400125472
 30
0.0
 11
-1154.81423496337
 21
1665.689790773785
 31
0.0
  0
ARC
  5
27D
330
2
100
AcDbEntity
  8
0
100
AcDbCircle
 10
-1127.641989141194
 20
1662.472261112171
 30
0.0
 40
0.5000000000000293
100
AcDbArc
 50
0.0
 51
50.47880364133709
  0
ARC
  5
27E
330
2
100
AcDbEntity
  8
03-01
100
AcDbCircle
 10
-1129.355161783966
 20
1665.296013458729
 30
0.0
 40
0.4101038044597189
100
AcDbArc
 50
25.62743117906363
 51
106.2242063193681
  0
ARC
  5
27F
330
2
100
AcDbEntity
  8
0
100
AcDbCircle
 10
-1124.141989141194
 20
1666.71490179929
 30
0.0
 40
5.000000000000007
100
AcDbArc
 50
200.9591968979167
 51
230.4788036413371
  0
ARC
  5
280
330
2
100
AcDbEntity
  8
03-01
100
AcDbCircle
 10
-1124.141989141194
 20
1666.71490179929
 30
0.0
 40
5.000000000000007
100
AcDbArc
 50
194.377077490379
 51
200.9591968979167
  0
ARC
  5
281
330
2
100
AcDbEntity
  8
03-01
100
AcDbCircle
 10
-1154.92881734786
 20
1665.296015627257
 30
0.0
 40
0.4101017943383863
100
AcDbArc
 50
73.77567444126416
 51
154.3727701247552
  0
ARC
  5
282
330
2
100
AcDbEntity
  8
03-01
100
AcDbCircle
 10
-1160.141989141194
 20
1666.71490179929
 30
0.0
 40
5.000000000000007
100
AcDbArc
 50
339.0408031020833
 51
345.622922509621
  0
ARC
  5
283
330
2
100
AcDbEntity
  8
0
100
AcDbCircle
 10
-1160.141989141194
 20
1666.71490179929
 30
0.0
 40
5.000000000000007
100
AcDbArc
 50
309.5211963586629
 51
339.0408031020833
  0
ARC
  5
284
330
2
100
AcDbEntity
  8
0
100
AcDbCircle
 10
-1156.641989141194
 20
1662.472261112171
 30
0.0
 40
0.500000000000037
100
AcDbArc
 50
129.5211963586629
 51
180.0
  0
LINE
  5
285
330
2
100
AcDbEntity
  8
0
100
AcDbLine
 10
-1127.141989141194
 20
1662.472261112171
 30
0.0
 11
-1127.141989141194
 21
1652.486216496787
 31
0.0
  0
LINE
  5
286
330
2
100
AcDbEntity
  8
03-01
100
AcDbLine
 10
-1129.469743319018
 20
1665.689790773785
 30
0.0
 11
-1154.81423496337
 21
1665.689790773785
 31
0.0
  0
LINE
  5
287
330
2
100
AcDbEntity
  8
0
100
AcDbLine
 10
-1157.141989141194
 20
1652.486216496787
 30
0.0
 11
-1157.141989141194
 21
1662.472261112171
 31
0.0
  0
LINE
  5
288
330
2
100
AcDbEntity
  8
0
100
AcDbLine
 10
-1127.141989141194
 20
1652.486216496787
 30
0.0
 11
-1127.141989141194
 21
1645.257951445382
 31
0.0
  0
LINE
  5
289
330
2
100
AcDbEntity
  8
0
100
AcDbLine
 10
-1127.141989141194
 20
1630.21490179929
 30
0.0
 11
-1127.178398025429
 21
1630.21490179929
 31
0.0
  0
LINE
  5
28A
330
2
100
AcDbEntity
  8
0
100
AcDbLine
 10
-1127.141989141194
 20
1645.257951445382
 30
0.0
 11
-1127.141989141194
 21
1630.21490179929
 31
0.0
  0
ARC
  5
28B
330
2
100
AcDbEntity
  8
0
100
AcDbCircle
 10
-1127.489704151161
 20
1644.210674274308
 30
0.0
 40
1.103480220913529
100
AcDbArc
 50
71.63269909811575
 51
97.93239173860694
  0
LINE
  5
28C
330
2
100
AcDbEntity
  8
0
100
AcDbLine
 10
-1127.178398025429
 20
1630.21490179929
 30
0.0
 11
-1157.105580256958
 21
1630.21490179929
 31
0.0
  0
LINE
  5
28D
330
2
100
AcDbEntity
  8
0
100
AcDbLine
 10
-1157.141989141194
 20
1645.257951445382
 30
0.0
 11
-1157.141989141194
 21
1652.486216496787
 31
0.0
  0
ARC
  5
28E
330
2
100
AcDbEntity
  8
0
100
AcDbCircle
 10
-1156.794267048516
 20
1644.210590231759
 30
0.0
 40
1.103562400390835
100
AcDbArc
 50
82.06860505845734
 51
108.3663041048611
  0
LINE
  5
28F
330
2
100
AcDbEntity
  8
0
100
AcDbLine
 10
-1157.141989141194
 20
1630.21490179929
 30
0.0
 11
-1157.141989141194
 21
1645.257951445382
 31
0.0
  0
LINE
  5
290
330
2
100
AcDbEntity
  8
0
100
AcDbLine
 10
-1157.105580256958
 20
1630.21490179929
 30
0.0
 11
-1157.141989141194
 21
1630.21490179929
 31
0.0
  0
LWPOLYLINE
  5
291
330
2
100
AcDbEntity
  8
0
100
AcDbPolyline
 90
        5
 70
   128
 43
0.0
 10
-1156.64198948541
 20
1645.303595956965
 10
-1156.609244183687
 20
1645.309467014475
 10
-1156.571363569287
 20
1645.330924686594
 10
-1156.51663439819
 20
1645.38966506402
 10
-1156.457635113088
 20
1645.489920076532
  0
LWPOLYLINE
  5
292
330
2
100
AcDbEntity
  8
0
100
AcDbPolyline
 90
        6
 70
   128
 43
0.0
 10
-1127.826343760875
 20
1645.489920076532
 10
-1127.781669148294
 20
1645.410467085047
 10
-1127.718343869833
 20
1645.335544046564
 10
-1127.684341282634
 20
1645.313430723352
 10
-1127.652260945228
 20
1645.30416220109
 10
-1127.641989388553
 20
1645.303595956965
  0
LWPOLYLINE
  5
293
330
2
100
AcDbEntity
  8
0
100
AcDbPolyline
 90
       15
 70
   128
 43
0.0
 10
-1127.826343760875
 20
1645.489920076532
 10
-1128.376020588962
 20
1646.421361860437
 10
-1129.328650892762
 20
1647.556681331797
 10
-1130.45103056827
 20
1648.518491682215
 10
-1132.3501453782
 20
1649.659682211084
 10
-1134.423115761069
 20
1650.495041307611
 10
-1137.724881530789
 20
1651.286561187906
 10
-1141.139929944233
 20
1651.612360176249
 10
-1144.684342206506
 20
1651.51988356988
 10
-1148.164161951331
 20
1650.968719419642
 10
-1150.460891895977
 20
1650.286901888056
 10
-1152.617204473404
 20
1649.300713237925
 10
-1153.982501016048
 20
1648.405958112879
 10
-1155.191140719739
 20
1647.312183078928
 10
-1156.457635113088
 20
1645.489920076532
  0
LWPOLYLINE
  5
294
330
2
100
AcDbEntity
  8
03-01
100
AcDbPolyline
 90
        3
 70
   128
 43
0.0
 10
-1140.344325101391
 20
1669.067182980808
 10
-1139.934047973997
 20
1670.76088997828
 10
-1139.12650631862
 20
1673.27480527865
  0
LWPOLYLINE
  5
295
330
2
100
AcDbEntity
  8
0
100
AcDbPolyline
 90
        2
 70
   128
 43
0.0
 10
-1140.542200683898
 20
1668.250312538019
 10
-1140.344325101391
 20
1669.067182980808
  0
LWPOLYLINE
  5
296
330
2
100
AcDbEntity
  8
0
100
AcDbPolyline
 90
        2
 70
   128
 43
0.0
 10
-1143.782484197082
 20
1669.065431585124
 10
-1143.54177754028
 20
1668.199916810861
  0
LWPOLYLINE
  5
297
330
2
100
AcDbEntity
  8
03-01
100
AcDbPolyline
 90
        3
 70
   128
 43
0.0
 10
-1145.125439540765
 20
1673.174013824334
 10
-1144.233914125993
 20
1670.688649148813
 10
-1143.782484197082
 20
1669.065431585124
  0
LINE
  5
298
330
2
100
AcDbEntity
  8
03-01
100
AcDbLine
 10
-1149.541988973556
 20
1735.724393424196
 30
0.0
 11
-1149.541988973556
 21
1729.224402603312
 31
0.0
  0
LINE
  5
299
330
2
100
AcDbEntity
  8
03-01
100
AcDbLine
 10
-1134.541989308832
 20
1729.224402603312
 30
0.0
 11
-1134.541989308832
 21
1735.724393424196
 31
0.0
  0
ARC
  5
29A
330
2
100
AcDbEntity
  8
03-01
100
AcDbCircle
 10
-1128.791989141194
 20
1728.72439941217
 30
0.0
 40
0.5
100
AcDbArc
 50
0.0
 51
90.0
  0
ARC
  5
29B
330
2
100
AcDbEntity
  8
03-01
100
AcDbCircle
 10
-1155.291989141194
 20
1728.72439941217
 30
0.0
 40
0.5
100
AcDbArc
 50
90.0
 51
180.0
  0
LINE
  5
29C
330
2
100
AcDbEntity
  8
03-01
100
AcDbLine
 10
-1155.791989141194
 20
1728.72439941217
 30
0.0
 11
-1155.791989141194
 21
1725.724399412171
 31
0.0
  0
LINE
  5
29D
330
2
100
AcDbEntity
  8
03-01
100
AcDbLine
 10
-1128.291989141194
 20
1725.724399412171
 30
0.0
 11
-1128.291989141194
 21
1728.72439941217
 31
0.0
  0
ARC
  5
29E
330
2
100
AcDbEntity
  8
03-01
100
AcDbCircle
 10
-1127.791989141194
 20
1725.724399412171
 30
0.0
 40
0.5
100
AcDbArc
 50
180.0
 51
270.0
  0
ARC
  5
29F
330
2
100
AcDbEntity
  8
03-01
100
AcDbCircle
 10
-1156.291989141194
 20
1725.724399412171
 30
0.0
 40
0.5
100
AcDbArc
 50
270.0
 51
0.0
  0
LINE
  5
2A0
330
2
100
AcDbEntity
  8
0
100
AcDbLine
 10
-409.3825566050222
 20
1950.98749450752
 30
0.0
 11
-409.3825566050222
 21
1952.78749450752
 31
0.0
  0
LINE
  5
2A1
330
2
100
AcDbEntity
  8
0
100
AcDbLine
 10
-426.3825566050222
 20
1952.78749450752
 30
0.0
 11
-426.3825566050222
 21
1950.98749450752
 31
0.0
  0
LINE
  5
2A2
330
2
100
AcDbEntity
  8
0
100
AcDbLine
 10
-409.3825566050222
 20
1952.78749450752
 30
0.0
 11
-426.3825566050222
 21
1952.78749450752
 31
0.0
  0
LINE
  5
2A3
330
2
100
AcDbEntity
  8
0
100
AcDbLine
 10
-410.6325566050222
 20
1954.28749450752
 30
0.0
 11
-409.3825566050222
 21
1952.78749450752
 31
0.0
  0
LINE
  5
2A4
330
2
100
AcDbEntity
  8
0
100
AcDbLine
 10
-425.1325566050223
 20
1954.28749450752
 30
0.0
 11
-426.3825566050222
 21
1952.78749450752
 31
0.0
  0
LINE
  5
2A5
330
2
100
AcDbEntity
  8
0
100
AcDbLine
 10
-425.1325566050223
 20
1954.28749450752
 30
0.0
 11
-410.6325566050222
 21
1954.28749450752
 31
0.0
  0
ARC
  5
2A6
330
2
100
AcDbEntity
  8
09-01
100
AcDbCircle
 10
-442.3825566050222
 20
1661.329769655676
 30
0.0
 40
7.0
100
AcDbArc
 50
180.0
 51
280.0000000000053
  0
LINE
  5
2A7
330
2
100
AcDbEntity
  8
09-01
100
AcDbLine
 10
-449.3825566050222
 20
1652.987494507516
 30
0.0
 11
-328.3825566050223
 21
1674.32305917324
 31
0.0
  0
LINE
  5
2A8
330
2
100
AcDbEntity
  8
09-01
100
AcDbLine
 10
-449.3825566050222
 20
1950.987494507517
 30
0.0
 11
-449.3825566050222
 21
1652.987494507516
 31
0.0
  0
LINE
  5
2A9
330
2
100
AcDbEntity
  8
09-01
100
AcDbLine
 10
-328.3825566050223
 20
1950.987494507517
 30
0.0
 11
-328.3825566050223
 21
1674.32305917324
 31
0.0
  0
LINE
  5
2AA
330
2
100
AcDbEntity
  8
09-01
100
AcDbLine
 10
-449.3825566050222
 20
1950.987494507517
 30
0.0
 11
-328.3825566050223
 21
1950.987494507517
 31
0.0
  0
LINE
  5
2AB
330
2
100
AcDbEntity
  8
09-01
100
AcDbLine
 10
-1144.541989141193
 20
1764.26919164823
 30
0.0
 11
-1144.541989141193
 21
1713.26919164823
 31
0.0
  0
LINE
  5
2AC
330
2
100
AcDbEntity
  8
09-01
100
AcDbLine
 10
-1139.541989141193
 20
1713.26919164823
 30
0.0
 11
-1139.541989141193
 21
1764.26919164823
 31
0.0
  0
ARC
  5
2AD
330
2
100
AcDbEntity
  8
09-01
100
AcDbCircle
 10
-1142.041989141193
 20
1713.26919164823
 30
0.0
 40
2.5
100
AcDbArc
 50
180.0
 51
0.0
  0
ARC
  5
2AE
330
2
100
AcDbEntity
  8
09-01
100
AcDbCircle
 10
-1142.041989141193
 20
1764.26919164823
 30
0.0
 40
2.5
100
AcDbArc
 50
0.0
 51
180.0
  0
LINE
  5
2AF
330
2
100
AcDbEntity
  8
09-01
100
AcDbLine
 10
-964.5419891411934
 20
1764.269191648231
 30
0.0
 11
-964.5419891411934
 21
1713.269191648231
 31
0.0
  0
LINE
  5
2B0
330
2
100
AcDbEntity
  8
09-01
100
AcDbLine
 10
-959.5419891411934
 20
1713.269191648231
 30
0.0
 11
-959.5419891411934
 21
1764.269191648231
 31
0.0
  0
ARC
  5
2B1
330
2
100
AcDbEntity
  8
09-01
100
AcDbCircle
 10
-962.0419891411934
 20
1713.269191648231
 30
0.0
 40
2.5
100
AcDbArc
 50
180.0
 51
0.0
  0
ARC
  5
2B2
330
2
100
AcDbEntity
  8
09-01
100
AcDbCircle
 10
-962.0419891411934
 20
1764.269191648231
 30
0.0
 40
2.5
100
AcDbArc
 50
0.0
 51
180.0
  0
INSERT
  5
2B3
330
2
100
AcDbEntity
  8
03-01
100
AcDbBlockReference
  2
Seifenflasche01-v
 10
-655.3937657294514
 20
1731.06667456033
 30
0.0
  0
INSERT
  5
2D4
330
2
100
AcDbEntity
  8
03-01
100
AcDbBlockReference
  2
Seifenflasche01-s
 10
-962.0419891411934
 20
1728.019330460489
 30
0.0
  0
LINE
  5
2D5
330
2
100
AcDbEntity
  8
09-01
100
AcDbLine
 10
-903.0419891411934
 20
1672.769191648231
 30
0.0
 11
-1201.041989141194
 21
1672.769191648231
 31
0.0
  0
LINE
  5
2D6
330
2
100
AcDbEntity
  8
03-01
100
AcDbLine
 10
-948.2919891411935
 20
1728.72439941217
 30
0.0
 11
-975.7919891411933
 21
1728.72439941217
 31
0.0
  0
LINE
  5
2D7
330
2
100
AcDbEntity
  8
03-01
100
AcDbLine
 10
-975.7919891411933
 20
1725.724399412171
 30
0.0
 11
-948.2919891411935
 21
1725.724399412171
 31
0.0
  0
LWPOLYLINE
  5
2D8
330
2
100
AcDbEntity
  8
0
100
AcDbPolyline
 90
       10
 70
   128
 43
0.0
 10
-960.5422006838985
 20
1668.250312538019
 10
-960.6522272492789
 20
1668.24846479403
 10
-960.9814786504053
 20
1668.242921562066
 10
-961.4657454344474
 20
1668.234785528055
 10
-962.0419891411934
 20
1668.225099773279
 10
-962.6172330658796
 20
1668.215443820825
 10
-963.1024996901892
 20
1668.207307786813
 10
-963.431750683862
 20
1668.201764554849
 10
-963.5417775402807
 20
1668.199916810861
 10
-963.5417775402807
 20
1668.199916810861
  0
LINE
  5
2D9
330
2
100
AcDbEntity
  8
03-01
100
AcDbLine
 10
-932.0419891411933
 20
1673.22439941217
 30
0.0
 11
-932.0419898117457
 21
1719.224397238894
 31
0.0
  0
LINE
  5
2DA
330
2
100
AcDbEntity
  8
03-01
100
AcDbLine
 10
-992.0419884706412
 20
1719.224397238894
 30
0.0
 11
-992.0419891411935
 21
1673.22439941217
 31
0.0
  0
LINE
  5
2DB
330
2
100
AcDbEntity
  8
03-01
100
AcDbLine
 10
-932.0419891411933
 20
1673.22439941217
 30
0.0
 11
-952.0419891411934
 21
1673.22439941217
 31
0.0
  0
LINE
  5
2DC
330
2
100
AcDbEntity
  8
03-01
100
AcDbLine
 10
-952.0419891411934
 20
1723.22439941217
 30
0.0
 11
-932.0419891411933
 21
1723.22439941217
 31
0.0
  0
LINE
  5
2DD
330
2
100
AcDbEntity
  8
03-01
100
AcDbLine
 10
-932.0419891411933
 20
1723.22439941217
 30
0.0
 11
-932.0419891411933
 21
1673.22439941217
 31
0.0
  0
LINE
  5
2DE
330
2
100
AcDbEntity
  8
03-01
100
AcDbLine
 10
-972.0419891411934
 20
1673.22439941217
 30
0.0
 11
-952.0419891411934
 21
1673.22439941217
 31
0.0
  0
LINE
  5
2DF
330
2
100
AcDbEntity
  8
03-01
100
AcDbLine
 10
-972.0419891411934
 20
1723.22439941217
 30
0.0
 11
-952.0419891411934
 21
1723.22439941217
 31
0.0
  0
LINE
  5
2E0
330
2
100
AcDbEntity
  8
03-01
100
AcDbLine
 10
-972.0419891411934
 20
1673.22439941217
 30
0.0
 11
-992.0419891411935
 21
1673.22439941217
 31
0.0
  0
LINE
  5
2E1
330
2
100
AcDbEntity
  8
03-01
100
AcDbLine
 10
-992.0419891411935
 20
1723.22439941217
 30
0.0
 11
-972.0419891411934
 21
1723.22439941217
 31
0.0
  0
LINE
  5
2E2
330
2
100
AcDbEntity
  8
03-01
100
AcDbLine
 10
-992.0419891411935
 20
1673.22439941217
 30
0.0
 11
-992.0419891411935
 21
1723.22439941217
 31
0.0
  0
ELLIPSE
  5
2E3
330
2
100
AcDbEntity
  8
03-01
100
AcDbEllipse
 10
-962.0419891411934
 20
1735.72439941217
 30
0.0
 11
7.49999999999997
 21
0.0
 31
0.0
210
0.0
220
0.0
230
1.0
 40
0.3333333333333346
 41
0.0
 42
3.141592653589845
  0
LINE
  5
2E4
330
2
100
AcDbEntity
  8
03-01
100
AcDbLine
 10
-975.2919891411934
 20
1729.224399412171
 30
0.0
 11
-948.7919891411934
 21
1729.224399412171
 31
0.0
  0
LINE
  5
2E5
330
2
100
AcDbEntity
  8
03-01
100
AcDbLine
 10
-952.0419891411934
 20
1723.22439941217
 30
0.0
 11
-932.0419891411933
 21
1723.22439941217
 31
0.0
  0
LINE
  5
2E6
330
2
100
AcDbEntity
  8
03-01
100
AcDbLine
 10
-952.0419891411934
 20
1725.22439941217
 30
0.0
 11
-932.0419891411933
 21
1725.22439941217
 31
0.0
  0
LINE
  5
2E7
330
2
100
AcDbEntity
  8
03-01
100
AcDbLine
 10
-932.0419891411933
 20
1725.22439941217
 30
0.0
 11
-932.0419891411933
 21
1723.22439941217
 31
0.0
  0
LINE
  5
2E8
330
2
100
AcDbEntity
  8
03-01
100
AcDbLine
 10
-972.0419891411934
 20
1723.22439941217
 30
0.0
 11
-952.0419891411934
 21
1723.22439941217
 31
0.0
  0
LINE
  5
2E9
330
2
100
AcDbEntity
  8
03-01
100
AcDbLine
 10
-972.0419891411934
 20
1725.22439941217
 30
0.0
 11
-952.0419891411934
 21
1725.22439941217
 31
0.0
  0
LINE
  5
2EA
330
2
100
AcDbEntity
  8
03-01
100
AcDbLine
 10
-952.0419891411934
 20
1725.22439941217
 30
0.0
 11
-952.0419891411934
 21
1723.22439941217
 31
0.0
  0
LINE
  5
2EB
330
2
100
AcDbEntity
  8
03-01
100
AcDbLine
 10
-992.0419891411935
 20
1723.22439941217
 30
0.0
 11
-972.0419891411934
 21
1723.22439941217
 31
0.0
  0
LINE
  5
2EC
330
2
100
AcDbEntity
  8
03-01
100
AcDbLine
 10
-972.0419891411934
 20
1725.22439941217
 30
0.0
 11
-972.0419891411934
 21
1723.22439941217
 31
0.0
  0
LINE
  5
2ED
330
2
100
AcDbEntity
  8
03-01
100
AcDbLine
 10
-992.0419891411935
 20
1725.22439941217
 30
0.0
 11
-972.0419891411934
 21
1725.22439941217
 31
0.0
  0
LINE
  5
2EE
330
2
100
AcDbEntity
  8
03-01
100
AcDbLine
 10
-992.0419891411935
 20
1725.22439941217
 30
0.0
 11
-992.0419891411935
 21
1723.22439941217
 31
0.0
  0
LINE
  5
2EF
330
2
100
AcDbEntity
  8
03-01
100
AcDbLine
 10
-949.1419891411938
 20
1673.22439941217
 30
0.0
 11
-949.1419891411938
 21
1666.71490179929
 31
0.0
  0
LINE
  5
2F0
330
2
100
AcDbEntity
  8
03-01
100
AcDbLine
 10
-975.1419891411938
 20
1666.71490179929
 30
0.0
 11
-975.1419891411938
 21
1673.22439941217
 31
0.0
  0
LINE
  5
2F1
330
2
100
AcDbEntity
  8
03-01
100
AcDbLine
 10
-949.1419891411938
 20
1666.71490179929
 30
0.0
 11
-948.9854020301249
 21
1665.473389984068
 31
0.0
  0
LINE
  5
2F2
330
2
100
AcDbEntity
  8
03-01
100
AcDbLine
 10
-975.2985762522625
 20
1665.473389984068
 30
0.0
 11
-975.1419891411938
 21
1666.71490179929
 31
0.0
  0
ARC
  5
2F3
330
2
100
AcDbEntity
  8
0
100
AcDbCircle
 10
-947.6419891411937
 20
1662.472261112171
 30
0.0
 40
0.5000000000000293
100
AcDbArc
 50
0.0
 51
50.47880364133709
  0
ARC
  5
2F4
330
2
100
AcDbEntity
  8
03-01
100
AcDbCircle
 10
-949.3551617839653
 20
1665.296013458729
 30
0.0
 40
0.4101038044597189
100
AcDbArc
 50
25.62743117906363
 51
106.2242063193681
  0
ARC
  5
2F5
330
2
100
AcDbEntity
  8
0
100
AcDbCircle
 10
-944.1419891411937
 20
1666.71490179929
 30
0.0
 40
5.000000000000007
100
AcDbArc
 50
200.9591968978992
 51
230.4788036413371
  0
ARC
  5
2F6
330
2
100
AcDbEntity
  8
03-01
100
AcDbCircle
 10
-944.1419891411937
 20
1666.71490179929
 30
0.0
 40
5.000000000000007
100
AcDbArc
 50
194.377077490379
 51
200.9591968978992
  0
ARC
  5
2F7
330
2
100
AcDbEntity
  8
03-01
100
AcDbCircle
 10
-974.9288173478594
 20
1665.296015627257
 30
0.0
 40
0.4101017943383863
100
AcDbArc
 50
73.77567444126416
 51
154.3727701247494
  0
ARC
  5
2F8
330
2
100
AcDbEntity
  8
03-01
100
AcDbCircle
 10
-980.1419891411937
 20
1666.71490179929
 30
0.0
 40
5.000000000000007
100
AcDbArc
 50
339.0408031021008
 51
345.622922509621
  0
ARC
  5
2F9
330
2
100
AcDbEntity
  8
0
100
AcDbCircle
 10
-980.1419891411937
 20
1666.71490179929
 30
0.0
 40
5.000000000000007
100
AcDbArc
 50
309.5211963586629
 51
339.0408031021008
  0
ARC
  5
2FA
330
2
100
AcDbEntity
  8
0
100
AcDbCircle
 10
-976.6419891411938
 20
1662.472261112171
 30
0.0
 40
0.500000000000037
100
AcDbArc
 50
129.5211963586629
 51
180.0
  0
LINE
  5
2FB
330
2
100
AcDbEntity
  8
0
100
AcDbLine
 10
-947.1419891411938
 20
1662.472261112171
 30
0.0
 11
-947.1419891411938
 21
1652.486216496787
 31
0.0
  0
LINE
  5
2FC
330
2
100
AcDbEntity
  8
03-01
100
AcDbLine
 10
-949.4697433190181
 20
1665.689790773785
 30
0.0
 11
-974.8142349633694
 21
1665.689790773785
 31
0.0
  0
LINE
  5
2FD
330
2
100
AcDbEntity
  8
0
100
AcDbLine
 10
-977.1419891411937
 20
1652.486216496787
 30
0.0
 11
-977.1419891411937
 21
1662.472261112171
 31
0.0
  0
LINE
  5
2FE
330
2
100
AcDbEntity
  8
0
100
AcDbLine
 10
-947.1419891411938
 20
1652.486216496787
 30
0.0
 11
-947.1419891411938
 21
1645.257951445382
 31
0.0
  0
LINE
  5
2FF
330
2
100
AcDbEntity
  8
0
100
AcDbLine
 10
-947.1419891411938
 20
1630.21490179929
 30
0.0
 11
-947.178398025429
 21
1630.21490179929
 31
0.0
  0
LINE
  5
300
330
2
100
AcDbEntity
  8
0
100
AcDbLine
 10
-947.1419891411938
 20
1645.257951445382
 30
0.0
 11
-947.1419891411938
 21
1630.21490179929
 31
0.0
  0
ARC
  5
301
330
2
100
AcDbEntity
  8
0
100
AcDbCircle
 10
-947.4897041511608
 20
1644.210674274308
 30
0.0
 40
1.103480220913529
100
AcDbArc
 50
71.63269909811575
 51
97.93239173860694
  0
LINE
  5
302
330
2
100
AcDbEntity
  8
0
100
AcDbLine
 10
-947.178398025429
 20
1630.21490179929
 30
0.0
 11
-977.1055802569575
 21
1630.21490179929
 31
0.0
  0
LINE
  5
303
330
2
100
AcDbEntity
  8
0
100
AcDbLine
 10
-977.1419891411937
 20
1645.257951445382
 30
0.0
 11
-977.1419891411937
 21
1652.486216496787
 31
0.0
  0
ARC
  5
304
330
2
100
AcDbEntity
  8
0
100
AcDbCircle
 10
-976.7942670485158
 20
1644.210590231759
 30
0.0
 40
1.103562400390835
100
AcDbArc
 50
82.06860505845734
 51
108.3663041048611
  0
LINE
  5
305
330
2
100
AcDbEntity
  8
0
100
AcDbLine
 10
-977.1419891411937
 20
1630.21490179929
 30
0.0
 11
-977.1419891411937
 21
1645.257951445382
 31
0.0
  0
LINE
  5
306
330
2
100
AcDbEntity
  8
0
100
AcDbLine
 10
-977.1055802569575
 20
1630.21490179929
 30
0.0
 11
-977.1419891411937
 21
1630.21490179929
 31
0.0
  0
LWPOLYLINE
  5
307
330
2
100
AcDbEntity
  8
0
100
AcDbPolyline
 90
        5
 70
   128
 43
0.0
 10
-976.6419894854102
 20
1645.303595956965
 10
-976.6092441836867
 20
1645.309467014475
 10
-976.5713635692868
 20
1645.330924686594
 10
-976.5166343981896
 20
1645.38966506402
 10
-976.4576351130877
 20
1645.489920076532
  0
LWPOLYLINE
  5
308
330
2
100
AcDbEntity
  8
0
100
AcDbPolyline
 90
        6
 70
   128
 43
0.0
 10
-947.8263437608752
 20
1645.489920076532
 10
-947.7816691482935
 20
1645.410467085047
 10
-947.7183438698325
 20
1645.335544046564
 10
-947.6843412826333
 20
1645.313430723352
 10
-947.6522609452281
 20
1645.30416220109
 10
-947.6419893885527
 20
1645.303595956965
  0
LWPOLYLINE
  5
309
330
2
100
AcDbEntity
  8
0
100
AcDbPolyline
 90
       15
 70
   128
 43
0.0
 10
-947.8263437608752
 20
1645.489920076532
 10
-948.3760205889616
 20
1646.421361860437
 10
-949.3286508927617
 20
1647.556681331797
 10
-950.4510305682693
 20
1648.518491682215
 10
-952.3501453781996
 20
1649.659682211084
 10
-954.4231157610688
 20
1650.495041307611
 10
-957.7248815307889
 20
1651.286561187906
 10
-961.1399299442332
 20
1651.612360176249
 10
-964.6843422065053
 20
1651.51988356988
 10
-968.1641619513307
 20
1650.968719419642
 10
-970.460891895977
 20
1650.286901888056
 10
-972.6172044734035
 20
1649.300713237925
 10
-973.982501016048
 20
1648.405958112879
 10
-975.191140719739
 20
1647.312183078928
 10
-976.4576351130877
 20
1645.489920076532
  0
LWPOLYLINE
  5
30A
330
2
100
AcDbEntity
  8
03-01
100
AcDbPolyline
 90
        3
 70
   128
 43
0.0
 10
-960.3443251013912
 20
1669.067182980808
 10
-959.9340479739971
 20
1670.76088997828
 10
-959.1265063186206
 20
1673.27480527865
  0
LWPOLYLINE
  5
30B
330
2
100
AcDbEntity
  8
0
100
AcDbPolyline
 90
        2
 70
   128
 43
0.0
 10
-960.5422006838985
 20
1668.250312538019
 10
-960.3443251013912
 20
1669.067182980808
  0
LWPOLYLINE
  5
30C
330
2
100
AcDbEntity
  8
0
100
AcDbPolyline
 90
        2
 70
   128
 43
0.0
 10
-963.7824841970822
 20
1669.065431585124
 10
-963.5417775402807
 20
1668.199916810861
  0
LWPOLYLINE
  5
30D
330
2
100
AcDbEntity
  8
03-01
100
AcDbPolyline
 90
        3
 70
   128
 43
0.0
 10
-965.1254395407654
 20
1673.174013824334
 10
-964.2339141259931
 20
1670.688649148813
 10
-963.7824841970822
 20
1669.065431585124
  0
LINE
  5
30E
330
2
100
AcDbEntity
  8
03-01
100
AcDbLine
 10
-969.5419889735553
 20
1735.724393424196
 30
0.0
 11
-969.5419889735553
 21
1729.224402603312
 31
0.0
  0
LINE
  5
30F
330
2
100
AcDbEntity
  8
03-01
100
AcDbLine
 10
-954.5419893088315
 20
1729.224402603312
 30
0.0
 11
-954.5419893088315
 21
1735.724393424196
 31
0.0
  0
ARC
  5
310
330
2
100
AcDbEntity
  8
03-01
100
AcDbCircle
 10
-948.7919891411934
 20
1728.72439941217
 30
0.0
 40
0.5
100
AcDbArc
 50
0.0
 51
90.0
  0
ARC
  5
311
330
2
100
AcDbEntity
  8
03-01
100
AcDbCircle
 10
-975.2919891411934
 20
1728.72439941217
 30
0.0
 40
0.5
100
AcDbArc
 50
90.0
 51
180.0
  0
LINE
  5
312
330
2
100
AcDbEntity
  8
03-01
100
AcDbLine
 10
-975.7919891411933
 20
1728.72439941217
 30
0.0
 11
-975.7919891411933
 21
1725.724399412171
 31
0.0
  0
LINE
  5
313
330
2
100
AcDbEntity
  8
03-01
100
AcDbLine
 10
-948.2919891411935
 20
1725.724399412171
 30
0.0
 11
-948.2919891411935
 21
1728.72439941217
 31
0.0
  0
ARC
  5
314
330
2
100
AcDbEntity
  8
03-01
100
AcDbCircle
 10
-947.7919891411934
 20
1725.724399412171
 30
0.0
 40
0.5
100
AcDbArc
 50
180.0
 51
270.0
  0
ARC
  5
315
330
2
100
AcDbEntity
  8
03-01
100
AcDbCircle
 10
-976.2919891411934
 20
1725.724399412171
 30
0.0
 40
0.5
100
AcDbArc
 50
270.0
 51
0.0
  0
LWPOLYLINE
  5
316
330
2
100
AcDbEntity
  8
02TNR-01
100
AcDbPolyline
 90
       29
 70
     1
 43
0.0135
 10
-1033.51909514123
 20
1909.629597507516
 10
-1035.18657464123
 20
1911.842090007516
 10
-1034.948673141229
 20
1911.857997507516
 10
-1034.733361641229
 20
1911.904928007516
 10
-1034.54207564123
 20
1911.981707007516
 10
-1034.376264141229
 20
1912.087169007516
 10
-1034.23736714123
 20
1912.220126007516
 10
-1034.126829141229
 20
1912.379417007517
 10
-1034.04608564123
 20
1912.563858507516
 10
-1033.996581141229
 20
1912.772276007516
 10
-1033.97976014123
 20
1913.003499507516
 10
-1033.992153141229
 20
1913.224539507517
 10
-1034.02934564123
 20
1913.424114507516
 10
-1034.09137364123
 20
1913.602310007516
 10
-1034.17825964123
 20
1913.759211507516
 10
-1034.290035141229
 20
1913.894909007516
 10
-1034.42673164123
 20
1914.009492507516
 10
-1034.58837614123
 20
1914.103043007516
 10
-1034.77500014123
 20
1914.175650507516
 10
-1034.98663064123
 20
1914.227409507516
 10
-1035.22329464123
 20
1914.258396507516
 10
-1035.48502814123
 20
1914.268706007516
 10
-1035.48502814123
 20
1914.268706007516
 10
-1036.33499714123
 20
1914.268706007516
 10
-1036.33499714123
 20
1909.629597507516
 10
-1035.91325714123
 20
1909.629597507516
 10
-1035.91325714123
 20
1911.842090007516
 10
-1035.660208641229
 20
1911.842090007516
 10
-1034.03167214123
 20
1909.629597507516
  0
LWPOLYLINE
  5
319
330
2
100
AcDbEntity
  8
02TNR-01
100
AcDbPolyline
 90
       19
 70
     1
 43
0.0135
 10
-1035.91325714123
 20
1913.898873507516
 10
-1035.49153064123
 20
1913.898873507516
 10
-1035.23372114123
 20
1913.888370507516
 10
-1035.01423814123
 20
1913.854976007516
 10
-1034.831853141229
 20
1913.795882007516
 10
-1034.68536014123
 20
1913.708276007516
 10
-1034.57353964123
 20
1913.589345507516
 10
-1034.49517664123
 20
1913.436278007517
 10
-1034.449047141229
 20
1913.246252007516
 10
-1034.43394064123
 20
1913.016468507516
 10
-1034.44984364123
 20
1912.790771007516
 10
-1034.49791264123
 20
1912.607504007516
 10
-1034.57866964123
 20
1912.462860507516
 10
-1034.69265914123
 20
1912.353042507516
 10
-1034.84040314123
 20
1912.274247507516
 10
-1035.022441641229
 20
1912.222668507516
 10
-1035.239310141229
 20
1912.194512007516
 10
-1035.49153064123
 20
1912.185971007516
 10
-1035.91325714123
 20
1912.185971007516
  0
LWPOLYLINE
  5
31A
330
2
100
AcDbEntity
  8
02TNR-01
100
AcDbPolyline
 90
        8
 70
     1
 43
0.0135
 10
-1046.76603314123
 20
1909.629597507516
 10
-1046.344288641229
 20
1909.629597507516
 10
-1046.344288641229
 20
1913.379816507516
 10
-1043.087193141229
 20
1909.492257507517
 10
-1043.087193141229
 20
1914.268706007516
 10
-1043.508919641229
 20
1914.268706007516
 10
-1043.508919641229
 20
1910.583368007516
 10
-1046.76603314123
 20
1914.463340007516
  0
LWPOLYLINE
  5
31B
330
2
100
AcDbEntity
  8
02TNR-01
100
AcDbPolyline
 90
       12
 70
     1
 43
0.0135
 10
-1040.797881141229
 20
1909.629597507516
 10
-1038.50104064123
 20
1909.629597507516
 10
-1038.50104064123
 20
1910.025386007516
 10
-1040.37614114123
 20
1910.025386007516
 10
-1040.37614114123
 20
1912.023755007517
 10
-1038.50104064123
 20
1912.023755007517
 10
-1038.50104064123
 20
1912.419543507516
 10
-1040.37614114123
 20
1912.419543507516
 10
-1040.37614114123
 20
1913.872917507516
 10
-1038.50104064123
 20
1913.872917507516
 10
-1038.50104064123
 20
1914.268706007516
 10
-1040.797881141229
 20
1914.268706007516
  0
LWPOLYLINE
  5
31C
330
2
100
AcDbEntity
  8
02TNR-01
100
AcDbPolyline
 90
        9
 70
     1
 43
0.0135
 10
-1034.818762641229
 20
1907.346270507516
 10
-1034.622234141229
 20
1907.346270507516
 10
-1034.424418641229
 20
1907.303871507516
 10
-1034.32231364123
 20
1907.183955507516
 10
-1034.31600464123
 20
1906.997453007516
 10
-1034.39473214123
 20
1906.813488507516
 10
-1034.54318264123
 20
1906.698311007517
 10
-1034.75464664123
 20
1906.658463507516
 10
-1034.95117514123
 20
1906.658463507516
  0
LWPOLYLINE
  5
31D
330
2
100
AcDbEntity
  8
02TNR-01
100
AcDbPolyline
 90
       23
 70
     1
 43
0.0135
 10
-1036.559074641229
 20
1904.737494507516
 10
-1035.321025641229
 20
1904.737494507516
 10
-1035.097798641229
 20
1905.896951007516
 10
-1034.70690164123
 20
1904.737494507516
 10
-1033.29198914123
 20
1904.737494507516
 10
-1033.955082141229
 20
1906.167167007516
 10
-1033.75386914123
 20
1906.216023507516
 10
-1033.57044464123
 20
1906.310730507516
 10
-1033.40927264123
 20
1906.447202007516
 10
-1033.274826141229
 20
1906.621338507516
 10
-1033.17158264123
 20
1906.829045007516
 10
-1033.104015141229
 20
1907.066226507517
 10
-1033.076884641229
 20
1907.282037507517
 10
-1033.08231164123
 20
1907.478008007516
 10
-1033.12028264123
 20
1907.653463007516
 10
-1033.19078414123
 20
1907.807723007516
 10
-1033.29379364123
 20
1907.940113007516
 10
-1033.42929314123
 20
1908.049949007516
 10
-1033.597273641229
 20
1908.136560507516
 10
-1033.797708141229
 20
1908.199263507516
 10
-1034.03059214123
 20
1908.237383007516
 10
-1034.295894141229
 20
1908.250239507516
 10
-1035.88276514123
 20
1908.250239507516
  0
LWPOLYLINE
  5
31E
330
2
100
AcDbEntity
  8
02TNR-01
100
AcDbPolyline
 90
       10
 70
     1
 43
0.0135
 10
-1040.516950641229
 20
1906.014855507516
 10
-1040.332239141229
 20
1906.412804007516
 10
-1040.237856141229
 20
1906.620425007517
 10
-1040.135530641229
 20
1906.874990007516
 10
-1040.04124214123
 20
1907.184149007516
 10
-1040.01667214123
 20
1907.184149007516
 10
-1040.04144914123
 20
1906.874990007516
 10
-1040.037147141229
 20
1906.620425007517
 10
-1040.02271114123
 20
1906.412804007516
 10
-1039.99126514123
 20
1906.014855507516
  0
LWPOLYLINE
  5
31F
330
2
100
AcDbEntity
  8
02TNR-01
100
AcDbPolyline
 90
       34
 70
     1
 43
0.0135
 10
-1046.08337864123
 20
1906.515984507516
 10
-1046.03915714123
 20
1906.515984507516
 10
-1046.05715714123
 20
1906.295808507517
 10
-1046.057692641229
 20
1906.104018507516
 10
-1046.05251764123
 20
1905.936249507517
 10
-1046.01800714123
 20
1904.737494507516
 10
-1044.91750514123
 20
1904.737494507516
 10
-1043.21439914123
 20
1908.250239507516
 10
-1044.48192764123
 20
1908.250239507516
 10
-1045.05502514123
 20
1906.702667007516
 10
-1045.11828614123
 20
1906.525263507516
 10
-1045.19274314123
 20
1906.295448507517
 10
-1045.26700214123
 20
1906.009950507516
 10
-1045.296463641229
 20
1906.009950507516
 10
-1045.26903164123
 20
1906.259237007516
 10
-1045.26327614123
 20
1906.458303507516
 10
-1045.26459014123
 20
1906.609337007516
 10
-1045.28275214123
 20
1908.250239507516
 10
-1046.17197914123
 20
1908.250239507516
 10
-1046.82198164123
 20
1906.609337007516
 10
-1046.88145364123
 20
1906.458303507516
 10
-1046.95235564123
 20
1906.259237007516
 10
-1047.02092214123
 20
1906.009950507516
 10
-1047.050383641229
 20
1906.009950507516
 10
-1047.014707641229
 20
1906.295448507517
 10
-1047.00066764123
 20
1906.525263507516
 10
-1046.99562314123
 20
1906.702667007516
 10
-1046.97280364123
 20
1908.250239507516
 10
-1048.24114664123
 20
1908.250239507516
 10
-1047.88984514123
 20
1904.737494507516
 10
-1046.789347641229
 20
1904.737494507516
 10
-1046.29324964123
 20
1905.936249507517
 10
-1046.22345914123
 20
1906.104018507516
 10
-1046.15014514123
 20
1906.295808507517
  0
LWPOLYLINE
  5
320
330
2
100
AcDbEntity
  8
02TNR-01
100
AcDbPolyline
 90
        8
 70
     1
 43
0.0135
 10
-1042.43899964123
 20
1904.737494507516
 10
-1041.082213641229
 20
1904.737494507516
 10
-1040.88899714123
 20
1905.179664507516
 10
-1039.93588364123
 20
1905.179664507516
 10
-1039.90801514123
 20
1904.737494507516
 10
-1038.55204364123
 20
1904.737494507516
 10
-1039.10396864123
 20
1908.250239507516
 10
-1040.509066641229
 20
1908.250239507516
  0
LWPOLYLINE
  5
321
330
2
100
AcDbEntity
  8
02TNR-01
100
AcDbPolyline
 90
        7
 70
     1
 43
0.0135
 10
-1058.72290664123
 20
1909.629597507516
 10
-1058.293597641229
 20
1909.629597507516
 10
-1057.677223641229
 20
1911.199760007517
 10
-1055.782651641229
 20
1911.199760007517
 10
-1055.192211141229
 20
1909.629597507516
 10
-1054.73154614123
 20
1909.629597507516
 10
-1056.68451014123
 20
1914.450371007516
  0
LWPOLYLINE
  5
322
330
2
100
AcDbEntity
  8
02TNR-01
100
AcDbPolyline
 90
        3
 70
     1
 43
0.0135
 10
-1057.534479141229
 20
1911.563090007516
 10
-1056.71046614123
 20
1913.580953007516
 10
-1055.91888914123
 20
1911.563090007516
  0
LWPOLYLINE
  5
323
330
2
100
AcDbEntity
  8
02TNR-01
100
AcDbPolyline
 90
       10
 70
     1
 43
0.0135
 10
-1063.82055614123
 20
1909.505244507516
 10
-1062.58780364123
 20
1913.386301007516
 10
-1061.30312564123
 20
1909.505244507516
 10
-1059.752430141229
 20
1914.268706007516
 10
-1060.18713914123
 20
1914.268706007516
 10
-1061.30312564123
 20
1910.596355007516
 10
-1062.58780364123
 20
1914.450371007516
 10
-1063.82055614123
 20
1910.563914507516
 10
-1064.98196114123
 20
1914.268706007516
 10
-1065.423159141229
 20
1914.268706007516
  0
SOLID
  5
324
330
2
100
AcDbEntity
  8
02TNR-01
100
AcDbTrace
 10
-1070.62232414123
 20
1905.529935507516
 30
0.0
 11
-1054.89347414123
 21
1905.529935507516
 31
0.0
 12
-1070.77835264123
 22
1904.736590007516
 32
0.0
 13
-1055.04950714123
 23
1904.736590007516
 33
0.0
  0
LWPOLYLINE
  5
325
330
2
100
AcDbEntity
  8
02TNR-01
100
AcDbPolyline
 90
        4
 70
     1
 43
0.0135
 10
-1070.62232414123
 20
1905.529935507516
 10
-1054.89347414123
 20
1905.529935507516
 10
-1055.04950714123
 20
1904.736590007516
 10
-1070.77835264123
 20
1904.736590007516
  0
LWPOLYLINE
  5
326
330
2
100
AcDbEntity
  8
02TNR-01
100
AcDbPolyline
 90
       12
 70
     1
 43
0.0135
 10
-1053.15971864123
 20
1904.737494507516
 10
-1050.781855641229
 20
1904.737494507516
 10
-1050.598350141229
 20
1905.690608007516
 10
-1051.73815964123
 20
1905.690608007516
 10
-1051.667221641229
 20
1906.059077007516
 10
-1050.660072141229
 20
1906.059077007516
 10
-1050.48698414123
 20
1906.958136507516
 10
-1051.494133641229
 20
1906.958136507516
 10
-1051.428847641229
 20
1907.297144007516
 10
-1050.318517641229
 20
1907.297144007516
 10
-1050.13502564123
 20
1908.250239507516
 10
-1052.483409141229
 20
1908.250239507516
  0
LWPOLYLINE
  5
327
330
2
100
AcDbEntity
  8
02TNR-01
100
AcDbPolyline
 90
      133
 70
     1
 43
0.0135
 10
-1049.39922164123
 20
1913.100816507516
 10
-1049.09428814123
 20
1913.366829507516
 10
-1049.20312064123
 20
1913.542347507516
 10
-1049.327599641229
 20
1913.700869007516
 10
-1049.467293141229
 20
1913.842452507516
 10
-1049.62175114123
 20
1913.967165507516
 10
-1049.79054164123
 20
1914.075057507516
 10
-1049.973228141229
 20
1914.166187007516
 10
-1050.16936514123
 20
1914.240621507516
 10
-1050.378520641229
 20
1914.298410507516
 10
-1050.600253641229
 20
1914.339612507516
 10
-1050.83412314123
 20
1914.364295007516
 10
-1051.07969264123
 20
1914.372507507516
 10
-1051.28288114123
 20
1914.364853007516
 10
-1051.47952214123
 20
1914.342222507517
 10
-1051.66919714123
 20
1914.305106507516
 10
-1051.85148314123
 20
1914.254004507516
 10
-1052.02596164123
 20
1914.189416007516
 10
-1052.192223141229
 20
1914.111836007516
 10
-1052.34983564123
 20
1914.021759507516
 10
-1052.49838964123
 20
1913.919681507516
 10
-1052.637466641229
 20
1913.806097007516
 10
-1052.766639141229
 20
1913.681510007516
 10
-1052.88550214123
 20
1913.546406507516
 10
-1052.99362814123
 20
1913.401295007516
 10
-1053.09059864123
 20
1913.246661507516
 10
-1053.175999641229
 20
1913.083005507516
 10
-1053.24940814123
 20
1912.910822007516
 10
-1053.31041014123
 20
1912.730615007516
 10
-1053.35858714123
 20
1912.542870507516
 10
-1053.393511641229
 20
1912.348092507516
 10
-1053.41477864123
 20
1912.146771507516
 10
-1053.42195614123
 20
1911.939407007516
 10
-1053.41486864123
 20
1911.725891007516
 10
-1053.393844641229
 20
1911.519660507516
 10
-1053.359262141229
 20
1911.321116007517
 10
-1053.31149914123
 20
1911.130653507516
 10
-1053.250929141229
 20
1910.948669007516
 10
-1053.17792564123
 20
1910.775558507516
 10
-1053.092862141229
 20
1910.611713507516
 10
-1052.99611664123
 20
1910.457534507516
 10
-1052.88806264123
 20
1910.313413007516
 10
-1052.76906914123
 20
1910.179749507516
 10
-1052.639523141229
 20
1910.056935507516
 10
-1052.49978464123
 20
1909.945371507516
 10
-1052.350240641229
 20
1909.845449007517
 10
-1052.191260141229
 20
1909.757564007517
 10
-1052.023221141229
 20
1909.682117007516
 10
-1051.84649264123
 20
1909.619499507516
 10
-1051.661457141229
 20
1909.570107507516
 10
-1051.46847914123
 20
1909.534337007517
 10
-1051.26794564123
 20
1909.512584007516
 10
-1051.06022114123
 20
1909.505244507516
 10
-1050.853153641229
 20
1909.511877507517
 10
-1050.65450114123
 20
1909.531623507517
 10
-1050.464502141229
 20
1909.564239507517
 10
-1050.28339514123
 20
1909.609482507516
 10
-1050.111414141229
 20
1909.667114007516
 10
-1049.94880214123
 20
1909.736895507516
 10
-1049.79579314123
 20
1909.818584007516
 10
-1049.65263464123
 20
1909.911945507516
 10
-1049.51955164123
 20
1910.016737007516
 10
-1049.39679614123
 20
1910.132711007516
 10
-1049.284597641229
 20
1910.259642507516
 10
-1049.183194641229
 20
1910.397275007516
 10
-1049.09283014123
 20
1910.545383507516
 10
-1049.01374264123
 20
1910.703716007516
 10
-1048.94616614123
 20
1910.872038507516
 10
-1048.89033914123
 20
1911.050108007516
 10
-1048.84650914123
 20
1911.237686007516
 10
-1048.814901141229
 20
1911.434534007516
 10
-1048.795762641229
 20
1911.640413507516
 10
-1048.789332141229
 20
1911.855077007516
 10
-1048.789332141229
 20
1911.855077007516
 10
-1048.789332141229
 20
1911.919953507516
 10
-1050.85260014123
 20
1911.919953507516
 10
-1050.85260014123
 20
1911.556605507516
 10
-1049.249997141229
 20
1911.556605507516
 10
-1049.26355564123
 20
1911.351374007516
 10
-1049.29806614123
 20
1911.156114507516
 10
-1049.35263764123
 20
1910.971664007516
 10
-1049.426379141229
 20
1910.798864007516
 10
-1049.518390641229
 20
1910.638542507516
 10
-1049.62777664123
 20
1910.491550007516
 10
-1049.75365514123
 20
1910.358710007517
 10
-1049.89512164123
 20
1910.240873007516
 10
-1050.05128514123
 20
1910.138862507517
 10
-1050.221254641229
 20
1910.053524507517
 10
-1050.40413464123
 20
1909.985691507516
 10
-1050.599029641229
 20
1909.936205007516
 10
-1050.805048641229
 20
1909.905897507516
 10
-1051.021296141229
 20
1909.895610507516
 10
-1051.22920064123
 20
1909.905650007516
 10
-1051.429068141229
 20
1909.935174507516
 10
-1051.62015164123
 20
1909.983288507516
 10
-1051.80170864123
 20
1910.049101007516
 10
-1051.973005641229
 20
1910.131716507516
 10
-1052.133295641229
 20
1910.230239507516
 10
-1052.28184064123
 20
1910.343783507516
 10
-1052.41789364123
 20
1910.471448507516
 10
-1052.54071664123
 20
1910.612343507516
 10
-1052.64957164123
 20
1910.765577507516
 10
-1052.743711641229
 20
1910.930250507516
 10
-1052.82239864123
 20
1911.105476007516
 10
-1052.884890141229
 20
1911.290358507516
 10
-1052.930443641229
 20
1911.483998007516
 10
-1052.95832114123
 20
1911.685512507517
 10
-1052.96777564123
 20
1911.894002007516
 10
-1052.959711641229
 20
1912.106595507516
 10
-1052.935843641229
 20
1912.311156507516
 10
-1052.89667564123
 20
1912.507055007516
 10
-1052.84270714123
 20
1912.693665507516
 10
-1052.77443314123
 20
1912.870362507516
 10
-1052.69235764123
 20
1913.036525007516
 10
-1052.59698014123
 20
1913.191518507516
 10
-1052.488795641229
 20
1913.334726507516
 10
-1052.36830814123
 20
1913.465514507516
 10
-1052.236008141229
 20
1913.583261507517
 10
-1052.092408641229
 20
1913.687337507516
 10
-1051.93799564123
 20
1913.777121507516
 10
-1051.773277641229
 20
1913.851983507516
 10
-1051.59874964123
 20
1913.911298007516
 10
-1051.41490664123
 20
1913.954439507516
 10
-1051.222257141229
 20
1913.980787007517
 10
-1051.021296141229
 20
1913.989706007516
 10
-1050.79692164123
 20
1913.978447007517
 10
-1050.58258664123
 20
1913.944814007516
 10
-1050.37871864123
 20
1913.889018507516
 10
-1050.185745141229
 20
1913.811272007516
 10
-1050.00409364123
 20
1913.711795007516
 10
-1049.83418714123
 20
1913.590794507516
 10
-1049.67645314123
 20
1913.448491007516
 10
-1049.53132364123
 20
1913.285091507516
  0
LINE
  5
328
330
2
100
AcDbEntity
  8
0
100
AcDbLine
 10
-1043.541989141193
 20
1950.987494507516
 30
0.0
 11
-1043.541989141193
 21
1952.787494507516
 31
0.0
  0
LINE
  5
329
330
2
100
AcDbEntity
  8
0
100
AcDbLine
 10
-1060.541989141193
 20
1952.787494507516
 30
0.0
 11
-1060.541989141193
 21
1950.987494507516
 31
0.0
  0
LINE
  5
32A
330
2
100
AcDbEntity
  8
0
100
AcDbLine
 10
-1043.541989141193
 20
1952.787494507516
 30
0.0
 11
-1060.541989141193
 21
1952.787494507516
 31
0.0
  0
LINE
  5
32B
330
2
100
AcDbEntity
  8
0
100
AcDbLine
 10
-1044.791989141193
 20
1954.287494507516
 30
0.0
 11
-1043.541989141193
 21
1952.787494507516
 31
0.0
  0
LINE
  5
32C
330
2
100
AcDbEntity
  8
0
100
AcDbLine
 10
-1059.291989141193
 20
1954.287494507516
 30
0.0
 11
-1060.541989141193
 21
1952.787494507516
 31
0.0
  0
LINE
  5
32D
330
2
100
AcDbEntity
  8
0
100
AcDbLine
 10
-1059.291989141193
 20
1954.287494507516
 30
0.0
 11
-1044.791989141193
 21
1954.287494507516
 31
0.0
  0
LINE
  5
32E
330
2
100
AcDbEntity
  8
0
100
AcDbLine
 10
-677.7301040177921
 20
1950.98749450752
 30
0.0
 11
-677.7301040177921
 21
1952.78749450752
 31
0.0
  0
LINE
  5
32F
330
2
100
AcDbEntity
  8
0
100
AcDbLine
 10
-694.7301040177921
 20
1952.78749450752
 30
0.0
 11
-694.7301040177921
 21
1950.98749450752
 31
0.0
  0
LINE
  5
330
330
2
100
AcDbEntity
  8
0
100
AcDbLine
 10
-677.7301040177921
 20
1952.78749450752
 30
0.0
 11
-694.7301040177921
 21
1952.78749450752
 31
0.0
  0
LINE
  5
331
330
2
100
AcDbEntity
  8
0
100
AcDbLine
 10
-678.9801040177922
 20
1954.28749450752
 30
0.0
 11
-677.7301040177921
 21
1952.78749450752
 31
0.0
  0
LINE
  5
332
330
2
100
AcDbEntity
  8
0
100
AcDbLine
 10
-693.4801040177922
 20
1954.28749450752
 30
0.0
 11
-694.7301040177921
 21
1952.78749450752
 31
0.0
  0
LINE
  5
333
330
2
100
AcDbEntity
  8
0
100
AcDbLine
 10
-693.4801040177922
 20
1954.28749450752
 30
0.0
 11
-678.9801040177922
 21
1954.28749450752
 31
0.0
  0
CIRCLE
  5
334
330
2
100
AcDbEntity
  8
03-01
100
AcDbCircle
 10
-1052.041989141193
 20
1920.487494507516
 30
0.0
 40
3.25
  0
LINE
  5
335
330
2
100
AcDbEntity
  8
05-01
100
AcDbLine
 10
-1052.041989141193
 20
1924.737494507516
 30
0.0
 11
-1052.041989141193
 21
1916.237494507516
 31
0.0
  0
LINE
  5
33A
330
2
100
AcDbEntity
  8
05-01
100
AcDbLine
 10
-1056.291989141193
 20
1920.487494507516
 30
0.0
 11
-1047.791989141193
 21
1920.487494507516
 31
0.0
  0
ARC
  5
33B
330
2
100
AcDbEntity
  8
03-01
100
AcDbCircle
 10
-922.0419891411935
 20
1715.487494507516
 30
0.0
 40
6.25
100
AcDbArc
 50
113.5781784782071
 51
66.42182152179286
  0
LINE
  5
33C
330
2
100
AcDbEntity
  8
05-01
100
AcDbLine
 10
-914.7919891411936
 20
1715.487494507516
 30
0.0
 11
-929.2919891411937
 21
1715.487494507516
 31
0.0
  0
LINE
  5
33D
330
2
100
AcDbEntity
  8
05-01
100
AcDbLine
 10
-918.5419891411937
 20
1727.487494507516
 30
0.0
 11
-925.5419891411936
 21
1727.487494507516
 31
0.0
  0
LINE
  5
33E
330
2
100
AcDbEntity
  8
03-01
100
AcDbLine
 10
-919.5419891411937
 20
1727.487494507516
 30
0.0
 11
-919.5419891411937
 21
1721.215714126211
 31
0.0
  0
LINE
  5
33F
330
2
100
AcDbEntity
  8
01-01
100
AcDbLine
 10
-922.0419891411935
 20
1729.987494507516
 30
0.0
 11
-922.0419891411935
 21
1729.987494507516
 31
0.0
  0
ARC
  5
343
330
2
100
AcDbEntity
  8
03-01
100
AcDbCircle
 10
-922.0419891411935
 20
1727.487494507516
 30
0.0
 40
2.5
100
AcDbArc
 50
0.0
 51
180.0
  0
LINE
  5
344
330
2
100
AcDbEntity
  8
03-01
100
AcDbLine
 10
-924.5419891411936
 20
1721.215714126211
 30
0.0
 11
-924.5419891411936
 21
1727.487494507516
 31
0.0
  0
LINE
  5
345
330
2
100
AcDbEntity
  8
05-01
100
AcDbLine
 10
-922.0419891411935
 20
1730.987494507516
 30
0.0
 11
-922.0419891411935
 21
1708.237494507516
 31
0.0
  0
ARC
  5
346
330
2
100
AcDbEntity
  8
03-01
100
AcDbCircle
 10
-1182.041989141193
 20
1715.487494507516
 30
0.0
 40
6.25
100
AcDbArc
 50
113.5781784782071
 51
66.42182152179286
  0
LINE
  5
347
330
2
100
AcDbEntity
  8
05-01
100
AcDbLine
 10
-1189.291989141193
 20
1715.487494507516
 30
0.0
 11
-1174.791989141193
 21
1715.487494507516
 31
0.0
  0
LINE
  5
348
330
2
100
AcDbEntity
  8
05-01
100
AcDbLine
 10
-1185.541989141193
 20
1727.487494507516
 30
0.0
 11
-1178.541989141193
 21
1727.487494507516
 31
0.0
  0
LINE
  5
349
330
2
100
AcDbEntity
  8
03-01
100
AcDbLine
 10
-1184.541989141193
 20
1727.487494507516
 30
0.0
 11
-1184.541989141193
 21
1721.215714126211
 31
0.0
  0
LINE
  5
34A
330
2
100
AcDbEntity
  8
01-01
100
AcDbLine
 10
-1182.041989141193
 20
1729.987494507516
 30
0.0
 11
-1182.041989141193
 21
1729.987494507516
 31
0.0
  0
ARC
  5
34B
330
2
100
AcDbEntity
  8
03-01
100
AcDbCircle
 10
-1182.041989141193
 20
1727.487494507516
 30
0.0
 40
2.5
100
AcDbArc
 50
0.0
 51
180.0
  0
LINE
  5
34C
330
2
100
AcDbEntity
  8
03-01
100
AcDbLine
 10
-1179.541989141193
 20
1721.21571412621
 30
0.0
 11
-1179.541989141193
 21
1727.487494507516
 31
0.0
  0
LINE
  5
34D
330
2
100
AcDbEntity
  8
05-01
100
AcDbLine
 10
-1182.041989141193
 20
1730.987494507516
 30
0.0
 11
-1182.041989141193
 21
1708.237494507516
 31
0.0
  0
ARC
  5
34E
330
2
100
AcDbEntity
  8
03-01
100
AcDbCircle
 10
-922.0419891411935
 20
1920.487494507517
 30
0.0
 40
6.25
100
AcDbArc
 50
113.5781784782071
 51
66.42182152179286
  0
LINE
  5
34F
330
2
100
AcDbEntity
  8
05-01
100
AcDbLine
 10
-914.7919891411936
 20
1920.487494507517
 30
0.0
 11
-929.2919891411937
 21
1920.487494507517
 31
0.0
  0
LINE
  5
350
330
2
100
AcDbEntity
  8
05-01
100
AcDbLine
 10
-918.5419891411937
 20
1932.487494507516
 30
0.0
 11
-925.5419891411936
 21
1932.487494507516
 31
0.0
  0
LINE
  5
351
330
2
100
AcDbEntity
  8
03-01
100
AcDbLine
 10
-919.5419891411937
 20
1932.487494507516
 30
0.0
 11
-919.5419891411937
 21
1926.215714126212
 31
0.0
  0
LINE
  5
352
330
2
100
AcDbEntity
  8
03-01
100
AcDbLine
 10
-922.0419891411935
 20
1934.987494507517
 30
0.0
 11
-922.0419891411935
 21
1934.987494507517
 31
0.0
  0
ARC
  5
353
330
2
100
AcDbEntity
  8
03-01
100
AcDbCircle
 10
-922.0419891411935
 20
1932.487494507516
 30
0.0
 40
2.5
100
AcDbArc
 50
0.0
 51
180.0
  0
LINE
  5
354
330
2
100
AcDbEntity
  8
03-01
100
AcDbLine
 10
-924.5419891411936
 20
1926.215714126211
 30
0.0
 11
-924.5419891411936
 21
1932.487494507516
 31
0.0
  0
LINE
  5
355
330
2
100
AcDbEntity
  8
05-01
100
AcDbLine
 10
-922.0419891411935
 20
1935.987494507516
 30
0.0
 11
-922.0419891411935
 21
1913.237494507516
 31
0.0
  0
ARC
  5
356
330
2
100
AcDbEntity
  8
03-01
100
AcDbCircle
 10
-1182.041989141193
 20
1920.487494507516
 30
0.0
 40
6.25
100
AcDbArc
 50
113.5781784782071
 51
66.42182152179286
  0
LINE
  5
357
330
2
100
AcDbEntity
  8
05-01
100
AcDbLine
 10
-1189.291989141193
 20
1920.487494507516
 30
0.0
 11
-1174.791989141193
 21
1920.487494507516
 31
0.0
  0
LINE
  5
358
330
2
100
AcDbEntity
  8
05-01
100
AcDbLine
 10
-1185.541989141193
 20
1932.487494507516
 30
0.0
 11
-1178.541989141193
 21
1932.487494507516
 31
0.0
  0
LINE
  5
359
330
2
100
AcDbEntity
  8
03-01
100
AcDbLine
 10
-1184.541989141193
 20
1932.487494507516
 30
0.0
 11
-1184.541989141193
 21
1926.215714126211
 31
0.0
  0
LINE
  5
35A
330
2
100
AcDbEntity
  8
01-01
100
AcDbLine
 10
-1182.041989141193
 20
1934.987494507516
 30
0.0
 11
-1182.041989141193
 21
1934.987494507516
 31
0.0
  0
ARC
  5
35B
330
2
100
AcDbEntity
  8
03-01
100
AcDbCircle
 10
-1182.041989141193
 20
1932.487494507516
 30
0.0
 40
2.5
100
AcDbArc
 50
0.0
 51
180.0
  0
LINE
  5
35C
330
2
100
AcDbEntity
  8
03-01
100
AcDbLine
 10
-1179.541989141193
 20
1926.215714126211
 30
0.0
 11
-1179.541989141193
 21
1932.487494507516
 31
0.0
  0
LINE
  5
35D
330
2
100
AcDbEntity
  8
05-01
100
AcDbLine
 10
-1182.041989141193
 20
1935.987494507516
 30
0.0
 11
-1182.041989141193
 21
1913.237494507515
 31
0.0
  0
DIMENSION
  5
35E
330
2
100
AcDbEntity
  8
09-01
100
AcDbDimension
280
     0
  2
*D4
 10
-1256.969637567095
 20
1652.987494507517
 30
0.0
 11
-1268.351799913616
 21
1801.987494507516
 31
0.0
 71
     5
 42
297.9999999999989
 73
     0
 74
     0
 75
     0
  3
Wagner$0
100
AcDbAlignedDimension
 13
-1201.041989141193
 23
1950.987494507516
 33
0.0
 14
-1201.041989141193
 24
1652.987494507517
 34
0.0
 50
90.0
100
AcDbRotatedDimension
1001
ACAD
1000
DSTYLE
1002
{
1070
    40
1040
5.0
1002
}
  0
LINE
  5
36B
330
2
100
AcDbEntity
  8
05-01
100
AcDbLine
 10
-1052.041989141193
 20
1503.876832201194
 30
0.0
 11
-1052.041989141193
 21
1525.376832201194
 31
0.0
  0
LINE
  5
36C
330
2
100
AcDbEntity
  8
05-01
100
AcDbLine
 10
-1062.541989141193
 20
1514.376832201194
 30
0.0
 11
-1041.541989141193
 21
1514.376832201194
 31
0.0
  0
CIRCLE
  5
36D
330
2
100
AcDbEntity
  8
0
100
AcDbCircle
 10
-1052.041989141193
 20
1514.376832201194
 30
0.0
 40
8.5
  0
CIRCLE
  5
36E
330
2
100
AcDbEntity
  8
0
100
AcDbCircle
 10
-1052.041989141193
 20
1514.376832201194
 30
0.0
 40
5.799999999999999
  0
LINE
  5
36F
330
2
100
AcDbEntity
  8
0
100
AcDbLine
 10
-1053.291989141193
 20
1511.18140403915
 30
0.0
 11
-1050.791989141193
 21
1511.18140403915
 31
0.0
  0
LINE
  5
370
330
2
100
AcDbEntity
  8
0
100
AcDbLine
 10
-1053.291989141193
 20
1519.176832201194
 30
0.0
 11
-1050.791989141193
 21
1519.176832201194
 31
0.0
  0
LWPOLYLINE
  5
371
330
2
100
AcDbEntity
  8
0
100
AcDbPolyline
 90
        2
 70
     0
 43
0.0
 10
-1053.291989141193
 20
1517.37544067508
 10
-1053.291989141193
 20
1519.176832201194
  0
LWPOLYLINE
  5
372
330
2
100
AcDbEntity
  8
0
100
AcDbPolyline
 90
        2
 70
     0
 43
0.0
 10
-1053.291989141193
 20
1511.18140403915
 10
-1053.291989141193
 20
1513.045313656158
  0
LWPOLYLINE
  5
373
330
2
100
AcDbEntity
  8
0
100
AcDbPolyline
 90
        2
 70
     0
 43
0.0
 10
-1050.791989141193
 20
1517.37544067508
 10
-1050.791989141193
 20
1519.176832201194
  0
LWPOLYLINE
  5
374
330
2
100
AcDbEntity
  8
0
100
AcDbPolyline
 90
        2
 70
     0
 43
0.0
 10
-1050.791989141193
 20
1511.18140403915
 10
-1050.791989141193
 20
1513.045313656158
  0
ARC
  5
375
330
2
100
AcDbEntity
  8
0
100
AcDbCircle
 10
-1052.041989141193
 20
1515.210377165619
 30
0.0
 40
2.5
100
AcDbArc
 50
299.9999999999961
 51
60.00000000000391
  0
ARC
  5
376
330
2
100
AcDbEntity
  8
0
100
AcDbCircle
 10
-1052.041989141193
 20
1515.210377165619
 30
0.0
 40
2.5
100
AcDbArc
 50
119.9999999999961
 51
240.0000000000039
  0
CIRCLE
  5
377
330
2
100
AcDbEntity
  8
0
100
AcDbCircle
 10
-1052.041989141193
 20
1514.376832201194
 30
0.0
 40
6.75
  0
CIRCLE
  5
378
330
2
100
AcDbEntity
  8
0
100
AcDbCircle
 10
-1052.041989141193
 20
1514.376832201194
 30
0.0
 40
7.25
  0
LINE
  5
379
330
2
100
AcDbEntity
  8
09-01
100
AcDbLine
 10
-903.0419891411936
 20
1652.987494507517
 30
0.0
 11
-903.0419891411934
 21
1950.987494507517
 31
0.0
  0
LINE
  5
37A
330
2
100
AcDbEntity
  8
09-01
100
AcDbLine
 10
-1201.041989141193
 20
1949.487494507517
 30
0.0
 11
-1201.041989141193
 21
1950.987494507516
 31
0.0
  0
LINE
  5
37B
330
2
100
AcDbEntity
  8
09-01
100
AcDbLine
 10
-903.0419891411934
 20
1950.987494507517
 30
0.0
 11
-1201.041989141193
 21
1950.987494507516
 31
0.0
  0
DIMENSION
  5
37C
330
2
100
AcDbEntity
  8
09-01
100
AcDbDimension
280
     0
  2
*D3
 10
-903.0419891411934
 20
2006.173345581862
 30
0.0
 11
-1052.041989141193
 21
2017.555507928383
 31
0.0
 71
     5
 42
298.0
 73
     0
 74
     0
 75
     0
  3
Wagner$0
100
AcDbAlignedDimension
 13
-1201.041989141193
 23
1950.987494507516
 33
0.0
 14
-903.0419891411934
 24
1950.987494507517
 34
0.0
100
AcDbRotatedDimension
1001
ACAD
1000
DSTYLE
1002
{
1070
    40
1040
5.0
1002
}
  0
LINE
  5
389
330
2
100
AcDbEntity
  8
09-01
100
AcDbLine
 10
-1201.041989141193
 20
1545.876832201194
 30
0.0
 11
-903.0419891411934
 21
1545.876832201194
 31
0.0
  0
ARC
  5
38A
330
2
100
AcDbEntity
  8
09-01
100
AcDbCircle
 10
-710.7301040177921
 20
1661.329769655676
 30
0.0
 40
7.0
100
AcDbArc
 50
180.0
 51
280.0000000000053
  0
LINE
  5
38B
330
2
100
AcDbEntity
  8
09-01
100
AcDbLine
 10
-717.7301040177922
 20
1652.987494507516
 30
0.0
 11
-596.7301040177922
 21
1674.32305917324
 31
0.0
  0
LINE
  5
38C
330
2
100
AcDbEntity
  8
09-01
100
AcDbLine
 10
-1201.041989141193
 20
1652.987494507517
 30
0.0
 11
-1201.041989141193
 21
1949.487494507517
 31
0.0
  0
LINE
  5
38D
330
2
100
AcDbEntity
  8
09-01
100
AcDbLine
 10
-717.7301040177922
 20
1950.987494507517
 30
0.0
 11
-717.7301040177922
 21
1652.987494507516
 31
0.0
  0
LINE
  5
38E
330
2
100
AcDbEntity
  8
09-01
100
AcDbLine
 10
-596.7301040177922
 20
1950.987494507517
 30
0.0
 11
-596.7301040177922
 21
1674.32305917324
 31
0.0
  0
LINE
  5
38F
330
2
100
AcDbEntity
  8
09-01
100
AcDbLine
 10
-717.7301040177922
 20
1950.987494507517
 30
0.0
 11
-596.7301040177922
 21
1950.987494507517
 31
0.0
  0
LINE
  5
390
330
2
100
AcDbEntity
  8
09-01
100
AcDbLine
 10
-1201.041989141193
 20
1545.876832201194
 30
0.0
 11
-1201.041989141193
 21
1424.876832201194
 31
0.0
  0
LINE
  5
391
330
2
100
AcDbEntity
  8
09-01
100
AcDbLine
 10
-903.0419891411934
 20
1424.876832201194
 30
0.0
 11
-903.0419891411934
 21
1545.876832201194
 31
0.0
  0
LINE
  5
392
330
2
100
AcDbEntity
  8
09-01
100
AcDbLine
 10
-1201.041989141193
 20
1424.876832201194
 30
0.0
 11
-903.0419891411934
 21
1424.876832201194
 31
0.0
  0
LINE
  5
393
330
2
100
AcDbEntity
  8
09-01
100
AcDbLine
 10
-947.1419891411938
 20
1652.987494507517
 30
0.0
 11
-903.0419891411936
 21
1652.987494507517
 31
0.0
  0
LINE
  5
394
330
2
100
AcDbEntity
  8
09-01
100
AcDbLine
 10
-1037.041989476473
 20
1652.987494507517
 30
0.0
 11
-977.1419891411936
 21
1652.987494507517
 31
0.0
  0
LINE
  5
395
330
2
100
AcDbEntity
  8
09-01
100
AcDbLine
 10
-1127.141989141194
 20
1652.987494507517
 30
0.0
 11
-1067.041988805921
 21
1652.987494507517
 31
0.0
  0
LINE
  5
396
330
2
100
AcDbEntity
  8
09-01
100
AcDbLine
 10
-1201.041989141193
 20
1652.987494507517
 30
0.0
 11
-1157.141989141194
 21
1652.987494507517
 31
0.0
  0
LINE
  5
397
330
2
100
AcDbEntity
  8
09-01
100
AcDbLine
 10
-1054.541989141193
 20
1764.26919164823
 30
0.0
 11
-1054.541989141193
 21
1713.269191648231
 31
0.0
  0
LINE
  5
398
330
2
100
AcDbEntity
  8
09-01
100
AcDbLine
 10
-1049.541989141193
 20
1713.269191648231
 30
0.0
 11
-1049.541989141193
 21
1764.26919164823
 31
0.0
  0
ARC
  5
399
330
2
100
AcDbEntity
  8
09-01
100
AcDbCircle
 10
-1052.041989141193
 20
1713.269191648231
 30
0.0
 40
2.5
100
AcDbArc
 50
180.0
 51
0.0
  0
ARC
  5
39A
330
2
100
AcDbEntity
  8
09-01
100
AcDbCircle
 10
-1052.041989141193
 20
1764.26919164823
 30
0.0
 40
2.5
100
AcDbArc
 50
0.0
 51
180.0
  0
LINE
  5
39B
330
2
100
AcDbEntity
  8
09-01
100
AcDbLine
 10
-1199.241989141193
 20
1545.876832201194
 30
0.0
 11
-904.8419891411937
 21
1545.876832201194
 31
0.0
  0
INSERT
  5
39C
330
2
100
AcDbEntity
  8
09-01
100
AcDbBlockReference
 66
     1
  2
DIN A4 Quer
 10
-1485.000009453552
 20
1049.999997406254
 30
0.0
 41
5.0
 42
5.0
 43
5.0
  0
ATTRIB
  5
413
330
39C
100
AcDbEntity
  8
06-99
100
AcDbText
 10
-467.522766304115
 20
1180.939193486411
 30
0.0
 40
22.50000000000001
  1
Handpflege Kombination WP575
 41
0.8
  7
ROMANS8
100
AcDbAttribute
280
     0
  2
TEILE
 70
     0
280
     0
  0
ATTRIB
  5
414
330
39C
100
AcDbEntity
  8
06-99
100
AcDbText
 10
-467.522766304115
 20
1144.75301742458
 30
0.0
 40
22.50000000000001
  1

 41
0.9
  7
ROMANS8
100
AcDbAttribute
280
     0
  2
TEILE2
 70
     0
280
     0
  0
ATTRIB
  5
415
330
39C
100
AcDbEntity
  8
06-99
100
AcDbText
 10
-93.2630689414284
 20
1276.666666666666
 30
0.0
 40
16.875
  1
1:5
  7
ROMANS8
100
AcDbAttribute
280
     0
  2
:
 70
     0
280
     0
  0
ATTRIB
  5
416
330
39C
100
AcDbEntity
  8
06-99
100
AcDbText
 10
-585.0146610031633
 20
1187.208427340156
 30
0.0
 40
12.5
  1
Pfrepper
 41
0.9000000000000001
  7
ROMANS8
100
AcDbAttribute
280
     0
  2
NAME
 70
     0
280
     0
  0
ATTRIB
  5
417
330
39C
100
AcDbEntity
  8
06-99
100
AcDbText
 10
-652.5342677405317
 20
1187.306175870556
 30
0.0
 40
12.5
  1
06.12.2016
 50
359.9144597696134
 41
0.5725543448526872
  7
ROMANS8
 72
     5
 11
-596.3013143978062
 21
1187.222222333332
 31
0.0
100
AcDbAttribute
280
     0
  2
DATUM
 70
     0
280
     0
  0
ATTRIB
  5
418
330
39C
100
AcDbEntity
  8
06-99
100
AcDbText
 10
-157.4682801642086
 20
1087.464499001443
 30
0.0
 40
14.9688
  1
727730
  7
ROMANS8
100
AcDbAttribute
280
     0
  2
ID.NR
 70
     0
280
     0
  0
ATTRIB
  5
419
330
39C
100
AcDbEntity
  8
06-99
100
AcDbText
 10
-466.3436687214482
 20
1238.333333222222
 30
0.0
 40
15.0
  1

 41
0.9000000000000001
  7
ROMANS8
100
AcDbAttribute
280
     0
  2
LÄNGE
 70
     0
280
     0
  0
ATTRIB
  5
41A
330
39C
100
AcDbEntity
  8
06-99
100
AcDbText
 10
-299.0959754411517
 20
1238.390519352223
 30
0.0
 40
15.0
  1

 41
0.9000000000000001
  7
ROMANS8
100
AcDbAttribute
280
     0
  2
BREITE
 70
     0
280
     0
  0
ATTRIB
  5
41B
330
39C
100
AcDbEntity
  8
06-99
100
AcDbText
 10
-96.95453936634022
 20
1238.333333333333
 30
0.0
 40
15.46875
  1

  7
ROMANS8
100
AcDbAttribute
280
     0
  2
1.0
 70
     0
280
     0
  0
ATTRIB
  5
41C
330
39C
100
AcDbEntity
  8
06-99
100
AcDbText
 10
-229.3610719929859
 20
1276.666666666667
 30
0.0
 40
15.0
  1

  7
ROMANS8
 72
     1
 11
-229.3610719929859
 21
1276.666666666667
 31
0.0
100
AcDbAttribute
280
     0
  2
IV
 70
     0
280
     0
  0
ATTRIB
  5
41D
330
39C
100
AcDbEntity
  8
06-99
100
AcDbText
 10
-433.6262973194216
 20
1276.666666666666
 30
0.0
 40
16.875
  1
1.4404
  7
ROMANS8
100
AcDbAttribute
280
     0
  2
1.4301
 70
     0
280
     0
  0
ATTRIB
  5
41E
330
39C
100
AcDbEntity
  8
06-99
100
AcDbText
 10
-319.9968305656023
 20
1087.521983021772
 30
0.0
 40
15.84
  1

 41
0.9000000000000005
  7
ROMANS8
100
AcDbAttribute
280
     0
  2
AUFTRAGS.NR.
 70
     0
280
     0
  0
ATTRIB
  5
41F
330
39C
100
AcDbEntity
  8
06-99
100
AcDbText
 10
-467.4999999999999
 20
1087.5
 30
0.0
 40
15.84
  1

 41
0.9000000000000005
  7
ROMANS8
100
AcDbAttribute
280
     0
  2
SONDER-NR
 70
     0
280
     0
  0
ATTRIB
  5
420
330
39C
100
AcDbEntity
  8
06-99
100
AcDbText
 10
-817.501245024958
 20
1083.009050346298
 30
0.0
 40
7.500000000000002
  1

 41
0.9000000000000001
  7
ROMANS8
100
AcDbAttribute
280
     0
  2
ERSETZT.DURCH
 70
     0
280
     0
  0
ATTRIB
  5
421
330
39C
100
AcDbEntity
  8
06-99
100
AcDbText
 10
-942.5026610990091
 20
1082.987281989361
 30
0.0
 40
7.500000000000002
  1

 41
0.9000000000000001
  7
ROMANS8
100
AcDbAttribute
280
     0
  2
ERSETZT.FÜR
 70
     0
280
     0
  0
ATTRIB
  5
422
330
39C
100
AcDbEntity
  8
06-99
100
AcDbText
 10
-550.1346367678134
 20
1288.34255570004
 30
0.0
 40
6.435000000000002
  1
DIN A4
  7
ROMANS8
 72
     1
 11
-533.7407081963848
 21
1288.34255570004
 31
0.0
100
AcDbAttribute
280
     0
  2
FORMAT
 70
     0
280
     0
  0
ATTRIB
  5
423
330
39C
100
AcDbEntity
  8
06-99
100
AcDbText
 10
-570.0459038922328
 20
1236.593040896883
 30
0.0
 40
11.7
  1
DIN 2768
  7
ROMANS8
 72
     1
 11
-529.9316181779471
 21
1236.593040896883
 31
0.0
100
AcDbAttribute
280
     0
  2
NORM2
 70
     0
280
     0
  0
ATTRIB
  5
424
330
39C
100
AcDbEntity
  8
06-99
100
AcDbText
 10
-585.9244753208031
 20
1255.75970756355
 30
0.0
 40
11.7
  1
DIN 6930-M
  7
ROMANS8
 72
     1
 11
-532.4387610350888
 21
1255.75970756355
 31
0.0
100
AcDbAttribute
280
     0
  2
NORM1
 70
     0
280
     0
  0
SEQEND
  5
425
330
39C
100
AcDbEntity
  8
09-01
  0
ENDSEC
  0
SECTION
  2
OBJECTS
  0
DICTIONARY
  5
B
330
0
100
AcDbDictionary
281
     1
  3
ACAD_COLOR
350
4B
  3
ACAD_GROUP
350
38
  3
ACAD_LAYOUT
350
18
  3
ACAD_MATERIAL
350
D
  3
ACAD_MLEADERSTYLE
350
4E
  3
ACAD_MLINESTYLE
350
39
  3
ACAD_PLOTSETTINGS
350
3A
  3
ACAD_PLOTSTYLENAME
350
A
  3
ACAD_SCALELIST
350
4C
  3
ACAD_TABLESTYLE
350
4D
  3
ACAD_VISUALSTYLE
350
2F
  3
ACDB_RECOMPOSE_DATA
350
432
  3
AcDbVariableDictionary
350
428
  0
DICTIONARY
  5
30
330
2C
100
AcDbDictionary
280
     1
281
     1
  0
DICTIONARY
  5
21
330
20
100
AcDbDictionary
280
     1
281
     1
  3
ACAD_LAYERSTATES
360
22
  0
DICTIONARY
  5
7
330
6
100
AcDbDictionary
280
     1
281
     1
  3
ADSK_XREC_LAYER_RECONCILED
360
8
  0
DICTIONARY
  5
341
330
340
100
AcDbDictionary
280
     1
281
     1
  3
ADSK_XREC_LAYER_RECONCILED
360
342
  0
DICTIONARY
  5
3A8
330
3A7
100
AcDbDictionary
280
     1
281
     1
  3
ADSK_XREC_LAYER_RECONCILED
360
3A9
  0
DICTIONARY
  5
C0
330
BF
100
AcDbDictionary
280
     1
281
     1
  3
ADSK_XREC_LAYER_RECONCILED
360
C1
  0
DICTIONARY
  5
337
330
336
100
AcDbDictionary
280
     1
281
     1
  3
ADSK_XREC_LAYER_RECONCILED
360
338
  0
DICTIONARY
  5
50
330
4F
100
AcDbDictionary
280
     1
281
     1
  3
ADSK_XREC_LAYER_RECONCILED
360
51
  0
DICTIONARY
  5
3A3
330
3A2
100
AcDbDictionary
280
     1
281
     1
  3
ADSK_XREC_LAYER_RECONCILED
360
3A4
  0
DICTIONARY
  5
3E3
330
3E2
100
AcDbDictionary
280
     1
281
     1
  3
ADSK_XREC_LAYER_RECONCILED
360
3E4
  0
DICTIONARY
  5
3CD
330
3CC
100
AcDbDictionary
280
     1
281
     1
  3
ADSK_XREC_LAYER_RECONCILED
360
3CE
  0
DICTIONARY
  5
318
330
317
100
AcDbDictionary
280
     1
281
     1
  0
DICTIONARY
  5
3
330
2
100
AcDbDictionary
280
     1
281
     1
  3
ACAD_SORTENTS
360
427
  0
DICTIONARY
  5
39E
330
39D
100
AcDbDictionary
280
     1
281
     1
  3
ACAD_SORTENTS
360
426
  0
DICTIONARY
  5
4B
102
{ACAD_REACTORS
330
B
102
}
330
B
100
AcDbDictionary
281
     1
  0
DICTIONARY
  5
38
102
{ACAD_REACTORS
330
B
102
}
330
B
100
AcDbDictionary
281
     1
  0
DICTIONARY
  5
18
102
{ACAD_REACTORS
330
B
102
}
330
B
100
AcDbDictionary
281
     1
  3
Layout1
350
1F
  3
Model
350
17
  0
DICTIONARY
  5
D
102
{ACAD_REACTORS
330
B
102
}
330
B
100
AcDbDictionary
281
     1
  3
ByBlock
350
43
  3
ByLayer
350
3B
  3
Global
350
C
  0
DICTIONARY
  5
4E
102
{ACAD_REACTORS
330
B
102
}
330
B
100
AcDbDictionary
281
     1
  0
DICTIONARY
  5
39
102
{ACAD_REACTORS
330
B
102
}
330
B
100
AcDbDictionary
281
     1
  3
Standard
350
52
  0
DICTIONARY
  5
3A
102
{ACAD_REACTORS
330
B
102
}
330
B
100
AcDbDictionary
281
     1
  0
ACDBDICTIONARYWDFLT
  5
A
102
{ACAD_REACTORS
330
B
102
}
330
B
100
AcDbDictionary
281
     1
  3
Normal
350
9
100
AcDbDictionaryWithDefault
340
9
  0
DICTIONARY
  5
4C
102
{ACAD_REACTORS
330
B
102
}
330
B
100
AcDbDictionary
281
     1
  3
A0
350
57
  3
A1
350
58
  3
A2
350
59
  3
A3
350
5A
  3
A4
350
5B
  3
A5
350
5C
  3
A6
350
5D
  3
A7
350
5E
  3
A8
350
5F
  3
A9
350
60
  3
B0
350
61
  3
B1
350
62
  3
B2
350
63
  3
B3
350
64
  3
B4
350
65
  3
B5
350
66
  3
B6
350
67
  3
B7
350
68
  3
B8
350
69
  3
B9
350
6A
  3
C0
350
6B
  3
C1
350
6C
  3
C2
350
6D
  3
C3
350
6E
  3
C4
350
6F
  3
C5
350
70
  3
C6
350
71
  3
C7
350
72
  3
C8
350
73
  3
C9
350
74
  3
D0
350
75
  3
D1
350
76
  3
D2
350
77
  0
DICTIONARY
  5
4D
102
{ACAD_REACTORS
330
B
102
}
330
B
100
AcDbDictionary
281
     1
  3
Standard
350
53
  0
DICTIONARY
  5
2F
102
{ACAD_REACTORS
330
B
102
}
330
B
100
AcDbDictionary
281
     1
  3
2dWireframe
350
2E
  3
3dWireframe
350
56
  3
Realistic
350
55
  0
XRECORD
  5
432
102
{ACAD_REACTORS
330
B
102
}
330
B
100
AcDbXrecord
280
     1
 90
        1
330
53
  0
DICTIONARY
  5
428
102
{ACAD_REACTORS
330
B
102
}
330
B
100
AcDbDictionary
281
     1
  3
CANNOSCALE
350
42C
  3
CMLEADERSTYLE
350
42A
  3
CTABLESTYLE
350
429
  3
LAYEREVAL
350
42E
  3
LAYERNOTIFY
350
42F
  3
LIGHTINGUNITS
350
42D
  3
MSLTSCALE
350
42B
  0
DICTIONARY
  5
22
102
{ACAD_REACTORS
330
21
102
}
330
21
100
AcDbDictionary
281
     1
  0
XRECORD
  5
8
102
{ACAD_REACTORS
330
7
102
}
330
7
100
AcDbXrecord
280
     1
290
     1
  0
XRECORD
  5
342
102
{ACAD_REACTORS
330
341
102
}
330
341
100
AcDbXrecord
280
     1
290
     1
  0
XRECORD
  5
3A9
102
{ACAD_REACTORS
330
3A8
102
}
330
3A8
100
AcDbXrecord
280
     1
290
     1
  0
XRECORD
  5
C1
102
{ACAD_REACTORS
330
C0
102
}
330
C0
100
AcDbXrecord
280
     1
290
     1
  0
XRECORD
  5
338
102
{ACAD_REACTORS
330
337
102
}
330
337
100
AcDbXrecord
280
     1
290
     1
  0
XRECORD
  5
51
102
{ACAD_REACTORS
330
50
102
}
330
50
100
AcDbXrecord
280
     1
290
     1
  0
XRECORD
  5
3A4
102
{ACAD_REACTORS
330
3A3
102
}
330
3A3
100
AcDbXrecord
280
     1
290
     1
  0
XRECORD
  5
3E4
102
{ACAD_REACTORS
330
3E3
102
}
330
3E3
100
AcDbXrecord
280
     1
290
     1
  0
XRECORD
  5
3CE
102
{ACAD_REACTORS
330
3CD
102
}
330
3CD
100
AcDbXrecord
280
     1
290
     1
  0
SORTENTSTABLE
  5
427
102
{ACAD_REACTORS
330
3
102
}
330
3
100
AcDbSortentsTable
330
2
331
37B
  5
CD
331
296
  5
1A5
331
292
  5
1A9
331
30C
  5
127
331
347
  5
F5
331
28E
  5
1AD
331
308
  5
12B
331
304
  5
12F
331
343
  5
F9
331
28A
  5
1B1
331
1A6
  5
295
331
300
  5
133
331
1A2
  5
299
331
1DD
  5
25E
331
19E
  5
29D
331
12D
  5
306
331
1D9
  5
262
331
214
  5
1E5
331
129
  5
30A
331
EE
  5
34E
331
19A
  5
2A1
331
EA
  5
352
331
125
  5
30E
331
164
  5
2AF
331
121
  5
312
331
160
  5
2B3
331
377
  5
D1
331
373
  5
D5
331
36F
  5
D9
331
36B
  5
DD
331
33F
  5
FA
331
286
  5
1B5
331
282
  5
1B9
331
2FC
  5
137
331
33B
  5
FE
331
27E
  5
1BD
331
2F8
  5
13B
331
2F4
  5
13F
331
333
  5
102
331
27A
  5
1C1
331
2F0
  5
143
331
196
  5
2A5
331
1D5
  5
266
331
E6
  5
356
331
192
  5
2A9
331
1D1
  5
26A
331
15C
  5
2D7
331
E2
  5
35A
331
11D
  5
316
331
1CD
  5
26E
331
1C9
  5
272
331
119
  5
31C
331
158
  5
2DB
331
9F
  5
395
331
DE
  5
35E
331
DA
  5
36E
331
115
  5
320
331
154
  5
2DF
331
111
  5
324
331
150
  5
2E3
331
39A
  5
7A
331
35B
  5
E1
331
32F
  5
106
331
276
  5
1C5
331
272
  5
1C9
331
2B1
  5
162
331
2EC
  5
147
331
32B
  5
10A
331
327
  5
10E
331
26E
  5
1CD
331
2AD
  5
166
331
2E8
  5
14B
331
2E4
  5
14F
331
323
  5
112
331
26A
  5
1D1
331
2A9
  5
192
331
2E0
  5
153
331
1C5
  5
276
331
D6
  5
372
331
1C1
  5
27A
331
1F8
  5
1E9
331
14C
  5
2E7
331
D2
  5
376
331
10D
  5
328
331
1BD
  5
27E
331
1B9
  5
282
331
1F4
  5
1ED
331
148
  5
2EB
331
8F
  5
396
331
CE
  5
37A
331
109
  5
32C
331
CA
  5
38A
331
105
  5
330
331
144
  5
2EF
331
1F0
  5
1F1
331
101
  5
334
331
140
  5
2F3
331
357
  5
E5
331
396
  5
8F
331
353
  5
E9
331
392
  5
BE
331
34F
  5
ED
331
38E
  5
C6
331
38A
  5
CA
331
34B
  5
F1
331
2A5
  5
196
331
31F
  5
116
331
266
  5
1D5
331
262
  5
1D9
331
2A1
  5
19A
331
2DC
  5
157
331
31B
  5
11A
331
25E
  5
1DD
331
29D
  5
19E
331
2D8
  5
15B
331
313
  5
120
331
25A
  5
1E1
331
299
  5
1A2
331
2D4
  5
15F
331
176
  5
2AB
331
1B5
  5
286
331
1B1
  5
28A
331
C6
  5
38E
331
1EC
  5
1F5
331
1AD
  5
28E
331
FD
  5
33C
331
13C
  5
2F7
331
1E8
  5
1F9
331
1A9
  5
292
331
1E4
  5
223
331
223
  5
1E4
331
138
  5
2FB
331
BE
  5
392
331
F9
  5
343
331
1E0
  5
25B
331
F5
  5
347
331
134
  5
2FF
331
7B
  5
399
331
F1
  5
34B
331
130
  5
303
331
37A
  5
CE
331
295
  5
1A6
331
30F
  5
124
331
291
  5
1AA
331
30B
  5
128
331
346
  5
F6
331
28D
  5
1AE
331
307
  5
12C
331
303
  5
130
331
289
  5
1B2
331
1A5
  5
296
331
1A1
  5
29A
331
1DC
  5
25F
331
19D
  5
29E
331
12C
  5
307
331
ED
  5
34F
331
199
  5
2A2
331
1D8
  5
263
331
128
  5
30B
331
167
  5
2AC
331
AE
  5
394
331
E9
  5
353
331
124
  5
30F
331
163
  5
2B0
331
120
  5
313
331
376
  5
D2
331
372
  5
D6
331
36E
  5
DA
331
285
  5
1B6
331
2FF
  5
134
331
33E
  5
FB
331
281
  5
1BA
331
2FB
  5
138
331
33A
  5
FF
331
27D
  5
1BE
331
2F7
  5
13C
331
2F3
  5
140
331
332
  5
103
331
279
  5
1C2
331
195
  5
2A6
331
1D4
  5
267
331
E5
  5
357
331
1D0
  5
26B
331
15F
  5
2D4
331
1CC
  5
26F
331
207
  5
1E6
331
15B
  5
2D8
331
E1
  5
35B
331
11C
  5
319
331
1C8
  5
273
331
118
  5
31D
331
157
  5
2DC
331
DD
  5
36B
331
D9
  5
36F
331
114
  5
321
331
153
  5
2E0
331
110
  5
325
331
35E
  5
DE
331
399
  5
7B
331
35A
  5
E2
331
2EF
  5
144
331
32E
  5
107
331
275
  5
1C6
331
271
  5
1CA
331
2B0
  5
163
331
2EB
  5
148
331
32A
  5
10B
331
326
  5
10F
331
26D
  5
1CE
331
2AC
  5
167
331
2E7
  5
14C
331
2E3
  5
150
331
322
  5
113
331
269
  5
1D2
331
2A8
  5
193
331
1C4
  5
277
331
D5
  5
373
331
1C0
  5
27B
331
14F
  5
2E4
331
1F7
  5
1EA
331
14B
  5
2E8
331
D1
  5
377
331
10C
  5
329
331
1BC
  5
27F
331
1B8
  5
283
331
1F3
  5
1EE
331
108
  5
32D
331
147
  5
2EC
331
CD
  5
37B
331
C9
  5
38B
331
104
  5
331
331
143
  5
2F0
331
100
  5
335
331
356
  5
E6
331
395
  5
9F
331
352
  5
EA
331
391
  5
C3
331
34E
  5
EE
331
38D
  5
C7
331
389
  5
CB
331
34A
  5
F2
331
2A4
  5
197
331
2DF
  5
154
331
31E
  5
117
331
265
  5
1D6
331
261
  5
1DA
331
2A0
  5
19B
331
2DB
  5
158
331
31A
  5
11B
331
316
  5
11D
331
25D
  5
1DE
331
29C
  5
19F
331
2D7
  5
15C
331
312
  5
121
331
298
  5
1A3
331
1B4
  5
287
331
1EF
  5
1F2
331
1B0
  5
28B
331
C5
  5
38F
331
13F
  5
2F4
331
1EB
  5
1F6
331
13B
  5
2F8
331
1E7
  5
1FA
331
FC
  5
33D
331
1AC
  5
28F
331
1A8
  5
293
331
1E3
  5
230
331
137
  5
2FC
331
BD
  5
393
331
F8
  5
344
331
F4
  5
348
331
133
  5
300
331
7A
  5
39A
331
F0
  5
34C
331
379
  5
CF
331
294
  5
1A7
331
30E
  5
125
331
290
  5
1AB
331
30A
  5
129
331
306
  5
12D
331
345
  5
F7
331
28C
  5
1AF
331
302
  5
131
331
288
  5
1B3
331
1A4
  5
297
331
1A0
  5
29B
331
12F
  5
304
331
1DF
  5
25C
331
1DB
  5
260
331
19C
  5
29F
331
12B
  5
308
331
EC
  5
350
331
198
  5
2A3
331
127
  5
30C
331
166
  5
2AD
331
E8
  5
354
331
123
  5
310
331
162
  5
2B1
331
375
  5
D3
331
371
  5
D7
331
36D
  5
DB
331
284
  5
1B7
331
2FE
  5
135
331
33D
  5
FC
331
280
  5
1BB
331
2FA
  5
139
331
335
  5
100
331
27C
  5
1BF
331
2F6
  5
13D
331
2F2
  5
141
331
1D7
  5
264
331
331
  5
104
331
278
  5
1C3
331
194
  5
2A7
331
1D3
  5
268
331
E4
  5
358
331
1CF
  5
26C
331
11F
  5
314
331
15E
  5
2D5
331
1CB
  5
270
331
15A
  5
2D9
331
E0
  5
35C
331
11B
  5
31A
331
DC
  5
36C
331
117
  5
31E
331
156
  5
2DD
331
D8
  5
370
331
113
  5
322
331
152
  5
2E1
331
39C
  5
78
331
35D
  5
DF
331
359
  5
E3
331
398
  5
7C
331
274
  5
1C7
331
2B3
  5
160
331
2EE
  5
145
331
32D
  5
108
331
270
  5
1CB
331
2AF
  5
164
331
2EA
  5
149
331
329
  5
10C
331
325
  5
110
331
26C
  5
1CF
331
2AB
  5
176
331
2E6
  5
14D
331
2E2
  5
151
331
1C7
  5
274
331
321
  5
114
331
268
  5
1D3
331
1C3
  5
278
331
23D
  5
1E2
331
1BF
  5
27C
331
D4
  5
374
331
10F
  5
326
331
14E
  5
2E5
331
1FA
  5
1E7
331
1BB
  5
280
331
1F6
  5
1EB
331
14A
  5
2E9
331
D0
  5
378
331
10B
  5
32A
331
1F2
  5
1EF
331
107
  5
32E
331
146
  5
2ED
331
CC
  5
37C
331
C8
  5
38C
331
103
  5
332
331
142
  5
2F1
331
355
  5
E7
331
394
  5
AE
331
351
  5
EB
331
390
  5
C4
331
38C
  5
C8
331
34D
  5
EF
331
349
  5
F3
331
2A7
  5
194
331
2A3
  5
198
331
2DE
  5
155
331
31D
  5
118
331
264
  5
1D7
331
260
  5
1DB
331
29F
  5
19C
331
2DA
  5
159
331
319
  5
11C
331
315
  5
11E
331
25C
  5
1DF
331
29B
  5
1A0
331
2D6
  5
15D
331
1B7
  5
284
331
311
  5
122
331
1B3
  5
288
331
1EE
  5
1F3
331
1AF
  5
28C
331
C4
  5
390
331
FF
  5
33A
331
13E
  5
2F5
331
1EA
  5
1F7
331
13A
  5
2F9
331
1E6
  5
207
331
FB
  5
33E
331
1AB
  5
290
331
1E2
  5
23D
331
F7
  5
345
331
136
  5
2FD
331
7D
  5
397
331
F3
  5
349
331
132
  5
301
331
79
  5
39B
331
37C
  5
CC
331
378
  5
D0
331
297
  5
1A4
331
293
  5
1A8
331
30D
  5
126
331
28F
  5
1AC
331
309
  5
12A
331
305
  5
12E
331
344
  5
F8
331
28B
  5
1B0
331
1A7
  5
294
331
301
  5
132
331
1A3
  5
298
331
19F
  5
29C
331
12E
  5
305
331
1DE
  5
25D
331
1DA
  5
261
331
12A
  5
309
331
EF
  5
34D
331
19B
  5
2A0
331
EB
  5
351
331
126
  5
30D
331
165
  5
2AE
331
122
  5
311
331
161
  5
2B2
331
374
  5
D4
331
370
  5
D8
331
36C
  5
DC
331
287
  5
1B4
331
283
  5
1B8
331
2FD
  5
136
331
33C
  5
FD
331
27F
  5
1BC
331
2F9
  5
13A
331
2F5
  5
13E
331
334
  5
101
331
27B
  5
1C0
331
2F1
  5
142
331
197
  5
2A4
331
1D6
  5
265
331
330
  5
105
331
E7
  5
355
331
193
  5
2A8
331
1D2
  5
269
331
15D
  5
2D6
331
E3
  5
359
331
11E
  5
315
331
1CE
  5
26D
331
1CA
  5
271
331
159
  5
2DA
331
DF
  5
35D
331
11A
  5
31B
331
DB
  5
36D
331
116
  5
31F
331
155
  5
2DE
331
112
  5
323
331
151
  5
2E2
331
39B
  5
79
331
35C
  5
E0
331
358
  5
E4
331
277
  5
1C4
331
273
  5
1C8
331
2B2
  5
161
331
2ED
  5
146
331
32C
  5
109
331
328
  5
10D
331
26F
  5
1CC
331
2AE
  5
165
331
2E9
  5
14A
331
324
  5
111
331
26B
  5
1D0
331
2AA
  5
183
331
2E5
  5
14E
331
2E1
  5
152
331
1C6
  5
275
331
320
  5
115
331
D7
  5
371
331
183
  5
2AA
331
1C2
  5
279
331
1BE
  5
27D
331
D3
  5
375
331
10E
  5
327
331
14D
  5
2E6
331
1F9
  5
1E8
331
1BA
  5
281
331
1F5
  5
1EC
331
149
  5
2EA
331
CF
  5
379
331
10A
  5
32B
331
CB
  5
389
331
106
  5
32F
331
145
  5
2EE
331
1F1
  5
1F0
331
230
  5
1E3
331
102
  5
333
331
141
  5
2F2
331
397
  5
7D
331
354
  5
E8
331
393
  5
BD
331
350
  5
EC
331
38F
  5
C5
331
38B
  5
C9
331
34C
  5
F0
331
348
  5
F4
331
2A6
  5
195
331
267
  5
1D4
331
263
  5
1D8
331
2A2
  5
199
331
2DD
  5
156
331
31C
  5
119
331
25F
  5
1DC
331
29E
  5
19D
331
2D9
  5
15A
331
314
  5
11F
331
25B
  5
1E0
331
29A
  5
1A1
331
2D5
  5
15E
331
1B6
  5
285
331
310
  5
123
331
1B2
  5
289
331
C7
  5
38D
331
1ED
  5
1F4
331
1AE
  5
28D
331
C3
  5
391
331
FE
  5
33B
331
13D
  5
2F6
331
1E9
  5
1F8
331
1AA
  5
291
331
139
  5
2FA
331
1E5
  5
214
331
FA
  5
33F
331
1E1
  5
25A
331
F6
  5
346
331
135
  5
2FE
331
7C
  5
398
331
F2
  5
34A
331
131
  5
302
331
78
  5
39C
  0
SORTENTSTABLE
  5
426
102
{ACAD_REACTORS
330
39E
102
}
330
39E
100
AcDbSortentsTable
330
39D
  0
LAYOUT
  5
1F
102
{ACAD_REACTORS
330
18
102
}
330
18
100
AcDbPlotSettings
  1

  2
HP LaserJet 4 Plus
  4

  6

 40
0.0
 41
0.0
 42
0.0
 43
0.0
 44
0.0
 45
0.0
 46
0.0
 47
0.0
 48
0.0
 49
0.0
140
0.0
141
0.0
142
1.0
143
1.0
 70
   688
 72
     0
 73
     0
 74
     5
  7
CNC-Soft.ctb
 75
    16
147
1.0
 76
     0
 77
     2
 78
   300
148
0.0
149
0.0
100
AcDbLayout
  1
Layout1
 70
     0
 71
     1
 10
0.0
 20
0.0
 11
12.0
 21
9.0
 12
0.0
 22
0.0
 32
0.0
 14
1.000000000000000E+20
 24
1.000000000000000E+20
 34
1.000000000000000E+20
 15
-1.000000000000000E+20
 25
-1.000000000000000E+20
 35
-1.000000000000000E+20
146
0.0
 13
0.0
 23
0.0
 33
0.0
 16
1.0
 26
0.0
 36
0.0
 17
0.0
 27
1.0
 37
0.0
 76
     0
330
1C
  0
LAYOUT
  5
17
102
{ACAD_XDICTIONARY
360
19
102
}
102
{ACAD_REACTORS
330
18
102
}
330
18
100
AcDbPlotSettings
  1

  2
\\SBS01\KMC364e s/w
  4
A4
  6

 40
5.027082920074462
 41
5.027099609375
 42
5.027069091796875
 43
5.027069091796875
 44
209.9733276367187
 45
296.9259948730469
 46
0.0
 47
0.0
 48
-2620.659277864077
 49
980.4259618784094
140
-1360.659277864202
141
1871.425961878321
142
1.0
143
4.456801090816279
 70
  3760
 72
     1
 73
     1
 74
     4
  7
monochrome.ctb
 75
     0
147
0.2243761791524886
 76
     1
 77
     2
 78
   300
148
2620.659277864077
149
-980.4259618784094
100
AcDbLayout
  1
Model
 70
     1
 71
     0
 10
0.0
 20
0.0
 11
12.0
 21
9.0
 12
0.0
 22
0.0
 32
0.0
 14
0.0
 24
0.0
 34
0.0
 15
0.0
 25
0.0
 35
0.0
146
0.0
 13
0.0
 23
0.0
 33
0.0
 16
1.0
 26
0.0
 36
0.0
 17
0.0
 27
1.0
 37
0.0
 76
     0
330
2
331
2D
1001
ACAD_PSEXT
1000
\\SBS01\KMC364e s/w
1000
KONICA MINOLTA C364SeriesPCL
1000
2.Stock
1000
schwarzweiss
1070
     0
  0
MATERIAL
  5
43
102
{ACAD_XDICTIONARY
360
44
102
}
102
{ACAD_REACTORS
330
D
102
}
330
D
100
AcDbMaterial
  1
ByBlock
 72
     0
 43
0.0208333333333333
 43
0.0
 43
0.0
 43
0.0
 43
0.0
 43
0.0208333333333333
 43
0.0
 43
0.0
 43
0.0
 43
0.0
 43
1.0
 43
0.0
 43
0.0
 43
0.0
 43
0.0
 43
1.0
 77
     0
 47
0.0208333333333333
 47
0.0
 47
0.0
 47
0.0
 47
0.0
 47
0.0208333333333333
 47
0.0
 47
0.0
 47
0.0
 47
0.0
 47
1.0
 47
0.0
 47
0.0
 47
0.0
 47
0.0
 47
1.0
171
     0
 49
0.0208333333333333
 49
0.0
 49
0.0
 49
0.0
 49
0.0
 49
0.0208333333333333
 49
0.0
 49
0.0
 49
0.0
 49
0.0
 49
1.0
 49
0.0
 49
0.0
 49
0.0
 49
0.0
 49
1.0
175
     0
142
0.0208333333333333
142
0.0
142
0.0
142
0.0
142
0.0
142
0.0208333333333333
142
0.0
142
0.0
142
0.0
142
0.0
142
1.0
142
0.0
142
0.0
142
0.0
142
0.0
142
1.0
179
     0
144
0.0208333333333333
144
0.0
144
0.0
144
0.0
144
0.0
144
0.0208333333333333
144
0.0
144
0.0
144
0.0
144
0.0
144
1.0
144
0.0
144
0.0
144
0.0
144
0.0
144
1.0
147
0.0208333333333333
147
0.0
147
0.0
147
0.0
147
0.0
147
0.0208333333333333
147
0.0
147
0.0
147
0.0
147
0.0
147
1.0
147
0.0
147
0.0
147
0.0
147
0.0
147
1.0
  0
MATERIAL
  5
3B
102
{ACAD_XDICTIONARY
360
3C
102
}
102
{ACAD_REACTORS
330
D
102
}
330
D
100
AcDbMaterial
  1
ByLayer
 72
     0
 43
0.0208333333333333
 43
0.0
 43
0.0
 43
0.0
 43
0.0
 43
0.0208333333333333
 43
0.0
 43
0.0
 43
0.0
 43
0.0
 43
1.0
 43
0.0
 43
0.0
 43
0.0
 43
0.0
 43
1.0
 77
     0
 47
0.0208333333333333
 47
0.0
 47
0.0
 47
0.0
 47
0.0
 47
0.0208333333333333
 47
0.0
 47
0.0
 47
0.0
 47
0.0
 47
1.0
 47
0.0
 47
0.0
 47
0.0
 47
0.0
 47
1.0
171
     0
 49
0.0208333333333333
 49
0.0
 49
0.0
 49
0.0
 49
0.0
 49
0.0208333333333333
 49
0.0
 49
0.0
 49
0.0
 49
0.0
 49
1.0
 49
0.0
 49
0.0
 49
0.0
 49
0.0
 49
1.0
175
     0
142
0.0208333333333333
142
0.0
142
0.0
142
0.0
142
0.0
142
0.0208333333333333
142
0.0
142
0.0
142
0.0
142
0.0
142
1.0
142
0.0
142
0.0
142
0.0
142
0.0
142
1.0
179
     0
144
0.0208333333333333
144
0.0
144
0.0
144
0.0
144
0.0
144
0.0208333333333333
144
0.0
144
0.0
144
0.0
144
0.0
144
1.0
144
0.0
144
0.0
144
0.0
144
0.0
144
1.0
147
0.0208333333333333
147
0.0
147
0.0
147
0.0
147
0.0
147
0.0208333333333333
147
0.0
147
0.0
147
0.0
147
0.0
147
1.0
147
0.0
147
0.0
147
0.0
147
0.0
147
1.0
  0
MATERIAL
  5
C
102
{ACAD_XDICTIONARY
360
E
102
}
102
{ACAD_REACTORS
330
D
102
}
330
D
100
AcDbMaterial
  1
Global
 72
     0
 43
0.0208333333333333
 43
0.0
 43
0.0
 43
0.0
 43
0.0
 43
0.0208333333333333
 43
0.0
 43
0.0
 43
0.0
 43
0.0
 43
1.0
 43
0.0
 43
0.0
 43
0.0
 43
0.0
 43
1.0
 77
     0
 47
0.0208333333333333
 47
0.0
 47
0.0
 47
0.0
 47
0.0
 47
0.0208333333333333
 47
0.0
 47
0.0
 47
0.0
 47
0.0
 47
1.0
 47
0.0
 47
0.0
 47
0.0
 47
0.0
 47
1.0
171
     0
 49
0.0208333333333333
 49
0.0
 49
0.0
 49
0.0
 49
0.0
 49
0.0208333333333333
 49
0.0
 49
0.0
 49
0.0
 49
0.0
 49
1.0
 49
0.0
 49
0.0
 49
0.0
 49
0.0
 49
1.0
175
     0
142
0.0208333333333333
142
0.0
142
0.0
142
0.0
142
0.0
142
0.0208333333333333
142
0.0
142
0.0
142
0.0
142
0.0
142
1.0
142
0.0
142
0.0
142
0.0
142
0.0
142
1.0
179
     0
144
0.0208333333333333
144
0.0
144
0.0
144
0.0
144
0.0
144
0.0208333333333333
144
0.0
144
0.0
144
0.0
144
0.0
144
1.0
144
0.0
144
0.0
144
0.0
144
0.0
144
1.0
147
0.0208333333333333
147
0.0
147
0.0
147
0.0
147
0.0
147
0.0208333333333333
147
0.0
147
0.0
147
0.0
147
0.0
147
1.0
147
0.0
147
0.0
147
0.0
147
0.0
147
1.0
  0
MLINESTYLE
  5
52
102
{ACAD_REACTORS
330
39
102
}
330
39
100
AcDbMlineStyle
  2
STANDARD
 70
     0
  3

 62
   256
 51
90.0
 52
90.0
 71
     2
 49
0.5
 62
   256
  6
BYLAYER
 49
-0.5
 62
   256
  6
BYLAYER
  0
ACDBPLACEHOLDER
  5
9
102
{ACAD_REACTORS
330
A
102
}
330
A
  0
SCALE
  5
57
102
{ACAD_REACTORS
330
4C
102
}
330
4C
100
AcDbScale
 70
     0
300
1:1
140
1.0
141
1.0
290
     1
  0
SCALE
  5
58
102
{ACAD_REACTORS
330
4C
102
}
330
4C
100
AcDbScale
 70
     0
300
1:2
140
1.0
141
2.0
290
     0
  0
SCALE
  5
59
102
{ACAD_REACTORS
330
4C
102
}
330
4C
100
AcDbScale
 70
     0
300
1:4
140
1.0
141
4.0
290
     0
  0
SCALE
  5
5A
102
{ACAD_REACTORS
330
4C
102
}
330
4C
100
AcDbScale
 70
     0
300
1:5
140
1.0
141
5.0
290
     0
  0
SCALE
  5
5B
102
{ACAD_REACTORS
330
4C
102
}
330
4C
100
AcDbScale
 70
     0
300
1:8
140
1.0
141
8.0
290
     0
  0
SCALE
  5
5C
102
{ACAD_REACTORS
330
4C
102
}
330
4C
100
AcDbScale
 70
     0
300
1:10
140
1.0
141
10.0
290
     0
  0
SCALE
  5
5D
102
{ACAD_REACTORS
330
4C
102
}
330
4C
100
AcDbScale
 70
     0
300
1:16
140
1.0
141
16.0
290
     0
  0
SCALE
  5
5E
102
{ACAD_REACTORS
330
4C
102
}
330
4C
100
AcDbScale
 70
     0
300
1:20
140
1.0
141
20.0
290
     0
  0
SCALE
  5
5F
102
{ACAD_REACTORS
330
4C
102
}
330
4C
100
AcDbScale
 70
     0
300
1:30
140
1.0
141
30.0
290
     0
  0
SCALE
  5
60
102
{ACAD_REACTORS
330
4C
102
}
330
4C
100
AcDbScale
 70
     0
300
1:40
140
1.0
141
40.0
290
     0
  0
SCALE
  5
61
102
{ACAD_REACTORS
330
4C
102
}
330
4C
100
AcDbScale
 70
     0
300
1:50
140
1.0
141
50.0
290
     0
  0
SCALE
  5
62
102
{ACAD_REACTORS
330
4C
102
}
330
4C
100
AcDbScale
 70
     0
300
1:100
140
1.0
141
100.0
290
     0
  0
SCALE
  5
63
102
{ACAD_REACTORS
330
4C
102
}
330
4C
100
AcDbScale
 70
     0
300
2:1
140
2.0
141
1.0
290
     0
  0
SCALE
  5
64
102
{ACAD_REACTORS
330
4C
102
}
330
4C
100
AcDbScale
 70
     0
300
4:1
140
4.0
141
1.0
290
     0
  0
SCALE
  5
65
102
{ACAD_REACTORS
330
4C
102
}
330
4C
100
AcDbScale
 70
     0
300
8:1
140
8.0
141
1.0
290
     0
  0
SCALE
  5
66
102
{ACAD_REACTORS
330
4C
102
}
330
4C
100
AcDbScale
 70
     0
300
10:1
140
10.0
141
1.0
290
     0
  0
SCALE
  5
67
102
{ACAD_REACTORS
330
4C
102
}
330
4C
100
AcDbScale
 70
     0
300
100:1
140
100.0
141
1.0
290
     0
  0
SCALE
  5
68
102
{ACAD_REACTORS
330
4C
102
}
330
4C
100
AcDbScale
 70
     0
300
1/128" = 1'-0"
140
0.0078125
141
12.0
290
     0
  0
SCALE
  5
69
102
{ACAD_REACTORS
330
4C
102
}
330
4C
100
AcDbScale
 70
     0
300
1/64" = 1'-0"
140
0.015625
141
12.0
290
     0
  0
SCALE
  5
6A
102
{ACAD_REACTORS
330
4C
102
}
330
4C
100
AcDbScale
 70
     0
300
1/32" = 1'-0"
140
0.03125
141
12.0
290
     0
  0
SCALE
  5
6B
102
{ACAD_REACTORS
330
4C
102
}
330
4C
100
AcDbScale
 70
     0
300
1/16" = 1'-0"
140
0.0625
141
12.0
290
     0
  0
SCALE
  5
6C
102
{ACAD_REACTORS
330
4C
102
}
330
4C
100
AcDbScale
 70
     0
300
3/32" = 1'-0"
140
0.09375
141
12.0
290
     0
  0
SCALE
  5
6D
102
{ACAD_REACTORS
330
4C
102
}
330
4C
100
AcDbScale
 70
     0
300
1/8" = 1'-0"
140
0.125
141
12.0
290
     0
  0
SCALE
  5
6E
102
{ACAD_REACTORS
330
4C
102
}
330
4C
100
AcDbScale
 70
     0
300
3/16" = 1'-0"
140
0.1875
141
12.0
290
     0
  0
SCALE
  5
6F
102
{ACAD_REACTORS
330
4C
102
}
330
4C
100
AcDbScale
 70
     0
300
1/4" = 1'-0"
140
0.25
141
12.0
290
     0
  0
SCALE
  5
70
102
{ACAD_REACTORS
330
4C
102
}
330
4C
100
AcDbScale
 70
     0
300
3/8" = 1'-0"
140
0.375
141
12.0
290
     0
  0
SCALE
  5
71
102
{ACAD_REACTORS
330
4C
102
}
330
4C
100
AcDbScale
 70
     0
300
1/2" = 1'-0"
140
0.5
141
12.0
290
     0
  0
SCALE
  5
72
102
{ACAD_REACTORS
330
4C
102
}
330
4C
100
AcDbScale
 70
     0
300
3/4" = 1'-0"
140
0.75
141
12.0
290
     0
  0
SCALE
  5
73
102
{ACAD_REACTORS
330
4C
102
}
330
4C
100
AcDbScale
 70
     0
300
1" = 1'-0"
140
1.0
141
12.0
290
     0
  0
SCALE
  5
74
102
{ACAD_REACTORS
330
4C
102
}
330
4C
100
AcDbScale
 70
     0
300
1-1/2" = 1'-0"
140
1.5
141
12.0
290
     0
  0
SCALE
  5
75
102
{ACAD_REACTORS
330
4C
102
}
330
4C
100
AcDbScale
 70
     0
300
3" = 1'-0"
140
3.0
141
12.0
290
     0
  0
SCALE
  5
76
102
{ACAD_REACTORS
330
4C
102
}
330
4C
100
AcDbScale
 70
     0
300
6" = 1'-0"
140
6.0
141
12.0
290
     0
  0
SCALE
  5
77
102
{ACAD_REACTORS
330
4C
102
}
330
4C
100
AcDbScale
 70
     0
300
1'-0" = 1'-0"
140
12.0
141
12.0
290
     0
  0
TABLESTYLE
  5
53
102
{ACAD_XDICTIONARY
360
54
102
}
102
{ACAD_REACTORS
330
4D
102
}
330
4D
100
AcDbTableStyle
280
     0
  3
Standard
 70
     0
 71
     0
 40
0.06
 41
0.06
280
     0
281
     0
  7
STANDARD
140
0.18
170
     2
 62
     0
 63
     7
283
     0
 90
      512
 91
        0
  1

274
    -2
284
     1
 64
     0
275
    -2
285
     1
 65
     0
276
    -2
286
     1
 66
     0
277
    -2
287
     1
 67
     0
278
    -2
288
     1
 68
     0
279
    -2
289
     1
 69
     0
  7
STANDARD
140
0.25
170
     5
 62
     0
 63
     7
283
     0
 90
      512
 91
        0
  1

274
    -2
284
     1
 64
     0
275
    -2
285
     1
 65
     0
276
    -2
286
     1
 66
     0
277
    -2
287
     1
 67
     0
278
    -2
288
     1
 68
     0
279
    -2
289
     1
 69
     0
  7
STANDARD
140
0.18
170
     5
 62
     0
 63
     7
283
     0
 90
      512
 91
        0
  1

274
    -2
284
     1
 64
     0
275
    -2
285
     1
 65
     0
276
    -2
286
     1
 66
     0
277
    -2
287
     1
 67
     0
278
    -2
288
     1
 68
     0
279
    -2
289
     1
 69
     0
  0
VISUALSTYLE
  5
2E
102
{ACAD_REACTORS
330
2F
102
}
330
2F
100
AcDbVisualStyle
  2
2dWireframe
 70
     4
177
     2
291
     0
 71
     0
176
     1
 72
     2
176
     1
 73
     0
176
     1
 90
        0
176
     1
 40
0.6
176
     1
 41
30.0
176
     1
 63
     7
176
     1
 74
     1
176
     1
 91
        4
176
     1
 64
     7
176
     1
 65
   257
176
     1
 75
     1
176
     1
175
     1
176
     1
 42
1.0
176
     1
 92
        0
176
     1
 66
   257
176
     1
 43
1.0
176
     1
 76
     1
176
     1
 77
     6
176
     1
 78
     2
176
     1
 67
     7
176
     1
 79
     5
176
     1
170
     0
176
     1
171
     0
176
     1
290
     0
176
     1
 93
        1
176
     1
 44
0.0
176
     1
173
     0
176
     1
  0
VISUALSTYLE
  5
56
102
{ACAD_REACTORS
330
2F
102
}
330
2F
100
AcDbVisualStyle
  2
3dWireframe
 70
     5
177
     2
291
     0
 71
     0
176
     1
 72
     2
176
     1
 73
     0
176
     1
 90
        0
176
     1
 40
0.6
176
     1
 41
30.0
176
     1
 63
     7
176
     1
 74
     1
176
     1
 91
        4
176
     1
 64
     7
176
     1
 65
   257
176
     1
 75
     1
176
     1
175
     1
176
     1
 42
1.0
176
     1
 92
        0
176
     1
 66
   257
176
     1
 43
1.0
176
     1
 76
     1
176
     1
 77
     6
176
     1
 78
     2
176
     1
 67
     7
176
     1
 79
     5
176
     1
170
     0
176
     1
171
     0
176
     1
290
     0
176
     1
 93
        1
176
     1
 44
0.0
176
     1
173
     0
176
     1
  0
VISUALSTYLE
  5
55
102
{ACAD_REACTORS
330
2F
102
}
330
2F
100
AcDbVisualStyle
  2
Realistic
 70
     8
177
     2
291
     0
 71
     2
176
     1
 72
     2
176
     1
 73
     0
176
     1
 90
        0
176
     1
 40
0.6
176
     1
 41
30.0
176
     1
 63
     7
176
     1
 74
     1
176
     1
 91
        0
176
     1
 64
     7
176
     1
 65
   257
176
     1
 75
     1
176
     1
175
     1
176
     1
 42
1.0
176
     1
 92
        8
176
     1
 66
     8
176
     1
 43
1.0
176
     1
 76
     1
176
     1
 77
     6
176
     1
 78
     2
176
     1
 67
     7
176
     1
 79
     5
176
     1
170
     0
176
     1
171
     0
176
     1
290
     0
176
     1
 93
       13
176
     1
 44
0.0
176
     1
173
     0
176
     1
  0
DICTIONARYVAR
  5
42C
102
{ACAD_REACTORS
330
428
102
}
330
428
100
DictionaryVariables
280
     0
  1
1:1
  0
DICTIONARYVAR
  5
42A
102
{ACAD_REACTORS
330
428
102
}
330
428
100
DictionaryVariables
280
     0
  1
STANDARD
  0
DICTIONARYVAR
  5
429
102
{ACAD_REACTORS
330
428
102
}
330
428
100
DictionaryVariables
280
     0
  1
STANDARD
  0
DICTIONARYVAR
  5
42E
102
{ACAD_REACTORS
330
428
102
}
330
428
100
DictionaryVariables
280
     0
  1
1
  0
DICTIONARYVAR
  5
42F
102
{ACAD_REACTORS
330
428
102
}
330
428
100
DictionaryVariables
280
     0
  1
15
  0
DICTIONARYVAR
  5
42D
102
{ACAD_REACTORS
330
428
102
}
330
428
100
DictionaryVariables
280
     0
  1
0
  0
DICTIONARYVAR
  5
42B
102
{ACAD_REACTORS
330
428
102
}
330
428
100
DictionaryVariables
280
     0
  1
0
  0
DICTIONARY
  5
19
330
17
100
AcDbDictionary
280
     1
281
     1
  3
ADSK_XREC_LAYOUTTHUMBNAIL
360
1A
  0
DICTIONARY
  5
44
330
43
100
AcDbDictionary
280
     1
281
     1
  3
BUMPTILE
360
45
  3
DIFFUSETILE
360
46
  3
OPACITYTILE
360
47
  3
REFLECTIONTILE
360
48
  3
REFRACTIONTILE
360
49
  3
SPECULARTILE
360
4A
  0
DICTIONARY
  5
3C
330
3B
100
AcDbDictionary
280
     1
281
     1
  3
BUMPTILE
360
3D
  3
DIFFUSETILE
360
3E
  3
OPACITYTILE
360
3F
  3
REFLECTIONTILE
360
40
  3
REFRACTIONTILE
360
41
  3
SPECULARTILE
360
42
  0
DICTIONARY
  5
E
330
C
100
AcDbDictionary
280
     1
281
     1
  3
BUMPTILE
360
F
  3
DIFFUSETILE
360
10
  3
OPACITYTILE
360
11
  3
REFLECTIONTILE
360
12
  3
REFRACTIONTILE
360
13
  3
SPECULARTILE
360
14
  0
DICTIONARY
  5
54
330
53
100
AcDbDictionary
280
     1
281
     1
  3
ACAD_ROUNDTRIP_2008_TABLESTYLE_CELLSTYLEMAP
360
430
  0
XRECORD
  5
1A
102
{ACAD_REACTORS
330
19
102
}
330
19
100
AcDbXrecord
280
     1
310
280000000001000091000000010008000000000000910000000000000000000000010000000000003028210000000000FFFFFF000000000000000000000000000000000000000000000000000000000000000000330000006600000099000000CC000000FF00000000330000333300006633000099330000CC330000FF3300
310
0000660000336600006666000099660000CC660000FF66000000990000339900006699000099990000CC990000FF99000000CC000033CC000066CC000099CC0000CCCC0000FFCC000000FF000033FF000066FF000099FF0000CCFF0000FFFF000000003300330033006600330099003300CC003300FF003300003333003333
310
33006633330099333300CC333300FF33330000663300336633006666330099663300CC663300FF66330000993300339933006699330099993300CC993300FF99330000CC330033CC330066CC330099CC3300CCCC3300FFCC330000FF330033FF330066FF330099FF3300CCFF3300FFFF330000006600330066006600660099
310
006600CC006600FF00660000336600333366006633660099336600CC336600FF33660000666600336666006666660099666600CC666600FF66660000996600339966006699660099996600CC996600FF99660000CC660033CC660066CC660099CC6600CCCC6600FFCC660000FF660033FF660066FF660099FF6600CCFF6600
310
FFFF660000009900330099006600990099009900CC009900FF00990000339900333399006633990099339900CC339900FF33990000669900336699006666990099669900CC669900FF66990000999900339999006699990099999900CC999900FF99990000CC990033CC990066CC990099CC9900CCCC9900FFCC990000FF99
310
0033FF990066FF990099FF9900CCFF9900FFFF99000000CC003300CC006600CC009900CC00CC00CC00FF00CC000033CC003333CC006633CC009933CC00CC33CC00FF33CC000066CC003366CC006666CC009966CC00CC66CC00FF66CC000099CC003399CC006699CC009999CC00CC99CC00FF99CC0000CCCC0033CCCC0066CC
310
CC0099CCCC00CCCCCC00FFCCCC0000FFCC0033FFCC0066FFCC0099FFCC00CCFFCC00FFFFCC000000FF003300FF006600FF009900FF00CC00FF00FF00FF000033FF003333FF006633FF009933FF00CC33FF00FF33FF000066FF003366FF006666FF009966FF00CC66FF00FF66FF000099FF003399FF006699FF009999FF00CC
310
99FF00FF99FF0000CCFF0033CCFF0066CCFF0099CCFF00CCCCFF00FFCCFF0000FFFF0033FFFF0066FFFF0099FFFF00CCFFFF00FFFFFF00000000000D0D0D001A1A1A00282828003535350043434300505050005D5D5D006B6B6B00787878008686860093939300A1A1A100AEAEAE00BBBBBB00C9C9C900D6D6D600E4E4E400
310
F1F1F100FFFFFF000000000000000000000000000000000000000000000000000000000000000000000000000000000000000000000000000000000000000000000000000000000000000000000000000000000000000000000000000000000000000000000000000000000000000000000000000000000000000000000000
310
00000000000000000000000000000000000000000000000000000000000000000000000000000000000000000000000000000000000000000000000000000000000000000000000000000000000000000000000000000000000000000000000000000000000000000000000000000000000000000000000000000000000000
310
00000000000000000000000000000000000000000000000000000000000000000000000000000000000000000000000000000000000000000000000000000000000000000000000000000000000000000000000000000000000000000000000000000000000000000000000000000000000000000000000000000000000000
310
00000000000000000000000000000000000000000000000000000000000000000000000000000000000000000000000000000000000000000000000000000000000000000000000000000000000000000000000000000000000000000000000000000000000000000000000000000000000000000000000000000000000000
310
00000000000000000000000000000000000000000000000000000000000000000000000000000000000000000000000000000000000000000000000000000000000000000000000000000000000000000000000000000000000000000000000000000000000000000000000000000000000000000000000000000000000000
310
00000000000000000000000000000000000000000000000000000000000000000000000000000000000000000000000000000000000000000000000000000000000000000000000000000000000000000000000000000000000000000000000000000000000000000000000000000000000000000000000000000000000000
310
00000000000000000000000000000000000000000000000000000000000000000000000000000000000000000000000000000000000000000000000000000000000000000000000000000000000000000000000000000000000000000000000000000000000000000000000000000000000000000000000000000000000000
310
00000000000000000000000000000000000000000000000000000000000000000000000000000000000000000000000000000000000000000000000000000000000000000000000000000000000000000000000000000000000000000000000000000000000000000000000000000000000000000000000000000000000000
310
00000000000000000000000000000000000000000000000000000000000000000000000000000000000000000000000000000000000000000000000000000000000000000000000000000000000000000000000000000000000000000000000000000000000000000000000000000000000000000000000000000000000000
310
00000000000000000000000000000000000000000000000000000000000000000000000000000000000000000000000000000000000000000000000000000000000000000000000000000000000000000000000000000000000000000000000000000000000000000000000000000000000000000000000000000000000000
310
00000000000000000000000000000000000000000000000000000000000000000000000000000000000000000000000000000000000000000000000000000000000000000000000000000000000000000000000000000000000000000000000000000000000000000000000000000000000000000000000000000000000000
310
00000000000000000000000000000000000000000000000000000000000000000000000000000000000000000000000000000000000000000000000000000000000000000000000000000000000000000000000000000000000000000000000000000000000000000000000000000000000000000000000000000000000000
310
00000000000000000000000000000000000000000000000000000000000000000000000000000000000000000000000000000000000000000000000000000000000000000000000000000000000000000000000000000000000000000000000000000000000000000000000000000000000000000000000000000000000000
310
00000000000000000000000000000000000000000000000000000000000000000000000000000000000000000000000000000000000000000000000000000000000000000000000000000000000000000000000000000000000000000000000000000000000000000000000000000000000000000000000000000000000000
310
00000000000000000000000000000000000000000000000000000000000000000000000000000000000000000000000000000000000000000000000000000000000000000000000000000000000000000000000000000000000000000000000000000000000000000000000000000000000000000000000000000000000000
310
00000000000000000000000000000000000000000000000000000000000000000000000000000000000000000000000000000000000000000000000000000000000000000000000000000000000000000000000000000000000000000000000000000000000000000000000000000000000000000000000000000000000000
310
00000000000000000000000000000000000000000000000000000000000000000000000000000000000000000000000000000000000000000000000000000000000000000000000000000000000000000000000000000000000000000000000000000000000000000000000000000000000000000000000000000000000000
310
00000000000000000000000000000000000000000000000000000000000000000000000000000000000000000000000000000000000000000000000000000000000000000000000000000000000000000000000000000000000000000000000000000000000000000000000000000000000000000000000000000000000000
310
00000000000000000000000000000000000000000000000000000000000000000000000000000000000000000000000000000000000000000000000000000000000000000000000000000000000000000000000000000000000000000000000000000000000000000000000000000000000000000000000000000000000000
310
00000000000000000000000000000000000000000000000000000000000000000000000000000000000000000000000000000000000000000000000000000000000000000000000000000000000000000000000000000000000000000000000000000000000000000000000000000000000000000000000000000000000000
310
00000000000000000000000000000000000000000000000000000000000000000000000000000000000000000000000000000000000000000000000000000000000000000000000000000000000000000000000000000000000000000000000000000000000000000000000000000000000000000000000000000000000000
310
00000000000000000000000000000000000000000000000000000000000000000000000000000000000000000000000000000000000000000000000000000000000000000000000000000000000000000000000000000000000000000000000000000000000000000000000000000000000000000000000000000000000000
310
00000000000000000000000000000000000000000000000000000000000000000000000000000000000000000000000000000000000000000000000000000000000000000000000000000000000000000000000000000000000000000000000000000000000000000000000000000000000000000000000000000000000000
310
00000000000000000000000000000000000000000000000000000000000000000000000000000000000000000000000000000000000000000000000000000000000000000000000000000000000000000000000000000000000000000000000000000000000000000000000000000000000000000000000000000000000000
310
00000000000000000000000000000000000000000000000000000000000000000000000000000000000000000000000000000000000000000000000000000000000000000000000000000000000000000000000000000000000000000000000000000000000000000000000000000000000000000000000000000000000000
310
00000000000000000000000000000000000000000000000000000000000000000000000000000000000000000000000000000000000000000000000000000000000000000000000000000000000000000000000000000000000000000000000000000000000000000000000000000000000000000000000000000000000000
310
00000000000000000000000000000000000000000000000000000000000000000000000000000000000000000000000000000000000000000000000000000000000000000000000000000000000000000000000000000000000000000000000000000000000000000000000000000000000000000000000000000000000000
310
00000000000000000000000000000000000000000000000000000000000000000000000000000000000000000000000000000000000000000000000000000000000000000000000000000000000000000000000000000000000000000000000000000000000000000000000000000000000000000000000000000000000000
310
00000000000000000000000000000000000000000000000000000000000000000000000000000000000000000000000000000000000000000000000000000000000000000000000000000000000000000000000000000000000000000000000000000000000000000000000000000000000000000000000000000000000000
310
00000000000000000000000000000000000000000000000000000000000000000000000000000000000000000000000000000000000000000000000000000000000000000000000000000000000000000000000000000000000000000000000000000000000000000000000000000000000000000000000000000000000000
310
00000000000000000000000000000000000000000000000000000000000000000000000000000000000000000000000000000000000000000000000000000000000000000000000000000000000000000000000000000000000000000000000000000000000000000000000000000000000000000000000000000000000000
310
00000000000000000000000000000000000000000000000000000000000000000000000000000000000000000000000000000000000000000000000000000000000000000000000000000000000000000000000000000000000000000000000000000000000000000000000000000000000000000000000000000000000000
310
00000000000000000000000000000000000000000000000000000000000000000000000000000000000000000000000000000000000000000000000000000000000000000000000000000000000000000000000000000000000000000000000000000000000000000000000000000000000000000000000000000000000000
310
00000000000000000000000000000000000000000000000000000000000000000000000000000000000000000000000000000000000000000000000000000000000000000000000000000000000000000000000000000000000000000000000000000000000000000000000000000000000000000000000000000000000000
310
00000000000000000000000000000000000000000000000000000000000000000000000000000000000000000000000000000000000000000000000000000000000000000000000000000000000000000000000000000000000000000000000000000000000000000000000000000000000000000000000000000000000000
310
00000000000000000000000000000000000000000000000000000000000000000000000000000000000000000000000000000000000000000000000000000000000000000000000000000000000000000000000000000000000000000000000000000000000000000000000000000000000000000000000000000000000000
310
00000000000000000000000000000000000000000000000000000000000000000000000000000000000000000000000000000000000000000000000000000000000000000000000000000000000000000000000000000000000000000000000000000000000000000000000000000000000000000000000000000000000000
310
00000000000000000000000000000000000000000000000000000000000000000000000000000000000000000000000000000000000000000000000000000000000000000000000000000000000000000000000000000000000000000000000000000000000000000000000000000000000000000000000000000000000000
310
00000000000000000000000000000000000000000000000000000000000000000000000000000000000000000000000000000000000000000000000000000000000000000000000000000000000000000000000000000000000000000000000000000000000000000000000000000000000000000000000000000000000000
310
00000000000000000000000000000000000000000000000000000000000000000000000000000000000000000000000000000000000000000000000000000000000000000000000000000000000000000000000000000000000000000000000000000000000000000000000000000000000000000000000000000000000000
310
00000000000000000000000000000000000000000000000000000000000000000000000000000000000000000000000000000000000000000000000000000000000000000000000000000000000000000000000000000000000000000000000000000000000000000000000000000000000000000000000000000000000000
310
00000000000000000000000000000000000000000000000000000000000000000000000000000000000000000000000000000000000000000000000000000000000000000000000000000000000000000000000000000000000000000000000000000000000000000000000000000000000000000000000000000000000000
310
00000000000000000000000000000000000000000000000000000000000000000000000000000000000000000000000000000000000000000000000000000000000000000000000000000000000000000000000000000000000000000000000000000000000000000000000000000000000000000000000000000000000000
310
00000000000000000000000000000000000000000000000000000000000000000000000000000000000000000000000000000000000000000000000000000000000000000000000000000000000000000000000000000000000000000000000000000000000000000000000000000000000000000000000000000000000000
310
00000000000000000000000000000000000000000000000000000000000000000000000000000000000000000000000000000000000000000000000000000000000000000000000000000000000000000000000000000000000000000000000000000000000000000000000000000000000000000000000000000000000000
310
00000000000000000000000000000000000000000000000000000000000000000000000000000000000000000000000000000000000000000000000000000000000000000000000000000000000000000000000000000000000000000000000000000000000000000000000000000000000000000000000000000000000000
310
00000000000000000000000000000000000000000000000000000000000000000000000000000000000000000000000000000000000000000000000000000000000000000000000000000000000000000000000000000000000000000000000000000000000000000000000000000000000000000000000000000000000000
310
00000000000000000000000000000000000000000000000000000000000000000000000000000000000000000000000000000000000000000000000000000000000000000000000000000000000000000000000000000000000000000000000000000000000000000000000000000000000000000000000000000000000000
310
00000000000000000000000000000000000000000000000000000000000000000000000000000000000000000000000000000000000000000000000000000000000000000000000000000000000000000000000000000000000000000000000000000000000000000000000000000000000000000000000000000000000000
310
00000000000000000000000000000000000000000000000000000000000000000000000000000000000000000000000000000000000000000000000000000000000000000000000000000000000000000000000000000000000000000000000000000000000000000000000000000000000000000000000000000000000000
310
00000000000000000000000000000000000000000000000000000000000000000000000000000000000000000000000000000000000000000000000000000000000000000000000000000000000000000000000000000000000000000000000000000000000000000000000000000000000000000000000000000000000000
310
00000000000000000000000000000000000000000000000000000000000000000000000000000000000000000000000000000000000000000000000000000000000000000000000000000000000000000000000000000000000000000000000000000000000000000000000000000000000000000000000000000000000000
310
00000000000000000000000000000000000000000000000000000000000000000000000000000000000000000000000000000000000000000000000000000000000000000000000000000000000000000000000000000000000000000000000000000000000000000000000000000000000000000000000000000000000000
310
00000000000000000000000000000000000000000000000000000000000000000000000000000000000000000000000000000000000000000000000000000000000000000000000000000000000000000000000000000000000000000000000000000000000000000000000000000000000000000000000000000000000000
310
00000000000000000000000000000000000000000000000000000000000000000000000000000000000000000000000000000000000000000000000000000000000000000000000000000000000000000000000000000000000000000000000000000000000000000000000000000000000000000000000000000000000000
310
00000000000000000000000000000000000000000000000000000000000000000000000000000000000000000000000000000000000000000000000000000000000000000000000000000000000000000000000000000000000000000000000000000000000000000000000000000000000000000000000000000000000000
310
00000000000000000000000000000000000000000000000000000000000000000000000000000000000000000000000000000000000000000000000000000000000000000000000000000000000000000000000000000000000000000000000000000000000000000000000000000000000000000000000000000000000000
310
00000000000000000000000000000000000000000000000000000000000000000000000000000000000000000000000000000000000000000000000000000000000000000000000000000000000000000000000000000000000000000000000000000000000000000000000000000000000000000000000000000000000000
310
00000000000000000000000000000000000000000000000000000000000000000000000000000000000000000000000000000000000000000000000000000000000000000000000000000000000000000000000000000000000000000000000000000000000000000000000000000000000000000000000000000000000000
310
000000000000000000000000000000000000BEBEBEBEBEBEBEBEBEBEBEBEBEBEBEBEBEBEBEBEBEBEBEBEBEBEBEBEBEBEBEBEBEBEBEBEBEBEBEBEBEBEBEBEBEBEBEBEBEBEBEBEBEBEBEBEBEBEBEBEBEBEBEBEBEBEBEBEBEBEBEBEBEBEBEBEBEBEBEBEBEBEBEBEBEBEBEBEBEBEBEBEBEBEBEBEBEBEBEBEBEBEBEBEBEBEBEBEBE
310
BEBEBEBEBEBEBEBEBEBEBEBEBEBEBEBEBEBEBEBEBEBEBEBEBEBEBEBEBEBEBEBEBEBEBEBEBEBEBEBEBEBEBEBEBEBEBEBEBEBEBEBEBEBEBEBEBEBEBEBEBEBEBEBEBEBEBEBEBEBEBEBEBEBEBEBEBEBEBEBEBEBEBEBEBEBEBEBEBEBEBEBEBEBEBEBEBEBEBEBEBEBEBEBEBEBEBEBE00000000000000000000000000000000000000
310
0000000000000000000000000000000000000000BE0000000000000000000000000000000000000000000000000000000000000000000000000000000000000000000000000000000000000000000000000000000000000000000000000000000000000000000000000000000000000000000000000000000000000000BE00
310
00000000000000000000000000000000000000000000000000000000000000000000000000000000000000000000000000000000000000000000000000000000000000000000000000000000000000000000000000000000000000000000000000000000000000BEDCDCDCDCDCDC0000000000000000000000000000000000
310
00000000000000000000000000000000000000000000BE00DCDCDCDCDCDCDCDCDCDCDCDCDCDCDCDCDCDCDCDCDCDCDCDCDCDCDCDCDCDCDCDCDCDCDCDCDCDCDCDCDCDCDCDCDCDCDCDCDCDCDCDCDCDCDCDCDCDCDCDCDCDCDCDCDCDCDCDCDCDCDCDCDCDCDCDCDCDCDCDCDCDCDCDCDCDCDCDCDCDCDCDCDCDCDCDCDCDCDCDCDCDC00
310
BE00DCDCDCDCDCDCDCDCDCDCDCDCDCDCDCDCDCDCDCDCDCDCDCDCDCDCDCDCDCDCDCDCDCDCDCDCDCDCDCDCDCDCDCDCDCDCDCDCDCDCDCDCDCDCDCDCDCDCDCDCDCDCDCDCDCDCDCDCDCDCDCDCDCDCDCDCDCDCDCDCDCDCDCDCDCDCDCDCDCDCDCDCDCDCDCDCDCDCDCDCDCDC00BEDC0000000000000000000000000000000000000000
310
000000000000000000000000000000000000000000000000BE00DC0000000000000000000000000000000000000000000000000000000000000000000000F5F5F5F5F500000000F5F5F5F5F5F5000000DC00000000BEBEBEBEBEBEBEBE000000DC000000000000000000DC00000000000000000000DCBEBEBEBEBEBEBE0000
310
DC00BE00DC0000000000000000000000000000000000000000000000000000000000000000000000DCF5F5F5F500000000F5F5F5F5F5F5000000DC00000000BEBEBEBEBEBEBEBEBE0000BEBEBEBEBEBEBEBEBEBEBE0000000000000000000000BEBEBEBEBEBEBE0000DC00BEDC000000000000000000000000000000000000
310
0000000000000000000000000000000000000000000000000000BE00DC0000000000000000000000000000000000000000000000000000000000000000000000F5F5F5F5F5DCDCDCDCF5F5F5F5F5F5DCDCDCDC00000000BEBEBEBEBEBEBEBE000000DC000000000000000000DC00000000000000000000DCBEBEBEBEBEBEBE
310
0000DC00BE00DC0000000000000000000000000000000000000000000000000000000000000000000000DCF5F5F5F5DCDCDCDCF5F5F5F5F5F5DCDCDCDC00000000BEBEBEBEBEBEBEBEBE0000BEBEBEBEBEBEBEBE00BEBE0000000000000000000000BEBEBEBEBEBEBEF500DC00BEDC00000000000000000000000000000000
310
00000000000000000000000000000000000000000000000000000000BE00DC0000000000000000000000000000000000000000000000000000000000000000000000DC0000DC000000000000DC000000DC000000DC00BEBEBEBEBEBEBEBEBEBEBE000000F5F5F5F5F5F5F5000000F5F5F5F5F5F5F5F5F5F500DCF5F5F5F5F5
310
F5F50000DC00BE00DC0000000000000000000000000000000000000000000000000000000000000000000000DC0000DC000000000000DC000000DC000000DC00BEBEBEBEBEBEBEBEBEBEBEBE0000F5F5F5F5F5F5F5000000DCF5F5F5F5F5F5F5F5F50000F5F5F5F5F5F5F5F500DC00BEDC0000000000000000000000000000
310
000000000000000000000000000000000000000000000000000000000000BE00DC0000000000000000000000000000000000000000000000000000000000000000000000DCDCDCDCDCDCDCDCDCDCDCDCDCDCDCDCDCDCDC000000BEBEBEBEBEBEBEBEBE000000DCDCDCDCDCDCDCDCDCDCDCDCDCDCDCDCDCDCDCDCDCDCDCDCDC
310
DCDCDCDCDCDCDC00BE00DC0000000000000000000000000000000000000000000000000000000000000000000000DCDCDCDCDCDCDCDCDCDCDCDCDCDCDCDCDCDCDC000000BEBEBEBEBEBEBEBEBEBE0000DCDCDCDCDCDCDCDCDCDCDCDCDCDCDCDCDCDCDCDCDCDCDCDCDCDCDCDCDCDCDCDC00BEDC000000000000000000000000
310
0000000000000000000000000000000000000000000000000000000000000000BE00DC0000000000000000000000000000000000000000000000000000000000000000000000DC0000DC000000000000DC000000DC000000DC000000BEBEBEBEBEBEBEBEBE000000BEBEBEBEBEBEBEBEBE0000000000000000000000000000
310
0000000000000000DC00BE00DC0000000000000000000000000000000000000000000000000000000000000000000000DC0000DC000000000000DC000000DC000000DC000000BEBEBEBEBEBEBEBEBE000000BEBEBEBEBEBEBEBEBEBEBEBEBEBE00BEBE00BEBEBEBEBEBE00000000000000DC00BEDC00000000000000000000
310
00000000000000000000000000000000000000000000000000000000000000000000BE00DC0000000000000000000000000000000000000000000000000000000000000000000000DCDCDCDCDCDCDCDCDCDCDCDCDCDCDCDCDCDCF5F5F5DCDCDCDCDCDCDCDCDCDCDCDCDCBEBEBEBEBEBEBEBEBE000000000000000000000000
310
00000000000000000000DC00BE00DC0000000000000000000000000000000000000000000000000000000000000000000000DCDCDCDCDCDCDCDCDCDCDCDCDCDCDCDCDCDCF5F5F5DCDCDCDCDCDCDCDCDCDCDCDCDCBEBEBEBEBEBEBEBEBEBEBEBEBEBE00BEBEBEBEBEBEBEBEBE00000000000000DC00BEDC0000000000000000
310
000000000000000000000000000000000000000000000000000000000000000000000000BE00DC0000000000000000000000000000000000000000000000000000000000000000000000DC0000DC000000000000DC000000DC000000F5F5F500000000DC0000000000000000BEBEBEBEBEBEBEBEBEBEBEBEBEBEBEBEBEBEBE
310
BEBEBEBEBEBEBEBEBEBEBEBEBE00BE00DC0000000000000000000000000000000000000000000000000000000000000000000000DC0000DC000000000000DC000000DC000000F5F5F5DC00000000DC00000000000000BEBEBEBEBEBEBE00BEBEBEBEBEBE00BEBEBEBEBEBEBEBEBEBEBE0000000000DC00BEDC000000000000
310
0000000000000000000000000000000000000000000000000000000000000000000000000000BE00DC0000000000000000000000000000000000000000000000000000000000000000000000DCDCDCDCDCDCDCDCDCDCDCDCDCDCDCDCDCDCF5F5F5BEBEBEBEBEBEBEBEBEBEDCDCDCBEBEBEBEBEBEBE00BEBEBEBEBEBEBEBEBE
310
BEBEBEBEBEBEBEBEBEBEBEBEBEBEBE00BE00DC0000000000000000000000000000000000000000000000000000000000000000000000DCDCDCDCDCDCDCDCDCDCDCDCDCDCDCDCDCDCF5F5F5BEBEBEBEBEBEBEBEBEBEDCDCDCBEBEBEBEBEBEBE00BEBEBEBEBEBE00BEBEBEBEBEBEBEBEBEBEBE0000000000DC00BEDC00000000
310
00000000000000000000000000000000000000000000000000000000000000000000000000000000BE00DC0000000000000000000000000000000000000000000000000000000000000000000000DCDCDCDCDCDCDCDCDCDCDCDCDCDCDCDCDCDCF5F5F5BEBEBEBEBEBEBEBEBEBEDCDCDCBEBEBEBEBEBEBEF5BEBEBEBEBEBEBE
310
BEBEBEBEBEBEBEBEBEBEBEBEBEBEBEBEDC00BE00DC0000000000000000000000000000000000000000000000000000000000000000000000DCDCDCDCDCDCDCDCDCDCDCDCDCDCDCDCDCDCF5F5F5BEBEBEBEBEBEBEBEBEBEDCDCDCBEBEBEBEBEBEBEF5BEBEBEBEBEBEBEBEBEBEBEBEBEBEBEBEBEBE0000000000DC00BEDC0000
310
000000000000000000000000000000000000000000000000000000000000000000000000000000000000BE00DC0000000000000000000000000000000000000000000000000000000000000000000000F5F5F5F5F5F5F5F50000F5F5F5F5DCF5F5F5DCDCDCF5F5F5F5F5F5F5F5F5F5000000F5F5F5F5F5F5F5F5F5F5F5F500
310
000000000000000000000000000000000000DC00BE00DC0000000000000000000000000000000000000000000000000000000000000000000000DCF5F5F5F5F5F5F5F500F5F5F5F5DCF5F5F5DCDCDCF5F5F5F5F5F5F5F5F5F5000000F5F5F5F5F5F5F5F5F5F5F5F500000000000000000000000000000000000000DC00BEDC
310
0000000000000000000000000000000000000000000000000000000000000000000000000000000000000000BE00DC0000000000000000000000000000000000000000000000000000000000000000000000DCDCDCF5F5DCDCDCDCDCDCDCDCDCDCDCDCDCDCDCDCF5F5F5F5F5F5BEBEF5BEBEBEDCF5F5DCDCDCDCDCDCF5F5F5
310
DCDCDCDCDCDCDCDCDCDCDCDCDCDCDCDCDCDCDCDCDC00BE00DC0000000000000000000000000000000000000000000000000000000000000000000000DCDCDCDCF5DCDCDCDCDCDCDCDCDCDCDCDCDCDCDCDCF5F5F5F5F5F5BEBEBEBEBEBEBEF5F5DCBEDCDCDCDCF5F5F5DCDCDCDCDCDCDCDCDCDCDCDCDCDCDCDCBEDCDCDCDC00
310
BEDC0000000000000000000000000000000000000000000000000000000000000000000000000000000000000000BE00DC0000000000000000000000000000000000000000000000000000000000000000000000DC0000000000000000000000000000000000DC000000000000DC00BEBE00BEBEBE00DC0000000000000000
310
0000DC0000000000000000000000DC00000000000000DC00BE00DC000000000000002D2D2D2D2D2D2D2D2D2D2D2D2D2D2D2D2D2D2D2D2D2D2D2D2D2D2D2D2D2D2D2D2DF5000000000000000000000000DC00000000000000DCBEBEBEBEBEBEBEBEBEBEBEBE00000000F5F500BEBEBEBE00000000000000DC0000BEBEBEBE00
310
DC00BEDC0000000000000000000000000000000000000000000000000000000000000000000000000000000000000000BE00DC0000000000000000000000000000000000000000000000000000000000000000000000DC0000000000000000000000000000000000DCDCDCDCDCDCDCDCBEBEBEBEBEBEBEBEDCF5F5F5F5F5F5
310
F5F50000DCF5F5F5F5F5F5F5F5F50000DCF5F5F5F5F5F5F5DC00BE00DC000000000000002D2D00000000000000000000000000BEBEBE00000000000000000000DC0000002D2D000000000000000000000000DCDCDCDCDCDCDCDCBEBEBEBEBEBEBEBEDCBEBEBEBEF5F5F5F5F5F500BEBEBEF5F5F5F5F5F5F500DCF5F5F5BEBE
310
F5F5DC00BEDC0000000000000000000000000000000000000000000000000000000000000000000000000000000000000000BE00DC0000000000000000000000000000000000000000000000000000000000000000000000DC0000000000000000000000000000000000DC000000000000DCBEBEDCBEBEBEDCBEDCF5DCBEBE
310
F5BEBEBEDCDCDCF5DCF5DCF5F5DCF5F5DCDCDCF5F5F5BEBEBEDCDC00BE00DC000000000000002D000000000000000000000000000000000000000000000000000000DC000000002D000000000000000000000000DC00000000000000BEBEBEBEBEBEDCBEDCF5DCBEBEBEBEBEBEDCDCDCF5F5DCF5BEBEF5F5F5DCDCDCF5F5F5
310
BEBEBEDCDC00BEDC0000000000000000000000000000000000000000000000000000000000000000000000000000000000000000BE00DC0000000000000000000000000000000000000000000000000000000000000000000000DC0000000000000000000000000000000000DCF5F5F5F5F5F5DCDCDCBEBEBEBEDCDCDC00BE
310
BEBEBEBEBEBE0000DC0000000000000000000000DC000000BEBEBE00DC00BE00DC000000000000002D000000DCDCDCDCDCDCDCDCDCDCDCDCDCF5DCDCDCDCDCDCDCF52D2D2D2D2D2D2D2D2D2D2D2DF52D000000000000DCF5F5F5F5F5F5DCDCDCBEBEBEBEDCDCDC0000BEBEBEBEBEBE000000DC000000BEBEBE00000000DC00
310
0000BEBEBE00DC00BEDC0000000000000000000000000000000000000000000000000000000000000000000000000000000000000000BE00DC0000000000000000000000000000000000000000000000000000000000000000000000DC0000000000000000000000000000000000DCF5F500F5F5F5DC0000BEBEBEF50000DC
310
00F5F5F5F5F5F5000000DC0000F5F5F5F5F5F5F50000DC00F5F5F5F5F5F5DC00BE00DC000000000000002D000000DC0000000000000000000000002D00000000000000DC0000DC000000002D000000002D2D000000000000DCF5F5F5F5F5F500DC00BEBEBEBE0000DC0000F5F5F5F5F500000000DC00F5F5F5F5F5F5F50000
310
DC00F5F5F5F5F5F5DC00BEDC00000000F5000000000000000000000000000000000000000000000000000000000000000000000000000000BE00DC0000000000000000000000000000000000000000000000000000000000000000000000DCDCDCDCDCDCDCDCDCDCDCDCDCDCDCDCDCDCDCDCDCDCDCDCDCDCDCDCDCDCDCDCDC
310
DCDCDCDCDCDCDCDCDCDCDCDCDCDCDCDCDCDCDCDCDCDCDCDCDCDCDCDCDCDCDCDCDC00BE00DC000000000000002D000000DC0000000000000000000000002D00000000000000DC0000DCDCDCDCDC2DDCDCDCDC2DDCDCDCDCDCDCDCDCDCDCDCDCDCDCDCDCDCDCDCDCDCDCDCDCDCDCDCDCDCDCDCDCDCDCDCDCDCDCDCDCDCDCDCDC
310
DCDCDCDCDCDCDCDCDCDCDC00BEDC000000002D000000000000000000000000000000000000000000000000000000000000000000000000000000BE00DC000000000000000000000000000000000000000000000000000000000000000000000000000000000000000000000000000000000000000000000000000000000000
310
00000000000000000000000000000000000000000000000000000000000000000000DC00BE00DC000000000000002D000000DC0000000000000000000000BE2D00000000000000DC000000000000002D000000002D000000000000000000000000000000000000000000000000000000000000000000000000000000000000
310
000000000000000000000000DC00BEDC000000002D000000000000000000000000000000000000000000000000000000000000000000000000000000BE00DC00000000000000000000000000000000000000000000000000000000000000000000000000000000000000000000000000000000000000000000000000000000
310
000000000000000000000000000000000000000000000000000000000000000000000000DC00BE00DC000000000000002D000000DC0000000000000000000000BE2D00000000000000DC000000000000002D000000002D00000000000000000000000000000000000000000000000000000000000000000000000000000000
310
0000000000000000000000000000DC00BEDC000000002D000000000000000000000000000000000000000000000000000000000000000000000000000000BE00DC0000000000000000000000000000000000000000000000000000000000000000000000000000000000000000000000000000000000000000000000000000
310
0000000000000000000000000000000000000000000000000000000000000000000000000000DC00BE00DC000000000000002D000000DC0000000000000000000000002D00000000000000DC000000000000002D000000002D0000000000000000000000000000000000000000000000000000000000000000000000000000
310
00000000000000000000000000000000DC00BEDC000000002D000000000000000000000000000000000000000000000000000000000000000000000000000000BE00DC000000000000000000000000000000000000000000000000000000000000000000000000000000000000000000000000000000000000000000000000
310
00000000000000000000000000000000000000000000000000000000000000000000000000000000DC00BE00DC000000000000002D00000000DC00000000000000000000002D00000000000000DC000000000000002D000000002D000000000000000000000000000000000000000000000000000000000000000000000000
310
000000000000000000000000000000000000DC00BEDC000000002D000000000000000000000000000000000000000000000000000000000000000000000000000000BE00DC00000000000000000000000000000000000000000000000000000000000000000000000000000000000000000000000000000000000000000000
310
000000000000000000000000000000000000000000000000000000000000000000000000000000000000DC00BE00DC000000000000002D00000000DC00000000000000000000002D00000000000000DC000000000000002D000000002D00000000000000000000000000000000000000000000000000000000000000000000
310
0000000000000000000000000000000000000000DC00BEDC000000002D000000000000000000000000000000000000000000000000000000000000000000000000000000BE00DC0000000000000000000000000000000000000000000000000000000000000000000000000000000000000000000000000000000000000000
310
0000000000000000000000000000000000000000000000000000000000000000000000000000000000000000DC00BE00DC000000000000002DDCDCDCDCDC2828282828282828282828F52828282828282828DCDCDCDCDCDCDCF52D2D2DF52D00000000000000F5F5F5F5F5F5F5F5F5F52D2DF52D0000000000000000000000
310
00000000000000000000000000000000000000000000DC00BEDC000000002D000000000000000000000000000000000000000000000000000000000000000000000000000000BE00DC000000000000000000000000000000000000000000000000000000000000000000000000000000000000000000000000000000000000
310
00000000000000000000000000000000000000000000000000000000000000000000000000000000000000000000DC00BE00DC00000000000000F5DC0000002800000000000000000000002D000000000000002800000000000000DC0000002D2D000000000000000000000000000000F5F500002D00000000000000000000
310
000000000000000000000000000000000000000000000000DC00BEDC000000002D000000000000000000000000000000000000000000000000000000000000000000000000000000BE00DC0000000000000000002D2D2D2D2D2D2D2D2D2D2D2D2D2D2D2D2D2D2D2D2DF5000000000000000000000000000000000000000000
310
000000000000000000000000000000000000000000000000000000000000000000000000000000000000000000000000DC00BE00DC00000000000000DCBE0000002800000000000000000000002D000000000000002800000000000000DC0000002D2D000000000000000000000000000000F5F500002D0000000000000000
310
0000000000000000000000000000000000000000000000000000DC00BEDC000000002D000000000000000000000000000000000000000000000000000000000000000000000000000000BE00DC0000000000000000002D2D0000000000000000BEBE00000000000000002D2D00000000000000000000000000000000000000
310
0000000000000000000000000000000000000000000000000000000000000000000000000000000000000000000000000000DC00BE00DC00000000000000DC280000002800000000000000000000002D000000000000002800000000000000DC0000002D2D000000000000000000000000000000F5F500002D000000000000
310
00000000000000000000000000000000000000000000000000000000DC00BEDC000000BE2D000000000000000000000000000000000000000000000000000000000000000000000000000000BE00DC0000000000000000002D00000000000000000000000000000000000000002D0000000000000000000000000000000000
310
00000000000000000000000000000000000000000000000000000000000000000000000000000000000000000000000000000000DC00BE00DC00000000000000DCBE00DCDC280000BEBEBEBEBE000000002D000000000000002800000000000000DC0000002D2D000000000000000000000000000000F5F500002D00000000
310
000000000000000000000000000000000000000000000000000000000000DC00BEDC000000002D000000000000000000000000000000000000000000000000000000000000000000000000000000BE00DC000000000000000000F528282828282828BEBEBEBEBEBE28282828282828F5000000000000000000000000000000
310
000000000000000000000000000000000000000000000000000000000000000000000000000000000000000000000000000000000000DC00BE00DC00000000000000DCDC00DCDC280000BE0000BE00000000002D000000000000002800000000000000DC0000002D2D000000000000000000000000000000F5F500002D0000
310
0000000000000000000000000000000000000000000000000000000000000000DC00BEDC000000002D000000000000000000000000000000000000000000000000000000000000000000000000000000BE00DC0000000000000000002800282800002800BEBEBEBEBEBE002828002828002800000000000000000000000000
310
0000000000000000000000000000000000000000000000000000000000000000000000000000000000000000000000000000000000000000DC00BE00DC0000000000000000DC0000002800000000000000000000002D000000000000002800000000000000DC0000002D2D000000000000000000000000000000F5F500002D
310
00000000000000000000000000000000000000000000000000000000000000000000DC00BEDC000000002D000000000000000000000000000000000000000000000000000000000000000000000000000000BE00DC0000000000000000002800282828282828BEBE000000BE00282828282800280000000000000000000000
310
00000000000000000000000000000000000000000000000000000000000000000000000000000000000000000000000000000000000000000000DC00BE00DC0000000000000000DC0000002800000000000000000000002D000000000000002800000000000000DC0000002D2D000000000000000000000000000000F5F500
310
002D00000000000000000000000000000000000000000000000000000000000000000000DC00BEDC00000000BE000000000000000000000000000000000000000000000000000000000000000000000000000000BE00DC0000000000000000002800282828280028BEBEBE00BEBE0028282828280028000000000000000000
310
000000000000000000000000000000000000000000000000000000000000000000000000000000000000000000000000000000000000000000000000DC00BE00DC00000000000000DCDC0000002800000000000000000000002D0000002D00000028000000000000002D0000002D2D000000000000000000000000000000F5
310
F500002D00000000000000000000000000000000000000000000000000000000000000000000DC00BEDC000000002D000000000000000000000000000000000000000000000000000000000000000000000000000000BE00DC0000000000000000002800280028280028BEBEBEBEBEBE002828282828002800000000000000
310
0000000000000000000000000000000000000000000000000000000000000000000000000000000000000000000000000000000000000000000000000000DC00BE00DC00000000000000DC280000002800000000000000000000002D000000F52D2D2D2DBEBE2D2D2D2D2DF50000002D2D0000000000000000000000000000
310
00F5F500002D00000000000000000000000000000000000000000000000000000000000000000000DC00BEDC000000002D000000000000000000000000000000000000000000000000000000000000000000000000000000BE00DC0000000000000000002800282828282828BEBEBEBEBEBEBE2828282828BE280000000000
310
00000000000000000000000000000000000000000000000000000000000000000000000000000000000000000000000000000000000000000000000000000000DC00BE00DC00000000000000DCBE00DCDC280000BEDCDCBE00000000BE2D000000BE000000280000000000DCDCDC00BEBEBE2D000000000000000000000000
310
000000F5F500BE2D00000000000000000000000000000000000000000000000000000000000000000000DC00BEDC000000002D000000000000000000000000000000000000000000000000000000000000000000000000000000BE00DC0000000000000000002828BE00000000BEBEBEBEBEBEBEBEBE00000000BE28000000
310
000000000000000000000000000000000000000000000000000000000000000000000000000000000000000000000000000000000000000000000000000000000000DC00BE00DC00000000000000BE2800DCDC280000BEBEBEBEBE000000BE2D000000BE0000002800000000BEF5DCF500BEBEBE2D00000000000000000000
310
0000000000F5F500BE2D00000000000000000000000000000000000000000000000000000000000000000000DC00BEDC000000002D000000000000000000000000000000000000000000000000000000000000000000000000000000BE00DC00000000000000000028F5BE00000000BEBEBEBEBEBEBEBEBE00000000BE2800
310
0000000000000000000000000000000000000000000000000000000000000000000000000000000000000000000000000000000000000000000000000000000000000000DC00BE00DC00000000000000DCBE0000002800000000000000000000002D000000BE000000280000002D2DBEBEF52D2D002D2D0000000000000000
310
00000000000000F5F500002D00000000000000000000000000000000000000000000000000000000000000000000DC00BEDC000000002D000000000000000000000000000000000000000000000000000000000000000000000000000000BE00DC00000000000000000028F5BEBEBEBEBEBEBEBEBEBEBEBEBEBEBEBEBEBEBE
310
28000000000000000000000000000000000000000000000000000000000000000000000000000000000000000000000000000000000000000000000000000000000000000000DC00BE00DC00000000000000DCDC0000002800000000000000000000002D0000000000000028000000002DBEBE2D2D00002D2D000000000000
310
000000000000000000F5F5BEBE2D00000000000000000000000000000000000000000000000000000000000000000000DC00BEDC000000002D000000000000000000000000000000000000000000000000000000000000000000000000000000BE00DC00000000000000000028F5BEF5F5F5BEF5BEBEF5F5BEF5F5BEF5F5BE
310
BEF528000000000000000000000000000000000000000000000000000000000000000000000000000000000000000000000000000000000000000000000000000000000000000000DC00BE00DC0000000000000000DC0000002800000000000000000000002D002D2D2D0000002800000000000000DC0000002D2D00000000
310
0000000000000000000000F5BEBE002D00000000000000000000000000000000000000000000000000000000000000000000DC00BEDC000000002D000000000000000000000000000000000000000000000000000000000000000000000000000000BE00DC0000000000000000000000000000000000000000000000000000
310
000000000000000000000000000000000000000000002D000000000000000000000000000000000000000000000000000000000000000000000000000000000000000000000000000000DC00BE00DC0000000000000000DC0000002800000000000000000000002D2D2D2D2D2D00002800000000000000DC0000002D2D0000
310
00000000000000000000000000F5F5BE002D00000000000000000000000000000000000000000000000000000000000000000000DC00BEDC0000000000000000000000000000000000000000000000000000000000000000000000000000000000000000BE00DC000000000000000000000000000000000000000000000000
310
0000000000000000000000000000000000000000000000002D2DBEBE2D2D2D000000000000000000000000000000000000000000000000000000000000000000000000000000000000000000DC00BE00DC00000000000000DCDC0000002800000000000000000000002D000000000000002800000000000000DC0000002D2D
310
000000000000000000000000000000F5F500002D00000000000000000000000000000000000000000000000000000000000000000000DC00BEDCDCDCDCDCDC000000000000000000000000000000000000000000000000000000000000000000000000000000BE00DC00000000000000000000000000000000000000000000
310
00000000000000000000000000000000000000000000BEBE2D2D2D2DBEBE002DF5000000000000000000000000000000000000000000000000000000000000000000000000000000000000000000DC00BE00DC00000000000000DC2800DCDCF50000BEBEBEBEBE000000002D000000000000002800000000000000F5000000
310
2D2D000000000000000000000000000000F5F500002D00000000000000000000000000000000000000000000000000000000000000000000DC00BEBEBEBEBEBEBE000000000000000000000000000000000000000000000000000000000000000000000000000000BE00DC000000000000000000000000002D2D2D2D2D2D2D
310
2D2D2D2D2D2DF500000000000000000000000000000000000000002D2D2D2DBE2DF52D000000000000000000000000000000000000000000000000000000000000000000000000000000000000000000DC00BE00DC00000000000000DC2800DCDCF52D2D2D2D2D2DBEBEBE2D2D2D2D2D2D2D2D2D2DF52D2DBEBE2D2D2DF500
310
00002D2D000000000000000000000000000000F5F500002D00000000000000000000000000000000000000000000000000000000000000000000DC00BE000000000000000000000000000000000000000000000000000000000000000000000000000000000000000000BE00DC000000000000000000000000002D2D00BE00
310
002D2D2DBEBE002D2D0000000000000000000000000000000000F5BE2D2D002DBEBE002D00000000000000000000000000000000000000000000000000000000000000000000000000000000000000000000DC00BE00DC00000000BEBE2DDC282D002D2D000000000000BEBEBE00002D000000000000002800000000000000
310
DC0000002D2D000000000000000000000000000000F5F500002D00000000000000000000000000000000000000000000000000000000000000000000DC00BE000000000000000000000000000000000000000000000000000000000000000000000000000000000000000000BE00DC000000000000000000000000002D0000
310
000000002D00000000002D00000000000000000000000000000000002D00002D002D0000002D00000000000000000000000000000000000000000000000000000000000000000000000000000000000000000000DC00BE00DC00000000BEBE2DDCDC2D2D2DF500000000000000000000002D00000000000000280000000000
310
0000DC0000002D2D000000000000000000000000000000F5F500002D00000000000000000000000000000000000000000000000000000000000000000000DC00BE000000000000000000000000000000000000000000000000000000000000000000000000000000000000000000BE00DC00000000000000F52D28282828F5
310
F528282828F5F528282828F5F5F52828280000000000000000000000F52DF52828F5F5F52828282D0000000000000000000000002DF5F5F528F5C3C32828280000000000000000000000000000000000000000000000DC00BE00DC0000000000000000DCDCDCDCDC2828282828282828282828F52828282828282828DCDCDC
310
DCDCDCDCDC2D2D2D2D2D00000000000000F5F5F5F5F5F5F5F5F5F52D2D2D2D000000000000000000000000000000000000000000000000000000000000000000DC00BE000000000000000000000000000000000000000000000000000000000000000000000000000000000000000000BE00DC000000000000002D002828BE
310
28282828BEBE0FBEBEBE0FBEBE282828BEBE2800000000000000000000002D00282828F5F5C3F5F528DC2DDC00000000000000000000002D282828F5C3BEF5BE280000000000000000000000000000000000000000000000DC00BE00DC000000000000000000000000DC00000000000000000000002D00000000000000DC00
310
00000000000000000000002D000000000000002D00000000000000002D00000000000000000000000000000000000000000000000000000000000000000000000000DC00BE000000000000000000000000000000000000000000000000000000000000000000000000000000000000000000BE00DC000000000000002D0028
310
28BE28282828BEBE0FBEBE0F0FBEBE282828BEBE2800000000000000000000002D002828BE00BE0000BE0028002D00000000000000000000002D2828BEBE28282828280000000000000000000000000000000000000000000000DC00BE00DC000000000000000000000000DC00000000000000000000002D00000000000000
310
DC0000000000000000000000002D000000000000002D2D2DBEBE2D2D2D2DF500000000000000000000000000000000000000000000000000000000000000000000000000DC00BE000000000000000000000000000000000000000000000000000000000000000000000000000000000000000000BE00DC000000000000002D
310
002828BE28282828BEBE0F28280F0FBEBE28BE28BEBE2800000000000000000000002D00F5280000BE0000BE0028002D00000000000000000000002DF52800BE28282828280000000000000000000000000000000000000000000000DC00BE00DC0000000000000000000000DC0000000000000000000000BE2D0000000000
310
0000DC0000000000000000000000002D00000000000000000000BEBE000000000000000000000000000000000000000000000000000000000000000000000000000000000000DC00BE000000000000000000000000000000000000000000000000000000000000000000000000000000000000000000BE00DC000000000000
310
002D002828282828282828BE0F2828280FBE2828282828BE2800000000000000000000002D00F5280000BEBEBEBEBE28002D00000000000000000000002DF52800BE28000000280000000000000000000000000000000000000000000000DC00BE00DC0000000000000000000000DC0000000000000000000000BE2D000000
310
00000000DC0000000000000000000000002D000000000000000000000000000000000000000000000000000000000000000000000000000000000000000000000000000000000000DC00BE000000000000000000000000000000000000000000000000000000000000000000000000000000000000000000BE00DC00000000
310
0000002D002828BEBEBEBEBEBEBE280028BE28BEBEBEBEBEBEBE2800000000000000000000002D00F5280000BE2828BE0028002D00000000000000000000002DF52800BE28000000280000000000000000000000000000000000000000000000DC00BE00DC0000000000000000000000DC0000000000000000000000002D00
310
000000000000DC0000000000000000000000002D000000000000000000000000000000000000000000000000000000000000000000000000000000000000000000000000000000000000DC00BE000000000000000000000000000000000000000000000000000000000000000000000000000000000000000000BE00DC0000
310
00000000002D002828BEBEBEBEBEBEBE282828BE28BEBEBEBEBEBEBE2800000000000000000000002D002828BEBEBE282828BE28002D00000000000000000000002D2828BEBE28000000280000000000000000000000000000000000000000000000DC00BE00DC0000000000000000000000DC000000000000000000000000
310
2D00000000000000DC0000000000000000000000002D000000000000000000000000000000000000000000000000000000000000000000000000000000000000000000000000000000000000DC00BE000000000000000000000000000000000000000000000000000000000000000000000000000000000000000000BE00DC
310
000000000000002D002828BEBEBEBEBEBEBE2828282828BEBEBEBEBEBEBE2800000000000000000000002D00282828BE002828280028002D00000000000000000000002D282828BE28DCDCDC280000000000000000000000000000000000000000000000DC00BE00DC0000000000000000000000DC00000000000000000000
310
00002D00000000000000DC0000000000000000000000002D000000000000000000000000000000000000000000000000000000000000000000000000000000000000000000000000000000000000DC00BE000000000000000000000000000000000000000000000000000000000000000000000000000000000000000000BE
310
00DC000000000000002D0028BEBEBEBEBEBEBE282828282828BEBEBEBEBEBEBE2800000000000000000000002D00F5282828282800282828002D00000000000000000000002DF5282828DCDCDCDC280000000000000000000000000000000000000000000000DC00BE00DC0000000000000000000000DC0000000000000000
310
000000002D00000000000000F50000000000000000000000002D2D0000000000000000000000000000000000000000000000000000000000000000000000000000000000000000000000000000000000DC00BE0000000000000000000000000000000000000000000000000000000000000000000000000000000000000000
310
00BE00DC000000000000BE2D0028BE002828280028282828280028BE0028282828BE28000000000000000000BEBE2D00F5280028000000002828BE2D000000000000000000BE002DF5DC280000000000280000000000000000000000000000000000000000000000DC00BE00DC00000000000000000000002D2DDCDCDCDCDC
310
DCDCDCDCDCDCF5DCDCDCDCDCDC2DF52D2D2D2D2D2D2D2D2D2D2D2D2D2D0000000000000000000000000000000000000000000000000000000000000000000000000000000000000000000000000000000000DC00BE000000000000000000000000000000000000000000000000000000000000000000000000000000000000
310
000000BE00DC000000000000BE2D0028BE282828282828282828282828BE2828282828BE28000000000000000000BEBE2D00F5280028000000002828BE2D000000000000000000BE002DF5DC280000000000280000000000000000000000000000000000000000000000DC00BE00DC00000000000000000000002D2D2D2D2D
310
2D2D2D2DBEBEBE2D2D2D2D2D2D2D2D2DF500000000000000000000000000000000000000000000000000000000000000000000000000000000000000000000000000000000000000000000000000000000000000DC00BE00000000000000000000000000000000000000000000000000000000000000000000000000000000
310
0000000000BE00DC000000000000002D0028BE000000000000280000000028BE0000000000BE2800000000000000000000002D0028280028000000002828BE2D00000000000000000000002D28DC280000000000280000000000000000000000000000000000000000000000DC00BE00DC0000000000000000000000000000
310
0000000000000000000000000000000000000000000000000000000000000000000000000000000000000000000000000000000000000000000000000000000000000000000000000000000000000000000000000000DC00BE0000000000000000000000000000000000000000000000000000000000000000000000000000
310
00000000000000BE00DC000000000000002D0028BE000000000000280000000028BE0000000000BE2800000000000000000000002D0028280028000000002828002D00000000000000000000002D28DC280000000000280000000000000000000000000000000000000000000000DC00BE00DC000000000000000000000000
310
00000000000000000000000000000000000000000000000000000000000000000000000000000000000000000000000000000000000000000000000000000000000000000000000000000000000000000000000000000000DC00BE000000000000000000000000000000000000000000000000000000000000000000000000
310
000000000000000000BE00DC000000000000002D0028BE000000000000280000000028BE0000000000BE2800000000000000000000002D0028280028000000002828002D00000000000000000000002D28DC280000000000280000000000000000000000000000000000000000000000DC00BE00DC00000000000000000000
310
00000000000000000000000000000000000000000000F52DF52D00000000000000000000000000000000000000000000000000000000000000000000000000000000000000000000000000000000000000000000000000000000DC00BE00000000000000000000000000000000000000000000000000000000000000000000
310
0000000000000000000000BE00DC000000000000002D0028BE000000000000280000000028BE0000000000BE2800000000000000000000002D0028280028000000002828002D00000000000000000000002D28DC280000000000280000000000000000000000000000000000000000000000DC00BE00DC0000000000000000
310
000000002D2D000000000000000000000000000000000000F5002D0000000000000000000000000000000000000000000000000000000000000000000000000000000000000000000000000000000000000000000000000000000000DC00BE0000000000000000000000000000000000000000000000000000000000000000
310
00000000000000000000000000BE00DC000000000000002D0028BE000000000000280000000028BE0000000000BE2800000000000000000000002D0028280028000000002828002D00000000000000000000002D28DC280000000000280000000000000000000000000000000000000000000000DC00BE00DC000000000000
310
0000002D2DF52D2D000000000000000000000000000000000000F5002D0000000000000000000000000000000000000000000000000000000000000000000000000000000000000000000000000000000000000000000000000000000000DC00BE000000000000000000000000000000000000000000000000000000000000
310
000000000000000000000000000000BE00DC000000000000002D0028BE000000000000280000000028BE0000000000BE2800000000000000000000002D0028280028000000002828002D00000000000000000000002D28DC280000000000280000000000000000000000000000000000000000000000DC00BE00DC00000000
310
000000000000002D2D00000000000000000000000000000000000000F5BE2D0000000000000000000000000000000000000000000000000000000000000000000000000000000000000000000000000000000000000000000000000000000000DC00BE00000000000000000000000000000000000000000000000000000000
310
0000000000000000000000000000000000BE00DC000000000000002D0028BE000000000000DCDCDCDCDCDCBE0000000000BE2800000000000000000000002D0028280028000000002828002D00000000000000000000002D28DC28DCDCDCDCDC280000000000000000000000000000000000000000000000DC00BE00DC0000
310
000000000000000000F5F500000000000000000000000000000000000000F5BE2D0000000000000000000000000000000000000000000000000000000000000000000000000000000000000000000000000000000000000000000000000000000000DC00BE0000000000000000000000000000000000000000000000000000
310
00000000000000000000000000000000000000BE00DC000000000000002D0028BE280000000000BEBEBEBEBE00BE0000000028BE2800000000000000000000002D0028280028000000282828002D00000000000000000000002D2828000000000000280000000000000000000000000000000000000000000000DC00BE00DC
310
00000000000000002DF52D2D0000000000000000000000000000000000000000F5002D0000000000000000000000000000000000000000000000000000000000000000000000000000000000000000000000000000000000000000000000000000000000DC00BE000000000000000000000000000000000000000000000000
310
000000000000000000000000000000000000000000BE00DC000000000000002D0028BE280000000000BE0000280000BE0000000028BE2800000000000000000000002D0028280028000000280028002D00000000000000000000002D2828000000000000280000000000000000000000000000000000000000000000DC00BE
310
00DC0000000000000000002D002D2DF5000000000000000000000000000000000000F5002D0000000000000000000000000000000000000000000000000000000000000000000000000000000000000000000000000000000000000000000000000000000000DC00BE00000000000000000000000000000000000000000000
310
0000000000000000000000000000000000000000000000BE00DC000000000000002D002828282828282828282828282828282828282828282800000000000000000000002D002828F528282828280028002D000000000000000000002D2D2828F5F500000000280000000000000000000000000000000000000000000000DC
310
00BE00DC0000000000000000BE2D2D00BEBEBE0000000000000000000000000000000000F5002D0000000000000000000000000000000000000000000000000000000000000000000000000000000000000000000000000000000000000000000000000000000000DC00BE0000000000000000000000000000000000000000
310
00000000000000000000000000000000000000000000000000BE00DC000000000000002D2DF5282828282828282828F5BE2828282828282828282800000000000000000000002D2DF528F5F52828282828DC2D2D000000000000000000002D2DF528F52D282828282800000000000000000000000000000000000000000000
310
00DC00BE00DC0000000000000000002D0000F5BEBE2D00000000000000000000000000000000F5002D0000000000000000000000000000000000000000000000000000000000000000000000000000000000000000000000000000000000000000000000000000000000DC00BE000000000000000000000000000000000000
310
000000000000000000000000000000000000000000000000000000BE00DC0000000000000000002D2D2D2D2D2D2D2D2D2D2D2D2D2D2D2D2D2D2D2D2DF5000000000000000000000000002D00000000000000002D0000000000000000000000002D2DBEBEF52D2D000000000000000000000000000000000000000000000000
310
000000DC00BE00DC0000000000000000002D2D2DF5F52D2DF5F5F5F5F5F5F5BEF5F5F5F5F5F5F5F5F52D2D2D00000000000000000000000000000000000000000000000000000000000000000000000000000000000000000000000000000000000000000000000000000000DC00BE00000000000000000000000000000000
310
0000000000000000000000000000000000000000000000000000000000BE00DC0000000000000000002D2D0000000000000000BEBE00000000000000002D2D000000000000000000000000002D2D2D2DBEBE2D2D2DF50000000000000000000000000000000000000000000000000000000000000000000000000000000000
310
0000000000DC00BE00DC0000000000000000000000002D2D2D00000000000000BEBE000000000000002D2D00000000000000000000000000000000000000000000000000000000000000000000000000000000000000000000000000000000000000000000000000000000000000DC00BE0000000000000000000000000000
310
00000000000000000000000000000000000000000000000000000000000000BE00DC000000000000000000000000000000000000000000000000000000000000000000000000000000000000000000000000000000000000000000000000000000000000000000000000000000000000000000000000000000000000000000
310
00000000000000DC00BE00DC000000000000000000000000F52D2D2D2D2D2D2DBEBEBE2DBE2D2D2D2D2D2D2D2D00000000000000000000000000000000000000000000000000000000000000000000000000000000000000000000000000000000000000000000000000000000000000DC00BE000000000000000000000000
310
000000000000000000000000000000000000000000000000000000000000000000BE00DC00000000000000000000000000000000000000000000000000000000000000000000000000000000000000000000000000000000000000000000000000000000000000000000000000000000000000000000000000000000000000
310
000000000000000000DC00BE00DC00000000000000000000000000000000000000000000000000000000000000000000000000000000000000000000000000000000000000000000000000000000000000000000000000000000000000000000000000000000000000000000000000000000DC00BE00000000000000000000
310
0000000000000000000000000000000000000000000000000000000000000000000000BE00DCDCDCDCDCDCDCDCDCDCDCDCDCDCDCDCDCDCDCDCDCDCDCDCDCDCDCDCDCDCDCDCDCDCDCDCDCDCDCDCDCDCDCDCDCDCDCDCDCDCDCDCDCDCDCDCDCDCDCDCDCDCDCDCDCDCDCDCDCDCDCDCDCDCDCDCDCDCDCDCDCDCDCDCDCDCDCDCDCDC
310
DCDCDCDCDCDCDCDCDCDCDCDC00BE00DCDCDCDCDCDCDCDCDCDCDCDCDCDCDCDCDCDCDCDCDCDCDCDCDCDCDCDCDCDCDCDCDCDCDCDCDCDCDCDCDCDCDCDCDCDCDCDCDCDCDCDCDCDCDCDCDCDCDCDCDCDCDCDCDCDCDCDCDCDCDCDCDCDCDCDCDCDCDCDCDCDCDCDCDCDCDCDCDCDCDCDCDCDCDCDCDCDCDCDCDCDC00BE0000000000000000
310
00000000000000000000000000000000000000000000000000000000000000000000000000BE0000000000000000000000000000000000000000000000000000000000000000000000000000000000000000000000000000000000000000000000000000000000000000000000000000000000000000000000000000000000
310
000000000000000000000000000000BE0000000000000000000000000000000000000000000000000000000000000000000000000000000000000000000000000000000000000000000000000000000000000000000000000000000000000000000000000000000000000000000000000000000000000000BE000000000000
310
000000000000000000000000000000000000000000000000000000000000000000000000000000BEBEBEBEBEBEBEBEBEBEBEBEBEBEBEBEBEBEBEBEBEBEBEBEBEBEBEBEBEBEBEBEBEBEBEBEBEBEBEBEBEBEBEBEBEBEBEBEBEBEBEBEBEBEBEBEBEBEBEBEBEBEBEBEBEBEBEBEBEBEBEBEBEBEBEBEBEBEBEBEBEBEBEBEBEBEBEBE
310
BEBEBEBEBEBEBEBEBEBEBEBEBEBEBEBEBEBEBEBEBEBEBEBEBEBEBEBEBEBEBEBEBEBEBEBEBEBEBEBEBEBEBEBEBEBEBEBEBEBEBEBEBEBEBEBEBEBEBEBEBEBEBEBEBEBEBEBEBEBEBEBEBEBEBEBEBEBEBEBEBEBEBEBEBEBEBEBEBEBEBEBEBEBEBEBEBEBEBEBEBEBEBEBEBEBEBEBEBEBEBEBEBEBEBEBEBEBEBEBEBEBEBE00000000
310
00000000000000000000000000000000000000000000000000000000000000000000000000000000000000000000000000000000000000000000000000000000000000000000000000000000000000000000000000000000000000000000000000000000000000000000000000000000000000000000000000000000000000
310
00000000000000000000000000000000000000000000000000000000000000000000000000000000000000000000000000000000000000000000000000000000000000000000000000000000000000000000000000000000000000000000000000000000000000000000000000000000000000000000000000000000000000
310
00000000000000000000000000000000000000000000000000000000000000000000000000000000000000000000000000000000000000000000000000000000000000000000000000000000000000000000000000000000000000000000000000000000000000000000000000000000000000000000000000000000000000
310
00000000000000000000000000000000000000000000000000000000000000000000000000000000000000000000000000000000000000000000000000000000000000000000000000000000000000000000000000000000000000000000000000000000000000000000000000000000000000000000000000000000000000
310
00000000000000000000000000000000000000000000000000000000000000000000000000000000000000000000000000000000000000000000000000000000000000000000000000000000000000000000000000000000000000000000000000000000000000000000000000000000000000000000000000000000000000
310
00000000000000000000000000000000000000000000000000000000000000000000000000000000000000000000000000000000000000000000000000000000000000000000000000000000000000000000000000000000000000000000000000000000000000000000000000000000000000000000000000000000000000
310
00000000000000000000000000000000000000000000000000000000000000000000000000000000000000000000000000000000000000000000000000000000000000000000000000000000000000000000000000000000000000000000000000000000000000000000000000000000000000000000000000000000000000
310
00000000000000000000000000000000000000000000000000000000000000000000000000000000000000000000000000000000000000000000000000000000000000000000000000000000000000000000000000000000000000000000000000000000000000000000000000000000000000000000000000000000000000
310
00000000000000000000000000000000000000000000000000000000000000000000000000000000000000000000000000000000000000000000000000000000000000000000000000000000000000000000000000000000000000000000000000000000000000000000000000000000000000000000000000000000000000
310
00000000000000000000000000000000000000000000000000000000000000000000000000000000000000000000000000000000000000000000000000000000000000000000000000000000000000000000000000000000000000000000000000000000000000000000000000000000000000000000000000000000000000
310
00000000000000000000000000000000000000000000000000000000000000000000000000000000000000000000000000000000000000000000000000000000000000000000000000000000000000000000000000000000000000000000000000000000000000000000000000000000000000000000000000000000000000
310
00000000000000000000000000000000000000000000000000000000000000000000000000000000000000000000000000000000000000000000000000000000000000000000000000000000000000000000000000000000000000000000000000000000000000000000000000000000000000000000000000000000000000
310
00000000000000000000000000000000000000000000000000000000000000000000000000000000000000000000000000000000000000000000000000000000000000000000000000000000000000000000000000000000000000000000000000000000000000000000000000000000000000000000000000000000000000
310
00000000000000000000000000000000000000000000000000000000000000000000000000000000000000000000000000000000000000000000000000000000000000000000000000000000000000000000000000000000000000000000000000000000000000000000000000000000000000000000000000000000000000
310
00000000000000000000000000000000000000000000000000000000000000000000000000000000000000000000000000000000000000000000000000000000000000000000000000000000000000000000000000000000000000000000000000000000000000000000000000000000000000000000000000000000000000
310
00000000000000000000000000000000000000000000000000000000000000000000000000000000000000000000000000000000000000000000000000000000000000000000000000000000000000000000000000000000000000000000000000000000000000000000000000000000000000000000000000000000000000
310
00000000000000000000000000000000000000000000000000000000000000000000000000000000000000000000000000000000000000000000000000000000000000000000000000000000000000000000000000000000000000000000000000000000000000000000000000000000000000000000000000000000000000
310
00000000000000000000000000000000000000000000000000000000000000000000000000000000000000000000000000000000000000000000000000000000000000000000000000000000000000000000000000000000000000000000000000000000000000000000000000000000000000000000000000000000000000
310
00000000000000000000000000000000000000000000000000000000000000000000000000000000000000000000000000000000000000000000000000000000000000000000000000000000000000000000000000000000000000000000000000000000000000000000000000000000000000000000000000000000000000
310
00000000000000000000000000000000000000000000000000000000000000000000000000000000000000000000000000000000000000000000000000000000000000000000000000000000000000000000000000000000000000000000000000000000000000000000000000000000000000000000000000000000000000
310
00000000000000000000000000000000000000000000000000000000000000000000000000000000000000000000000000000000000000000000000000000000000000000000000000F5F5F5F5F5F5F5F5F5F5F5F5F5F5F5F5F5F5F5F5F5F50000000000000000000000000000000000000000000000000000000000000000
310
00000000000000000000000000000000000000000000000000000000000000000000000000000000000000000000000000000000000000000000000000000000000000000000000000000000000000000000000000000000000000000000000000000000000000000000000000000000000000000000000000000000000000
310
000000000000000000000000000000000000000000000000000000000000000000000000000000000000000000000000000000000000000000000000000000000000000000000000000000F5F5F5F5F5F5F5F5F5F5F5F5F5F5F5F5F5F5F5F5F5F5000000000000000000000000000000000000000000000000000000000000
310
00000000000000000000000000000000000000000000000000000000000000000000000000000000000000000000000000000000000000000000000000000000000000000000000000000000000000000000000000000000000000000000000000000000000000000000000000000000000000000000000000000000000000
310
0000000000000000000000000000000000000000000000000000000000000000000000000000000000000000000000000000000000000000000000000000000000000000000000000000000000F50000000000000000000000000000000000000000F500000000000000000000000000000000000000000000000000000000
310
00000000000000000000000000000000000000000000000000000000000000000000000000000000000000000000000000000000000000000000000000000000000000000000000000000000000000000000000000000000000000000000000000000000000000000000000000000000000000000000000000000000000000
310
00000000000000000000000000000000000000000000000000000000000000000000000000000000000000000000000000000000000000000000000000000000000000000000000000000000000000F5000000F5F50000000000F50000000000F5000000F50000000000000000000000000000000000000000000000000000
310
00000000000000000000000000000000000000000000000000000000000000000000000000000000000000000000000000000000000000000000000000000000000000000000000000000000000000000000000000000000000000000000000000000000000000000000000000000000000000000000000000000000000000
310
000000000000000000000000000000000000000000000000000000000000000000000000000000000000000000000000000000000000000000000000000000000000000000000000000000000000000000F5000000F5F50000000000F50000000000F5000000F5000000000000000000000000000000000000000000000000
310
00000000000000000000000000000000000000000000000000000000000000000000000000000000000000000000000000000000000000000000000000000000000000000000000000000000000000000000000000000000000000000000000000000000000000000000000000000000000000000000000000000000000000
310
0000000000000000000000000000000000000000000000000000000000000000000000000000000000000000000000000000000000000000000000000000000000000000000000000000000000000000000000F5000000F5F50000000000F50000000000F5000000F500000000000000000000000000000000000000000000
310
00000000000000000000000000000000000000000000000000000000000000000000000000000000000000000000000000000000000000000000000000000000000000000000000000000000000000000000000000000000000000000000000000000000000000000000000000000000000000000000000000000000000000
310
00000000000000000000000000000000000000000000000000000000000000000000000000000000000000000000000000000000000000000000000000000000000000000000000000000000000000000000000000F5000000F5F50000000000F50000000000F5000000F50000000000000000000000000000000000000000
310
00000000000000000000000000000000000000000000000000000000000000000000000000000000000000000000000000000000000000000000000000000000000000000000000000000000000000000000000000000000000000000000000000000000000000000000000000000000000000000000000000000000000000
310
000000000000000000000000000000000000000000000000000000000000000000000000000000000000000000000000000000000000000000000000000000000000000000000000000000000000000000000000000000F5000000F5F50000000000F50000000000F5000000F5000000000000000000000000000000000000
310
00000000000000000000000000000000000000000000000000000000000000000000000000000000000000000000000000000000000000000000000000000000000000000000000000000000000000000000000000000000000000000000000000000000000000000000000000000000000000000000000000000000000000
310
0000000000000000000000000000000000000000000000000000000000000000000000000000000000000000000000000000000000000000000000000000000000000000000000000000000000000000000000000000000000F50000000000000000000000000000000000000000F500000000000000000000000000000000
310
00000000000000000000000000000000000000000000000000000000000000000000000000000000000000000000000000000000000000000000000000000000000000000000000000000000000000000000000000000000000000000000000000000000000000000000000000000000000000000000000000000000000000
310
00000000000000000000000000000000000000000000000000000000000000000000000000000000000000000000000000000000000000000000000000000000000000000000000000000000000000000000000000000000000000F50000000000000000000000000000000000000000F50000000000000000000000000000
310
00000000000000000000000000000000000000000000000000000000000000000000000000000000000000000000000000000000000000000000000000000000000000000000000000000000000000000000000000000000000000000000000000000000000000000000000000000000000000000000000000000000000000
310
000000000000000000000000000000000000000000000000000000000000000000000000000000000000000000000000000000000000000000000000000000000000000000000000000000000000000000000000000000000000000000F50000000000000000000000000000000000000000F5000000000000000000000000
310
00000000000000000000000000000000000000000000000000000000000000000000000000000000000000000000000000000000000000000000000000000000000000000000000000000000000000000000000000000000000000000000000000000000000000000000000000000000000000000000000000000000000000
310
0000000000000000000000000000000000000000000000000000000000000000000000000000000000000000000000000000000000000000000000000000000000000000000000000000000000000000000000000000000000000000000000F50000000000000000000000000000000000000000F500000000000000000000
310
00000000000000000000000000000000000000000000000000000000000000000000000000000000000000000000000000000000000000000000000000000000000000000000000000000000000000000000000000000000000000000000000000000000000000000000000000000000000000000000000000000000000000
310
00000000000000000000000000000000000000000000000000000000000000000000000000000000000000000000000000000000000000000000000000000000000000000000000000000000000000000000000000000000000000000000000000F50000000000000000000000000000000000000000F50000000000000000
310
00000000000000000000000000000000000000000000000000000000000000000000000000000000000000000000000000000000000000000000000000000000000000000000000000000000000000000000000000000000000000000000000000000000000000000000000000000000000000000000000000000000000000
310
000000000000000000000000000000000000000000000000000000000000000000000000000000000000000000000000000000000000000000000000000000000000000000000000000000000000000000000000000000000000000000000000000000F50000000000000000000000000000000000000000F5000000000000
310
00000000000000000000000000000000000000000000000000000000000000000000000000000000000000000000000000000000000000000000000000000000000000000000000000000000000000000000000000000000000000000000000000000000000000000000000000000000000000000000000000000000000000
310
0000000000000000000000000000000000000000000000000000000000000000000000000000000000000000000000000000000000000000000000000000000000000000000000000000000000000000000000000000000000000000000000000000000000F50000000000000000000000000000000000000000F500000000
310
00000000000000000000000000000000000000000000000000000000000000000000000000000000000000000000000000000000000000000000000000000000000000000000000000000000000000000000000000000000000000000000000000000000000000000000000000000000000000000000000000000000000000
310
00000000000000000000000000000000000000000000000000000000000000000000000000000000000000000000000000000000000000000000000000000000000000000000000000000000000000000000000000000000000000000000000000000000000000F50000000000000000000000000000000000000000F50000
310
00000000000000000000000000000000000000000000000000000000000000000000000000000000000000000000000000000000000000000000000000000000000000000000000000000000000000000000000000000000000000000000000000000000000000000000000000000000000000000000000000000000000000
310
000000000000000000000000000000000000000000000000000000000000000000000000000000000000000000000000000000000000000000000000000000000000000000000000000000000000000000000000000000000000000000000000000000000000000000F50000000000000000000000000000000000000000F5
310
00000000000000000000000000000000000000000000000000000000000000000000000000000000000000000000000000000000000000000000000000000000000000000000000000000000000000000000000000000000000000000000000000000000000000000000000000000000000000000000000000000000000000
310
0000000000000000000000000000000000000000000000000000000000000000000000000000000000000000000000000000000000000000000000000000000000000000000000000000000000000000000000000000000000000000000000000000000000000000000000F500000000000000000000000000000000000000
310
00F50000000000000000000000000000000000000000000000000000000000000000000000000000000000000000000000000000000000000000000000000000000000000000000000000000000000000000000000000000000000000000000000000000000000000000000000000000000000000000000000000000000000
310
00000000000000000000000000000000000000000000000000000000000000000000000000000000000000000000000000000000000000000000000000000000000000000000000000000000000000000000000000000000000000000000000000000000000000000000000000F50000000000000000000000000000000000
310
000000F5000000000000000000000000000000000000000000000000000000000000000000000000000000000000000000000000000000000000000000000000000000000000000000000000000000000000000000000000000000000000000000000000000000000000000000000000000000000000000000000000000000
310
000000000000000000000000000000000000000000000000000000000000000000000000000000000000000000000000000000000000000000000000000000000000000000000000000000000000000000000000000000000000000000000000000000000000000000000000000000F5000000000000000000000000000000
310
0000000000F500000000000000000000000000000000000000000000000000000000000000000000000000000000000000000000000000000000000000000000000000000000000000000000000000000000000000000000000000000000000000000000000000000000000000000000000000000000000000000000000000
310
0000000000000000000000000000000000000000000000000000000000000000000000000000000000000000000000000000000000000000000000000000000000000000000000000000000000000000000000000000000000000000000000000000000000000000000000000000000000F500000000000000000000000000
310
00000000000000F50000000000000000000000000000000000000000000000000000000000000000000000000000000000000000000000000000000000000000000000000000000000000000000000000000000000000000000000000000000000000000000000000000000000000000000000000000000000000000000000
310
00000000000000000000000000000000000000000000000000000000000000000000000000000000000000000000000000000000000000000000000000000000000000000000000000000000000000000000000000000000000000000000000000000000000000000000000000000000000000F5F5F5F5F5F5F5F5F5F5F5F5
310
F5F5F5F5F5F5F5F5F5F5000000000000000000000000000000000000000000000000000000000000000000000000000000000000000000000000000000000000000000000000000000000000000000000000000000000000000000000000000000000000000000000000000000000000000000000000000000000000000000
310
00000000000000000000000000000000000000000000000000000000000000000000000000000000000000000000000000000000000000000000000000000000000000000000000000000000000000000000000000000000000000000000000000000000000000000000000000000000000000000000000000000000000000
310
00000000000000000000000000000000000000000000000000000000000000000000000000000000000000000000000000000000000000000000000000000000000000000000000000000000000000000000000000000000000000000000000000000000000000000000000000000000000000000000000000000000000000
310
00000000000000000000000000000000000000000000000000000000000000000000000000000000000000000000000000000000000000000000000000000000000000000000000000000000000000000000000000000000000000000000000000000000000000000000000000000000000000000000000000000000000000
310
00000000000000000000000000000000000000000000000000000000000000000000000000000000000000000000000000000000000000000000000000000000000000000000000000000000000000000000000000000000000000000000000000000000000000000000000000000000000000000000000000000000000000
310
00000000000000000000000000000000000000000000000000000000000000000000000000000000000000000000000000000000000000000000000000000000000000000000000000000000000000000000000000000000000000000000000000000000000000000000000000000000000000000000000000000000000000
310
00000000000000000000000000000000000000000000000000000000000000000000000000000000000000000000000000000000000000000000000000000000000000000000000000000000000000000000000000000000000000000000000000000000000000000000000000000000000000000000000000000000000000
310
00000000000000000000000000000000000000000000000000000000000000000000000000000000000000000000000000000000000000000000000000000000000000000000000000000000000000000000000000000000000000000000000000000000000000000000000000000000000000000000000000000000000000
310
00000000000000000000000000000000000000000000000000000000000000000000000000000000000000000000000000000000000000000000000000000000000000000000000000000000000000000000000000000000000000000000000000000000000000000000000000000000000000000000000000000000000000
310
00000000000000000000000000000000000000000000000000000000000000000000000000000000000000000000000000000000000000000000000000000000000000000000000000000000000000000000000000000000000000000000000000000000000000000000000000000000000000000000000000000000000000
310
00000000000000000000000000000000000000000000000000000000000000000000000000000000000000000000000000000000000000000000000000000000000000000000000000000000000000000000000000000000000000000000000000000000000000000000000000000000000000000000000000000000000000
310
00000000000000000000000000000000000000000000000000000000000000000000000000000000000000000000000000000000000000000000000000000000000000000000000000000000000000000000000000000000000000000000000000000000000000000000000000000000000000000000000000000000000000
310
00000000000000000000000000000000000000000000000000000000000000000000000000000000000000000000000000000000000000000000000000000000000000000000000000000000000000000000000000000000000000000000000000000000000000000000000000000000000000000000000000000000000000
310
00000000000000000000000000000000000000000000000000000000000000000000000000000000000000000000000000000000000000000000000000000000000000000000000000000000000000000000000000000000000000000000000000000000000000000000000000000000000000000000000000000000000000
310
00000000000000000000000000000000000000000000000000000000000000000000000000000000000000000000000000000000000000000000000000000000000000000000000000000000000000000000000000000000000000000000000000000000000000000000000000000000000000000000000000000000000000
310
00000000000000000000000000000000000000000000000000000000000000000000000000000000000000000000000000000000000000000000000000000000000000000000000000000000000000000000000000000000000000000000000000000000000000000000000000000000000000000000000000000000000000
310
00000000000000000000000000000000000000000000000000000000000000000000000000000000000000000000000000000000000000000000000000000000000000000000000000000000000000000000000000000000000000000000000000000000000000000000000000000000000000000000000000000000000000
310
00000000000000000000000000000000000000000000000000000000000000000000000000000000000000000000000000000000000000000000000000000000000000000000000000000000000000000000000000000000000000000000000000000000000000000000000000000000000000000000000000000000000000
310
00000000000000000000000000000000000000000000000000000000000000000000000000000000000000000000000000000000000000000000000000000000000000000000000000000000000000000000000000000000000000000000000000000000000000000000000000000000000000000000000000000000000000
310
000000000000000000000000000000000000000000000000000000000000000000000000000000000000000000000000000000000000000000000000000000000000000000000000000000000000000000000000
  0
XRECORD
  5
45
102
{ACAD_REACTORS
330
44
102
}
330
44
100
AcDbXrecord
280
     1
270
     1
271
     1
  0
XRECORD
  5
46
102
{ACAD_REACTORS
330
44
102
}
330
44
100
AcDbXrecord
280
     1
270
     1
271
     1
  0
XRECORD
  5
47
102
{ACAD_REACTORS
330
44
102
}
330
44
100
AcDbXrecord
280
     1
270
     1
271
     1
  0
XRECORD
  5
48
102
{ACAD_REACTORS
330
44
102
}
330
44
100
AcDbXrecord
280
     1
270
     1
271
     1
  0
XRECORD
  5
49
102
{ACAD_REACTORS
330
44
102
}
330
44
100
AcDbXrecord
280
     1
270
     1
271
     1
  0
XRECORD
  5
4A
102
{ACAD_REACTORS
330
44
102
}
330
44
100
AcDbXrecord
280
     1
270
     1
271
     1
  0
XRECORD
  5
3D
102
{ACAD_REACTORS
330
3C
102
}
330
3C
100
AcDbXrecord
280
     1
270
     1
271
     1
  0
XRECORD
  5
3E
102
{ACAD_REACTORS
330
3C
102
}
330
3C
100
AcDbXrecord
280
     1
270
     1
271
     1
  0
XRECORD
  5
3F
102
{ACAD_REACTORS
330
3C
102
}
330
3C
100
AcDbXrecord
280
     1
270
     1
271
     1
  0
XRECORD
  5
40
102
{ACAD_REACTORS
330
3C
102
}
330
3C
100
AcDbXrecord
280
     1
270
     1
271
     1
  0
XRECORD
  5
41
102
{ACAD_REACTORS
330
3C
102
}
330
3C
100
AcDbXrecord
280
     1
270
     1
271
     1
  0
XRECORD
  5
42
102
{ACAD_REACTORS
330
3C
102
}
330
3C
100
AcDbXrecord
280
     1
270
     1
271
     1
  0
XRECORD
  5
F
102
{ACAD_REACTORS
330
E
102
}
330
E
100
AcDbXrecord
280
     1
270
     1
271
     1
  0
XRECORD
  5
10
102
{ACAD_REACTORS
330
E
102
}
330
E
100
AcDbXrecord
280
     1
270
     1
271
     1
  0
XRECORD
  5
11
102
{ACAD_REACTORS
330
E
102
}
330
E
100
AcDbXrecord
280
     1
270
     1
271
     1
  0
XRECORD
  5
12
102
{ACAD_REACTORS
330
E
102
}
330
E
100
AcDbXrecord
280
     1
270
     1
271
     1
  0
XRECORD
  5
13
102
{ACAD_REACTORS
330
E
102
}
330
E
100
AcDbXrecord
280
     1
270
     1
271
     1
  0
XRECORD
  5
14
102
{ACAD_REACTORS
330
E
102
}
330
E
100
AcDbXrecord
280
     1
270
     1
271
     1
  0
CELLSTYLEMAP
  5
430
102
{ACAD_REACTORS
330
54
102
}
330
54
100
AcDbCellStyleMap
 90
        3
300
CELLSTYLE
  1
TABLEFORMAT_BEGIN
 90
        5
170
     1
 91
        0
 92
    32768
 62
   257
 93
        1
300
CONTENTFORMAT
  1
CONTENTFORMAT_BEGIN
 90
        0
 91
        0
 92
      512
 93
        0
300

 40
0.0
140
1.0
 94
        5
 62
     0
340
24
144
0.25
309
CONTENTFORMAT_END
171
     0
 94
        0
309
TABLEFORMAT_END
  1
CELLSTYLE_BEGIN
 90
        1
 91
        1
300
_TITLE
309
CELLSTYLE_END
300
CELLSTYLE
  1
TABLEFORMAT_BEGIN
 90
        5
170
     1
 91
        0
 92
        0
 62
   257
 93
        1
300
CONTENTFORMAT
  1
CONTENTFORMAT_BEGIN
 90
        0
 91
        0
 92
      512
 93
        0
300

 40
0.0
140
1.0
 94
        5
 62
     0
340
24
144
0.18
309
CONTENTFORMAT_END
171
     0
 94
        0
309
TABLEFORMAT_END
  1
CELLSTYLE_BEGIN
 90
        2
 91
        1
300
_HEADER
309
CELLSTYLE_END
300
CELLSTYLE
  1
TABLEFORMAT_BEGIN
 90
        5
170
     1
 91
        0
 92
        0
 62
   257
 93
        1
300
CONTENTFORMAT
  1
CONTENTFORMAT_BEGIN
 90
        0
 91
        0
 92
      512
 93
        0
300

 40
0.0
140
1.0
 94
        2
 62
     0
340
24
144
0.18
309
CONTENTFORMAT_END
171
     0
 94
        0
309
TABLEFORMAT_END
  1
CELLSTYLE_BEGIN
 90
        3
 91
        2
300
_DATA
309
CELLSTYLE_END
  0
ENDSEC
  0
EOF
