  0
SECTION
  2
HEADER
  9
$ACADVER
  1
AC1024
  9
$ACADMAINTVER
 70
    37
  9
$DWGCODEPAGE
  3
ANSI_1252
  9
$INSBASE
 10
0.0
 20
0.0
 30
0.0
  9
$EXTMIN
 10
-8535.928086717687
 20
-1140.601399277622
 30
-0.0015258207003583
  9
$EXTMAX
 10
9688.082850717227
 20
6171.744882156072
 30
0.0000000349246037
  9
$LIMMIN
 10
0.0
 20
0.0
  9
$LIMMAX
 10
2100.0
 20
2970.000000000001
  9
$ORTHOMODE
 70
     1
  9
$REGENMODE
 70
     1
  9
$FILLMODE
 70
     1
  9
$QTEXTMODE
 70
     0
  9
$MIRRTEXT
 70
     0
  9
$LTSCALE
 40
15.0
  9
$ATTMODE
 70
     1
  9
$TEXTSIZE
 40
20.0
  9
$TRACEWID
 40
1.0
  9
$TEXTSTYLE
  7
STANDARD
  9
$CLAYER
  8
09-01
  9
$CELTYPE
  6
ByLayer
  9
$CECOLOR
 62
   256
  9
$CELTSCALE
 40
1.0
  9
$DISPSILH
 70
     0
  9
$DIMSCALE
 40
5.0
  9
$DIMASZ
 40
2.5
  9
$DIMEXO
 40
1.0
  9
$DIMDLI
 40
10.0
  9
$DIMRND
 40
0.0
  9
$DIMDLE
 40
0.0
  9
$DIMEXE
 40
1.0
  9
$DIMTP
 40
0.0
  9
$DIMTM
 40
0.0
  9
$DIMTXT
 40
2.5
  9
$DIMCEN
 40
0.0
  9
$DIMTSZ
 40
0.0
  9
$DIMTOL
 70
     0
  9
$DIMLIM
 70
     0
  9
$DIMTIH
 70
     0
  9
$DIMTOH
 70
     0
  9
$DIMSE1
 70
     0
  9
$DIMSE2
 70
     0
  9
$DIMTAD
 70
     1
  9
$DIMZIN
 70
     8
  9
$DIMBLK
  1

  9
$DIMASO
 70
     1
  9
$DIMSHO
 70
     0
  9
$DIMPOST
  1

  9
$DIMAPOST
  1

  9
$DIMALT
 70
     0
  9
$DIMALTD
 70
     3
  9
$DIMALTF
 40
0.03937007874016
  9
$DIMLFAC
 40
1.0
  9
$DIMTOFL
 70
     1
  9
$DIMTVP
 40
0.0
  9
$DIMTIX
 70
     0
  9
$DIMSOXD
 70
     0
  9
$DIMSAH
 70
     0
  9
$DIMBLK1
  1

  9
$DIMBLK2
  1

  9
$DIMSTYLE
  2
Wagner
  9
$DIMCLRD
 70
     4
  9
$DIMCLRE
 70
     4
  9
$DIMCLRT
 70
     1
  9
$DIMTFAC
 40
1.0
  9
$DIMGAP
 40
1.0
  9
$DIMJUST
 70
     0
  9
$DIMSD1
 70
     0
  9
$DIMSD2
 70
     0
  9
$DIMTOLJ
 70
     0
  9
$DIMTZIN
 70
     8
  9
$DIMALTZ
 70
     0
  9
$DIMALTTZ
 70
     0
  9
$DIMUPT
 70
     0
  9
$DIMDEC
 70
     1
  9
$DIMTDEC
 70
     1
  9
$DIMALTU
 70
     2
  9
$DIMALTTD
 70
     3
  9
$DIMTXSTY
  7
STANDARD
  9
$DIMAUNIT
 70
     0
  9
$DIMADEC
 70
     1
  9
$DIMALTRND
 40
0.0
  9
$DIMAZIN
 70
     2
  9
$DIMDSEP
 70
    46
  9
$DIMATFIT
 70
     3
  9
$DIMFRAC
 70
     0
  9
$DIMLDRBLK
  1

  9
$DIMLUNIT
 70
     2
  9
$DIMLWD
 70
    -2
  9
$DIMLWE
 70
    -2
  9
$DIMTMOVE
 70
     0
  9
$DIMFXL
 40
1.0
  9
$DIMFXLON
 70
     0
  9
$DIMJOGANG
 40
0.7853981633974483
  9
$DIMTFILL
 70
     0
  9
$DIMTFILLCLR
 70
     0
  9
$DIMARCSYM
 70
     0
  9
$DIMLTYPE
  6

  9
$DIMLTEX1
  6

  9
$DIMLTEX2
  6

  9
$DIMTXTDIRECTION
 70
     0
  9
$LUNITS
 70
     2
  9
$LUPREC
 70
     1
  9
$SKETCHINC
 40
1.0
  9
$FILLETRAD
 40
0.0
  9
$AUNITS
 70
     0
  9
$AUPREC
 70
     2
  9
$MENU
  1
cncmenue
  9
$ELEVATION
 40
0.0
  9
$PELEVATION
 40
0.0
  9
$THICKNESS
 40
0.0
  9
$LIMCHECK
 70
     0
  9
$CHAMFERA
 40
0.0
  9
$CHAMFERB
 40
0.0
  9
$CHAMFERC
 40
0.0
  9
$CHAMFERD
 40
0.0
  9
$SKPOLY
 70
     0
  9
$TDCREATE
 40
2451036.686584491
  9
$TDUCREATE
 40
2451036.644917824
  9
$TDUPDATE
 40
2457697.623620243
  9
$TDUUPDATE
 40
2457697.581953576
  9
$TDINDWG
 40
3.9239516667
  9
$TDUSRTIMER
 40
3.9239516667
  9
$USRTIMER
 70
     1
  9
$ANGBASE
 50
0.0
  9
$ANGDIR
 70
     0
  9
$PDMODE
 70
     0
  9
$PDSIZE
 40
0.0
  9
$PLINEWID
 40
0.0
  9
$SPLFRAME
 70
     0
  9
$SPLINETYPE
 70
     6
  9
$SPLINESEGS
 70
     8
  9
$HANDSEED
  5
44E
  9
$SURFTAB1
 70
    24
  9
$SURFTAB2
 70
    24
  9
$SURFTYPE
 70
     6
  9
$SURFU
 70
     6
  9
$SURFV
 70
     6
  9
$UCSBASE
  2

  9
$UCSNAME
  2

  9
$UCSORG
 10
0.0
 20
0.0
 30
0.0
  9
$UCSXDIR
 10
1.0
 20
0.0
 30
0.0
  9
$UCSYDIR
 10
0.0
 20
1.0
 30
0.0
  9
$UCSORTHOREF
  2

  9
$UCSORTHOVIEW
 70
     0
  9
$UCSORGTOP
 10
0.0
 20
0.0
 30
0.0
  9
$UCSORGBOTTOM
 10
0.0
 20
0.0
 30
0.0
  9
$UCSORGLEFT
 10
0.0
 20
0.0
 30
0.0
  9
$UCSORGRIGHT
 10
0.0
 20
0.0
 30
0.0
  9
$UCSORGFRONT
 10
0.0
 20
0.0
 30
0.0
  9
$UCSORGBACK
 10
0.0
 20
0.0
 30
0.0
  9
$PUCSBASE
  2

  9
$PUCSNAME
  2

  9
$PUCSORG
 10
0.0
 20
0.0
 30
0.0
  9
$PUCSXDIR
 10
1.0
 20
0.0
 30
0.0
  9
$PUCSYDIR
 10
0.0
 20
1.0
 30
0.0
  9
$PUCSORTHOREF
  2

  9
$PUCSORTHOVIEW
 70
     0
  9
$PUCSORGTOP
 10
0.0
 20
0.0
 30
0.0
  9
$PUCSORGBOTTOM
 10
0.0
 20
0.0
 30
0.0
  9
$PUCSORGLEFT
 10
0.0
 20
0.0
 30
0.0
  9
$PUCSORGRIGHT
 10
0.0
 20
0.0
 30
0.0
  9
$PUCSORGFRONT
 10
0.0
 20
0.0
 30
0.0
  9
$PUCSORGBACK
 10
0.0
 20
0.0
 30
0.0
  9
$USERI1
 70
     0
  9
$USERI2
 70
     0
  9
$USERI3
 70
     0
  9
$USERI4
 70
     0
  9
$USERI5
 70
     0
  9
$USERR1
 40
0.0
  9
$USERR2
 40
0.0
  9
$USERR3
 40
0.0
  9
$USERR4
 40
0.0
  9
$USERR5
 40
0.0
  9
$WORLDVIEW
 70
     1
  9
$SHADEDGE
 70
     3
  9
$SHADEDIF
 70
    70
  9
$TILEMODE
 70
     1
  9
$MAXACTVP
 70
    16
  9
$PINSBASE
 10
0.0
 20
0.0
 30
0.0
  9
$PLIMCHECK
 70
     0
  9
$PEXTMIN
 10
1.000000000000000E+20
 20
1.000000000000000E+20
 30
1.000000000000000E+20
  9
$PEXTMAX
 10
-1.000000000000000E+20
 20
-1.000000000000000E+20
 30
-1.000000000000000E+20
  9
$PLIMMIN
 10
0.0
 20
0.0
  9
$PLIMMAX
 10
12.0
 20
9.0
  9
$UNITMODE
 70
     0
  9
$VISRETAIN
 70
     0
  9
$PLINEGEN
 70
     0
  9
$PSLTSCALE
 70
     0
  9
$TREEDEPTH
 70
  3020
  9
$CMLSTYLE
  2
Standard
  9
$CMLJUST
 70
     0
  9
$CMLSCALE
 40
1.0
  9
$PROXYGRAPHICS
 70
     1
  9
$MEASUREMENT
 70
     0
  9
$CELWEIGHT
370
    -1
  9
$ENDCAPS
280
     0
  9
$JOINSTYLE
280
     0
  9
$LWDISPLAY
290
     0
  9
$INSUNITS
 70
     0
  9
$HYPERLINKBASE
  1

  9
$STYLESHEET
  1

  9
$XEDIT
290
     1
  9
$CEPSNTYPE
380
     0
  9
$PSTYLEMODE
290
     1
  9
$FINGERPRINTGUID
  2
{2F2B8D70-2E58-43EF-B4C2-9FDD4451C50D}
  9
$VERSIONGUID
  2
{153D7DF7-5C0E-4386-8DB8-443AE2D9EF3C}
  9
$EXTNAMES
290
     1
  9
$PSVPSCALE
 40
0.0
  9
$OLESTARTUP
290
     0
  9
$SORTENTS
280
   127
  9
$INDEXCTL
280
     0
  9
$HIDETEXT
280
     1
  9
$XCLIPFRAME
280
     0
  9
$HALOGAP
280
     0
  9
$OBSCOLOR
 70
   257
  9
$OBSLTYPE
280
     0
  9
$INTERSECTIONDISPLAY
280
     0
  9
$INTERSECTIONCOLOR
 70
   257
  9
$DIMASSOC
280
     1
  9
$PROJECTNAME
  1

  9
$CAMERADISPLAY
290
     0
  9
$LENSLENGTH
 40
50.0
  9
$CAMERAHEIGHT
 40
0.0
  9
$STEPSPERSEC
 40
2.0
  9
$STEPSIZE
 40
6.0
  9
$3DDWFPREC
 40
2.0
  9
$PSOLWIDTH
 40
0.25
  9
$PSOLHEIGHT
 40
4.0
  9
$LOFTANG1
 40
1.570796326794896
  9
$LOFTANG2
 40
1.570796326794896
  9
$LOFTMAG1
 40
0.0
  9
$LOFTMAG2
 40
0.0
  9
$LOFTPARAM
 70
     7
  9
$LOFTNORMALS
280
     1
  9
$LATITUDE
 40
37.795
  9
$LONGITUDE
 40
-122.394
  9
$NORTHDIRECTION
 40
0.0
  9
$TIMEZONE
 70
 -8000
  9
$LIGHTGLYPHDISPLAY
280
     1
  9
$TILEMODELIGHTSYNCH
280
     1
  9
$CMATERIAL
347
3B
  9
$SOLIDHIST
280
     1
  9
$SHOWHIST
280
     1
  9
$DWFFRAME
280
     2
  9
$DGNFRAME
280
     0
  9
$REALWORLDSCALE
290
     1
  9
$INTERFERECOLOR
 62
     1
  9
$INTERFEREOBJVS
345
55
  9
$INTERFEREVPVS
346
56
  9
$CSHADOW
280
     0
  9
$SHADOWPLANELOCATION
 40
0.0
  0
ENDSEC
  0
SECTION
  2
CLASSES
  0
CLASS
  1
ACDBDICTIONARYWDFLT
  2
AcDbDictionaryWithDefault
  3
ObjectDBX Classes
 90
        0
 91
        1
280
     0
281
     0
  0
CLASS
  1
MATERIAL
  2
AcDbMaterial
  3
ObjectDBX Classes
 90
     1153
 91
        3
280
     0
281
     0
  0
CLASS
  1
VISUALSTYLE
  2
AcDbVisualStyle
  3
ObjectDBX Classes
 90
     4095
 91
        3
280
     0
281
     0
  0
CLASS
  1
TABLESTYLE
  2
AcDbTableStyle
  3
ObjectDBX Classes
 90
     4095
 91
        1
280
     0
281
     0
  0
CLASS
  1
SCALE
  2
AcDbScale
  3
ObjectDBX Classes
 90
     1153
 91
       33
280
     0
281
     0
  0
CLASS
  1
MLEADERSTYLE
  2
AcDbMLeaderStyle
  3
ACDB_MLEADERSTYLE_CLASS
 90
     4095
 91
        0
280
     0
281
     0
  0
CLASS
  1
SORTENTSTABLE
  2
AcDbSortentsTable
  3
ObjectDBX Classes
 90
        0
 91
        8
280
     0
281
     0
  0
CLASS
  1
CELLSTYLEMAP
  2
AcDbCellStyleMap
  3
ObjectDBX Classes
 90
     1152
 91
        1
280
     0
281
     0
  0
CLASS
  1
DICTIONARYVAR
  2
AcDbDictionaryVar
  3
ObjectDBX Classes
 90
        0
 91
        7
280
     0
281
     0
  0
CLASS
  1
SOLID_BACKGROUND
  2
AcDbSolidBackground
  3
SCENEOE
 90
     4095
 91
        0
280
     0
281
     0
  0
CLASS
  1
NPOCOLLECTION
  2
AcDbImpNonPersistentObjectsCollection
  3
ObjectDBX Classes
 90
     1153
 91
        0
280
     0
281
     0
  0
CLASS
  1
DIMASSOC
  2
AcDbDimAssoc
  3
"AcDbDimAssoc|Product Desc:     AcDim ARX App For Dimension|Company:          Autodesk, Inc.|WEB Address:      www.autodesk.com"
 90
        0
 91
        0
280
     0
281
     0
  0
CLASS
  1
AEC_REFEDIT_STATUS_TRACKER
  2
AecDbRefEditStatusTracker
  3
AecArchBase60|Product Desc: Autodesk Architectural Desktop 2007 |Company: Autodesk,Inc. |WEB Address: www.autodesk.com
 90
      129
 91
        0
280
     0
281
     0
  0
CLASS
  1
ACAD_TABLE
  2
AcDbTable
  3
ObjectDBX Classes
 90
     1025
 91
        0
280
     0
281
     1
  0
CLASS
  1
ACDB_DYNAMICBLOCKPURGEPREVENTER_VERSION
  2
AcDbDynamicBlockPurgePreventer
  3
ObjectDBX Classes
 90
     1153
 91
        0
280
     0
281
     0
  0
CLASS
  1
ACDBASSOCNETWORK
  2
AcDbAssocNetwork
  3
ObjectDBX Classes
 90
     1025
 91
        0
280
     0
281
     0
  0
CLASS
  1
ACDBASSOC2DCONSTRAINTGROUP
  2
AcDbAssoc2dConstraintGroup
  3
ObjectDBX Classes
 90
     1025
 91
        0
280
     0
281
     0
  0
CLASS
  1
ACDBASSOCGEOMDEPENDENCY
  2
AcDbAssocGeomDependency
  3
ObjectDBX Classes
 90
     1025
 91
        0
280
     0
281
     0
  0
CLASS
  1
TABLECONTENT
  2
AcDbTableContent
  3
ObjectDBX Classes
 90
     1152
 91
        0
280
     0
281
     0
  0
CLASS
  1
TABLEGEOMETRY
  2
AcDbTableGeometry
  3
ObjectDBX Classes
 90
     1152
 91
        0
280
     0
281
     0
  0
CLASS
  1
EXACXREFPANELOBJECT
  2
ExAcXREFPanelObject
  3
EXAC_ESW
 90
     1025
 91
        0
280
     0
281
     0
  0
CLASS
  1
RASTERVARIABLES
  2
AcDbRasterVariables
  3
ISM
 90
        0
 91
        0
280
     0
281
     0
  0
CLASS
  1
IMAGEDEF
  2
AcDbRasterImageDef
  3
ISM
 90
        0
 91
        0
280
     0
281
     0
  0
CLASS
  1
IMAGEDEF_REACTOR
  2
AcDbRasterImageDefReactor
  3
ISM
 90
        1
 91
        0
280
     0
281
     0
  0
CLASS
  1
IMAGE
  2
AcDbRasterImage
  3
ISM
 90
     2175
 91
        0
280
     0
281
     1
  0
CLASS
  1
ACDB_TEXTOBJECTCONTEXTDATA_CLASS
  2
AcDbTextObjectContextData
  3
ObjectDBX Classes
 90
     1153
 91
        0
280
     0
281
     0
  0
ENDSEC
  0
SECTION
  2
TABLES
  0
TABLE
  2
VPORT
  5
2C
102
{ACAD_XDICTIONARY
360
30
102
}
330
0
100
AcDbSymbolTable
 70
     1
  0
VPORT
  5
2D
330
2C
100
AcDbSymbolTableRecord
100
AcDbViewportTableRecord
  2
*Active
 70
     0
 10
0.0
 20
0.0
 11
1.0
 21
1.0
 12
148.8752329488707
 22
1242.175122262997
 13
0.0
 23
0.0
 14
1.0
 24
1.0
 15
100.0
 25
100.0
 16
0.0
 26
0.0
 36
1.0
 17
0.0
 27
0.0
 37
0.0
 40
2942.448371741556
 41
1.763409961685823
 42
50.0
 43
0.0
 44
0.0
 50
0.0
 51
0.0
 71
     0
 72
  1000
 73
     1
 74
     0
 75
     0
 76
     0
 77
     0
 78
     0
281
     0
 65
     1
110
0.0
120
0.0
130
0.0
111
1.0
121
0.0
131
0.0
112
0.0
122
1.0
132
0.0
 79
     0
146
0.0
348
2E
 60
     3
 61
     5
292
     1
282
     1
141
0.0
142
0.0
 63
   250
421
  3355443
  0
ENDTAB
  0
TABLE
  2
LTYPE
  5
27
330
0
100
AcDbSymbolTable
 70
     4
  0
LTYPE
  5
28
330
27
100
AcDbSymbolTableRecord
100
AcDbLinetypeTableRecord
  2
ByBlock
 70
     0
  3

 72
    65
 73
     0
 40
0.0
  0
LTYPE
  5
29
330
27
100
AcDbSymbolTableRecord
100
AcDbLinetypeTableRecord
  2
ByLayer
 70
     0
  3

 72
    65
 73
     0
 40
0.0
  0
LTYPE
  5
15
330
27
100
AcDbSymbolTableRecord
100
AcDbLinetypeTableRecord
  2
CONTINUOUS
 70
     0
  3
Ausgezogene Linie
 72
    65
 73
     0
 40
0.0
  0
LTYPE
  5
7C
330
27
100
AcDbSymbolTableRecord
100
AcDbLinetypeTableRecord
  2
VERDECKT
 70
     0
  3
__ __ __ __ __ __ __ __ __ __ __ __ __ __ __ __
 72
    65
 73
     2
 40
0.375
 49
0.25
 74
     0
 49
-0.125
 74
     0
  0
LTYPE
  5
220
330
27
100
AcDbSymbolTableRecord
100
AcDbLinetypeTableRecord
  2
STRICHPUNKT
 70
     0
  3
__ . __ . __ . __ . __ . __ . __ . __ . __ . __
 72
    65
 73
     4
 40
1.0
 49
0.5
 74
     0
 49
-0.25
 74
     0
 49
0.0
 74
     0
 49
-0.25
 74
     0
  0
LTYPE
  5
3FE
330
27
100
AcDbSymbolTableRecord
100
AcDbLinetypeTableRecord
  2
AUSGEZOGEN
 70
     0
  3
Ausgezogene Linie
 72
    65
 73
     0
 40
0.0
  0
ENDTAB
  0
TABLE
  2
LAYER
  5
20
102
{ACAD_XDICTIONARY
360
21
102
}
330
0
100
AcDbSymbolTable
 70
    11
  0
LAYER
  5
6
102
{ACAD_XDICTIONARY
360
7
102
}
330
20
100
AcDbSymbolTableRecord
100
AcDbLayerTableRecord
  2
0
 70
     0
 62
     7
  6
CONTINUOUS
370
    -3
390
9
347
C
  0
LAYER
  5
362
102
{ACAD_XDICTIONARY
360
363
102
}
330
20
100
AcDbSymbolTableRecord
100
AcDbLayerTableRecord
  2
01-01
 70
     0
 62
     2
  6
CONTINUOUS
370
    -3
390
9
347
C
  0
LAYER
  5
3C0
102
{ACAD_XDICTIONARY
360
3C1
102
}
330
20
100
AcDbSymbolTableRecord
100
AcDbLayerTableRecord
  2
02-01
 70
     0
 62
     1
  6
CONTINUOUS
370
    -3
390
9
347
C
  0
LAYER
  5
79
102
{ACAD_XDICTIONARY
360
7A
102
}
330
20
100
AcDbSymbolTableRecord
100
AcDbLayerTableRecord
  2
03-01
 70
     0
 62
     3
  6
VERDECKT
370
    -3
390
9
347
C
  0
LAYER
  5
21D
102
{ACAD_XDICTIONARY
360
21E
102
}
330
20
100
AcDbSymbolTableRecord
100
AcDbLayerTableRecord
  2
05-01
 70
     0
 62
     1
  6
STRICHPUNKT
370
    -3
390
9
347
C
  0
LAYER
  5
4F
102
{ACAD_XDICTIONARY
360
50
102
}
330
20
100
AcDbSymbolTableRecord
100
AcDbLayerTableRecord
  2
09-01
 70
     0
 62
     7
  6
CONTINUOUS
370
    -3
390
9
347
C
  0
LAYER
  5
3BB
102
{ACAD_XDICTIONARY
360
3BC
102
}
330
20
100
AcDbSymbolTableRecord
100
AcDbLayerTableRecord
  2
01-99
 70
     0
 62
     2
  6
CONTINUOUS
370
    -3
390
9
347
C
  0
LAYER
  5
3FB
102
{ACAD_XDICTIONARY
360
3FC
102
}
330
20
100
AcDbSymbolTableRecord
100
AcDbLayerTableRecord
  2
06-99
 70
     0
 62
     1
  6
AUSGEZOGEN
370
    -3
390
9
347
C
  0
LAYER
  5
EF
330
20
100
AcDbSymbolTableRecord
100
AcDbLayerTableRecord
  2
DEFPOINTS
 70
     0
 62
     7
  6
CONTINUOUS
290
     0
370
    -3
390
9
347
C
  0
LAYER
  5
3E5
102
{ACAD_XDICTIONARY
360
3E6
102
}
330
20
100
AcDbSymbolTableRecord
100
AcDbLayerTableRecord
  2
08-99
 70
     0
 62
     7
  6
CONTINUOUS
370
    -3
390
9
347
C
  0
LAYER
  5
343
102
{ACAD_XDICTIONARY
360
344
102
}
330
20
100
AcDbSymbolTableRecord
100
AcDbLayerTableRecord
  2
02TNR-01
 70
     0
 62
     1
  6
CONTINUOUS
370
    -3
390
9
347
C
  0
ENDTAB
  0
TABLE
  2
STYLE
  5
23
330
0
100
AcDbSymbolTable
 70
     3
  0
STYLE
  5
24
330
23
100
AcDbSymbolTableRecord
100
AcDbTextStyleTableRecord
  2
STANDARD
 70
     0
 40
0.0
 41
1.0
 50
0.0
 71
     0
 42
20.0
  3
arial.ttf
  4

1001
ACAD
1000
Arial
1071
       34
  0
STYLE
  5
3E8
330
23
100
AcDbSymbolTableRecord
100
AcDbTextStyleTableRecord
  2
ROMANS8
 70
     0
 40
0.0
 41
1.0
 50
0.0
 71
     0
 42
2.5
  3
ROMANS8
  4

  0
STYLE
  5
40F
330
23
100
AcDbSymbolTableRecord
100
AcDbTextStyleTableRecord
  2
ROMAND8
 70
     0
 40
0.0
 41
1.0
 50
0.0
 71
     0
 42
3.5
  3
ROMAND8
  4

  0
ENDTAB
  0
TABLE
  2
VIEW
  5
2A
330
0
100
AcDbSymbolTable
 70
     0
  0
ENDTAB
  0
TABLE
  2
UCS
  5
2B
330
0
100
AcDbSymbolTable
 70
     0
  0
ENDTAB
  0
TABLE
  2
APPID
  5
31
330
0
100
AcDbSymbolTable
 70
     5
  0
APPID
  5
25
330
31
100
AcDbSymbolTableRecord
100
AcDbRegAppTableRecord
  2
ACAD
 70
     0
  0
APPID
  5
34
330
31
100
AcDbSymbolTableRecord
100
AcDbRegAppTableRecord
  2
ACAD_DSTYLE_DIMJOGGED_JOGANGLE_SYMBOL
 70
     0
  0
APPID
  5
35
330
31
100
AcDbSymbolTableRecord
100
AcDbRegAppTableRecord
  2
ACAD_DSTYLE_DIMJAG
 70
     0
  0
APPID
  5
36
330
31
100
AcDbSymbolTableRecord
100
AcDbRegAppTableRecord
  2
ACAD_DSTYLE_DIMTALN
 70
     0
  0
APPID
  5
1B
330
31
100
AcDbSymbolTableRecord
100
AcDbRegAppTableRecord
  2
ACAD_PSEXT
 70
     0
  0
ENDTAB
  0
TABLE
  2
DIMSTYLE
  5
32
330
0
100
AcDbSymbolTable
 70
     2
100
AcDbDimStyleTable
 71
     1
340
33
  0
DIMSTYLE
105
33
102
{ACAD_REACTORS
330
E1
102
}
330
32
100
AcDbSymbolTableRecord
100
AcDbDimStyleTableRecord
  2
Wagner
 70
     0
 41
2.5
 42
1.0
 43
10.0
 44
1.0
 73
     0
 74
     0
 77
     1
 78
     8
 79
     2
140
2.5
141
0.0
143
0.03937007874016
147
1.0
171
     3
172
     1
176
     4
177
     4
178
     1
179
     1
271
     1
272
     1
274
     3
283
     0
284
     8
340
24
1001
ACAD_DSTYLE_DIMJOGGED_JOGANGLE_SYMBOL
1070
   384
1040
0.7853981633974483
1001
ACAD_DSTYLE_DIMJAG
1070
   388
1040
1.5
1001
ACAD_DSTYLE_DIMTALN
1070
   392
1070
     0
  0
DIMSTYLE
105
102
102
{ACAD_REACTORS
330
1D2
330
1E3
330
380
330
39A
330
175
330
168
330
159
330
14A
330
13D
330
130
330
121
330
112
330
103
330
F5
102
}
330
32
100
AcDbSymbolTableRecord
100
AcDbDimStyleTableRecord
  2
Wagner$0
 70
     0
 41
2.5
 42
1.0
 43
10.0
 44
1.0
 73
     0
 74
     0
 77
     1
 78
     8
 79
     2
140
2.5
141
0.0
143
0.03937007874016
147
1.0
171
     3
172
     1
174
     1
176
     4
177
     4
178
     1
179
     1
271
     1
272
     1
274
     3
279
     2
283
     0
284
     8
340
24
1001
ACAD_DSTYLE_DIMJOGGED_JOGANGLE_SYMBOL
1070
   384
1040
0.7853981633974483
1001
ACAD_DSTYLE_DIMJAG
1070
   388
1040
1.5
1001
ACAD_DSTYLE_DIMTALN
1070
   392
1070
     0
  0
ENDTAB
  0
TABLE
  2
BLOCK_RECORD
  5
1
330
0
100
AcDbSymbolTable
 70
    24
  0
BLOCK_RECORD
  5
2
102
{ACAD_XDICTIONARY
360
3
102
}
330
1
100
AcDbSymbolTableRecord
100
AcDbBlockTableRecord
  2
*Model_Space
340
17
 70
     0
280
     1
281
     0
  0
BLOCK_RECORD
  5
1C
330
1
100
AcDbSymbolTableRecord
100
AcDbBlockTableRecord
  2
*Paper_Space
340
1F
 70
     0
280
     1
281
     0
  0
BLOCK_RECORD
  5
1F1
330
1
100
AcDbSymbolTableRecord
100
AcDbBlockTableRecord
  2
Seifenflasche01-v
340
0
310
2800000020000000200000000100080000000000000400000000000000000000000000000000000000000000000080000080000000808000800000008000800080800000C0C0C000C0DCC000F0CAA6000020400000206000002080000020A0000020C0000020E00000400000004020000040400000406000004080000040A0
310
000040C0000040E00000600000006020000060400000606000006080000060A0000060C0000060E00000800000008020000080400000806000008080000080A0000080C0000080E00000A0000000A0200000A0400000A0600000A0800000A0A00000A0C00000A0E00000C0000000C0200000C0400000C0600000C0800000C0
310
A00000C0C00000C0E00000E0000000E0200000E0400000E0600000E0800000E0A00000E0C00000E0E00040000000400020004000400040006000400080004000A0004000C0004000E00040200000402020004020400040206000402080004020A0004020C0004020E000404000004040200040404000404060004040800040
310
40A0004040C0004040E00040600000406020004060400040606000406080004060A0004060C0004060E00040800000408020004080400040806000408080004080A0004080C0004080E00040A0000040A0200040A0400040A0600040A0800040A0A00040A0C00040A0E00040C0000040C0200040C0400040C0600040C08000
310
40C0A00040C0C00040C0E00040E0000040E0200040E0400040E0600040E0800040E0A00040E0C00040E0E00080000000800020008000400080006000800080008000A0008000C0008000E00080200000802020008020400080206000802080008020A0008020C0008020E00080400000804020008040400080406000804080
310
008040A0008040C0008040E00080600000806020008060400080606000806080008060A0008060C0008060E00080800000808020008080400080806000808080008080A0008080C0008080E00080A0000080A0200080A0400080A0600080A0800080A0A00080A0C00080A0E00080C0000080C0200080C0400080C0600080C0
310
800080C0A00080C0C00080C0E00080E0000080E0200080E0400080E0600080E0800080E0A00080E0C00080E0E000C0000000C0002000C0004000C0006000C0008000C000A000C000C000C000E000C0200000C0202000C0204000C0206000C0208000C020A000C020C000C020E000C0400000C0402000C0404000C0406000C0
310
408000C040A000C040C000C040E000C0600000C0602000C0604000C0606000C0608000C060A000C060C000C060E000C0800000C0802000C0804000C0806000C0808000C080A000C080C000C080E000C0A00000C0A02000C0A04000C0A06000C0A08000C0A0A000C0A0C000C0A0E000C0C00000C0C02000C0C04000C0C06000
310
C0C08000C0C0A000F0FBFF00A4A0A000808080000000FF0000FF000000FFFF00FF000000FF00FF00FFFF0000FFFFFF0000000000000000000000000000000000000000000000000000000000000000000000000000000000000000000000FFFFFFFF00000000000000000000000000000000000000000000000000000000FF
310
0000FF00000000000000000000000000000000000000000000000000000000FFFFFFFF00000000000000000000000000000000000000000000000000000000FF0000FF00000000000000000000000000000000000000000000000000000000FFFFFFFF00000000000000000000000000000000000000000000000000FFFFFF
310
FFFFFFFFFFFFFF00000000000000000000000000000000000000000000FF0000000000000000FF00000000000000000000000000000000000000000000FF0000000000000000FF00000000000000000000000000000000000000000000FF0000000000000000FF00000000000000000000000000000000000000000000FF00
310
00000000000000FF00000000000000000000000000000000000000000000FF0000000000000000FF00000000000000000000000000000000000000000000FF0000000000000000FF00000000000000000000000000000000000000000000FF0000000000000000FF00000000000000000000000000000000000000000000FF
310
0000000000000000FF00000000000000000000000000000000000000000000FF0000000000000000FF00000000000000000000000000000000000000000000FF0000000000000000FF00000000000000000000000000000000000000000000FF0000000000000000FF00000000000000000000000000000000000000000000
310
FF0000000000000000FF00000000000000000000000000000000000000000000FF0000000000000000FF00000000000000000000000000000000000000000000FF0000000000000000FF00000000000000000000000000000000000000000000FF0000000000000000FF000000000000000000000000000000000000000000
310
00FF0000000000000000FF00000000000000000000000000000000000000000000FF0000000000000000FF00000000000000000000000000000000000000000000FF0000000000000000FF00000000000000000000000000000000000000000000FF0000000000000000FF0000000000000000000000000000000000000000
310
0000FF00000000000000FFFF00000000000000000000000000000000000000000000FF00000000000000FF0000000000000000000000000000000000000000000000FF00000000000000FF0000000000000000000000000000000000000000000000FF00000000000000FF0000000000000000000000000000000000000000
310
000000FFFFFFFFFFFFFFFF000000000000000000000000000000000000000000000000000000000000000000000000000000000000000000
102
{BLKREFS
331
1F0
102
}
 70
     4
280
     1
281
     0
  0
BLOCK_RECORD
  5
28E
330
1
100
AcDbSymbolTableRecord
100
AcDbBlockTableRecord
  2
Seifenflasche01-s
340
0
310
2800000020000000200000000100080000000000000400000000000000000000000000000000000000000000000080000080000000808000800000008000800080800000C0C0C000C0DCC000F0CAA6000020400000206000002080000020A0000020C0000020E00000400000004020000040400000406000004080000040A0
310
000040C0000040E00000600000006020000060400000606000006080000060A0000060C0000060E00000800000008020000080400000806000008080000080A0000080C0000080E00000A0000000A0200000A0400000A0600000A0800000A0A00000A0C00000A0E00000C0000000C0200000C0400000C0600000C0800000C0
310
A00000C0C00000C0E00000E0000000E0200000E0400000E0600000E0800000E0A00000E0C00000E0E00040000000400020004000400040006000400080004000A0004000C0004000E00040200000402020004020400040206000402080004020A0004020C0004020E000404000004040200040404000404060004040800040
310
40A0004040C0004040E00040600000406020004060400040606000406080004060A0004060C0004060E00040800000408020004080400040806000408080004080A0004080C0004080E00040A0000040A0200040A0400040A0600040A0800040A0A00040A0C00040A0E00040C0000040C0200040C0400040C0600040C08000
310
40C0A00040C0C00040C0E00040E0000040E0200040E0400040E0600040E0800040E0A00040E0C00040E0E00080000000800020008000400080006000800080008000A0008000C0008000E00080200000802020008020400080206000802080008020A0008020C0008020E00080400000804020008040400080406000804080
310
008040A0008040C0008040E00080600000806020008060400080606000806080008060A0008060C0008060E00080800000808020008080400080806000808080008080A0008080C0008080E00080A0000080A0200080A0400080A0600080A0800080A0A00080A0C00080A0E00080C0000080C0200080C0400080C0600080C0
310
800080C0A00080C0C00080C0E00080E0000080E0200080E0400080E0600080E0800080E0A00080E0C00080E0E000C0000000C0002000C0004000C0006000C0008000C000A000C000C000C000E000C0200000C0202000C0204000C0206000C0208000C020A000C020C000C020E000C0400000C0402000C0404000C0406000C0
310
408000C040A000C040C000C040E000C0600000C0602000C0604000C0606000C0608000C060A000C060C000C060E000C0800000C0802000C0804000C0806000C0808000C080A000C080C000C080E000C0A00000C0A02000C0A04000C0A06000C0A08000C0A0A000C0A0C000C0A0E000C0C00000C0C02000C0C04000C0C06000
310
C0C08000C0C0A000F0FBFF00A4A0A000808080000000FF0000FF000000FFFF00FF000000FF00FF00FFFF0000FFFFFF0000000000000000000000000000000000000000000000000000000000000000000000000000000000000000000000FFFFFFFF00000000000000000000000000000000000000000000000000000000FF
310
0000FF00000000000000000000000000000000000000000000000000000000FFFFFFFF00000000000000000000000000000000000000000000000000000000FF0000FF00000000000000000000000000000000000000000000000000000000FFFFFFFF000000000000000000000000000000000000000000000000FFFFFFFF
310
FFFFFFFFFFFFFFFF0000000000000000000000000000000000000000FF00000000000000000000FF0000000000000000000000000000000000000000FF00000000000000000000FF0000000000000000000000000000000000000000FF00000000000000000000FF0000000000000000000000000000000000000000FF0000
310
0000000000000000FF0000000000000000000000000000000000000000FF00000000000000000000FF0000000000000000000000000000000000000000FF00000000000000000000FF0000000000000000000000000000000000000000FF00000000000000000000FF0000000000000000000000000000000000000000FF00
310
000000000000000000FF0000000000000000000000000000000000000000FF00000000000000000000FF0000000000000000000000000000000000000000FF00000000000000000000FF0000000000000000000000000000000000000000FF00000000000000000000FF0000000000000000000000000000000000000000FF
310
00000000000000000000FF0000000000000000000000000000000000000000FF00000000000000000000FF0000000000000000000000000000000000000000FF00000000000000000000FF0000000000000000000000000000000000000000FF00000000000000000000FF0000000000000000000000000000000000000000
310
FF00000000000000000000FF0000000000000000000000000000000000000000FF00000000000000000000FF0000000000000000000000000000000000000000FF00000000000000000000FF0000000000000000000000000000000000000000FF00000000000000000000FF00000000000000000000000000000000000000
310
00FF00000000000000000000FF0000000000000000000000000000000000000000FF00000000000000000000FF0000000000000000000000000000000000000000FF00000000000000000000FF0000000000000000000000000000000000000000FF00000000000000000000FF000000000000000000000000000000000000
310
0000FFFFFFFFFFFFFFFFFFFFFFFF000000000000000000000000000000000000000000000000000000000000000000000000000000000000
102
{BLKREFS
331
2DF
331
28D
102
}
 70
     4
280
     1
281
     0
  0
BLOCK_RECORD
  5
3B6
102
{ACAD_XDICTIONARY
360
3B7
102
}
330
1
100
AcDbSymbolTableRecord
100
AcDbBlockTableRecord
  2
DIN A4 Quer
340
0
102
{BLKREFS
331
3B5
102
}
 70
     4
280
     1
281
     0
  0
BLOCK_RECORD
  5
2E2
330
1
100
AcDbSymbolTableRecord
100
AcDbBlockTableRecord
  2
Pumpe_Sensor01_s
340
0
310
2800000020000000200000000100080000000000000400000000000000000000000000000000000000000000000080000080000000808000800000008000800080800000C0C0C000C0DCC000F0CAA6000020400000206000002080000020A0000020C0000020E00000400000004020000040400000406000004080000040A0
310
000040C0000040E00000600000006020000060400000606000006080000060A0000060C0000060E00000800000008020000080400000806000008080000080A0000080C0000080E00000A0000000A0200000A0400000A0600000A0800000A0A00000A0C00000A0E00000C0000000C0200000C0400000C0600000C0800000C0
310
A00000C0C00000C0E00000E0000000E0200000E0400000E0600000E0800000E0A00000E0C00000E0E00040000000400020004000400040006000400080004000A0004000C0004000E00040200000402020004020400040206000402080004020A0004020C0004020E000404000004040200040404000404060004040800040
310
40A0004040C0004040E00040600000406020004060400040606000406080004060A0004060C0004060E00040800000408020004080400040806000408080004080A0004080C0004080E00040A0000040A0200040A0400040A0600040A0800040A0A00040A0C00040A0E00040C0000040C0200040C0400040C0600040C08000
310
40C0A00040C0C00040C0E00040E0000040E0200040E0400040E0600040E0800040E0A00040E0C00040E0E00080000000800020008000400080006000800080008000A0008000C0008000E00080200000802020008020400080206000802080008020A0008020C0008020E00080400000804020008040400080406000804080
310
008040A0008040C0008040E00080600000806020008060400080606000806080008060A0008060C0008060E00080800000808020008080400080806000808080008080A0008080C0008080E00080A0000080A0200080A0400080A0600080A0800080A0A00080A0C00080A0E00080C0000080C0200080C0400080C0600080C0
310
800080C0A00080C0C00080C0E00080E0000080E0200080E0400080E0600080E0800080E0A00080E0C00080E0E000C0000000C0002000C0004000C0006000C0008000C000A000C000C000C000E000C0200000C0202000C0204000C0206000C0208000C020A000C020C000C020E000C0400000C0402000C0404000C0406000C0
310
408000C040A000C040C000C040E000C0600000C0602000C0604000C0606000C0608000C060A000C060C000C060E000C0800000C0802000C0804000C0806000C0808000C080A000C080C000C080E000C0A00000C0A02000C0A04000C0A06000C0A08000C0A0A000C0A0C000C0A0E000C0C00000C0C02000C0C04000C0C06000
310
C0C08000C0C0A000F0FBFF00A4A0A000808080000000FF0000FF000000FFFF00FF000000FF00FF00FFFF0000FFFFFF00000000000000000000000000000000000000000000000000000000000000000000000000000000000000000000000000000000000000FFFF0000000000000000000000000000000000000000000000
310
00000000000000FFFF000000000000000000000000FFFFFFFFFFFFFFFFFFFFFFFFFFFFFFFFFFFFFFFFFFFFFFFF0000000000000000FFFFFF00000000000000000000000000FF000000000000FF0000000000000000FFFFFF00000000000000000000000000FF000000000000FF0000000000000000FFFFFF00000000000000
310
000000000000FF000000000000FF0000000000000000FFFFFF00000000000000000000000000FF000000000000FF0000000000000000FFFFFF00000000000000000000000000FF000000000000FF0000000000000000FFFFFF00000000000000000000000000FF000000000000FF0000000000000000FFFFFF000000000000
310
00000000000000FF000000000000FF0000000000000000FF00FF00000000000000000000000000FF000000000000FF0000000000000000FF00FF00000000000000000000000000FF000000000000FF0000000000000000FF00FF00000000000000000000000000FF000000000000FF0000000000000000FF00FF0000000000
310
0000000000000000FF000000000000FF0000000000000000FF00FF00000000000000000000000000FF000000000000FF0000000000000000FF00FF00000000000000000000000000FF000000000000FF0000000000000000FF00FF00000000000000000000000000FF000000000000FF0000000000000000FF00FF00000000
310
000000000000000000FF000000000000FF0000000000000000FFFFFFFFFFFFFFFFFFFFFFFFFFFFFFFFFFFFFFFFFFFFFFFF0000000000000000000000FFFFFFFFFFFFFFFFFFFFFFFFFFFFFFFFFFFFFFFFFF000000000000000000000000FF0000000000000000000000FF0000000000FF00000000000000000000000000FF00
310
00000000000000000000FF0000000000FF00000000000000000000000000FF0000000000000000000000FF0000000000FF00000000000000000000000000FF0000000000000000000000FF0000000000FF00000000000000000000000000FFFFFFFFFFFFFFFFFFFFFFFFFFFFFFFFFFFFFF00000000000000000000000000FF
310
FFFFFFFFFFFFFFFFFF000000000000000000000000000000000000000000000000FF00000000FF0000000000000000000000000000000000000000000000000000FFFF000000FF00000000000000000000000000000000000000000000000000000000FFFF00FF000000000000000000000000000000000000000000000000
310
000000000000FFFF000000000000000000000000000000000000000000000000000000000000000000000000000000000000000000000000
102
{BLKREFS
331
2E1
102
}
 70
     4
280
     1
281
     0
  0
BLOCK_RECORD
  5
221
330
1
100
AcDbSymbolTableRecord
100
AcDbBlockTableRecord
  2
Sensor-Betätigungsmodul
340
0
310
2800000020000000200000000100080000000000000400000000000000000000000000000000000000000000000080000080000000808000800000008000800080800000C0C0C000C0DCC000F0CAA6000020400000206000002080000020A0000020C0000020E00000400000004020000040400000406000004080000040A0
310
000040C0000040E00000600000006020000060400000606000006080000060A0000060C0000060E00000800000008020000080400000806000008080000080A0000080C0000080E00000A0000000A0200000A0400000A0600000A0800000A0A00000A0C00000A0E00000C0000000C0200000C0400000C0600000C0800000C0
310
A00000C0C00000C0E00000E0000000E0200000E0400000E0600000E0800000E0A00000E0C00000E0E00040000000400020004000400040006000400080004000A0004000C0004000E00040200000402020004020400040206000402080004020A0004020C0004020E000404000004040200040404000404060004040800040
310
40A0004040C0004040E00040600000406020004060400040606000406080004060A0004060C0004060E00040800000408020004080400040806000408080004080A0004080C0004080E00040A0000040A0200040A0400040A0600040A0800040A0A00040A0C00040A0E00040C0000040C0200040C0400040C0600040C08000
310
40C0A00040C0C00040C0E00040E0000040E0200040E0400040E0600040E0800040E0A00040E0C00040E0E00080000000800020008000400080006000800080008000A0008000C0008000E00080200000802020008020400080206000802080008020A0008020C0008020E00080400000804020008040400080406000804080
310
008040A0008040C0008040E00080600000806020008060400080606000806080008060A0008060C0008060E00080800000808020008080400080806000808080008080A0008080C0008080E00080A0000080A0200080A0400080A0600080A0800080A0A00080A0C00080A0E00080C0000080C0200080C0400080C0600080C0
310
800080C0A00080C0C00080C0E00080E0000080E0200080E0400080E0600080E0800080E0A00080E0C00080E0E000C0000000C0002000C0004000C0006000C0008000C000A000C000C000C000E000C0200000C0202000C0204000C0206000C0208000C020A000C020C000C020E000C0400000C0402000C0404000C0406000C0
310
408000C040A000C040C000C040E000C0600000C0602000C0604000C0606000C0608000C060A000C060C000C060E000C0800000C0802000C0804000C0806000C0808000C080A000C080C000C080E000C0A00000C0A02000C0A04000C0A06000C0A08000C0A0A000C0A0C000C0A0E000C0C00000C0C02000C0C04000C0C06000
310
C0C08000C0C0A000F0FBFF00A4A0A000808080000000FF0000FF000000FFFF00FF000000FF00FF00FFFF0000FFFFFF000000000000000000000000000000000000000000000000000000000000000000000000000000000000000000000000000000FFFF0000000000000000000000000000000000000000000000FAFFFFFF
310
FFFFFFFF00FFFF000000000000000000000000000000000000000000FF000000FFFF0000FF00FF0000000000000000000000000000000000000000FFFA0000000000FF0000FF0000000000000000000000000000000000000000FFFFFA000000000000FFFFFAFAFF000000000000000000000000000000000000FFFFFA0000
310
00F900000000FFFAFF000000000000000000000000000000000000FFFFFA0000F9F9F9000000FFFAFF000000000000000000000000000000000000FFFFFA000000F900000000FFFAFF000000000000000000000000000000000000FFFFFA0000000000000000FFFAFF000000000000000000000000000000000000FFFFFA00
310
00000000000000FFFAFF00000000000000000000000000000000000000FFFA0000000000000000FFFAFF00000000000000000000000000000000000000FF000000000000000000FFFAFF00000000000000000000000000000000000000FF000000000000000000FFFAFF00000000000000000000000000000000000000FF00
310
0000000000000000FFFAFF00000000000000000000000000000000000000FF000000000000000000FFFAFF00000000000000000000000000000000000000FF000000000000000000FFFAFF00000000000000000000000000000000000000FF000000000000000000FF000000000000000000000000000000000000000000FF
310
000000000000000000FF000000000000000000000000000000000000000000FF000000000000000000FF000000000000000000000000000000000000000000FF000000000000000000FF0000000000000000000000000000000000000000FFFF000000000000000000FF0000000000000000000000000000000000000000FF
310
FF00000000F9000000FFFF0000000000000000000000000000000000000000FFFF000000F9F9F90000FF000000000000000000000000000000000000000000FFFF00000000F90000FFFF000000000000000000000000000000000000000000FFFF00000000000000FFFF000000000000000000000000000000000000000000
310
FFFF000000000000FFFF0000000000000000000000000000000000000000000000FF00FAFAFAFA00FFFF0000000000000000000000000000000000000000000000FFFFFAFFFFFAFFFF00000000000000000000000000000000000000000000000000FFFAFAFAFA00FF00000000000000000000000000000000000000000000
310
000000FFFFFFFFFFFF0000000000000000000000000000000000000000000000000000000000000000000000000000000000000000000000
102
{BLKREFS
331
2E0
331
21C
102
}
 70
     4
280
     1
281
     0
  0
BLOCK_RECORD
  5
269
102
{ACAD_XDICTIONARY
360
26A
102
}
330
1
100
AcDbSymbolTableRecord
100
AcDbBlockTableRecord
  2
e-modul vorderansicht
340
0
102
{BLKREFS
331
316
331
2DE
331
268
102
}
 70
     0
280
     1
281
     0
  0
BLOCK_RECORD
  5
2AB
102
{ACAD_XDICTIONARY
360
2AC
102
}
330
1
100
AcDbSymbolTableRecord
100
AcDbBlockTableRecord
  2
pumpe vorderansicht
340
0
102
{BLKREFS
331
315
331
2AA
102
}
 70
     0
280
     1
281
     0
  0
BLOCK_RECORD
  5
1E4
330
1
100
AcDbSymbolTableRecord
100
AcDbBlockTableRecord
  2
*D7
340
0
 70
     0
280
     1
281
     0
  0
BLOCK_RECORD
  5
39B
330
1
100
AcDbSymbolTableRecord
100
AcDbBlockTableRecord
  2
*D8
340
0
 70
     0
280
     1
281
     0
  0
BLOCK_RECORD
  5
381
330
1
100
AcDbSymbolTableRecord
100
AcDbBlockTableRecord
  2
*D9
340
0
 70
     0
280
     1
281
     0
  0
BLOCK_RECORD
  5
1D3
330
1
100
AcDbSymbolTableRecord
100
AcDbBlockTableRecord
  2
*D10
340
0
 70
     0
280
     1
281
     0
  0
BLOCK_RECORD
  5
7D
330
1
100
AcDbSymbolTableRecord
100
AcDbBlockTableRecord
  2
Kolbendruckplatte01_s
340
0
310
2800000020000000200000000100080000000000000400000000000000000000000000000000000000000000000080000080000000808000800000008000800080800000C0C0C000C0DCC000F0CAA6000020400000206000002080000020A0000020C0000020E00000400000004020000040400000406000004080000040A0
310
000040C0000040E00000600000006020000060400000606000006080000060A0000060C0000060E00000800000008020000080400000806000008080000080A0000080C0000080E00000A0000000A0200000A0400000A0600000A0800000A0A00000A0C00000A0E00000C0000000C0200000C0400000C0600000C0800000C0
310
A00000C0C00000C0E00000E0000000E0200000E0400000E0600000E0800000E0A00000E0C00000E0E00040000000400020004000400040006000400080004000A0004000C0004000E00040200000402020004020400040206000402080004020A0004020C0004020E000404000004040200040404000404060004040800040
310
40A0004040C0004040E00040600000406020004060400040606000406080004060A0004060C0004060E00040800000408020004080400040806000408080004080A0004080C0004080E00040A0000040A0200040A0400040A0600040A0800040A0A00040A0C00040A0E00040C0000040C0200040C0400040C0600040C08000
310
40C0A00040C0C00040C0E00040E0000040E0200040E0400040E0600040E0800040E0A00040E0C00040E0E00080000000800020008000400080006000800080008000A0008000C0008000E00080200000802020008020400080206000802080008020A0008020C0008020E00080400000804020008040400080406000804080
310
008040A0008040C0008040E00080600000806020008060400080606000806080008060A0008060C0008060E00080800000808020008080400080806000808080008080A0008080C0008080E00080A0000080A0200080A0400080A0600080A0800080A0A00080A0C00080A0E00080C0000080C0200080C0400080C0600080C0
310
800080C0A00080C0C00080C0E00080E0000080E0200080E0400080E0600080E0800080E0A00080E0C00080E0E000C0000000C0002000C0004000C0006000C0008000C000A000C000C000C000E000C0200000C0202000C0204000C0206000C0208000C020A000C020C000C020E000C0400000C0402000C0404000C0406000C0
310
408000C040A000C040C000C040E000C0600000C0602000C0604000C0606000C0608000C060A000C060C000C060E000C0800000C0802000C0804000C0806000C0808000C080A000C080C000C080E000C0A00000C0A02000C0A04000C0A06000C0A08000C0A0A000C0A0C000C0A0E000C0C00000C0C02000C0C04000C0C06000
310
C0C08000C0C0A000F0FBFF00A4A0A000808080000000FF0000FF000000FFFF00FF000000FF00FF00FFFF0000FFFFFF00494949494949494949494949494949494949494949494949494949494949494949494949494949494949494949494949FFFFFF49494949494949494949494949494949494949494949494949FFFFFF
310
FF4949FF49494949494949494949494949494949494949494949494949FF4949494949FF49494949494949494949494949494949494949494949494949FF4949494949FF49494949494949494949494949494949494949494949494949FF494949494949FF494949494949494949494949494949494949494949494949FF49
310
49FFFFFF49FF494949494949494949494949494949494949494949494949FF4949FF4949FFFF494949494949494949494949494949494949494949494949FF4949FF4949FFFF49494949494949494949494949494949494949494949494949FF49FFFFFF49FF49494949494949494949494949494949494949494949494949
310
FF4949494949FF49494949494949494949494949494949494949494949494949FF4949494949FF49494949494949494949494949494949494949494949494949FF4949494949FF49494949494949494949494949494949494949494949494949FF4949494949FF494949494949494949494949494949494949494949494949
310
49FF4949494949FF49494949494949494949494949494949494949494949494949FF4949494949FF49494949494949494949494949494949494949494949494949FF4949494949FF49494949494949494949494949494949494949494949494949FF4949494949FF4949494949494949494949494949494949494949494949
310
4949FF4949494949FF49494949494949494949494949494949494949494949494949FF4949494949FF49494949494949494949494949494949494949494949494949FF4949494949FF4949494949494949494949494949494949494949494949494949FF49494949FF49494949494949494949494949494949494949494949
310
49494949FF49494949FF4949494949494949494949494949494949494949494949494949FF49494949FF4949494949494949494949494949494949494949494949494949FF49494949FF4949494949494949494949494949494949494949494949494949FF49494949FF494949494949494949494949494949494949494949
310
4949494949FFFFFFFF49FF4949494949494949494949494949494949494949494949494949FFFF49FFFFFF4949494949494949494949494949494949494949494949494949FFFFFFFF49FF4949494949494949494949494949494949494949494949494949FFFF4949FF494949494949494949494949494949494949494949
310
4949494949494949FFFF49494949494949494949494949494949494949494949494949494949494949494949494949494949494949494949
102
{BLKREFS
331
78
102
}
 70
     4
280
     1
281
     0
  0
BLOCK_RECORD
  5
185
330
1
100
AcDbSymbolTableRecord
100
AcDbBlockTableRecord
  2
Desipumpe_937045_V
340
0
310
2800000020000000200000000100080000000000000400000000000000000000000000000000000000000000000080000080000000808000800000008000800080800000C0C0C000C0DCC000F0CAA6000020400000206000002080000020A0000020C0000020E00000400000004020000040400000406000004080000040A0
310
000040C0000040E00000600000006020000060400000606000006080000060A0000060C0000060E00000800000008020000080400000806000008080000080A0000080C0000080E00000A0000000A0200000A0400000A0600000A0800000A0A00000A0C00000A0E00000C0000000C0200000C0400000C0600000C0800000C0
310
A00000C0C00000C0E00000E0000000E0200000E0400000E0600000E0800000E0A00000E0C00000E0E00040000000400020004000400040006000400080004000A0004000C0004000E00040200000402020004020400040206000402080004020A0004020C0004020E000404000004040200040404000404060004040800040
310
40A0004040C0004040E00040600000406020004060400040606000406080004060A0004060C0004060E00040800000408020004080400040806000408080004080A0004080C0004080E00040A0000040A0200040A0400040A0600040A0800040A0A00040A0C00040A0E00040C0000040C0200040C0400040C0600040C08000
310
40C0A00040C0C00040C0E00040E0000040E0200040E0400040E0600040E0800040E0A00040E0C00040E0E00080000000800020008000400080006000800080008000A0008000C0008000E00080200000802020008020400080206000802080008020A0008020C0008020E00080400000804020008040400080406000804080
310
008040A0008040C0008040E00080600000806020008060400080606000806080008060A0008060C0008060E00080800000808020008080400080806000808080008080A0008080C0008080E00080A0000080A0200080A0400080A0600080A0800080A0A00080A0C00080A0E00080C0000080C0200080C0400080C0600080C0
310
800080C0A00080C0C00080C0E00080E0000080E0200080E0400080E0600080E0800080E0A00080E0C00080E0E000C0000000C0002000C0004000C0006000C0008000C000A000C000C000C000E000C0200000C0202000C0204000C0206000C0208000C020A000C020C000C020E000C0400000C0402000C0404000C0406000C0
310
408000C040A000C040C000C040E000C0600000C0602000C0604000C0606000C0608000C060A000C060C000C060E000C0800000C0802000C0804000C0806000C0808000C080A000C080C000C080E000C0A00000C0A02000C0A04000C0A06000C0A08000C0A0A000C0A0C000C0A0E000C0C00000C0C02000C0C04000C0C06000
310
C0C08000C0C0A000F0FBFF00A4A0A000808080000000FF0000FF000000FFFF00FF000000FF00FF00FFFF0000FFFFFF004949494949494949494949494949494949494949494949494949494949494949494949494949494949494949494949FAFA494949494949494949494949494949494949494949494949494949FAFAFF
310
FAFAFFFAFA494949494949494949494949494949494949494949494949FAFA49494949FAFA494949494949494949494949494949494949494949494949FAFA49494949FAFA494949494949494949494949494949494949494949494949FAFAFAFAFAFAFAFA494949494949494949494949494949494949494949494949FAFA
310
49494949FAFA494949494949494949494949494949494949494949494949FAFA49494949FAFA494949494949494949494949494949494949494949494949FAFAFAFAFAFAFAFA494949494949494949494949494949494949494949494949FA494949494949FA494949494949494949494949494949494949494949494949FA
310
494949494949FA494949494949494949494949494949494949494949494949FA494949494949FA494949494949494949494949494949494949494949494949FA494949494949FA494949494949494949494949494949494949494949494949FAFAFAFAFAFAFAFA494949494949494949494949494949494949494949494949
310
FA494949494949FA4949494949494949494949494949494949494949494949FFFAFAFAFAFAFAFAFAFF49494949494949494949494949494949494949494949FFFA494949494949FAFF49494949494949494949494949494949494949494949FFFA494949494949FAFF49494949494949494949494949494949494949494949
310
FFFA494949494949FAFF49494949494949494949494949494949494949494949FFFA494949494949FAFF49494949494949494949494949494949494949494949FFFA494949494949FAFF49494949494949494949494949494949494949494949FFFA494949494949FAFF494949494949494949494949494949494949494949
310
49FFFA494949494949FAFF49494949494949494949494949494949494949494949FFFA494949494949FAFF49494949494949494949494949494949494949494949FFFA494949494949FAFF49494949494949494949494949494949494949494949FFFA494949494949FAFF4949494949494949494949494949494949494949
310
4949FFFA494949494949FAFF49494949494949494949494949494949494949494949FFFA494949494949FAFF49494949494949494949494949494949494949494949FFFA494949494949FAFF49494949494949494949494949494949494949494949FFFFFFFFFFFFFFFFFFFF49494949494949494949494949494949494949
310
49494949FFFFFFFFFFFFFFFF4949494949494949494949494949494949494949494949494949494949494949494949494949494949494949
102
{BLKREFS
331
184
102
}
 70
     4
280
     1
281
     0
  0
BLOCK_RECORD
  5
176
330
1
100
AcDbSymbolTableRecord
100
AcDbBlockTableRecord
  2
*D13
340
0
 70
     0
280
     1
281
     0
  0
BLOCK_RECORD
  5
169
330
1
100
AcDbSymbolTableRecord
100
AcDbBlockTableRecord
  2
*D14
340
0
 70
     0
280
     1
281
     0
  0
BLOCK_RECORD
  5
15A
330
1
100
AcDbSymbolTableRecord
100
AcDbBlockTableRecord
  2
*D15
340
0
 70
     0
280
     1
281
     0
  0
BLOCK_RECORD
  5
14B
330
1
100
AcDbSymbolTableRecord
100
AcDbBlockTableRecord
  2
*D16
340
0
 70
     0
280
     1
281
     0
  0
BLOCK_RECORD
  5
13E
330
1
100
AcDbSymbolTableRecord
100
AcDbBlockTableRecord
  2
*D17
340
0
 70
     0
280
     1
281
     0
  0
BLOCK_RECORD
  5
131
330
1
100
AcDbSymbolTableRecord
100
AcDbBlockTableRecord
  2
*D18
340
0
 70
     0
280
     1
281
     0
  0
BLOCK_RECORD
  5
122
330
1
100
AcDbSymbolTableRecord
100
AcDbBlockTableRecord
  2
*D19
340
0
 70
     0
280
     1
281
     0
  0
BLOCK_RECORD
  5
113
330
1
100
AcDbSymbolTableRecord
100
AcDbBlockTableRecord
  2
*D20
340
0
 70
     0
280
     1
281
     0
  0
BLOCK_RECORD
  5
104
330
1
100
AcDbSymbolTableRecord
100
AcDbBlockTableRecord
  2
*D21
340
0
 70
     0
280
     1
281
     0
  0
BLOCK_RECORD
  5
F6
330
1
100
AcDbSymbolTableRecord
100
AcDbBlockTableRecord
  2
*D22
340
0
 70
     0
280
     1
281
     0
  0
BLOCK_RECORD
  5
E2
330
1
100
AcDbSymbolTableRecord
100
AcDbBlockTableRecord
  2
*D23
340
0
 70
     0
280
     1
281
     0
  0
ENDTAB
  0
ENDSEC
  0
SECTION
  2
BLOCKS
  0
BLOCK
  5
5
330
2
100
AcDbEntity
  8
0
100
AcDbBlockBegin
  2
*Model_Space
 70
     0
 10
0.0
 20
0.0
 30
0.0
  3
*Model_Space
  1

  0
ENDBLK
  5
16
330
2
100
AcDbEntity
  8
0
100
AcDbBlockEnd
  0
BLOCK
  5
1D
330
1C
100
AcDbEntity
 67
     1
  8
0
100
AcDbBlockBegin
  2
*Paper_Space
 70
     0
 10
0.0
 20
0.0
 30
0.0
  3
*Paper_Space
  1

  0
ENDBLK
  5
1E
330
1C
100
AcDbEntity
 67
     1
  8
0
100
AcDbBlockEnd
  0
BLOCK
  5
1F2
330
1F1
100
AcDbEntity
  8
0
100
AcDbBlockBegin
  2
Seifenflasche01-v
 70
     0
 10
0.0
 20
0.0
 30
0.0
  3
Seifenflasche01-v
  1

  0
LINE
  5
1F3
330
1F1
100
AcDbEntity
  8
0
100
AcDbLine
 10
-35.5
 20
197.0
 30
0.0
 11
-35.5
 21
30.11877347664949
 31
0.0
  0
LINE
  5
1F4
330
1F1
100
AcDbEntity
  8
0
100
AcDbLine
 10
23.5
 20
197.0
 30
0.0
 11
23.5
 21
178.9999999999995
 31
0.0
  0
ARC
  5
1F5
330
1F1
100
AcDbEntity
  8
0
100
AcDbCircle
 10
28.5
 20
178.9999999999995
 30
0.0
 40
5.0
100
AcDbArc
 50
180.0
 51
270.0
  0
ARC
  5
1F6
330
1F1
100
AcDbEntity
  8
0
100
AcDbCircle
 10
18.5
 20
197.0
 30
0.0
 40
5.0
100
AcDbArc
 50
0.0
 51
90.0
  0
LINE
  5
1F7
330
1F1
100
AcDbEntity
  8
0
100
AcDbLine
 10
10.50000000000006
 20
0.0
 30
0.0
 11
10.5
 21
-11.50000000000023
 31
0.0
  0
LINE
  5
1F8
330
1F1
100
AcDbEntity
  8
0
100
AcDbLine
 10
-10.49999999999988
 20
0.0000000000002274
 30
0.0
 11
-10.49999999999994
 21
-11.5
 31
0.0
  0
LINE
  5
1F9
330
1F1
100
AcDbEntity
  8
0
100
AcDbLine
 10
14.5
 20
14.99999999999977
 30
0.0
 11
14.5
 21
-0.0000000000002274
 31
0.0
  0
LINE
  5
1FA
330
1F1
100
AcDbEntity
  8
0
100
AcDbLine
 10
-14.5
 20
14.99999999999977
 30
0.0
 11
-14.5
 21
0.0
 31
0.0
  0
LINE
  5
1FB
330
1F1
100
AcDbEntity
  8
0
100
AcDbLine
 10
11.5
 20
22.0
 30
0.0
 11
11.49999999999994
 21
18.0
 31
0.0
  0
LINE
  5
1FC
330
1F1
100
AcDbEntity
  8
0
100
AcDbLine
 10
-11.5
 20
22.0
 30
0.0
 11
-11.5
 21
18.0
 31
0.0
  0
LINE
  5
1FD
330
1F1
100
AcDbEntity
  8
0
100
AcDbLine
 10
13.24999999999994
 20
17.99999999999977
 30
0.0
 11
13.24999999999994
 21
15.99999999999977
 31
0.0
  0
LINE
  5
1FE
330
1F1
100
AcDbEntity
  8
0
100
AcDbLine
 10
-13.25
 20
17.99999999999977
 30
0.0
 11
-13.25000000000005
 21
15.99999999999977
 31
0.0
  0
LINE
  5
1FF
330
1F1
100
AcDbEntity
  8
0
100
AcDbLine
 10
35.5
 20
168.9999999999995
 30
0.0
 11
35.5
 21
30.11877347664995
 31
0.0
  0
ARC
  5
200
330
1F1
100
AcDbEntity
  8
0
100
AcDbCircle
 10
30.5
 20
30.11877347664995
 30
0.0
 40
5.0
100
AcDbArc
 50
279.9999999999974
 51
0.0
  0
ARC
  5
201
330
1F1
100
AcDbEntity
  8
0
100
AcDbCircle
 10
30.5
 20
168.9999999999995
 30
0.0
 40
5.0
100
AcDbArc
 50
0.0
 51
90.0
  0
LINE
  5
202
330
1F1
100
AcDbEntity
  8
0
100
AcDbLine
 10
-30.5
 20
202.0
 30
0.0
 11
18.5
 21
202.0
 31
0.0
  0
LINE
  5
203
330
1F1
100
AcDbEntity
  8
0
100
AcDbLine
 10
28.49999999999994
 20
173.9999999999995
 30
0.0
 11
30.5
 21
173.9999999999995
 31
0.0
  0
ARC
  5
204
330
1F1
100
AcDbEntity
  8
0
100
AcDbCircle
 10
-30.5
 20
197.0
 30
0.0
 40
5.0
100
AcDbArc
 50
90.0
 51
180.0
  0
LINE
  5
205
330
1F1
100
AcDbEntity
  8
0
100
AcDbLine
 10
-13.25
 20
22.0
 30
0.0
 11
13.2500000000013
 21
22.0
 31
0.0
  0
LINE
  5
206
330
1F1
100
AcDbEntity
  8
0
100
AcDbLine
 10
-13.25000000000005
 20
15.99999999999977
 30
0.0
 11
13.24999999999994
 21
15.99999999999977
 31
0.0
  0
LINE
  5
207
330
1F1
100
AcDbEntity
  8
0
100
AcDbLine
 10
-14.5
 20
14.99999999999977
 30
0.0
 11
14.5
 21
14.99999999999977
 31
0.0
  0
LINE
  5
208
330
1F1
100
AcDbEntity
  8
0
100
AcDbLine
 10
-14.5
 20
0.0
 30
0.0
 11
14.5
 21
-0.0000000000002274
 31
0.0
  0
LINE
  5
209
330
1F1
100
AcDbEntity
  8
0
100
AcDbLine
 10
-10.49999999999994
 20
-11.5
 30
0.0
 11
10.5
 21
-11.50000000000023
 31
0.0
  0
LINE
  5
20A
330
1F1
100
AcDbEntity
  8
0
100
AcDbLine
 10
-13.25
 20
17.99999999999977
 30
0.0
 11
13.24999999999994
 21
17.99999999999977
 31
0.0
  0
LINE
  5
20B
330
1F1
100
AcDbEntity
  8
0
100
AcDbLine
 10
-31.36824088833464
 20
25.19473471158836
 30
0.0
 11
-13.24999999999994
 21
22.0
 31
0.0
  0
ARC
  5
20C
330
1F1
100
AcDbEntity
  8
0
100
AcDbCircle
 10
-30.5
 20
30.11877347664949
 30
0.0
 40
5.0
100
AcDbArc
 50
180.0
 51
260.0000000000026
  0
LINE
  5
20D
330
1F1
100
AcDbEntity
  8
0
100
AcDbLine
 10
31.36824088833464
 20
25.19473471158881
 30
0.0
 11
13.2500000000013
 21
22.0
 31
0.0
  0
LINE
  5
20E
330
1F1
100
AcDbEntity
  8
0
100
AcDbLine
 10
11.49999999999994
 20
14.99999999999977
 30
0.0
 11
11.49999999999994
 21
15.99999999999954
 31
0.0
  0
LINE
  5
20F
330
1F1
100
AcDbEntity
  8
0
100
AcDbLine
 10
-11.5
 20
14.99999999999977
 30
0.0
 11
-11.5
 21
15.99999999999954
 31
0.0
  0
ENDBLK
  5
210
330
1F1
100
AcDbEntity
  8
0
100
AcDbBlockEnd
  0
BLOCK
  5
28F
330
28E
100
AcDbEntity
  8
0
100
AcDbBlockBegin
  2
Seifenflasche01-s
 70
     0
 10
0.0
 20
0.0
 30
0.0
  3
Seifenflasche01-s
  1

  0
LINE
  5
290
330
28E
100
AcDbEntity
  8
0
100
AcDbLine
 10
-45.0
 20
197.0
 30
0.0
 11
-45.00000000000002
 21
30.34346453353123
 31
0.0
  0
LINE
  5
291
330
28E
100
AcDbEntity
  8
0
100
AcDbLine
 10
10.50000000000006
 20
0.0
 30
0.0
 11
10.5
 21
-11.50000000000023
 31
0.0
  0
LINE
  5
292
330
28E
100
AcDbEntity
  8
0
100
AcDbLine
 10
-10.49999999999988
 20
0.0000000000002274
 30
0.0
 11
-10.49999999999994
 21
-11.5
 31
0.0
  0
LINE
  5
293
330
28E
100
AcDbEntity
  8
0
100
AcDbLine
 10
14.5
 20
14.99999999999977
 30
0.0
 11
14.5
 21
-0.0000000000002274
 31
0.0
  0
LINE
  5
294
330
28E
100
AcDbEntity
  8
0
100
AcDbLine
 10
-14.5
 20
14.99999999999977
 30
0.0
 11
-14.5
 21
0.0
 31
0.0
  0
LINE
  5
295
330
28E
100
AcDbEntity
  8
0
100
AcDbLine
 10
11.5
 20
22.0
 30
0.0
 11
11.49999999999994
 21
18.0
 31
0.0
  0
LINE
  5
296
330
28E
100
AcDbEntity
  8
0
100
AcDbLine
 10
-11.5
 20
22.0
 30
0.0
 11
-11.5
 21
18.0
 31
0.0
  0
LINE
  5
297
330
28E
100
AcDbEntity
  8
0
100
AcDbLine
 10
13.24999999999994
 20
17.99999999999977
 30
0.0
 11
13.24999999999994
 21
15.99999999999977
 31
0.0
  0
LINE
  5
298
330
28E
100
AcDbEntity
  8
0
100
AcDbLine
 10
-13.25
 20
17.99999999999977
 30
0.0
 11
-13.25000000000005
 21
15.99999999999977
 31
0.0
  0
LINE
  5
299
330
28E
100
AcDbEntity
  8
0
100
AcDbLine
 10
44.99999999999994
 20
197.0
 30
0.0
 11
45.0
 21
30.34346453353146
 31
0.0
  0
ARC
  5
29A
330
28E
100
AcDbEntity
  8
0
100
AcDbCircle
 10
40.0
 20
30.34346453353146
 30
0.0
 40
5.0
100
AcDbArc
 50
277.0442014487688
 51
0.0
  0
ARC
  5
29B
330
28E
100
AcDbEntity
  8
0
100
AcDbCircle
 10
39.99999999999995
 20
197.0
 30
0.0
 40
5.0
100
AcDbArc
 50
0.0
 51
90.0
  0
LINE
  5
29C
330
28E
100
AcDbEntity
  8
0
100
AcDbLine
 10
-40.0
 20
202.0
 30
0.0
 11
39.99999999999995
 21
202.0
 31
0.0
  0
ARC
  5
29D
330
28E
100
AcDbEntity
  8
0
100
AcDbCircle
 10
-40.0
 20
197.0
 30
0.0
 40
5.0
100
AcDbArc
 50
90.0
 51
180.0
  0
LINE
  5
29E
330
28E
100
AcDbEntity
  8
0
100
AcDbLine
 10
-13.25
 20
22.0
 30
0.0
 11
13.2500000000013
 21
22.0
 31
0.0
  0
LINE
  5
29F
330
28E
100
AcDbEntity
  8
0
100
AcDbLine
 10
-13.25000000000005
 20
15.99999999999977
 30
0.0
 11
13.24999999999994
 21
15.99999999999977
 31
0.0
  0
LINE
  5
2A0
330
28E
100
AcDbEntity
  8
0
100
AcDbLine
 10
-14.5
 20
14.99999999999977
 30
0.0
 11
14.5
 21
14.99999999999977
 31
0.0
  0
LINE
  5
2A1
330
28E
100
AcDbEntity
  8
0
100
AcDbLine
 10
-14.5
 20
0.0
 30
0.0
 11
14.5
 21
-0.0000000000002274
 31
0.0
  0
LINE
  5
2A2
330
28E
100
AcDbEntity
  8
0
100
AcDbLine
 10
-10.49999999999994
 20
-11.5
 30
0.0
 11
10.5
 21
-11.50000000000023
 31
0.0
  0
LINE
  5
2A3
330
28E
100
AcDbEntity
  8
0
100
AcDbLine
 10
-13.25
 20
17.99999999999977
 30
0.0
 11
13.24999999999994
 21
17.99999999999977
 31
0.0
  0
LINE
  5
2A4
330
28E
100
AcDbEntity
  8
0
100
AcDbLine
 10
-40.61317508763525
 20
25.38120533918209
 30
0.0
 11
-13.24999999999994
 21
22.0
 31
0.0
  0
ARC
  5
2A5
330
28E
100
AcDbEntity
  8
0
100
AcDbCircle
 10
-40.00000000000002
 20
30.34346453353123
 30
0.0
 40
5.0
100
AcDbArc
 50
180.0
 51
262.9557985512313
  0
LINE
  5
2A6
330
28E
100
AcDbEntity
  8
0
100
AcDbLine
 10
40.61317508763534
 20
25.38120533918232
 30
0.0
 11
13.2500000000013
 21
22.0
 31
0.0
  0
LINE
  5
2A7
330
28E
100
AcDbEntity
  8
0
100
AcDbLine
 10
11.49999999999994
 20
14.99999999999977
 30
0.0
 11
11.49999999999994
 21
15.99999999999954
 31
0.0
  0
LINE
  5
2A8
330
28E
100
AcDbEntity
  8
0
100
AcDbLine
 10
-11.5
 20
14.99999999999977
 30
0.0
 11
-11.5
 21
15.99999999999954
 31
0.0
  0
ENDBLK
  5
2A9
330
28E
100
AcDbEntity
  8
0
100
AcDbBlockEnd
  0
BLOCK
  5
3B9
330
3B6
100
AcDbEntity
  8
0
100
AcDbBlockBegin
  2
DIN A4 Quer
 70
     2
 10
0.0
 20
0.0
 30
0.0
  3
DIN A4 Quer
  1

  0
LINE
  5
3BA
330
3B6
100
AcDbEntity
  8
01-99
100
AcDbLine
 10
6.000001890710337
 20
6.000000518749232
 30
0.0
 11
6.000001890710223
 21
204.0000005187492
 31
0.0
  0
LINE
  5
3BE
330
3B6
100
AcDbEntity
  8
01-99
100
AcDbLine
 10
6.000001890710223
 20
204.0000005187492
 30
0.0
 11
291.0000018907104
 21
204.0000005187492
 31
0.0
  0
LINE
  5
3BF
330
3B6
100
AcDbEntity
  8
02-01
100
AcDbLine
 10
297.0000018907104
 20
210.0000005187492
 30
0.0
 11
0.0000018907103367
 21
210.0000005187492
 31
0.0
  0
LINE
  5
3C3
330
3B6
100
AcDbEntity
  8
02-01
100
AcDbLine
 10
0.0000018907103367
 20
210.0000005187492
 30
0.0
 11
0.0000018907103367
 21
0.000000518749232
 31
0.0
  0
LINE
  5
3C4
330
3B6
100
AcDbEntity
  8
01-99
100
AcDbLine
 10
291.0000018907104
 20
6.000000518749288
 30
0.0
 11
291.0000018907104
 21
204.0000005187492
 31
0.0
  0
LINE
  5
3C5
330
3B6
100
AcDbEntity
  8
01-99
100
AcDbLine
 10
291.0000018907104
 20
6.000000518749288
 30
0.0
 11
6.000001890710337
 21
6.000000518749232
 31
0.0
  0
LINE
  5
3C6
330
3B6
100
AcDbEntity
  8
02-01
100
AcDbLine
 10
0.0000018907103367
 20
0.000000518749232
 30
0.0
 11
297.0000018907104
 21
0.000000518749232
 31
0.0
  0
LINE
  5
3C7
330
3B6
100
AcDbEntity
  8
02-01
100
AcDbLine
 10
297.0000018907104
 20
0.000000518749232
 30
0.0
 11
297.0000018907104
 21
210.0000005187492
 31
0.0
  0
LINE
  5
3C8
330
3B6
100
AcDbEntity
  8
01-99
100
AcDbLine
 10
157.0000018907103
 20
11.11111162974919
 30
0.0
 11
107.0000018907103
 21
11.11111162974919
 31
0.0
  0
LINE
  5
3C9
330
3B6
100
AcDbEntity
  8
01-99
100
AcDbLine
 10
157.0000018907103
 20
16.22222274074923
 30
0.0
 11
107.0000018907103
 21
16.22222274074923
 31
0.0
  0
LINE
  5
3CA
330
3B6
100
AcDbEntity
  8
01-99
100
AcDbLine
 10
157.0000018907103
 20
21.33333385174925
 30
0.0
 11
107.0000018907103
 21
21.33333385174919
 31
0.0
  0
LINE
  5
3CB
330
3B6
100
AcDbEntity
  8
01-99
100
AcDbLine
 10
202.0000018907104
 20
26.44444496274923
 30
0.0
 11
107.0000018907103
 21
26.4444449627492
 31
0.0
  0
LINE
  5
3CC
330
3B6
100
AcDbEntity
  8
01-99
100
AcDbLine
 10
202.0000018907104
 20
31.55555607374925
 30
0.0
 11
107.0000018907103
 21
31.55555607374919
 31
0.0
  0
LINE
  5
3CD
330
3B6
100
AcDbEntity
  8
01-99
100
AcDbLine
 10
132.0000018907103
 20
6.000000518749232
 30
0.0
 11
132.0000018907103
 21
11.11111162974919
 31
0.0
  0
LINE
  5
3CE
330
3B6
100
AcDbEntity
  8
01-99
100
AcDbLine
 10
115.0000018907103
 20
11.11111162974919
 30
0.0
 11
115.0000018907103
 21
36.66666718541589
 31
0.0
  0
LINE
  5
3CF
330
3B6
100
AcDbEntity
  8
01-99
100
AcDbLine
 10
157.0000018907103
 20
6.000000518749232
 30
0.0
 11
157.0000018907103
 21
52.0000005187492
 31
0.0
  0
LINE
  5
3D0
330
3B6
100
AcDbEntity
  8
01-99
100
AcDbLine
 10
202.0000018907104
 20
6.000000518749232
 30
0.0
 11
202.0000018907104
 21
52.0000005187492
 31
0.0
  0
LINE
  5
3D1
330
3B6
100
AcDbEntity
  8
01-99
100
AcDbLine
 10
231.5000018907104
 20
6.000000518749232
 30
0.0
 11
231.5000018907104
 21
16.22222274074928
 31
0.0
  0
LINE
  5
3D2
330
3B6
100
AcDbEntity
  8
01-99
100
AcDbLine
 10
264.0000018907104
 20
6.000000518749232
 30
0.0
 11
264.0000018907104
 21
16.22222274074931
 31
0.0
  0
LINE
  5
3D3
330
3B6
100
AcDbEntity
  8
01-99
100
AcDbLine
 10
235.5000018907104
 20
36.66666718541592
 30
0.0
 11
235.5000018907104
 21
52.00000051874929
 31
0.0
  0
LINE
  5
3D4
330
3B6
100
AcDbEntity
  8
01-99
100
AcDbLine
 10
269.0000018907104
 20
36.66666718541592
 30
0.0
 11
269.0000018907104
 21
52.00000051874929
 31
0.0
  0
LINE
  5
3D5
330
3B6
100
AcDbEntity
  8
01-99
100
AcDbLine
 10
165.0000018907103
 20
21.33333385208258
 30
0.0
 11
165.0000018907103
 21
36.66666718541592
 31
0.0
  0
LINE
  5
3D6
330
3B6
100
AcDbEntity
  8
01-99
100
AcDbLine
 10
147.0031902301398
 20
11.11111162974919
 30
0.0
 11
147.0031902301398
 21
36.66666718541589
 31
0.0
  0
LINE
  5
3D7
330
3B6
100
AcDbEntity
  8
01-99
100
AcDbLine
 10
135.0031902301398
 20
11.11111162974919
 30
0.0
 11
135.0031902301398
 21
36.66666718541589
 31
0.0
  0
LINE
  5
3D8
330
3B6
100
AcDbEntity
  8
01-99
100
AcDbLine
 10
291.0000018907104
 20
52.00000051874929
 30
0.0
 11
107.0000018907085
 21
52.0000005187492
 31
0.0
  0
LINE
  5
3D9
330
3B6
100
AcDbEntity
  8
01-99
100
AcDbLine
 10
202.0000018907104
 20
21.33333385208258
 30
0.0
 11
157.0000018907103
 21
21.33333385208258
 31
0.0
  0
LINE
  5
3DA
330
3B6
100
AcDbEntity
  8
01-99
100
AcDbLine
 10
202.0000018907104
 20
36.66666718541592
 30
0.0
 11
107.0000018907103
 21
36.66666718541583
 31
0.0
  0
LINE
  5
3DB
330
3B6
100
AcDbEntity
  8
01-99
100
AcDbLine
 10
179.0000018907103
 20
21.33333385208258
 30
0.0
 11
179.0000018907103
 21
52.00000051874926
 31
0.0
  0
LINE
  5
3DC
330
3B6
100
AcDbEntity
  8
01-99
100
AcDbLine
 10
157.0000018907103
 20
36.66666718541589
 30
0.0
 11
165.0000018907103
 21
31.55555608541593
 31
0.0
  0
LINE
  5
3DD
330
3B6
100
AcDbEntity
  8
01-99
100
AcDbLine
 10
157.0000018907103
 20
31.55555608541593
 30
0.0
 11
165.0000018907103
 21
36.66666718541592
 31
0.0
  0
LINE
  5
3DE
330
3B6
100
AcDbEntity
  8
01-99
100
AcDbLine
 10
291.0000018907104
 20
44.33333385208257
 30
0.0
 11
202.0000018907104
 21
44.33333385208252
 31
0.0
  0
LINE
  5
3DF
330
3B6
100
AcDbEntity
  8
01-99
100
AcDbLine
 10
202.0000018907104
 20
16.22222274074923
 30
0.0
 11
291.0000018907104
 21
16.22222274074931
 31
0.0
  0
LINE
  5
3E0
330
3B6
100
AcDbEntity
  8
01-99
100
AcDbLine
 10
202.0000018907104
 20
36.66666718541592
 30
0.0
 11
291.0000018907104
 21
36.66666718541601
 31
0.0
  0
LINE
  5
3E1
330
3B6
100
AcDbEntity
  8
01-99
100
AcDbLine
 10
179.0000018907103
 20
41.77777829674923
 30
0.0
 11
157.0000018907103
 21
41.77777829674923
 31
0.0
  0
LINE
  5
3E2
330
3B6
100
AcDbEntity
  8
01-99
100
AcDbLine
 10
179.0000018907103
 20
46.88888940774925
 30
0.0
 11
157.0000018907103
 21
46.88888940774918
 31
0.0
  0
LINE
  5
3E3
330
3B6
100
AcDbEntity
  8
01-99
100
AcDbLine
 10
107.0000018907085
 20
52.0000005187492
 30
0.0
 11
107.0000018907085
 21
6.000000518749232
 31
0.0
  0
TEXT
  5
3E4
330
3B6
100
AcDbEntity
  8
08-99
100
AcDbText
 10
203.4997030590167
 20
32.66987422660716
 30
0.0
 40
2.5
  1
Benennung/Teil:
 51
15.0
  7
ROMANS8
100
AcDbText
  0
TEXT
  5
3E9
330
3B6
100
AcDbEntity
  8
08-99
100
AcDbText
 10
265.5028293382778
 20
12.01760321297988
 30
0.0
 40
2.7
  1
Ident-Nr.
 51
15.0
  7
ROMANS8
100
AcDbText
  0
TEXT
  5
3EA
330
3B6
100
AcDbEntity
  8
08-99
100
AcDbText
 10
180.5000236238784
 20
33.05557748053164
 30
0.0
 40
2.5
  1
Name:
 51
15.0
  7
ROMANS8
100
AcDbText
  0
TEXT
  5
3EB
330
3B6
100
AcDbEntity
  8
08-99
100
AcDbText
 10
166.5077710332553
 20
33.04841847975365
 30
0.0
 40
2.5
  1
Datum:
 50
0.1025281606895979
 41
0.8933771909280746
 51
15.0
  7
ROMANS8
 72
     5
 11
177.6749680403373
 21
33.06840168621366
 31
0.0
100
AcDbText
  0
TEXT
  5
3EC
330
3B6
100
AcDbEntity
  8
08-99
100
AcDbText
 10
116.5000099724457
 20
33.0559776177291
 30
0.0
 40
1.6
  1
Änderung:
 51
15.0
  7
ROMANS8
100
AcDbText
  0
TEXT
  5
3ED
330
3B6
100
AcDbEntity
  8
08-99
100
AcDbText
 10
133.4999399664632
 20
9.111119817911628
 30
0.0
 40
1.0
  1
ERSETZT.DURCH:
 51
15.0
  7
ROMANS8
100
AcDbText
  0
TEXT
  5
3EE
330
3B6
100
AcDbEntity
  8
08-99
100
AcDbText
 10
108.499362706382
 20
9.110854721685484
 30
0.0
 40
1.0
  1
ERSETZT.FÜR:
 51
15.0
  7
ROMANS8
100
AcDbText
  0
TEXT
  5
3EF
330
3B6
100
AcDbEntity
  8
08-99
100
AcDbText
 10
232.9909087328646
 20
12.61295738281299
 30
0.0
 40
2.112
  1
AUFTRAGS.NR.:
 51
15.0
  7
ROMANS8
100
AcDbText
  0
TEXT
  5
3F0
330
3B6
100
AcDbEntity
  8
08-99
100
AcDbText
 10
203.5034660957227
 20
12.61092917477953
 30
0.0
 40
2.112
  1
Sonder-Nr:
 51
15.0
  7
ROMANS8
100
AcDbText
  0
TEXT
  5
3F1
330
3B6
100
AcDbEntity
  8
08-99
100
AcDbText
 10
186.6963093857886
 20
49.92370902579151
 30
0.0
 40
1.349999999999999
  1
Format
 51
15.0
  7
ROMANS8
100
AcDbText
  0
TEXT
  5
3F2
330
3B6
100
AcDbEntity
  8
08-99
100
AcDbText
 10
185.3043816374782
 20
44.64161931184992
 30
0.0
 40
1.822499999999999
  1
Normen
 51
15.0
  7
ROMANS8
100
AcDbText
  0
TEXT
  5
3F3
330
3B6
100
AcDbEntity
  8
08-99
100
AcDbText
 10
108.5000314946119
 20
33.0555683543073
 30
0.0
 40
1.6
  1
Zust.
 51
15.0
  7
ROMANS8
100
AcDbText
  0
TEXT
  5
3F4
330
3B6
100
AcDbEntity
  8
08-99
100
AcDbText
 10
136.5031825918795
 20
33.05555977024574
 30
0.0
 40
1.6
  1
Datum:
 51
15.0
  7
ROMANS8
100
AcDbText
  0
TEXT
  5
3F5
330
3B6
100
AcDbEntity
  8
08-99
100
AcDbText
 10
148.5032155076424
 20
33.05556457669462
 30
0.0
 40
1.6
  1
Name:
 51
15.0
  7
ROMANS8
100
AcDbText
  0
TEXT
  5
3F6
330
3B6
100
AcDbEntity
  8
08-99
100
AcDbText
 10
158.1545563363015
 20
28.03814008669803
 30
0.0
 40
1.6
  1
Erst.
 51
15.0
  7
ROMANS8
100
AcDbText
  0
TEXT
  5
3F7
330
3B6
100
AcDbEntity
  8
08-99
100
AcDbText
 10
157.517182253021
 20
23.19745157817022
 30
0.0
 40
1.6
  1
Bearb.
 51
15.0
  7
ROMANS8
100
AcDbText
  0
TEXT
  5
3F8
330
3B6
100
AcDbEntity
  8
08-99
100
AcDbText
 10
236.4308068024784
 20
41.61949801145607
 30
0.0
 40
2.0
  1
Zuschnittsbreite:
 51
15.0
  7
ROMANS8
100
AcDbText
  0
TEXT
  5
3F9
330
3B6
100
AcDbEntity
  8
08-99
100
AcDbText
 10
202.9849966647425
 20
41.73762414686282
 30
0.0
 40
2.0
  1
Zuschnittslänge:
 51
15.0
  7
ROMANS8
100
AcDbText
  0
LWPOLYLINE
  5
3FA
330
3B6
100
AcDbEntity
  8
06-99
100
AcDbPolyline
 90
      133
 70
     1
 43
0.010692
 10
180.7675417027103
 20
18.87656536808262
 10
181.0090490347104
 20
19.08724766408264
 10
180.9228536947104
 20
19.22625792008253
 10
180.8242663267104
 20
19.35180694808264
 10
180.7136290747105
 20
19.46394108008266
 10
180.5912983387103
 20
19.56271377608252
 10
180.4576162627104
 20
19.64816424008259
 10
180.3129285547104
 20
19.72033880408256
 10
180.1575880507104
 20
19.77929092808259
 10
179.9919368947105
 20
19.82505981608255
 10
179.8163243587104
 20
19.85769180008268
 10
179.6310997147105
 20
19.87724034008263
 10
179.4366086707105
 20
19.88374464008257
 10
179.2756833787104
 20
19.87768227608256
 10
179.1199437067102
 20
19.85975892008253
 10
178.9697211067105
 20
19.83036304808272
 10
178.8253505947105
 20
19.78989026408257
 10
178.6871636227104
 20
19.73873617208269
 10
178.5554845147104
 20
19.67729281208258
 10
178.4306554147105
 20
19.60595222408256
 10
178.3130006467104
 20
19.52510644808251
 10
178.2028516627104
 20
19.43514752408262
 10
178.1005470427104
 20
19.33647462008261
 10
178.0064075467105
 20
19.22947264808263
 10
177.9207717547105
 20
19.11454434008263
 10
177.8439711187104
 20
18.99207460808262
 10
177.7763335267104
 20
18.86245905608265
 10
177.7181939947104
 20
18.72608972408258
 10
177.6698804107104
 20
18.58336578008257
 10
177.6317242267105
 20
18.43467213608258
 10
177.6040640227103
 20
18.28040796008255
 10
177.5872205587104
 20
18.12096172808262
 10
177.5815359787105
 20
17.95672904408261
 10
177.5871492787104
 20
17.78762437208263
 10
177.6038002867105
 20
17.62428981608261
 10
177.6311896267102
 20
17.46704257208259
 10
177.6690179227102
 20
17.31619627208249
 10
177.7169893627104
 20
17.17206454808257
 10
177.7748081347105
 20
17.03496103208263
 10
177.8421784267105
 20
16.90519579208259
 10
177.9188008627104
 20
16.78308602408256
 10
178.0043796307104
 20
16.66894179608255
 10
178.0986224827104
 20
16.5630803040826
 10
178.2012229147103
 20
16.46581161608259
 10
178.3118958067103
 20
16.3774529280825
 10
178.4303346547105
 20
16.29831430808264
 10
178.5562472107104
 20
16.22870938808262
 10
178.6893340987103
 20
16.16895536408256
 10
178.8293030707103
 20
16.11936230408261
 10
178.9758511867105
 20
16.08024384008266
 10
179.1286897627103
 20
16.05191360408264
 10
179.2875122947104
 20
16.03468522808262
 10
179.4520300987105
 20
16.02887234408266
 10
179.6160275587104
 20
16.03412568008261
 10
179.7733603387104
 20
16.04976451208264
 10
179.9238395467104
 20
16.07559638408259
 10
180.0672762907103
 20
16.11142884008265
 10
180.2034852427104
 20
16.1570729880826
 10
180.3322739467103
 20
16.2123399360826
 10
180.4534570747104
 20
16.2770372280826
 10
180.5668386067104
 20
16.35097953608263
 10
180.6722403427104
 20
16.43397440408256
 10
180.7694626987104
 20
16.52582581208261
 10
180.8583239107104
 20
16.6263555600826
 10
180.9386350867105
 20
16.73536050008255
 10
181.0102037707104
 20
16.85266243208261
 10
181.0728410707104
 20
16.97806177208261
 10
181.1263616587105
 20
17.11137319208251
 10
181.1705766427103
 20
17.25240423608258
 10
181.2052900027104
 20
17.40096601208256
 10
181.2303235387104
 20
17.55686962808264
 10
181.2454812307105
 20
17.71992619208254
 10
181.2505741867103
 20
17.88993968408258
 10
181.2505741867103
 20
17.88993968408258
 10
181.2505741867103
 20
17.94132187208262
 10
179.6164659307104
 20
17.94132187208262
 10
179.6164659307104
 20
17.65355025608258
 10
180.8857275067103
 20
17.65355025608258
 10
180.8749891747103
 20
17.49100690808259
 10
180.8476568587103
 20
17.33636138408261
 10
180.8044362307105
 20
17.19027658808261
 10
180.7460329627104
 20
17.05341898808257
 10
180.6731598547106
 20
16.92644436008263
 10
180.5865261427104
 20
16.81002630008262
 10
180.4868303707104
 20
16.7048170200826
 10
180.3747889027104
 20
16.61149011608256
 10
180.2511074107103
 20
16.53069780008258
 10
180.1164915667105
 20
16.46311010408263
 10
179.9716506067103
 20
16.40938636808255
 10
179.8172937667104
 20
16.37019306008267
 10
179.6541267187105
 20
16.34618952008256
 10
179.4828586987105
 20
16.33804221608264
 10
179.3181983347105
 20
16.34599350008258
 10
179.1599032747103
 20
16.36937690408251
 10
179.0085651427103
 20
16.40748319208259
 10
178.8647719987102
 20
16.45960669208259
 10
178.7291047747104
 20
16.5250381680826
 10
178.6021550947103
 20
16.60306838408266
 10
178.4845074547104
 20
16.69299523208261
 10
178.3767534787104
 20
16.7941059120827
 10
178.2794776627105
 20
16.90569475208261
 10
178.1932645027103
 20
17.02705608008256
 10
178.1187056227104
 20
17.1574770960826
 10
178.0563855187104
 20
17.29625569208261
 10
178.0068922507104
 20
17.44268263208255
 10
177.9708138787103
 20
17.59604511608262
 10
177.9487348987103
 20
17.75564460008269
 10
177.9412469347104
 20
17.92076828408253
 10
177.9476336227105
 20
18.0891423360826
 10
177.9665370787104
 20
18.25115464808257
 10
177.9975581347105
 20
18.40630626008257
 10
178.0403011867104
 20
18.55410177608257
 10
178.0943741947103
 20
18.69404580008259
 10
178.1593779907104
 20
18.82564650008262
 10
178.2349169707104
 20
18.94840135208261
 10
178.3205990947104
 20
19.06182208808258
 10
178.4160251947103
 20
19.16540618408268
 10
178.5208067947103
 20
19.25866180808256
 10
178.6345375987105
 20
19.34109000008263
 10
178.7568326947105
 20
19.41219892808263
 10
178.8872893507103
 20
19.47148963208258
 10
179.0255155267105
 20
19.5184667160826
 10
179.1711191827105
 20
19.55263478408258
 10
179.3236975867105
 20
19.5735020040826
 10
179.4828586987105
 20
19.58056585208263
 10
179.6605633027104
 20
19.57164872408262
 10
179.8303166227105
 20
19.5450113880826
 10
179.9917800787104
 20
19.50082135208259
 10
180.1446150907104
 20
19.43924612408259
 10
180.2884830787104
 20
19.36046034008256
 10
180.4230490267105
 20
19.26462794408263
 10
180.5479743547104
 20
19.15192357208261
 10
180.6629169187105
 20
19.02251116808264
  0
LWPOLYLINE
  5
3FF
330
3B6
100
AcDbEntity
  8
06-99
100
AcDbPolyline
 90
       12
 70
     1
 43
0.010692
 10
177.4389973627103
 20
12.25281434408268
 10
179.3222648587105
 20
12.25281434408268
 10
179.4676012147104
 20
13.00768023608262
 10
178.5648720907104
 20
13.00768023608262
 10
178.6210549867103
 20
13.29950768408255
 10
179.4187173907104
 20
13.29950768408255
 10
179.5558030867103
 20
14.01156280808257
 10
178.7581406827103
 20
14.01156280808257
 10
178.8098471947103
 20
14.28005674808256
 10
179.6892285547103
 20
14.28005674808256
 10
179.8345542187104
 20
15.0349083840826
 10
177.9746344867104
 20
15.0349083840826
  0
LWPOLYLINE
  5
400
330
3B6
100
AcDbEntity
  8
06-99
100
AcDbPolyline
 90
        4
 70
     1
 43
0.010692
 10
163.6086138067104
 20
12.88042761608258
 10
176.0658630067103
 20
12.88042761608258
 10
175.9422848707104
 20
12.25209798008259
 10
163.4850392347104
 20
12.25209798008259
  0
SOLID
  5
401
330
3B6
100
AcDbEntity
  8
06-99
100
AcDbTrace
 10
163.6086138067104
 20
12.88042761608258
 30
0.0
 11
176.0658630067103
 21
12.88042761608258
 31
0.0
 12
163.4850392347104
 22
12.25209798008259
 32
0.0
 13
175.9422848707104
 23
12.25209798008259
 33
0.0
  0
LWPOLYLINE
  5
402
330
3B6
100
AcDbEntity
  8
06-99
100
AcDbPolyline
 90
       10
 70
     1
 43
0.010692
 10
169.3458447787105
 20
16.02887234408266
 10
170.3221847587104
 20
19.1026690920826
 10
171.3396497347103
 20
16.02887234408266
 10
172.5678005707105
 20
19.80153385208257
 10
172.2235110427103
 20
19.80153385208257
 10
171.3396497347103
 20
16.89303186008257
 10
170.3221847587104
 20
19.94541253208254
 10
169.3458447787105
 20
16.86733898408263
 10
168.4260120187104
 20
19.80153385208257
 10
168.0765832027105
 20
19.80153385208257
  0
LWPOLYLINE
  5
403
330
3B6
100
AcDbEntity
  8
06-99
100
AcDbPolyline
 90
        3
 70
     1
 43
0.010692
 10
174.3244177627104
 20
17.65868598008265
 10
174.9770360587104
 20
19.25683347608253
 10
175.6039650427103
 20
17.65868598008265
  0
LWPOLYLINE
  5
404
330
3B6
100
AcDbEntity
  8
06-99
100
AcDbPolyline
 90
        7
 70
     1
 43
0.010692
 10
173.3831831827104
 20
16.12735992008257
 10
173.7231959107104
 20
16.12735992008257
 10
174.2113641187103
 20
17.37092862008259
 10
175.7118651427105
 20
17.37092862008259
 10
176.1794940187103
 20
16.12735992008257
 10
176.5443406987104
 20
16.12735992008257
 10
174.9975932107104
 20
19.94541253208254
  0
LWPOLYLINE
  5
405
330
3B6
100
AcDbEntity
  8
06-99
100
AcDbPolyline
 90
        8
 70
     1
 43
0.010692
 10
185.9298068107102
 20
12.25281434408268
 10
187.0043813227103
 20
12.25281434408268
 10
187.1574087907104
 20
12.60301298408259
 10
187.9122746827104
 20
12.60301298408259
 10
187.9343465347104
 20
12.25281434408268
 10
189.0082759627103
 20
12.25281434408268
 10
188.5711513627103
 20
15.0349083840826
 10
187.4583137467103
 20
15.0349083840826
  0
LWPOLYLINE
  5
406
330
3B6
100
AcDbEntity
  8
06-99
100
AcDbPolyline
 90
       34
 70
     1
 43
0.010692
 10
183.0434586427104
 20
13.66137842408258
 10
183.0784820707102
 20
13.66137842408258
 10
183.0642260707104
 20
13.48699903208265
 10
183.0638019547104
 20
13.3351013520826
 10
183.0679005547104
 20
13.20222830408264
 10
183.0952328707104
 20
12.25281434408268
 10
183.9668304547102
 20
12.25281434408268
 10
185.3156904067102
 20
15.0349083840826
 10
184.3118078347104
 20
15.0349083840826
 10
183.8579146147103
 20
13.80923096408256
 10
183.8078119027105
 20
13.66872739208253
 10
183.7488419587103
 20
13.48671391208251
 10
183.6900288307102
 20
13.26059949608267
 10
183.6666953227103
 20
13.26059949608267
 10
183.6884214667103
 20
13.45803440408261
 10
183.6929798227104
 20
13.61569507208256
 10
183.6919391347103
 20
13.73531360408262
 10
183.6775548307103
 20
15.0349083840826
 10
182.9732870467103
 20
15.0349083840826
 10
182.4584850667104
 20
13.73531360408262
 10
182.4113832427102
 20
13.61569507208256
 10
182.3552288587105
 20
13.45803440408261
 10
182.3009241907104
 20
13.26059949608267
 10
182.2775906827103
 20
13.26059949608267
 10
182.3058460747104
 20
13.48671391208251
 10
182.3169657547104
 20
13.66872739208253
 10
182.3209609987103
 20
13.80923096408256
 10
182.3390340427103
 20
15.0349083840826
 10
181.3345063867103
 20
15.0349083840826
 10
181.6127371747104
 20
12.25281434408268
 10
182.4843311947103
 20
12.25281434408268
 10
182.8772408107104
 20
13.20222830408264
 10
182.9325148867104
 20
13.3351013520826
 10
182.9905795747104
 20
13.48699903208265
  0
LWPOLYLINE
  5
407
330
3B6
100
AcDbEntity
  8
06-99
100
AcDbPolyline
 90
       10
 70
     1
 43
0.010692
 10
187.4520696187103
 20
13.26448425608262
 10
187.5983611267103
 20
13.57965946808258
 10
187.6731124627104
 20
13.74409530008267
 10
187.7541542587104
 20
13.9457107800826
 10
187.8288307507103
 20
14.19056470808266
 10
187.8482901907103
 20
14.19056470808266
 10
187.8286668067103
 20
13.9457107800826
 10
187.8320739907104
 20
13.74409530008267
 10
187.8435073027103
 20
13.57965946808258
 10
187.8684125347105
 20
13.26448425608262
  0
LWPOLYLINE
  5
408
330
3B6
100
AcDbEntity
  8
06-99
100
AcDbPolyline
 90
       23
 70
     1
 43
0.010692
 10
190.5867074107104
 20
12.25281434408268
 10
191.5672422187103
 20
12.25281434408268
 10
191.7440380027103
 20
13.17110389208258
 10
192.0536284267105
 20
12.25281434408268
 10
193.1742391267103
 20
12.25281434408268
 10
192.6490694707104
 20
13.38511496408256
 10
192.8084301667104
 20
13.42380931208259
 10
192.9537023707103
 20
13.49881725608259
 10
193.0813505947103
 20
13.60690268408257
 10
193.1878322227103
 20
13.74481879208261
 10
193.2696010747103
 20
13.90932234008255
 10
193.3231145347103
 20
14.09717008808257
 10
193.3446018907103
 20
14.26809240008262
 10
193.3403037067103
 20
14.42330103608268
 10
193.3102306747104
 20
14.56226139608259
 10
193.2543934867102
 20
14.6844353160825
 10
193.1728099627103
 20
14.78928819608265
 10
193.0654943587103
 20
14.87627830808262
 10
192.9324538027104
 20
14.94487461608261
 10
192.7737096787102
 20
14.99453539208267
 10
192.5892655507103
 20
15.02472603608262
 10
192.3791463667103
 20
15.0349083840826
 10
191.1223445347103
 20
15.0349083840826
  0
LWPOLYLINE
  5
409
330
3B6
100
AcDbEntity
  8
06-99
100
AcDbPolyline
 90
        9
 70
     1
 43
0.010692
 10
191.9650345147104
 20
14.31896493608261
 10
192.1206850867104
 20
14.31896493608261
 10
192.2773549627104
 20
14.28538492808255
 10
192.3582221227102
 20
14.19041145608264
 10
192.3632188507104
 20
14.04270147608261
 10
192.3008666707103
 20
13.89700159208266
 10
192.1832938747103
 20
13.8057810120826
 10
192.0158143867103
 20
13.77422179208255
 10
191.8601638147104
 20
13.77422179208255
  0
LWPOLYLINE
  5
40A
330
3B6
100
AcDbEntity
  8
06-99
100
AcDbPolyline
 90
       12
 70
     1
 43
0.010692
 10
187.5798033787105
 20
16.12735992008257
 10
189.3989010547105
 20
16.12735992008257
 10
189.3989010547105
 20
16.44082441208255
 10
187.9138214587105
 20
16.44082441208255
 10
187.9138214587105
 20
18.02353266008268
 10
189.3989010547105
 20
18.02353266008268
 10
189.3989010547105
 20
18.33699715208266
 10
187.9138214587105
 20
18.33699715208266
 10
187.9138214587105
 20
19.48806936008262
 10
189.3989010547105
 20
19.48806936008262
 10
189.3989010547105
 20
19.80153385208257
 10
187.5798033787105
 20
19.80153385208257
  0
LWPOLYLINE
  5
40B
330
3B6
100
AcDbEntity
  8
06-99
100
AcDbPolyline
 90
        8
 70
     1
 43
0.010692
 10
182.8530269947105
 20
16.12735992008257
 10
183.1870486387104
 20
16.12735992008257
 10
183.1870486387104
 20
19.09753336808259
 10
185.7666682747103
 20
16.01858664008259
 10
185.7666682747103
 20
19.80153385208257
 10
185.4326608867104
 20
19.80153385208257
 10
185.4326608867104
 20
16.88274615608262
 10
182.8530269947105
 20
19.95568398008257
  0
LWPOLYLINE
  5
40C
330
3B6
100
AcDbEntity
  8
06-99
100
AcDbPolyline
 90
       19
 70
     1
 43
0.010692
 10
191.4484255867105
 20
19.50862651208254
 10
191.7824329747104
 20
19.50862651208254
 10
191.9866180987103
 20
19.50030813608259
 10
192.1604486347104
 20
19.47385969208258
 10
192.3048975547104
 20
19.42705724408253
 10
192.4209200107105
 20
19.35767329208255
 10
192.5094818467105
 20
19.26348033608252
 10
192.5715453427103
 20
19.14225087608264
 10
192.6080799067104
 20
18.99175028408251
 10
192.6200442547104
 20
18.80976175208258
 10
192.6074490787103
 20
18.63100933208255
 10
192.5693784307105
 20
18.48586186808256
 10
192.5054188867105
 20
18.37130421608268
 10
192.4151392027104
 20
18.28432836008261
 10
192.2981259547105
 20
18.22192272008263
 10
192.1539514627104
 20
18.18107215208257
 10
191.9821916107103
 20
18.15877220408268
 10
191.7824329747104
 20
18.15200773208264
 10
191.4484255867105
 20
18.15200773208264
  0
LWPOLYLINE
  5
40D
330
3B6
100
AcDbEntity
  8
06-99
100
AcDbPolyline
 90
       29
 70
     1
 43
0.010692
 10
193.3446018907103
 20
16.12735992008257
 10
192.0239581267104
 20
17.87965398008262
 10
192.2123761147105
 20
17.89225272008266
 10
192.3829028227104
 20
17.92942167608257
 10
192.5344013347104
 20
17.99023064408268
 10
192.6657240427104
 20
18.07375654808263
 10
192.7757304667105
 20
18.17905849208256
 10
192.8632765627103
 20
18.3052169640826
 10
192.9272254147104
 20
18.45129463208263
 10
192.9664329787104
 20
18.61636129208264
 10
192.9797552107102
 20
18.79949030408264
 10
192.9699399547105
 20
18.97455398408263
 10
192.9404834947105
 20
19.13261738408263
 10
192.8913573187104
 20
19.27374822008264
 10
192.8225436067105
 20
19.39801420808251
 10
192.7340174107104
 20
19.50548662808262
 10
192.6257537827105
 20
19.59623676008263
 10
192.4977313387104
 20
19.67032875608257
 10
192.3499251307103
 20
19.72783389608261
 10
192.1823137747104
 20
19.76882702408264
 10
191.9948758867104
 20
19.79336872808264
 10
191.7875829547104
 20
19.80153385208257
 10
191.7875829547104
 20
19.80153385208257
 10
191.1144075067104
 20
19.80153385208257
 10
191.1144075067104
 20
16.12735992008257
 10
191.4484255867105
 20
16.12735992008257
 10
191.4484255867105
 20
17.87965398008262
 10
191.6488399987104
 20
17.87965398008262
 10
192.9386409067104
 20
16.12735992008257
  0
TEXT
  5
40E
330
3B6
100
AcDbEntity
  8
06-99
100
AcDbText
 10
172.6083599897699
 20
9.633209504468425
 30
0.0
 40
1.4256
  1
GmbH & Co KG
 41
1.199203187250998
 51
15.0
  7
ROMAND8
 72
     5
 11
193.04195998977
 21
9.633209504468425
 31
0.0
100
AcDbText
  0
TEXT
  5
410
330
3B6
100
AcDbEntity
  8
06-99
100
AcDbText
 10
172.7098167443538
 20
7.391016232044876
 30
0.0
 40
1.4256
  1
72770 Reutlingen
 50
0.5663244663116137
 41
1.087840993687877
 51
15.0
  7
ROMAND8
 72
     5
 11
192.9434167443538
 21
7.591016232044864
 31
0.0
100
AcDbText
  0
TEXT
  5
411
330
3B6
100
AcDbEntity
  8
08-99
100
AcDbText
 10
160.4141200905478
 20
48.45009214919255
 30
0.0
 40
2.25
  1
Zul. Abw.
 51
15.0
  7
ROMANS8
100
AcDbText
  0
TEXT
  5
412
330
3B6
100
AcDbEntity
  8
08-99
100
AcDbText
 10
210.2099282109939
 20
49.28616467812273
 30
0.0
 40
2.0
  1
Mat. Art.
 51
15.0
  7
ROMANS8
100
AcDbText
  0
TEXT
  5
413
330
3B6
100
AcDbEntity
  8
08-99
100
AcDbText
 10
242.4865328610831
 20
49.40431390209392
 30
0.0
 40
2.0
  1
Oberfläche:
 51
15.0
  7
ROMANS8
100
AcDbText
  0
TEXT
  5
414
330
3B6
100
AcDbEntity
  8
08-99
100
AcDbText
 10
270.2625397292909
 20
41.7376472354272
 30
0.0
 40
2.0
  1
Blech Dicke:
 51
15.0
  7
ROMANS8
100
AcDbText
  0
TEXT
  5
415
330
3B6
100
AcDbEntity
  8
08-99
100
AcDbText
 10
274.4380299192681
 20
49.28616467812279
 30
0.0
 40
2.0
  1
Maßstab:
 51
15.0
  7
ROMANS8
100
AcDbText
  0
LINE
  5
416
330
3B6
100
AcDbEntity
  8
01-99
100
AcDbLine
 10
202.0000018907104
 20
46.88888940774925
 30
0.0
 11
179.0000018907103
 21
46.88888940774925
 31
0.0
  0
LINE
  5
417
330
3B6
100
AcDbEntity
  8
01-99
100
AcDbLine
 10
202.0000018907104
 20
44.33333385208252
 30
0.0
 11
179.0000018907103
 21
44.33333385208252
 31
0.0
  0
LINE
  5
418
330
3B6
100
AcDbEntity
  8
01-99
100
AcDbLine
 10
202.0000018907104
 20
40.5000005187492
 30
0.0
 11
179.0000018907103
 21
40.5000005187492
 31
0.0
  0
ATTDEF
  5
419
330
3B6
100
AcDbEntity
  8
06-99
100
AcDbText
 10
203.4954486298875
 20
26.18783921603142
 30
0.0
 40
4.5
  1

 41
0.9
  7
ROMANS8
100
AcDbAttributeDefinition
280
     0
  3
Benennung/Teil
  2
TEILE
 70
     0
280
     0
  0
ATTDEF
  5
41A
330
3B6
100
AcDbEntity
  8
06-99
100
AcDbText
 10
203.4954486298875
 20
18.9506040036654
 30
0.0
 40
4.5
  1

 41
0.9
  7
ROMANS8
100
AcDbAttributeDefinition
280
     0
  3
Benennung/Teil2
  2
TEILE2
 70
     0
280
     0
  0
ATTDEF
  5
41B
330
3B6
100
AcDbEntity
  8
06-99
100
AcDbText
 10
278.347388102425
 20
45.33333385208258
 30
0.0
 40
3.375
  1

  7
ROMANS8
100
AcDbAttributeDefinition
280
     0
  3
Maßstab
  2
:
 70
     0
280
     0
  0
ATTDEF
  5
41C
330
3B6
100
AcDbEntity
  8
06-99
100
AcDbText
 10
179.9970696900777
 20
27.4416859867805
 30
0.0
 40
2.5
  1

 41
0.9
  7
ROMANS8
100
AcDbAttributeDefinition
280
     0
  3
Name
  2
NAME
 70
     0
280
     0
  0
ATTDEF
  5
41D
330
3B6
100
AcDbEntity
  8
06-99
100
AcDbText
 10
166.4931483426044
 20
27.46123569286047
 30
0.0
 40
2.5
  1

 50
359.914459769614
 41
0.9542572414211146
  7
ROMANS8
 72
     5
 11
177.7397390111491
 21
27.44444498541589
 31
0.0
100
AcDbAttributeDefinition
280
     0
  3
Datum
  2
DATUM
 70
     0
280
     0
  0
ATTDEF
  5
41E
330
3B6
100
AcDbEntity
  8
06-99
100
AcDbText
 10
265.5063458578687
 20
7.492900319037914
 30
0.0
 40
2.99376
  1

  7
ROMANS8
100
AcDbAttributeDefinition
280
     0
  3
Ident-Nummer
  2
ID.NR
 70
     0
280
     0
  0
ATTDEF
  5
41F
330
3B6
100
AcDbEntity
  8
06-99
100
AcDbText
 10
203.7312681464209
 20
37.66666716319369
 30
0.0
 40
3.0
  1

 41
0.9
  7
ROMANS8
100
AcDbAttributeDefinition
280
     0
  3
Zuschnitts.Länge
  2
LÄNGE
 70
     0
280
     0
  0
ATTDEF
  5
420
330
3B6
100
AcDbEntity
  8
06-99
100
AcDbText
 10
237.1808068024801
 20
37.67810438919401
 30
0.0
 40
3.0
  1

 41
0.9
  7
ROMANS8
100
AcDbAttributeDefinition
280
     0
  3
Zuschnitts Breite
  2
BREITE
 70
     0
280
     0
  0
ATTDEF
  5
421
330
3B6
100
AcDbEntity
  8
06-99
100
AcDbText
 10
277.6090940174423
 20
37.666667185416
 30
0.0
 40
3.09375
  1

  7
ROMANS8
100
AcDbAttributeDefinition
280
     0
  3
Blech.Dicke
  2
1.0
 70
     0
280
     0
  0
ATTDEF
  5
422
330
3B6
100
AcDbEntity
  8
06-99
100
AcDbText
 10
251.127787492113
 20
45.33333385208268
 30
0.0
 40
3.0
  1

  7
ROMANS8
 72
     1
 11
251.127787492113
 21
45.33333385208268
 31
0.0
100
AcDbAttributeDefinition
280
     0
  3
Oberfläche
  2
IV
 70
     0
280
     0
  0
ATTDEF
  5
423
330
3B6
100
AcDbEntity
  8
06-99
100
AcDbText
 10
210.2747424268261
 20
45.33333385208251
 30
0.0
 40
3.375
  1
1.4301
  7
ROMANS8
100
AcDbAttributeDefinition
280
     0
  3
Mat.Art
  2
1.4301
 70
     0
280
     0
  0
ATTDEF
  5
424
330
3B6
100
AcDbEntity
  8
06-99
100
AcDbText
 10
233.0006357775905
 20
7.504397123103899
 30
0.0
 40
3.168
  1

 41
0.9
  7
ROMANS8
100
AcDbAttributeDefinition
280
     0
  3
Auftrags Nr.
  2
AUFTRAGS.NR.
 70
     0
280
     0
  0
ATTDEF
  5
425
330
3B6
100
AcDbEntity
  8
06-99
100
AcDbText
 10
203.5000018907104
 20
7.500000518749232
 30
0.0
 40
3.168
  1

 41
0.9
  7
ROMANS8
100
AcDbAttributeDefinition
280
     0
  3
Sonder-NR,WPS
  2
SONDER-NR
 70
     0
280
     0
  0
ATTDEF
  5
426
330
3B6
100
AcDbEntity
  8
06-99
100
AcDbText
 10
133.4997528857186
 20
6.601810588009072
 30
0.0
 40
1.5
  1

 41
0.9
  7
ROMANS8
100
AcDbAttributeDefinition
280
     0
  3
ERSETZT.Durch
  2
ERSETZT.DURCH
 70
     0
280
     0
  0
ATTDEF
  5
427
330
3B6
100
AcDbEntity
  8
06-99
100
AcDbText
 10
108.4994696709088
 20
6.597456916621638
 30
0.0
 40
1.5
  1

 41
0.9
  7
ROMANS8
100
AcDbAttributeDefinition
280
     0
  3
ERSETZT.Für
  2
ERSETZT.FÜR
 70
     0
280
     0
  0
ATTDEF
  5
428
330
3B6
100
AcDbEntity
  8
06-99
100
AcDbText
 10
186.9730745371479
 20
47.66851165875723
 30
0.0
 40
1.287
  1
DIN A4
  7
ROMANS8
 72
     1
 11
190.2518602514336
 21
47.66851165875723
 31
0.0
100
AcDbAttributeDefinition
280
     0
  3
Format
  2
FORMAT
 70
     0
280
     0
  0
ATTDEF
  5
429
330
3B6
100
AcDbEntity
  8
06-99
100
AcDbText
 10
182.9908211122643
 20
37.31860869812613
 30
0.0
 40
2.34
  1
DIN 2768
  7
ROMANS8
 72
     1
 11
191.0136782551215
 21
37.31860869812613
 31
0.0
100
AcDbAttributeDefinition
280
     0
  3
Norm / Kanten
  2
NORM2
 70
     0
280
     0
  0
ATTDEF
  5
42A
330
3B6
100
AcDbEntity
  8
06-99
100
AcDbText
 10
179.8151068265501
 20
41.15194203145941
 30
0.0
 40
2.34
  1
DIN 6930-M
  7
ROMANS8
 72
     1
 11
190.5122496836929
 21
41.15194203145941
 31
0.0
100
AcDbAttributeDefinition
280
     0
  3
Norm / Fräsen
  2
NORM1
 70
     0
280
     0
  0
ENDBLK
  5
42B
330
3B6
100
AcDbEntity
  8
0
100
AcDbBlockEnd
  0
BLOCK
  5
2E3
330
2E2
100
AcDbEntity
  8
0
100
AcDbBlockBegin
  2
Pumpe_Sensor01_s
 70
     0
 10
0.0
 20
0.0
 30
0.0
  3
Pumpe_Sensor01_s
  1

  0
ARC
  5
2E4
330
2E2
100
AcDbEntity
  8
0
100
AcDbCircle
 10
-343.9833911328292
 20
359.7927908200486
 30
0.0
 40
0.5000000000000427
100
AcDbArc
 50
0.0
 51
90.0
  0
ARC
  5
2E5
330
2E2
100
AcDbEntity
  8
0
100
AcDbCircle
 10
-369.9833911328292
 20
359.7927908200486
 30
0.0
 40
0.5000000000000427
100
AcDbArc
 50
90.0
 51
180.0
  0
LINE
  5
2E6
330
2E2
100
AcDbEntity
  8
0
100
AcDbLine
 10
-370.4833926467872
 20
356.2927954895737
 30
0.0
 11
-370.4833926467872
 21
359.7927951319457
 31
0.0
  0
LINE
  5
2E7
330
2E2
100
AcDbEntity
  8
0
100
AcDbLine
 10
-343.4833900837875
 20
359.7927951319457
 30
0.0
 11
-343.4833900837875
 21
356.2927954895737
 31
0.0
  0
SPLINE
  5
2E8
330
2E2
100
AcDbEntity
  8
0
100
AcDbSpline
210
0.0
220
0.0
230
1.0
 70
     8
 71
     3
 72
     9
 73
     5
 74
     0
 42
0.0000000001
 43
0.0000000001
 40
0.0
 40
0.0
 40
0.0
 40
0.0
 40
0.5044956677141813
 40
1.0
 40
1.0
 40
1.0
 40
1.0
 10
-324.8335139660812
 20
288.293745468402
 30
0.0
 10
-325.1227393563331
 20
287.4659296185705
 30
0.0
 10
-325.6960354394544
 20
285.8250516035375
 30
0.0
 10
-326.1222459132834
 20
284.133082120186
 30
0.0
 10
-326.3334350495315
 20
283.29470391109
 30
0.0
  0
SPLINE
  5
2E9
330
2E2
100
AcDbEntity
  8
0
100
AcDbSpline
210
0.0
220
0.0
230
1.0
 70
     8
 71
     3
 72
     9
 73
     5
 74
     0
 42
0.0000000001
 43
0.0000000001
 40
0.0
 40
0.0
 40
0.0
 40
0.0
 40
0.4955569444815929
 40
1.0
 40
1.0
 40
1.0
 40
1.0
 10
-329.3333889751411
 20
283.2949125273468
 30
0.0
 10
-329.5437233431344
 20
284.1302441032294
 30
0.0
 10
-329.9681637032895
 20
285.8158860565602
 30
0.0
 10
-330.5432741123768
 20
287.4631514885221
 30
0.0
 10
-330.8333845643974
 20
288.2941030962708
 30
0.0
  0
LINE
  5
2EA
330
2E2
100
AcDbEntity
  8
0
100
AcDbLine
 10
-343.9819332576634
 20
360.2927886946441
 30
0.0
 11
-369.9848490079617
 21
360.2927886946442
 31
0.0
  0
LINE
  5
2EB
330
2E2
100
AcDbEntity
  8
0
100
AcDbLine
 10
-333.8333906440712
 20
339.7927844031098
 30
0.0
 11
-333.8333906440712
 21
338.2927888138535
 31
0.0
  0
LINE
  5
2EC
330
2E2
100
AcDbEntity
  8
0
100
AcDbLine
 10
-370.4833926467872
 20
339.7927844031098
 30
0.0
 11
-370.4833926467872
 21
338.2927888138535
 31
0.0
  0
LINE
  5
2ED
330
2E2
100
AcDbEntity
  8
0
100
AcDbLine
 10
-370.4833926467872
 20
339.7927844031098
 30
0.0
 11
-333.8333906440712
 21
339.7927844031098
 31
0.0
  0
LINE
  5
2EE
330
2E2
100
AcDbEntity
  8
0
100
AcDbLine
 10
-370.4833926467872
 20
338.2927888138535
 30
0.0
 11
-333.8333906440712
 21
338.2927888138535
 31
0.0
  0
LINE
  5
2EF
330
2E2
100
AcDbEntity
  8
0
100
AcDbLine
 10
-373.8333897500015
 20
339.7927844031098
 30
0.0
 11
-373.8333897500015
 21
338.2927888138535
 31
0.0
  0
LINE
  5
2F0
330
2E2
100
AcDbEntity
  8
0
100
AcDbLine
 10
-373.8333897500015
 20
339.7927844031098
 30
0.0
 11
-370.4833926467872
 21
339.7927844031098
 31
0.0
  0
LINE
  5
2F1
330
2E2
100
AcDbEntity
  8
0
100
AcDbLine
 10
-373.8333897500015
 20
338.2927888138535
 30
0.0
 11
-370.4833926467872
 21
338.2927888138535
 31
0.0
  0
LINE
  5
2F2
330
2E2
100
AcDbEntity
  8
0
100
AcDbLine
 10
-313.8333948163963
 20
339.7927844031098
 30
0.0
 11
-313.8333948163963
 21
338.2927888138535
 31
0.0
  0
LINE
  5
2F3
330
2E2
100
AcDbEntity
  8
0
100
AcDbLine
 10
-333.8333906440712
 20
339.7927844031098
 30
0.0
 11
-313.8333948163963
 21
339.7927844031098
 31
0.0
  0
LINE
  5
2F4
330
2E2
100
AcDbEntity
  8
0
100
AcDbLine
 10
-333.8333906440712
 20
338.2927888138535
 30
0.0
 11
-313.8333948163963
 21
338.2927888138535
 31
0.0
  0
LINE
  5
2F5
330
2E2
100
AcDbEntity
  8
0
100
AcDbLine
 10
-333.8333906440712
 20
354.8189663393738
 30
0.0
 11
-333.8333906440712
 21
339.7927844031098
 31
0.0
  0
LINE
  5
2F6
330
2E2
100
AcDbEntity
  8
0
100
AcDbLine
 10
-370.4833926467872
 20
354.8189663393738
 30
0.0
 11
-333.8333906440712
 21
354.8189663393738
 31
0.0
  0
LINE
  5
2F7
330
2E2
100
AcDbEntity
  8
0
100
AcDbLine
 10
-370.4833926467872
 20
354.8189663393738
 30
0.0
 11
-370.4833926467872
 21
339.7927844031098
 31
0.0
  0
LINE
  5
2F8
330
2E2
100
AcDbEntity
  8
0
100
AcDbLine
 10
-315.4718594460464
 20
354.8189663393738
 30
0.0
 11
-315.2095766572929
 21
339.7927844031098
 31
0.0
  0
LINE
  5
2F9
330
2E2
100
AcDbEntity
  8
0
100
AcDbLine
 10
-333.8333906440712
 20
354.8189663393738
 30
0.0
 11
-315.4718594460464
 21
354.8189663393738
 31
0.0
  0
LINE
  5
2FA
330
2E2
100
AcDbEntity
  8
0
100
AcDbLine
 10
-372.1949251203514
 20
354.8189663393738
 30
0.0
 11
-370.4833926467872
 21
354.8189663393738
 31
0.0
  0
LINE
  5
2FB
330
2E2
100
AcDbEntity
  8
0
100
AcDbLine
 10
-372.1949251203514
 20
354.8189663393738
 30
0.0
 11
-372.4572079091049
 21
339.7927844031098
 31
0.0
  0
LINE
  5
2FC
330
2E2
100
AcDbEntity
  8
0
100
AcDbLine
 10
-333.8333906440712
 20
356.2927954895737
 30
0.0
 11
-370.4833926467872
 21
356.2927954895737
 31
0.0
  0
LINE
  5
2FD
330
2E2
100
AcDbEntity
  8
0
100
AcDbLine
 10
-370.4833926467872
 20
356.2927954895737
 30
0.0
 11
-370.4833926467872
 21
354.8189663393738
 31
0.0
  0
LINE
  5
2FE
330
2E2
100
AcDbEntity
  8
0
100
AcDbLine
 10
-333.8333906440712
 20
356.2927954895737
 30
0.0
 11
-333.8333906440712
 21
354.8189663393738
 31
0.0
  0
LINE
  5
2FF
330
2E2
100
AcDbEntity
  8
0
100
AcDbLine
 10
-316.9716315178848
 20
356.2927954895737
 30
0.0
 11
-333.8333906440712
 21
356.2927954895737
 31
0.0
  0
ARC
  5
300
330
2E2
100
AcDbEntity
  8
0
100
AcDbCircle
 10
-316.9716281962108
 20
354.7927908200486
 30
0.0
 40
1.500000000000056
100
AcDbArc
 50
1.000000000003084
 51
90.0
  0
LINE
  5
301
330
2E2
100
AcDbEntity
  8
0
100
AcDbLine
 10
-370.4833926467872
 20
356.2927954895737
 30
0.0
 11
-370.695153048513
 21
356.2927954895737
 31
0.0
  0
ARC
  5
302
330
2E2
100
AcDbEntity
  8
0
100
AcDbCircle
 10
-370.6951540694476
 20
354.7927908200486
 30
0.0
 40
1.500000000000056
100
AcDbArc
 50
90.0
 51
178.9999999999969
  0
LINE
  5
303
330
2E2
100
AcDbEntity
  8
0
100
AcDbLine
 10
-333.8333906440712
 20
338.2927888138535
 30
0.0
 11
-333.8333906440712
 21
288.2927917940857
 31
0.0
  0
LINE
  5
304
330
2E2
100
AcDbEntity
  8
0
100
AcDbLine
 10
-333.8333906440712
 20
288.2927917940857
 30
0.0
 11
-313.8333948163963
 21
288.2927917940857
 31
0.0
  0
LINE
  5
305
330
2E2
100
AcDbEntity
  8
0
100
AcDbLine
 10
-313.8333948163963
 20
288.2927917940857
 30
0.0
 11
-313.8333948163963
 21
338.2927888138535
 31
0.0
  0
LINE
  5
306
330
2E2
100
AcDbEntity
  8
0
100
AcDbLine
 10
-370.4833926467872
 20
336.2927847607376
 30
0.0
 11
-370.4833926467872
 21
338.2927888138535
 31
0.0
  0
LINE
  5
307
330
2E2
100
AcDbEntity
  8
0
100
AcDbLine
 10
-370.4833926467872
 20
336.2927847607376
 30
0.0
 11
-383.8333913891292
 21
336.2927847607376
 31
0.0
  0
LINE
  5
308
330
2E2
100
AcDbEntity
  8
0
100
AcDbLine
 10
-333.8333906440712
 20
288.2927917940857
 30
0.0
 11
-383.8333913891292
 21
288.2927917940857
 31
0.0
  0
LINE
  5
309
330
2E2
100
AcDbEntity
  8
0
100
AcDbLine
 10
-383.8333913891292
 20
336.2927847607376
 30
0.0
 11
-383.8333913891292
 21
288.2927917940857
 31
0.0
  0
LINE
  5
30A
330
2E2
100
AcDbEntity
  8
0
100
AcDbLine
 10
-373.8333897500015
 20
338.2927888138535
 30
0.0
 11
-373.8333897500015
 21
336.2927847607376
 31
0.0
  0
LWPOLYLINE
  5
30B
330
2E2
100
AcDbEntity
  8
0
100
AcDbPolyline
 90
       17
 70
     0
 43
0.0
 10
-327.8333933858848
 20
283.3200954897644
 10
-327.2574411540008
 20
283.3182477457762
 10
-326.7727287321068
 20
283.3127343161345
 10
-326.4434354214645
 20
283.3045982821228
 10
-326.333390346048
 20
283.2949125273468
 10
-326.4430181889511
 20
283.2852565748932
 10
-326.7727287321068
 20
283.277090738559
 10
-327.257068624971
 20
283.2715475065949
 10
-327.8333933858848
 20
283.2696997626068
 10
-328.4087197689987
 20
283.2715475065949
 10
-328.8940505890823
 20
283.277090738559
 10
-329.2233513503052
 20
283.2852267725708
 10
-329.3333889751411
 20
283.2949125273468
 10
-329.223761132238
 20
283.3045684798004
 10
-328.8940505890823
 20
283.3127343161345
 10
-328.4090922980285
 20
283.3182775480988
 10
-327.8333933858848
 20
283.3200954897644
  0
LWPOLYLINE
  5
30C
330
2E2
100
AcDbEntity
  8
0
100
AcDbPolyline
 90
       17
 70
     0
 43
0.0
 10
-327.8333933858848
 20
283.3075189097167
 10
-327.5463821201301
 20
283.306535433078
 10
-327.3030610589958
 20
283.3038234217407
 10
-327.1404819397903
 20
283.2997405035736
 10
-327.0833881406761
 20
283.2949125273468
 10
-327.1404819397903
 20
283.2900845511199
 10
-327.3030610589958
 20
283.2860016329529
 10
-327.5463821201301
 20
283.2832598192932
 10
-327.8333933858848
 20
283.2823061449768
 10
-328.1204046516395
 20
283.2832598192932
 10
-328.3637182621933
 20
283.2860016329529
 10
-328.5262973813988
 20
283.2900845511199
 10
-328.583391180513
 20
283.2949125273468
 10
-328.5262973813988
 20
283.2997405035736
 10
-328.3637182621933
 20
283.3038234217407
 10
-328.1204046516395
 20
283.306535433078
 10
-327.8333933858848
 20
283.3075189097167
  0
LINE
  5
30D
330
2E2
100
AcDbEntity
  8
0
100
AcDbLine
 10
-370.4833926467872
 20
359.7927951319457
 30
0.0
 11
-343.4833900837875
 21
359.7927951319457
 31
0.0
  0
LINE
  5
30E
330
2E2
100
AcDbEntity
  8
0
100
AcDbLine
 10
-364.4833911328124
 20
360.2927886946442
 30
0.0
 11
-364.4833911328124
 21
364.2927886946442
 31
0.0
  0
LINE
  5
30F
330
2E2
100
AcDbEntity
  8
0
100
AcDbLine
 10
-364.4833911328124
 20
364.2927886946442
 30
0.0
 11
-349.4833911328124
 21
369.7927886946442
 31
0.0
  0
LINE
  5
310
330
2E2
100
AcDbEntity
  8
0
100
AcDbLine
 10
-349.4833911328124
 20
369.7927886946442
 30
0.0
 11
-349.4833911328124
 21
360.2927886946442
 31
0.0
  0
LINE
  5
311
330
2E2
100
AcDbEntity
  8
0
100
AcDbLine
 10
-376.8294544842504
 20
334.2927847607376
 30
0.0
 11
-379.2583913891293
 21
334.2927847607376
 31
0.0
  0
LINE
  5
312
330
2E2
100
AcDbEntity
  8
0
100
AcDbLine
 10
-379.2583913891293
 20
334.2927847607376
 30
0.0
 11
-379.8333913891292
 21
288.2927847607376
 31
0.0
  0
LINE
  5
313
330
2E2
100
AcDbEntity
  8
0
100
AcDbLine
 10
-376.8294544842504
 20
334.2927847607376
 30
0.0
 11
-376.7331492110891
 21
288.2927847607376
 31
0.0
  0
ENDBLK
  5
314
330
2E2
100
AcDbEntity
  8
0
100
AcDbBlockEnd
  0
BLOCK
  5
222
330
221
100
AcDbEntity
  8
0
100
AcDbBlockBegin
  2
Sensor-Betätigungsmodul
 70
     0
 10
0.0
 20
0.0
 30
0.0
  3
Sensor-Betätigungsmodul
  1

  0
LINE
  5
223
330
221
100
AcDbEntity
  8
0
100
AcDbLine
 10
-0.0000000000003411
 20
8.599999999999795
 30
0.0
 11
0.0
 21
2.5
 31
0.0
  0
LINE
  5
224
330
221
100
AcDbEntity
  8
0
100
AcDbLine
 10
-0.0000000000002274
 20
-20.49999999999994
 30
0.0
 11
-0.0000000000001137
 21
-67.5
 31
0.0
  0
LINE
  5
225
330
221
100
AcDbEntity
  8
03-01
100
AcDbLine
 10
2.79999999999984
 20
-65.39999999999986
 30
0.0
 11
2.79999999999984
 21
-102.7055531081737
 31
0.0
  0
LINE
  5
226
330
221
100
AcDbEntity
  8
0
100
AcDbLine
 10
-0.0000000000001137
 20
-90.5
 30
0.0
 11
-0.0000000000001137
 21
-96.39999999999993
 31
0.0
  0
LINE
  5
227
330
221
100
AcDbEntity
  8
03-01
100
AcDbLine
 10
-1.200000000000159
 20
-0.0000000000000568
 30
0.0
 11
-1.200000000000045
 21
-20.50000000000006
 31
0.0
  0
LINE
  5
228
330
221
100
AcDbEntity
  8
0
100
AcDbLine
 10
-3.300000000000068
 20
0.5
 30
0.0
 11
-3.300000000000068
 21
-20.50000000000006
 31
0.0
  0
ARC
  5
229
330
221
100
AcDbEntity
  8
0
100
AcDbCircle
 10
-1.300000000000068
 20
0.5
 30
0.0
 40
2.0
100
AcDbArc
 50
90.0
 51
180.0
  0
LINE
  5
22A
330
221
100
AcDbEntity
  8
0
100
AcDbLine
 10
42.99999999999989
 20
-27.2820219666524
 30
0.0
 11
42.99999999999977
 21
-45.0
 31
0.0
  0
LINE
  5
22B
330
221
100
AcDbEntity
  8
0
100
AcDbLine
 10
42.99999999999966
 20
-93.00000000000006
 30
0.0
 11
42.99999999999977
 21
-96.15658297858965
 31
0.0
  0
LINE
  5
22C
330
221
100
AcDbEntity
  8
0
100
AcDbLine
 10
49.99999999999977
 20
-45.0
 30
0.0
 11
49.99999999999989
 21
-93.00000000000006
 31
0.0
  0
LINE
  5
22D
330
221
100
AcDbEntity
  8
0
100
AcDbLine
 10
31.36940242224194
 20
-104.8999999999999
 30
0.0
 11
8.499999999999886
 21
-104.8999999999999
 31
0.0
  0
LINE
  5
22E
330
221
100
AcDbEntity
  8
0
100
AcDbLine
 10
24.17361915066488
 20
14.60000000000013
 30
0.0
 11
5.999999999999658
 21
14.60000000000008
 31
0.0
  0
LINE
  5
22F
330
221
100
AcDbEntity
  8
03-01
100
AcDbLine
 10
22.33680957533227
 20
11.60000000000019
 30
0.0
 11
7.836809575332267
 21
11.60000000000013
 31
0.0
  0
LINE
  5
230
330
221
100
AcDbEntity
  8
03-01
100
AcDbLine
 10
22.33680957533227
 20
3.100000000000136
 30
0.0
 11
7.836809575332267
 21
3.100000000000079
 31
0.0
  0
ARC
  5
231
330
221
100
AcDbEntity
  8
0
100
AcDbCircle
 10
5.999999999999658
 20
8.600000000000079
 30
0.0
 40
6.0
100
AcDbArc
 50
90.0
 51
180.0000000000032
  0
LINE
  5
232
330
221
100
AcDbEntity
  8
03-01
100
AcDbLine
 10
2.79999999999984
 20
-65.39999999999986
 30
0.0
 11
-0.0000000000001137
 21
-65.39999999999986
 31
0.0
  0
ARC
  5
233
330
221
100
AcDbEntity
  8
0
100
AcDbCircle
 10
8.499999999999886
 20
-96.39999999999993
 30
0.0
 40
8.5
100
AcDbArc
 50
180.0
 51
270.0
  0
LINE
  5
234
330
221
100
AcDbEntity
  8
0
100
AcDbLine
 10
25.00728896843054
 20
7.5
 30
0.0
 11
2.499999999999886
 21
7.5
 31
0.0
  0
ARC
  5
235
330
221
100
AcDbEntity
  8
0
100
AcDbCircle
 10
25.00728896843054
 20
-1.0
 30
0.0
 40
8.5
100
AcDbArc
 50
20.00000000000065
 51
90.0
  0
LINE
  5
236
330
221
100
AcDbEntity
  8
0
100
AcDbLine
 10
49.99999999999977
 20
-45.0
 30
0.0
 11
42.99999999999977
 21
-45.0
 31
0.0
  0
LINE
  5
237
330
221
100
AcDbEntity
  8
0
100
AcDbLine
 10
49.99999999999989
 20
-93.00000000000006
 30
0.0
 11
42.99999999999966
 21
-93.00000000000006
 31
0.0
  0
LINE
  5
238
330
221
100
AcDbEntity
  8
03-01
100
AcDbLine
 10
47.49999999999988
 20
-90.50000000000006
 30
0.0
 11
42.99999999999966
 21
-90.50000000000006
 31
0.0
  0
ARC
  5
239
330
221
100
AcDbEntity
  8
0
100
AcDbCircle
 10
2.499999999999886
 20
5.0
 30
0.0
 40
2.5
100
AcDbArc
 50
90.0
 51
180.0
  0
LINE
  5
23A
330
221
100
AcDbEntity
  8
0
100
AcDbLine
 10
-0.0000000000001137
 20
2.5
 30
0.0
 11
-1.300000000000068
 21
2.5
 31
0.0
  0
LINE
  5
23B
330
221
100
AcDbEntity
  8
03-01
100
AcDbLine
 10
-0.0000000000001137
 20
0.0
 30
0.0
 11
-1.200000000000159
 21
-0.0000000000000568
 31
0.0
  0
LINE
  5
23C
330
221
100
AcDbEntity
  8
0
100
AcDbLine
 10
-0.0000000000001137
 20
-20.5
 30
0.0
 11
-3.300000000000068
 21
-20.50000000000006
 31
0.0
  0
LINE
  5
23D
330
221
100
AcDbEntity
  8
0
100
AcDbLine
 10
-3.300000000000068
 20
-69.5
 30
0.0
 11
-3.300000000000068
 21
-90.50000000000006
 31
0.0
  0
ARC
  5
23E
330
221
100
AcDbEntity
  8
0
100
AcDbCircle
 10
-1.300000000000068
 20
-69.5
 30
0.0
 40
2.0
100
AcDbArc
 50
90.0
 51
180.0
  0
LINE
  5
23F
330
221
100
AcDbEntity
  8
0
100
AcDbLine
 10
-0.0000000000001137
 20
-67.5
 30
0.0
 11
-1.300000000000068
 21
-67.5
 31
0.0
  0
LINE
  5
240
330
221
100
AcDbEntity
  8
0
100
AcDbLine
 10
-0.0000000000001137
 20
-90.5
 30
0.0
 11
-3.300000000000068
 21
-90.50000000000006
 31
0.0
  0
LINE
  5
241
330
221
100
AcDbEntity
  8
03-01
100
AcDbLine
 10
-1.200000000000159
 20
-70.00000000000006
 30
0.0
 11
-1.200000000000045
 21
-90.50000000000006
 31
0.0
  0
LINE
  5
242
330
221
100
AcDbEntity
  8
03-01
100
AcDbLine
 10
-0.0000000000001137
 20
-70.0
 30
0.0
 11
-1.200000000000159
 21
-70.00000000000006
 31
0.0
  0
LINE
  5
243
330
221
100
AcDbEntity
  8
03-01
100
AcDbLine
 10
48.19999999999982
 20
-45.0
 30
0.0
 11
47.49999999999988
 21
-90.50000000000006
 31
0.0
  0
LINE
  5
244
330
221
100
AcDbEntity
  8
03-01
100
AcDbLine
 10
0.0
 20
2.5
 30
0.0
 11
-0.0000000000002274
 21
-20.49999999999994
 31
0.0
  0
LINE
  5
245
330
221
100
AcDbEntity
  8
03-01
100
AcDbLine
 10
-0.0000000000001137
 20
-67.5
 30
0.0
 11
-0.0000000000001137
 21
-90.5
 31
0.0
  0
LINE
  5
246
330
221
100
AcDbEntity
  8
03-01
100
AcDbLine
 10
42.99999999999977
 20
-45.0
 30
0.0
 11
42.99999999999977
 21
-93.00000000000006
 31
0.0
  0
ARC
  5
247
330
221
100
AcDbEntity
  8
0
100
AcDbCircle
 10
16.7755654402124
 20
-102.3
 30
0.0
 40
1.0
100
AcDbArc
 50
270.0
 51
305.9497089065583
  0
ARC
  5
248
330
221
100
AcDbEntity
  8
0
100
AcDbCircle
 10
40.5999999999999
 20
-85.02246509265711
 30
0.0
 40
1.000000000000005
100
AcDbArc
 50
305.9497089065583
 51
0.0
  0
LINE
  5
249
330
221
100
AcDbEntity
  8
0
100
AcDbLine
 10
8.899999999999863
 20
-103.3
 30
0.0
 11
16.7755654402124
 21
-103.3
 31
0.0
  0
ARC
  5
24A
330
221
100
AcDbEntity
  8
0
100
AcDbCircle
 10
8.899999999999863
 20
-95.80000000000001
 30
0.0
 40
7.500000000000014
100
AcDbArc
 50
180.0
 51
270.0
  0
LINE
  5
24B
330
221
100
AcDbEntity
  8
0
100
AcDbLine
 10
1.399999999999863
 20
3.900000000000034
 30
0.0
 11
1.399999999999863
 21
-95.80000000000001
 31
0.0
  0
ARC
  5
24C
330
221
100
AcDbEntity
  8
0
100
AcDbCircle
 10
3.399999999999863
 20
3.900000000000034
 30
0.0
 40
2.0
100
AcDbArc
 50
90.0
 51
180.0
  0
LINE
  5
24D
330
221
100
AcDbEntity
  8
0
100
AcDbLine
 10
24.79999999999995
 20
5.900000000000034
 30
0.0
 11
3.399999999999863
 21
5.900000000000034
 31
0.0
  0
ARC
  5
24E
330
221
100
AcDbEntity
  8
0
100
AcDbCircle
 10
24.79999999999995
 20
-1.599999999999965
 30
0.0
 40
7.500000000000028
100
AcDbArc
 50
20.00000000001707
 51
90.0
  0
LINE
  5
24F
330
221
100
AcDbEntity
  8
0
100
AcDbLine
 10
41.1030671952758
 20
-24.46377598564897
 30
0.0
 11
31.8476946558942
 21
0.9651510749426392
 31
0.0
  0
LINE
  5
250
330
221
100
AcDbEntity
  8
0
100
AcDbLine
 10
42.41863686437603
 20
-23.98494778499304
 30
0.0
 11
29.81177487538037
 21
10.65212085995415
 31
0.0
  0
ARC
  5
251
330
221
100
AcDbEntity
  8
0
100
AcDbCircle
 10
24.17361915066488
 20
8.600000000000136
 30
0.0
 40
6.0
100
AcDbArc
 50
20.00000000000065
 51
90.0
  0
ARC
  5
252
330
221
100
AcDbEntity
  8
0
100
AcDbCircle
 10
33.3599999999999
 20
-27.2820219666524
 30
0.0
 40
8.23999999999998
100
AcDbArc
 50
0.0
 51
20.00000000001707
  0
ARC
  5
253
330
221
100
AcDbEntity
  8
0
100
AcDbCircle
 10
33.3599999999999
 20
-27.2820219666524
 30
0.0
 40
9.639999999999981
100
AcDbArc
 50
0.0
 51
20.00000000001707
  0
LINE
  5
254
330
221
100
AcDbEntity
  8
0
100
AcDbLine
 10
41.59999999999991
 20
-85.02246509265711
 30
0.0
 11
41.59999999999991
 21
-27.2820219666524
 31
0.0
  0
LINE
  5
255
330
221
100
AcDbEntity
  8
0
100
AcDbLine
 10
17.36264035541512
 20
-103.1095326083237
 30
0.0
 11
41.18707491520285
 21
-85.83199770098081
 31
0.0
  0
CIRCLE
  5
256
330
221
100
AcDbEntity
  8
0
100
AcDbCircle
 10
21.51766465965579
 20
-13.60883232982866
 30
0.0
 40
1.75
  0
CIRCLE
  5
257
330
221
100
AcDbEntity
  8
0
100
AcDbCircle
 10
21.51766465965488
 20
-83.60883232982866
 30
0.0
 40
1.75
  0
LINE
  5
258
330
221
100
AcDbEntity
  8
05-01
  6
Continuous
100
AcDbLine
 10
21.51766465965579
 20
-16.35883232982866
 30
0.0
 11
21.51766465965579
 21
-10.85883232982866
 31
0.0
  0
LINE
  5
259
330
221
100
AcDbEntity
  8
05-01
  6
Continuous
100
AcDbLine
 10
18.76766465965579
 20
-13.60883232982866
 30
0.0
 11
24.2676646596558
 21
-13.60883232982866
 31
0.0
  0
LINE
  5
25A
330
221
100
AcDbEntity
  8
05-01
  6
Continuous
100
AcDbLine
 10
21.51766465965488
 20
-86.35883232982866
 30
0.0
 11
21.51766465965488
 21
-80.85883232982865
 31
0.0
  0
LINE
  5
25B
330
221
100
AcDbEntity
  8
05-01
  6
Continuous
100
AcDbLine
 10
18.76766465965488
 20
-83.60883232982866
 30
0.0
 11
24.26766465965489
 21
-83.60883232982866
 31
0.0
  0
ARC
  5
25C
330
221
100
AcDbEntity
  8
03-01
100
AcDbCircle
 10
7.836809575332267
 20
7.350000000000136
 30
0.0
 40
4.25
100
AcDbArc
 50
90.0
 51
270.0
  0
ARC
  5
25D
330
221
100
AcDbEntity
  8
03-01
100
AcDbCircle
 10
22.33680957533227
 20
7.350000000000136
 30
0.0
 40
4.25
100
AcDbArc
 50
270.0
 51
90.0
  0
LINE
  5
25E
330
221
100
AcDbEntity
  8
0
100
AcDbLine
 10
34.62971126714365
 20
-107.2924552718343
 30
0.0
 11
45.93049885575431
 21
-105.2998058666647
 31
0.0
  0
ARC
  5
25F
330
221
100
AcDbEntity
  8
0
100
AcDbCircle
 10
34.57761641703382
 20
-106.9970130158991
 30
0.0
 40
0.3
100
AcDbArc
 50
215.0
 51
280.0000769541884
  0
LWPOLYLINE
  5
260
330
221
100
AcDbEntity
  8
0
100
AcDbPolyline
 90
        9
 70
     0
 43
0.0
 10
43.52176514692359
 20
-105.7245339446396
 10
43.81734085507446
 20
-105.672439485106
 10
44.10155442781501
 20
-105.6223119788498
 10
44.36348703928047
 20
-105.5761183791489
 10
44.59306550450378
 20
-105.5356468253465
 10
44.78147951192909
 20
-105.5024172358842
 10
44.92147964663558
 20
-105.4777409129471
 10
45.00769404001289
 20
-105.4625417285294
 10
45.03680345840507
 20
-105.4574157290788
  0
LINE
  5
261
330
221
100
AcDbEntity
  8
0
100
AcDbLine
 10
32.51655529494406
 20
-104.5383040885779
 30
0.0
 11
42.14715287270189
 21
-97.79488706716769
 31
0.0
  0
ARC
  5
262
330
221
100
AcDbEntity
  8
0
100
AcDbCircle
 10
40.99999999999977
 20
-96.15658297858971
 30
0.0
 40
2.0
100
AcDbArc
 50
304.9999999999974
 51
0.0
  0
ARC
  5
263
330
221
100
AcDbEntity
  8
0
100
AcDbCircle
 10
31.36940242224194
 20
-102.8999999999999
 30
0.0
 40
2.0
100
AcDbArc
 50
270.0
 51
304.9999999999974
  0
LINE
  5
264
330
221
100
AcDbEntity
  8
0
100
AcDbLine
 10
32.49851813927865
 20
-104.5507869933884
 30
0.0
 11
34.33187080374717
 21
-107.1690859468044
 31
0.0
  0
LINE
  5
265
330
221
100
AcDbEntity
  8
0
100
AcDbLine
 10
41.50925962223914
 20
-98.2415447297147
 30
0.0
 11
46.12414961893114
 21
-104.8322906798243
 31
0.0
  0
ARC
  5
266
330
221
100
AcDbEntity
  8
0
100
AcDbCircle
 10
45.87840400564448
 20
-105.0043636107296
 30
0.0
 40
0.3
100
AcDbArc
 50
280.0000769541884
 51
35.00000000000003
  0
ENDBLK
  5
267
330
221
100
AcDbEntity
  8
0
100
AcDbBlockEnd
  0
BLOCK
  5
26C
330
269
100
AcDbEntity
  8
0
100
AcDbBlockBegin
  2
e-modul vorderansicht
 70
     0
 10
0.0
 20
0.0
 30
0.0
  3
e-modul vorderansicht
  1

  0
LINE
  5
26D
330
269
100
AcDbEntity
  8
05-01
100
AcDbLine
 10
149.7474353286316
 20
-181.0605591484591
 30
0.0
 11
149.7474353286316
 21
-220.5605591484601
 31
0.0
  0
LINE
  5
26E
330
269
100
AcDbEntity
  8
05-01
100
AcDbLine
 10
138.747435328632
 20
-181.0605591484591
 30
0.0
 11
138.7474353286311
 21
-220.5605591484601
 31
0.0
  0
LINE
  5
26F
330
269
100
AcDbEntity
  8
05-01
100
AcDbLine
 10
184.7474353286311
 20
-101.06055914846
 30
0.0
 11
184.7474353286311
 21
-220.5605591484601
 31
0.0
  0
LINE
  5
270
330
269
100
AcDbEntity
  8
05-01
100
AcDbLine
 10
109.2474353286316
 20
-108.5605591484601
 30
0.0
 11
109.2474353286316
 21
-220.5605591484601
 31
0.0
  0
LINE
  5
271
330
269
100
AcDbEntity
  8
05-01
100
AcDbLine
 10
109.2474353286316
 20
-183.5605591484601
 30
0.0
 11
109.2474353286316
 21
-206.56055914846
 31
0.0
  0
LINE
  5
272
330
269
100
AcDbEntity
  8
05-01
100
AcDbLine
 10
114.8474353286315
 20
-183.5605591484601
 30
0.0
 11
114.8474353286315
 21
-206.56055914846
 31
0.0
  0
LINE
  5
273
330
269
100
AcDbEntity
  8
05-01
100
AcDbLine
 10
112.3474353286315
 20
-186.0605591484601
 30
0.0
 11
112.3474353286315
 21
-206.56055914846
 31
0.0
  0
LINE
  5
274
330
269
100
AcDbEntity
  8
05-01
100
AcDbLine
 10
109.2474353286316
 20
-220.5605591484601
 30
0.0
 11
184.7474353286311
 21
-220.5605591484601
 31
0.0
  0
LINE
  5
275
330
269
100
AcDbEntity
  8
05-01
100
AcDbLine
 10
138.747435328632
 20
-181.0605591484591
 30
0.0
 11
149.7474353286316
 21
-181.0605591484591
 31
0.0
  0
LINE
  5
276
330
269
100
AcDbEntity
  8
05-01
100
AcDbLine
 10
109.2474353286316
 20
-108.5605591484601
 30
0.0
 11
184.7474353286311
 21
-108.5605591484601
 31
0.0
  0
LINE
  5
277
330
269
100
AcDbEntity
  8
05-01
100
AcDbLine
 10
109.2474353286316
 20
-206.56055914846
 30
0.0
 11
114.8474353286315
 21
-206.56055914846
 31
0.0
  0
LINE
  5
278
330
269
100
AcDbEntity
  8
05-01
100
AcDbLine
 10
109.2474353286316
 20
-183.5605591484601
 30
0.0
 11
114.8474353286315
 21
-183.5605591484601
 31
0.0
  0
LINE
  5
279
330
269
100
AcDbEntity
  8
05-01
100
AcDbLine
 10
161.8474353286315
 20
-183.5605591484601
 30
0.0
 11
161.8474353286315
 21
-206.56055914846
 31
0.0
  0
LINE
  5
27A
330
269
100
AcDbEntity
  8
05-01
100
AcDbLine
 10
164.3474353286315
 20
-186.0605591484601
 30
0.0
 11
164.3474353286315
 21
-206.56055914846
 31
0.0
  0
LINE
  5
27B
330
269
100
AcDbEntity
  8
05-01
100
AcDbLine
 10
166.8474353286315
 20
-206.56055914846
 30
0.0
 11
161.8474353286315
 21
-206.56055914846
 31
0.0
  0
LINE
  5
27C
330
269
100
AcDbEntity
  8
05-01
100
AcDbLine
 10
164.3474353286315
 20
-186.0605591484601
 30
0.0
 11
161.8474353286315
 21
-186.0605591484601
 31
0.0
  0
LINE
  5
27D
330
269
100
AcDbEntity
  8
05-01
100
AcDbLine
 10
166.8474353286315
 20
-183.5605591484601
 30
0.0
 11
161.8474353286315
 21
-183.5605591484601
 31
0.0
  0
LINE
  5
27E
330
269
100
AcDbEntity
  8
05-01
100
AcDbLine
 10
109.2474353286316
 20
-113.5605591484601
 30
0.0
 11
109.2474353286316
 21
-136.5605591484601
 31
0.0
  0
LINE
  5
27F
330
269
100
AcDbEntity
  8
05-01
100
AcDbLine
 10
114.8474353286315
 20
-113.5605591484601
 30
0.0
 11
114.8474353286315
 21
-136.5605591484601
 31
0.0
  0
LINE
  5
280
330
269
100
AcDbEntity
  8
05-01
100
AcDbLine
 10
112.3474353286315
 20
-116.06055914846
 30
0.0
 11
112.3474353286315
 21
-136.5605591484601
 31
0.0
  0
LINE
  5
281
330
269
100
AcDbEntity
  8
05-01
100
AcDbLine
 10
109.2474353286316
 20
-136.5605591484601
 30
0.0
 11
114.8474353286315
 21
-136.5605591484601
 31
0.0
  0
LINE
  5
282
330
269
100
AcDbEntity
  8
05-01
100
AcDbLine
 10
112.3474353286315
 20
-116.06055914846
 30
0.0
 11
114.8474353286315
 21
-116.06055914846
 31
0.0
  0
LINE
  5
283
330
269
100
AcDbEntity
  8
05-01
100
AcDbLine
 10
109.2474353286316
 20
-113.5605591484601
 30
0.0
 11
114.8474353286315
 21
-113.5605591484601
 31
0.0
  0
LINE
  5
284
330
269
100
AcDbEntity
  8
05-01
100
AcDbLine
 10
166.8474353286315
 20
-108.5605591484601
 30
0.0
 11
166.8474353286315
 21
-220.5605591484601
 31
0.0
  0
LINE
  5
285
330
269
100
AcDbEntity
  8
05-01
100
AcDbLine
 10
161.8474353286315
 20
-113.5605591484601
 30
0.0
 11
161.8474353286315
 21
-136.5605591484601
 31
0.0
  0
LINE
  5
286
330
269
100
AcDbEntity
  8
05-01
100
AcDbLine
 10
164.3474353286315
 20
-116.06055914846
 30
0.0
 11
164.3474353286315
 21
-136.5605591484601
 31
0.0
  0
LINE
  5
287
330
269
100
AcDbEntity
  8
05-01
100
AcDbLine
 10
166.8474353286315
 20
-136.5605591484601
 30
0.0
 11
161.8474353286315
 21
-136.5605591484601
 31
0.0
  0
LINE
  5
288
330
269
100
AcDbEntity
  8
05-01
100
AcDbLine
 10
164.3474353286315
 20
-116.06055914846
 30
0.0
 11
161.8474353286315
 21
-116.06055914846
 31
0.0
  0
LINE
  5
289
330
269
100
AcDbEntity
  8
05-01
100
AcDbLine
 10
166.8474353286315
 20
-113.5605591484601
 30
0.0
 11
161.8474353286315
 21
-113.5605591484601
 31
0.0
  0
LINE
  5
28A
330
269
100
AcDbEntity
  8
05-01
100
AcDbLine
 10
184.7474353286311
 20
-101.06055914846
 30
0.0
 11
181.7474353286311
 21
-101.06055914846
 31
0.0
  0
LINE
  5
28B
330
269
100
AcDbEntity
  8
05-01
100
AcDbLine
 10
181.7474353286311
 20
-101.06055914846
 30
0.0
 11
181.7474353286311
 21
-108.5605591484601
 31
0.0
  0
ENDBLK
  5
28C
330
269
100
AcDbEntity
  8
0
100
AcDbBlockEnd
  0
BLOCK
  5
2AE
330
2AB
100
AcDbEntity
  8
0
100
AcDbBlockBegin
  2
pumpe vorderansicht
 70
     0
 10
0.0
 20
0.0
 30
0.0
  3
pumpe vorderansicht
  1

  0
LINE
  5
2AF
330
2AB
100
AcDbEntity
  8
05-01
100
AcDbLine
 10
-3.000082349783497
 20
-66.04251900086069
 30
0.0
 11
-2.150322809892259
 21
-68.54247177239085
 31
0.0
  0
LINE
  5
2B0
330
2AB
100
AcDbEntity
  8
05-01
100
AcDbLine
 10
-2.150322809892259
 20
-68.54247177239085
 30
0.0
 11
-1.513236057261792
 21
-70.99149557392639
 31
0.0
  0
LINE
  5
2B1
330
2AB
100
AcDbEntity
  8
05-01
100
AcDbLine
 10
-1.513236057261792
 20
-70.99149557392639
 30
0.0
 11
1.51323605726202
 21
-70.99149557392639
 31
0.0
  0
LINE
  5
2B2
330
2AB
100
AcDbEntity
  8
05-01
100
AcDbLine
 10
1.51323605726202
 20
-70.99149557392639
 30
0.0
 11
2.150150143953396
 21
-68.5422826609622
 31
0.0
  0
LINE
  5
2B3
330
2AB
100
AcDbEntity
  8
05-01
100
AcDbLine
 10
2.150150143953396
 20
-68.5422826609622
 30
0.0
 11
2.99969753357027
 21
-66.04225008209573
 31
0.0
  0
LINE
  5
2B4
330
2AB
100
AcDbEntity
  8
05-01
100
AcDbLine
 10
-30.0
 20
-66.00000000000022
 30
0.0
 11
-30.0
 21
-14.00000000000023
 31
0.0
  0
LINE
  5
2B5
330
2AB
100
AcDbEntity
  8
05-01
100
AcDbLine
 10
30.0
 20
-14.00000000000028
 30
0.0
 11
30.0
 21
-66.00000000000022
 31
0.0
  0
LINE
  5
2B6
330
2AB
100
AcDbEntity
  8
05-01
100
AcDbLine
 10
30.0
 20
-66.00000000000022
 30
0.0
 11
-30.0
 21
-66.00000000000022
 31
0.0
  0
LINE
  5
2B7
330
2AB
100
AcDbEntity
  8
03-01
100
AcDbLine
 10
30.0
 20
-16.00000000000028
 30
0.0
 11
-30.0
 21
-16.00000000000051
 31
0.0
  0
LINE
  5
2B8
330
2AB
100
AcDbEntity
  8
03-01
100
AcDbLine
 10
12.5
 20
-22.50949992656217
 30
0.0
 11
10.0
 21
-22.50949992656217
 31
0.0
  0
ARC
  5
2B9
330
2AB
100
AcDbEntity
  8
03-01
100
AcDbCircle
 10
12.5
 20
-23.00949992656217
 30
0.0
 40
0.5
100
AcDbArc
 50
0.0
 51
90.0
  0
LINE
  5
2BA
330
2AB
100
AcDbEntity
  8
03-01
100
AcDbLine
 10
13.0
 20
-58.40949992656215
 30
0.0
 11
17.0
 21
-58.40949992656215
 31
0.0
  0
LINE
  5
2BB
330
2AB
100
AcDbEntity
  8
03-01
100
AcDbLine
 10
17.0
 20
-53.6094999265622
 30
0.0
 11
13.0
 21
-53.6094999265622
 31
0.0
  0
ARC
  5
2BC
330
2AB
100
AcDbEntity
  8
03-01
100
AcDbCircle
 10
17.0
 20
-56.00949992656217
 30
0.0
 40
2.400000000000028
100
AcDbArc
 50
270.0
 51
90.0
  0
LINE
  5
2BD
330
2AB
100
AcDbEntity
  8
03-01
100
AcDbLine
 10
13.0
 20
-28.40949992656215
 30
0.0
 11
17.0
 21
-28.40949992656215
 31
0.0
  0
LINE
  5
2BE
330
2AB
100
AcDbEntity
  8
03-01
100
AcDbLine
 10
17.0
 20
-24.6094999265622
 30
0.0
 11
13.0
 21
-24.6094999265622
 31
0.0
  0
ARC
  5
2BF
330
2AB
100
AcDbEntity
  8
03-01
100
AcDbCircle
 10
17.0
 20
-26.50949992656217
 30
0.0
 40
1.900000000000028
100
AcDbArc
 50
270.0
 51
90.0
  0
LINE
  5
2C0
330
2AB
100
AcDbEntity
  8
03-01
100
AcDbLine
 10
10.0
 20
-22.50949992656217
 30
0.0
 11
10.0
 21
-51.20949992656216
 31
0.0
  0
LINE
  5
2C1
330
2AB
100
AcDbEntity
  8
03-01
100
AcDbLine
 10
13.0
 20
-23.00949992656217
 30
0.0
 11
13.0
 21
-58.40949992656215
 31
0.0
  0
ARC
  5
2C2
330
2AB
100
AcDbEntity
  8
03-01
100
AcDbCircle
 10
-9.0
 20
-51.20949992656216
 30
0.0
 40
1.0
100
AcDbArc
 50
180.0
 51
270.0
  0
LINE
  5
2C3
330
2AB
100
AcDbEntity
  8
03-01
100
AcDbLine
 10
9.0
 20
-52.20949992656215
 30
0.0
 11
-9.0
 21
-52.20949992656215
 31
0.0
  0
ARC
  5
2C4
330
2AB
100
AcDbEntity
  8
03-01
100
AcDbCircle
 10
9.0
 20
-51.20949992656216
 30
0.0
 40
1.0
100
AcDbArc
 50
270.0
 51
0.0
  0
LINE
  5
2C5
330
2AB
100
AcDbEntity
  8
03-01
100
AcDbLine
 10
-12.5
 20
-22.50949992656217
 30
0.0
 11
-10.00000000000023
 21
-22.50949992656217
 31
0.0
  0
ARC
  5
2C6
330
2AB
100
AcDbEntity
  8
03-01
100
AcDbCircle
 10
-12.5
 20
-23.00949992656217
 30
0.0
 40
0.5
100
AcDbArc
 50
90.0
 51
180.0
  0
LINE
  5
2C7
330
2AB
100
AcDbEntity
  8
03-01
100
AcDbLine
 10
-13.0
 20
-58.40949992656215
 30
0.0
 11
-17.0
 21
-58.40949992656215
 31
0.0
  0
LINE
  5
2C8
330
2AB
100
AcDbEntity
  8
03-01
100
AcDbLine
 10
-17.0
 20
-53.6094999265622
 30
0.0
 11
-13.0
 21
-53.6094999265622
 31
0.0
  0
ARC
  5
2C9
330
2AB
100
AcDbEntity
  8
03-01
100
AcDbCircle
 10
-17.0
 20
-56.00949992656217
 30
0.0
 40
2.400000000000028
100
AcDbArc
 50
90.0
 51
270.0
  0
LINE
  5
2CA
330
2AB
100
AcDbEntity
  8
03-01
100
AcDbLine
 10
-13.0
 20
-28.40949992656215
 30
0.0
 11
-17.0
 21
-28.40949992656215
 31
0.0
  0
LINE
  5
2CB
330
2AB
100
AcDbEntity
  8
03-01
100
AcDbLine
 10
-17.0
 20
-24.6094999265622
 30
0.0
 11
-13.0
 21
-24.6094999265622
 31
0.0
  0
ARC
  5
2CC
330
2AB
100
AcDbEntity
  8
03-01
100
AcDbCircle
 10
-17.0
 20
-26.50949992656217
 30
0.0
 40
1.900000000000028
100
AcDbArc
 50
90.0
 51
270.0
  0
LINE
  5
2CD
330
2AB
100
AcDbEntity
  8
03-01
100
AcDbLine
 10
-10.00000000000023
 20
-22.50949992656217
 30
0.0
 11
-10.00000000000023
 21
-51.20949992656216
 31
0.0
  0
LINE
  5
2CE
330
2AB
100
AcDbEntity
  8
03-01
100
AcDbLine
 10
-13.00000000000045
 20
-23.00949992656217
 30
0.0
 11
-13.0
 21
-58.40949992656215
 31
0.0
  0
LINE
  5
2CF
330
2AB
100
AcDbEntity
  8
03-01
100
AcDbLine
 10
-13.0
 20
-58.40949992656215
 30
0.0
 11
-13.0
 21
-65.20949992656216
 31
0.0
  0
LINE
  5
2D0
330
2AB
100
AcDbEntity
  8
03-01
100
AcDbLine
 10
-10.00000000000023
 20
-51.20949992656216
 30
0.0
 11
-10.00000000000001
 21
-65.20949992656216
 31
0.0
  0
LINE
  5
2D1
330
2AB
100
AcDbEntity
  8
03-01
100
AcDbLine
 10
10.0
 20
-51.20949992656216
 30
0.0
 11
10.0
 21
-65.20949992656216
 31
0.0
  0
LINE
  5
2D2
330
2AB
100
AcDbEntity
  8
03-01
100
AcDbLine
 10
13.0
 20
-58.40949992656215
 30
0.0
 11
13.0
 21
-65.20949992656216
 31
0.0
  0
LINE
  5
2D3
330
2AB
100
AcDbEntity
  8
05-01
100
AcDbLine
 10
30.0
 20
-14.00000000000028
 30
0.0
 11
-30.0
 21
-14.00000000000023
 31
0.0
  0
LINE
  5
2D4
330
2AB
100
AcDbEntity
  8
05-01
100
AcDbLine
 10
13.90000000000009
 20
-14.00000000000028
 30
0.0
 11
13.90000000000009
 21
-9.500000000000284
 31
0.0
  0
LINE
  5
2D5
330
2AB
100
AcDbEntity
  8
05-01
100
AcDbLine
 10
-13.90000000000009
 20
-14.00000000000028
 30
0.0
 11
-13.90000000000009
 21
-9.500000000000284
 31
0.0
  0
LINE
  5
2D6
330
2AB
100
AcDbEntity
  8
05-01
100
AcDbLine
 10
-7.5
 20
-9.500000000000284
 30
0.0
 11
-7.5
 21
-5.500000000000284
 31
0.0
  0
LINE
  5
2D7
330
2AB
100
AcDbEntity
  8
05-01
100
AcDbLine
 10
7.5
 20
-0.0000000000002842
 30
0.0
 11
7.5
 21
-9.500000000000284
 31
0.0
  0
LINE
  5
2D8
330
2AB
100
AcDbEntity
  8
05-01
100
AcDbLine
 10
-13.90000000000009
 20
-9.500000000000284
 30
0.0
 11
13.90000000000009
 21
-9.500000000000284
 31
0.0
  0
LINE
  5
2D9
330
2AB
100
AcDbEntity
  8
03-01
100
AcDbLine
 10
-7.5
 20
-5.500000000000284
 30
0.0
 11
7.5
 21
-5.500000000000284
 31
0.0
  0
LINE
  5
2DA
330
2AB
100
AcDbEntity
  8
05-01
100
AcDbLine
 10
7.5
 20
-0.0000000000002842
 30
0.0
 11
-7.5
 21
0.0000000000002842
 31
0.0
  0
LINE
  5
2DB
330
2AB
100
AcDbEntity
  8
05-01
100
AcDbLine
 10
-7.5
 20
0.0000000000002842
 30
0.0
 11
-7.5
 21
-5.500000000000284
 31
0.0
  0
LINE
  5
2DC
330
2AB
100
AcDbEntity
  8
03-01
100
AcDbLine
 10
13.0
 20
-65.20949992656216
 30
0.0
 11
-13.0
 21
-65.20949992656216
 31
0.0
  0
ENDBLK
  5
2DD
330
2AB
100
AcDbEntity
  8
0
100
AcDbBlockEnd
  0
BLOCK
  5
1E5
330
1E4
100
AcDbEntity
  8
0
100
AcDbBlockBegin
  2
*D7
 70
     1
 10
0.0
 20
0.0
 30
0.0
  3
*D7
  1

  0
LINE
  5
1E6
330
1E4
100
AcDbEntity
  8
09-01
 62
     4
440
 16777216
370
    -2
100
AcDbLine
 10
-1201.041989141193
 20
382.5586961970543
 30
0.0
 11
-1201.041989141193
 21
343.4864629007375
 31
0.0
  0
LINE
  5
1E7
330
1E4
100
AcDbEntity
  8
09-01
 62
     4
440
 16777216
370
    -2
100
AcDbLine
 10
-903.0419891411934
 20
382.5586961970543
 30
0.0
 11
-903.0419891411934
 21
343.4864629007375
 31
0.0
  0
LINE
  5
1E8
330
1E4
100
AcDbEntity
  8
09-01
 62
     4
440
 16777216
370
    -2
100
AcDbLine
 10
-1188.541989141193
 20
348.4864629007375
 30
0.0
 11
-915.5419891411934
 21
348.4864629007375
 31
0.0
  0
SOLID
  5
1E9
330
1E4
100
AcDbEntity
  8
09-01
 62
     4
440
 16777216
100
AcDbTrace
 10
-1188.541989141193
 20
350.5697962340708
 30
0.0
 11
-1188.541989141193
 21
346.4031295674041
 31
0.0
 12
-1201.041989141193
 22
348.4864629007375
 32
0.0
 13
-1201.041989141193
 23
348.4864629007375
 33
0.0
  0
SOLID
  5
1EA
330
1E4
100
AcDbEntity
  8
09-01
 62
     4
440
 16777216
100
AcDbTrace
 10
-915.5419891411934
 20
350.5697962340708
 30
0.0
 11
-915.5419891411934
 21
346.4031295674041
 31
0.0
 12
-903.0419891411934
 22
348.4864629007375
 32
0.0
 13
-903.0419891411934
 23
348.4864629007375
 33
0.0
  0
MTEXT
  5
1EB
330
1E4
100
AcDbEntity
  8
09-01
 62
     1
440
 16777216
100
AcDbMText
 10
-1052.041989141193
 20
359.8686252472587
 30
0.0
 40
12.5
 41
0.0
 46
0.0
 71
     5
 72
     1
  1
298
 73
     1
 44
1.0
  0
POINT
  5
1EC
330
1E4
100
AcDbEntity
  8
DEFPOINTS
 62
     0
440
 16777216
100
AcDbPoint
 10
-1201.041989141193
 20
387.5586961970544
 30
0.0
  0
POINT
  5
1ED
330
1E4
100
AcDbEntity
  8
DEFPOINTS
 62
     0
440
 16777216
100
AcDbPoint
 10
-903.0419891411934
 20
387.5586961970544
 30
0.0
  0
POINT
  5
1EE
330
1E4
100
AcDbEntity
  8
DEFPOINTS
 62
     0
440
 16777216
100
AcDbPoint
 10
-903.0419891411934
 20
348.4864629007375
 30
0.0
  0
ENDBLK
  5
1EF
330
1E4
100
AcDbEntity
  8
0
100
AcDbBlockEnd
  0
BLOCK
  5
39C
330
39B
100
AcDbEntity
  8
0
100
AcDbBlockBegin
  2
*D8
 70
     1
 10
0.0
 20
0.0
 30
0.0
  3
*D8
  1

  0
LINE
  5
39D
330
39B
100
AcDbEntity
  8
09-01
 62
     4
440
 16777216
370
    -2
100
AcDbLine
 10
-1201.041989141193
 20
908.5573699028582
 30
0.0
 11
-1201.041989141193
 21
954.004370357094
 31
0.0
  0
LINE
  5
39E
330
39B
100
AcDbEntity
  8
09-01
 62
     4
440
 16777216
370
    -2
100
AcDbLine
 10
-903.0419891411934
 20
908.5573699028586
 30
0.0
 11
-903.0419891411934
 21
954.004370357094
 31
0.0
  0
LINE
  5
39F
330
39B
100
AcDbEntity
  8
09-01
 62
     4
440
 16777216
370
    -2
100
AcDbLine
 10
-1188.541989141193
 20
949.0043703570941
 30
0.0
 11
-915.5419891411934
 21
949.0043703570941
 31
0.0
  0
SOLID
  5
3A0
330
39B
100
AcDbEntity
  8
09-01
 62
     4
440
 16777216
100
AcDbTrace
 10
-1188.541989141193
 20
951.0877036904274
 30
0.0
 11
-1188.541989141193
 21
946.9210370237608
 31
0.0
 12
-1201.041989141193
 22
949.0043703570941
 32
0.0
 13
-1201.041989141193
 23
949.0043703570941
 33
0.0
  0
SOLID
  5
3A1
330
39B
100
AcDbEntity
  8
09-01
 62
     4
440
 16777216
100
AcDbTrace
 10
-915.5419891411934
 20
951.0877036904274
 30
0.0
 11
-915.5419891411934
 21
946.9210370237608
 31
0.0
 12
-903.0419891411934
 22
949.0043703570941
 32
0.0
 13
-903.0419891411934
 23
949.0043703570941
 33
0.0
  0
MTEXT
  5
3A2
330
39B
100
AcDbEntity
  8
09-01
 62
     1
440
 16777216
100
AcDbMText
 10
-1052.041989141193
 20
960.3865327036151
 30
0.0
 40
12.5
 41
0.0
 46
0.0
 71
     5
 72
     1
  1
298
 73
     1
 44
1.0
  0
POINT
  5
3A3
330
39B
100
AcDbEntity
  8
DEFPOINTS
 62
     0
440
 16777216
100
AcDbPoint
 10
-1201.041989141193
 20
903.5573699028581
 30
0.0
  0
POINT
  5
3A4
330
39B
100
AcDbEntity
  8
DEFPOINTS
 62
     0
440
 16777216
100
AcDbPoint
 10
-903.0419891411934
 20
903.5573699028587
 30
0.0
  0
POINT
  5
3A5
330
39B
100
AcDbEntity
  8
DEFPOINTS
 62
     0
440
 16777216
100
AcDbPoint
 10
-903.0419891411934
 20
949.0043703570941
 30
0.0
  0
ENDBLK
  5
3A6
330
39B
100
AcDbEntity
  8
0
100
AcDbBlockEnd
  0
BLOCK
  5
382
330
381
100
AcDbEntity
  8
0
100
AcDbBlockBegin
  2
*D9
 70
     1
 10
0.0
 20
0.0
 30
0.0
  3
*D9
  1

  0
LINE
  5
383
330
381
100
AcDbEntity
  8
09-01
 62
     4
440
 16777216
370
    -2
100
AcDbLine
 10
-1206.041989141193
 20
903.5573699028581
 30
0.0
 11
-1257.007988143957
 21
903.5573699028581
 31
0.0
  0
LINE
  5
384
330
381
100
AcDbEntity
  8
09-01
 62
     4
440
 16777216
370
    -2
100
AcDbLine
 10
-1206.041989141193
 20
605.5573699028591
 30
0.0
 11
-1257.007988143957
 21
605.5573699028591
 31
0.0
  0
LINE
  5
385
330
381
100
AcDbEntity
  8
09-01
 62
     4
440
 16777216
370
    -2
100
AcDbLine
 10
-1252.007988143957
 20
891.0573699028581
 30
0.0
 11
-1252.007988143957
 21
618.0573699028591
 31
0.0
  0
SOLID
  5
386
330
381
100
AcDbEntity
  8
09-01
 62
     4
440
 16777216
100
AcDbTrace
 10
-1254.09132147729
 20
891.0573699028581
 30
0.0
 11
-1249.924654810623
 21
891.0573699028581
 31
0.0
 12
-1252.007988143957
 22
903.5573699028581
 32
0.0
 13
-1252.007988143957
 23
903.5573699028581
 33
0.0
  0
SOLID
  5
387
330
381
100
AcDbEntity
  8
09-01
 62
     4
440
 16777216
100
AcDbTrace
 10
-1254.09132147729
 20
618.0573699028591
 30
0.0
 11
-1249.924654810623
 21
618.0573699028591
 31
0.0
 12
-1252.007988143957
 22
605.5573699028591
 32
0.0
 13
-1252.007988143957
 23
605.5573699028591
 33
0.0
  0
MTEXT
  5
388
330
381
100
AcDbEntity
  8
09-01
 62
     1
440
 16777216
100
AcDbMText
 10
-1263.390150490478
 20
754.5573699028586
 30
0.0
 40
12.5
 41
0.0
 46
0.0
 71
     5
 72
     1
  1
298
 11
0.0000000000000001
 21
1.0
 31
0.0
 73
     1
 44
1.0
  0
POINT
  5
389
330
381
100
AcDbEntity
  8
DEFPOINTS
 62
     0
440
 16777216
100
AcDbPoint
 10
-1201.041989141193
 20
903.5573699028581
 30
0.0
  0
POINT
  5
38A
330
381
100
AcDbEntity
  8
DEFPOINTS
 62
     0
440
 16777216
100
AcDbPoint
 10
-1201.041989141193
 20
605.5573699028591
 30
0.0
  0
POINT
  5
38B
330
381
100
AcDbEntity
  8
DEFPOINTS
 62
     0
440
 16777216
100
AcDbPoint
 10
-1252.007988143957
 20
605.5573699028591
 30
0.0
  0
ENDBLK
  5
38C
330
381
100
AcDbEntity
  8
0
100
AcDbBlockEnd
  0
BLOCK
  5
1D4
330
1D3
100
AcDbEntity
  8
0
100
AcDbBlockBegin
  2
*D10
 70
     1
 10
0.0
 20
0.0
 30
0.0
  3
*D10
  1

  0
LINE
  5
1D5
330
1D3
100
AcDbEntity
  8
09-01
 62
     4
440
 16777216
370
    -2
100
AcDbLine
 10
-680.7301040177922
 20
600.5573699028587
 30
0.0
 11
-680.7301040177922
 21
575.1254728416047
 31
0.0
  0
LINE
  5
1D6
330
1D3
100
AcDbEntity
  8
09-01
 62
     4
440
 16777216
370
    -2
100
AcDbLine
 10
-717.7301040177922
 20
600.5573699028587
 30
0.0
 11
-717.7301040177922
 21
575.1254728416047
 31
0.0
  0
LINE
  5
1D7
330
1D3
100
AcDbEntity
  8
09-01
 62
     4
440
 16777216
370
    -2
100
AcDbLine
 10
-693.2301040177922
 20
580.1254728416047
 30
0.0
 11
-705.2301040177922
 21
580.1254728416047
 31
0.0
  0
SOLID
  5
1D8
330
1D3
100
AcDbEntity
  8
09-01
 62
     4
440
 16777216
100
AcDbTrace
 10
-693.2301040177922
 20
582.2088061749381
 30
0.0
 11
-693.2301040177922
 21
578.0421395082713
 31
0.0
 12
-680.7301040177922
 22
580.1254728416047
 32
0.0
 13
-680.7301040177922
 23
580.1254728416047
 33
0.0
  0
SOLID
  5
1D9
330
1D3
100
AcDbEntity
  8
09-01
 62
     4
440
 16777216
100
AcDbTrace
 10
-705.2301040177922
 20
582.2088061749381
 30
0.0
 11
-705.2301040177922
 21
578.0421395082713
 31
0.0
 12
-717.7301040177922
 22
580.1254728416047
 32
0.0
 13
-717.7301040177922
 23
580.1254728416047
 33
0.0
  0
MTEXT
  5
1DA
330
1D3
100
AcDbEntity
  8
09-01
 62
     1
440
 16777216
100
AcDbMText
 10
-699.2301040177921
 20
591.5118984896265
 30
0.0
 40
12.5
 41
0.0
 46
0.0
 71
     5
 72
     1
  1
37
 73
     1
 44
1.0
  0
POINT
  5
1DB
330
1D3
100
AcDbEntity
  8
DEFPOINTS
 62
     0
440
 16777216
100
AcDbPoint
 10
-680.7301040177922
 20
605.5573699028586
 30
0.0
  0
POINT
  5
1DC
330
1D3
100
AcDbEntity
  8
DEFPOINTS
 62
     0
440
 16777216
100
AcDbPoint
 10
-717.7301040177922
 20
605.5573699028586
 30
0.0
  0
POINT
  5
1DD
330
1D3
100
AcDbEntity
  8
DEFPOINTS
 62
     0
440
 16777216
100
AcDbPoint
 10
-717.7301040177922
 20
580.1254728416047
 30
0.0
  0
ENDBLK
  5
1DE
330
1D3
100
AcDbEntity
  8
0
100
AcDbBlockEnd
  0
BLOCK
  5
7E
330
7D
100
AcDbEntity
  8
0
100
AcDbBlockBegin
  2
Kolbendruckplatte01_s
 70
     0
 10
0.0
 20
0.0
 30
0.0
  3
Kolbendruckplatte01_s
  1

  0
LINE
  5
7F
330
7D
100
AcDbEntity
  8
0
100
AcDbLine
 10
-3.998079160962277
 20
0.1722786661994178
 30
0.0
 11
-6.728982372248708
 21
-37.18724677554974
 31
0.0
  0
ARC
  5
80
330
7D
100
AcDbEntity
  8
0
100
AcDbCircle
 10
-5.731643365302261
 20
-37.26015017206282
 30
0.0
 40
1.0
100
AcDbArc
 50
175.8192340796936
 51
265.81923407968
  0
CIRCLE
  5
81
330
7D
100
AcDbEntity
  8
0
100
AcDbCircle
 10
0.0
 20
0.0
 30
0.0
 40
1.9
  0
CIRCLE
  5
82
330
7D
100
AcDbEntity
  8
0
100
AcDbCircle
 10
-0.1486818435844839
 20
-29.46757359725052
 30
0.0
 40
2.5
  0
LINE
  5
83
330
7D
100
AcDbEntity
  8
0
100
AcDbLine
 10
3.840674184201247
 20
-29.75918718330195
 30
0.0
 11
3.244407697215592
 21
-37.9162807406783
 31
0.0
  0
ARC
  5
84
330
7D
100
AcDbEntity
  8
0
100
AcDbCircle
 10
2.247068690269145
 20
-37.84337734416522
 30
0.0
 40
1.0
100
AcDbArc
 50
265.81923407968
 51
355.8192340796936
  0
LINE
  5
85
330
7D
100
AcDbEntity
  8
0
100
AcDbLine
 10
4.229908413562554
 20
-0.1822682719116528
 30
0.0
 11
3.840674184201247
 21
-29.75918718330195
 31
0.0
  0
ARC
  5
86
330
7D
100
AcDbEntity
  8
0
100
AcDbCircle
 10
0.1106117866753493
 20
-0.1280580530287807
 30
0.0
 40
4.119653316495944
100
AcDbArc
 50
359.2460272369752
 51
175.8192340796936
  0
LINE
  5
87
330
7D
100
AcDbEntity
  8
0
100
AcDbLine
 10
2.174165293756288
 20
-38.84071635111195
 30
0.0
 11
-5.804546761815117
 21
-38.2574891790091
 31
0.0
  0
ENDBLK
  5
88
330
7D
100
AcDbEntity
  8
0
100
AcDbBlockEnd
  0
BLOCK
  5
186
330
185
100
AcDbEntity
  8
0
100
AcDbBlockBegin
  2
Desipumpe_937045_V
 70
     0
 10
0.0
 20
0.0
 30
0.0
  3
Desipumpe_937045_V
  1

  0
LINE
  5
187
330
185
100
AcDbEntity
  8
0
100
AcDbLine
 10
-35.44640027120659
 20
226.5348919169746
 30
0.0
 11
-35.489521920681
 21
225.2999940537848
 31
0.0
  0
LINE
  5
188
330
185
100
AcDbEntity
  8
0
100
AcDbLine
 10
35.489521920681
 20
225.2999940537848
 30
0.0
 11
-35.489521920681
 21
225.2999940537848
 31
0.0
  0
LINE
  5
189
330
185
100
AcDbEntity
  8
0
100
AcDbLine
 10
-26.7289400791733
 20
228.0348962732905
 30
0.0
 11
-26.73076838254929
 21
227.9825443401933
 31
0.0
  0
ARC
  5
18A
330
185
100
AcDbEntity
  8
0
100
AcDbCircle
 10
-27.23046323316566
 20
227.9999940395355
 30
0.0
 40
0.4999999999999858
100
AcDbArc
 50
270.0
 51
358.0000000000747
  0
LINE
  5
18B
330
185
100
AcDbEntity
  8
0
100
AcDbLine
 10
-29.34546396136284
 20
0.0
 30
0.0
 11
29.34546396136284
 21
0.0
 31
0.0
  0
LINE
  5
18C
330
185
100
AcDbEntity
  8
0
100
AcDbLine
 10
35.50000116229057
 20
224.9999940395355
 30
0.0
 11
33.93948450684547
 21
106.0533300042152
 31
0.0
  0
LINE
  5
18D
330
185
100
AcDbEntity
  8
03-01
100
AcDbLine
 10
33.40018186535781
 20
225.0275425463629
 30
0.0
 11
31.83966520991271
 21
106.0808785110425
 31
0.0
  0
LINE
  5
18E
330
185
100
AcDbEntity
  8
0
100
AcDbLine
 10
-33.93948450684547
 20
106.0533300042152
 30
0.0
 11
-35.50000116229057
 21
224.9999940395355
 31
0.0
  0
LINE
  5
18F
330
185
100
AcDbEntity
  8
03-01
100
AcDbLine
 10
-31.83966520991271
 20
106.0808785110425
 30
0.0
 11
-33.40018186535781
 21
225.0275425463629
 31
0.0
  0
LINE
  5
190
330
185
100
AcDbEntity
  8
0
100
AcDbLine
 10
-35.50000116229057
 20
224.9999940395355
 30
0.0
 11
35.50000116229057
 21
224.9999940395355
 31
0.0
  0
ARC
  5
191
330
185
100
AcDbEntity
  8
0
100
AcDbCircle
 10
-23.94034354855285
 20
106.1845104766498
 30
0.0
 40
10.00000000000001
100
AcDbArc
 50
180.7516470000064
 51
192.7786363657759
  0
ARC
  5
192
330
185
100
AcDbEntity
  8
03-01
100
AcDbCircle
 10
-23.94034354855285
 20
106.1845104766498
 30
0.0
 40
7.900000000000011
100
AcDbArc
 50
180.7516470000064
 51
192.7786363657759
  0
LINE
  5
193
330
185
100
AcDbEntity
  8
0
100
AcDbLine
 10
-30.75666166841984
 20
91.02746844291687
 30
0.0
 11
-33.69266167283058
 21
103.9726585149765
 31
0.0
  0
LINE
  5
194
330
185
100
AcDbEntity
  8
03-01
100
AcDbLine
 10
-28.70867470782286
 20
91.49195677347643
 30
0.0
 11
-31.64467471223361
 21
104.437146845536
 31
0.0
  0
ARC
  5
195
330
185
100
AcDbEntity
  8
0
100
AcDbCircle
 10
-40.50898116836743
 20
88.81561932607928
 30
0.0
 40
10.00000000000002
100
AcDbArc
 50
0.7499999999958722
 51
12.77863636577588
  0
ARC
  5
196
330
185
100
AcDbEntity
  8
03-01
100
AcDbCircle
 10
-40.50898116836743
 20
88.81561932607928
 30
0.0
 40
12.10000000000002
100
AcDbArc
 50
0.7499999999958722
 51
12.77863636577588
  0
LINE
  5
197
330
185
100
AcDbEntity
  8
0
100
AcDbLine
 10
30.5098369717598
 20
88.94652128219604
 30
0.0
 11
29.34546396136284
 21
0.0
 31
0.0
  0
LINE
  5
198
330
185
100
AcDbEntity
  8
03-01
100
AcDbLine
 10
28.41001688362758
 20
88.97400941553815
 30
0.0
 11
27.24564387323062
 21
0.0274881333421036
 31
0.0
  0
LINE
  5
199
330
185
100
AcDbEntity
  8
0
100
AcDbLine
 10
-29.34546396136284
 20
0.0
 30
0.0
 11
-30.5098369717598
 21
88.94652128219604
 31
0.0
  0
LINE
  5
19A
330
185
100
AcDbEntity
  8
03-01
100
AcDbLine
 10
-27.24564387322971
 20
0.0274881333421036
 30
0.0
 11
-28.41001688362667
 21
88.97400941553815
 31
0.0
  0
ARC
  5
19B
330
185
100
AcDbEntity
  8
0
100
AcDbCircle
 10
-34.44700889223168
 20
226.4999939836562
 30
0.0
 40
1.0
100
AcDbArc
 50
89.9999715032462
 51
178.0000906243824
  0
ARC
  5
19C
330
185
100
AcDbEntity
  8
0
100
AcDbCircle
 10
23.94034354855376
 20
106.1845104766498
 30
0.0
 40
10.00000000000001
100
AcDbArc
 50
347.2213636342242
 51
359.2483529999936
  0
ARC
  5
19D
330
185
100
AcDbEntity
  8
03-01
100
AcDbCircle
 10
23.94034354855376
 20
106.1845104766498
 30
0.0
 40
7.900000000000011
100
AcDbArc
 50
347.2213636342242
 51
359.2483529999936
  0
LINE
  5
19E
330
185
100
AcDbEntity
  8
0
100
AcDbLine
 10
30.75666166841984
 20
91.02746844291687
 30
0.0
 11
33.69266167283058
 21
103.9726585149765
 31
0.0
  0
LINE
  5
19F
330
185
100
AcDbEntity
  8
03-01
100
AcDbLine
 10
28.70867470782332
 20
91.49195677347643
 30
0.0
 11
31.64467471223407
 21
104.437146845536
 31
0.0
  0
ARC
  5
1A0
330
185
100
AcDbEntity
  8
0
100
AcDbCircle
 10
40.50898116836788
 20
88.81561932607928
 30
0.0
 40
10.00000000000002
100
AcDbArc
 50
167.2213636342241
 51
179.2500000000041
  0
ARC
  5
1A1
330
185
100
AcDbEntity
  8
03-01
100
AcDbCircle
 10
40.50898116836788
 20
88.81561932607928
 30
0.0
 40
12.10000000000002
100
AcDbArc
 50
167.2213636342241
 51
179.2500000000041
  0
LINE
  5
1A2
330
185
100
AcDbEntity
  8
0
100
AcDbLine
 10
-34.4470083948695
 20
227.4999939836557
 30
0.0
 11
34.44700889223213
 21
227.4999939836557
 31
0.0
  0
ARC
  5
1A3
330
185
100
AcDbEntity
  8
0
100
AcDbCircle
 10
-25.72954487498009
 20
227.9999942295253
 30
0.0
 40
1.0
100
AcDbArc
 50
89.99974411002318
 51
177.9998629061295
  0
LINE
  5
1A4
330
185
100
AcDbEntity
  8
0
100
AcDbLine
 10
35.44640027120704
 20
226.5348919169746
 30
0.0
 11
35.489521920681
 21
225.2999940537848
 31
0.0
  0
LINE
  5
1A5
330
185
100
AcDbEntity
  8
0
100
AcDbLine
 10
26.72894007917375
 20
228.0348962732905
 30
0.0
 11
26.73076838254929
 21
227.9825443401933
 31
0.0
  0
ARC
  5
1A6
330
185
100
AcDbEntity
  8
0
100
AcDbCircle
 10
27.23046323316612
 20
227.9999940395355
 30
0.0
 40
0.4999999999999858
100
AcDbArc
 50
181.9999999999254
 51
270.0
  0
ARC
  5
1A7
330
185
100
AcDbEntity
  8
0
100
AcDbCircle
 10
34.44700889223213
 20
226.4999939836562
 30
0.0
 40
1.0
100
AcDbArc
 50
1.999909375617534
 51
90.00002849675381
  0
ARC
  5
1A8
330
185
100
AcDbEntity
  8
0
100
AcDbCircle
 10
25.729544874981
 20
227.9999942295253
 30
0.0
 40
1.0
100
AcDbArc
 50
2.000137093870475
 51
90.00025588996379
  0
LINE
  5
1A9
330
185
100
AcDbEntity
  8
0
100
AcDbLine
 10
-25.7295404088577
 20
228.9999942295153
 30
0.0
 11
25.72954040885816
 21
228.9999942295153
 31
0.0
  0
LINE
  5
1AA
330
185
100
AcDbEntity
  8
03-01
100
AcDbLine
 10
-33.69266167283058
 20
103.9726585149765
 30
0.0
 11
33.69266167283058
 21
103.9726585149765
 31
0.0
  0
LINE
  5
1AB
330
185
100
AcDbEntity
  8
03-01
100
AcDbLine
 10
-30.50983797117897
 20
88.9465212821965
 30
0.0
 11
30.5098369717598
 21
88.94652128219604
 31
0.0
  0
LINE
  5
1AC
330
185
100
AcDbEntity
  8
0
100
AcDbLine
 10
-5.248327739536762
 20
-4.850000143051147
 30
0.0
 11
-6.430027914070706
 21
-4.850000143051147
 31
0.0
  0
LINE
  5
1AD
330
185
100
AcDbEntity
  8
0
100
AcDbLine
 10
6.430027914070706
 20
-4.850000143051147
 30
0.0
 11
5.312562920153141
 21
-4.850000143051147
 31
0.0
  0
LINE
  5
1AE
330
185
100
AcDbEntity
  8
0
100
AcDbLine
 10
-7.42987560875008
 20
-3.867452576801497
 30
0.0
 11
-7.497382350265979
 21
0.0
 31
0.0
  0
ARC
  5
1AF
330
185
100
AcDbEntity
  8
0
100
AcDbCircle
 10
-6.430027914070706
 20
-3.850000143051147
 30
0.0
 40
1.0
100
AcDbArc
 50
181.0000015651618
 51
270.0
  0
LINE
  5
1B0
330
185
100
AcDbEntity
  8
0
100
AcDbLine
 10
7.497382350265979
 20
0.0
 30
0.0
 11
7.429875608750535
 21
-3.867452576801497
 31
0.0
  0
ARC
  5
1B1
330
185
100
AcDbEntity
  8
0
100
AcDbCircle
 10
6.430027914070706
 20
-3.850000143051147
 30
0.0
 40
1.0
100
AcDbArc
 50
270.0
 51
358.9999984348382
  0
LINE
  5
1B2
330
185
100
AcDbEntity
  8
0
100
AcDbLine
 10
5.322081036865711
 20
-4.848375916481018
 30
0.0
 11
4.823907278478145
 21
-7.673650979995727
 31
0.0
  0
LINE
  5
1B3
330
185
100
AcDbEntity
  8
0
100
AcDbLine
 10
-4.823909141123294
 20
-7.673650979995727
 30
0.0
 11
-5.324219353497028
 21
-4.836246371269226
 31
0.0
  0
ARC
  5
1B4
330
185
100
AcDbEntity
  8
0
100
AcDbCircle
 10
3.83909952716931
 20
-7.500005960464477
 30
0.0
 40
1.000000000000002
100
AcDbArc
 50
270.0
 51
349.999999999995
  0
ARC
  5
1B5
330
185
100
AcDbEntity
  8
0
100
AcDbCircle
 10
-3.8390997351853
 20
-7.500005960464477
 30
0.0
 40
1.000000000000002
100
AcDbArc
 50
190.000000000005
 51
270.0
  0
SPLINE
  5
1B6
330
185
100
AcDbEntity
  8
0
100
AcDbSpline
210
0.0
220
0.0
230
1.0
 70
     8
 71
     3
 72
    17
 73
    13
 74
     0
 42
0.0000000001
 43
0.0000000001
 40
0.0
 40
0.0
 40
0.0
 40
0.0
 40
0.0600543499638597
 40
0.1648234495280559
 40
0.2723661016691685
 40
0.3832407533501493
 40
0.4895330601902239
 40
0.5863420781005051
 40
0.6814648365672097
 40
0.7837911670314727
 40
0.8936449548470841
 40
1.0
 40
1.0
 40
1.0
 40
1.0
 10
-5.248327739536762
 20
-4.82286512851715
 30
0.0
 10
-5.258854618867644
 20
-4.82668787482271
 30
0.0
 10
-5.287746390489701
 20
-4.837179674886101
 30
0.0
 10
-4.694444456982637
 20
-4.620693885926812
 30
0.0
 10
-3.585124810742854
 20
-4.278353410881663
 30
0.0
 10
-2.015985082593942
 20
-3.937661984898568
 30
0.0
 10
-0.2361049607652603
 20
-3.784743391334814
 30
0.0
 10
1.478322220405061
 20
-3.873174061122426
 30
0.0
 10
2.997739763296522
 20
-4.134917041686094
 30
0.0
 10
4.255208798731473
 20
-4.474955176451203
 30
0.0
 10
5.150242755354156
 20
-4.78469793723525
 30
0.0
 10
5.259043076092893
 20
-4.826221548578814
 30
0.0
 10
5.312562920153141
 20
-4.846647381782531
 30
0.0
  0
LINE
  5
1B7
330
185
100
AcDbEntity
  8
0
100
AcDbLine
 10
-3.8390988484025
 20
-8.500009775161743
 30
0.0
 11
3.8390988484025
 21
-8.500009775161743
 31
0.0
  0
LINE
  5
1B8
330
185
100
AcDbEntity
  8
0
100
AcDbLine
 10
4.823907278478145
 20
-7.673650979995727
 30
0.0
 11
-4.823909141123294
 21
-7.673650979995727
 31
0.0
  0
LINE
  5
1B9
330
185
100
AcDbEntity
  8
03-01
100
AcDbLine
 10
-0.749998725950718
 20
-8.500009775161743
 30
0.0
 11
-0.45000109821558
 21
-6.999999284744262
 31
0.0
  0
LINE
  5
1BA
330
185
100
AcDbEntity
  8
03-01
100
AcDbLine
 10
0.4499992355704308
 20
-6.999999284744262
 30
0.0
 11
0.7500005885958672
 21
-8.500009775161743
 31
0.0
  0
LINE
  5
1BB
330
185
100
AcDbEntity
  8
03-01
100
AcDbLine
 10
-0.45000109821558
 20
-6.999999284744262
 30
0.0
 11
-0.45000109821558
 21
0.0
 31
0.0
  0
LINE
  5
1BC
330
185
100
AcDbEntity
  8
03-01
100
AcDbLine
 10
-0.45000109821558
 20
-6.999999284744262
 30
0.0
 11
0.4499992355704308
 21
-6.999999284744262
 31
0.0
  0
LINE
  5
1BD
330
185
100
AcDbEntity
  8
03-01
100
AcDbLine
 10
0.4499992355704308
 20
-6.999999284744262
 30
0.0
 11
0.4499992355704308
 21
0.0
 31
0.0
  0
LINE
  5
1BE
330
185
100
AcDbEntity
  8
03-01
100
AcDbLine
 10
-27.58297277337443
 20
25.79606223106384
 30
0.0
 11
27.58297277337488
 21
25.79606223106384
 31
0.0
  0
LINE
  5
1BF
330
185
100
AcDbEntity
  8
03-01
100
AcDbLine
 10
-27.53715529251485
 20
22.29606223106384
 30
0.0
 11
27.53715529251531
 21
22.29606223106384
 31
0.0
  0
LINE
  5
1C0
330
185
100
AcDbEntity
  8
03-01
100
AcDbLine
 10
-29.97381789251085
 20
47.99999296665191
 30
0.0
 11
29.97381789251085
 21
47.99999296665191
 31
0.0
  0
LINE
  5
1C1
330
185
100
AcDbEntity
  8
03-01
100
AcDbLine
 10
-24.6454639613628
 20
45.99998891353652
 30
0.0
 11
-29.94763642181863
 21
45.99998891353698
 31
0.0
  0
LINE
  5
1C2
330
185
100
AcDbEntity
  8
03-01
100
AcDbLine
 10
-24.6454639613628
 20
0.0
 30
0.0
 11
-24.6454639613628
 21
45.99998891353652
 31
0.0
  0
LINE
  5
1C3
330
185
100
AcDbEntity
  8
03-01
100
AcDbLine
 10
24.6454639613628
 20
45.99998891353652
 30
0.0
 11
29.94763642181863
 21
45.99998891353698
 31
0.0
  0
LINE
  5
1C4
330
185
100
AcDbEntity
  8
03-01
100
AcDbLine
 10
24.6454639613628
 20
0.0
 30
0.0
 11
24.6454639613628
 21
45.99998891353652
 31
0.0
  0
ENDBLK
  5
1C5
330
185
100
AcDbEntity
  8
0
100
AcDbBlockEnd
  0
BLOCK
  5
177
330
176
100
AcDbEntity
  8
0
100
AcDbBlockBegin
  2
*D13
 70
     1
 10
0.0
 20
0.0
 30
0.0
  3
*D13
  1

  0
LINE
  5
178
330
176
100
AcDbEntity
  8
09-01
 62
     4
440
 16777216
370
    -2
100
AcDbLine
 10
-1201.041989141193
 20
908.5573699028582
 30
0.0
 11
-1201.041989141193
 21
925.2655717333873
 31
0.0
  0
LINE
  5
179
330
176
100
AcDbEntity
  8
09-01
 62
     4
440
 16777216
370
    -2
100
AcDbLine
 10
-1182.041989141193
 20
893.5573699028582
 30
0.0
 11
-1182.041989141193
 21
925.2655717333873
 31
0.0
  0
LINE
  5
17A
330
176
100
AcDbEntity
  8
09-01
 62
     4
440
 16777216
370
    -2
100
AcDbLine
 10
-1213.541989141193
 20
920.2655717333874
 30
0.0
 11
-1226.041989141193
 21
920.2655717333874
 31
0.0
  0
LINE
  5
17B
330
176
100
AcDbEntity
  8
09-01
 62
     4
440
 16777216
370
    -2
100
AcDbLine
 10
-1169.541989141193
 20
920.2655717333874
 30
0.0
 11
-1157.041989141193
 21
920.2655717333874
 31
0.0
  0
LINE
  5
17C
330
176
100
AcDbEntity
  8
09-01
 62
     4
440
 16777216
370
    -2
100
AcDbLine
 10
-1201.041989141193
 20
920.2655717333874
 30
0.0
 11
-1182.041989141193
 21
920.2655717333874
 31
0.0
  0
SOLID
  5
17D
330
176
100
AcDbEntity
  8
09-01
 62
     4
440
 16777216
100
AcDbTrace
 10
-1213.541989141193
 20
922.3489050667208
 30
0.0
 11
-1213.541989141193
 21
918.182238400054
 31
0.0
 12
-1201.041989141193
 22
920.2655717333874
 32
0.0
 13
-1201.041989141193
 23
920.2655717333874
 33
0.0
  0
SOLID
  5
17E
330
176
100
AcDbEntity
  8
09-01
 62
     4
440
 16777216
100
AcDbTrace
 10
-1169.541989141193
 20
922.3489050667208
 30
0.0
 11
-1169.541989141193
 21
918.182238400054
 31
0.0
 12
-1182.041989141193
 22
920.2655717333874
 32
0.0
 13
-1182.041989141193
 23
920.2655717333874
 33
0.0
  0
MTEXT
  5
17F
330
176
100
AcDbEntity
  8
09-01
 62
     1
440
 16777216
100
AcDbMText
 10
-1191.541989141193
 20
931.6477340799083
 30
0.0
 40
12.5
 41
0.0
 46
0.0
 71
     5
 72
     1
  1
19
 73
     1
 44
1.0
  0
POINT
  5
180
330
176
100
AcDbEntity
  8
DEFPOINTS
 62
     0
440
 16777216
100
AcDbPoint
 10
-1201.041989141193
 20
903.5573699028581
 30
0.0
  0
POINT
  5
181
330
176
100
AcDbEntity
  8
DEFPOINTS
 62
     0
440
 16777216
100
AcDbPoint
 10
-1182.041989141193
 20
888.5573699028581
 30
0.0
  0
POINT
  5
182
330
176
100
AcDbEntity
  8
DEFPOINTS
 62
     0
440
 16777216
100
AcDbPoint
 10
-1182.041989141193
 20
920.2655717333874
 30
0.0
  0
ENDBLK
  5
183
330
176
100
AcDbEntity
  8
0
100
AcDbBlockEnd
  0
BLOCK
  5
16A
330
169
100
AcDbEntity
  8
0
100
AcDbBlockBegin
  2
*D14
 70
     1
 10
0.0
 20
0.0
 30
0.0
  3
*D14
  1

  0
LINE
  5
16B
330
169
100
AcDbEntity
  8
09-01
 62
     4
440
 16777216
370
    -2
100
AcDbLine
 10
-1182.041989141193
 20
893.5573699028582
 30
0.0
 11
-1182.041989141193
 21
925.2655717333873
 31
0.0
  0
LINE
  5
16C
330
169
100
AcDbEntity
  8
09-01
 62
     4
440
 16777216
370
    -2
100
AcDbLine
 10
-922.0419891411935
 20
893.5573699028587
 30
0.0
 11
-922.0419891411935
 21
925.2655717333873
 31
0.0
  0
LINE
  5
16D
330
169
100
AcDbEntity
  8
09-01
 62
     4
440
 16777216
370
    -2
100
AcDbLine
 10
-1169.541989141193
 20
920.2655717333874
 30
0.0
 11
-934.5419891411935
 21
920.2655717333874
 31
0.0
  0
SOLID
  5
16E
330
169
100
AcDbEntity
  8
09-01
 62
     4
440
 16777216
100
AcDbTrace
 10
-1169.541989141193
 20
922.3489050667208
 30
0.0
 11
-1169.541989141193
 21
918.182238400054
 31
0.0
 12
-1182.041989141193
 22
920.2655717333874
 32
0.0
 13
-1182.041989141193
 23
920.2655717333874
 33
0.0
  0
SOLID
  5
16F
330
169
100
AcDbEntity
  8
09-01
 62
     4
440
 16777216
100
AcDbTrace
 10
-934.5419891411935
 20
922.3489050667208
 30
0.0
 11
-934.5419891411935
 21
918.182238400054
 31
0.0
 12
-922.0419891411935
 22
920.2655717333874
 32
0.0
 13
-922.0419891411935
 23
920.2655717333874
 33
0.0
  0
MTEXT
  5
170
330
169
100
AcDbEntity
  8
09-01
 62
     1
440
 16777216
100
AcDbMText
 10
-1052.041989141193
 20
931.6477340799083
 30
0.0
 40
12.5
 41
0.0
 46
0.0
 71
     5
 72
     1
  1
260
 73
     1
 44
1.0
  0
POINT
  5
171
330
169
100
AcDbEntity
  8
DEFPOINTS
 62
     0
440
 16777216
100
AcDbPoint
 10
-1182.041989141193
 20
888.5573699028581
 30
0.0
  0
POINT
  5
172
330
169
100
AcDbEntity
  8
DEFPOINTS
 62
     0
440
 16777216
100
AcDbPoint
 10
-922.0419891411935
 20
888.5573699028586
 30
0.0
  0
POINT
  5
173
330
169
100
AcDbEntity
  8
DEFPOINTS
 62
     0
440
 16777216
100
AcDbPoint
 10
-922.0419891411935
 20
920.2655717333874
 30
0.0
  0
ENDBLK
  5
174
330
169
100
AcDbEntity
  8
0
100
AcDbBlockEnd
  0
BLOCK
  5
15B
330
15A
100
AcDbEntity
  8
0
100
AcDbBlockBegin
  2
*D15
 70
     1
 10
0.0
 20
0.0
 30
0.0
  3
*D15
  1

  0
LINE
  5
15C
330
15A
100
AcDbEntity
  8
09-01
 62
     4
440
 16777216
370
    -2
100
AcDbLine
 10
-922.0419891411935
 20
893.5573699028587
 30
0.0
 11
-922.0419891411935
 21
925.2655717333873
 31
0.0
  0
LINE
  5
15D
330
15A
100
AcDbEntity
  8
09-01
 62
     4
440
 16777216
370
    -2
100
AcDbLine
 10
-903.0419891411934
 20
908.5573699028586
 30
0.0
 11
-903.0419891411934
 21
925.2655717333873
 31
0.0
  0
LINE
  5
15E
330
15A
100
AcDbEntity
  8
09-01
 62
     4
440
 16777216
370
    -2
100
AcDbLine
 10
-934.5419891411935
 20
920.2655717333874
 30
0.0
 11
-947.0419891411935
 21
920.2655717333874
 31
0.0
  0
LINE
  5
15F
330
15A
100
AcDbEntity
  8
09-01
 62
     4
440
 16777216
370
    -2
100
AcDbLine
 10
-890.5419891411934
 20
920.2655717333874
 30
0.0
 11
-878.0419891411934
 21
920.2655717333874
 31
0.0
  0
LINE
  5
160
330
15A
100
AcDbEntity
  8
09-01
 62
     4
440
 16777216
370
    -2
100
AcDbLine
 10
-922.0419891411935
 20
920.2655717333874
 30
0.0
 11
-903.0419891411934
 21
920.2655717333874
 31
0.0
  0
SOLID
  5
161
330
15A
100
AcDbEntity
  8
09-01
 62
     4
440
 16777216
100
AcDbTrace
 10
-934.5419891411935
 20
922.3489050667208
 30
0.0
 11
-934.5419891411935
 21
918.182238400054
 31
0.0
 12
-922.0419891411935
 22
920.2655717333874
 32
0.0
 13
-922.0419891411935
 23
920.2655717333874
 33
0.0
  0
SOLID
  5
162
330
15A
100
AcDbEntity
  8
09-01
 62
     4
440
 16777216
100
AcDbTrace
 10
-890.5419891411934
 20
922.3489050667208
 30
0.0
 11
-890.5419891411934
 21
918.182238400054
 31
0.0
 12
-903.0419891411934
 22
920.2655717333874
 32
0.0
 13
-903.0419891411934
 23
920.2655717333874
 33
0.0
  0
MTEXT
  5
163
330
15A
100
AcDbEntity
  8
09-01
 62
     1
440
 16777216
100
AcDbMText
 10
-912.5419891411935
 20
931.6477340799083
 30
0.0
 40
12.5
 41
0.0
 46
0.0
 71
     5
 72
     1
  1
19
 73
     1
 44
1.0
  0
POINT
  5
164
330
15A
100
AcDbEntity
  8
DEFPOINTS
 62
     0
440
 16777216
100
AcDbPoint
 10
-922.0419891411935
 20
888.5573699028586
 30
0.0
  0
POINT
  5
165
330
15A
100
AcDbEntity
  8
DEFPOINTS
 62
     0
440
 16777216
100
AcDbPoint
 10
-903.0419891411934
 20
903.5573699028587
 30
0.0
  0
POINT
  5
166
330
15A
100
AcDbEntity
  8
DEFPOINTS
 62
     0
440
 16777216
100
AcDbPoint
 10
-903.0419891411934
 20
920.2655717333874
 30
0.0
  0
ENDBLK
  5
167
330
15A
100
AcDbEntity
  8
0
100
AcDbBlockEnd
  0
BLOCK
  5
14C
330
14B
100
AcDbEntity
  8
0
100
AcDbBlockBegin
  2
*D16
 70
     1
 10
0.0
 20
0.0
 30
0.0
  3
*D16
  1

  0
LINE
  5
14D
330
14B
100
AcDbEntity
  8
09-01
 62
     4
440
 16777216
370
    -2
100
AcDbLine
 10
-1206.041989141193
 20
903.5573699028581
 30
0.0
 11
-1230.704879810015
 21
903.5573699028581
 31
0.0
  0
LINE
  5
14E
330
14B
100
AcDbEntity
  8
09-01
 62
     4
440
 16777216
370
    -2
100
AcDbLine
 10
-1190.541989141193
 20
885.0573699028583
 30
0.0
 11
-1230.704879810015
 21
885.0573699028583
 31
0.0
  0
LINE
  5
14F
330
14B
100
AcDbEntity
  8
09-01
 62
     4
440
 16777216
370
    -2
100
AcDbLine
 10
-1225.704879810015
 20
916.0573699028581
 30
0.0
 11
-1225.704879810015
 21
928.5573699028581
 31
0.0
  0
LINE
  5
150
330
14B
100
AcDbEntity
  8
09-01
 62
     4
440
 16777216
370
    -2
100
AcDbLine
 10
-1225.704879810015
 20
872.5573699028583
 30
0.0
 11
-1225.704879810015
 21
860.0573699028583
 31
0.0
  0
MTEXT
  5
151
330
14B
100
AcDbEntity
  8
09-01
 62
     1
440
 16777216
100
AcDbMText
 10
-1236.661040075334
 20
930.7189211021213
 30
0.0
 40
12.5
 41
0.0
 46
0.0
 71
     5
 72
     1
  1
18.5
 11
0.0000000000000001
 21
1.0
 31
0.0
 73
     1
 44
1.0
  0
LINE
  5
152
330
14B
100
AcDbEntity
  8
09-01
 62
     4
440
 16777216
370
    -2
100
AcDbLine
 10
-1225.704879810015
 20
903.5573699028581
 30
0.0
 11
-1225.704879810015
 21
885.0573699028583
 31
0.0
  0
SOLID
  5
153
330
14B
100
AcDbEntity
  8
09-01
 62
     4
440
 16777216
100
AcDbTrace
 10
-1227.788213143348
 20
916.0573699028581
 30
0.0
 11
-1223.621546476681
 21
916.0573699028581
 31
0.0
 12
-1225.704879810015
 22
903.5573699028581
 32
0.0
 13
-1225.704879810015
 23
903.5573699028581
 33
0.0
  0
SOLID
  5
154
330
14B
100
AcDbEntity
  8
09-01
 62
     4
440
 16777216
100
AcDbTrace
 10
-1227.788213143348
 20
872.5573699028583
 30
0.0
 11
-1223.621546476681
 21
872.5573699028583
 31
0.0
 12
-1225.704879810015
 22
885.0573699028583
 32
0.0
 13
-1225.704879810015
 23
885.0573699028583
 33
0.0
  0
POINT
  5
155
330
14B
100
AcDbEntity
  8
DEFPOINTS
 62
     0
440
 16777216
100
AcDbPoint
 10
-1201.041989141193
 20
903.5573699028581
 30
0.0
  0
POINT
  5
156
330
14B
100
AcDbEntity
  8
DEFPOINTS
 62
     0
440
 16777216
100
AcDbPoint
 10
-1185.541989141193
 20
885.0573699028583
 30
0.0
  0
POINT
  5
157
330
14B
100
AcDbEntity
  8
DEFPOINTS
 62
     0
440
 16777216
100
AcDbPoint
 10
-1225.704879810015
 20
885.0573699028583
 30
0.0
  0
ENDBLK
  5
158
330
14B
100
AcDbEntity
  8
0
100
AcDbBlockEnd
  0
BLOCK
  5
13F
330
13E
100
AcDbEntity
  8
0
100
AcDbBlockBegin
  2
*D17
 70
     1
 10
0.0
 20
0.0
 30
0.0
  3
*D17
  1

  0
LINE
  5
140
330
13E
100
AcDbEntity
  8
09-01
 62
     4
440
 16777216
370
    -2
100
AcDbLine
 10
-1190.541989141193
 20
885.0573699028583
 30
0.0
 11
-1230.704879810015
 21
885.0573699028583
 31
0.0
  0
LINE
  5
141
330
13E
100
AcDbEntity
  8
09-01
 62
     4
440
 16777216
370
    -2
100
AcDbLine
 10
-1190.541989141193
 20
680.0573699028582
 30
0.0
 11
-1230.704879810015
 21
680.0573699028582
 31
0.0
  0
LINE
  5
142
330
13E
100
AcDbEntity
  8
09-01
 62
     4
440
 16777216
370
    -2
100
AcDbLine
 10
-1225.704879810015
 20
872.5573699028583
 30
0.0
 11
-1225.704879810015
 21
692.5573699028582
 31
0.0
  0
SOLID
  5
143
330
13E
100
AcDbEntity
  8
09-01
 62
     4
440
 16777216
100
AcDbTrace
 10
-1227.788213143348
 20
872.5573699028583
 30
0.0
 11
-1223.621546476681
 21
872.5573699028583
 31
0.0
 12
-1225.704879810015
 22
885.0573699028583
 32
0.0
 13
-1225.704879810015
 23
885.0573699028583
 33
0.0
  0
SOLID
  5
144
330
13E
100
AcDbEntity
  8
09-01
 62
     4
440
 16777216
100
AcDbTrace
 10
-1227.788213143348
 20
692.5573699028582
 30
0.0
 11
-1223.621546476681
 21
692.5573699028582
 31
0.0
 12
-1225.704879810015
 22
680.0573699028582
 32
0.0
 13
-1225.704879810015
 23
680.0573699028582
 33
0.0
  0
MTEXT
  5
145
330
13E
100
AcDbEntity
  8
09-01
 62
     1
440
 16777216
100
AcDbMText
 10
-1237.087042156536
 20
782.5573699028581
 30
0.0
 40
12.5
 41
0.0
 46
0.0
 71
     5
 72
     1
  1
205
 11
0.0000000000000001
 21
1.0
 31
0.0
 73
     1
 44
1.0
  0
POINT
  5
146
330
13E
100
AcDbEntity
  8
DEFPOINTS
 62
     0
440
 16777216
100
AcDbPoint
 10
-1185.541989141193
 20
885.0573699028583
 30
0.0
  0
POINT
  5
147
330
13E
100
AcDbEntity
  8
DEFPOINTS
 62
     0
440
 16777216
100
AcDbPoint
 10
-1185.541989141193
 20
680.0573699028582
 30
0.0
  0
POINT
  5
148
330
13E
100
AcDbEntity
  8
DEFPOINTS
 62
     0
440
 16777216
100
AcDbPoint
 10
-1225.704879810015
 20
680.0573699028582
 30
0.0
  0
ENDBLK
  5
149
330
13E
100
AcDbEntity
  8
0
100
AcDbBlockEnd
  0
BLOCK
  5
132
330
131
100
AcDbEntity
  8
0
100
AcDbBlockBegin
  2
*D18
 70
     1
 10
0.0
 20
0.0
 30
0.0
  3
*D18
  1

  0
LINE
  5
133
330
131
100
AcDbEntity
  8
09-01
 62
     4
440
 16777216
370
    -2
100
AcDbLine
 10
-1189.541989141193
 20
680.0573699028582
 30
0.0
 11
-1230.704879810015
 21
680.0573699028582
 31
0.0
  0
LINE
  5
134
330
131
100
AcDbEntity
  8
09-01
 62
     4
440
 16777216
370
    -2
100
AcDbLine
 10
-1206.041989141193
 20
605.5573699028591
 30
0.0
 11
-1230.704879810015
 21
605.5573699028591
 31
0.0
  0
LINE
  5
135
330
131
100
AcDbEntity
  8
09-01
 62
     4
440
 16777216
370
    -2
100
AcDbLine
 10
-1225.704879810015
 20
667.5573699028582
 30
0.0
 11
-1225.704879810015
 21
618.0573699028591
 31
0.0
  0
SOLID
  5
136
330
131
100
AcDbEntity
  8
09-01
 62
     4
440
 16777216
100
AcDbTrace
 10
-1227.788213143348
 20
667.5573699028582
 30
0.0
 11
-1223.621546476681
 21
667.5573699028582
 31
0.0
 12
-1225.704879810015
 22
680.0573699028582
 32
0.0
 13
-1225.704879810015
 23
680.0573699028582
 33
0.0
  0
SOLID
  5
137
330
131
100
AcDbEntity
  8
09-01
 62
     4
440
 16777216
100
AcDbTrace
 10
-1227.788213143348
 20
618.0573699028591
 30
0.0
 11
-1223.621546476681
 21
618.0573699028591
 31
0.0
 12
-1225.704879810015
 22
605.5573699028591
 32
0.0
 13
-1225.704879810015
 23
605.5573699028591
 33
0.0
  0
MTEXT
  5
138
330
131
100
AcDbEntity
  8
09-01
 62
     1
440
 16777216
100
AcDbMText
 10
-1237.061462347532
 20
642.8073699028585
 30
0.0
 40
12.5
 41
0.0
 46
0.0
 71
     5
 72
     1
  1
74.5
 11
0.0000000000000001
 21
1.0
 31
0.0
 73
     1
 44
1.0
  0
POINT
  5
139
330
131
100
AcDbEntity
  8
DEFPOINTS
 62
     0
440
 16777216
100
AcDbPoint
 10
-1184.541989141193
 20
680.0573699028582
 30
0.0
  0
POINT
  5
13A
330
131
100
AcDbEntity
  8
DEFPOINTS
 62
     0
440
 16777216
100
AcDbPoint
 10
-1201.041989141193
 20
605.5573699028591
 30
0.0
  0
POINT
  5
13B
330
131
100
AcDbEntity
  8
DEFPOINTS
 62
     0
440
 16777216
100
AcDbPoint
 10
-1225.704879810015
 20
605.5573699028591
 30
0.0
  0
ENDBLK
  5
13C
330
131
100
AcDbEntity
  8
0
100
AcDbBlockEnd
  0
BLOCK
  5
123
330
122
100
AcDbEntity
  8
0
100
AcDbBlockBegin
  2
*D19
 70
     1
 10
0.0
 20
0.0
 30
0.0
  3
*D19
  1

  0
LINE
  5
124
330
122
100
AcDbEntity
  8
09-01
 62
     4
440
 16777216
370
    -2
100
AcDbLine
 10
-913.5419891411936
 20
885.0573699028586
 30
0.0
 11
-870.2119527693939
 21
885.0573699028586
 31
0.0
  0
LINE
  5
125
330
122
100
AcDbEntity
  8
09-01
 62
     4
440
 16777216
370
    -2
100
AcDbLine
 10
-909.7919891411937
 20
873.0573699028587
 30
0.0
 11
-870.2119527693939
 21
873.0573699028587
 31
0.0
  0
LINE
  5
126
330
122
100
AcDbEntity
  8
09-01
 62
     4
440
 16777216
370
    -2
100
AcDbLine
 10
-875.211952769394
 20
897.5573699028586
 30
0.0
 11
-875.211952769394
 21
910.0573699028586
 31
0.0
  0
LINE
  5
127
330
122
100
AcDbEntity
  8
09-01
 62
     4
440
 16777216
370
    -2
100
AcDbLine
 10
-875.211952769394
 20
860.5573699028587
 30
0.0
 11
-875.211952769394
 21
848.0573699028587
 31
0.0
  0
MTEXT
  5
128
330
122
100
AcDbEntity
  8
09-01
 62
     1
440
 16777216
100
AcDbMText
 10
-887.4157757891589
 20
901.2589114832953
 30
0.0
 40
12.5
 41
0.0
 46
0.0
 71
     5
 72
     1
  1
12
 11
0.0000000000000001
 21
1.0
 31
0.0
 73
     1
 44
1.0
  0
LINE
  5
129
330
122
100
AcDbEntity
  8
09-01
 62
     4
440
 16777216
370
    -2
100
AcDbLine
 10
-875.211952769394
 20
885.0573699028586
 30
0.0
 11
-875.211952769394
 21
873.0573699028587
 31
0.0
  0
SOLID
  5
12A
330
122
100
AcDbEntity
  8
09-01
 62
     4
440
 16777216
100
AcDbTrace
 10
-877.2952861027274
 20
897.5573699028586
 30
0.0
 11
-873.1286194360606
 21
897.5573699028586
 31
0.0
 12
-875.211952769394
 22
885.0573699028586
 32
0.0
 13
-875.211952769394
 23
885.0573699028586
 33
0.0
  0
SOLID
  5
12B
330
122
100
AcDbEntity
  8
09-01
 62
     4
440
 16777216
100
AcDbTrace
 10
-877.2952861027274
 20
860.5573699028587
 30
0.0
 11
-873.1286194360606
 21
860.5573699028587
 31
0.0
 12
-875.211952769394
 22
873.0573699028587
 32
0.0
 13
-875.211952769394
 23
873.0573699028587
 33
0.0
  0
POINT
  5
12C
330
122
100
AcDbEntity
  8
DEFPOINTS
 62
     0
440
 16777216
100
AcDbPoint
 10
-918.5419891411937
 20
885.0573699028586
 30
0.0
  0
POINT
  5
12D
330
122
100
AcDbEntity
  8
DEFPOINTS
 62
     0
440
 16777216
100
AcDbPoint
 10
-914.7919891411936
 20
873.0573699028587
 30
0.0
  0
POINT
  5
12E
330
122
100
AcDbEntity
  8
DEFPOINTS
 62
     0
440
 16777216
100
AcDbPoint
 10
-875.211952769394
 20
873.0573699028587
 30
0.0
  0
ENDBLK
  5
12F
330
122
100
AcDbEntity
  8
0
100
AcDbBlockEnd
  0
BLOCK
  5
114
330
113
100
AcDbEntity
  8
0
100
AcDbBlockBegin
  2
*D20
 70
     1
 10
0.0
 20
0.0
 30
0.0
  3
*D20
  1

  0
LINE
  5
115
330
113
100
AcDbEntity
  8
09-01
 62
     4
440
 16777216
370
    -2
100
AcDbLine
 10
-928.2919891411935
 20
868.0573699028586
 30
0.0
 11
-928.2919891411935
 21
835.4828352578261
 31
0.0
  0
LINE
  5
116
330
113
100
AcDbEntity
  8
09-01
 62
     4
440
 16777216
370
    -2
100
AcDbLine
 10
-915.7919891411935
 20
868.0573699028586
 30
0.0
 11
-915.7919891411935
 21
835.4828352578261
 31
0.0
  0
LINE
  5
117
330
113
100
AcDbEntity
  8
09-01
 62
     4
440
 16777216
370
    -2
100
AcDbLine
 10
-940.7919891411935
 20
840.482835257826
 30
0.0
 11
-953.2919891411935
 21
840.482835257826
 31
0.0
  0
LINE
  5
118
330
113
100
AcDbEntity
  8
09-01
 62
     4
440
 16777216
370
    -2
100
AcDbLine
 10
-903.2919891411935
 20
840.482835257826
 30
0.0
 11
-890.7919891411935
 21
840.482835257826
 31
0.0
  0
MTEXT
  5
119
330
113
100
AcDbEntity
  8
09-01
 62
     1
440
 16777216
100
AcDbMText
 10
-956.4982023381672
 20
852.2459337532673
 30
0.0
 40
12.5
 41
0.0
 46
0.0
 71
     5
 72
     1
  1
12.5
 73
     1
 44
1.0
  0
LINE
  5
11A
330
113
100
AcDbEntity
  8
09-01
 62
     4
440
 16777216
370
    -2
100
AcDbLine
 10
-928.2919891411935
 20
840.482835257826
 30
0.0
 11
-915.7919891411935
 21
840.482835257826
 31
0.0
  0
SOLID
  5
11B
330
113
100
AcDbEntity
  8
09-01
 62
     4
440
 16777216
100
AcDbTrace
 10
-940.7919891411935
 20
842.5661685911594
 30
0.0
 11
-940.7919891411935
 21
838.3995019244927
 31
0.0
 12
-928.2919891411935
 22
840.482835257826
 32
0.0
 13
-928.2919891411935
 23
840.482835257826
 33
0.0
  0
SOLID
  5
11C
330
113
100
AcDbEntity
  8
09-01
 62
     4
440
 16777216
100
AcDbTrace
 10
-903.2919891411935
 20
842.5661685911594
 30
0.0
 11
-903.2919891411935
 21
838.3995019244927
 31
0.0
 12
-915.7919891411935
 22
840.482835257826
 32
0.0
 13
-915.7919891411935
 23
840.482835257826
 33
0.0
  0
POINT
  5
11D
330
113
100
AcDbEntity
  8
DEFPOINTS
 62
     0
440
 16777216
100
AcDbPoint
 10
-928.2919891411935
 20
873.0573699028587
 30
0.0
  0
POINT
  5
11E
330
113
100
AcDbEntity
  8
DEFPOINTS
 62
     0
440
 16777216
100
AcDbPoint
 10
-915.7919891411935
 20
873.0573699028587
 30
0.0
  0
POINT
  5
11F
330
113
100
AcDbEntity
  8
DEFPOINTS
 62
     0
440
 16777216
100
AcDbPoint
 10
-915.7919891411935
 20
840.482835257826
 30
0.0
  0
ENDBLK
  5
120
330
113
100
AcDbEntity
  8
0
100
AcDbBlockEnd
  0
BLOCK
  5
105
330
104
100
AcDbEntity
  8
0
100
AcDbBlockBegin
  2
*D21
 70
     1
 10
0.0
 20
0.0
 30
0.0
  3
*D21
  1

  0
LINE
  5
106
330
104
100
AcDbEntity
  8
09-01
 62
     4
440
 16777216
370
    -2
100
AcDbLine
 10
-924.5419891411936
 20
685.0573699028586
 30
0.0
 11
-924.5419891411936
 21
699.2625289381066
 31
0.0
  0
LINE
  5
107
330
104
100
AcDbEntity
  8
09-01
 62
     4
440
 16777216
370
    -2
100
AcDbLine
 10
-919.5419891411937
 20
685.0573699028586
 30
0.0
 11
-919.5419891411937
 21
699.2625289381066
 31
0.0
  0
LINE
  5
108
330
104
100
AcDbEntity
  8
09-01
 62
     4
440
 16777216
370
    -2
100
AcDbLine
 10
-937.0419891411936
 20
694.2625289381067
 30
0.0
 11
-949.5419891411936
 21
694.2625289381067
 31
0.0
  0
LINE
  5
109
330
104
100
AcDbEntity
  8
09-01
 62
     4
440
 16777216
370
    -2
100
AcDbLine
 10
-907.0419891411937
 20
694.2625289381067
 30
0.0
 11
-894.5419891411937
 21
694.2625289381067
 31
0.0
  0
MTEXT
  5
10A
330
104
100
AcDbEntity
  8
09-01
 62
     1
440
 16777216
100
AcDbMText
 10
-895.012222950223
 20
705.1092339719798
 30
0.0
 40
12.5
 41
0.0
 46
0.0
 71
     5
 72
     1
  1
5
 73
     1
 44
1.0
  0
LINE
  5
10B
330
104
100
AcDbEntity
  8
09-01
 62
     4
440
 16777216
370
    -2
100
AcDbLine
 10
-924.5419891411936
 20
694.2625289381067
 30
0.0
 11
-919.5419891411937
 21
694.2625289381067
 31
0.0
  0
SOLID
  5
10C
330
104
100
AcDbEntity
  8
09-01
 62
     4
440
 16777216
100
AcDbTrace
 10
-937.0419891411936
 20
696.3458622714401
 30
0.0
 11
-937.0419891411936
 21
692.1791956047733
 31
0.0
 12
-924.5419891411936
 22
694.2625289381067
 32
0.0
 13
-924.5419891411936
 23
694.2625289381067
 33
0.0
  0
SOLID
  5
10D
330
104
100
AcDbEntity
  8
09-01
 62
     4
440
 16777216
100
AcDbTrace
 10
-907.0419891411937
 20
696.3458622714401
 30
0.0
 11
-907.0419891411937
 21
692.1791956047733
 31
0.0
 12
-919.5419891411937
 22
694.2625289381067
 32
0.0
 13
-919.5419891411937
 23
694.2625289381067
 33
0.0
  0
POINT
  5
10E
330
104
100
AcDbEntity
  8
DEFPOINTS
 62
     0
440
 16777216
100
AcDbPoint
 10
-924.5419891411936
 20
680.0573699028586
 30
0.0
  0
POINT
  5
10F
330
104
100
AcDbEntity
  8
DEFPOINTS
 62
     0
440
 16777216
100
AcDbPoint
 10
-919.5419891411937
 20
680.0573699028586
 30
0.0
  0
POINT
  5
110
330
104
100
AcDbEntity
  8
DEFPOINTS
 62
     0
440
 16777216
100
AcDbPoint
 10
-919.5419891411937
 20
694.2625289381067
 30
0.0
  0
ENDBLK
  5
111
330
104
100
AcDbEntity
  8
0
100
AcDbBlockEnd
  0
BLOCK
  5
F7
330
F6
100
AcDbEntity
  8
0
100
AcDbBlockBegin
  2
*D22
 70
     1
 10
0.0
 20
0.0
 30
0.0
  3
*D22
  1

  0
LINE
  5
F8
330
F6
100
AcDbEntity
  8
09-01
 62
     4
440
 16777216
370
    -2
100
AcDbLine
 10
-1206.041989141193
 20
508.5586961970543
 30
0.0
 11
-1228.510000231275
 21
508.5586961970543
 31
0.0
  0
LINE
  5
F9
330
F6
100
AcDbEntity
  8
09-01
 62
     4
440
 16777216
370
    -2
100
AcDbLine
 10
-1206.041989141193
 20
387.5586961970544
 30
0.0
 11
-1228.510000231275
 21
387.5586961970544
 31
0.0
  0
LINE
  5
FA
330
F6
100
AcDbEntity
  8
09-01
 62
     4
440
 16777216
370
    -2
100
AcDbLine
 10
-1223.510000231275
 20
496.0586961970543
 30
0.0
 11
-1223.510000231275
 21
400.0586961970543
 31
0.0
  0
SOLID
  5
FB
330
F6
100
AcDbEntity
  8
09-01
 62
     4
440
 16777216
100
AcDbTrace
 10
-1225.593333564609
 20
496.0586961970543
 30
0.0
 11
-1221.426666897942
 21
496.0586961970543
 31
0.0
 12
-1223.510000231275
 22
508.5586961970543
 32
0.0
 13
-1223.510000231275
 23
508.5586961970543
 33
0.0
  0
SOLID
  5
FC
330
F6
100
AcDbEntity
  8
09-01
 62
     4
440
 16777216
100
AcDbTrace
 10
-1225.593333564609
 20
400.0586961970543
 30
0.0
 11
-1221.426666897942
 21
400.0586961970543
 31
0.0
 12
-1223.510000231275
 22
387.5586961970544
 32
0.0
 13
-1223.510000231275
 23
387.5586961970544
 33
0.0
  0
MTEXT
  5
FD
330
F6
100
AcDbEntity
  8
09-01
 62
     1
440
 16777216
100
AcDbMText
 10
-1234.78558004028
 20
448.0586961970541
 30
0.0
 40
12.5
 41
0.0
 46
0.0
 71
     5
 72
     1
  1
121
 11
0.0000000000000001
 21
1.0
 31
0.0
 73
     1
 44
1.0
  0
POINT
  5
FE
330
F6
100
AcDbEntity
  8
DEFPOINTS
 62
     0
440
 16777216
100
AcDbPoint
 10
-1201.041989141193
 20
508.5586961970543
 30
0.0
  0
POINT
  5
FF
330
F6
100
AcDbEntity
  8
DEFPOINTS
 62
     0
440
 16777216
100
AcDbPoint
 10
-1201.041989141193
 20
387.5586961970544
 30
0.0
  0
POINT
  5
100
330
F6
100
AcDbEntity
  8
DEFPOINTS
 62
     0
440
 16777216
100
AcDbPoint
 10
-1223.510000231275
 20
387.5586961970544
 30
0.0
  0
ENDBLK
  5
101
330
F6
100
AcDbEntity
  8
0
100
AcDbBlockEnd
  0
BLOCK
  5
E3
330
E2
100
AcDbEntity
  8
0
100
AcDbBlockBegin
  2
*D23
 70
     1
 10
0.0
 20
0.0
 30
0.0
  3
*D23
  1

  0
LINE
  5
E4
330
E2
100
AcDbEntity
  8
09-01
 62
     4
440
 16777216
370
    -2
100
AcDbLine
 10
-675.7301040177923
 20
605.5573699028589
 30
0.0
 11
-567.6445694552312
 21
605.557369902859
 31
0.0
  0
LINE
  5
E5
330
E2
100
AcDbEntity
  8
09-01
 62
     4
440
 16777216
370
    -2
100
AcDbLine
 10
-591.8060652527312
 20
621.2370771707043
 30
0.0
 11
-569.3625928270522
 21
625.1944669001378
 31
0.0
  0
ARC
  5
E6
330
E2
100
AcDbEntity
  8
09-01
 62
     4
440
 16777216
370
    -2
100
AcDbCircle
 10
-680.7301040177923
 20
605.5573699028587
 30
0.0
 40
108.085534562561
100
AcDbArc
 50
346.7178633486983
 51
0.0000000000001527
  0
LINE
  5
E7
330
E2
100
AcDbEntity
  8
09-01
 62
     4
440
 16777216
370
    -2
100
AcDbLine
 10
-575.5357981590974
 20
580.7251167513237
 30
0.0
 11
-583.1968817572866
 21
548.2712606183727
 31
0.0
  0
ARC
  5
E8
330
E2
100
AcDbEntity
  8
09-01
 62
     4
440
 16777216
370
    -2
100
AcDbCircle
 10
-680.7301040177923
 20
605.5573699028587
 30
0.0
 40
108.085534562561
100
AcDbArc
 50
346.7401873688765
 51
353.3700936844383
  0
ARC
  5
E9
330
E2
100
AcDbEntity
  8
09-01
 62
     4
440
 16777216
370
    -2
100
AcDbCircle
 10
-680.7301040177923
 20
605.5573699028587
 30
0.0
 40
108.085534562561
100
AcDbArc
 50
16.62990631556169
 51
23.25981263112353
  0
ARC
  5
EA
330
E2
100
AcDbEntity
  8
09-01
 62
     4
440
 16777216
370
    -2
100
AcDbCircle
 10
-680.7301040177923
 20
605.5573699028587
 30
0.0
 40
108.085534562561
100
AcDbArc
 50
0.0000000000001527
 51
9.999999999999849
  0
SOLID
  5
EB
330
E2
100
AcDbEntity
  8
09-01
 62
     4
440
 16777216
100
AcDbTrace
 10
-575.4472240467173
 20
593.1987532724024
 30
0.0
 11
-571.287529215678
 21
592.9578175470801
 31
0.0
 12
-572.6445694552312
 22
605.557369902859
 32
0.0
 13
-572.6445694552312
 23
605.557369902859
 33
0.0
  0
SOLID
  5
EC
330
E2
100
AcDbEntity
  8
09-01
 62
     4
440
 16777216
100
AcDbTrace
 10
-575.1380971490518
 20
636.9700104208766
 30
0.0
 11
-579.1927588191871
 21
636.0104116235411
 31
0.0
 12
-574.2866315921133
 22
624.3262260118032
 32
0.0
 13
-574.2866315921133
 23
624.3262260118032
 33
0.0
  0
MTEXT
  5
ED
330
E2
100
AcDbEntity
  8
09-01
 62
     1
440
 16777216
100
AcDbMText
 10
-568.288644204925
 20
561.8831788415368
 30
0.0
 40
12.5
 41
0.0
 46
0.0
 71
     5
 72
     1
  1
10\U+00B0
 11
-0.2297463138988514
 21
-0.9732505490622084
 31
0.0
 73
     1
 44
1.0
  0
POINT
  5
EE
330
E2
100
AcDbEntity
  8
DEFPOINTS
 62
     0
440
 16777216
100
AcDbPoint
 10
-573.3754051732141
 20
618.1053345850097
 30
0.0
  0
POINT
  5
F0
330
E2
100
AcDbEntity
  8
DEFPOINTS
 62
     0
440
 16777216
100
AcDbPoint
 10
-717.7301040177922
 20
605.5573699028587
 30
0.0
  0
POINT
  5
F1
330
E2
100
AcDbEntity
  8
DEFPOINTS
 62
     0
440
 16777216
100
AcDbPoint
 10
-596.7301040177923
 20
620.3688362823696
 30
0.0
  0
POINT
  5
F2
330
E2
100
AcDbEntity
  8
DEFPOINTS
 62
     0
440
 16777216
100
AcDbPoint
 10
-680.7301040177923
 20
605.5573699028587
 30
0.0
  0
POINT
  5
F3
330
E2
100
AcDbEntity
  8
DEFPOINTS
 62
     0
440
 16777216
100
AcDbPoint
 10
-680.7301040177923
 20
605.5573699028587
 30
0.0
  0
ENDBLK
  5
F4
330
E2
100
AcDbEntity
  8
0
100
AcDbBlockEnd
  0
ENDSEC
  0
SECTION
  2
ENTITIES
  0
INSERT
  5
78
330
2
100
AcDbEntity
  8
03-01
100
AcDbBlockReference
  2
Kolbendruckplatte01_s
 10
-394.61658844916
 20
665.5724037141218
 30
0.0
  0
LINE
  5
89
330
2
100
AcDbEntity
  8
03-01
100
AcDbLine
 10
-339.6562032666749
 20
852.5724049211063
 30
0.0
 11
-398.1543576180591
 21
852.5724049211063
 31
0.0
  0
ARC
  5
8A
330
2
100
AcDbEntity
  8
03-01
100
AcDbCircle
 10
-398.1543620841816
 20
851.5724049211163
 30
0.0
 40
1.0
100
AcDbArc
 50
89.9997441100297
 51
177.9998629061295
  0
ARC
  5
8B
330
2
100
AcDbEntity
  8
03-01
100
AcDbCircle
 10
-399.6552804423669
 20
851.5724047311264
 30
0.0
 40
0.4999999999999858
100
AcDbArc
 50
270.0
 51
358.0000000000746
  0
LINE
  5
8C
330
2
100
AcDbEntity
  8
03-01
100
AcDbLine
 10
-399.1537572883745
 20
851.6073069648815
 30
0.0
 11
-399.1555855917503
 21
851.5549550317842
 31
0.0
  0
ARC
  5
8D
330
2
100
AcDbEntity
  8
03-01
100
AcDbCircle
 10
-339.6561988005524
 20
851.5724049211163
 30
0.0
 40
1.0
100
AcDbArc
 50
2.000137093870496
 51
90.00025588997029
  0
ARC
  5
8E
330
2
100
AcDbEntity
  8
03-01
100
AcDbCircle
 10
-338.1552804423669
 20
851.5724047311264
 30
0.0
 40
0.4999999999999858
100
AcDbArc
 50
181.9999999999254
 51
270.0
  0
LINE
  5
8F
330
2
100
AcDbEntity
  8
03-01
100
AcDbLine
 10
-338.6568035963593
 20
851.6073069648815
 30
0.0
 11
-338.6549752929835
 21
851.5549550317842
 31
0.0
  0
LINE
  5
90
330
2
100
AcDbEntity
  8
03-01
100
AcDbLine
 10
-346.1070919689334
 20
616.5724114627261
 30
0.0
 11
-346.1070919689334
 21
623.5724107474704
 31
0.0
  0
LINE
  5
91
330
2
100
AcDbEntity
  8
03-01
100
AcDbLine
 10
-345.2070916351474
 20
616.5724114627261
 30
0.0
 11
-346.1070919689334
 21
616.5724114627261
 31
0.0
  0
LINE
  5
92
330
2
100
AcDbEntity
  8
03-01
100
AcDbLine
 10
-345.2070916351474
 20
616.5724114627261
 30
0.0
 11
-345.2070916351474
 21
623.5724107474704
 31
0.0
  0
LINE
  5
93
330
2
100
AcDbEntity
  8
03-01
100
AcDbLine
 10
-331.5918633439391
 20
848.5724047870059
 30
0.0
 11
-331.6180447615733
 21
846.5724047870059
 31
0.0
  0
LINE
  5
94
330
2
100
AcDbEntity
  8
03-01
100
AcDbLine
 10
-406.0016817120177
 20
848.5724047870059
 30
0.0
 11
-407.001681725056
 21
849.5724048000443
 31
0.0
  0
LINE
  5
95
330
2
100
AcDbEntity
  8
03-01
100
AcDbLine
 10
-404.0016817120175
 20
846.5724047870059
 30
0.0
 11
-331.6180447615733
 21
846.5724047870059
 31
0.0
  0
LINE
  5
96
330
2
100
AcDbEntity
  8
03-01
100
AcDbLine
 10
-406.0016817120177
 20
848.5724047870059
 30
0.0
 11
-404.0016817120175
 21
846.5724047870059
 31
0.0
  0
LINE
  5
97
330
2
100
AcDbEntity
  8
03-01
100
AcDbLine
 10
-407.001681725056
 20
849.5724048000443
 30
0.0
 11
-408.2016816642679
 21
848.5724047870059
 31
0.0
  0
LINE
  5
98
330
2
100
AcDbEntity
  8
03-01
100
AcDbLine
 10
-407.001681725056
 20
850.0724048000444
 30
0.0
 11
-407.001681725056
 21
849.5724048000443
 31
0.0
  0
LINE
  5
99
330
2
100
AcDbEntity
  8
03-01
100
AcDbLine
 10
-392.6825566050209
 20
669.0724037141222
 30
0.0
 11
-390.4396151309441
 21
669.0724037141222
 31
0.0
  0
ARC
  5
9A
330
2
100
AcDbEntity
  8
03-01
100
AcDbCircle
 10
-407.001681725056
 20
852.6615066532391
 30
0.0
 40
2.589101853194733
100
AcDbArc
 50
217.8622888068002
 51
322.1377111931998
  0
LINE
  5
9B
330
2
100
AcDbEntity
  8
03-01
100
AcDbLine
 10
-407.001681725056
 20
849.5724048000443
 30
0.0
 11
-407.001681725056
 21
850.0724048000444
 31
0.0
  0
ARC
  5
9C
330
2
100
AcDbEntity
  8
03-01
100
AcDbCircle
 10
-330.4546717556569
 20
850.0724047311265
 30
0.0
 40
1.0
100
AcDbArc
 50
1.999909506936968
 51
90.0000247333155
  0
LINE
  5
9D
330
2
100
AcDbEntity
  8
03-01
100
AcDbLine
 10
-346.1070919689334
 20
616.5724114627261
 30
0.0
 11
-346.4070933219589
 21
615.0724009723086
 31
0.0
  0
LINE
  5
9E
330
2
100
AcDbEntity
  8
03-01
100
AcDbLine
 10
-344.9070940074123
 20
615.0724009723086
 30
0.0
 11
-345.2070916351474
 21
616.5724114627261
 31
0.0
  0
LINE
  5
9F
330
2
100
AcDbEntity
  8
03-01
100
AcDbLine
 10
-334.1519468457284
 20
645.8684729785342
 30
0.0
 11
-380.2298886396965
 21
645.8684729785342
 31
0.0
  0
LINE
  5
A0
330
2
100
AcDbEntity
  8
03-01
100
AcDbLine
 10
-334.1061293648687
 20
649.3684729785342
 30
0.0
 11
-377.9460682870608
 21
649.3684729785342
 31
0.0
  0
LINE
  5
A1
330
2
100
AcDbEntity
  8
03-01
100
AcDbLine
 10
-380.2298886396965
 20
645.8684729785342
 30
0.0
 11
-390.4396151309441
 21
669.0724037141222
 31
0.0
  0
LINE
  5
A2
330
2
100
AcDbEntity
  8
03-01
100
AcDbLine
 10
-377.9460682870608
 20
649.3684729785342
 30
0.0
 11
-389.6126295476597
 21
675.8833928096874
 31
0.0
  0
ARC
  5
A3
330
2
100
AcDbEntity
  8
03-01
100
AcDbCircle
 10
-408.8152156945871
 20
842.0724045709389
 30
0.0
 40
0.5
100
AcDbArc
 50
270.0
 51
359.0000005236813
  0
LINE
  5
A4
330
2
100
AcDbEntity
  8
03-01
100
AcDbLine
 10
-423.2001808532898
 20
841.572404570939
 30
0.0
 11
-408.8152156945871
 21
841.572404570939
 31
0.0
  0
LINE
  5
A5
330
2
100
AcDbEntity
  8
03-01
100
AcDbLine
 10
-408.3152918469291
 20
842.0636783722894
 30
0.0
 11
-408.2016816642679
 21
848.5724047870059
 31
0.0
  0
LINE
  5
A6
330
2
100
AcDbEntity
  8
0
100
AcDbLine
 10
-350.4810000118411
 20
615.8987597674746
 30
0.0
 11
-340.8331835922397
 21
615.8987597674746
 31
0.0
  0
ARC
  5
A7
330
2
100
AcDbEntity
  8
03-01
100
AcDbCircle
 10
-428.2406921383709
 20
841.0724047870058
 30
0.0
 40
0.5000000000001137
100
AcDbArc
 50
181.0000000000278
 51
270.0
  0
LINE
  5
A8
330
2
100
AcDbEntity
  8
03-01
100
AcDbLine
 10
-425.2873135308012
 20
840.5724044070263
 30
0.0
 11
-428.2406905945934
 21
840.5724044070263
 31
0.0
  0
LINE
  5
A9
330
2
100
AcDbEntity
  8
03-01
100
AcDbLine
 10
-428.8716802653468
 20
848.5724047870059
 30
0.0
 11
-425.3916817065872
 21
848.5724047870059
 31
0.0
  0
LINE
  5
AA
330
2
100
AcDbEntity
  8
03-01
100
AcDbLine
 10
-428.7406171020664
 20
841.0636784621198
 30
0.0
 11
-428.8716802653468
 21
848.5724047870059
 31
0.0
  0
LINE
  5
AB
330
2
100
AcDbEntity
  8
03-01
100
AcDbLine
 10
-401.0280205216802
 20
623.5724107474704
 30
0.0
 11
-401.6165884491599
 21
668.5331330747027
 31
0.0
  0
ARC
  5
AC
330
2
100
AcDbEntity
  8
03-01
100
AcDbCircle
 10
-398.6168461588003
 20
668.5724047870059
 30
0.0
 40
3.000000000000047
100
AcDbArc
 50
90.0
 51
180.7499999999959
  0
LINE
  5
AD
330
2
100
AcDbEntity
  8
03-01
100
AcDbLine
 10
-398.6168468650974
 20
671.5724037141223
 30
0.0
 11
-391.6563755943033
 21
671.5724037141223
 31
0.0
  0
LINE
  5
AE
330
2
100
AcDbEntity
  8
03-01
100
AcDbLine
 10
-389.6126295476597
 20
675.8833928096874
 30
0.0
 11
-390.0655709005904
 21
710.4836226056796
 31
0.0
  0
LINE
  5
AF
330
2
100
AcDbEntity
  8
03-01
100
AcDbLine
 10
-391.6563755943033
 20
671.5724037141223
 30
0.0
 11
-392.1653909888662
 21
710.4561344832797
 31
0.0
  0
LINE
  5
B0
330
2
100
AcDbEntity
  8
03-01
100
AcDbLine
 10
-331.4918633439392
 20
848.5724047870059
 30
0.0
 11
-334.4369129106045
 21
623.5998988808124
 31
0.0
  0
LINE
  5
B1
330
2
100
AcDbEntity
  8
03-01
100
AcDbLine
 10
-329.391683416657
 20
848.5724047870059
 30
0.0
 11
-332.3370928224719
 21
623.5724107474704
 31
0.0
  0
LINE
  5
B2
330
2
100
AcDbEntity
  8
03-01
100
AcDbLine
 10
-332.3370928224719
 20
623.5724107474704
 30
0.0
 11
-401.02802052168
 21
623.5724107474704
 31
0.0
  0
ARC
  5
B3
330
2
100
AcDbEntity
  8
03-01
100
AcDbCircle
 10
-397.1649629560783
 20
710.390691987137
 30
0.0
 40
7.100000000000038
100
AcDbArc
 50
0.7499999999959117
 51
15.72008221837912
  0
ARC
  5
B4
330
2
100
AcDbEntity
  8
03-01
100
AcDbCircle
 10
-397.1649629560783
 20
710.390691987137
 30
0.0
 40
5.000000000000039
100
AcDbArc
 50
0.7499999999959117
 51
15.72008221837912
  0
LINE
  5
B5
330
2
100
AcDbEntity
  8
03-01
100
AcDbLine
 10
-392.6825566050209
 20
623.5724107474704
 30
0.0
 11
-392.6825566050209
 21
669.0724037141222
 31
0.0
  0
LINE
  5
B6
330
2
100
AcDbEntity
  8
03-01
100
AcDbLine
 10
-394.6825566050208
 20
623.5724107474704
 30
0.0
 11
-394.6825566050208
 21
669.5723996610064
 31
0.0
  0
LINE
  5
B7
330
2
100
AcDbEntity
  8
03-01
100
AcDbLine
 10
-399.0528375943416
 20
671.5405542893282
 30
0.0
 11
-399.7823253975412
 21
623.6028420434214
 31
0.0
  0
LINE
  5
B8
330
2
100
AcDbEntity
  8
03-01
100
AcDbLine
 10
-397.0825562533534
 20
669.5723996610064
 30
0.0
 11
-397.7825569268859
 21
623.5724107474704
 31
0.0
  0
LINE
  5
B9
330
2
100
AcDbEntity
  8
03-01
100
AcDbLine
 10
-394.6825566050208
 20
669.5723996610064
 30
0.0
 11
-397.0825562533534
 21
669.5723996610064
 31
0.0
  0
LINE
  5
BA
330
2
100
AcDbEntity
  8
03-01
100
AcDbLine
 10
-331.172719812075
 20
712.5189320296664
 30
0.0
 11
-392.6405011611049
 21
712.5189320296664
 31
0.0
  0
SPLINE
  5
BB
330
2
100
AcDbEntity
  8
03-01
100
AcDbSpline
210
0.0
220
0.0
230
1.0
 70
     8
 71
     3
 72
    12
 73
     8
 74
     0
 42
0.0000000001
 43
0.0000000001
 40
0.0
 40
0.0
 40
0.0
 40
0.0
 40
0.4970186212892235
 40
0.4970186212892235
 40
0.9135240146987644
 40
0.9135240146987644
 40
1.0
 40
1.0
 40
1.0
 40
1.0
 10
-390.3305253806238
 20
712.3143507477331
 30
0.0
 10
-390.454879622864
 20
712.7561605547745
 30
0.0
 10
-390.6199791547274
 20
713.1781759119199
 30
0.0
 10
-390.9856624783918
 20
713.9069986809892
 30
0.0
 10
-391.1798690166339
 20
714.2280743609868
 30
0.0
 10
-391.4411201851836
 20
714.5922917746176
 30
0.0
 10
-391.4870418563321
 20
714.6541583560266
 30
0.0
 10
-391.5339597632861
 20
714.7152501197985
 30
0.0
  0
SPLINE
  5
BC
330
2
100
AcDbEntity
  8
03-01
100
AcDbSpline
210
0.0
220
0.0
230
1.0
 70
     8
 71
     3
 72
    10
 73
     6
 74
     0
 42
0.0000000001
 43
0.0000000001
 40
0.0
 40
0.0
 40
0.0
 40
0.0
 40
0.5
 40
0.5
 40
1.0
 40
1.0
 40
1.0
 40
1.0
 10
-392.3519787480117
 20
711.7453812551622
 30
0.0
 10
-392.4403944109557
 20
712.059507305718
 30
0.0
 10
-392.5567035512218
 20
712.3562478798954
 30
0.0
 10
-392.8402033703584
 20
712.9197074548097
 30
0.0
 10
-393.0089934429169
 20
713.1881390397908
 30
0.0
 10
-393.1994677498868
 20
713.4361554608423
 30
0.0
  0
ARC
  5
BD
330
2
100
AcDbEntity
  8
03-01
100
AcDbCircle
 10
-397.1649629560783
 20
710.390691987137
 30
0.0
 40
7.100000000000079
100
AcDbArc
 50
37.52392776271737
 51
64.62109967027067
  0
ARC
  5
BE
330
2
100
AcDbEntity
  8
03-01
100
AcDbCircle
 10
-397.1649629560783
 20
710.390691987137
 30
0.0
 40
5.000000000000079
100
AcDbArc
 50
37.52392776271737
 51
64.62109967027067
  0
LINE
  5
BF
330
2
100
AcDbEntity
  8
03-01
100
AcDbLine
 10
-394.1218855047008
 20
716.8054899216123
 30
0.0
 11
-420.1138425499813
 21
729.1356574830548
 31
0.0
  0
LINE
  5
C0
330
2
100
AcDbEntity
  8
03-01
100
AcDbLine
 10
-395.0219510403074
 20
714.9081544131655
 30
0.0
 11
-417.3456283566154
 21
725.4981489033122
 31
0.0
  0
LWPOLYLINE
  5
C1
330
2
100
AcDbEntity
  8
03-01
100
AcDbPolyline
 90
        4
 70
     0
 43
0.0
 10
-417.3456283566154
 20
725.4981489033122
 10
-418.3597008046306
 20
725.9792030901332
 10
-419.3847814854778
 20
726.4654875845332
 10
-420.4158561584152
 20
726.9546107501406
  0
LINE
  5
C2
330
2
100
AcDbEntity
  8
03-01
100
AcDbLine
 10
-330.9760170249152
 20
727.5450692624469
 30
0.0
 11
-421.566217304185
 21
727.5450692624469
 31
0.0
  0
LINE
  5
C3
330
2
100
AcDbEntity
  8
03-01
100
AcDbLine
 10
-420.4158561584152
 20
726.9546107501406
 30
0.0
 11
-421.0102523025669
 21
727.2365854234118
 31
0.0
  0
ARC
  5
C4
330
2
100
AcDbEntity
  8
03-01
100
AcDbCircle
 10
-418.8672412179236
 20
731.7540510972604
 30
0.0
 40
2.900000000000078
100
AcDbArc
 50
180.7474394900075
 51
244.6210996702734
  0
ARC
  5
C5
330
2
100
AcDbEntity
  8
03-01
100
AcDbCircle
 10
-418.8672412179236
 20
731.7540510972604
 30
0.0
 40
5.000000000000079
100
AcDbArc
 50
180.7474394900075
 51
244.6210996702734
  0
LINE
  5
C6
330
2
100
AcDbEntity
  8
03-01
100
AcDbLine
 10
-421.7669947650964
 20
731.7162231844196
 30
0.0
 11
-423.2915030055838
 21
848.5724047870059
 31
0.0
  0
LINE
  5
C7
330
2
100
AcDbEntity
  8
03-01
100
AcDbLine
 10
-423.8668160792983
 20
731.6888288707156
 30
0.0
 11
-425.3916817065872
 21
848.5724047870059
 31
0.0
  0
LINE
  5
C8
330
2
100
AcDbEntity
  8
03-01
100
AcDbLine
 10
-425.3916817065872
 20
848.5724047870059
 30
0.0
 11
-329.3916808721221
 21
848.5724047870059
 31
0.0
  0
LINE
  5
C9
330
2
100
AcDbEntity
  8
03-01
100
AcDbLine
 10
-426.9912058767475
 20
837.7166723013539
 30
0.0
 11
-426.9912058767475
 21
840.5724044070263
 31
0.0
  0
ARC
  5
CA
330
2
100
AcDbEntity
  8
03-01
100
AcDbCircle
 10
-426.691205058507
 20
837.7166724076543
 30
0.0
 40
0.3000000000000114
100
AcDbArc
 50
180.0
 51
268.0000000000094
  0
LINE
  5
CB
330
2
100
AcDbEntity
  8
03-01
100
AcDbLine
 10
-426.701676314751
 20
837.4168553501982
 30
0.0
 11
-425.2454827663046
 21
837.3660042822121
 31
0.0
  0
SPLINE
  5
CC
330
2
100
AcDbEntity
  8
03-01
100
AcDbSpline
210
0.0
220
0.0
230
1.0
 70
    24
 71
     3
 72
     8
 73
     4
 74
     0
 42
0.0000000001
 43
0.0000000001
 40
0.0
 40
0.0
 40
0.0
 40
0.0
 40
0.4052512809765209
 40
0.4052512809765209
 40
0.4052512809765209
 40
0.4052512809765209
 10
-330.8716902789272
 20
851.0724047311265
 30
0.0
 10
-330.7186469339287
 20
851.0724047311265
 30
0.0
 10
-330.5656035889305
 20
851.0724047311265
 30
0.0
 10
-330.4546721873347
 20
851.0724047311265
 30
0.0
  0
SPLINE
  5
CD
330
2
100
AcDbEntity
  8
03-01
100
AcDbSpline
210
0.0
220
0.0
230
1.0
 70
    24
 71
     3
 72
     9
 73
     5
 74
     0
 42
0.0000000001
 43
0.0000000001
 40
0.0
 40
0.0
 40
0.0
 40
0.0
 40
0.5000826474199004
 40
1.0
 40
1.0
 40
1.0
 40
1.0
 10
-332.4618788715995
 20
851.0724047311265
 30
0.0
 10
-332.1640524461133
 20
851.0724047311265
 30
0.0
 10
-331.5684980372115
 20
851.0724047311265
 30
0.0
 10
-331.1039339350057
 20
851.0724047311265
 30
0.0
 10
-330.8716902789272
 20
851.0724047311265
 30
0.0
  0
LINE
  5
CE
330
2
100
AcDbEntity
  8
03-01
100
AcDbLine
 10
-404.9576162937759
 20
851.0724047311265
 30
0.0
 11
-332.4618788715995
 21
851.0724047311265
 31
0.0
  0
LINE
  5
CF
330
2
100
AcDbEntity
  8
03-01
100
AcDbLine
 10
-409.0457471563362
 20
851.0724047311265
 30
0.0
 11
-425.948690229256
 21
851.0724047311265
 31
0.0
  0
LINE
  5
D0
330
2
100
AcDbEntity
  8
03-01
100
AcDbLine
 10
-329.455280442367
 20
850.1073026644444
 30
0.0
 11
-329.4016830314212
 21
848.5724047870059
 31
0.0
  0
ARC
  5
D1
330
2
100
AcDbEntity
  8
03-01
100
AcDbCircle
 10
-425.948690229256
 20
850.0724047311265
 30
0.0
 40
1.0
100
AcDbArc
 50
90.0
 51
177.9999452137743
  0
LINE
  5
D2
330
2
100
AcDbEntity
  8
03-01
100
AcDbLine
 10
-426.9480810229037
 20
850.1073051834465
 30
0.0
 11
-427.0016823953024
 21
848.5724047870059
 31
0.0
  0
LINE
  5
D3
330
2
100
AcDbEntity
  8
0
100
AcDbLine
 10
-341.8179938849605
 20
615.0724009723086
 30
0.0
 11
-349.4961915817655
 21
615.0724009723086
 31
0.0
  0
SPLINE
  5
D4
330
2
100
AcDbEntity
  8
03-01
100
AcDbSpline
210
0.0
220
0.0
230
1.0
 70
     8
 71
     3
 72
    17
 73
    13
 74
     0
 42
0.0000000001
 43
0.0000000001
 40
0.0
 40
0.0
 40
0.0
 40
0.0
 40
0.0600543499638597
 40
0.1648234495280559
 40
0.2723661016691685
 40
0.3832407533501493
 40
0.4895330601902239
 40
0.5863420781005051
 40
0.6814648365672097
 40
0.7837911670314727
 40
0.8936449548470841
 40
1.0
 40
1.0
 40
1.0
 40
1.0
 10
-340.4087649938262
 20
618.7495456189532
 30
0.0
 10
-340.3982381144952
 20
618.7457228726477
 30
0.0
 10
-340.3693463428731
 20
618.7352310725843
 30
0.0
 10
-340.96264827638
 20
618.9517168615435
 30
0.0
 10
-342.0719679226201
 20
619.2940573365887
 30
0.0
 10
-343.6411076507692
 20
619.6347487625717
 30
0.0
 10
-345.4209877725975
 20
619.7876673561355
 30
0.0
 10
-347.1354149537682
 20
619.6992366863479
 30
0.0
 10
-348.6548324966595
 20
619.4374937057842
 30
0.0
 10
-349.9123015320941
 20
619.0974555710191
 30
0.0
 10
-350.8073354887167
 20
618.7877128102351
 30
0.0
 10
-350.916135809456
 20
618.7461891988915
 30
0.0
 10
-350.9696556535161
 20
618.7257633656878
 30
0.0
  0
ARC
  5
D5
330
2
100
AcDbEntity
  8
0
100
AcDbCircle
 10
-341.8179929981774
 20
616.0724047870059
 30
0.0
 40
1.000000000000002
100
AcDbArc
 50
270.0
 51
349.9999999999949
  0
ARC
  5
D6
330
2
100
AcDbEntity
  8
0
100
AcDbCircle
 10
-349.496192260532
 20
616.0724047870059
 30
0.0
 40
1.000000000000002
100
AcDbArc
 50
190.0000000000051
 51
270.0
  0
LINE
  5
D7
330
2
100
AcDbEntity
  8
03-01
100
AcDbLine
 10
-340.4192236091664
 20
618.2464471317356
 30
0.0
 11
-340.332873379866
 21
618.7361643762011
 31
0.0
  0
LINE
  5
D8
330
2
100
AcDbEntity
  8
0
100
AcDbLine
 10
-340.8331835922397
 20
615.8987597674746
 30
0.0
 11
-340.4192236091664
 21
618.2464471317356
 31
0.0
  0
LINE
  5
D9
330
2
100
AcDbEntity
  8
0
100
AcDbLine
 10
-350.5790788071341
 20
616.4549905402427
 30
0.0
 11
-350.4810000118411
 21
615.8987597674746
 31
0.0
  0
LINE
  5
DA
330
2
100
AcDbEntity
  8
03-01
100
AcDbLine
 10
-350.9791737702287
 20
618.7240348309893
 30
0.0
 11
-350.5790788071341
 21
616.4549905402427
 31
0.0
  0
ARC
  5
DB
330
2
100
AcDbEntity
  8
03-01
100
AcDbCircle
 10
-352.0871206474336
 20
619.7224106044192
 30
0.0
 40
1.0
100
AcDbArc
 50
181.0000015651618
 51
270.0
  0
LINE
  5
DC
330
2
100
AcDbEntity
  8
03-01
100
AcDbLine
 10
-353.154475083629
 20
623.5724107474704
 30
0.0
 11
-353.0869683421132
 21
619.7049581706688
 31
0.0
  0
ARC
  5
DD
330
2
100
AcDbEntity
  8
03-01
100
AcDbCircle
 10
-339.2270648192924
 20
619.7224106044192
 30
0.0
 40
1.0
100
AcDbArc
 50
270.0
 51
358.9999984348382
  0
LINE
  5
DE
330
2
100
AcDbEntity
  8
03-01
100
AcDbLine
 10
-338.2272171246128
 20
619.7049581706688
 30
0.0
 11
-338.159710383097
 21
623.5724107474704
 31
0.0
  0
LINE
  5
DF
330
2
100
AcDbEntity
  8
03-01
100
AcDbLine
 10
-352.0871206474336
 20
618.7224106044192
 30
0.0
 11
-350.9696556535161
 21
618.7224106044192
 31
0.0
  0
LINE
  5
E0
330
2
100
AcDbEntity
  8
03-01
100
AcDbLine
 10
-340.4087649938262
 20
618.7224106044192
 30
0.0
 11
-339.2270648192924
 21
618.7224106044192
 31
0.0
  0
DIMENSION
  5
E1
330
2
100
AcDbEntity
  8
09-01
100
AcDbDimension
280
     0
  2
*D23
 10
-680.7301040177922
 20
605.5573699028586
 30
0.0
 11
-568.288644204925
 21
561.8831788415368
 31
0.0
 70
     2
 71
     5
 42
0.1745329251994276
 73
     0
 74
     0
 75
     0
  3
Wagner
100
AcDb2LineAngularDimension
 13
-596.7301040177922
 23
620.3688362823696
 33
0.0
 14
-680.7301040177922
 24
605.5573699028586
 34
0.0
 15
-717.7301040177922
 25
605.5573699028586
 35
0.0
 16
-573.3754051732141
 26
618.1053345850097
 36
0.0
1001
ACAD
1000
DSTYLE
1002
{
1070
    40
1040
5.0
1002
}
  0
DIMENSION
  5
F5
330
2
100
AcDbEntity
  8
09-01
100
AcDbDimension
280
     0
  2
*D22
 10
-1223.510000231275
 20
387.5586961970544
 30
0.0
 11
-1234.78558004028
 21
448.0586961970541
 31
0.0
 71
     5
 42
121.0
 73
     0
 74
     0
 75
     0
  3
Wagner$0
100
AcDbAlignedDimension
 13
-1201.041989141193
 23
508.5586961970543
 33
0.0
 14
-1201.041989141193
 24
387.5586961970544
 34
0.0
 50
90.0
100
AcDbRotatedDimension
1001
ACAD
1000
DSTYLE
1002
{
1070
    40
1040
5.0
1002
}
  0
DIMENSION
  5
103
330
2
100
AcDbEntity
  8
09-01
100
AcDbDimension
280
     0
  2
*D21
 10
-919.5419891411937
 20
694.2625289381067
 30
0.0
 11
-895.012222950223
 21
705.1092339719798
 31
0.0
 70
   128
 71
     5
 42
5.0
 73
     0
 74
     0
 75
     0
  3
Wagner$0
100
AcDbAlignedDimension
 13
-924.5419891411936
 23
680.0573699028586
 33
0.0
 14
-919.5419891411937
 24
680.0573699028586
 34
0.0
100
AcDbRotatedDimension
1001
ACAD
1000
DSTYLE
1002
{
1070
    40
1040
5.0
1002
}
  0
DIMENSION
  5
112
330
2
100
AcDbEntity
  8
09-01
100
AcDbDimension
280
     0
  2
*D20
 10
-915.7919891411935
 20
840.482835257826
 30
0.0
 11
-956.4982023381672
 21
852.2459337532673
 31
0.0
 70
   128
 71
     5
 42
12.5
 73
     0
 74
     0
 75
     0
  3
Wagner$0
100
AcDbAlignedDimension
 13
-928.2919891411935
 23
873.0573699028587
 33
0.0
 14
-915.7919891411935
 24
873.0573699028587
 34
0.0
100
AcDbRotatedDimension
1001
ACAD
1000
DSTYLE
1002
{
1070
    40
1040
5.0
1002
}
  0
DIMENSION
  5
121
330
2
100
AcDbEntity
  8
09-01
100
AcDbDimension
280
     0
  2
*D19
 10
-875.211952769394
 20
873.0573699028587
 30
0.0
 11
-887.4157757891589
 21
901.2589114832953
 31
0.0
 70
   128
 71
     5
 42
12.0
 73
     0
 74
     0
 75
     0
  3
Wagner$0
100
AcDbAlignedDimension
 13
-918.5419891411937
 23
885.0573699028586
 33
0.0
 14
-914.7919891411936
 24
873.0573699028587
 34
0.0
 50
90.0
100
AcDbRotatedDimension
1001
ACAD
1000
DSTYLE
1002
{
1070
    40
1040
5.0
1002
}
  0
DIMENSION
  5
130
330
2
100
AcDbEntity
  8
09-01
100
AcDbDimension
280
     0
  2
*D18
 10
-1225.704879810015
 20
605.5573699028591
 30
0.0
 11
-1237.061462347532
 21
642.8073699028585
 31
0.0
 71
     5
 42
74.49999999999909
 73
     0
 74
     0
 75
     0
  3
Wagner$0
100
AcDbAlignedDimension
 13
-1184.541989141193
 23
680.0573699028582
 33
0.0
 14
-1201.041989141193
 24
605.5573699028591
 34
0.0
 50
90.0
100
AcDbRotatedDimension
1001
ACAD
1000
DSTYLE
1002
{
1070
    40
1040
5.0
1002
}
  0
DIMENSION
  5
13D
330
2
100
AcDbEntity
  8
09-01
100
AcDbDimension
280
     0
  2
*D17
 10
-1225.704879810015
 20
680.0573699028582
 30
0.0
 11
-1237.087042156536
 21
782.5573699028581
 31
0.0
 71
     5
 42
205.0
 73
     0
 74
     0
 75
     0
  3
Wagner$0
100
AcDbAlignedDimension
 13
-1185.541989141193
 23
885.0573699028583
 33
0.0
 14
-1185.541989141193
 24
680.0573699028582
 34
0.0
 50
90.0
100
AcDbRotatedDimension
1001
ACAD
1000
DSTYLE
1002
{
1070
    40
1040
5.0
1002
}
  0
DIMENSION
  5
14A
330
2
100
AcDbEntity
  8
09-01
100
AcDbDimension
280
     0
  2
*D16
 10
-1225.704879810015
 20
885.0573699028583
 30
0.0
 11
-1236.661040075334
 21
930.7189211021213
 31
0.0
 70
   128
 71
     5
 42
18.5
 73
     0
 74
     0
 75
     0
  3
Wagner$0
100
AcDbAlignedDimension
 13
-1201.041989141193
 23
903.5573699028581
 33
0.0
 14
-1185.541989141193
 24
885.0573699028583
 34
0.0
 50
90.0
100
AcDbRotatedDimension
1001
ACAD
1000
DSTYLE
1002
{
1070
    40
1040
5.0
1002
}
  0
DIMENSION
  5
159
330
2
100
AcDbEntity
  8
09-01
100
AcDbDimension
280
     0
  2
*D15
 10
-903.0419891411934
 20
920.2655717333874
 30
0.0
 11
-912.5419891411935
 21
931.6477340799083
 31
0.0
 71
     5
 42
19.00000000000023
 73
     0
 74
     0
 75
     0
  3
Wagner$0
100
AcDbAlignedDimension
 13
-922.0419891411935
 23
888.5573699028586
 33
0.0
 14
-903.0419891411934
 24
903.5573699028587
 34
0.0
100
AcDbRotatedDimension
1001
ACAD
1000
DSTYLE
1002
{
1070
    40
1040
5.0
1002
}
  0
DIMENSION
  5
168
330
2
100
AcDbEntity
  8
09-01
100
AcDbDimension
280
     0
  2
*D14
 10
-922.0419891411935
 20
920.2655717333874
 30
0.0
 11
-1052.041989141193
 21
931.6477340799083
 31
0.0
 71
     5
 42
259.9999999999996
 73
     0
 74
     0
 75
     0
  3
Wagner$0
100
AcDbAlignedDimension
 13
-1182.041989141193
 23
888.5573699028581
 33
0.0
 14
-922.0419891411935
 24
888.5573699028586
 34
0.0
100
AcDbRotatedDimension
1001
ACAD
1000
DSTYLE
1002
{
1070
    40
1040
5.0
1002
}
  0
DIMENSION
  5
175
330
2
100
AcDbEntity
  8
09-01
100
AcDbDimension
280
     0
  2
*D13
 10
-1182.041989141193
 20
920.2655717333874
 30
0.0
 11
-1191.541989141193
 21
931.6477340799083
 31
0.0
 71
     5
 42
19.00000000000023
 73
     0
 74
     0
 75
     0
  3
Wagner$0
100
AcDbAlignedDimension
 13
-1201.041989141193
 23
903.5573699028581
 33
0.0
 14
-1182.041989141193
 24
888.5573699028581
 34
0.0
100
AcDbRotatedDimension
1001
ACAD
1000
DSTYLE
1002
{
1070
    40
1040
5.0
1002
}
  0
INSERT
  5
184
330
2
100
AcDbEntity
  8
03-01
100
AcDbBlockReference
  2
Desipumpe_937045_V
 10
-1052.670145385784
 20
623.5602239115974
 30
0.0
  0
ELLIPSE
  5
1C6
330
2
100
AcDbEntity
  8
09-01
100
AcDbEllipse
 10
-1142.670146317106
 20
617.2807754435494
 30
0.0
 11
-7.5
 21
0.0
 31
0.0
210
0.0
220
0.0
230
1.0
 40
0.173648177666928
 41
0.0
 42
6.283185307179586
  0
ELLIPSE
  5
1C7
330
2
100
AcDbEntity
  8
09-01
100
AcDbEllipse
 10
-1052.670146317106
 20
617.2807754435494
 30
0.0
 11
-7.5
 21
0.0
 31
0.0
210
0.0
220
0.0
230
1.0
 40
0.173648177666928
 41
0.0
 42
6.283185307179586
  0
LINE
  5
1C8
330
2
100
AcDbEntity
  8
09-01
100
AcDbLine
 10
-972.1919891411667
 20
605.5573699028591
 30
0.0
 11
-972.1919891411667
 21
607.9904607260182
 31
0.0
  0
LINE
  5
1C9
330
2
100
AcDbEntity
  8
09-01
100
AcDbLine
 10
-954.1919891411666
 20
605.5573699028591
 30
0.0
 11
-954.1919891411666
 21
607.9904607260182
 31
0.0
  0
LINE
  5
1CA
330
2
100
AcDbEntity
  8
09-01
100
AcDbLine
 10
-954.1919891411666
 20
607.9904607260182
 30
0.0
 11
-972.1919891411667
 21
607.9904607260182
 31
0.0
  0
LINE
  5
1CB
330
2
100
AcDbEntity
  8
09-01
100
AcDbLine
 10
-1062.191989141166
 20
605.5573699028591
 30
0.0
 11
-1062.191989141166
 21
607.9904607260182
 31
0.0
  0
LINE
  5
1CC
330
2
100
AcDbEntity
  8
09-01
100
AcDbLine
 10
-1044.191989141166
 20
605.5573699028591
 30
0.0
 11
-1044.191989141166
 21
607.9904607260182
 31
0.0
  0
LINE
  5
1CD
330
2
100
AcDbEntity
  8
09-01
100
AcDbLine
 10
-1044.191989141166
 20
607.9904607260182
 30
0.0
 11
-1062.191989141166
 21
607.9904607260182
 31
0.0
  0
ELLIPSE
  5
1CE
330
2
100
AcDbEntity
  8
09-01
100
AcDbEllipse
 10
-962.6701463171066
 20
617.2807754435498
 30
0.0
 11
-7.5
 21
0.0
 31
0.0
210
0.0
220
0.0
230
1.0
 40
0.173648177666928
 41
0.0
 42
6.283185307179586
  0
LINE
  5
1CF
330
2
100
AcDbEntity
  8
09-01
100
AcDbLine
 10
-1152.191989141166
 20
605.5573699028591
 30
0.0
 11
-1152.191989141166
 21
607.9904607260182
 31
0.0
  0
LINE
  5
1D0
330
2
100
AcDbEntity
  8
09-01
100
AcDbLine
 10
-1134.191989141166
 20
605.5573699028591
 30
0.0
 11
-1134.191989141166
 21
607.9904607260182
 31
0.0
  0
LINE
  5
1D1
330
2
100
AcDbEntity
  8
09-01
100
AcDbLine
 10
-1134.191989141166
 20
607.9904607260182
 30
0.0
 11
-1152.191989141166
 21
607.9904607260182
 31
0.0
  0
DIMENSION
  5
1D2
330
2
100
AcDbEntity
  8
09-01
100
AcDbDimension
280
     0
  2
*D10
 10
-717.7301040177922
 20
580.1254728416047
 30
0.0
 11
-699.2301040177921
 21
591.5118984896265
 31
0.0
 71
     5
 42
37.0
 73
     0
 74
     0
 75
     0
  3
Wagner$0
100
AcDbAlignedDimension
 13
-680.7301040177922
 23
605.5573699028586
 33
0.0
 14
-717.7301040177922
 24
605.5573699028586
 34
0.0
100
AcDbRotatedDimension
1001
ACAD
1000
DSTYLE
1002
{
1070
    40
1040
5.0
1002
}
  0
LINE
  5
1DF
330
2
100
AcDbEntity
  8
09-01
100
AcDbLine
 10
-449.3825566050222
 20
605.5573699028586
 30
0.0
 11
-412.3825566050222
 21
605.5573699028586
 31
0.0
  0
LINE
  5
1E0
330
2
100
AcDbEntity
  8
09-01
100
AcDbLine
 10
-328.3825566050223
 20
620.3688362823696
 30
0.0
 11
-412.3825566050222
 21
605.5573699028586
 31
0.0
  0
LINE
  5
1E1
330
2
100
AcDbEntity
  8
09-01
100
AcDbLine
 10
-328.3825566050223
 20
903.5573699028587
 30
0.0
 11
-328.3825566050223
 21
620.3688362823696
 31
0.0
  0
LINE
  5
1E2
330
2
100
AcDbEntity
  8
09-01
100
AcDbLine
 10
-449.3825566050222
 20
903.5573699028581
 30
0.0
 11
-328.3825566050223
 21
903.5573699028587
 31
0.0
  0
DIMENSION
  5
1E3
330
2
100
AcDbEntity
  8
09-01
100
AcDbDimension
280
     0
  2
*D7
 10
-903.0419891411934
 20
348.4864629007375
 30
0.0
 11
-1052.041989141193
 21
359.8686252472587
 31
0.0
 71
     5
 42
298.0
 73
     0
 74
     0
 75
     0
  3
Wagner$0
100
AcDbAlignedDimension
 13
-1201.041989141193
 23
387.5586961970544
 33
0.0
 14
-903.0419891411934
 24
387.5586961970544
 34
0.0
100
AcDbRotatedDimension
1001
ACAD
1000
DSTYLE
1002
{
1070
    40
1040
5.0
1002
}
  0
INSERT
  5
1F0
330
2
100
AcDbEntity
  8
03-01
100
AcDbBlockReference
  2
Seifenflasche01-v
 10
-641.5840406663542
 20
695.5602168149198
 30
0.0
  0
LINE
  5
211
330
2
100
AcDbEntity
  8
09-01
100
AcDbLine
 10
-717.7301040177922
 20
605.5573699028586
 30
0.0
 11
-680.7301040177922
 21
605.5573699028586
 31
0.0
  0
LINE
  5
212
330
2
100
AcDbEntity
  8
09-01
100
AcDbLine
 10
-596.7301040177922
 20
620.3688362823696
 30
0.0
 11
-680.7301040177922
 21
605.5573699028586
 31
0.0
  0
LINE
  5
213
330
2
100
AcDbEntity
  8
0
100
AcDbLine
 10
-677.7301040177921
 20
903.5573699028622
 30
0.0
 11
-677.7301040177921
 21
905.3573699028623
 31
0.0
  0
LINE
  5
214
330
2
100
AcDbEntity
  8
0
100
AcDbLine
 10
-694.7301040177921
 20
905.3573699028623
 30
0.0
 11
-694.7301040177921
 21
903.5573699028622
 31
0.0
  0
LINE
  5
215
330
2
100
AcDbEntity
  8
0
100
AcDbLine
 10
-677.7301040177921
 20
905.3573699028623
 30
0.0
 11
-694.7301040177921
 21
905.3573699028623
 31
0.0
  0
LINE
  5
216
330
2
100
AcDbEntity
  8
0
100
AcDbLine
 10
-678.9801040177922
 20
906.8573699028622
 30
0.0
 11
-677.7301040177921
 21
905.3573699028623
 31
0.0
  0
LINE
  5
217
330
2
100
AcDbEntity
  8
0
100
AcDbLine
 10
-693.4801040177922
 20
906.8573699028624
 30
0.0
 11
-694.7301040177921
 21
905.3573699028623
 31
0.0
  0
LINE
  5
218
330
2
100
AcDbEntity
  8
0
100
AcDbLine
 10
-693.4801040177922
 20
906.8573699028624
 30
0.0
 11
-678.9801040177922
 21
906.8573699028622
 31
0.0
  0
LINE
  5
219
330
2
100
AcDbEntity
  8
09-01
100
AcDbLine
 10
-717.7301040177922
 20
903.5573699028581
 30
0.0
 11
-717.7301040177922
 21
605.5573699028586
 31
0.0
  0
LINE
  5
21A
330
2
100
AcDbEntity
  8
09-01
100
AcDbLine
 10
-596.7301040177922
 20
903.5573699028587
 30
0.0
 11
-596.7301040177922
 21
620.3688362823696
 31
0.0
  0
LINE
  5
21B
330
2
100
AcDbEntity
  8
09-01
100
AcDbLine
 10
-717.7301040177922
 20
903.5573699028581
 30
0.0
 11
-596.7301040177922
 21
903.5573699028587
 31
0.0
  0
INSERT
  5
21C
330
2
100
AcDbEntity
  8
05-01
100
AcDbBlockReference
  2
Sensor-Betätigungsmodul
 10
-443.6825566050206
 20
714.5602128810128
 30
0.0
  0
INSERT
  5
268
330
2
100
AcDbEntity
  8
05-01
100
AcDbBlockReference
  2
e-modul vorderansicht
 10
-1195.389424469798
 20
830.2207720294731
 30
0.0
  0
INSERT
  5
28D
330
2
100
AcDbEntity
  8
03-01
100
AcDbBlockReference
  2
Seifenflasche01-s
 10
-962.6701463171066
 20
695.5602168149193
 30
0.0
 41
-1.0
  0
INSERT
  5
2AA
330
2
100
AcDbEntity
  8
03-01
100
AcDbBlockReference
  2
pumpe vorderansicht
 10
-962.6701463171066
 20
689.5602199143618
 30
0.0
  0
INSERT
  5
2DE
330
2
100
AcDbEntity
  8
03-01
100
AcDbBlockReference
  2
e-modul vorderansicht
 10
-1105.389424469798
 20
830.2207720294731
 30
0.0
  0
INSERT
  5
2DF
330
2
100
AcDbEntity
  8
03-01
100
AcDbBlockReference
  2
Seifenflasche01-s
 10
-1142.670146317106
 20
695.5602168149193
 30
0.0
 41
-1.0
  0
INSERT
  5
2E0
330
2
100
AcDbEntity
  8
05-01
100
AcDbBlockReference
  2
Sensor-Betätigungsmodul
 10
-712.0301040177905
 20
714.5602128810128
 30
0.0
  0
INSERT
  5
2E1
330
2
100
AcDbEntity
  8
05-01
100
AcDbBlockReference
  2
Pumpe_Sensor01_s
 10
-284.6006495335418
 20
335.2674281202758
 30
0.0
  0
INSERT
  5
315
330
2
100
AcDbEntity
  8
03-01
100
AcDbBlockReference
  2
pumpe vorderansicht
 10
-1142.670146317106
 20
689.5602199143618
 30
0.0
  0
INSERT
  5
316
330
2
100
AcDbEntity
  8
03-01
100
AcDbBlockReference
  2
e-modul vorderansicht
 10
-1285.389424469798
 20
830.2207720294731
 30
0.0
  0
CIRCLE
  5
317
330
2
100
AcDbEntity
  8
03-01
100
AcDbCircle
 10
-962.0419891411675
 20
640.2737667317365
 30
0.0
 40
1.55
  0
LINE
  5
318
330
2
100
AcDbEntity
  8
05-01
100
AcDbLine
 10
-962.0419891411675
 20
636.1737667317361
 30
0.0
 11
-962.0419891411675
 21
644.3737667317368
 31
0.0
  0
LINE
  5
319
330
2
100
AcDbEntity
  8
05-01
100
AcDbLine
 10
-966.1419891411673
 20
640.2737667317382
 30
0.0
 11
-957.9419891411676
 21
640.2737667317474
 31
0.0
  0
CIRCLE
  5
31A
330
2
100
AcDbEntity
  8
03-01
100
AcDbCircle
 10
-1052.04198891765
 20
640.2737667317428
 30
0.0
 40
1.55
  0
LINE
  5
31B
330
2
100
AcDbEntity
  8
05-01
100
AcDbLine
 10
-1052.04198891765
 20
636.1737667317425
 30
0.0
 11
-1052.04198891765
 21
644.3737667317432
 31
0.0
  0
LINE
  5
31C
330
2
100
AcDbEntity
  8
05-01
100
AcDbLine
 10
-1056.14198891765
 20
640.2737667317446
 30
0.0
 11
-1047.94198891765
 21
640.2737667317538
 31
0.0
  0
CIRCLE
  5
31D
330
2
100
AcDbEntity
  8
03-01
100
AcDbCircle
 10
-1142.041989141167
 20
640.2737667317365
 30
0.0
 40
1.55
  0
LINE
  5
31E
330
2
100
AcDbEntity
  8
05-01
100
AcDbLine
 10
-1142.041989141167
 20
636.1737667317361
 30
0.0
 11
-1142.041989141167
 21
644.3737667317368
 31
0.0
  0
LINE
  5
31F
330
2
100
AcDbEntity
  8
05-01
100
AcDbLine
 10
-1146.141989141167
 20
640.2737667317382
 30
0.0
 11
-1137.941989141167
 21
640.2737667317474
 31
0.0
  0
CIRCLE
  5
320
330
2
100
AcDbEntity
  8
03-01
100
AcDbCircle
 10
-952.0419891411998
 20
657.5942748074408
 30
0.0
 40
1.55
  0
CIRCLE
  5
321
330
2
100
AcDbEntity
  8
03-01
100
AcDbCircle
 10
-972.0419891411998
 20
657.5942748074167
 30
0.0
 40
1.55
  0
CIRCLE
  5
322
330
2
100
AcDbEntity
  8
03-01
100
AcDbCircle
 10
-1042.0419891412
 20
657.5942748074408
 30
0.0
 40
1.55
  0
CIRCLE
  5
323
330
2
100
AcDbEntity
  8
03-01
100
AcDbCircle
 10
-1062.041988917682
 20
657.594274807423
 30
0.0
 40
1.55
  0
CIRCLE
  5
324
330
2
100
AcDbEntity
  8
03-01
100
AcDbCircle
 10
-1132.0419891412
 20
657.5942748074408
 30
0.0
 40
1.55
  0
CIRCLE
  5
325
330
2
100
AcDbEntity
  8
03-01
100
AcDbCircle
 10
-1153.3419891412
 20
657.594274807423
 30
0.0
 40
1.55
  0
LINE
  5
326
330
2
100
AcDbEntity
  8
05-01
100
AcDbLine
 10
-1153.341989141193
 20
653.4942748074167
 30
0.0
 11
-1153.341989141193
 21
661.6942748074166
 31
0.0
  0
LINE
  5
327
330
2
100
AcDbEntity
  8
05-01
100
AcDbLine
 10
-1132.041989141193
 20
653.4942748074408
 30
0.0
 11
-1132.041989141193
 21
661.6942748074407
 31
0.0
  0
LINE
  5
328
330
2
100
AcDbEntity
  8
05-01
100
AcDbLine
 10
-1136.141989141193
 20
657.5942748074417
 30
0.0
 11
-1127.941989141193
 21
657.5942748074508
 31
0.0
  0
LINE
  5
329
330
2
100
AcDbEntity
  8
05-01
100
AcDbLine
 10
-1157.441989141193
 20
657.594274807418
 30
0.0
 11
-1149.241989141193
 21
657.5942748074281
 31
0.0
  0
LINE
  5
32A
330
2
100
AcDbEntity
  8
05-01
100
AcDbLine
 10
-1062.041989141193
 20
653.4942748074167
 30
0.0
 11
-1062.041989141193
 21
661.6942748074166
 31
0.0
  0
LINE
  5
32B
330
2
100
AcDbEntity
  8
05-01
100
AcDbLine
 10
-1042.041989141193
 20
653.4942748074408
 30
0.0
 11
-1042.041989141193
 21
661.6942748074407
 31
0.0
  0
LINE
  5
32C
330
2
100
AcDbEntity
  8
05-01
100
AcDbLine
 10
-1046.141989141193
 20
657.5942748074417
 30
0.0
 11
-1037.941989141193
 21
657.5942748074508
 31
0.0
  0
LINE
  5
32D
330
2
100
AcDbEntity
  8
05-01
100
AcDbLine
 10
-1066.141989141193
 20
657.594274807418
 30
0.0
 11
-1057.941989141193
 21
657.5942748074281
 31
0.0
  0
LINE
  5
32E
330
2
100
AcDbEntity
  8
05-01
100
AcDbLine
 10
-972.0419891411934
 20
653.4942748074167
 30
0.0
 11
-972.0419891411934
 21
661.6942748074166
 31
0.0
  0
LINE
  5
32F
330
2
100
AcDbEntity
  8
05-01
100
AcDbLine
 10
-952.0419891411934
 20
653.4942748074408
 30
0.0
 11
-952.0419891411934
 21
661.6942748074407
 31
0.0
  0
LINE
  5
330
330
2
100
AcDbEntity
  8
05-01
100
AcDbLine
 10
-956.1419891411933
 20
657.5942748074417
 30
0.0
 11
-947.941989141193
 21
657.5942748074508
 31
0.0
  0
LINE
  5
331
330
2
100
AcDbEntity
  8
05-01
100
AcDbLine
 10
-976.1419891411932
 20
657.594274807418
 30
0.0
 11
-967.941989141193
 21
657.5942748074281
 31
0.0
  0
LINE
  5
332
330
2
100
AcDbEntity
  8
0
100
AcDbLine
 10
-409.3825566050222
 20
903.5573699028622
 30
0.0
 11
-409.3825566050222
 21
905.3573699028623
 31
0.0
  0
LINE
  5
333
330
2
100
AcDbEntity
  8
0
100
AcDbLine
 10
-426.3825566050222
 20
905.3573699028623
 30
0.0
 11
-426.3825566050222
 21
903.5573699028622
 31
0.0
  0
LINE
  5
334
330
2
100
AcDbEntity
  8
0
100
AcDbLine
 10
-409.3825566050222
 20
905.3573699028623
 30
0.0
 11
-426.3825566050222
 21
905.3573699028623
 31
0.0
  0
LINE
  5
335
330
2
100
AcDbEntity
  8
0
100
AcDbLine
 10
-410.6325566050222
 20
906.8573699028622
 30
0.0
 11
-409.3825566050222
 21
905.3573699028623
 31
0.0
  0
LINE
  5
336
330
2
100
AcDbEntity
  8
0
100
AcDbLine
 10
-425.1325566050223
 20
906.8573699028624
 30
0.0
 11
-426.3825566050222
 21
905.3573699028623
 31
0.0
  0
LINE
  5
337
330
2
100
AcDbEntity
  8
0
100
AcDbLine
 10
-425.1325566050223
 20
906.8573699028624
 30
0.0
 11
-410.6325566050222
 21
906.8573699028622
 31
0.0
  0
LINE
  5
338
330
2
100
AcDbEntity
  8
09-01
100
AcDbLine
 10
-449.3825566050222
 20
903.5573699028581
 30
0.0
 11
-449.3825566050222
 21
605.5573699028586
 31
0.0
  0
LINE
  5
339
330
2
100
AcDbEntity
  8
09-01
100
AcDbLine
 10
-1144.541989141193
 20
711.868836282369
 30
0.0
 11
-1144.541989141193
 21
660.868836282369
 31
0.0
  0
LINE
  5
33A
330
2
100
AcDbEntity
  8
09-01
100
AcDbLine
 10
-1139.541989141193
 20
660.868836282369
 30
0.0
 11
-1139.541989141193
 21
711.868836282369
 31
0.0
  0
ARC
  5
33B
330
2
100
AcDbEntity
  8
09-01
100
AcDbCircle
 10
-1142.041989141193
 20
660.868836282369
 30
0.0
 40
2.5
100
AcDbArc
 50
180.0
 51
0.0
  0
ARC
  5
33C
330
2
100
AcDbEntity
  8
09-01
100
AcDbCircle
 10
-1142.041989141193
 20
711.868836282369
 30
0.0
 40
2.5
100
AcDbArc
 50
0.0
 51
180.0
  0
LINE
  5
33D
330
2
100
AcDbEntity
  8
09-01
100
AcDbLine
 10
-964.5419891411934
 20
711.8688362823696
 30
0.0
 11
-964.5419891411934
 21
660.8688362823695
 31
0.0
  0
LINE
  5
33E
330
2
100
AcDbEntity
  8
09-01
100
AcDbLine
 10
-959.5419891411934
 20
660.8688362823695
 30
0.0
 11
-959.5419891411934
 21
711.8688362823696
 31
0.0
  0
ARC
  5
33F
330
2
100
AcDbEntity
  8
09-01
100
AcDbCircle
 10
-962.0419891411934
 20
660.8688362823695
 30
0.0
 40
2.5
100
AcDbArc
 50
180.0
 51
0.0
  0
ARC
  5
340
330
2
100
AcDbEntity
  8
09-01
100
AcDbCircle
 10
-962.0419891411934
 20
711.8688362823696
 30
0.0
 40
2.5
100
AcDbArc
 50
0.0
 51
180.0
  0
LINE
  5
341
330
2
100
AcDbEntity
  8
09-01
100
AcDbLine
 10
-903.0419891411934
 20
620.3688362823696
 30
0.0
 11
-1201.04198891765
 21
620.3688362823696
 31
0.0
  0
LWPOLYLINE
  5
342
330
2
100
AcDbEntity
  8
02TNR-01
100
AcDbPolyline
 90
       29
 70
     1
 43
0.0135
 10
-1033.51909514123
 20
862.1994729028585
 10
-1035.18657464123
 20
864.4119654028585
 10
-1034.94867314123
 20
864.4278729028586
 10
-1034.733361641229
 20
864.4748034028586
 10
-1034.54207564123
 20
864.5515824028587
 10
-1034.376264141229
 20
864.6570444028586
 10
-1034.237367141229
 20
864.7900014028586
 10
-1034.126829141229
 20
864.9492924028587
 10
-1034.046085641229
 20
865.1337339028586
 10
-1033.99658114123
 20
865.3421514028586
 10
-1033.979760141229
 20
865.5733749028586
 10
-1033.992153141229
 20
865.7944149028587
 10
-1034.029345641229
 20
865.9939899028586
 10
-1034.09137364123
 20
866.1721854028586
 10
-1034.17825964123
 20
866.3290869028585
 10
-1034.29003514123
 20
866.4647844028586
 10
-1034.42673164123
 20
866.5793679028586
 10
-1034.58837614123
 20
866.6729184028586
 10
-1034.775000141229
 20
866.7455259028585
 10
-1034.98663064123
 20
866.7972849028586
 10
-1035.22329464123
 20
866.8282719028587
 10
-1035.485028141229
 20
866.8385814028585
 10
-1035.485028141229
 20
866.8385814028585
 10
-1036.33499714123
 20
866.8385814028585
 10
-1036.33499714123
 20
862.1994729028585
 10
-1035.913257141229
 20
862.1994729028585
 10
-1035.913257141229
 20
864.4119654028585
 10
-1035.660208641229
 20
864.4119654028585
 10
-1034.031672141229
 20
862.1994729028585
  0
LWPOLYLINE
  5
345
330
2
100
AcDbEntity
  8
02TNR-01
100
AcDbPolyline
 90
       19
 70
     1
 43
0.0135
 10
-1035.913257141229
 20
866.4687489028585
 10
-1035.49153064123
 20
866.4687489028585
 10
-1035.233721141229
 20
866.4582459028586
 10
-1035.014238141229
 20
866.4248514028585
 10
-1034.831853141229
 20
866.3657574028585
 10
-1034.68536014123
 20
866.2781514028585
 10
-1034.573539641229
 20
866.1592209028585
 10
-1034.495176641229
 20
866.0061534028587
 10
-1034.449047141229
 20
865.8161274028586
 10
-1034.433940641229
 20
865.5863439028586
 10
-1034.449843641229
 20
865.3606464028586
 10
-1034.49791264123
 20
865.1773794028585
 10
-1034.57866964123
 20
865.0327359028587
 10
-1034.69265914123
 20
864.9229179028587
 10
-1034.840403141229
 20
864.8441229028586
 10
-1035.022441641229
 20
864.7925439028586
 10
-1035.23931014123
 20
864.7643874028586
 10
-1035.49153064123
 20
864.7558464028586
 10
-1035.913257141229
 20
864.7558464028586
  0
LWPOLYLINE
  5
346
330
2
100
AcDbEntity
  8
02TNR-01
100
AcDbPolyline
 90
        8
 70
     1
 43
0.0135
 10
-1046.76603314123
 20
862.1994729028585
 10
-1046.34428864123
 20
862.1994729028585
 10
-1046.34428864123
 20
865.9496919028585
 10
-1043.087193141229
 20
862.0621329028585
 10
-1043.087193141229
 20
866.8385814028585
 10
-1043.508919641229
 20
866.8385814028585
 10
-1043.508919641229
 20
863.1532434028585
 10
-1046.76603314123
 20
867.0332154028585
  0
LWPOLYLINE
  5
347
330
2
100
AcDbEntity
  8
02TNR-01
100
AcDbPolyline
 90
       12
 70
     1
 43
0.0135
 10
-1040.797881141229
 20
862.1994729028585
 10
-1038.50104064123
 20
862.1994729028585
 10
-1038.50104064123
 20
862.5952614028586
 10
-1040.37614114123
 20
862.5952614028586
 10
-1040.37614114123
 20
864.5936304028587
 10
-1038.50104064123
 20
864.5936304028587
 10
-1038.50104064123
 20
864.9894189028586
 10
-1040.37614114123
 20
864.9894189028586
 10
-1040.37614114123
 20
866.4427929028587
 10
-1038.50104064123
 20
866.4427929028587
 10
-1038.50104064123
 20
866.8385814028585
 10
-1040.797881141229
 20
866.8385814028585
  0
LWPOLYLINE
  5
348
330
2
100
AcDbEntity
  8
02TNR-01
100
AcDbPolyline
 90
        9
 70
     1
 43
0.0135
 10
-1034.818762641229
 20
859.9161459028586
 10
-1034.622234141229
 20
859.9161459028586
 10
-1034.424418641229
 20
859.8737469028586
 10
-1034.32231364123
 20
859.7538309028587
 10
-1034.31600464123
 20
859.5673284028586
 10
-1034.39473214123
 20
859.3833639028586
 10
-1034.54318264123
 20
859.2681864028586
 10
-1034.75464664123
 20
859.2283389028585
 10
-1034.951175141229
 20
859.2283389028585
  0
LWPOLYLINE
  5
349
330
2
100
AcDbEntity
  8
02TNR-01
100
AcDbPolyline
 90
       23
 70
     1
 43
0.0135
 10
-1036.559074641229
 20
857.3073699028586
 10
-1035.32102564123
 20
857.3073699028586
 10
-1035.097798641229
 20
858.4668264028586
 10
-1034.70690164123
 20
857.3073699028586
 10
-1033.29198914123
 20
857.3073699028586
 10
-1033.955082141229
 20
858.7370424028586
 10
-1033.75386914123
 20
858.7858989028587
 10
-1033.570444641229
 20
858.8806059028586
 10
-1033.40927264123
 20
859.0170774028585
 10
-1033.27482614123
 20
859.1912139028586
 10
-1033.171582641229
 20
859.3989204028586
 10
-1033.10401514123
 20
859.6361019028586
 10
-1033.076884641229
 20
859.8519129028586
 10
-1033.08231164123
 20
860.0478834028587
 10
-1033.12028264123
 20
860.2233384028586
 10
-1033.19078414123
 20
860.3775984028585
 10
-1033.29379364123
 20
860.5099884028586
 10
-1033.429293141229
 20
860.6198244028586
 10
-1033.597273641229
 20
860.7064359028585
 10
-1033.797708141229
 20
860.7691389028586
 10
-1034.030592141229
 20
860.8072584028587
 10
-1034.29589414123
 20
860.8201149028586
 10
-1035.88276514123
 20
860.8201149028586
  0
LWPOLYLINE
  5
34A
330
2
100
AcDbEntity
  8
02TNR-01
100
AcDbPolyline
 90
       10
 70
     1
 43
0.0135
 10
-1040.51695064123
 20
858.5847309028586
 10
-1040.33223914123
 20
858.9826794028585
 10
-1040.237856141229
 20
859.1903004028587
 10
-1040.135530641229
 20
859.4448654028587
 10
-1040.04124214123
 20
859.7540244028587
 10
-1040.01667214123
 20
859.7540244028587
 10
-1040.04144914123
 20
859.4448654028587
 10
-1040.037147141229
 20
859.1903004028587
 10
-1040.022711141229
 20
858.9826794028585
 10
-1039.991265141229
 20
858.5847309028586
  0
LWPOLYLINE
  5
34B
330
2
100
AcDbEntity
  8
02TNR-01
100
AcDbPolyline
 90
       34
 70
     1
 43
0.0135
 10
-1046.08337864123
 20
859.0858599028585
 10
-1046.039157141229
 20
859.0858599028585
 10
-1046.05715714123
 20
858.8656839028587
 10
-1046.057692641229
 20
858.6738939028586
 10
-1046.05251764123
 20
858.5061249028587
 10
-1046.018007141229
 20
857.3073699028586
 10
-1044.91750514123
 20
857.3073699028586
 10
-1043.21439914123
 20
860.8201149028586
 10
-1044.48192764123
 20
860.8201149028586
 10
-1045.05502514123
 20
859.2725424028586
 10
-1045.11828614123
 20
859.0951389028585
 10
-1045.19274314123
 20
858.8653239028586
 10
-1045.26700214123
 20
858.5798259028587
 10
-1045.29646364123
 20
858.5798259028587
 10
-1045.26903164123
 20
858.8291124028586
 10
-1045.263276141229
 20
859.0281789028585
 10
-1045.26459014123
 20
859.1792124028586
 10
-1045.28275214123
 20
860.8201149028586
 10
-1046.17197914123
 20
860.8201149028586
 10
-1046.82198164123
 20
859.1792124028586
 10
-1046.881453641229
 20
859.0281789028585
 10
-1046.952355641229
 20
858.8291124028586
 10
-1047.020922141229
 20
858.5798259028587
 10
-1047.05038364123
 20
858.5798259028587
 10
-1047.014707641229
 20
858.8653239028586
 10
-1047.00066764123
 20
859.0951389028585
 10
-1046.99562314123
 20
859.2725424028586
 10
-1046.97280364123
 20
860.8201149028586
 10
-1048.24114664123
 20
860.8201149028586
 10
-1047.889845141229
 20
857.3073699028586
 10
-1046.789347641229
 20
857.3073699028586
 10
-1046.29324964123
 20
858.5061249028587
 10
-1046.22345914123
 20
858.6738939028586
 10
-1046.150145141229
 20
858.8656839028587
  0
LWPOLYLINE
  5
34C
330
2
100
AcDbEntity
  8
02TNR-01
100
AcDbPolyline
 90
        8
 70
     1
 43
0.0135
 10
-1042.438999641229
 20
857.3073699028586
 10
-1041.08221364123
 20
857.3073699028586
 10
-1040.88899714123
 20
857.7495399028586
 10
-1039.93588364123
 20
857.7495399028586
 10
-1039.90801514123
 20
857.3073699028586
 10
-1038.55204364123
 20
857.3073699028586
 10
-1039.10396864123
 20
860.8201149028586
 10
-1040.509066641229
 20
860.8201149028586
  0
LWPOLYLINE
  5
34D
330
2
100
AcDbEntity
  8
02TNR-01
100
AcDbPolyline
 90
        7
 70
     1
 43
0.0135
 10
-1058.72290664123
 20
862.1994729028585
 10
-1058.293597641229
 20
862.1994729028585
 10
-1057.677223641229
 20
863.7696354028586
 10
-1055.782651641229
 20
863.7696354028586
 10
-1055.192211141229
 20
862.1994729028585
 10
-1054.73154614123
 20
862.1994729028585
 10
-1056.68451014123
 20
867.0202464028585
  0
LWPOLYLINE
  5
34E
330
2
100
AcDbEntity
  8
02TNR-01
100
AcDbPolyline
 90
        3
 70
     1
 43
0.0135
 10
-1057.534479141229
 20
864.1329654028586
 10
-1056.71046614123
 20
866.1508284028585
 10
-1055.91888914123
 20
864.1329654028586
  0
LWPOLYLINE
  5
34F
330
2
100
AcDbEntity
  8
02TNR-01
100
AcDbPolyline
 90
       10
 70
     1
 43
0.0135
 10
-1063.820556141229
 20
862.0751199028587
 10
-1062.587803641229
 20
865.9561764028586
 10
-1061.303125641229
 20
862.0751199028587
 10
-1059.752430141229
 20
866.8385814028585
 10
-1060.18713914123
 20
866.8385814028585
 10
-1061.303125641229
 20
863.1662304028585
 10
-1062.587803641229
 20
867.0202464028585
 10
-1063.820556141229
 20
863.1337899028586
 10
-1064.98196114123
 20
866.8385814028585
 10
-1065.423159141229
 20
866.8385814028585
  0
SOLID
  5
350
330
2
100
AcDbEntity
  8
02TNR-01
100
AcDbTrace
 10
-1070.62232414123
 20
858.0998109028586
 30
0.0
 11
-1054.89347414123
 21
858.0998109028586
 31
0.0
 12
-1070.77835264123
 22
857.3064654028586
 32
0.0
 13
-1055.04950714123
 23
857.3064654028586
 33
0.0
  0
LWPOLYLINE
  5
351
330
2
100
AcDbEntity
  8
02TNR-01
100
AcDbPolyline
 90
        4
 70
     1
 43
0.0135
 10
-1070.62232414123
 20
858.0998109028586
 10
-1054.89347414123
 20
858.0998109028586
 10
-1055.04950714123
 20
857.3064654028586
 10
-1070.77835264123
 20
857.3064654028586
  0
LWPOLYLINE
  5
352
330
2
100
AcDbEntity
  8
02TNR-01
100
AcDbPolyline
 90
       12
 70
     1
 43
0.0135
 10
-1053.15971864123
 20
857.3073699028586
 10
-1050.781855641229
 20
857.3073699028586
 10
-1050.598350141229
 20
858.2604834028586
 10
-1051.73815964123
 20
858.2604834028586
 10
-1051.66722164123
 20
858.6289524028584
 10
-1050.660072141229
 20
858.6289524028584
 10
-1050.48698414123
 20
859.5280119028585
 10
-1051.49413364123
 20
859.5280119028585
 10
-1051.42884764123
 20
859.8670194028585
 10
-1050.31851764123
 20
859.8670194028585
 10
-1050.13502564123
 20
860.8201149028586
 10
-1052.48340914123
 20
860.8201149028586
  0
LWPOLYLINE
  5
353
330
2
100
AcDbEntity
  8
02TNR-01
100
AcDbPolyline
 90
      133
 70
     1
 43
0.0135
 10
-1049.39922164123
 20
865.6706919028586
 10
-1049.09428814123
 20
865.9367049028587
 10
-1049.20312064123
 20
866.1122229028585
 10
-1049.32759964123
 20
866.2707444028587
 10
-1049.467293141229
 20
866.4123279028586
 10
-1049.62175114123
 20
866.5370409028584
 10
-1049.79054164123
 20
866.6449329028585
 10
-1049.973228141229
 20
866.7360624028585
 10
-1050.16936514123
 20
866.8104969028586
 10
-1050.378520641229
 20
866.8682859028585
 10
-1050.600253641229
 20
866.9094879028587
 10
-1050.834123141229
 20
866.9341704028585
 10
-1051.07969264123
 20
866.9423829028586
 10
-1051.282881141229
 20
866.9347284028585
 10
-1051.47952214123
 20
866.9120979028585
 10
-1051.669197141229
 20
866.8749819028587
 10
-1051.85148314123
 20
866.8238799028586
 10
-1052.02596164123
 20
866.7592914028587
 10
-1052.192223141229
 20
866.6817114028585
 10
-1052.349835641229
 20
866.5916349028586
 10
-1052.49838964123
 20
866.4895569028585
 10
-1052.63746664123
 20
866.3759724028587
 10
-1052.76663914123
 20
866.2513854028587
 10
-1052.885502141229
 20
866.1162819028586
 10
-1052.993628141229
 20
865.9711704028586
 10
-1053.09059864123
 20
865.8165369028585
 10
-1053.175999641229
 20
865.6528809028586
 10
-1053.24940814123
 20
865.4806974028586
 10
-1053.310410141229
 20
865.3004904028586
 10
-1053.35858714123
 20
865.1127459028586
 10
-1053.39351164123
 20
864.9179679028586
 10
-1053.41477864123
 20
864.7166469028586
 10
-1053.421956141229
 20
864.5092824028585
 10
-1053.41486864123
 20
864.2957664028587
 10
-1053.39384464123
 20
864.0895359028586
 10
-1053.35926214123
 20
863.8909914028586
 10
-1053.31149914123
 20
863.7005289028586
 10
-1053.250929141229
 20
863.5185444028586
 10
-1053.177925641229
 20
863.3454339028586
 10
-1053.09286214123
 20
863.1815889028585
 10
-1052.99611664123
 20
863.0274099028586
 10
-1052.88806264123
 20
862.8832884028586
 10
-1052.76906914123
 20
862.7496249028586
 10
-1052.639523141229
 20
862.6268109028586
 10
-1052.49978464123
 20
862.5152469028584
 10
-1052.35024064123
 20
862.4153244028587
 10
-1052.191260141229
 20
862.3274394028586
 10
-1052.02322114123
 20
862.2519924028585
 10
-1051.84649264123
 20
862.1893749028586
 10
-1051.661457141229
 20
862.1399829028588
 10
-1051.468479141229
 20
862.1042124028587
 10
-1051.26794564123
 20
862.0824594028587
 10
-1051.06022114123
 20
862.0751199028587
 10
-1050.853153641229
 20
862.0817529028586
 10
-1050.65450114123
 20
862.1014989028587
 10
-1050.464502141229
 20
862.1341149028586
 10
-1050.28339514123
 20
862.1793579028587
 10
-1050.11141414123
 20
862.2369894028587
 10
-1049.94880214123
 20
862.3067709028585
 10
-1049.79579314123
 20
862.3884594028586
 10
-1049.65263464123
 20
862.4818209028587
 10
-1049.51955164123
 20
862.5866124028586
 10
-1049.39679614123
 20
862.7025864028587
 10
-1049.284597641229
 20
862.8295179028585
 10
-1049.18319464123
 20
862.9671504028586
 10
-1049.092830141229
 20
863.1152589028586
 10
-1049.01374264123
 20
863.2735914028586
 10
-1048.94616614123
 20
863.4419139028585
 10
-1048.89033914123
 20
863.6199834028586
 10
-1048.84650914123
 20
863.8075614028586
 10
-1048.814901141229
 20
864.0044094028587
 10
-1048.79576264123
 20
864.2102889028585
 10
-1048.78933214123
 20
864.4249524028586
 10
-1048.78933214123
 20
864.4249524028586
 10
-1048.78933214123
 20
864.4898289028587
 10
-1050.852600141229
 20
864.4898289028587
 10
-1050.852600141229
 20
864.1264809028585
 10
-1049.24999714123
 20
864.1264809028585
 10
-1049.263555641229
 20
863.9212494028585
 10
-1049.29806614123
 20
863.7259899028586
 10
-1049.352637641229
 20
863.5415394028587
 10
-1049.426379141229
 20
863.3687394028585
 10
-1049.51839064123
 20
863.2084179028586
 10
-1049.62777664123
 20
863.0614254028586
 10
-1049.75365514123
 20
862.9285854028585
 10
-1049.89512164123
 20
862.8107484028586
 10
-1050.05128514123
 20
862.7087379028585
 10
-1050.221254641229
 20
862.6233999028587
 10
-1050.40413464123
 20
862.5555669028585
 10
-1050.599029641229
 20
862.5060804028587
 10
-1050.80504864123
 20
862.4757729028585
 10
-1051.02129614123
 20
862.4654859028586
 10
-1051.22920064123
 20
862.4755254028585
 10
-1051.42906814123
 20
862.5050499028585
 10
-1051.62015164123
 20
862.5531639028586
 10
-1051.801708641229
 20
862.6189764028586
 10
-1051.973005641229
 20
862.7015919028586
 10
-1052.13329564123
 20
862.8001149028587
 10
-1052.28184064123
 20
862.9136589028586
 10
-1052.41789364123
 20
863.0413239028587
 10
-1052.540716641229
 20
863.1822189028586
 10
-1052.64957164123
 20
863.3354529028586
 10
-1052.743711641229
 20
863.5001259028586
 10
-1052.82239864123
 20
863.6753514028585
 10
-1052.884890141229
 20
863.8602339028585
 10
-1052.93044364123
 20
864.0538734028586
 10
-1052.95832114123
 20
864.2553879028588
 10
-1052.96777564123
 20
864.4638774028585
 10
-1052.959711641229
 20
864.6764709028586
 10
-1052.93584364123
 20
864.8810319028585
 10
-1052.896675641229
 20
865.0769304028585
 10
-1052.84270714123
 20
865.2635409028587
 10
-1052.77443314123
 20
865.4402379028585
 10
-1052.69235764123
 20
865.6064004028586
 10
-1052.59698014123
 20
865.7613939028587
 10
-1052.488795641229
 20
865.9046019028586
 10
-1052.36830814123
 20
866.0353899028587
 10
-1052.23600814123
 20
866.1531369028585
 10
-1052.092408641229
 20
866.2572129028587
 10
-1051.93799564123
 20
866.3469969028586
 10
-1051.77327764123
 20
866.4218589028585
 10
-1051.59874964123
 20
866.4811734028587
 10
-1051.414906641229
 20
866.5243149028585
 10
-1051.22225714123
 20
866.5506624028585
 10
-1051.02129614123
 20
866.5595814028586
 10
-1050.79692164123
 20
866.5483224028585
 10
-1050.582586641229
 20
866.5146894028586
 10
-1050.378718641229
 20
866.4588939028586
 10
-1050.185745141229
 20
866.3811474028586
 10
-1050.00409364123
 20
866.2816704028585
 10
-1049.83418714123
 20
866.1606699028586
 10
-1049.676453141229
 20
866.0183664028586
 10
-1049.53132364123
 20
865.8549669028586
  0
LINE
  5
354
330
2
100
AcDbEntity
  8
0
100
AcDbLine
 10
-1043.541989141193
 20
903.5573699028581
 30
0.0
 11
-1043.541989141193
 21
905.3573699028582
 31
0.0
  0
LINE
  5
355
330
2
100
AcDbEntity
  8
0
100
AcDbLine
 10
-1060.541989141193
 20
905.3573699028582
 30
0.0
 11
-1060.541989141193
 21
903.5573699028581
 31
0.0
  0
LINE
  5
356
330
2
100
AcDbEntity
  8
0
100
AcDbLine
 10
-1043.541989141193
 20
905.3573699028582
 30
0.0
 11
-1060.541989141193
 21
905.3573699028582
 31
0.0
  0
LINE
  5
357
330
2
100
AcDbEntity
  8
0
100
AcDbLine
 10
-1044.791989141193
 20
906.8573699028581
 30
0.0
 11
-1043.541989141193
 21
905.3573699028582
 31
0.0
  0
LINE
  5
358
330
2
100
AcDbEntity
  8
0
100
AcDbLine
 10
-1059.291989141193
 20
906.8573699028583
 30
0.0
 11
-1060.541989141193
 21
905.3573699028582
 31
0.0
  0
LINE
  5
359
330
2
100
AcDbEntity
  8
0
100
AcDbLine
 10
-1059.291989141193
 20
906.8573699028583
 30
0.0
 11
-1044.791989141193
 21
906.8573699028581
 31
0.0
  0
CIRCLE
  5
35A
330
2
100
AcDbEntity
  8
03-01
100
AcDbCircle
 10
-1052.041989141193
 20
873.0573699028582
 30
0.0
 40
3.25
  0
LINE
  5
35B
330
2
100
AcDbEntity
  8
05-01
100
AcDbLine
 10
-1052.041989141193
 20
877.3073699028582
 30
0.0
 11
-1052.041989141193
 21
868.8073699028581
 31
0.0
  0
LINE
  5
35C
330
2
100
AcDbEntity
  8
05-01
100
AcDbLine
 10
-1056.291989141193
 20
873.0573699028582
 30
0.0
 11
-1047.791989141193
 21
873.0573699028582
 31
0.0
  0
ARC
  5
35D
330
2
100
AcDbEntity
  8
03-01
100
AcDbCircle
 10
-922.0419891411935
 20
668.0573699028586
 30
0.0
 40
6.25
100
AcDbArc
 50
113.5781784782074
 51
66.42182152179254
  0
LINE
  5
35E
330
2
100
AcDbEntity
  8
05-01
100
AcDbLine
 10
-914.7919891411936
 20
668.0573699028586
 30
0.0
 11
-929.2919891411937
 21
668.0573699028586
 31
0.0
  0
LINE
  5
35F
330
2
100
AcDbEntity
  8
05-01
100
AcDbLine
 10
-918.5419891411937
 20
680.0573699028586
 30
0.0
 11
-925.5419891411936
 21
680.0573699028586
 31
0.0
  0
LINE
  5
360
330
2
100
AcDbEntity
  8
03-01
100
AcDbLine
 10
-919.5419891411937
 20
680.0573699028586
 30
0.0
 11
-919.5419891411937
 21
673.7855895215538
 31
0.0
  0
LINE
  5
361
330
2
100
AcDbEntity
  8
01-01
100
AcDbLine
 10
-922.0419891411935
 20
682.5573699028587
 30
0.0
 11
-922.0419891411935
 21
682.5573699028587
 31
0.0
  0
ARC
  5
365
330
2
100
AcDbEntity
  8
03-01
100
AcDbCircle
 10
-922.0419891411935
 20
680.0573699028586
 30
0.0
 40
2.5
100
AcDbArc
 50
0.0
 51
180.0
  0
LINE
  5
366
330
2
100
AcDbEntity
  8
03-01
100
AcDbLine
 10
-924.5419891411936
 20
673.7855895215529
 30
0.0
 11
-924.5419891411936
 21
680.0573699028586
 31
0.0
  0
LINE
  5
367
330
2
100
AcDbEntity
  8
05-01
100
AcDbLine
 10
-922.0419891411935
 20
683.5573699028587
 30
0.0
 11
-922.0419891411935
 21
660.8073699028587
 31
0.0
  0
ARC
  5
368
330
2
100
AcDbEntity
  8
03-01
100
AcDbCircle
 10
-1182.041989141193
 20
668.0573699028582
 30
0.0
 40
6.25
100
AcDbArc
 50
113.5781784782074
 51
66.42182152179254
  0
LINE
  5
369
330
2
100
AcDbEntity
  8
05-01
100
AcDbLine
 10
-1189.291989141193
 20
668.0573699028582
 30
0.0
 11
-1174.791989141193
 21
668.0573699028582
 31
0.0
  0
LINE
  5
36A
330
2
100
AcDbEntity
  8
05-01
100
AcDbLine
 10
-1185.541989141193
 20
680.0573699028582
 30
0.0
 11
-1178.541989141193
 21
680.0573699028582
 31
0.0
  0
LINE
  5
36B
330
2
100
AcDbEntity
  8
03-01
100
AcDbLine
 10
-1184.541989141193
 20
680.0573699028582
 30
0.0
 11
-1184.541989141193
 21
673.7855895215534
 31
0.0
  0
LINE
  5
36C
330
2
100
AcDbEntity
  8
01-01
100
AcDbLine
 10
-1182.041989141193
 20
682.5573699028582
 30
0.0
 11
-1182.041989141193
 21
682.5573699028582
 31
0.0
  0
ARC
  5
36D
330
2
100
AcDbEntity
  8
03-01
100
AcDbCircle
 10
-1182.041989141193
 20
680.0573699028582
 30
0.0
 40
2.5
100
AcDbArc
 50
0.0
 51
180.0
  0
LINE
  5
36E
330
2
100
AcDbEntity
  8
03-01
100
AcDbLine
 10
-1179.541989141193
 20
673.7855895215529
 30
0.0
 11
-1179.541989141193
 21
680.0573699028582
 31
0.0
  0
LINE
  5
36F
330
2
100
AcDbEntity
  8
05-01
100
AcDbLine
 10
-1182.041989141193
 20
683.5573699028582
 30
0.0
 11
-1182.041989141193
 21
660.8073699028582
 31
0.0
  0
ARC
  5
370
330
2
100
AcDbEntity
  8
03-01
100
AcDbCircle
 10
-922.0419891411935
 20
873.0573699028587
 30
0.0
 40
6.25
100
AcDbArc
 50
113.5781784782074
 51
66.42182152179254
  0
LINE
  5
371
330
2
100
AcDbEntity
  8
05-01
100
AcDbLine
 10
-914.7919891411936
 20
873.0573699028587
 30
0.0
 11
-929.2919891411937
 21
873.0573699028587
 31
0.0
  0
LINE
  5
372
330
2
100
AcDbEntity
  8
05-01
100
AcDbLine
 10
-918.5419891411937
 20
885.0573699028586
 30
0.0
 11
-925.5419891411936
 21
885.0573699028586
 31
0.0
  0
LINE
  5
373
330
2
100
AcDbEntity
  8
03-01
100
AcDbLine
 10
-919.5419891411937
 20
885.0573699028586
 30
0.0
 11
-919.5419891411937
 21
878.7855895215539
 31
0.0
  0
LINE
  5
374
330
2
100
AcDbEntity
  8
03-01
100
AcDbLine
 10
-922.0419891411935
 20
887.5573699028587
 30
0.0
 11
-922.0419891411935
 21
887.5573699028587
 31
0.0
  0
ARC
  5
375
330
2
100
AcDbEntity
  8
03-01
100
AcDbCircle
 10
-922.0419891411935
 20
885.0573699028586
 30
0.0
 40
2.5
100
AcDbArc
 50
0.0
 51
180.0
  0
LINE
  5
376
330
2
100
AcDbEntity
  8
03-01
100
AcDbLine
 10
-924.5419891411936
 20
878.785589521553
 30
0.0
 11
-924.5419891411936
 21
885.0573699028586
 31
0.0
  0
LINE
  5
377
330
2
100
AcDbEntity
  8
05-01
100
AcDbLine
 10
-922.0419891411935
 20
888.5573699028586
 30
0.0
 11
-922.0419891411935
 21
865.8073699028587
 31
0.0
  0
ARC
  5
378
330
2
100
AcDbEntity
  8
03-01
100
AcDbCircle
 10
-1182.041989141193
 20
873.0573699028582
 30
0.0
 40
6.25
100
AcDbArc
 50
113.5781784782074
 51
66.42182152179254
  0
LINE
  5
379
330
2
100
AcDbEntity
  8
05-01
100
AcDbLine
 10
-1189.291989141193
 20
873.0573699028582
 30
0.0
 11
-1174.791989141193
 21
873.0573699028582
 31
0.0
  0
LINE
  5
37A
330
2
100
AcDbEntity
  8
05-01
100
AcDbLine
 10
-1185.541989141193
 20
885.0573699028583
 30
0.0
 11
-1178.541989141193
 21
885.0573699028583
 31
0.0
  0
LINE
  5
37B
330
2
100
AcDbEntity
  8
03-01
100
AcDbLine
 10
-1184.541989141193
 20
885.0573699028583
 30
0.0
 11
-1184.541989141193
 21
878.7855895215534
 31
0.0
  0
LINE
  5
37C
330
2
100
AcDbEntity
  8
01-01
100
AcDbLine
 10
-1182.041989141193
 20
887.5573699028581
 30
0.0
 11
-1182.041989141193
 21
887.5573699028581
 31
0.0
  0
ARC
  5
37D
330
2
100
AcDbEntity
  8
03-01
100
AcDbCircle
 10
-1182.041989141193
 20
885.0573699028583
 30
0.0
 40
2.5
100
AcDbArc
 50
0.0
 51
180.0
  0
LINE
  5
37E
330
2
100
AcDbEntity
  8
03-01
100
AcDbLine
 10
-1179.541989141193
 20
878.785589521553
 30
0.0
 11
-1179.541989141193
 21
885.0573699028583
 31
0.0
  0
LINE
  5
37F
330
2
100
AcDbEntity
  8
05-01
100
AcDbLine
 10
-1182.041989141193
 20
888.5573699028581
 30
0.0
 11
-1182.041989141193
 21
865.8073699028582
 31
0.0
  0
DIMENSION
  5
380
330
2
100
AcDbEntity
  8
09-01
100
AcDbDimension
280
     0
  2
*D9
 10
-1252.007988143957
 20
605.5573699028591
 30
0.0
 11
-1263.390150490478
 21
754.5573699028586
 31
0.0
 71
     5
 42
297.9999999999991
 73
     0
 74
     0
 75
     0
  3
Wagner$0
100
AcDbAlignedDimension
 13
-1201.041989141193
 23
903.5573699028581
 33
0.0
 14
-1201.041989141193
 24
605.5573699028591
 34
0.0
 50
90.0
100
AcDbRotatedDimension
1001
ACAD
1000
DSTYLE
1002
{
1070
    40
1040
5.0
1002
}
  0
CIRCLE
  5
38D
330
2
100
AcDbEntity
  8
0
100
AcDbCircle
 10
-1052.041989141193
 20
477.0586961970543
 30
0.0
 40
8.5
  0
CIRCLE
  5
38E
330
2
100
AcDbEntity
  8
0
100
AcDbCircle
 10
-1052.041989141193
 20
477.0586961970543
 30
0.0
 40
5.799999999999999
  0
LINE
  5
38F
330
2
100
AcDbEntity
  8
0
100
AcDbLine
 10
-1053.291989141193
 20
473.8632680350102
 30
0.0
 11
-1050.791989141193
 21
473.8632680350102
 31
0.0
  0
LINE
  5
390
330
2
100
AcDbEntity
  8
0
100
AcDbLine
 10
-1053.291989141193
 20
481.8586961970543
 30
0.0
 11
-1050.791989141193
 21
481.8586961970543
 31
0.0
  0
LWPOLYLINE
  5
391
330
2
100
AcDbEntity
  8
0
100
AcDbPolyline
 90
        2
 70
     0
 43
0.0
 10
-1053.291989141193
 20
480.0573046709401
 10
-1053.291989141193
 20
481.8586961970543
  0
LWPOLYLINE
  5
392
330
2
100
AcDbEntity
  8
0
100
AcDbPolyline
 90
        2
 70
     0
 43
0.0
 10
-1053.291989141193
 20
473.8632680350102
 10
-1053.291989141193
 20
475.727177652018
  0
LWPOLYLINE
  5
393
330
2
100
AcDbEntity
  8
0
100
AcDbPolyline
 90
        2
 70
     0
 43
0.0
 10
-1050.791989141193
 20
480.0573046709401
 10
-1050.791989141193
 20
481.8586961970543
  0
LWPOLYLINE
  5
394
330
2
100
AcDbEntity
  8
0
100
AcDbPolyline
 90
        2
 70
     0
 43
0.0
 10
-1050.791989141193
 20
473.8632680350102
 10
-1050.791989141193
 20
475.727177652018
  0
ARC
  5
395
330
2
100
AcDbEntity
  8
0
100
AcDbCircle
 10
-1052.041989141193
 20
477.8922411614792
 30
0.0
 40
2.5
100
AcDbArc
 50
300.0000000000008
 51
59.99999999999923
  0
ARC
  5
396
330
2
100
AcDbEntity
  8
0
100
AcDbCircle
 10
-1052.041989141193
 20
477.8922411614792
 30
0.0
 40
2.5
100
AcDbArc
 50
120.0000000000007
 51
239.9999999999992
  0
CIRCLE
  5
397
330
2
100
AcDbEntity
  8
0
100
AcDbCircle
 10
-1052.041989141193
 20
477.0586961970543
 30
0.0
 40
6.75
  0
CIRCLE
  5
398
330
2
100
AcDbEntity
  8
0
100
AcDbCircle
 10
-1052.041989141193
 20
477.0586961970543
 30
0.0
 40
7.25
  0
LINE
  5
399
330
2
100
AcDbEntity
  8
09-01
100
AcDbLine
 10
-903.0419891411934
 20
903.5573699028587
 30
0.0
 11
-1201.041989141193
 21
903.5573699028581
 31
0.0
  0
DIMENSION
  5
39A
330
2
100
AcDbEntity
  8
09-01
100
AcDbDimension
280
     0
  2
*D8
 10
-903.0419891411934
 20
949.0043703570941
 30
0.0
 11
-1052.041989141193
 21
960.3865327036151
 31
0.0
 71
     5
 42
298.0
 73
     0
 74
     0
 75
     0
  3
Wagner$0
100
AcDbAlignedDimension
 13
-1201.041989141193
 23
903.5573699028581
 33
0.0
 14
-903.0419891411934
 24
903.5573699028587
 34
0.0
100
AcDbRotatedDimension
1001
ACAD
1000
DSTYLE
1002
{
1070
    40
1040
5.0
1002
}
  0
LINE
  5
3A7
330
2
100
AcDbEntity
  8
09-01
100
AcDbLine
 10
-1201.041989141193
 20
508.5586961970543
 30
0.0
 11
-903.0419891411934
 21
508.5586961970543
 31
0.0
  0
LINE
  5
3A8
330
2
100
AcDbEntity
  8
09-01
100
AcDbLine
 10
-903.0419891411934
 20
605.5573699028595
 30
0.0
 11
-903.0419891411934
 21
903.5573699028587
 31
0.0
  0
LINE
  5
3A9
330
2
100
AcDbEntity
  8
09-01
100
AcDbLine
 10
-1201.041989141193
 20
605.5573699028591
 30
0.0
 11
-1201.041989141193
 21
903.5573699028581
 31
0.0
  0
LINE
  5
3AA
330
2
100
AcDbEntity
  8
09-01
100
AcDbLine
 10
-1201.041989141193
 20
508.5586961970543
 30
0.0
 11
-1201.041989141193
 21
387.5586961970544
 31
0.0
  0
LINE
  5
3AB
330
2
100
AcDbEntity
  8
09-01
100
AcDbLine
 10
-903.0419891411934
 20
387.5586961970544
 30
0.0
 11
-903.0419891411934
 21
508.5586961970543
 31
0.0
  0
LINE
  5
3AC
330
2
100
AcDbEntity
  8
09-01
100
AcDbLine
 10
-1201.041989141193
 20
387.5586961970544
 30
0.0
 11
-903.0419891411934
 21
387.5586961970544
 31
0.0
  0
LINE
  5
3AD
330
2
100
AcDbEntity
  8
09-01
100
AcDbLine
 10
-1201.041989141193
 20
605.5573699028591
 30
0.0
 11
-903.0419891411934
 21
605.5573699028595
 31
0.0
  0
LINE
  5
3AE
330
2
100
AcDbEntity
  8
09-01
100
AcDbLine
 10
-1054.541989141193
 20
711.8688362823696
 30
0.0
 11
-1054.541989141193
 21
660.8688362823695
 31
0.0
  0
LINE
  5
3AF
330
2
100
AcDbEntity
  8
09-01
100
AcDbLine
 10
-1049.541989141193
 20
660.8688362823695
 30
0.0
 11
-1049.541989141193
 21
711.8688362823696
 31
0.0
  0
ARC
  5
3B0
330
2
100
AcDbEntity
  8
09-01
100
AcDbCircle
 10
-1052.041989141193
 20
660.8688362823695
 30
0.0
 40
2.5
100
AcDbArc
 50
180.0
 51
0.0
  0
ARC
  5
3B1
330
2
100
AcDbEntity
  8
09-01
100
AcDbCircle
 10
-1052.041989141193
 20
711.8688362823696
 30
0.0
 40
2.5
100
AcDbArc
 50
0.0
 51
180.0
  0
LINE
  5
3B2
330
2
100
AcDbEntity
  8
03-01
100
AcDbLine
 10
-904.8419891411926
 20
605.5573699028586
 30
0.0
 11
-906.3419891411935
 21
605.5573699028586
 31
0.0
  0
LINE
  5
3B3
330
2
100
AcDbEntity
  8
09-01
100
AcDbLine
 10
-1199.241989141193
 20
508.5586961970543
 30
0.0
 11
-904.8419891411937
 21
508.5586961970543
 31
0.0
  0
LINE
  5
3B4
330
2
100
AcDbEntity
  8
03-01
100
AcDbLine
 10
-1199.241989141193
 20
605.5573699028586
 30
0.0
 11
-1197.741989141193
 21
605.5573699028586
 31
0.0
  0
INSERT
  5
3B5
330
2
100
AcDbEntity
  8
09-01
100
AcDbBlockReference
 66
     1
  2
DIN A4 Quer
 10
-1485.000009453552
 20
-0.0000025937461032
 30
0.0
 41
5.0
 42
5.0
 43
5.0
  0
ATTRIB
  5
42C
330
3B5
100
AcDbEntity
  8
06-99
100
AcDbText
 10
-467.522766304115
 20
130.9391934864111
 30
0.0
 40
22.50000000000001
  1
Sensor Handpflege Kombination
 41
0.8
  7
ROMANS8
100
AcDbAttribute
280
     0
  2
TEILE
 70
     0
280
     0
  0
ATTRIB
  5
42D
330
3B5
100
AcDbEntity
  8
06-99
100
AcDbText
 10
-467.522766304115
 20
94.75301742458032
 30
0.0
 40
22.50000000000001
  1
WP575e
 41
0.9
  7
ROMANS8
100
AcDbAttribute
280
     0
  2
TEILE2
 70
     0
280
     0
  0
ATTRIB
  5
42E
330
3B5
100
AcDbEntity
  8
06-99
100
AcDbText
 10
-93.2630689414284
 20
226.6666666666661
 30
0.0
 40
16.875
  1
1:5
  7
ROMANS8
100
AcDbAttribute
280
     0
  2
:
 70
     0
280
     0
  0
ATTRIB
  5
42F
330
3B5
100
AcDbEntity
  8
06-99
100
AcDbText
 10
-585.0146610031633
 20
137.2084273401565
 30
0.0
 40
12.5
  1
Pfrepper
 41
0.9000000000000001
  7
ROMANS8
100
AcDbAttribute
280
     0
  2
NAME
 70
     0
280
     0
  0
ATTRIB
  5
430
330
3B5
100
AcDbEntity
  8
06-99
100
AcDbText
 10
-652.5342677405317
 20
137.3061758705562
 30
0.0
 40
12.5
  1
06.12.2016
 50
359.9144597696132
 41
0.5725543448526873
  7
ROMANS8
 72
     5
 11
-596.3013143978062
 21
137.2222223333324
 31
0.0
100
AcDbAttribute
280
     0
  2
DATUM
 70
     0
280
     0
  0
ATTRIB
  5
431
330
3B5
100
AcDbEntity
  8
06-99
100
AcDbText
 10
-157.4682801642086
 20
37.46449900144353
 30
0.0
 40
14.9688
  1
727735
  7
ROMANS8
100
AcDbAttribute
280
     0
  2
ID.NR
 70
     0
280
     0
  0
ATTRIB
  5
432
330
3B5
100
AcDbEntity
  8
06-99
100
AcDbText
 10
-466.3436687214482
 20
188.3333332222218
 30
0.0
 40
15.0
  1

 41
0.9000000000000001
  7
ROMANS8
100
AcDbAttribute
280
     0
  2
LÄNGE
 70
     0
280
     0
  0
ATTRIB
  5
433
330
3B5
100
AcDbEntity
  8
06-99
100
AcDbText
 10
-299.0959754411517
 20
188.3905193522237
 30
0.0
 40
15.0
  1

 41
0.9000000000000001
  7
ROMANS8
100
AcDbAttribute
280
     0
  2
BREITE
 70
     0
280
     0
  0
ATTRIB
  5
434
330
3B5
100
AcDbEntity
  8
06-99
100
AcDbText
 10
-96.95453936634022
 20
188.3333333333334
 30
0.0
 40
15.46875
  1

  7
ROMANS8
100
AcDbAttribute
280
     0
  2
1.0
 70
     0
280
     0
  0
ATTRIB
  5
435
330
3B5
100
AcDbEntity
  8
06-99
100
AcDbText
 10
-229.3610719929859
 20
226.6666666666665
 30
0.0
 40
15.0
  1

  7
ROMANS8
 72
     1
 11
-229.3610719929859
 21
226.6666666666665
 31
0.0
100
AcDbAttribute
280
     0
  2
IV
 70
     0
280
     0
  0
ATTRIB
  5
436
330
3B5
100
AcDbEntity
  8
06-99
100
AcDbText
 10
-433.6262973194216
 20
226.6666666666661
 30
0.0
 40
16.875
  1
1.4404
  7
ROMANS8
100
AcDbAttribute
280
     0
  2
1.4301
 70
     0
280
     0
  0
ATTRIB
  5
437
330
3B5
100
AcDbEntity
  8
06-99
100
AcDbText
 10
-319.9968305656023
 20
37.52198302177203
 30
0.0
 40
15.84
  1

 41
0.9000000000000005
  7
ROMANS8
100
AcDbAttribute
280
     0
  2
AUFTRAGS.NR.
 70
     0
280
     0
  0
ATTRIB
  5
438
330
3B5
100
AcDbEntity
  8
06-99
100
AcDbText
 10
-467.4999999999999
 20
37.5
 30
0.0
 40
15.84
  1

 41
0.9000000000000005
  7
ROMANS8
100
AcDbAttribute
280
     0
  2
SONDER-NR
 70
     0
280
     0
  0
ATTRIB
  5
439
330
3B5
100
AcDbEntity
  8
06-99
100
AcDbText
 10
-817.5012450249578
 20
33.00905034629841
 30
0.0
 40
7.500000000000002
  1

 41
0.9000000000000001
  7
ROMANS8
100
AcDbAttribute
280
     0
  2
ERSETZT.DURCH
 70
     0
280
     0
  0
ATTRIB
  5
43A
330
3B5
100
AcDbEntity
  8
06-99
100
AcDbText
 10
-942.5026610990091
 20
32.98728198936169
 30
0.0
 40
7.500000000000002
  1

 41
0.9000000000000001
  7
ROMANS8
100
AcDbAttribute
280
     0
  2
ERSETZT.FÜR
 70
     0
280
     0
  0
ATTRIB
  5
43B
330
3B5
100
AcDbEntity
  8
06-99
100
AcDbText
 10
-550.1346367678134
 20
238.3425557000396
 30
0.0
 40
6.435000000000002
  1
DIN A4
  7
ROMANS8
 72
     1
 11
-533.7407081963848
 21
238.3425557000396
 31
0.0
100
AcDbAttribute
280
     0
  2
FORMAT
 70
     0
280
     0
  0
ATTRIB
  5
43C
330
3B5
100
AcDbEntity
  8
06-99
100
AcDbText
 10
-570.0459038922328
 20
186.5930408968838
 30
0.0
 40
11.7
  1
DIN 2768
  7
ROMANS8
 72
     1
 11
-529.9316181779471
 21
186.5930408968838
 31
0.0
100
AcDbAttribute
280
     0
  2
NORM2
 70
     0
280
     0
  0
ATTRIB
  5
43D
330
3B5
100
AcDbEntity
  8
06-99
100
AcDbText
 10
-585.9244753208031
 20
205.7597075635508
 30
0.0
 40
11.7
  1
DIN 6930-M
  7
ROMANS8
 72
     1
 11
-532.4387610350888
 21
205.7597075635508
 31
0.0
100
AcDbAttribute
280
     0
  2
NORM1
 70
     0
280
     0
  0
SEQEND
  5
43E
330
3B5
100
AcDbEntity
  8
09-01
  0
ENDSEC
  0
SECTION
  2
OBJECTS
  0
DICTIONARY
  5
B
330
0
100
AcDbDictionary
281
     1
  3
ACAD_COLOR
350
4B
  3
ACAD_GROUP
350
38
  3
ACAD_LAYOUT
350
18
  3
ACAD_MATERIAL
350
D
  3
ACAD_MLEADERSTYLE
350
4E
  3
ACAD_MLINESTYLE
350
39
  3
ACAD_PLOTSETTINGS
350
3A
  3
ACAD_PLOTSTYLENAME
350
A
  3
ACAD_SCALELIST
350
4C
  3
ACAD_TABLESTYLE
350
4D
  3
ACAD_VISUALSTYLE
350
2F
  3
ACDB_RECOMPOSE_DATA
350
44D
  3
AcDbVariableDictionary
350
443
  0
DICTIONARY
  5
30
330
2C
100
AcDbDictionary
280
     1
281
     1
  0
DICTIONARY
  5
21
330
20
100
AcDbDictionary
280
     1
281
     1
  3
ACAD_LAYERSTATES
360
22
  0
DICTIONARY
  5
7
330
6
100
AcDbDictionary
280
     1
281
     1
  3
ADSK_XREC_LAYER_RECONCILED
360
8
  0
DICTIONARY
  5
363
330
362
100
AcDbDictionary
280
     1
281
     1
  3
ADSK_XREC_LAYER_RECONCILED
360
364
  0
DICTIONARY
  5
3C1
330
3C0
100
AcDbDictionary
280
     1
281
     1
  3
ADSK_XREC_LAYER_RECONCILED
360
3C2
  0
DICTIONARY
  5
7A
330
79
100
AcDbDictionary
280
     1
281
     1
  3
ADSK_XREC_LAYER_RECONCILED
360
7B
  0
DICTIONARY
  5
21E
330
21D
100
AcDbDictionary
280
     1
281
     1
  3
ADSK_XREC_LAYER_RECONCILED
360
21F
  0
DICTIONARY
  5
50
330
4F
100
AcDbDictionary
280
     1
281
     1
  3
ADSK_XREC_LAYER_RECONCILED
360
51
  0
DICTIONARY
  5
3BC
330
3BB
100
AcDbDictionary
280
     1
281
     1
  3
ADSK_XREC_LAYER_RECONCILED
360
3BD
  0
DICTIONARY
  5
3FC
330
3FB
100
AcDbDictionary
280
     1
281
     1
  3
ADSK_XREC_LAYER_RECONCILED
360
3FD
  0
DICTIONARY
  5
3E6
330
3E5
100
AcDbDictionary
280
     1
281
     1
  3
ADSK_XREC_LAYER_RECONCILED
360
3E7
  0
DICTIONARY
  5
344
330
343
100
AcDbDictionary
280
     1
281
     1
  0
DICTIONARY
  5
3
330
2
100
AcDbDictionary
280
     1
281
     1
  3
ACAD_SORTENTS
360
442
  0
DICTIONARY
  5
3B7
330
3B6
100
AcDbDictionary
280
     1
281
     1
  3
ACAD_SORTENTS
360
440
  0
DICTIONARY
  5
26A
330
269
100
AcDbDictionary
280
     1
281
     1
  3
ACAD_SORTENTS
360
43F
  0
DICTIONARY
  5
2AC
330
2AB
100
AcDbDictionary
280
     1
281
     1
  3
ACAD_SORTENTS
360
441
  0
DICTIONARY
  5
4B
102
{ACAD_REACTORS
330
B
102
}
330
B
100
AcDbDictionary
281
     1
  0
DICTIONARY
  5
38
102
{ACAD_REACTORS
330
B
102
}
330
B
100
AcDbDictionary
281
     1
  0
DICTIONARY
  5
18
102
{ACAD_REACTORS
330
B
102
}
330
B
100
AcDbDictionary
281
     1
  3
Layout1
350
1F
  3
Model
350
17
  0
DICTIONARY
  5
D
102
{ACAD_REACTORS
330
B
102
}
330
B
100
AcDbDictionary
281
     1
  3
ByBlock
350
43
  3
ByLayer
350
3B
  3
Global
350
C
  0
DICTIONARY
  5
4E
102
{ACAD_REACTORS
330
B
102
}
330
B
100
AcDbDictionary
281
     1
  0
DICTIONARY
  5
39
102
{ACAD_REACTORS
330
B
102
}
330
B
100
AcDbDictionary
281
     1
  3
Standard
350
52
  0
DICTIONARY
  5
3A
102
{ACAD_REACTORS
330
B
102
}
330
B
100
AcDbDictionary
281
     1
  0
ACDBDICTIONARYWDFLT
  5
A
102
{ACAD_REACTORS
330
B
102
}
330
B
100
AcDbDictionary
281
     1
  3
Normal
350
9
100
AcDbDictionaryWithDefault
340
9
  0
DICTIONARY
  5
4C
102
{ACAD_REACTORS
330
B
102
}
330
B
100
AcDbDictionary
281
     1
  3
A0
350
57
  3
A1
350
58
  3
A2
350
59
  3
A3
350
5A
  3
A4
350
5B
  3
A5
350
5C
  3
A6
350
5D
  3
A7
350
5E
  3
A8
350
5F
  3
A9
350
60
  3
B0
350
61
  3
B1
350
62
  3
B2
350
63
  3
B3
350
64
  3
B4
350
65
  3
B5
350
66
  3
B6
350
67
  3
B7
350
68
  3
B8
350
69
  3
B9
350
6A
  3
C0
350
6B
  3
C1
350
6C
  3
C2
350
6D
  3
C3
350
6E
  3
C4
350
6F
  3
C5
350
70
  3
C6
350
71
  3
C7
350
72
  3
C8
350
73
  3
C9
350
74
  3
D0
350
75
  3
D1
350
76
  3
D2
350
77
  0
DICTIONARY
  5
4D
102
{ACAD_REACTORS
330
B
102
}
330
B
100
AcDbDictionary
281
     1
  3
Standard
350
53
  0
DICTIONARY
  5
2F
102
{ACAD_REACTORS
330
B
102
}
330
B
100
AcDbDictionary
281
     1
  3
2dWireframe
350
2E
  3
3dWireframe
350
56
  3
Realistic
350
55
  0
XRECORD
  5
44D
102
{ACAD_REACTORS
330
B
102
}
330
B
100
AcDbXrecord
280
     1
 90
        1
330
53
  0
DICTIONARY
  5
443
102
{ACAD_REACTORS
330
B
102
}
330
B
100
AcDbDictionary
281
     1
  3
CANNOSCALE
350
447
  3
CMLEADERSTYLE
350
445
  3
CTABLESTYLE
350
444
  3
LAYEREVAL
350
449
  3
LAYERNOTIFY
350
44A
  3
LIGHTINGUNITS
350
448
  3
MSLTSCALE
350
446
  0
DICTIONARY
  5
22
102
{ACAD_REACTORS
330
21
102
}
330
21
100
AcDbDictionary
281
     1
  0
XRECORD
  5
8
102
{ACAD_REACTORS
330
7
102
}
330
7
100
AcDbXrecord
280
     1
290
     1
  0
XRECORD
  5
364
102
{ACAD_REACTORS
330
363
102
}
330
363
100
AcDbXrecord
280
     1
290
     1
  0
XRECORD
  5
3C2
102
{ACAD_REACTORS
330
3C1
102
}
330
3C1
100
AcDbXrecord
280
     1
290
     1
  0
XRECORD
  5
7B
102
{ACAD_REACTORS
330
7A
102
}
330
7A
100
AcDbXrecord
280
     1
290
     1
  0
XRECORD
  5
21F
102
{ACAD_REACTORS
330
21E
102
}
330
21E
100
AcDbXrecord
280
     1
290
     1
  0
XRECORD
  5
51
102
{ACAD_REACTORS
330
50
102
}
330
50
100
AcDbXrecord
280
     1
290
     1
  0
XRECORD
  5
3BD
102
{ACAD_REACTORS
330
3BC
102
}
330
3BC
100
AcDbXrecord
280
     1
290
     1
  0
XRECORD
  5
3FD
102
{ACAD_REACTORS
330
3FC
102
}
330
3FC
100
AcDbXrecord
280
     1
290
     1
  0
XRECORD
  5
3E7
102
{ACAD_REACTORS
330
3E6
102
}
330
3E6
100
AcDbXrecord
280
     1
290
     1
  0
SORTENTSTABLE
  5
442
102
{ACAD_REACTORS
330
3
102
}
330
3
100
AcDbSortentsTable
330
2
331
21B
  5
316
331
217
  5
31A
331
213
  5
31E
331
340
  5
E0
331
B6
  5
36F
331
B2
  5
373
331
AE
  5
377
331
AA
  5
37B
331
37F
  5
A6
331
37B
  5
AA
331
1D0
  5
329
331
1CC
  5
32D
331
1C8
  5
331
331
33C
  5
112
331
338
  5
14A
331
334
  5
184
331
330
  5
1C9
331
A6
  5
37F
331
E1
  5
33F
331
A2
  5
38F
331
9E
  5
393
331
377
  5
AE
331
DD
  5
345
331
9A
  5
397
331
D9
  5
349
331
373
  5
B2
331
3B2
  5
8B
331
3AE
  5
8F
331
36F
  5
B6
331
3AA
  5
93
331
36B
  5
BA
331
32C
  5
1CD
331
328
  5
1D1
331
324
  5
1E1
331
2AA
  5
2DF
331
2E1
  5
268
331
320
  5
211
331
96
  5
3A7
331
D5
  5
34D
331
D1
  5
351
331
92
  5
3AB
331
CD
  5
355
331
367
  5
BE
331
8E
  5
3AF
331
8A
  5
3B3
331
C9
  5
359
331
35F
  5
C3
331
39A
  5
97
331
35B
  5
C7
331
175
  5
335
331
1E3
  5
322
331
31C
  5
215
331
318
  5
219
331
C5
  5
35D
331
C1
  5
361
331
BD
  5
368
331
357
  5
CB
331
396
  5
9B
331
B9
  5
36C
331
353
  5
CF
331
392
  5
9F
331
34F
  5
D3
331
38E
  5
A3
331
34B
  5
D7
331
1DF
  5
326
331
21A
  5
317
331
216
  5
31B
331
212
  5
31F
331
347
  5
DB
331
B5
  5
370
331
B1
  5
374
331
AD
  5
378
331
A9
  5
37C
331
37E
  5
A7
331
37A
  5
AB
331
1CF
  5
32A
331
1CB
  5
32E
331
33F
  5
E1
331
33B
  5
121
331
337
  5
159
331
333
  5
1C6
331
A5
  5
380
331
E0
  5
340
331
A1
  5
390
331
9D
  5
394
331
DC
  5
346
331
376
  5
AF
331
3B5
  5
78
331
99
  5
398
331
D8
  5
34A
331
372
  5
B3
331
3B1
  5
8C
331
3AD
  5
90
331
36E
  5
B7
331
36A
  5
BB
331
3A9
  5
94
331
1C7
  5
332
331
184
  5
334
331
32F
  5
1CA
331
32B
  5
1CE
331
327
  5
1D2
331
323
  5
1E2
331
2E0
  5
28D
331
95
  5
3A8
331
D4
  5
34E
331
D0
  5
352
331
14A
  5
338
331
91
  5
3AC
331
8D
  5
3B0
331
366
  5
BF
331
CC
  5
356
331
89
  5
3B4
331
C8
  5
35A
331
103
  5
33D
331
35E
  5
C4
331
399
  5
98
331
35A
  5
C8
331
168
  5
336
331
1E2
  5
323
331
31F
  5
212
331
31B
  5
216
331
317
  5
21A
331
C4
  5
35E
331
C0
  5
365
331
BC
  5
369
331
356
  5
CC
331
395
  5
9C
331
B8
  5
36D
331
352
  5
D0
331
391
  5
A0
331
34E
  5
D4
331
38D
  5
A4
331
34A
  5
D8
331
219
  5
318
331
215
  5
31C
331
211
  5
320
331
346
  5
DC
331
28D
  5
2E0
331
342
  5
DE
331
B4
  5
371
331
B0
  5
375
331
AC
  5
379
331
A8
  5
37D
331
37D
  5
A8
331
379
  5
AC
331
1D2
  5
327
331
1CE
  5
32B
331
1CA
  5
32F
331
33E
  5
F5
331
33A
  5
130
331
336
  5
168
331
332
  5
1C7
331
A4
  5
38D
331
DF
  5
341
331
159
  5
337
331
A0
  5
391
331
9C
  5
395
331
DB
  5
347
331
375
  5
B0
331
3B4
  5
89
331
98
  5
399
331
112
  5
33C
331
371
  5
B4
331
3B0
  5
8D
331
3AC
  5
91
331
36D
  5
B8
331
369
  5
BC
331
3A8
  5
95
331
1C6
  5
333
331
32E
  5
1CB
331
32A
  5
1CF
331
326
  5
1DF
331
322
  5
1E3
331
D7
  5
34B
331
94
  5
3A9
331
D3
  5
34F
331
CF
  5
353
331
90
  5
3AD
331
8C
  5
3B1
331
365
  5
C0
331
CB
  5
357
331
361
  5
C1
331
35D
  5
C5
331
359
  5
C9
331
398
  5
99
331
1E1
  5
324
331
2DF
  5
2AA
331
31E
  5
213
331
31A
  5
217
331
316
  5
21B
331
C7
  5
35B
331
13D
  5
339
331
C3
  5
35F
331
BF
  5
366
331
BB
  5
36A
331
355
  5
CD
331
394
  5
9D
331
78
  5
3B5
331
351
  5
D1
331
390
  5
A1
331
34D
  5
D5
331
349
  5
D9
331
21C
  5
315
331
218
  5
319
331
214
  5
31D
331
345
  5
DD
331
341
  5
DF
331
B7
  5
36E
331
B3
  5
372
331
AF
  5
376
331
AB
  5
37A
331
380
  5
A5
331
121
  5
33B
331
37C
  5
A9
331
378
  5
AD
331
1D1
  5
328
331
1CD
  5
32C
331
1C9
  5
330
331
33D
  5
103
331
339
  5
13D
331
335
  5
175
331
331
  5
1C8
331
A7
  5
37E
331
A3
  5
38E
331
DE
  5
342
331
9F
  5
392
331
9B
  5
396
331
DA
  5
348
331
374
  5
B1
331
3B3
  5
8A
331
370
  5
B5
331
3AF
  5
8E
331
3AB
  5
92
331
36C
  5
B9
331
368
  5
BD
331
1F0
  5
321
331
32D
  5
1CC
331
329
  5
1D0
331
325
  5
1E0
331
321
  5
1F0
331
268
  5
2E1
331
97
  5
39A
331
D6
  5
34C
331
93
  5
3AA
331
D2
  5
350
331
CE
  5
354
331
3A7
  5
96
331
8F
  5
3AE
331
8B
  5
3B2
331
CA
  5
358
331
360
  5
C2
331
35C
  5
C6
331
358
  5
CA
331
1E0
  5
325
331
31D
  5
214
331
319
  5
218
331
315
  5
21C
331
C6
  5
35C
331
C2
  5
360
331
BE
  5
367
331
397
  5
9A
331
BA
  5
36B
331
F5
  5
33E
331
354
  5
CE
331
393
  5
9E
331
130
  5
33A
331
350
  5
D2
331
38F
  5
A2
331
34C
  5
D6
331
348
  5
DA
  0
SORTENTSTABLE
  5
440
102
{ACAD_REACTORS
330
3B7
102
}
330
3B7
100
AcDbSortentsTable
330
3B6
  0
SORTENTSTABLE
  5
43F
102
{ACAD_REACTORS
330
26A
102
}
330
26A
100
AcDbSortentsTable
330
269
  0
SORTENTSTABLE
  5
441
102
{ACAD_REACTORS
330
2AC
102
}
330
2AC
100
AcDbSortentsTable
330
2AB
  0
LAYOUT
  5
1F
102
{ACAD_REACTORS
330
18
102
}
330
18
100
AcDbPlotSettings
  1

  2
HP LaserJet 4 Plus
  4

  6

 40
0.0
 41
0.0
 42
0.0
 43
0.0
 44
0.0
 45
0.0
 46
0.0
 47
0.0
 48
0.0
 49
0.0
140
0.0
141
0.0
142
1.0
143
1.0
 70
   688
 72
     0
 73
     0
 74
     5
  7
CNC-Soft.ctb
 75
    16
147
1.0
 76
     0
 77
     2
 78
   300
148
0.0
149
0.0
100
AcDbLayout
  1
Layout1
 70
     0
 71
     1
 10
0.0
 20
0.0
 11
12.0
 21
9.0
 12
0.0
 22
0.0
 32
0.0
 14
1.000000000000000E+20
 24
1.000000000000000E+20
 34
1.000000000000000E+20
 15
-1.000000000000000E+20
 25
-1.000000000000000E+20
 35
-1.000000000000000E+20
146
0.0
 13
0.0
 23
0.0
 33
0.0
 16
1.0
 26
0.0
 36
0.0
 17
0.0
 27
1.0
 37
0.0
 76
     0
330
1C
  0
LAYOUT
  5
17
102
{ACAD_XDICTIONARY
360
19
102
}
102
{ACAD_REACTORS
330
18
102
}
330
18
100
AcDbPlotSettings
  1

  2
\\SBS01\KMC364e s/w
  4
A4
  6

 40
5.027082920074462
 41
5.027099609375
 42
5.027069091796875
 43
5.027069091796875
 44
209.9733276367187
 45
296.9259948730469
 46
0.0
 47
0.0
 48
-2620.659277864077
 49
980.4259618784094
140
-1360.659277864202
141
1871.425961878321
142
1.0
143
4.456801090816279
 70
  3760
 72
     1
 73
     1
 74
     4
  7
monochrome.ctb
 75
     0
147
0.2243761791524886
 76
     1
 77
     2
 78
   300
148
2620.659277864077
149
-980.4259618784094
100
AcDbLayout
  1
Model
 70
     1
 71
     0
 10
0.0
 20
0.0
 11
12.0
 21
9.0
 12
0.0
 22
0.0
 32
0.0
 14
0.0
 24
0.0
 34
0.0
 15
0.0
 25
0.0
 35
0.0
146
0.0
 13
0.0
 23
0.0
 33
0.0
 16
1.0
 26
0.0
 36
0.0
 17
0.0
 27
1.0
 37
0.0
 76
     0
330
2
331
2D
1001
ACAD_PSEXT
1000
\\SBS01\KMC364e s/w
1000
KONICA MINOLTA C364SeriesPCL
1000
2.Stock
1000
schwarzweiss
1070
     0
  0
MATERIAL
  5
43
102
{ACAD_XDICTIONARY
360
44
102
}
102
{ACAD_REACTORS
330
D
102
}
330
D
100
AcDbMaterial
  1
ByBlock
 72
     0
 43
0.0208333333333333
 43
0.0
 43
0.0
 43
0.0
 43
0.0
 43
0.0208333333333333
 43
0.0
 43
0.0
 43
0.0
 43
0.0
 43
1.0
 43
0.0
 43
0.0
 43
0.0
 43
0.0
 43
1.0
 77
     0
 47
0.0208333333333333
 47
0.0
 47
0.0
 47
0.0
 47
0.0
 47
0.0208333333333333
 47
0.0
 47
0.0
 47
0.0
 47
0.0
 47
1.0
 47
0.0
 47
0.0
 47
0.0
 47
0.0
 47
1.0
171
     0
 49
0.0208333333333333
 49
0.0
 49
0.0
 49
0.0
 49
0.0
 49
0.0208333333333333
 49
0.0
 49
0.0
 49
0.0
 49
0.0
 49
1.0
 49
0.0
 49
0.0
 49
0.0
 49
0.0
 49
1.0
175
     0
142
0.0208333333333333
142
0.0
142
0.0
142
0.0
142
0.0
142
0.0208333333333333
142
0.0
142
0.0
142
0.0
142
0.0
142
1.0
142
0.0
142
0.0
142
0.0
142
0.0
142
1.0
179
     0
144
0.0208333333333333
144
0.0
144
0.0
144
0.0
144
0.0
144
0.0208333333333333
144
0.0
144
0.0
144
0.0
144
0.0
144
1.0
144
0.0
144
0.0
144
0.0
144
0.0
144
1.0
147
0.0208333333333333
147
0.0
147
0.0
147
0.0
147
0.0
147
0.0208333333333333
147
0.0
147
0.0
147
0.0
147
0.0
147
1.0
147
0.0
147
0.0
147
0.0
147
0.0
147
1.0
  0
MATERIAL
  5
3B
102
{ACAD_XDICTIONARY
360
3C
102
}
102
{ACAD_REACTORS
330
D
102
}
330
D
100
AcDbMaterial
  1
ByLayer
 72
     0
 43
0.0208333333333333
 43
0.0
 43
0.0
 43
0.0
 43
0.0
 43
0.0208333333333333
 43
0.0
 43
0.0
 43
0.0
 43
0.0
 43
1.0
 43
0.0
 43
0.0
 43
0.0
 43
0.0
 43
1.0
 77
     0
 47
0.0208333333333333
 47
0.0
 47
0.0
 47
0.0
 47
0.0
 47
0.0208333333333333
 47
0.0
 47
0.0
 47
0.0
 47
0.0
 47
1.0
 47
0.0
 47
0.0
 47
0.0
 47
0.0
 47
1.0
171
     0
 49
0.0208333333333333
 49
0.0
 49
0.0
 49
0.0
 49
0.0
 49
0.0208333333333333
 49
0.0
 49
0.0
 49
0.0
 49
0.0
 49
1.0
 49
0.0
 49
0.0
 49
0.0
 49
0.0
 49
1.0
175
     0
142
0.0208333333333333
142
0.0
142
0.0
142
0.0
142
0.0
142
0.0208333333333333
142
0.0
142
0.0
142
0.0
142
0.0
142
1.0
142
0.0
142
0.0
142
0.0
142
0.0
142
1.0
179
     0
144
0.0208333333333333
144
0.0
144
0.0
144
0.0
144
0.0
144
0.0208333333333333
144
0.0
144
0.0
144
0.0
144
0.0
144
1.0
144
0.0
144
0.0
144
0.0
144
0.0
144
1.0
147
0.0208333333333333
147
0.0
147
0.0
147
0.0
147
0.0
147
0.0208333333333333
147
0.0
147
0.0
147
0.0
147
0.0
147
1.0
147
0.0
147
0.0
147
0.0
147
0.0
147
1.0
  0
MATERIAL
  5
C
102
{ACAD_XDICTIONARY
360
E
102
}
102
{ACAD_REACTORS
330
D
102
}
330
D
100
AcDbMaterial
  1
Global
 72
     0
 43
0.0208333333333333
 43
0.0
 43
0.0
 43
0.0
 43
0.0
 43
0.0208333333333333
 43
0.0
 43
0.0
 43
0.0
 43
0.0
 43
1.0
 43
0.0
 43
0.0
 43
0.0
 43
0.0
 43
1.0
 77
     0
 47
0.0208333333333333
 47
0.0
 47
0.0
 47
0.0
 47
0.0
 47
0.0208333333333333
 47
0.0
 47
0.0
 47
0.0
 47
0.0
 47
1.0
 47
0.0
 47
0.0
 47
0.0
 47
0.0
 47
1.0
171
     0
 49
0.0208333333333333
 49
0.0
 49
0.0
 49
0.0
 49
0.0
 49
0.0208333333333333
 49
0.0
 49
0.0
 49
0.0
 49
0.0
 49
1.0
 49
0.0
 49
0.0
 49
0.0
 49
0.0
 49
1.0
175
     0
142
0.0208333333333333
142
0.0
142
0.0
142
0.0
142
0.0
142
0.0208333333333333
142
0.0
142
0.0
142
0.0
142
0.0
142
1.0
142
0.0
142
0.0
142
0.0
142
0.0
142
1.0
179
     0
144
0.0208333333333333
144
0.0
144
0.0
144
0.0
144
0.0
144
0.0208333333333333
144
0.0
144
0.0
144
0.0
144
0.0
144
1.0
144
0.0
144
0.0
144
0.0
144
0.0
144
1.0
147
0.0208333333333333
147
0.0
147
0.0
147
0.0
147
0.0
147
0.0208333333333333
147
0.0
147
0.0
147
0.0
147
0.0
147
1.0
147
0.0
147
0.0
147
0.0
147
0.0
147
1.0
  0
MLINESTYLE
  5
52
102
{ACAD_REACTORS
330
39
102
}
330
39
100
AcDbMlineStyle
  2
STANDARD
 70
     0
  3

 62
   256
 51
90.0
 52
90.0
 71
     2
 49
0.5
 62
   256
  6
BYLAYER
 49
-0.5
 62
   256
  6
BYLAYER
  0
ACDBPLACEHOLDER
  5
9
102
{ACAD_REACTORS
330
A
102
}
330
A
  0
SCALE
  5
57
102
{ACAD_REACTORS
330
4C
102
}
330
4C
100
AcDbScale
 70
     0
300
1:1
140
1.0
141
1.0
290
     1
  0
SCALE
  5
58
102
{ACAD_REACTORS
330
4C
102
}
330
4C
100
AcDbScale
 70
     0
300
1:2
140
1.0
141
2.0
290
     0
  0
SCALE
  5
59
102
{ACAD_REACTORS
330
4C
102
}
330
4C
100
AcDbScale
 70
     0
300
1:4
140
1.0
141
4.0
290
     0
  0
SCALE
  5
5A
102
{ACAD_REACTORS
330
4C
102
}
330
4C
100
AcDbScale
 70
     0
300
1:5
140
1.0
141
5.0
290
     0
  0
SCALE
  5
5B
102
{ACAD_REACTORS
330
4C
102
}
330
4C
100
AcDbScale
 70
     0
300
1:8
140
1.0
141
8.0
290
     0
  0
SCALE
  5
5C
102
{ACAD_REACTORS
330
4C
102
}
330
4C
100
AcDbScale
 70
     0
300
1:10
140
1.0
141
10.0
290
     0
  0
SCALE
  5
5D
102
{ACAD_REACTORS
330
4C
102
}
330
4C
100
AcDbScale
 70
     0
300
1:16
140
1.0
141
16.0
290
     0
  0
SCALE
  5
5E
102
{ACAD_REACTORS
330
4C
102
}
330
4C
100
AcDbScale
 70
     0
300
1:20
140
1.0
141
20.0
290
     0
  0
SCALE
  5
5F
102
{ACAD_REACTORS
330
4C
102
}
330
4C
100
AcDbScale
 70
     0
300
1:30
140
1.0
141
30.0
290
     0
  0
SCALE
  5
60
102
{ACAD_REACTORS
330
4C
102
}
330
4C
100
AcDbScale
 70
     0
300
1:40
140
1.0
141
40.0
290
     0
  0
SCALE
  5
61
102
{ACAD_REACTORS
330
4C
102
}
330
4C
100
AcDbScale
 70
     0
300
1:50
140
1.0
141
50.0
290
     0
  0
SCALE
  5
62
102
{ACAD_REACTORS
330
4C
102
}
330
4C
100
AcDbScale
 70
     0
300
1:100
140
1.0
141
100.0
290
     0
  0
SCALE
  5
63
102
{ACAD_REACTORS
330
4C
102
}
330
4C
100
AcDbScale
 70
     0
300
2:1
140
2.0
141
1.0
290
     0
  0
SCALE
  5
64
102
{ACAD_REACTORS
330
4C
102
}
330
4C
100
AcDbScale
 70
     0
300
4:1
140
4.0
141
1.0
290
     0
  0
SCALE
  5
65
102
{ACAD_REACTORS
330
4C
102
}
330
4C
100
AcDbScale
 70
     0
300
8:1
140
8.0
141
1.0
290
     0
  0
SCALE
  5
66
102
{ACAD_REACTORS
330
4C
102
}
330
4C
100
AcDbScale
 70
     0
300
10:1
140
10.0
141
1.0
290
     0
  0
SCALE
  5
67
102
{ACAD_REACTORS
330
4C
102
}
330
4C
100
AcDbScale
 70
     0
300
100:1
140
100.0
141
1.0
290
     0
  0
SCALE
  5
68
102
{ACAD_REACTORS
330
4C
102
}
330
4C
100
AcDbScale
 70
     0
300
1/128" = 1'-0"
140
0.0078125
141
12.0
290
     0
  0
SCALE
  5
69
102
{ACAD_REACTORS
330
4C
102
}
330
4C
100
AcDbScale
 70
     0
300
1/64" = 1'-0"
140
0.015625
141
12.0
290
     0
  0
SCALE
  5
6A
102
{ACAD_REACTORS
330
4C
102
}
330
4C
100
AcDbScale
 70
     0
300
1/32" = 1'-0"
140
0.03125
141
12.0
290
     0
  0
SCALE
  5
6B
102
{ACAD_REACTORS
330
4C
102
}
330
4C
100
AcDbScale
 70
     0
300
1/16" = 1'-0"
140
0.0625
141
12.0
290
     0
  0
SCALE
  5
6C
102
{ACAD_REACTORS
330
4C
102
}
330
4C
100
AcDbScale
 70
     0
300
3/32" = 1'-0"
140
0.09375
141
12.0
290
     0
  0
SCALE
  5
6D
102
{ACAD_REACTORS
330
4C
102
}
330
4C
100
AcDbScale
 70
     0
300
1/8" = 1'-0"
140
0.125
141
12.0
290
     0
  0
SCALE
  5
6E
102
{ACAD_REACTORS
330
4C
102
}
330
4C
100
AcDbScale
 70
     0
300
3/16" = 1'-0"
140
0.1875
141
12.0
290
     0
  0
SCALE
  5
6F
102
{ACAD_REACTORS
330
4C
102
}
330
4C
100
AcDbScale
 70
     0
300
1/4" = 1'-0"
140
0.25
141
12.0
290
     0
  0
SCALE
  5
70
102
{ACAD_REACTORS
330
4C
102
}
330
4C
100
AcDbScale
 70
     0
300
3/8" = 1'-0"
140
0.375
141
12.0
290
     0
  0
SCALE
  5
71
102
{ACAD_REACTORS
330
4C
102
}
330
4C
100
AcDbScale
 70
     0
300
1/2" = 1'-0"
140
0.5
141
12.0
290
     0
  0
SCALE
  5
72
102
{ACAD_REACTORS
330
4C
102
}
330
4C
100
AcDbScale
 70
     0
300
3/4" = 1'-0"
140
0.75
141
12.0
290
     0
  0
SCALE
  5
73
102
{ACAD_REACTORS
330
4C
102
}
330
4C
100
AcDbScale
 70
     0
300
1" = 1'-0"
140
1.0
141
12.0
290
     0
  0
SCALE
  5
74
102
{ACAD_REACTORS
330
4C
102
}
330
4C
100
AcDbScale
 70
     0
300
1-1/2" = 1'-0"
140
1.5
141
12.0
290
     0
  0
SCALE
  5
75
102
{ACAD_REACTORS
330
4C
102
}
330
4C
100
AcDbScale
 70
     0
300
3" = 1'-0"
140
3.0
141
12.0
290
     0
  0
SCALE
  5
76
102
{ACAD_REACTORS
330
4C
102
}
330
4C
100
AcDbScale
 70
     0
300
6" = 1'-0"
140
6.0
141
12.0
290
     0
  0
SCALE
  5
77
102
{ACAD_REACTORS
330
4C
102
}
330
4C
100
AcDbScale
 70
     0
300
1'-0" = 1'-0"
140
12.0
141
12.0
290
     0
  0
TABLESTYLE
  5
53
102
{ACAD_XDICTIONARY
360
54
102
}
102
{ACAD_REACTORS
330
4D
102
}
330
4D
100
AcDbTableStyle
280
     0
  3
Standard
 70
     0
 71
     0
 40
0.06
 41
0.06
280
     0
281
     0
  7
STANDARD
140
0.18
170
     2
 62
     0
 63
     7
283
     0
 90
      512
 91
        0
  1

274
    -2
284
     1
 64
     0
275
    -2
285
     1
 65
     0
276
    -2
286
     1
 66
     0
277
    -2
287
     1
 67
     0
278
    -2
288
     1
 68
     0
279
    -2
289
     1
 69
     0
  7
STANDARD
140
0.25
170
     5
 62
     0
 63
     7
283
     0
 90
      512
 91
        0
  1

274
    -2
284
     1
 64
     0
275
    -2
285
     1
 65
     0
276
    -2
286
     1
 66
     0
277
    -2
287
     1
 67
     0
278
    -2
288
     1
 68
     0
279
    -2
289
     1
 69
     0
  7
STANDARD
140
0.18
170
     5
 62
     0
 63
     7
283
     0
 90
      512
 91
        0
  1

274
    -2
284
     1
 64
     0
275
    -2
285
     1
 65
     0
276
    -2
286
     1
 66
     0
277
    -2
287
     1
 67
     0
278
    -2
288
     1
 68
     0
279
    -2
289
     1
 69
     0
  0
VISUALSTYLE
  5
2E
102
{ACAD_REACTORS
330
2F
102
}
330
2F
100
AcDbVisualStyle
  2
2dWireframe
 70
     4
177
     2
291
     0
 71
     0
176
     1
 72
     2
176
     1
 73
     0
176
     1
 90
        0
176
     1
 40
0.6
176
     1
 41
30.0
176
     1
 63
     7
176
     1
 74
     1
176
     1
 91
        4
176
     1
 64
     7
176
     1
 65
   257
176
     1
 75
     1
176
     1
175
     1
176
     1
 42
1.0
176
     1
 92
        0
176
     1
 66
   257
176
     1
 43
1.0
176
     1
 76
     1
176
     1
 77
     6
176
     1
 78
     2
176
     1
 67
     7
176
     1
 79
     5
176
     1
170
     0
176
     1
171
     0
176
     1
290
     0
176
     1
 93
        1
176
     1
 44
0.0
176
     1
173
     0
176
     1
  0
VISUALSTYLE
  5
56
102
{ACAD_REACTORS
330
2F
102
}
330
2F
100
AcDbVisualStyle
  2
3dWireframe
 70
     5
177
     2
291
     0
 71
     0
176
     1
 72
     2
176
     1
 73
     0
176
     1
 90
        0
176
     1
 40
0.6
176
     1
 41
30.0
176
     1
 63
     7
176
     1
 74
     1
176
     1
 91
        4
176
     1
 64
     7
176
     1
 65
   257
176
     1
 75
     1
176
     1
175
     1
176
     1
 42
1.0
176
     1
 92
        0
176
     1
 66
   257
176
     1
 43
1.0
176
     1
 76
     1
176
     1
 77
     6
176
     1
 78
     2
176
     1
 67
     7
176
     1
 79
     5
176
     1
170
     0
176
     1
171
     0
176
     1
290
     0
176
     1
 93
        1
176
     1
 44
0.0
176
     1
173
     0
176
     1
  0
VISUALSTYLE
  5
55
102
{ACAD_REACTORS
330
2F
102
}
330
2F
100
AcDbVisualStyle
  2
Realistic
 70
     8
177
     2
291
     0
 71
     2
176
     1
 72
     2
176
     1
 73
     0
176
     1
 90
        0
176
     1
 40
0.6
176
     1
 41
30.0
176
     1
 63
     7
176
     1
 74
     1
176
     1
 91
        0
176
     1
 64
     7
176
     1
 65
   257
176
     1
 75
     1
176
     1
175
     1
176
     1
 42
1.0
176
     1
 92
        8
176
     1
 66
     8
176
     1
 43
1.0
176
     1
 76
     1
176
     1
 77
     6
176
     1
 78
     2
176
     1
 67
     7
176
     1
 79
     5
176
     1
170
     0
176
     1
171
     0
176
     1
290
     0
176
     1
 93
       13
176
     1
 44
0.0
176
     1
173
     0
176
     1
  0
DICTIONARYVAR
  5
447
102
{ACAD_REACTORS
330
443
102
}
330
443
100
DictionaryVariables
280
     0
  1
1:1
  0
DICTIONARYVAR
  5
445
102
{ACAD_REACTORS
330
443
102
}
330
443
100
DictionaryVariables
280
     0
  1
STANDARD
  0
DICTIONARYVAR
  5
444
102
{ACAD_REACTORS
330
443
102
}
330
443
100
DictionaryVariables
280
     0
  1
STANDARD
  0
DICTIONARYVAR
  5
449
102
{ACAD_REACTORS
330
443
102
}
330
443
100
DictionaryVariables
280
     0
  1
1
  0
DICTIONARYVAR
  5
44A
102
{ACAD_REACTORS
330
443
102
}
330
443
100
DictionaryVariables
280
     0
  1
15
  0
DICTIONARYVAR
  5
448
102
{ACAD_REACTORS
330
443
102
}
330
443
100
DictionaryVariables
280
     0
  1
0
  0
DICTIONARYVAR
  5
446
102
{ACAD_REACTORS
330
443
102
}
330
443
100
DictionaryVariables
280
     0
  1
0
  0
DICTIONARY
  5
19
330
17
100
AcDbDictionary
280
     1
281
     1
  3
ADSK_XREC_LAYOUTTHUMBNAIL
360
1A
  0
DICTIONARY
  5
44
330
43
100
AcDbDictionary
280
     1
281
     1
  3
BUMPTILE
360
45
  3
DIFFUSETILE
360
46
  3
OPACITYTILE
360
47
  3
REFLECTIONTILE
360
48
  3
REFRACTIONTILE
360
49
  3
SPECULARTILE
360
4A
  0
DICTIONARY
  5
3C
330
3B
100
AcDbDictionary
280
     1
281
     1
  3
BUMPTILE
360
3D
  3
DIFFUSETILE
360
3E
  3
OPACITYTILE
360
3F
  3
REFLECTIONTILE
360
40
  3
REFRACTIONTILE
360
41
  3
SPECULARTILE
360
42
  0
DICTIONARY
  5
E
330
C
100
AcDbDictionary
280
     1
281
     1
  3
BUMPTILE
360
F
  3
DIFFUSETILE
360
10
  3
OPACITYTILE
360
11
  3
REFLECTIONTILE
360
12
  3
REFRACTIONTILE
360
13
  3
SPECULARTILE
360
14
  0
DICTIONARY
  5
54
330
53
100
AcDbDictionary
280
     1
281
     1
  3
ACAD_ROUNDTRIP_2008_TABLESTYLE_CELLSTYLEMAP
360
44B
  0
XRECORD
  5
1A
102
{ACAD_REACTORS
330
19
102
}
330
19
100
AcDbXrecord
280
     1
310
280000000001000091000000010008000000000000910000000000000000000000010000000000003028210000000000FFFFFF000000000000000000000000000000000000000000000000000000000000000000330000006600000099000000CC000000FF00000000330000333300006633000099330000CC330000FF3300
310
0000660000336600006666000099660000CC660000FF66000000990000339900006699000099990000CC990000FF99000000CC000033CC000066CC000099CC0000CCCC0000FFCC000000FF000033FF000066FF000099FF0000CCFF0000FFFF000000003300330033006600330099003300CC003300FF003300003333003333
310
33006633330099333300CC333300FF33330000663300336633006666330099663300CC663300FF66330000993300339933006699330099993300CC993300FF99330000CC330033CC330066CC330099CC3300CCCC3300FFCC330000FF330033FF330066FF330099FF3300CCFF3300FFFF330000006600330066006600660099
310
006600CC006600FF00660000336600333366006633660099336600CC336600FF33660000666600336666006666660099666600CC666600FF66660000996600339966006699660099996600CC996600FF99660000CC660033CC660066CC660099CC6600CCCC6600FFCC660000FF660033FF660066FF660099FF6600CCFF6600
310
FFFF660000009900330099006600990099009900CC009900FF00990000339900333399006633990099339900CC339900FF33990000669900336699006666990099669900CC669900FF66990000999900339999006699990099999900CC999900FF99990000CC990033CC990066CC990099CC9900CCCC9900FFCC990000FF99
310
0033FF990066FF990099FF9900CCFF9900FFFF99000000CC003300CC006600CC009900CC00CC00CC00FF00CC000033CC003333CC006633CC009933CC00CC33CC00FF33CC000066CC003366CC006666CC009966CC00CC66CC00FF66CC000099CC003399CC006699CC009999CC00CC99CC00FF99CC0000CCCC0033CCCC0066CC
310
CC0099CCCC00CCCCCC00FFCCCC0000FFCC0033FFCC0066FFCC0099FFCC00CCFFCC00FFFFCC000000FF003300FF006600FF009900FF00CC00FF00FF00FF000033FF003333FF006633FF009933FF00CC33FF00FF33FF000066FF003366FF006666FF009966FF00CC66FF00FF66FF000099FF003399FF006699FF009999FF00CC
310
99FF00FF99FF0000CCFF0033CCFF0066CCFF0099CCFF00CCCCFF00FFCCFF0000FFFF0033FFFF0066FFFF0099FFFF00CCFFFF00FFFFFF00000000000D0D0D001A1A1A00282828003535350043434300505050005D5D5D006B6B6B00787878008686860093939300A1A1A100AEAEAE00BBBBBB00C9C9C900D6D6D600E4E4E400
310
F1F1F100FFFFFF000000000000000000000000000000000000000000000000000000000000000000000000000000000000000000000000000000000000000000000000000000000000000000000000000000000000000000000000000000000000000000000000000000000000000000000000000000000000000000000000
310
00000000000000000000000000000000000000000000000000000000000000000000000000000000000000000000000000000000000000000000000000000000000000000000000000000000000000000000000000000000000000000000000000000000000000000000000000000000000000000000000000000000000000
310
00000000000000000000000000000000000000000000000000000000000000000000000000000000000000000000000000000000000000000000000000000000000000000000000000000000000000000000000000000000000000000000000000000000000000000000000000000000000000000000000000000000000000
310
00000000000000000000000000000000000000000000000000000000000000000000000000000000000000000000000000000000000000000000000000000000000000000000000000000000000000000000000000000000000000000000000000000000000000000000000000000000000000000000000000000000000000
310
00000000000000000000000000000000000000000000000000000000000000000000000000000000000000000000000000000000000000000000000000000000000000000000000000000000000000000000000000000000000000000000000000000000000000000000000000000000000000000000000000000000000000
310
00000000000000000000000000000000000000000000000000000000000000000000000000000000000000000000000000000000000000000000000000000000000000000000000000000000000000000000000000000000000000000000000000000000000000000000000000000000000000000000000000000000000000
310
00000000000000000000000000000000000000000000000000000000000000000000000000000000000000000000000000000000000000000000000000000000000000000000000000000000000000000000000000000000000000000000000000000000000000000000000000000000000000000000000000000000000000
310
00000000000000000000000000000000000000000000000000000000000000000000000000000000000000000000000000000000000000000000000000000000000000000000000000000000000000000000000000000000000000000000000000000000000000000000000000000000000000000000000000000000000000
310
00000000000000000000000000000000000000000000000000000000000000000000000000000000000000000000000000000000000000000000000000000000000000000000000000000000000000000000000000000000000000000000000000000000000000000000000000000000000000000000000000000000000000
310
00000000000000000000000000000000000000000000000000000000000000000000000000000000000000000000000000000000000000000000000000000000000000000000000000000000000000000000000000000000000000000000000000000000000000000000000000000000000000000000000000000000000000
310
00000000000000000000000000000000000000000000000000000000000000000000000000000000000000000000000000000000000000000000000000000000000000000000000000000000000000000000000000000000000000000000000000000000000000000000000000000000000000000000000000000000000000
310
00000000000000000000000000000000000000000000000000000000000000000000000000000000000000000000000000000000000000000000000000000000000000000000000000000000000000000000000000000000000000000000000000000000000000000000000000000000000000000000000000000000000000
310
00000000000000000000000000000000000000000000000000000000000000000000000000000000000000000000000000000000000000000000000000000000000000000000000000000000000000000000000000000000000000000000000000000000000000000000000000000000000000000000000000000000000000
310
00000000000000000000000000000000000000000000000000000000000000000000000000000000000000000000000000000000000000000000000000000000000000000000000000000000000000000000000000000000000000000000000000000000000000000000000000000000000000000000000000000000000000
310
00000000000000000000000000000000000000000000000000000000000000000000000000000000000000000000000000000000000000000000000000000000000000000000000000000000000000000000000000000000000000000000000000000000000000000000000000000000000000000000000000000000000000
310
00000000000000000000000000000000000000000000000000000000000000000000000000000000000000000000000000000000000000000000000000000000000000000000000000000000000000000000000000000000000000000000000000000000000000000000000000000000000000000000000000000000000000
310
00000000000000000000000000000000000000000000000000000000000000000000000000000000000000000000000000000000000000000000000000000000000000000000000000000000000000000000000000000000000000000000000000000000000000000000000000000000000000000000000000000000000000
310
00000000000000000000000000000000000000000000000000000000000000000000000000000000000000000000000000000000000000000000000000000000000000000000000000000000000000000000000000000000000000000000000000000000000000000000000000000000000000000000000000000000000000
310
00000000000000000000000000000000000000000000000000000000000000000000000000000000000000000000000000000000000000000000000000000000000000000000000000000000000000000000000000000000000000000000000000000000000000000000000000000000000000000000000000000000000000
310
00000000000000000000000000000000000000000000000000000000000000000000000000000000000000000000000000000000000000000000000000000000000000000000000000000000000000000000000000000000000000000000000000000000000000000000000000000000000000000000000000000000000000
310
00000000000000000000000000000000000000000000000000000000000000000000000000000000000000000000000000000000000000000000000000000000000000000000000000000000000000000000000000000000000000000000000000000000000000000000000000000000000000000000000000000000000000
310
00000000000000000000000000000000000000000000000000000000000000000000000000000000000000000000000000000000000000000000000000000000000000000000000000000000000000000000000000000000000000000000000000000000000000000000000000000000000000000000000000000000000000
310
00000000000000000000000000000000000000000000000000000000000000000000000000000000000000000000000000000000000000000000000000000000000000000000000000000000000000000000000000000000000000000000000000000000000000000000000000000000000000000000000000000000000000
310
00000000000000000000000000000000000000000000000000000000000000000000000000000000000000000000000000000000000000000000000000000000000000000000000000000000000000000000000000000000000000000000000000000000000000000000000000000000000000000000000000000000000000
310
00000000000000000000000000000000000000000000000000000000000000000000000000000000000000000000000000000000000000000000000000000000000000000000000000000000000000000000000000000000000000000000000000000000000000000000000000000000000000000000000000000000000000
310
00000000000000000000000000000000000000000000000000000000000000000000000000000000000000000000000000000000000000000000000000000000000000000000000000000000000000000000000000000000000000000000000000000000000000000000000000000000000000000000000000000000000000
310
00000000000000000000000000000000000000000000000000000000000000000000000000000000000000000000000000000000000000000000000000000000000000000000000000000000000000000000000000000000000000000000000000000000000000000000000000000000000000000000000000000000000000
310
00000000000000000000000000000000000000000000000000000000000000000000000000000000000000000000000000000000000000000000000000000000000000000000000000000000000000000000000000000000000000000000000000000000000000000000000000000000000000000000000000000000000000
310
00000000000000000000000000000000000000000000000000000000000000000000000000000000000000000000000000000000000000000000000000000000000000000000000000000000000000000000000000000000000000000000000000000000000000000000000000000000000000000000000000000000000000
310
00000000000000000000000000000000000000000000000000000000000000000000000000000000000000000000000000000000000000000000000000000000000000000000000000000000000000000000000000000000000000000000000000000000000000000000000000000000000000000000000000000000000000
310
00000000000000000000000000000000000000000000000000000000000000000000000000000000000000000000000000000000000000000000000000000000000000000000000000000000000000000000000000000000000000000000000000000000000000000000000000000000000000000000000000000000000000
310
00000000000000000000000000000000000000000000000000000000000000000000000000000000000000000000000000000000000000000000000000000000000000000000000000000000000000000000000000000000000000000000000000000000000000000000000000000000000000000000000000000000000000
310
00000000000000000000000000000000000000000000000000000000000000000000000000000000000000000000000000000000000000000000000000000000000000000000000000000000000000000000000000000000000000000000000000000000000000000000000000000000000000000000000000000000000000
310
00000000000000000000000000000000000000000000000000000000000000000000000000000000000000000000000000000000000000000000000000000000000000000000000000000000000000000000000000000000000000000000000000000000000000000000000000000000000000000000000000000000000000
310
00000000000000000000000000000000000000000000000000000000000000000000000000000000000000000000000000000000000000000000000000000000000000000000000000000000000000000000000000000000000000000000000000000000000000000000000000000000000000000000000000000000000000
310
00000000000000000000000000000000000000000000000000000000000000000000000000000000000000000000000000000000000000000000000000000000000000000000000000000000000000000000000000000000000000000000000000000000000000000000000000000000000000000000000000000000000000
310
00000000000000000000000000000000000000000000000000000000000000000000000000000000000000000000000000000000000000000000000000000000000000000000000000000000000000000000000000000000000000000000000000000000000000000000000000000000000000000000000000000000000000
310
00000000000000000000000000000000000000000000000000000000000000000000000000000000000000000000000000000000000000000000000000000000000000000000000000000000000000000000000000000000000000000000000000000000000000000000000000000000000000000000000000000000000000
310
00000000000000000000000000000000000000000000000000000000000000000000000000000000000000000000000000000000000000000000000000000000000000000000000000000000000000000000000000000000000000000000000000000000000000000000000000000000000000000000000000000000000000
310
00000000000000000000000000000000000000000000000000000000000000000000000000000000000000000000000000000000000000000000000000000000000000000000000000000000000000000000000000000000000000000000000000000000000000000000000000000000000000000000000000000000000000
310
00000000000000000000000000000000000000000000000000000000000000000000000000000000000000000000000000000000000000000000000000000000000000000000000000000000000000000000000000000000000000000000000000000000000000000000000000000000000000000000000000000000000000
310
00000000000000000000000000000000000000000000000000000000000000000000000000000000000000000000000000000000000000000000000000000000000000000000000000000000000000000000000000000000000000000000000000000000000000000000000000000000000000000000000000000000000000
310
00000000000000000000000000000000000000000000000000000000000000000000000000000000000000000000000000000000000000000000000000000000000000000000000000000000000000000000000000000000000000000000000000000000000000000000000000000000000000000000000000000000000000
310
00000000000000000000000000000000000000000000000000000000000000000000000000000000000000000000000000000000000000000000000000000000000000000000000000000000000000000000000000000000000000000000000000000000000000000000000000000000000000000000000000000000000000
310
00000000000000000000000000000000000000000000000000000000000000000000000000000000000000000000000000000000000000000000000000000000000000000000000000000000000000000000000000000000000000000000000000000000000000000000000000000000000000000000000000000000000000
310
00000000000000000000000000000000000000000000000000000000000000000000000000000000000000000000000000000000000000000000000000000000000000000000000000000000000000000000000000000000000000000000000000000000000000000000000000000000000000000000000000000000000000
310
00000000000000000000000000000000000000000000000000000000000000000000000000000000000000000000000000000000000000000000000000000000000000000000000000000000000000000000000000000000000000000000000000000000000000000000000000000000000000000000000000000000000000
310
00000000000000000000000000000000000000000000000000000000000000000000000000000000000000000000000000000000000000000000000000000000000000000000000000000000000000000000000000000000000000000000000000000000000000000000000000000000000000000000000000000000000000
310
00000000000000000000000000000000000000000000000000000000000000000000000000000000000000000000000000000000000000000000000000000000000000000000000000000000000000000000000000000000000000000000000000000000000000000000000000000000000000000000000000000000000000
310
00000000000000000000000000000000000000000000000000000000000000000000000000000000000000000000000000000000000000000000000000000000000000000000000000000000000000000000000000000000000000000000000000000000000000000000000000000000000000000000000000000000000000
310
00000000000000000000000000000000000000000000000000000000000000000000000000000000000000000000000000000000000000000000000000000000000000000000000000000000000000000000000000000000000000000000000000000000000000000000000000000000000000000000000000000000000000
310
00000000000000000000000000000000000000000000000000000000000000000000000000000000000000000000000000000000000000000000000000000000000000000000000000000000000000000000000000000000000000000000000000000000000000000000000000000000000000000000000000000000000000
310
00000000000000000000000000000000000000000000000000000000000000000000000000000000000000000000000000000000000000000000000000000000000000000000000000000000000000000000000000000000000000000000000000000000000000000000000000000000000000000000000000000000000000
310
00000000000000000000000000000000000000000000000000000000000000000000000000000000000000000000000000000000000000000000000000000000000000000000000000000000000000000000000000000000000000000000000000000000000000000000000000000000000000000000000000000000000000
310
00000000000000000000000000000000000000000000000000000000000000000000000000000000000000000000000000000000000000000000000000000000000000000000000000000000000000000000000000000000000000000000000000000000000000000000000000000000000000000000000000000000000000
310
00000000000000000000000000000000000000000000000000000000000000000000000000000000000000000000000000000000000000000000000000000000000000000000000000000000000000000000000000000000000000000000000000000000000000000000000000000000000000000000000000000000000000
310
00000000000000000000000000000000000000000000000000000000000000000000000000000000000000000000000000000000000000000000000000000000000000000000000000000000000000000000000000000000000000000000000000000000000000000000000000000000000000000000000000000000000000
310
00000000000000000000000000000000000000000000000000000000000000000000000000000000000000000000000000000000000000000000000000000000000000000000000000000000000000000000000000000000000000000000000000000000000000000000000000000000000000000000000000000000000000
310
00000000000000000000000000000000000000000000000000000000000000000000000000000000000000000000000000000000000000000000000000000000000000000000000000000000000000000000000000000000000000000000000000000000000000000000000000000000000000000000000000000000000000
310
000000000000000000000000000000000000BEBEBEBEBEBEBEBEBEBEBEBEBEBEBEBEBEBEBEBEBEBEBEBEBEBEBEBEBEBEBEBEBEBEBEBEBEBEBEBEBEBEBEBEBEBEBEBEBEBEBEBEBEBEBEBEBEBEBEBEBEBEBEBEBEBEBEBEBEBEBEBEBEBEBEBEBEBEBEBEBEBEBEBEBEBEBEBEBEBEBEBEBEBEBEBEBEBEBEBEBEBEBEBEBEBEBEBEBE
310
BEBEBEBEBEBEBEBEBEBEBEBEBEBEBEBEBEBEBEBEBEBEBEBEBEBEBEBEBEBEBEBEBEBEBEBEBEBEBEBEBEBEBEBEBEBEBEBEBEBEBEBEBEBEBEBEBEBEBEBEBEBEBEBEBEBEBEBEBEBEBEBEBEBEBEBEBEBEBEBEBEBEBEBEBEBEBEBEBEBEBEBEBEBEBEBEBEBEBEBEBEBEBEBEBEBEBEBE00000000000000000000000000000000000000
310
0000000000000000000000000000000000000000BE0000000000000000000000000000000000000000000000000000000000000000000000000000000000000000000000000000000000000000000000000000000000000000000000000000000000000000000000000000000000000000000000000000000000000000BE00
310
00000000000000000000000000000000000000000000000000000000000000000000000000000000000000000000000000000000000000000000000000000000000000000000000000000000000000000000000000000000000000000000000000000000000000BEDCDCDCDCDCDC0000000000000000000000000000000000
310
00000000000000000000000000000000000000000000BE00DCDCDCDCDCDCDCDCDCDCDCDCDCDCDCDCDCDCDCDCDCDCDCDCDCDCDCDCDCDCDCDCDCDCDCDCDCDCDCDCDCDCDCDCDCDCDCDCDCDCDCDCDCDCDCDCDCDCDCDCDCDCDCDCDCDCDCDCDCDCDCDCDCDCDCDCDCDCDCDCDCDCDCDCDCDCDCDCDCDCDCDCDCDCDCDCDCDCDCDCDCDC00
310
BE00DCDCDCDCDCDCDCDCDCDCDCDCDCDCDCDCDCDCDCDCDCDCDCDCDCDCDCDCDCDCDCDCDCDCDCDCDCDCDCDCDCDCDCDCDCDCDCDCDCDCDCDCDCDCDCDCDCDCDCDCDCDCDCDCDCDCDCDCDCDCDCDCDCDCDCDCDCDCDCDCDCDCDCDCDCDCDCDCDCDCDCDCDCDCDCDCDCDCDCDCDCDC00BEDC0000000000000000000000000000000000000000
310
000000000000000000000000000000000000000000000000BE00DC0000000000000000000000000000000000000000000000000000000000000000000000F5F5F5F5F500000000F5F5F5F5F5F5000000DC00000000BEBEBEBEBEBEBEBE000000DC000000000000000000DC00000000000000000000DCBEBEBEBEBEBEBE0000
310
DC00BE00DC0000000000000000000000000000000000000000000000000000000000000000000000DCF5F5F5F500000000F5F5F5F5F5F5000000DC00000000BEBEBEBEBEBEBEBEBE0000BEBEBEBEBEBEBEBEBEBEBE0000000000000000000000BEBEBEBEBEBEBE0000DC00BEDC000000000000000000000000000000000000
310
0000000000000000000000000000000000000000000000000000BE00DC0000000000000000000000000000000000000000000000000000000000000000000000F5F5F5F5F5DCDCDCDCF5F5F5F5F5F5DCDCDCDC00000000BEBEBEBEBEBEBEBE000000DC000000000000000000DC00000000000000000000DCBEBEBEBEBEBEBE
310
0000DC00BE00DC0000000000000000000000000000000000000000000000000000000000000000000000DCF5F5F5F5DCDCDCDCF5F5F5F5F5F5DCDCDCDC00000000BEBEBEBEBEBEBEBEBE0000BEBEBEBEBEBEBEBE00BEBE0000000000000000000000BEBEBEBEBEBEBEF500DC00BEDC00000000000000000000000000000000
310
00000000000000000000000000000000000000000000000000000000BE00DC0000000000000000000000000000000000000000000000000000000000000000000000DC0000DC000000000000DC000000DC000000DC00BEBEBEBEBEBEBEBEBEBEBE000000F5F5F5F5F5F5F5000000F5F5F5F5F5F5F5F5F5F500DCF5F5F5F5F5
310
F5F50000DC00BE00DC0000000000000000000000000000000000000000000000000000000000000000000000DC0000DC000000000000DC000000DC000000DC00BEBEBEBEBEBEBEBEBEBEBEBE0000F5F5F5F5F5F5F5000000DCF5F5F5F5F5F5F5F5F50000F5F5F5F5F5F5F5F500DC00BEDC0000000000000000000000000000
310
000000000000000000000000000000000000000000000000000000000000BE00DC0000000000000000000000000000000000000000000000000000000000000000000000DCDCDCDCDCDCDCDCDCDCDCDCDCDCDCDCDCDCDC000000BEBEBEBEBEBEBEBEBE000000DCDCDCDCDCDCDCDCDCDCDCDCDCDCDCDCDCDCDCDCDCDCDCDCDC
310
DCDCDCDCDCDCDC00BE00DC0000000000000000000000000000000000000000000000000000000000000000000000DCDCDCDCDCDCDCDCDCDCDCDCDCDCDCDCDCDCDC000000BEBEBEBEBEBEBEBEBEBE0000DCDCDCDCDCDCDCDCDCDCDCDCDCDCDCDCDCDCDCDCDCDCDCDCDCDCDCDCDCDCDCDC00BEDC000000000000000000000000
310
0000000000000000000000000000000000000000000000000000000000000000BE00DC0000000000000000000000000000000000000000000000000000000000000000000000DC0000DC000000000000DC000000DC000000DC000000BEBEBEBEBEBEBEBEBE000000BEBEBEBEBEBEBEBEBE0000000000000000000000000000
310
0000000000000000DC00BE00DC0000000000000000000000000000000000000000000000000000000000000000000000DC0000DC000000000000DC000000DC000000DC000000BEBEBEBEBEBEBEBEBE000000BEBEBEBEBEBEBEBEBEBEBEBEBEBE00BEBE00BEBEBEBEBEBE00000000000000DC00BEDC00000000000000000000
310
00000000000000000000000000000000000000000000000000000000000000000000BE00DC0000000000000000000000000000000000000000000000000000000000000000000000DCDCDCDCDCDCDCDCDCDCDCDCDCDCDCDCDCDCF5F5F5DCDCDCDCDCDCDCDCDCDCDCDCDCBEBEBEBEBEBEBEBEBE000000000000000000000000
310
00000000000000000000DC00BE00DC0000000000000000000000000000000000000000000000000000000000000000000000DCDCDCDCDCDCDCDCDCDCDCDCDCDCDCDCDCDCF5F5F5DCDCDCDCDCDCDCDCDCDCDCDCDCBEBEBEBEBEBEBEBEBEBEBEBEBEBE00BEBEBEBEBEBEBEBEBE00000000000000DC00BEDC0000000000000000
310
000000000000000000000000000000000000000000000000000000000000000000000000BE00DC0000000000000000000000000000000000000000000000000000000000000000000000DC0000DC000000000000DC000000DC000000F5F5F500000000DC0000000000000000BEBEBEBEBEBEBEBEBEBEBEBEBEBEBEBEBEBEBE
310
BEBEBEBEBEBEBEBEBEBEBEBEBE00BE00DC0000000000000000000000000000000000000000000000000000000000000000000000DC0000DC000000000000DC000000DC000000F5F5F5DC00000000DC00000000000000BEBEBEBEBEBEBE00BEBEBEBEBEBE00BEBEBEBEBEBEBEBEBEBEBE0000000000DC00BEDC000000000000
310
0000000000000000000000000000000000000000000000000000000000000000000000000000BE00DC0000000000000000000000000000000000000000000000000000000000000000000000DCDCDCDCDCDCDCDCDCDCDCDCDCDCDCDCDCDCF5F5F5BEBEBEBEBEBEBEBEBEBEDCDCDCBEBEBEBEBEBEBE00BEBEBEBEBEBEBEBEBE
310
BEBEBEBEBEBEBEBEBEBEBEBEBEBEBE00BE00DC0000000000000000000000000000000000000000000000000000000000000000000000DCDCDCDCDCDCDCDCDCDCDCDCDCDCDCDCDCDCF5F5F5BEBEBEBEBEBEBEBEBEBEDCDCDCBEBEBEBEBEBEBE00BEBEBEBEBEBE00BEBEBEBEBEBEBEBEBEBEBE0000000000DC00BEDC00000000
310
00000000000000000000000000000000000000000000000000000000000000000000000000000000BE00DC0000000000000000000000000000000000000000000000000000000000000000000000DCDCDCDCDCDCDCDCDCDCDCDCDCDCDCDCDCDCF5F5F5BEBEBEBEBEBEBEBEBEBEDCDCDCBEBEBEBEBEBEBEF5BEBEBEBEBEBEBE
310
BEBEBEBEBEBEBEBEBEBEBEBEBEBEBEBEDC00BE00DC0000000000000000000000000000000000000000000000000000000000000000000000DCDCDCDCDCDCDCDCDCDCDCDCDCDCDCDCDCDCF5F5F5BEBEBEBEBEBEBEBEBEBEDCDCDCBEBEBEBEBEBEBEF5BEBEBEBEBEBEBEBEBEBEBEBEBEBEBEBEBEBE0000000000DC00BEDC0000
310
000000000000000000000000000000000000000000000000000000000000000000000000000000000000BE00DC0000000000000000000000000000000000000000000000000000000000000000000000F5F5F5F5F5F5F5F50000F5F5F5F5DCF5F5F5DCDCDCF5F5F5F5F5F5F5F5F5F5000000F5F5F5F5F5F5F5F5F5F5F5F500
310
000000000000000000000000000000000000DC00BE00DC0000000000000000000000000000000000000000000000000000000000000000000000DCF5F5F5F5F5F5F5F500F5F5F5F5DCF5F5F5DCDCDCF5F5F5F5F5F5F5F5F5F5000000F5F5F5F5F5F5F5F5F5F5F5F500000000000000000000000000000000000000DC00BEDC
310
0000000000000000000000000000000000000000000000000000000000000000000000000000000000000000BE00DC0000000000000000000000000000000000000000000000000000000000000000000000DCDCDCF5F5DCDCDCDCDCDCDCDCDCDCDCDCDCDCDCDCF5F5F5F5F5F5BEBEF5BEBEBEDCF5F5DCDCDCDCDCDCF5F5F5
310
DCDCDCDCDCDCDCDCDCDCDCDCDCDCDCDCDCDCDCDCDC00BE00DC0000000000000000000000000000000000000000000000000000000000000000000000DCDCDCDCF5DCDCDCDCDCDCDCDCDCDCDCDCDCDCDCDCF5F5F5F5F5F5BEBEBEBEBEBEBEF5F5DCBEDCDCDCDCF5F5F5DCDCDCDCDCDCDCDCDCDCDCDCDCDCDCDCBEDCDCDCDC00
310
BEDC0000000000000000000000000000000000000000000000000000000000000000000000000000000000000000BE00DC0000000000000000000000000000000000000000000000000000000000000000000000DC0000000000000000000000000000000000DC000000000000DC00BEBE00BEBEBE00DC0000000000000000
310
0000DC0000000000000000000000DC00000000000000DC00BE00DC000000000000002D2D2D2D2D2D2D2D2D2D2D2D2D2D2D2D2D2D2D2D2D2D2D2D2D2D2D2D2D2D2D2D2DF5000000000000000000000000DC00000000000000DCBEBEBEBEBEBEBEBEBEBEBEBE00000000F5F500BEBEBEBE00000000000000DC0000BEBEBEBE00
310
DC00BEDC0000000000000000000000000000000000000000000000000000000000000000000000000000000000000000BE00DC0000000000000000000000000000000000000000000000000000000000000000000000DC0000000000000000000000000000000000DCDCDCDCDCDCDCDCBEBEBEBEBEBEBEBEDCF5F5F5F5F5F5
310
F5F50000DCF5F5F5F5F5F5F5F5F50000DCF5F5F5F5F5F5F5DC00BE00DC000000000000002D2D00000000000000000000000000BEBEBE00000000000000000000DC0000002D2D000000000000000000000000DCDCDCDCDCDCDCDCBEBEBEBEBEBEBEBEDCBEBEBEBEF5F5F5F5F5F500BEBEBEF5F5F5F5F5F5F500DCF5F5F5BEBE
310
F5F5DC00BEDC0000000000000000000000000000000000000000000000000000000000000000000000000000000000000000BE00DC0000000000000000000000000000000000000000000000000000000000000000000000DC0000000000000000000000000000000000DC000000000000DCBEBEDCBEBEBEDCBEDCF5DCBEBE
310
F5BEBEBEDCDCDCF5DCF5DCF5F5DCF5F5DCDCDCF5F5F5BEBEBEDCDC00BE00DC000000000000002D000000000000000000000000000000000000000000000000000000DC000000002D000000000000000000000000DC00000000000000BEBEBEBEBEBEDCBEDCF5DCBEBEBEBEBEBEDCDCDCF5F5DCF5BEBEF5F5F5DCDCDCF5F5F5
310
BEBEBEDCDC00BEDC0000000000000000000000000000000000000000000000000000000000000000000000000000000000000000BE00DC0000000000000000000000000000000000000000000000000000000000000000000000DC0000000000000000000000000000000000DCF5F5F5F5F5F5DCDCDCBEBEBEBEDCDCDC00BE
310
BEBEBEBEBEBE0000DC0000000000000000000000DC000000BEBEBE00DC00BE00DC000000000000002D000000DCDCDCDCDCDCDCDCDCDCDCDCDCF5DCDCDCDCDCDCDCF52D2D2D2D2D2D2D2D2D2D2D2DF52D000000000000DCF5F5F5F5F5F5DCDCDCBEBEBEBEDCDCDC0000BEBEBEBEBEBE000000DC000000BEBEBE00000000DC00
310
0000BEBEBE00DC00BEDC0000000000000000000000000000000000000000000000000000000000000000000000000000000000000000BE00DC0000000000000000000000000000000000000000000000000000000000000000000000DC0000000000000000000000000000000000DCF5F500F5F5F5DC0000BEBEBEF50000DC
310
00F5F5F5F5F5F5000000DC0000F5F5F5F5F5F5F50000DC00F5F5F5F5F5F5DC00BE00DC000000000000002D000000DC0000000000000000000000002D00000000000000DC0000DC000000002D000000002D2D000000000000DCF5F5F5F5F5F500DC00BEBEBEBE0000DC0000F5F5F5F5F500000000DC00F5F5F5F5F5F5F50000
310
DC00F5F5F5F5F5F5DC00BEDC00000000F5000000000000000000000000000000000000000000000000000000000000000000000000000000BE00DC0000000000000000000000000000000000000000000000000000000000000000000000DCDCDCDCDCDCDCDCDCDCDCDCDCDCDCDCDCDCDCDCDCDCDCDCDCDCDCDCDCDCDCDCDC
310
DCDCDCDCDCDCDCDCDCDCDCDCDCDCDCDCDCDCDCDCDCDCDCDCDCDCDCDCDCDCDCDCDC00BE00DC000000000000002D000000DC0000000000000000000000002D00000000000000DC0000DCDCDCDCDC2DDCDCDCDC2DDCDCDCDCDCDCDCDCDCDCDCDCDCDCDCDCDCDCDCDCDCDCDCDCDCDCDCDCDCDCDCDCDCDCDCDCDCDCDCDCDCDCDCDC
310
DCDCDCDCDCDCDCDCDCDCDC00BEDC000000002D000000000000000000000000000000000000000000000000000000000000000000000000000000BE00DC000000000000000000000000000000000000000000000000000000000000000000000000000000000000000000000000000000000000000000000000000000000000
310
00000000000000000000000000000000000000000000000000000000000000000000DC00BE00DC000000000000002D000000DC0000000000000000000000BE2D00000000000000DC000000000000002D000000002D000000000000000000000000000000000000000000000000000000000000000000000000000000000000
310
000000000000000000000000DC00BEDC000000002D000000000000000000000000000000000000000000000000000000000000000000000000000000BE00DC00000000000000000000000000000000000000000000000000000000000000000000000000000000000000000000000000000000000000000000000000000000
310
000000000000000000000000000000000000000000000000000000000000000000000000DC00BE00DC000000000000002D000000DC0000000000000000000000BE2D00000000000000DC000000000000002D000000002D00000000000000000000000000000000000000000000000000000000000000000000000000000000
310
0000000000000000000000000000DC00BEDC000000002D000000000000000000000000000000000000000000000000000000000000000000000000000000BE00DC0000000000000000000000000000000000000000000000000000000000000000000000000000000000000000000000000000000000000000000000000000
310
0000000000000000000000000000000000000000000000000000000000000000000000000000DC00BE00DC000000000000002D000000DC0000000000000000000000002D00000000000000DC000000000000002D000000002D0000000000000000000000000000000000000000000000000000000000000000000000000000
310
00000000000000000000000000000000DC00BEDC000000002D000000000000000000000000000000000000000000000000000000000000000000000000000000BE00DC000000000000000000000000000000000000000000000000000000000000000000000000000000000000000000000000000000000000000000000000
310
00000000000000000000000000000000000000000000000000000000000000000000000000000000DC00BE00DC000000000000002D00000000DC00000000000000000000002D00000000000000DC000000000000002D000000002D000000000000000000000000000000000000000000000000000000000000000000000000
310
000000000000000000000000000000000000DC00BEDC000000002D000000000000000000000000000000000000000000000000000000000000000000000000000000BE00DC00000000000000000000000000000000000000000000000000000000000000000000000000000000000000000000000000000000000000000000
310
000000000000000000000000000000000000000000000000000000000000000000000000000000000000DC00BE00DC000000000000002D00000000DC00000000000000000000002D00000000000000DC000000000000002D000000002D00000000000000000000000000000000000000000000000000000000000000000000
310
0000000000000000000000000000000000000000DC00BEDC000000002D000000000000000000000000000000000000000000000000000000000000000000000000000000BE00DC0000000000000000000000000000000000000000000000000000000000000000000000000000000000000000000000000000000000000000
310
0000000000000000000000000000000000000000000000000000000000000000000000000000000000000000DC00BE00DC000000000000002DDCDCDCDCDC2828282828282828282828F52828282828282828DCDCDCDCDCDCDCF52D2D2DF52D00000000000000F5F5F5F5F5F5F5F5F5F52D2DF52D0000000000000000000000
310
00000000000000000000000000000000000000000000DC00BEDC000000002D000000000000000000000000000000000000000000000000000000000000000000000000000000BE00DC000000000000000000000000000000000000000000000000000000000000000000000000000000000000000000000000000000000000
310
00000000000000000000000000000000000000000000000000000000000000000000000000000000000000000000DC00BE00DC00000000000000F5DC0000002800000000000000000000002D000000000000002800000000000000DC0000002D2D000000000000000000000000000000F5F500002D00000000000000000000
310
000000000000000000000000000000000000000000000000DC00BEDC000000002D000000000000000000000000000000000000000000000000000000000000000000000000000000BE00DC0000000000000000002D2D2D2D2D2D2D2D2D2D2D2D2D2D2D2D2D2D2D2D2DF5000000000000000000000000000000000000000000
310
000000000000000000000000000000000000000000000000000000000000000000000000000000000000000000000000DC00BE00DC00000000000000DCBE0000002800000000000000000000002D000000000000002800000000000000DC0000002D2D000000000000000000000000000000F5F500002D0000000000000000
310
0000000000000000000000000000000000000000000000000000DC00BEDC000000002D000000000000000000000000000000000000000000000000000000000000000000000000000000BE00DC0000000000000000002D2D0000000000000000BEBE00000000000000002D2D00000000000000000000000000000000000000
310
0000000000000000000000000000000000000000000000000000000000000000000000000000000000000000000000000000DC00BE00DC00000000000000DC280000002800000000000000000000002D000000000000002800000000000000DC0000002D2D000000000000000000000000000000F5F500002D000000000000
310
00000000000000000000000000000000000000000000000000000000DC00BEDC000000BE2D000000000000000000000000000000000000000000000000000000000000000000000000000000BE00DC0000000000000000002D00000000000000000000000000000000000000002D0000000000000000000000000000000000
310
00000000000000000000000000000000000000000000000000000000000000000000000000000000000000000000000000000000DC00BE00DC00000000000000DCBE00DCDC280000BEBEBEBEBE000000002D000000000000002800000000000000DC0000002D2D000000000000000000000000000000F5F500002D00000000
310
000000000000000000000000000000000000000000000000000000000000DC00BEDC000000002D000000000000000000000000000000000000000000000000000000000000000000000000000000BE00DC000000000000000000F528282828282828BEBEBEBEBEBE28282828282828F5000000000000000000000000000000
310
000000000000000000000000000000000000000000000000000000000000000000000000000000000000000000000000000000000000DC00BE00DC00000000000000DCDC00DCDC280000BE0000BE00000000002D000000000000002800000000000000DC0000002D2D000000000000000000000000000000F5F500002D0000
310
0000000000000000000000000000000000000000000000000000000000000000DC00BEDC000000002D000000000000000000000000000000000000000000000000000000000000000000000000000000BE00DC0000000000000000002800282800002800BEBEBEBEBEBE002828002828002800000000000000000000000000
310
0000000000000000000000000000000000000000000000000000000000000000000000000000000000000000000000000000000000000000DC00BE00DC0000000000000000DC0000002800000000000000000000002D000000000000002800000000000000DC0000002D2D000000000000000000000000000000F5F500002D
310
00000000000000000000000000000000000000000000000000000000000000000000DC00BEDC000000002D000000000000000000000000000000000000000000000000000000000000000000000000000000BE00DC0000000000000000002800282828282828BEBE000000BE00282828282800280000000000000000000000
310
00000000000000000000000000000000000000000000000000000000000000000000000000000000000000000000000000000000000000000000DC00BE00DC0000000000000000DC0000002800000000000000000000002D000000000000002800000000000000DC0000002D2D000000000000000000000000000000F5F500
310
002D00000000000000000000000000000000000000000000000000000000000000000000DC00BEDC00000000BE000000000000000000000000000000000000000000000000000000000000000000000000000000BE00DC0000000000000000002800282828280028BEBEBE00BEBE0028282828280028000000000000000000
310
000000000000000000000000000000000000000000000000000000000000000000000000000000000000000000000000000000000000000000000000DC00BE00DC00000000000000DCDC0000002800000000000000000000002D0000002D00000028000000000000002D0000002D2D000000000000000000000000000000F5
310
F500002D00000000000000000000000000000000000000000000000000000000000000000000DC00BEDC000000002D000000000000000000000000000000000000000000000000000000000000000000000000000000BE00DC0000000000000000002800280028280028BEBEBEBEBEBE002828282828002800000000000000
310
0000000000000000000000000000000000000000000000000000000000000000000000000000000000000000000000000000000000000000000000000000DC00BE00DC00000000000000DC280000002800000000000000000000002D000000F52D2D2D2DBEBE2D2D2D2D2DF50000002D2D0000000000000000000000000000
310
00F5F500002D00000000000000000000000000000000000000000000000000000000000000000000DC00BEDC000000002D000000000000000000000000000000000000000000000000000000000000000000000000000000BE00DC0000000000000000002800282828282828BEBEBEBEBEBEBE2828282828BE280000000000
310
00000000000000000000000000000000000000000000000000000000000000000000000000000000000000000000000000000000000000000000000000000000DC00BE00DC00000000000000DCBE00DCDC280000BEDCDCBE00000000BE2D000000BE000000280000000000DCDCDC00BEBEBE2D000000000000000000000000
310
000000F5F500BE2D00000000000000000000000000000000000000000000000000000000000000000000DC00BEDC000000002D000000000000000000000000000000000000000000000000000000000000000000000000000000BE00DC0000000000000000002828BE00000000BEBEBEBEBEBEBEBEBE00000000BE28000000
310
000000000000000000000000000000000000000000000000000000000000000000000000000000000000000000000000000000000000000000000000000000000000DC00BE00DC00000000000000BE2800DCDC280000BEBEBEBEBE000000BE2D000000BE0000002800000000BEF5DCF500BEBEBE2D00000000000000000000
310
0000000000F5F500BE2D00000000000000000000000000000000000000000000000000000000000000000000DC00BEDC000000002D000000000000000000000000000000000000000000000000000000000000000000000000000000BE00DC00000000000000000028F5BE00000000BEBEBEBEBEBEBEBEBE00000000BE2800
310
0000000000000000000000000000000000000000000000000000000000000000000000000000000000000000000000000000000000000000000000000000000000000000DC00BE00DC00000000000000DCBE0000002800000000000000000000002D000000BE000000280000002D2DBEBEF52D2D002D2D0000000000000000
310
00000000000000F5F500002D00000000000000000000000000000000000000000000000000000000000000000000DC00BEDC000000002D000000000000000000000000000000000000000000000000000000000000000000000000000000BE00DC00000000000000000028F5BEBEBEBEBEBEBEBEBEBEBEBEBEBEBEBEBEBEBE
310
28000000000000000000000000000000000000000000000000000000000000000000000000000000000000000000000000000000000000000000000000000000000000000000DC00BE00DC00000000000000DCDC0000002800000000000000000000002D0000000000000028000000002DBEBE2D2D00002D2D000000000000
310
000000000000000000F5F5BEBE2D00000000000000000000000000000000000000000000000000000000000000000000DC00BEDC000000002D000000000000000000000000000000000000000000000000000000000000000000000000000000BE00DC00000000000000000028F5BEF5F5F5BEF5BEBEF5F5BEF5F5BEF5F5BE
310
BEF528000000000000000000000000000000000000000000000000000000000000000000000000000000000000000000000000000000000000000000000000000000000000000000DC00BE00DC0000000000000000DC0000002800000000000000000000002D002D2D2D0000002800000000000000DC0000002D2D00000000
310
0000000000000000000000F5BEBE002D00000000000000000000000000000000000000000000000000000000000000000000DC00BEDC000000002D000000000000000000000000000000000000000000000000000000000000000000000000000000BE00DC0000000000000000000000000000000000000000000000000000
310
000000000000000000000000000000000000000000002D000000000000000000000000000000000000000000000000000000000000000000000000000000000000000000000000000000DC00BE00DC0000000000000000DC0000002800000000000000000000002D2D2D2D2D2D00002800000000000000DC0000002D2D0000
310
00000000000000000000000000F5F5BE002D00000000000000000000000000000000000000000000000000000000000000000000DC00BEDC0000000000000000000000000000000000000000000000000000000000000000000000000000000000000000BE00DC000000000000000000000000000000000000000000000000
310
0000000000000000000000000000000000000000000000002D2DBEBE2D2D2D000000000000000000000000000000000000000000000000000000000000000000000000000000000000000000DC00BE00DC00000000000000DCDC0000002800000000000000000000002D000000000000002800000000000000DC0000002D2D
310
000000000000000000000000000000F5F500002D00000000000000000000000000000000000000000000000000000000000000000000DC00BEDCDCDCDCDCDC000000000000000000000000000000000000000000000000000000000000000000000000000000BE00DC00000000000000000000000000000000000000000000
310
00000000000000000000000000000000000000000000BEBE2D2D2D2DBEBE002DF5000000000000000000000000000000000000000000000000000000000000000000000000000000000000000000DC00BE00DC00000000000000DC2800DCDCF50000BEBEBEBEBE000000002D000000000000002800000000000000F5000000
310
2D2D000000000000000000000000000000F5F500002D00000000000000000000000000000000000000000000000000000000000000000000DC00BEBEBEBEBEBEBE000000000000000000000000000000000000000000000000000000000000000000000000000000BE00DC000000000000000000000000002D2D2D2D2D2D2D
310
2D2D2D2D2D2DF500000000000000000000000000000000000000002D2D2D2DBE2DF52D000000000000000000000000000000000000000000000000000000000000000000000000000000000000000000DC00BE00DC00000000000000DC2800DCDCF52D2D2D2D2D2DBEBEBE2D2D2D2D2D2D2D2D2D2DF52D2DBEBE2D2D2DF500
310
00002D2D000000000000000000000000000000F5F500002D00000000000000000000000000000000000000000000000000000000000000000000DC00BE000000000000000000000000000000000000000000000000000000000000000000000000000000000000000000BE00DC000000000000000000000000002D2D00BE00
310
002D2D2DBEBE002D2D0000000000000000000000000000000000F5BE2D2D002DBEBE002D00000000000000000000000000000000000000000000000000000000000000000000000000000000000000000000DC00BE00DC00000000BEBE2DDC282D002D2D000000000000BEBEBE00002D000000000000002800000000000000
310
DC0000002D2D000000000000000000000000000000F5F500002D00000000000000000000000000000000000000000000000000000000000000000000DC00BE000000000000000000000000000000000000000000000000000000000000000000000000000000000000000000BE00DC000000000000000000000000002D0000
310
000000002D00000000002D00000000000000000000000000000000002D00002D002D0000002D00000000000000000000000000000000000000000000000000000000000000000000000000000000000000000000DC00BE00DC00000000BEBE2DDCDC2D2D2DF500000000000000000000002D00000000000000280000000000
310
0000DC0000002D2D000000000000000000000000000000F5F500002D00000000000000000000000000000000000000000000000000000000000000000000DC00BE000000000000000000000000000000000000000000000000000000000000000000000000000000000000000000BE00DC00000000000000F52D28282828F5
310
F528282828F5F528282828F5F5F52828280000000000000000000000F52DF52828F5F5F52828282D0000000000000000000000002DF5F5F528F5C3C32828280000000000000000000000000000000000000000000000DC00BE00DC0000000000000000DCDCDCDCDC2828282828282828282828F52828282828282828DCDCDC
310
DCDCDCDCDC2D2D2D2D2D00000000000000F5F5F5F5F5F5F5F5F5F52D2D2D2D000000000000000000000000000000000000000000000000000000000000000000DC00BE000000000000000000000000000000000000000000000000000000000000000000000000000000000000000000BE00DC000000000000002D002828BE
310
28282828BEBE0FBEBEBE0FBEBE282828BEBE2800000000000000000000002D00282828F5F5C3F5F528DC2DDC00000000000000000000002D282828F5C3BEF5BE280000000000000000000000000000000000000000000000DC00BE00DC000000000000000000000000DC00000000000000000000002D00000000000000DC00
310
00000000000000000000002D000000000000002D00000000000000002D00000000000000000000000000000000000000000000000000000000000000000000000000DC00BE000000000000000000000000000000000000000000000000000000000000000000000000000000000000000000BE00DC000000000000002D0028
310
28BE28282828BEBE0FBEBE0F0FBEBE282828BEBE2800000000000000000000002D002828BE00BE0000BE0028002D00000000000000000000002D2828BEBE28282828280000000000000000000000000000000000000000000000DC00BE00DC000000000000000000000000DC00000000000000000000002D00000000000000
310
DC0000000000000000000000002D000000000000002D2D2DBEBE2D2D2D2DF500000000000000000000000000000000000000000000000000000000000000000000000000DC00BE000000000000000000000000000000000000000000000000000000000000000000000000000000000000000000BE00DC000000000000002D
310
002828BE28282828BEBE0F28280F0FBEBE28BE28BEBE2800000000000000000000002D00F5280000BE0000BE0028002D00000000000000000000002DF52800BE28282828280000000000000000000000000000000000000000000000DC00BE00DC0000000000000000000000DC0000000000000000000000BE2D0000000000
310
0000DC0000000000000000000000002D00000000000000000000BEBE000000000000000000000000000000000000000000000000000000000000000000000000000000000000DC00BE000000000000000000000000000000000000000000000000000000000000000000000000000000000000000000BE00DC000000000000
310
002D002828282828282828BE0F2828280FBE2828282828BE2800000000000000000000002D00F5280000BEBEBEBEBE28002D00000000000000000000002DF52800BE28000000280000000000000000000000000000000000000000000000DC00BE00DC0000000000000000000000DC0000000000000000000000BE2D000000
310
00000000DC0000000000000000000000002D000000000000000000000000000000000000000000000000000000000000000000000000000000000000000000000000000000000000DC00BE000000000000000000000000000000000000000000000000000000000000000000000000000000000000000000BE00DC00000000
310
0000002D002828BEBEBEBEBEBEBE280028BE28BEBEBEBEBEBEBE2800000000000000000000002D00F5280000BE2828BE0028002D00000000000000000000002DF52800BE28000000280000000000000000000000000000000000000000000000DC00BE00DC0000000000000000000000DC0000000000000000000000002D00
310
000000000000DC0000000000000000000000002D000000000000000000000000000000000000000000000000000000000000000000000000000000000000000000000000000000000000DC00BE000000000000000000000000000000000000000000000000000000000000000000000000000000000000000000BE00DC0000
310
00000000002D002828BEBEBEBEBEBEBE282828BE28BEBEBEBEBEBEBE2800000000000000000000002D002828BEBEBE282828BE28002D00000000000000000000002D2828BEBE28000000280000000000000000000000000000000000000000000000DC00BE00DC0000000000000000000000DC000000000000000000000000
310
2D00000000000000DC0000000000000000000000002D000000000000000000000000000000000000000000000000000000000000000000000000000000000000000000000000000000000000DC00BE000000000000000000000000000000000000000000000000000000000000000000000000000000000000000000BE00DC
310
000000000000002D002828BEBEBEBEBEBEBE2828282828BEBEBEBEBEBEBE2800000000000000000000002D00282828BE002828280028002D00000000000000000000002D282828BE28DCDCDC280000000000000000000000000000000000000000000000DC00BE00DC0000000000000000000000DC00000000000000000000
310
00002D00000000000000DC0000000000000000000000002D000000000000000000000000000000000000000000000000000000000000000000000000000000000000000000000000000000000000DC00BE000000000000000000000000000000000000000000000000000000000000000000000000000000000000000000BE
310
00DC000000000000002D0028BEBEBEBEBEBEBE282828282828BEBEBEBEBEBEBE2800000000000000000000002D00F5282828282800282828002D00000000000000000000002DF5282828DCDCDCDC280000000000000000000000000000000000000000000000DC00BE00DC0000000000000000000000DC0000000000000000
310
000000002D00000000000000F50000000000000000000000002D2D0000000000000000000000000000000000000000000000000000000000000000000000000000000000000000000000000000000000DC00BE0000000000000000000000000000000000000000000000000000000000000000000000000000000000000000
310
00BE00DC000000000000BE2D0028BE002828280028282828280028BE0028282828BE28000000000000000000BEBE2D00F5280028000000002828BE2D000000000000000000BE002DF5DC280000000000280000000000000000000000000000000000000000000000DC00BE00DC00000000000000000000002D2DDCDCDCDCDC
310
DCDCDCDCDCDCF5DCDCDCDCDCDC2DF52D2D2D2D2D2D2D2D2D2D2D2D2D2D0000000000000000000000000000000000000000000000000000000000000000000000000000000000000000000000000000000000DC00BE000000000000000000000000000000000000000000000000000000000000000000000000000000000000
310
000000BE00DC000000000000BE2D0028BE282828282828282828282828BE2828282828BE28000000000000000000BEBE2D00F5280028000000002828BE2D000000000000000000BE002DF5DC280000000000280000000000000000000000000000000000000000000000DC00BE00DC00000000000000000000002D2D2D2D2D
310
2D2D2D2DBEBEBE2D2D2D2D2D2D2D2D2DF500000000000000000000000000000000000000000000000000000000000000000000000000000000000000000000000000000000000000000000000000000000000000DC00BE00000000000000000000000000000000000000000000000000000000000000000000000000000000
310
0000000000BE00DC000000000000002D0028BE000000000000280000000028BE0000000000BE2800000000000000000000002D0028280028000000002828BE2D00000000000000000000002D28DC280000000000280000000000000000000000000000000000000000000000DC00BE00DC0000000000000000000000000000
310
0000000000000000000000000000000000000000000000000000000000000000000000000000000000000000000000000000000000000000000000000000000000000000000000000000000000000000000000000000DC00BE0000000000000000000000000000000000000000000000000000000000000000000000000000
310
00000000000000BE00DC000000000000002D0028BE000000000000280000000028BE0000000000BE2800000000000000000000002D0028280028000000002828002D00000000000000000000002D28DC280000000000280000000000000000000000000000000000000000000000DC00BE00DC000000000000000000000000
310
00000000000000000000000000000000000000000000000000000000000000000000000000000000000000000000000000000000000000000000000000000000000000000000000000000000000000000000000000000000DC00BE000000000000000000000000000000000000000000000000000000000000000000000000
310
000000000000000000BE00DC000000000000002D0028BE000000000000280000000028BE0000000000BE2800000000000000000000002D0028280028000000002828002D00000000000000000000002D28DC280000000000280000000000000000000000000000000000000000000000DC00BE00DC00000000000000000000
310
00000000000000000000000000000000000000000000F52DF52D00000000000000000000000000000000000000000000000000000000000000000000000000000000000000000000000000000000000000000000000000000000DC00BE00000000000000000000000000000000000000000000000000000000000000000000
310
0000000000000000000000BE00DC000000000000002D0028BE000000000000280000000028BE0000000000BE2800000000000000000000002D0028280028000000002828002D00000000000000000000002D28DC280000000000280000000000000000000000000000000000000000000000DC00BE00DC0000000000000000
310
000000002D2D000000000000000000000000000000000000F5002D0000000000000000000000000000000000000000000000000000000000000000000000000000000000000000000000000000000000000000000000000000000000DC00BE0000000000000000000000000000000000000000000000000000000000000000
310
00000000000000000000000000BE00DC000000000000002D0028BE000000000000280000000028BE0000000000BE2800000000000000000000002D0028280028000000002828002D00000000000000000000002D28DC280000000000280000000000000000000000000000000000000000000000DC00BE00DC000000000000
310
0000002D2DF52D2D000000000000000000000000000000000000F5002D0000000000000000000000000000000000000000000000000000000000000000000000000000000000000000000000000000000000000000000000000000000000DC00BE000000000000000000000000000000000000000000000000000000000000
310
000000000000000000000000000000BE00DC000000000000002D0028BE000000000000280000000028BE0000000000BE2800000000000000000000002D0028280028000000002828002D00000000000000000000002D28DC280000000000280000000000000000000000000000000000000000000000DC00BE00DC00000000
310
000000000000002D2D00000000000000000000000000000000000000F5BE2D0000000000000000000000000000000000000000000000000000000000000000000000000000000000000000000000000000000000000000000000000000000000DC00BE00000000000000000000000000000000000000000000000000000000
310
0000000000000000000000000000000000BE00DC000000000000002D0028BE000000000000DCDCDCDCDCDCBE0000000000BE2800000000000000000000002D0028280028000000002828002D00000000000000000000002D28DC28DCDCDCDCDC280000000000000000000000000000000000000000000000DC00BE00DC0000
310
000000000000000000F5F500000000000000000000000000000000000000F5BE2D0000000000000000000000000000000000000000000000000000000000000000000000000000000000000000000000000000000000000000000000000000000000DC00BE0000000000000000000000000000000000000000000000000000
310
00000000000000000000000000000000000000BE00DC000000000000002D0028BE280000000000BEBEBEBEBE00BE0000000028BE2800000000000000000000002D0028280028000000282828002D00000000000000000000002D2828000000000000280000000000000000000000000000000000000000000000DC00BE00DC
310
00000000000000002DF52D2D0000000000000000000000000000000000000000F5002D0000000000000000000000000000000000000000000000000000000000000000000000000000000000000000000000000000000000000000000000000000000000DC00BE000000000000000000000000000000000000000000000000
310
000000000000000000000000000000000000000000BE00DC000000000000002D0028BE280000000000BE0000280000BE0000000028BE2800000000000000000000002D0028280028000000280028002D00000000000000000000002D2828000000000000280000000000000000000000000000000000000000000000DC00BE
310
00DC0000000000000000002D002D2DF5000000000000000000000000000000000000F5002D0000000000000000000000000000000000000000000000000000000000000000000000000000000000000000000000000000000000000000000000000000000000DC00BE00000000000000000000000000000000000000000000
310
0000000000000000000000000000000000000000000000BE00DC000000000000002D002828282828282828282828282828282828282828282800000000000000000000002D002828F528282828280028002D000000000000000000002D2D2828F5F500000000280000000000000000000000000000000000000000000000DC
310
00BE00DC0000000000000000BE2D2D00BEBEBE0000000000000000000000000000000000F5002D0000000000000000000000000000000000000000000000000000000000000000000000000000000000000000000000000000000000000000000000000000000000DC00BE0000000000000000000000000000000000000000
310
00000000000000000000000000000000000000000000000000BE00DC000000000000002D2DF5282828282828282828F5BE2828282828282828282800000000000000000000002D2DF528F5F52828282828DC2D2D000000000000000000002D2DF528F52D282828282800000000000000000000000000000000000000000000
310
00DC00BE00DC0000000000000000002D0000F5BEBE2D00000000000000000000000000000000F5002D0000000000000000000000000000000000000000000000000000000000000000000000000000000000000000000000000000000000000000000000000000000000DC00BE000000000000000000000000000000000000
310
000000000000000000000000000000000000000000000000000000BE00DC0000000000000000002D2D2D2D2D2D2D2D2D2D2D2D2D2D2D2D2D2D2D2D2DF5000000000000000000000000002D00000000000000002D0000000000000000000000002D2DBEBEF52D2D000000000000000000000000000000000000000000000000
310
000000DC00BE00DC0000000000000000002D2D2DF5F52D2DF5F5F5F5F5F5F5BEF5F5F5F5F5F5F5F5F52D2D2D00000000000000000000000000000000000000000000000000000000000000000000000000000000000000000000000000000000000000000000000000000000DC00BE00000000000000000000000000000000
310
0000000000000000000000000000000000000000000000000000000000BE00DC0000000000000000002D2D0000000000000000BEBE00000000000000002D2D000000000000000000000000002D2D2D2DBEBE2D2D2DF50000000000000000000000000000000000000000000000000000000000000000000000000000000000
310
0000000000DC00BE00DC0000000000000000000000002D2D2D00000000000000BEBE000000000000002D2D00000000000000000000000000000000000000000000000000000000000000000000000000000000000000000000000000000000000000000000000000000000000000DC00BE0000000000000000000000000000
310
00000000000000000000000000000000000000000000000000000000000000BE00DC000000000000000000000000000000000000000000000000000000000000000000000000000000000000000000000000000000000000000000000000000000000000000000000000000000000000000000000000000000000000000000
310
00000000000000DC00BE00DC000000000000000000000000F52D2D2D2D2D2D2DBEBEBE2DBE2D2D2D2D2D2D2D2D00000000000000000000000000000000000000000000000000000000000000000000000000000000000000000000000000000000000000000000000000000000000000DC00BE000000000000000000000000
310
000000000000000000000000000000000000000000000000000000000000000000BE00DC00000000000000000000000000000000000000000000000000000000000000000000000000000000000000000000000000000000000000000000000000000000000000000000000000000000000000000000000000000000000000
310
000000000000000000DC00BE00DC00000000000000000000000000000000000000000000000000000000000000000000000000000000000000000000000000000000000000000000000000000000000000000000000000000000000000000000000000000000000000000000000000000000DC00BE00000000000000000000
310
0000000000000000000000000000000000000000000000000000000000000000000000BE00DCDCDCDCDCDCDCDCDCDCDCDCDCDCDCDCDCDCDCDCDCDCDCDCDCDCDCDCDCDCDCDCDCDCDCDCDCDCDCDCDCDCDCDCDCDCDCDCDCDCDCDCDCDCDCDCDCDCDCDCDCDCDCDCDCDCDCDCDCDCDCDCDCDCDCDCDCDCDCDCDCDCDCDCDCDCDCDCDCDC
310
DCDCDCDCDCDCDCDCDCDCDCDC00BE00DCDCDCDCDCDCDCDCDCDCDCDCDCDCDCDCDCDCDCDCDCDCDCDCDCDCDCDCDCDCDCDCDCDCDCDCDCDCDCDCDCDCDCDCDCDCDCDCDCDCDCDCDCDCDCDCDCDCDCDCDCDCDCDCDCDCDCDCDCDCDCDCDCDCDCDCDCDCDCDCDCDCDCDCDCDCDCDCDCDCDCDCDCDCDCDCDCDCDCDCDCDC00BE0000000000000000
310
00000000000000000000000000000000000000000000000000000000000000000000000000BE0000000000000000000000000000000000000000000000000000000000000000000000000000000000000000000000000000000000000000000000000000000000000000000000000000000000000000000000000000000000
310
000000000000000000000000000000BE0000000000000000000000000000000000000000000000000000000000000000000000000000000000000000000000000000000000000000000000000000000000000000000000000000000000000000000000000000000000000000000000000000000000000000BE000000000000
310
000000000000000000000000000000000000000000000000000000000000000000000000000000BEBEBEBEBEBEBEBEBEBEBEBEBEBEBEBEBEBEBEBEBEBEBEBEBEBEBEBEBEBEBEBEBEBEBEBEBEBEBEBEBEBEBEBEBEBEBEBEBEBEBEBEBEBEBEBEBEBEBEBEBEBEBEBEBEBEBEBEBEBEBEBEBEBEBEBEBEBEBEBEBEBEBEBEBEBEBEBE
310
BEBEBEBEBEBEBEBEBEBEBEBEBEBEBEBEBEBEBEBEBEBEBEBEBEBEBEBEBEBEBEBEBEBEBEBEBEBEBEBEBEBEBEBEBEBEBEBEBEBEBEBEBEBEBEBEBEBEBEBEBEBEBEBEBEBEBEBEBEBEBEBEBEBEBEBEBEBEBEBEBEBEBEBEBEBEBEBEBEBEBEBEBEBEBEBEBEBEBEBEBEBEBEBEBEBEBEBEBEBEBEBEBEBEBEBEBEBEBEBEBEBEBE00000000
310
00000000000000000000000000000000000000000000000000000000000000000000000000000000000000000000000000000000000000000000000000000000000000000000000000000000000000000000000000000000000000000000000000000000000000000000000000000000000000000000000000000000000000
310
00000000000000000000000000000000000000000000000000000000000000000000000000000000000000000000000000000000000000000000000000000000000000000000000000000000000000000000000000000000000000000000000000000000000000000000000000000000000000000000000000000000000000
310
00000000000000000000000000000000000000000000000000000000000000000000000000000000000000000000000000000000000000000000000000000000000000000000000000000000000000000000000000000000000000000000000000000000000000000000000000000000000000000000000000000000000000
310
00000000000000000000000000000000000000000000000000000000000000000000000000000000000000000000000000000000000000000000000000000000000000000000000000000000000000000000000000000000000000000000000000000000000000000000000000000000000000000000000000000000000000
310
00000000000000000000000000000000000000000000000000000000000000000000000000000000000000000000000000000000000000000000000000000000000000000000000000000000000000000000000000000000000000000000000000000000000000000000000000000000000000000000000000000000000000
310
00000000000000000000000000000000000000000000000000000000000000000000000000000000000000000000000000000000000000000000000000000000000000000000000000000000000000000000000000000000000000000000000000000000000000000000000000000000000000000000000000000000000000
310
00000000000000000000000000000000000000000000000000000000000000000000000000000000000000000000000000000000000000000000000000000000000000000000000000000000000000000000000000000000000000000000000000000000000000000000000000000000000000000000000000000000000000
310
00000000000000000000000000000000000000000000000000000000000000000000000000000000000000000000000000000000000000000000000000000000000000000000000000000000000000000000000000000000000000000000000000000000000000000000000000000000000000000000000000000000000000
310
00000000000000000000000000000000000000000000000000000000000000000000000000000000000000000000000000000000000000000000000000000000000000000000000000000000000000000000000000000000000000000000000000000000000000000000000000000000000000000000000000000000000000
310
00000000000000000000000000000000000000000000000000000000000000000000000000000000000000000000000000000000000000000000000000000000000000000000000000000000000000000000000000000000000000000000000000000000000000000000000000000000000000000000000000000000000000
310
00000000000000000000000000000000000000000000000000000000000000000000000000000000000000000000000000000000000000000000000000000000000000000000000000000000000000000000000000000000000000000000000000000000000000000000000000000000000000000000000000000000000000
310
00000000000000000000000000000000000000000000000000000000000000000000000000000000000000000000000000000000000000000000000000000000000000000000000000000000000000000000000000000000000000000000000000000000000000000000000000000000000000000000000000000000000000
310
00000000000000000000000000000000000000000000000000000000000000000000000000000000000000000000000000000000000000000000000000000000000000000000000000000000000000000000000000000000000000000000000000000000000000000000000000000000000000000000000000000000000000
310
00000000000000000000000000000000000000000000000000000000000000000000000000000000000000000000000000000000000000000000000000000000000000000000000000000000000000000000000000000000000000000000000000000000000000000000000000000000000000000000000000000000000000
310
00000000000000000000000000000000000000000000000000000000000000000000000000000000000000000000000000000000000000000000000000000000000000000000000000000000000000000000000000000000000000000000000000000000000000000000000000000000000000000000000000000000000000
310
00000000000000000000000000000000000000000000000000000000000000000000000000000000000000000000000000000000000000000000000000000000000000000000000000000000000000000000000000000000000000000000000000000000000000000000000000000000000000000000000000000000000000
310
00000000000000000000000000000000000000000000000000000000000000000000000000000000000000000000000000000000000000000000000000000000000000000000000000000000000000000000000000000000000000000000000000000000000000000000000000000000000000000000000000000000000000
310
00000000000000000000000000000000000000000000000000000000000000000000000000000000000000000000000000000000000000000000000000000000000000000000000000000000000000000000000000000000000000000000000000000000000000000000000000000000000000000000000000000000000000
310
00000000000000000000000000000000000000000000000000000000000000000000000000000000000000000000000000000000000000000000000000000000000000000000000000000000000000000000000000000000000000000000000000000000000000000000000000000000000000000000000000000000000000
310
00000000000000000000000000000000000000000000000000000000000000000000000000000000000000000000000000000000000000000000000000000000000000000000000000000000000000000000000000000000000000000000000000000000000000000000000000000000000000000000000000000000000000
310
00000000000000000000000000000000000000000000000000000000000000000000000000000000000000000000000000000000000000000000000000000000000000000000000000F5F5F5F5F5F5F5F5F5F5F5F5F5F5F5F5F5F5F5F5F5F50000000000000000000000000000000000000000000000000000000000000000
310
00000000000000000000000000000000000000000000000000000000000000000000000000000000000000000000000000000000000000000000000000000000000000000000000000000000000000000000000000000000000000000000000000000000000000000000000000000000000000000000000000000000000000
310
000000000000000000000000000000000000000000000000000000000000000000000000000000000000000000000000000000000000000000000000000000000000000000000000000000F5F5F5F5F5F5F5F5F5F5F5F5F5F5F5F5F5F5F5F5F5F5000000000000000000000000000000000000000000000000000000000000
310
00000000000000000000000000000000000000000000000000000000000000000000000000000000000000000000000000000000000000000000000000000000000000000000000000000000000000000000000000000000000000000000000000000000000000000000000000000000000000000000000000000000000000
310
0000000000000000000000000000000000000000000000000000000000000000000000000000000000000000000000000000000000000000000000000000000000000000000000000000000000F50000000000000000000000000000000000000000F500000000000000000000000000000000000000000000000000000000
310
00000000000000000000000000000000000000000000000000000000000000000000000000000000000000000000000000000000000000000000000000000000000000000000000000000000000000000000000000000000000000000000000000000000000000000000000000000000000000000000000000000000000000
310
00000000000000000000000000000000000000000000000000000000000000000000000000000000000000000000000000000000000000000000000000000000000000000000000000000000000000F5000000F5F50000000000F50000000000F5000000F50000000000000000000000000000000000000000000000000000
310
00000000000000000000000000000000000000000000000000000000000000000000000000000000000000000000000000000000000000000000000000000000000000000000000000000000000000000000000000000000000000000000000000000000000000000000000000000000000000000000000000000000000000
310
000000000000000000000000000000000000000000000000000000000000000000000000000000000000000000000000000000000000000000000000000000000000000000000000000000000000000000F5000000F5F50000000000F50000000000F5000000F5000000000000000000000000000000000000000000000000
310
00000000000000000000000000000000000000000000000000000000000000000000000000000000000000000000000000000000000000000000000000000000000000000000000000000000000000000000000000000000000000000000000000000000000000000000000000000000000000000000000000000000000000
310
0000000000000000000000000000000000000000000000000000000000000000000000000000000000000000000000000000000000000000000000000000000000000000000000000000000000000000000000F5000000F5F50000000000F50000000000F5000000F500000000000000000000000000000000000000000000
310
00000000000000000000000000000000000000000000000000000000000000000000000000000000000000000000000000000000000000000000000000000000000000000000000000000000000000000000000000000000000000000000000000000000000000000000000000000000000000000000000000000000000000
310
00000000000000000000000000000000000000000000000000000000000000000000000000000000000000000000000000000000000000000000000000000000000000000000000000000000000000000000000000F5000000F5F50000000000F50000000000F5000000F50000000000000000000000000000000000000000
310
00000000000000000000000000000000000000000000000000000000000000000000000000000000000000000000000000000000000000000000000000000000000000000000000000000000000000000000000000000000000000000000000000000000000000000000000000000000000000000000000000000000000000
310
000000000000000000000000000000000000000000000000000000000000000000000000000000000000000000000000000000000000000000000000000000000000000000000000000000000000000000000000000000F5000000F5F50000000000F50000000000F5000000F5000000000000000000000000000000000000
310
00000000000000000000000000000000000000000000000000000000000000000000000000000000000000000000000000000000000000000000000000000000000000000000000000000000000000000000000000000000000000000000000000000000000000000000000000000000000000000000000000000000000000
310
0000000000000000000000000000000000000000000000000000000000000000000000000000000000000000000000000000000000000000000000000000000000000000000000000000000000000000000000000000000000F50000000000000000000000000000000000000000F500000000000000000000000000000000
310
00000000000000000000000000000000000000000000000000000000000000000000000000000000000000000000000000000000000000000000000000000000000000000000000000000000000000000000000000000000000000000000000000000000000000000000000000000000000000000000000000000000000000
310
00000000000000000000000000000000000000000000000000000000000000000000000000000000000000000000000000000000000000000000000000000000000000000000000000000000000000000000000000000000000000F50000000000000000000000000000000000000000F50000000000000000000000000000
310
00000000000000000000000000000000000000000000000000000000000000000000000000000000000000000000000000000000000000000000000000000000000000000000000000000000000000000000000000000000000000000000000000000000000000000000000000000000000000000000000000000000000000
310
000000000000000000000000000000000000000000000000000000000000000000000000000000000000000000000000000000000000000000000000000000000000000000000000000000000000000000000000000000000000000000F50000000000000000000000000000000000000000F5000000000000000000000000
310
00000000000000000000000000000000000000000000000000000000000000000000000000000000000000000000000000000000000000000000000000000000000000000000000000000000000000000000000000000000000000000000000000000000000000000000000000000000000000000000000000000000000000
310
0000000000000000000000000000000000000000000000000000000000000000000000000000000000000000000000000000000000000000000000000000000000000000000000000000000000000000000000000000000000000000000000F50000000000000000000000000000000000000000F500000000000000000000
310
00000000000000000000000000000000000000000000000000000000000000000000000000000000000000000000000000000000000000000000000000000000000000000000000000000000000000000000000000000000000000000000000000000000000000000000000000000000000000000000000000000000000000
310
00000000000000000000000000000000000000000000000000000000000000000000000000000000000000000000000000000000000000000000000000000000000000000000000000000000000000000000000000000000000000000000000000F50000000000000000000000000000000000000000F50000000000000000
310
00000000000000000000000000000000000000000000000000000000000000000000000000000000000000000000000000000000000000000000000000000000000000000000000000000000000000000000000000000000000000000000000000000000000000000000000000000000000000000000000000000000000000
310
000000000000000000000000000000000000000000000000000000000000000000000000000000000000000000000000000000000000000000000000000000000000000000000000000000000000000000000000000000000000000000000000000000F50000000000000000000000000000000000000000F5000000000000
310
00000000000000000000000000000000000000000000000000000000000000000000000000000000000000000000000000000000000000000000000000000000000000000000000000000000000000000000000000000000000000000000000000000000000000000000000000000000000000000000000000000000000000
310
0000000000000000000000000000000000000000000000000000000000000000000000000000000000000000000000000000000000000000000000000000000000000000000000000000000000000000000000000000000000000000000000000000000000F50000000000000000000000000000000000000000F500000000
310
00000000000000000000000000000000000000000000000000000000000000000000000000000000000000000000000000000000000000000000000000000000000000000000000000000000000000000000000000000000000000000000000000000000000000000000000000000000000000000000000000000000000000
310
00000000000000000000000000000000000000000000000000000000000000000000000000000000000000000000000000000000000000000000000000000000000000000000000000000000000000000000000000000000000000000000000000000000000000F50000000000000000000000000000000000000000F50000
310
00000000000000000000000000000000000000000000000000000000000000000000000000000000000000000000000000000000000000000000000000000000000000000000000000000000000000000000000000000000000000000000000000000000000000000000000000000000000000000000000000000000000000
310
000000000000000000000000000000000000000000000000000000000000000000000000000000000000000000000000000000000000000000000000000000000000000000000000000000000000000000000000000000000000000000000000000000000000000000F50000000000000000000000000000000000000000F5
310
00000000000000000000000000000000000000000000000000000000000000000000000000000000000000000000000000000000000000000000000000000000000000000000000000000000000000000000000000000000000000000000000000000000000000000000000000000000000000000000000000000000000000
310
0000000000000000000000000000000000000000000000000000000000000000000000000000000000000000000000000000000000000000000000000000000000000000000000000000000000000000000000000000000000000000000000000000000000000000000000F500000000000000000000000000000000000000
310
00F50000000000000000000000000000000000000000000000000000000000000000000000000000000000000000000000000000000000000000000000000000000000000000000000000000000000000000000000000000000000000000000000000000000000000000000000000000000000000000000000000000000000
310
00000000000000000000000000000000000000000000000000000000000000000000000000000000000000000000000000000000000000000000000000000000000000000000000000000000000000000000000000000000000000000000000000000000000000000000000000F50000000000000000000000000000000000
310
000000F5000000000000000000000000000000000000000000000000000000000000000000000000000000000000000000000000000000000000000000000000000000000000000000000000000000000000000000000000000000000000000000000000000000000000000000000000000000000000000000000000000000
310
000000000000000000000000000000000000000000000000000000000000000000000000000000000000000000000000000000000000000000000000000000000000000000000000000000000000000000000000000000000000000000000000000000000000000000000000000000F5000000000000000000000000000000
310
0000000000F500000000000000000000000000000000000000000000000000000000000000000000000000000000000000000000000000000000000000000000000000000000000000000000000000000000000000000000000000000000000000000000000000000000000000000000000000000000000000000000000000
310
0000000000000000000000000000000000000000000000000000000000000000000000000000000000000000000000000000000000000000000000000000000000000000000000000000000000000000000000000000000000000000000000000000000000000000000000000000000000F500000000000000000000000000
310
00000000000000F50000000000000000000000000000000000000000000000000000000000000000000000000000000000000000000000000000000000000000000000000000000000000000000000000000000000000000000000000000000000000000000000000000000000000000000000000000000000000000000000
310
00000000000000000000000000000000000000000000000000000000000000000000000000000000000000000000000000000000000000000000000000000000000000000000000000000000000000000000000000000000000000000000000000000000000000000000000000000000000000F5F5F5F5F5F5F5F5F5F5F5F5
310
F5F5F5F5F5F5F5F5F5F5000000000000000000000000000000000000000000000000000000000000000000000000000000000000000000000000000000000000000000000000000000000000000000000000000000000000000000000000000000000000000000000000000000000000000000000000000000000000000000
310
00000000000000000000000000000000000000000000000000000000000000000000000000000000000000000000000000000000000000000000000000000000000000000000000000000000000000000000000000000000000000000000000000000000000000000000000000000000000000000000000000000000000000
310
00000000000000000000000000000000000000000000000000000000000000000000000000000000000000000000000000000000000000000000000000000000000000000000000000000000000000000000000000000000000000000000000000000000000000000000000000000000000000000000000000000000000000
310
00000000000000000000000000000000000000000000000000000000000000000000000000000000000000000000000000000000000000000000000000000000000000000000000000000000000000000000000000000000000000000000000000000000000000000000000000000000000000000000000000000000000000
310
00000000000000000000000000000000000000000000000000000000000000000000000000000000000000000000000000000000000000000000000000000000000000000000000000000000000000000000000000000000000000000000000000000000000000000000000000000000000000000000000000000000000000
310
00000000000000000000000000000000000000000000000000000000000000000000000000000000000000000000000000000000000000000000000000000000000000000000000000000000000000000000000000000000000000000000000000000000000000000000000000000000000000000000000000000000000000
310
00000000000000000000000000000000000000000000000000000000000000000000000000000000000000000000000000000000000000000000000000000000000000000000000000000000000000000000000000000000000000000000000000000000000000000000000000000000000000000000000000000000000000
310
00000000000000000000000000000000000000000000000000000000000000000000000000000000000000000000000000000000000000000000000000000000000000000000000000000000000000000000000000000000000000000000000000000000000000000000000000000000000000000000000000000000000000
310
00000000000000000000000000000000000000000000000000000000000000000000000000000000000000000000000000000000000000000000000000000000000000000000000000000000000000000000000000000000000000000000000000000000000000000000000000000000000000000000000000000000000000
310
00000000000000000000000000000000000000000000000000000000000000000000000000000000000000000000000000000000000000000000000000000000000000000000000000000000000000000000000000000000000000000000000000000000000000000000000000000000000000000000000000000000000000
310
00000000000000000000000000000000000000000000000000000000000000000000000000000000000000000000000000000000000000000000000000000000000000000000000000000000000000000000000000000000000000000000000000000000000000000000000000000000000000000000000000000000000000
310
00000000000000000000000000000000000000000000000000000000000000000000000000000000000000000000000000000000000000000000000000000000000000000000000000000000000000000000000000000000000000000000000000000000000000000000000000000000000000000000000000000000000000
310
00000000000000000000000000000000000000000000000000000000000000000000000000000000000000000000000000000000000000000000000000000000000000000000000000000000000000000000000000000000000000000000000000000000000000000000000000000000000000000000000000000000000000
310
00000000000000000000000000000000000000000000000000000000000000000000000000000000000000000000000000000000000000000000000000000000000000000000000000000000000000000000000000000000000000000000000000000000000000000000000000000000000000000000000000000000000000
310
00000000000000000000000000000000000000000000000000000000000000000000000000000000000000000000000000000000000000000000000000000000000000000000000000000000000000000000000000000000000000000000000000000000000000000000000000000000000000000000000000000000000000
310
00000000000000000000000000000000000000000000000000000000000000000000000000000000000000000000000000000000000000000000000000000000000000000000000000000000000000000000000000000000000000000000000000000000000000000000000000000000000000000000000000000000000000
310
00000000000000000000000000000000000000000000000000000000000000000000000000000000000000000000000000000000000000000000000000000000000000000000000000000000000000000000000000000000000000000000000000000000000000000000000000000000000000000000000000000000000000
310
00000000000000000000000000000000000000000000000000000000000000000000000000000000000000000000000000000000000000000000000000000000000000000000000000000000000000000000000000000000000000000000000000000000000000000000000000000000000000000000000000000000000000
310
00000000000000000000000000000000000000000000000000000000000000000000000000000000000000000000000000000000000000000000000000000000000000000000000000000000000000000000000000000000000000000000000000000000000000000000000000000000000000000000000000000000000000
310
000000000000000000000000000000000000000000000000000000000000000000000000000000000000000000000000000000000000000000000000000000000000000000000000000000000000000000000000
  0
XRECORD
  5
45
102
{ACAD_REACTORS
330
44
102
}
330
44
100
AcDbXrecord
280
     1
270
     1
271
     1
  0
XRECORD
  5
46
102
{ACAD_REACTORS
330
44
102
}
330
44
100
AcDbXrecord
280
     1
270
     1
271
     1
  0
XRECORD
  5
47
102
{ACAD_REACTORS
330
44
102
}
330
44
100
AcDbXrecord
280
     1
270
     1
271
     1
  0
XRECORD
  5
48
102
{ACAD_REACTORS
330
44
102
}
330
44
100
AcDbXrecord
280
     1
270
     1
271
     1
  0
XRECORD
  5
49
102
{ACAD_REACTORS
330
44
102
}
330
44
100
AcDbXrecord
280
     1
270
     1
271
     1
  0
XRECORD
  5
4A
102
{ACAD_REACTORS
330
44
102
}
330
44
100
AcDbXrecord
280
     1
270
     1
271
     1
  0
XRECORD
  5
3D
102
{ACAD_REACTORS
330
3C
102
}
330
3C
100
AcDbXrecord
280
     1
270
     1
271
     1
  0
XRECORD
  5
3E
102
{ACAD_REACTORS
330
3C
102
}
330
3C
100
AcDbXrecord
280
     1
270
     1
271
     1
  0
XRECORD
  5
3F
102
{ACAD_REACTORS
330
3C
102
}
330
3C
100
AcDbXrecord
280
     1
270
     1
271
     1
  0
XRECORD
  5
40
102
{ACAD_REACTORS
330
3C
102
}
330
3C
100
AcDbXrecord
280
     1
270
     1
271
     1
  0
XRECORD
  5
41
102
{ACAD_REACTORS
330
3C
102
}
330
3C
100
AcDbXrecord
280
     1
270
     1
271
     1
  0
XRECORD
  5
42
102
{ACAD_REACTORS
330
3C
102
}
330
3C
100
AcDbXrecord
280
     1
270
     1
271
     1
  0
XRECORD
  5
F
102
{ACAD_REACTORS
330
E
102
}
330
E
100
AcDbXrecord
280
     1
270
     1
271
     1
  0
XRECORD
  5
10
102
{ACAD_REACTORS
330
E
102
}
330
E
100
AcDbXrecord
280
     1
270
     1
271
     1
  0
XRECORD
  5
11
102
{ACAD_REACTORS
330
E
102
}
330
E
100
AcDbXrecord
280
     1
270
     1
271
     1
  0
XRECORD
  5
12
102
{ACAD_REACTORS
330
E
102
}
330
E
100
AcDbXrecord
280
     1
270
     1
271
     1
  0
XRECORD
  5
13
102
{ACAD_REACTORS
330
E
102
}
330
E
100
AcDbXrecord
280
     1
270
     1
271
     1
  0
XRECORD
  5
14
102
{ACAD_REACTORS
330
E
102
}
330
E
100
AcDbXrecord
280
     1
270
     1
271
     1
  0
CELLSTYLEMAP
  5
44B
102
{ACAD_REACTORS
330
54
102
}
330
54
100
AcDbCellStyleMap
 90
        3
300
CELLSTYLE
  1
TABLEFORMAT_BEGIN
 90
        5
170
     1
 91
        0
 92
    32768
 62
   257
 93
        1
300
CONTENTFORMAT
  1
CONTENTFORMAT_BEGIN
 90
        0
 91
        0
 92
      512
 93
        0
300

 40
0.0
140
1.0
 94
        5
 62
     0
340
24
144
0.25
309
CONTENTFORMAT_END
171
     0
 94
        0
309
TABLEFORMAT_END
  1
CELLSTYLE_BEGIN
 90
        1
 91
        1
300
_TITLE
309
CELLSTYLE_END
300
CELLSTYLE
  1
TABLEFORMAT_BEGIN
 90
        5
170
     1
 91
        0
 92
        0
 62
   257
 93
        1
300
CONTENTFORMAT
  1
CONTENTFORMAT_BEGIN
 90
        0
 91
        0
 92
      512
 93
        0
300

 40
0.0
140
1.0
 94
        5
 62
     0
340
24
144
0.18
309
CONTENTFORMAT_END
171
     0
 94
        0
309
TABLEFORMAT_END
  1
CELLSTYLE_BEGIN
 90
        2
 91
        1
300
_HEADER
309
CELLSTYLE_END
300
CELLSTYLE
  1
TABLEFORMAT_BEGIN
 90
        5
170
     1
 91
        0
 92
        0
 62
   257
 93
        1
300
CONTENTFORMAT
  1
CONTENTFORMAT_BEGIN
 90
        0
 91
        0
 92
      512
 93
        0
300

 40
0.0
140
1.0
 94
        2
 62
     0
340
24
144
0.18
309
CONTENTFORMAT_END
171
     0
 94
        0
309
TABLEFORMAT_END
  1
CELLSTYLE_BEGIN
 90
        3
 91
        2
300
_DATA
309
CELLSTYLE_END
  0
ENDSEC
  0
EOF
